0
SECTION
2
HEADER
9
$ACADVER
1
AC1015
9
$DWGCODEPAGE
3
ANSI_1252
9
$HANDSEED
5
22b
9
$ANGBASE
50
0
9
$ANGDIR
70
0
9
$ATTMODE
70
1
9
$AUNITS
70
0
9
$AUPREC
70
0
9
$CECOLOR
62
256
9
$CELTSCALE
40
1
9
$CELTYPE
6
ByLayer
9
$CELWEIGHT
370
18
9
$CLAYER
8
0
9
$CMLJUST
70
0
9
$CMLSCALE
40
1
9
$CMLSTYLE
2
Standard
9
$DIMSTYLE
2
Standard
9
$TEXTSIZE
40
0.2
9
$TEXTSTYLE
7
Standard
9
$LUNITS
70
2
9
$LUPREC
70
4
9
$EXTNAMES
290
1
9
$INSUNITS
70
4
9
$LTSCALE
40
1
9
$LWDISPLAY
290
1
9
$PDMODE
70
0
9
$PDSIZE
40
0
9
$PLINEGEN
70
0
0
ENDSEC
0
SECTION
2
CLASSES
0
CLASS
1
RASTERVARIABLES
2
AcDbRasterVariables
3
ISM
90
0
280
0
281
0
0
ENDSEC
0
SECTION
2
TABLES
0
TABLE
2
VPORT
5
221
100
AcDbSymbolTable
0
VPORT
5
1
100
AcDbSymbolTableRecord
100
AcDbViewportTableRecord
2
*Active
70
0
10
0
20
0
11
1
21
1
12
-1
22
1
13
0
23
0
14
0.5
24
0.5
15
10
25
10
16
0
26
0
36
1
17
0
27
0
37
0
0
ENDTAB
0
TABLE
2
LTYPE
5
222
100
AcDbSymbolTable
0
LTYPE
5
14
100
AcDbSymbolTableRecord
100
AcDbLinetypeTableRecord
70
0
2
ByBlock
3

72
65
73
0
40
0
0
LTYPE
5
15
100
AcDbSymbolTableRecord
100
AcDbLinetypeTableRecord
70
0
2
ByLayer
3

72
65
73
0
40
0
0
LTYPE
5
16
100
AcDbSymbolTableRecord
100
AcDbLinetypeTableRecord
70
0
2
Continuous
3
Solid line
72
65
73
0
40
0
0
LTYPE
5
6E
100
AcDbSymbolTableRecord
100
AcDbLinetypeTableRecord
70
0
2
CENTER
3
____ _ ____ _ ____ _ ____
72
65
73
4
40
47.5
49
22
74
0
49
-8.5
74
0
49
8.5
74
0
49
-8.5
74
0
0
LTYPE
5
6F
100
AcDbSymbolTableRecord
100
AcDbLinetypeTableRecord
70
0
2
DASHED
3
__ __ __ __ __ __ __ __ __
72
65
73
2
40
25.72
49
12.86
74
0
49
-12.86
74
0
0
ENDTAB
0
TABLE
2
LAYER
5
223
100
AcDbSymbolTable
0
LAYER
5
10
100
AcDbSymbolTableRecord
100
AcDbLayerTableRecord
2
0
70
0
62
7
6
Continuous
290
1
370
-3
390
0
0
LAYER
5
71
100
AcDbSymbolTableRecord
100
AcDbLayerTableRecord
2
80
70
0
62
-6
6
Continuous
290
1
370
-3
390
0
0
LAYER
5
73
100
AcDbSymbolTableRecord
100
AcDbLayerTableRecord
2
81
70
0
62
-3
6
Continuous
290
1
370
-3
390
0
0
LAYER
5
75
100
AcDbSymbolTableRecord
100
AcDbLayerTableRecord
2
1
70
0
62
4
6
Continuous
290
1
370
-3
390
0
0
LAYER
5
83
100
AcDbSymbolTableRecord
100
AcDbLayerTableRecord
2
4
70
0
62
-2
6
CENTER
290
1
370
-3
390
0
0
LAYER
5
A1
100
AcDbSymbolTableRecord
100
AcDbLayerTableRecord
2
2
70
0
62
7
6
Continuous
290
1
370
-3
390
0
0
LAYER
5
136
100
AcDbSymbolTableRecord
100
AcDbLayerTableRecord
2
Defpoints
70
0
62
7
6
Continuous
290
0
370
-3
390
0
0
LAYER
5
20d
100
AcDbSymbolTableRecord
100
AcDbLayerTableRecord
2
SK4
70
0
62
2
6
CENTER
290
1
370
-3
390
0
0
LAYER
5
20e
100
AcDbSymbolTableRecord
100
AcDbLayerTableRecord
2
SK1
70
0
62
4
6
Continuous
290
1
370
-3
390
0
0
LAYER
5
20f
100
AcDbSymbolTableRecord
100
AcDbLayerTableRecord
2
SK2
70
0
62
7
6
Continuous
290
1
370
-3
390
0
0
LAYER
5
210
100
AcDbSymbolTableRecord
100
AcDbLayerTableRecord
2
SK6
70
0
62
5
6
Continuous
290
1
370
-3
390
0
0
ENDTAB
0
TABLE
2
STYLE
5
224
100
AcDbSymbolTable
0
STYLE
5
11
100
AcDbSymbolTableRecord
100
AcDbTextStyleTableRecord
2
Standard
3
txt
70
0
71
0
40
0
41
1
42
0
50
0
0
STYLE
5
112
100
AcDbSymbolTableRecord
100
AcDbTextStyleTableRecord
2
iso_b_vert
3
simplex.shx
70
0
71
0
40
0
41
1
42
0
50
0
0
STYLE
5
113
100
AcDbSymbolTableRecord
100
AcDbTextStyleTableRecord
2
DWGDirectTextStyle
3
simplex
70
0
71
0
40
0
41
1
42
0
50
0
0
ENDTAB
0
TABLE
2
DIMSTYLE
5
225
100
AcDbSymbolTable
100
AcDbDimStyleTable
0
DIMSTYLE
105
27
100
AcDbSymbolTableRecord
100
AcDbDimStyleTableRecord
2
Standard
70
0
3
<>
41
0.18
42
0.0625
44
0.18
140
0.18
147
0.09
73
0
74
0
77
1
271
2
275
0
278
52
280
0
340
11
0
ENDTAB
0
TABLE
2
VIEW
5
226
100
AcDbSymbolTable
0
ENDTAB
0
TABLE
2
UCS
5
227
100
AcDbSymbolTable
0
ENDTAB
0
TABLE
2
APPID
5
228
100
AcDbSymbolTable
0
APPID
5
12
100
AcDbSymbolTableRecord
100
AcDbRegAppTableRecord
2
ACAD
70
0
0
APPID
5
132
100
AcDbSymbolTableRecord
100
AcDbRegAppTableRecord
2
ACAD_DSTYLE_DIMBREAK
70
0
0
APPID
5
1CC
100
AcDbSymbolTableRecord
100
AcDbRegAppTableRecord
2
ACAD_DSTYLE_DIM_LINETYPE
70
0
0
APPID
5
1CD
100
AcDbSymbolTableRecord
100
AcDbRegAppTableRecord
2
ACAD_DSTYLE_DIM_EXT1_LINETYPE
70
0
0
APPID
5
1CE
100
AcDbSymbolTableRecord
100
AcDbRegAppTableRecord
2
ACAD_DSTYLE_DIM_EXT2_LINETYPE
70
0
0
APPID
5
209
100
AcDbSymbolTableRecord
100
AcDbRegAppTableRecord
2
ACAD_MLEADERVER
70
0
0
ENDTAB
0
TABLE
2
BLOCK_RECORD
5
229
100
AcDbSymbolTable
0
BLOCK_RECORD
5
1F
100
AcDbSymbolTableRecord
100
AcDbBlockTableRecord
2
*Model_Space
340
0
70
0
0
BLOCK_RECORD
5
1B
100
AcDbSymbolTableRecord
100
AcDbBlockTableRecord
2
*Paper_Space
340
0
70
0
0
BLOCK_RECORD
5
23
100
AcDbSymbolTableRecord
100
AcDbBlockTableRecord
2
*Paper_Space0
340
0
70
0
0
BLOCK_RECORD
5
137
100
AcDbSymbolTableRecord
100
AcDbBlockTableRecord
2
*D1
340
0
70
0
0
BLOCK_RECORD
5
143
100
AcDbSymbolTableRecord
100
AcDbBlockTableRecord
2
_U0
340
0
70
0
0
BLOCK_RECORD
5
151
100
AcDbSymbolTableRecord
100
AcDbBlockTableRecord
2
*D3
340
0
70
0
0
BLOCK_RECORD
5
15D
100
AcDbSymbolTableRecord
100
AcDbBlockTableRecord
2
_U1
340
0
70
0
0
BLOCK_RECORD
5
169
100
AcDbSymbolTableRecord
100
AcDbBlockTableRecord
2
*D5
340
0
70
0
0
BLOCK_RECORD
5
175
100
AcDbSymbolTableRecord
100
AcDbBlockTableRecord
2
_U2
340
0
70
0
0
BLOCK_RECORD
5
181
100
AcDbSymbolTableRecord
100
AcDbBlockTableRecord
2
*D7
340
0
70
0
0
BLOCK_RECORD
5
18D
100
AcDbSymbolTableRecord
100
AcDbBlockTableRecord
2
_U3
340
0
70
0
0
BLOCK_RECORD
5
199
100
AcDbSymbolTableRecord
100
AcDbBlockTableRecord
2
*D9
340
0
70
0
0
BLOCK_RECORD
5
1A5
100
AcDbSymbolTableRecord
100
AcDbBlockTableRecord
2
_U4
340
0
70
0
0
ENDTAB
0
ENDSEC
0
SECTION
2
BLOCKS
0
BLOCK
5
20
100
AcDbEntity
8
0
100
AcDbBlockBegin
2
*Model_Space
70
0
10
0
20
0
30
0
3
*Model_Space
0
ENDBLK
5
21
100
AcDbEntity
8
0
100
AcDbBlockEnd
0
BLOCK
5
1C
100
AcDbEntity
8
0
100
AcDbBlockBegin
2
*Paper_Space
70
0
10
0
20
0
30
0
3
*Paper_Space
0
ENDBLK
5
1D
100
AcDbEntity
8
0
100
AcDbBlockEnd
0
BLOCK
5
24
100
AcDbEntity
8
0
100
AcDbBlockBegin
2
*Paper_Space0
70
0
10
0
20
0
30
0
3
*Paper_Space0
0
ENDBLK
5
25
100
AcDbEntity
8
0
100
AcDbBlockEnd
0
BLOCK
5
138
100
AcDbEntity
8
0
100
AcDbBlockBegin
2
*D1
70
1
10
0
20
0
30
0
3
*D1
0
LINE
5
13A
100
AcDbEntity
8
0
62
256
6
ByLayer
370
-2
48
1
60
0
100
AcDbLine
10
85
20
-9.1375
30
0
11
85
21
-27.059233
31
0
39
0
210
0
220
0
230
1
0
LINE
5
13B
100
AcDbEntity
8
0
62
256
6
ByLayer
370
-2
48
1
60
0
100
AcDbLine
10
22.3
20
-9.1375
30
0
11
22.3
21
-27.059233
31
0
39
0
210
0
220
0
230
1
0
LINE
5
13C
100
AcDbEntity
8
0
62
256
6
ByLayer
370
-2
48
1
60
0
100
AcDbLine
10
81.5
20
-25.059233
30
0
11
25.8
21
-25.059233
31
0
39
0
210
0
220
0
230
1
0
SOLID
5
13D
100
AcDbEntity
8
0
62
256
6
ByLayer
370
-1
48
1
60
0
100
AcDbTrace
10
81.5
20
-25.642566
30
0
11
81.5
21
-24.475899
31
0
12
85
22
-25.059233
32
0
13
85
23
-25.059233
33
0
39
0
210
0
220
0
230
1
0
SOLID
5
13E
100
AcDbEntity
8
0
62
256
6
ByLayer
370
-1
48
1
60
0
100
AcDbTrace
10
25.8
20
-24.475899
30
0
11
25.8
21
-25.642566
31
0
12
22.3
22
-25.059233
32
0
13
22.3
23
-25.059233
33
0
39
0
210
0
220
0
230
1
0
MTEXT
5
13F
100
AcDbEntity
8
0
62
256
6
ByLayer
370
18
48
1
60
0
100
AcDbMText
10
53.65
20
-19.059233
30
0
210
0
220
0
230
1
1
\A1;62.7
40
3
41
0
44
1
50
0
71
5
72
5
7
iso_b_vert
0
POINT
5
140
100
AcDbEntity
8
Defpoints
62
0
6
ByLayer
370
-1
48
1
60
0
100
AcDbPoint
10
85
20
-7.55
30
0
39
0
210
0
220
0
230
1
50
360
0
POINT
5
141
100
AcDbEntity
8
Defpoints
62
0
6
ByLayer
370
-1
48
1
60
0
100
AcDbPoint
10
22.3
20
-7.55
30
0
39
0
210
0
220
0
230
1
50
360
0
POINT
5
142
100
AcDbEntity
8
Defpoints
62
0
6
ByLayer
370
-1
48
1
60
0
100
AcDbPoint
10
22.3
20
-25.059233
30
0
39
0
210
0
220
0
230
1
50
360
0
ENDBLK
5
139
100
AcDbEntity
8
0
100
AcDbBlockEnd
0
BLOCK
5
14C
100
AcDbEntity
8
0
100
AcDbBlockBegin
2
_U0
70
0
10
0
20
0
30
0
3
_U0
0
MTEXT
5
144
100
AcDbEntity
8
SK2
62
256
6
ByLayer
370
18
48
1
60
0
100
AcDbMText
10
50.288544
20
-22.861618
30
0
210
0
220
0
230
1
1
\W0.7346;62.7
40
3
41
0
44
1.084337
50
0
71
7
72
5
7
iso_b_vert
0
MTEXT
5
145
100
AcDbEntity
8
SK2
62
256
6
ByLayer
370
18
48
1
60
0
100
AcDbMText
10
48.188544
20
-22.861618
30
0
210
0
220
0
230
1
1
\W1.1313;{\H1.88x;(}
40
3
41
0
44
1.084337
50
0
71
7
72
5
7
iso_b_vert
0
MTEXT
5
146
100
AcDbEntity
8
SK2
62
256
6
ByLayer
370
18
48
1
60
0
100
AcDbMText
10
57.329456
20
-22.861618
30
0
210
0
220
0
230
1
1
\W1.1313;{\H1.88x;)}
40
3
41
0
44
1.084337
50
0
71
7
72
5
7
iso_b_vert
0
LINE
5
147
100
AcDbEntity
8
SK2
62
256
6
ByLayer
370
13
48
1
60
0
100
AcDbLine
10
85
20
-9.1375
30
0
11
85
21
-27.059233
31
0
39
0
210
0
220
0
230
1
0
LINE
5
148
100
AcDbEntity
8
SK2
62
256
6
ByLayer
370
13
48
1
60
0
100
AcDbLine
10
22.3
20
-9.1375
30
0
11
22.3
21
-27.059233
31
0
39
0
210
0
220
0
230
1
0
LINE
5
149
100
AcDbEntity
8
SK2
62
256
6
ByLayer
370
13
48
1
60
0
100
AcDbLine
10
85
20
-25.059233
30
0
11
22.3
21
-25.059233
31
0
39
0
210
0
220
0
230
1
0
SOLID
5
14A
100
AcDbEntity
8
SK2
62
256
6
ByLayer
370
18
48
1
60
0
100
AcDbTrace
10
85
20
-25.059233
30
0
11
81.500002
21
-25.520016
31
0
12
81.499998
22
-24.598449
32
0
13
81.499998
23
-24.598449
33
0
39
0
210
0
220
0
230
1
0
SOLID
5
14B
100
AcDbEntity
8
SK2
62
256
6
ByLayer
370
18
48
1
60
0
100
AcDbTrace
10
22.3
20
-25.059233
30
0
11
25.799998
21
-24.598449
31
0
12
25.800002
22
-25.520016
32
0
13
25.800002
23
-25.520016
33
0
39
0
210
0
220
0
230
1
0
ENDBLK
5
14D
100
AcDbEntity
8
0
100
AcDbBlockEnd
0
BLOCK
5
152
100
AcDbEntity
8
0
100
AcDbBlockBegin
2
*D3
70
1
10
0
20
0
30
0
3
*D3
0
LINE
5
154
100
AcDbEntity
8
0
62
256
6
ByLayer
370
-2
48
1
60
0
100
AcDbLine
10
85
20
-9.1375
30
0
11
85
21
-37.059233
31
0
39
0
210
0
220
0
230
1
0
LINE
5
155
100
AcDbEntity
8
0
62
256
6
ByLayer
370
-2
48
1
60
0
100
AcDbLine
10
2
20
-9.1375
30
0
11
2
21
-37.059233
31
0
39
0
210
0
220
0
230
1
0
LINE
5
156
100
AcDbEntity
8
0
62
256
6
ByLayer
370
-2
48
1
60
0
100
AcDbLine
10
81.5
20
-35.059233
30
0
11
5.5
21
-35.059233
31
0
39
0
210
0
220
0
230
1
0
SOLID
5
157
100
AcDbEntity
8
0
62
256
6
ByLayer
370
-1
48
1
60
0
100
AcDbTrace
10
81.5
20
-35.642566
30
0
11
81.5
21
-34.475899
31
0
12
85
22
-35.059233
32
0
13
85
23
-35.059233
33
0
39
0
210
0
220
0
230
1
0
SOLID
5
158
100
AcDbEntity
8
0
62
256
6
ByLayer
370
-1
48
1
60
0
100
AcDbTrace
10
5.5
20
-34.475899
30
0
11
5.5
21
-35.642566
31
0
12
2
22
-35.059233
32
0
13
2
23
-35.059233
33
0
39
0
210
0
220
0
230
1
0
MTEXT
5
159
100
AcDbEntity
8
0
62
256
6
ByLayer
370
18
48
1
60
0
100
AcDbMText
10
43.5
20
-29.059233
30
0
210
0
220
0
230
1
1
\A1;83
40
3
41
0
44
1
50
0
71
5
72
5
7
iso_b_vert
0
POINT
5
15A
100
AcDbEntity
8
Defpoints
62
0
6
ByLayer
370
-1
48
1
60
0
100
AcDbPoint
10
85
20
-7.55
30
0
39
0
210
0
220
0
230
1
50
360
0
POINT
5
15B
100
AcDbEntity
8
Defpoints
62
0
6
ByLayer
370
-1
48
1
60
0
100
AcDbPoint
10
2
20
-7.55
30
0
39
0
210
0
220
0
230
1
50
360
0
POINT
5
15C
100
AcDbEntity
8
Defpoints
62
0
6
ByLayer
370
-1
48
1
60
0
100
AcDbPoint
10
2
20
-35.059233
30
0
39
0
210
0
220
0
230
1
50
360
0
ENDBLK
5
153
100
AcDbEntity
8
0
100
AcDbBlockEnd
0
BLOCK
5
164
100
AcDbEntity
8
0
100
AcDbBlockBegin
2
_U1
70
0
10
0
20
0
30
0
3
_U1
0
MTEXT
5
15E
100
AcDbEntity
8
SK2
62
256
6
ByLayer
370
18
48
1
60
0
100
AcDbMText
10
41.867172
20
-34.174118
30
0
210
0
220
0
230
1
1
\W0.6740;83
40
3
41
0
44
1.084337
50
0
71
7
72
5
7
iso_b_vert
0
LINE
5
15F
100
AcDbEntity
8
SK2
62
256
6
ByLayer
370
13
48
1
60
0
100
AcDbLine
10
85
20
-9.1375
30
0
11
85
21
-37.059233
31
0
39
0
210
0
220
0
230
1
0
LINE
5
160
100
AcDbEntity
8
SK2
62
256
6
ByLayer
370
13
48
1
60
0
100
AcDbLine
10
2
20
-9.1375
30
0
11
2
21
-37.059233
31
0
39
0
210
0
220
0
230
1
0
LINE
5
161
100
AcDbEntity
8
SK2
62
256
6
ByLayer
370
13
48
1
60
0
100
AcDbLine
10
85
20
-35.059233
30
0
11
2
21
-35.059233
31
0
39
0
210
0
220
0
230
1
0
SOLID
5
162
100
AcDbEntity
8
SK2
62
256
6
ByLayer
370
18
48
1
60
0
100
AcDbTrace
10
85
20
-35.059233
30
0
11
81.500002
21
-35.520016
31
0
12
81.499998
22
-34.598449
32
0
13
81.499998
23
-34.598449
33
0
39
0
210
0
220
0
230
1
0
SOLID
5
163
100
AcDbEntity
8
SK2
62
256
6
ByLayer
370
18
48
1
60
0
100
AcDbTrace
10
2
20
-35.059233
30
0
11
5.499998
21
-34.598449
31
0
12
5.500002
22
-35.520016
32
0
13
5.500002
23
-35.520016
33
0
39
0
210
0
220
0
230
1
0
ENDBLK
5
165
100
AcDbEntity
8
0
100
AcDbBlockEnd
0
BLOCK
5
16A
100
AcDbEntity
8
0
100
AcDbBlockBegin
2
*D5
70
1
10
0
20
0
30
0
3
*D5
0
LINE
5
16C
100
AcDbEntity
8
0
62
256
6
ByLayer
370
-2
48
1
60
0
100
AcDbLine
10
-48
20
-9.5875
30
0
11
-48
21
-45.059233
31
0
39
0
210
0
220
0
230
1
0
LINE
5
16D
100
AcDbEntity
8
0
62
256
6
ByLayer
370
-2
48
1
60
0
100
AcDbLine
10
0
20
-9.5875
30
0
11
0
21
-45.059233
31
0
39
0
210
0
220
0
230
1
0
LINE
5
16E
100
AcDbEntity
8
0
62
256
6
ByLayer
370
-2
48
1
60
0
100
AcDbLine
10
-44.5
20
-43.059233
30
0
11
-3.5
21
-43.059233
31
0
39
0
210
0
220
0
230
1
0
SOLID
5
16F
100
AcDbEntity
8
0
62
256
6
ByLayer
370
-1
48
1
60
0
100
AcDbTrace
10
-44.5
20
-42.475899
30
0
11
-44.5
21
-43.642566
31
0
12
-48
22
-43.059233
32
0
13
-48
23
-43.059233
33
0
39
0
210
0
220
0
230
1
0
SOLID
5
170
100
AcDbEntity
8
0
62
256
6
ByLayer
370
-1
48
1
60
0
100
AcDbTrace
10
-3.5
20
-43.642566
30
0
11
-3.5
21
-42.475899
31
0
12
0
22
-43.059233
32
0
13
0
23
-43.059233
33
0
39
0
210
0
220
0
230
1
0
MTEXT
5
171
100
AcDbEntity
8
0
62
256
6
ByLayer
370
18
48
1
60
0
100
AcDbMText
10
-24
20
-37.059233
30
0
210
0
220
0
230
1
1
\A1;48
40
3
41
0
44
1
50
0
71
5
72
5
7
iso_b_vert
0
POINT
5
172
100
AcDbEntity
8
Defpoints
62
0
6
ByLayer
370
-1
48
1
60
0
100
AcDbPoint
10
-48
20
-8
30
0
39
0
210
0
220
0
230
1
50
360
0
POINT
5
173
100
AcDbEntity
8
Defpoints
62
0
6
ByLayer
370
-1
48
1
60
0
100
AcDbPoint
10
0
20
-8
30
0
39
0
210
0
220
0
230
1
50
360
0
POINT
5
174
100
AcDbEntity
8
Defpoints
62
0
6
ByLayer
370
-1
48
1
60
0
100
AcDbPoint
10
0
20
-43.059233
30
0
39
0
210
0
220
0
230
1
50
360
0
ENDBLK
5
16B
100
AcDbEntity
8
0
100
AcDbBlockEnd
0
BLOCK
5
17C
100
AcDbEntity
8
0
100
AcDbBlockBegin
2
_U2
70
0
10
0
20
0
30
0
3
_U2
0
MTEXT
5
176
100
AcDbEntity
8
SK2
62
256
6
ByLayer
370
18
48
1
60
0
100
AcDbMText
10
-25.790771
20
-42.174118
30
0
210
0
220
0
230
1
1
\W0.7361;48
40
3
41
0
44
1.084337
50
0
71
7
72
5
7
iso_b_vert
0
LINE
5
177
100
AcDbEntity
8
SK2
62
256
6
ByLayer
370
13
48
1
60
0
100
AcDbLine
10
-48
20
-9.5875
30
0
11
-48
21
-45.059233
31
0
39
0
210
0
220
0
230
1
0
LINE
5
178
100
AcDbEntity
8
SK2
62
256
6
ByLayer
370
13
48
1
60
0
100
AcDbLine
10
0
20
-9.5875
30
0
11
0
21
-45.059233
31
0
39
0
210
0
220
0
230
1
0
LINE
5
179
100
AcDbEntity
8
SK2
62
256
6
ByLayer
370
13
48
1
60
0
100
AcDbLine
10
-48
20
-43.059233
30
0
11
0
21
-43.059233
31
0
39
0
210
0
220
0
230
1
0
SOLID
5
17A
100
AcDbEntity
8
SK2
62
256
6
ByLayer
370
18
48
1
60
0
100
AcDbTrace
10
-48
20
-43.059233
30
0
11
-44.500002
21
-42.598449
31
0
12
-44.499998
22
-43.520016
32
0
13
-44.499998
23
-43.520016
33
0
39
0
210
0
220
0
230
1
0
SOLID
5
17B
100
AcDbEntity
8
SK2
62
256
6
ByLayer
370
18
48
1
60
0
100
AcDbTrace
10
0
20
-43.059233
30
0
11
-3.499998
21
-43.520016
31
0
12
-3.500002
22
-42.598449
32
0
13
-3.500002
23
-42.598449
33
0
39
0
210
0
220
0
230
1
0
ENDBLK
5
17D
100
AcDbEntity
8
0
100
AcDbBlockEnd
0
BLOCK
5
182
100
AcDbEntity
8
0
100
AcDbBlockBegin
2
*D7
70
1
10
0
20
0
30
0
3
*D7
0
LINE
5
184
100
AcDbEntity
8
0
62
256
6
ByLayer
370
-2
48
1
60
0
100
AcDbLine
10
-48
20
-9.5875
30
0
11
-48
21
-53.059233
31
0
39
0
210
0
220
0
230
1
0
LINE
5
185
100
AcDbEntity
8
0
62
256
6
ByLayer
370
-2
48
1
60
0
100
AcDbLine
10
85
20
-9.1375
30
0
11
85
21
-53.059233
31
0
39
0
210
0
220
0
230
1
0
LINE
5
186
100
AcDbEntity
8
0
62
256
6
ByLayer
370
-2
48
1
60
0
100
AcDbLine
10
-44.5
20
-51.059233
30
0
11
81.5
21
-51.059233
31
0
39
0
210
0
220
0
230
1
0
SOLID
5
187
100
AcDbEntity
8
0
62
256
6
ByLayer
370
-1
48
1
60
0
100
AcDbTrace
10
-44.5
20
-50.475899
30
0
11
-44.5
21
-51.642566
31
0
12
-48
22
-51.059233
32
0
13
-48
23
-51.059233
33
0
39
0
210
0
220
0
230
1
0
SOLID
5
188
100
AcDbEntity
8
0
62
256
6
ByLayer
370
-1
48
1
60
0
100
AcDbTrace
10
81.5
20
-51.642566
30
0
11
81.5
21
-50.475899
31
0
12
85
22
-51.059233
32
0
13
85
23
-51.059233
33
0
39
0
210
0
220
0
230
1
0
MTEXT
5
189
100
AcDbEntity
8
0
62
256
6
ByLayer
370
18
48
1
60
0
100
AcDbMText
10
18.5
20
-45.059233
30
0
210
0
220
0
230
1
1
\A1;133
40
3
41
0
44
1
50
0
71
5
72
5
7
iso_b_vert
0
POINT
5
18A
100
AcDbEntity
8
Defpoints
62
0
6
ByLayer
370
-1
48
1
60
0
100
AcDbPoint
10
-48
20
-8
30
0
39
0
210
0
220
0
230
1
50
360
0
POINT
5
18B
100
AcDbEntity
8
Defpoints
62
0
6
ByLayer
370
-1
48
1
60
0
100
AcDbPoint
10
85
20
-7.55
30
0
39
0
210
0
220
0
230
1
50
360
0
POINT
5
18C
100
AcDbEntity
8
Defpoints
62
0
6
ByLayer
370
-1
48
1
60
0
100
AcDbPoint
10
85
20
-51.059233
30
0
39
0
210
0
220
0
230
1
50
360
0
ENDBLK
5
183
100
AcDbEntity
8
0
100
AcDbBlockEnd
0
BLOCK
5
194
100
AcDbEntity
8
0
100
AcDbBlockBegin
2
_U3
70
0
10
0
20
0
30
0
3
_U3
0
MTEXT
5
18E
100
AcDbEntity
8
SK2
62
256
6
ByLayer
370
18
48
1
60
0
100
AcDbMText
10
16.121201
20
-50.174118
30
0
210
0
220
0
230
1
1
\W0.6217;133
40
3
41
0
44
1.084337
50
0
71
7
72
5
7
iso_b_vert
0
LINE
5
18F
100
AcDbEntity
8
SK2
62
256
6
ByLayer
370
13
48
1
60
0
100
AcDbLine
10
-48
20
-9.5875
30
0
11
-48
21
-53.059233
31
0
39
0
210
0
220
0
230
1
0
LINE
5
190
100
AcDbEntity
8
SK2
62
256
6
ByLayer
370
13
48
1
60
0
100
AcDbLine
10
85
20
-9.1375
30
0
11
85
21
-53.059233
31
0
39
0
210
0
220
0
230
1
0
LINE
5
191
100
AcDbEntity
8
SK2
62
256
6
ByLayer
370
13
48
1
60
0
100
AcDbLine
10
-48
20
-51.059233
30
0
11
85
21
-51.059233
31
0
39
0
210
0
220
0
230
1
0
SOLID
5
192
100
AcDbEntity
8
SK2
62
256
6
ByLayer
370
18
48
1
60
0
100
AcDbTrace
10
-48
20
-51.059233
30
0
11
-44.500002
21
-50.598449
31
0
12
-44.499998
22
-51.520016
32
0
13
-44.499998
23
-51.520016
33
0
39
0
210
0
220
0
230
1
0
SOLID
5
193
100
AcDbEntity
8
SK2
62
256
6
ByLayer
370
18
48
1
60
0
100
AcDbTrace
10
85
20
-51.059233
30
0
11
81.500002
21
-51.520016
31
0
12
81.499998
22
-50.598449
32
0
13
81.499998
23
-50.598449
33
0
39
0
210
0
220
0
230
1
0
ENDBLK
5
195
100
AcDbEntity
8
0
100
AcDbBlockEnd
0
BLOCK
5
19A
100
AcDbEntity
8
0
100
AcDbBlockBegin
2
*D9
70
1
10
0
20
0
30
0
3
*D9
0
LINE
5
19C
100
AcDbEntity
8
0
62
256
6
ByLayer
370
-2
48
1
60
0
100
AcDbLine
10
85
20
-9.1375
30
0
11
85
21
-45.059233
31
0
39
0
210
0
220
0
230
1
0
LINE
5
19D
100
AcDbEntity
8
0
62
256
6
ByLayer
370
-2
48
1
60
0
100
AcDbLine
10
0
20
-9.1375
30
0
11
0
21
-45.059233
31
0
39
0
210
0
220
0
230
1
0
LINE
5
19E
100
AcDbEntity
8
0
62
256
6
ByLayer
370
-2
48
1
60
0
100
AcDbLine
10
81.5
20
-43.059233
30
0
11
3.5
21
-43.059233
31
0
39
0
210
0
220
0
230
1
0
SOLID
5
19F
100
AcDbEntity
8
0
62
256
6
ByLayer
370
-1
48
1
60
0
100
AcDbTrace
10
81.5
20
-43.642566
30
0
11
81.5
21
-42.475899
31
0
12
85
22
-43.059233
32
0
13
85
23
-43.059233
33
0
39
0
210
0
220
0
230
1
0
SOLID
5
1A0
100
AcDbEntity
8
0
62
256
6
ByLayer
370
-1
48
1
60
0
100
AcDbTrace
10
3.5
20
-42.475899
30
0
11
3.5
21
-43.642566
31
0
12
0
22
-43.059233
32
0
13
0
23
-43.059233
33
0
39
0
210
0
220
0
230
1
0
MTEXT
5
1A1
100
AcDbEntity
8
0
62
256
6
ByLayer
370
18
48
1
60
0
100
AcDbMText
10
42.5
20
-37.059233
30
0
210
0
220
0
230
1
1
\A1;85
40
3
41
0
44
1
50
0
71
5
72
5
7
iso_b_vert
0
POINT
5
1A2
100
AcDbEntity
8
Defpoints
62
0
6
ByLayer
370
-1
48
1
60
0
100
AcDbPoint
10
85
20
-7.55
30
0
39
0
210
0
220
0
230
1
50
360
0
POINT
5
1A3
100
AcDbEntity
8
Defpoints
62
0
6
ByLayer
370
-1
48
1
60
0
100
AcDbPoint
10
0
20
-7.55
30
0
39
0
210
0
220
0
230
1
50
360
0
POINT
5
1A4
100
AcDbEntity
8
Defpoints
62
0
6
ByLayer
370
-1
48
1
60
0
100
AcDbPoint
10
0
20
-43.059233
30
0
39
0
210
0
220
0
230
1
50
360
0
ENDBLK
5
19B
100
AcDbEntity
8
0
100
AcDbBlockEnd
0
BLOCK
5
1AC
100
AcDbEntity
8
0
100
AcDbBlockBegin
2
_U4
70
0
10
0
20
0
30
0
3
_U4
0
MTEXT
5
1A6
100
AcDbEntity
8
2
62
256
6
ByLayer
370
18
48
1
60
0
100
AcDbMText
10
40.867172
20
-42.174118
30
0
210
0
220
0
230
1
1
\W0.6740;85
40
3
41
0
44
1.084337
50
0
71
7
72
5
7
iso_b_vert
0
LINE
5
1A7
100
AcDbEntity
8
2
62
256
6
ByLayer
370
13
48
1
60
0
100
AcDbLine
10
85
20
-9.1375
30
0
11
85
21
-45.059233
31
0
39
0
210
0
220
0
230
1
0
LINE
5
1A8
100
AcDbEntity
8
2
62
256
6
ByLayer
370
13
48
1
60
0
100
AcDbLine
10
0
20
-9.1375
30
0
11
0
21
-45.059233
31
0
39
0
210
0
220
0
230
1
0
LINE
5
1A9
100
AcDbEntity
8
2
62
256
6
ByLayer
370
13
48
1
60
0
100
AcDbLine
10
85
20
-43.059233
30
0
11
0
21
-43.059233
31
0
39
0
210
0
220
0
230
1
0
SOLID
5
1AA
100
AcDbEntity
8
2
62
256
6
ByLayer
370
18
48
1
60
0
100
AcDbTrace
10
85
20
-43.059233
30
0
11
81.500002
21
-43.520016
31
0
12
81.499998
22
-42.598449
32
0
13
81.499998
23
-42.598449
33
0
39
0
210
0
220
0
230
1
0
SOLID
5
1AB
100
AcDbEntity
8
2
62
256
6
ByLayer
370
18
48
1
60
0
100
AcDbTrace
10
0
20
-43.059233
30
0
11
3.499998
21
-42.598449
31
0
12
3.500002
22
-43.520016
32
0
13
3.500002
23
-43.520016
33
0
39
0
210
0
220
0
230
1
0
ENDBLK
5
1AD
100
AcDbEntity
8
0
100
AcDbBlockEnd
0
ENDSEC
0
SECTION
2
ENTITIES
0
ARC
5
BC
100
AcDbEntity
8
1
62
256
6
ByLayer
370
18
48
1
60
0
100
AcDbCircle
39
0
10
1.245638
20
-8.204184
30
0
40
0.800000000000002
210
0
220
0
230
1
100
AcDbArc
50
89.896868
51
141.125602
0
ARC
5
BD
100
AcDbEntity
8
1
62
256
6
ByLayer
370
18
48
1
60
0
100
AcDbCircle
39
0
10
1.245638
20
8.204184
30
0
40
0.800000000000002
210
0
220
0
230
1
100
AcDbArc
50
218.874398
51
270.103132
0
ARC
5
BE
100
AcDbEntity
8
1
62
256
6
ByLayer
370
18
48
1
60
0
100
AcDbCircle
39
0
10
0
20
-7.2
30
0
40
0.799999999999997
210
0
220
0
230
1
100
AcDbArc
50
270
51
321.125602
0
ARC
5
BF
100
AcDbEntity
8
1
62
256
6
ByLayer
370
18
48
1
60
0
100
AcDbCircle
39
0
10
0
20
7.2
30
0
40
0.799999999999997
210
0
220
0
230
1
100
AcDbArc
50
38.874398
51
90
0
ARC
5
C0
100
AcDbEntity
8
SK2
62
256
6
ByLayer
370
13
48
1
60
0
100
AcDbCircle
39
0
10
85
20
0
30
0
40
24.3371607268165
210
0
220
0
230
1
100
AcDbArc
50
7.080762
51
69.999834
0
ARC
5
C1
100
AcDbEntity
8
SK2
62
256
6
ByLayer
370
13
48
1
60
0
100
AcDbCircle
39
0
10
85
20
0
30
0
40
24.3371607268165
210
0
220
0
230
1
100
AcDbArc
50
290.000166
51
352.919238
0
ELLIPSE
5
C2
100
AcDbEntity
8
1
62
256
6
ByLayer
370
13
48
1
60
0
100
AcDbEllipse
10
22.400422
20
6.403127
30
0
11
-1.96014286484941E-05
21
0.00999998078918129
31
0
210
0
220
0
230
1
40
0.005919
41
-2.67604572434516
42
-1.10512132456355
0
ELLIPSE
5
C3
100
AcDbEntity
8
1
62
256
6
ByLayer
370
13
48
1
60
0
100
AcDbEllipse
10
22.358665
20
-1.930497
30
0
11
0.00337479882986885
21
0.00941332740628498
31
0
210
0
220
0
230
1
40
0.514505
41
1.50088452293616
42
2.85787293290603
0
ELLIPSE
5
C4
100
AcDbEntity
8
1
62
256
6
ByLayer
370
13
48
1
60
0
100
AcDbEllipse
10
22.40022
20
-1.948448
30
0
11
-0.00445656691054754
21
-0.00895203950906233
31
0
210
0
220
0
230
1
40
0.122989
41
-1.81770885929941
42
-0.2470525457555
0
ELLIPSE
5
C5
100
AcDbEntity
8
1
62
256
6
ByLayer
370
18
48
1
60
0
100
AcDbEllipse
10
22.441513
20
6.398732
30
0
11
-0.00224162881633943
21
-0.00974551693086399
31
0
210
0
220
0
230
1
40
0.413325
41
0.517121667127524
42
2.08481056161216
0
POINT
5
70
100
AcDbEntity
8
80
62
256
6
ByLayer
370
18
48
1
60
0
100
AcDbPoint
10
0
20
0
30
0
39
0
210
0
220
0
230
1
50
360
0
POINT
5
72
100
AcDbEntity
8
81
62
256
6
ByLayer
370
18
48
1
60
0
100
AcDbPoint
10
85
20
0
30
0
39
0
210
0
220
0
230
1
50
360
0
POINT
5
74
100
AcDbEntity
8
1
62
256
6
ByLayer
370
18
48
1
60
0
100
AcDbPoint
10
-197.50642
20
-200
30
0
39
0
210
0
220
0
230
1
50
360
0
POINT
5
76
100
AcDbEntity
8
1
62
256
6
ByLayer
370
13
48
1
60
1
100
AcDbPoint
10
-49.5
20
0
30
0
39
0
210
0
220
0
230
1
50
360
0
POINT
5
77
100
AcDbEntity
8
1
62
256
6
ByLayer
370
13
48
1
60
1
100
AcDbPoint
10
83.739098
20
0
30
0
39
0
210
0
220
0
230
1
50
360
0
POINT
5
78
100
AcDbEntity
8
1
62
256
6
ByLayer
370
18
48
1
60
1
100
AcDbPoint
10
85
20
-7.55
30
0
39
0
210
0
220
0
230
1
50
360
0
POINT
5
79
100
AcDbEntity
8
1
62
256
6
ByLayer
370
18
48
1
60
1
100
AcDbPoint
10
22.3
20
-7.55
30
0
39
0
210
0
220
0
230
1
50
360
0
POINT
5
7A
100
AcDbEntity
8
1
62
256
6
ByLayer
370
18
48
1
60
1
100
AcDbPoint
10
85
20
-7.55
30
0
39
0
210
0
220
0
230
1
50
360
0
POINT
5
7B
100
AcDbEntity
8
1
62
256
6
ByLayer
370
18
48
1
60
1
100
AcDbPoint
10
2
20
-7.55
30
0
39
0
210
0
220
0
230
1
50
360
0
POINT
5
7C
100
AcDbEntity
8
1
62
256
6
ByLayer
370
18
48
1
60
1
100
AcDbPoint
10
-48
20
-8
30
0
39
0
210
0
220
0
230
1
50
360
0
POINT
5
7D
100
AcDbEntity
8
1
62
256
6
ByLayer
370
18
48
1
60
1
100
AcDbPoint
10
0
20
-8
30
0
39
0
210
0
220
0
230
1
50
360
0
POINT
5
7E
100
AcDbEntity
8
1
62
256
6
ByLayer
370
18
48
1
60
1
100
AcDbPoint
10
-48
20
-8
30
0
39
0
210
0
220
0
230
1
50
360
0
POINT
5
7F
100
AcDbEntity
8
1
62
256
6
ByLayer
370
18
48
1
60
1
100
AcDbPoint
10
85
20
-7.55
30
0
39
0
210
0
220
0
230
1
50
360
0
POINT
5
80
100
AcDbEntity
8
1
62
256
6
ByLayer
370
18
48
1
60
1
100
AcDbPoint
10
85
20
-7.55
30
0
39
0
210
0
220
0
230
1
50
360
0
POINT
5
81
100
AcDbEntity
8
1
62
256
6
ByLayer
370
18
48
1
60
1
100
AcDbPoint
10
0
20
-7.55
30
0
39
0
210
0
220
0
230
1
50
360
0
SPLINE
5
C6
100
AcDbEntity
8
1
62
256
6
ByLayer
370
18
48
1
60
0
100
AcDbSpline
70
4
71
3
72
8
73
4
40
0
40
0
40
0
40
0
40
1
40
1
40
1
40
1
41
1
10
84.2604552105858
20
2.3927189404211
30
0
41
1
10
84.452929637575
20
1.85381538038121
30
0
41
1
10
84.6438502108397
20
1.31436571067769
30
0
41
1
10
84.8331865500623
20
0.774359253995954
30
0
0
SPLINE
5
C7
100
AcDbEntity
8
1
62
256
6
ByLayer
370
18
48
1
60
0
100
AcDbSpline
70
4
71
3
72
8
73
4
40
0
40
0
40
0
40
0
40
1
40
1
40
1
40
1
41
1
10
84.8331865500624
20
0.774359253995954
30
0
41
1
10
84.8867578442203
20
0.621568485689721
30
0
41
1
10
84.9413847101031
20
0.469364501769746
30
0
41
1
10
84.9970648330377
20
0.317726404359405
30
0
0
SPLINE
5
C8
100
AcDbEntity
8
1
62
256
6
ByLayer
370
18
48
1
60
0
100
AcDbSpline
70
4
71
3
72
24
73
20
40
0
40
0
40
0
40
0
40
0.124999999999991
40
0.124999999999991
40
0.187499999999987
40
0.187499999999987
40
0.249999999999983
40
0.249999999999983
40
0.312499999999979
40
0.312499999999979
40
0.374999999999975
40
0.374999999999975
40
0.49999999999997
40
0.49999999999997
40
0.749999999999959
40
0.749999999999959
40
0.874999999999979
40
0.874999999999979
40
1
40
1
40
1
40
1
41
1
10
22.4004664637627
20
6.40761690610955
30
0
41
1
10
22.3926470094928
20
6.40760465947892
30
0
41
1
10
22.3850380736606
20
6.40791407704037
30
0
41
1
10
22.3739154280418
20
6.40882168472817
30
0
41
1
10
22.3702658487983
20
6.40919966873591
30
0
41
1
10
22.3632795964032
20
6.41007332274347
30
0
41
1
10
22.3599127505235
20
6.41057121979188
30
0
41
1
10
22.3534121736514
20
6.41167938719198
30
0
41
1
10
22.3502630351711
20
6.4122936859689
30
0
41
1
10
22.3443179492122
20
6.41359890799413
30
0
41
1
10
22.3415077836562
20
6.41429145620609
30
0
41
1
10
22.333512129879
20
6.41647546791418
30
0
41
1
10
22.3287283667495
20
6.41808442221401
30
0
41
1
10
22.3161065633348
20
6.42319743546329
30
0
41
1
10
22.3101156665218
20
6.42688255556462
30
0
41
1
10
22.3040169339093
20
6.43272821583605
30
0
41
1
10
22.3025225289626
20
6.43469242872001
30
0
41
1
10
22.3005262322839
20
6.43864824664337
30
0
41
1
10
22.3000255929535
20
6.44065413353144
30
0
41
1
10
22.3000255929535
20
6.4426408871486
30
0
0
SPLINE
5
C9
100
AcDbEntity
8
1
62
256
6
ByLayer
370
13
48
1
60
0
100
AcDbSpline
70
4
71
3
72
10
73
6
40
0
40
0
40
0
40
0
40
0.5
40
0.5
40
1
40
1
40
1
40
1
41
1
10
22.4461226642915
20
6.40271636649706
30
0
41
1
10
22.4390509372178
20
6.40434527010541
30
0
41
1
10
22.4316882461371
20
6.40556282315896
30
0
41
1
10
22.4164014912498
20
6.40720857125316
30
0
41
1
10
22.4084352586834
20
6.40762938663369
30
0
41
1
10
22.4004664637627
20
6.40761690610955
30
0
0
SPLINE
5
CA
100
AcDbEntity
8
1
62
256
6
ByLayer
370
18
48
1
60
0
100
AcDbSpline
70
4
71
3
72
23
73
19
40
0
40
0
40
0
40
0
40
0.500000000000001
40
0.750000000000046
40
0.750000000000046
40
0.875000000000069
40
0.875000000000069
40
0.937500000000082
40
0.937500000000082
40
0.968750000000089
40
0.968750000000089
40
0.984375000000095
40
0.984375000000095
40
0.992187500000047
40
0.992187500000047
40
0.996093750000024
40
0.996093750000024
40
1
40
1
40
1
40
1
41
1
10
82.1283709595439
20
7.54961333619502
30
0
41
1
10
82.1603786786533
20
7.4975670830417
30
0
41
1
10
82.2084146319789
20
7.41919809864834
30
0
41
1
10
82.2564864488558
20
7.34038570627024
30
0
41
1
10
82.280528013571
20
7.30090654838415
30
0
41
1
10
82.2885346612846
20
7.28775214609763
30
0
41
1
10
82.3005832835836
20
7.26792247339355
30
0
41
1
10
82.3046153346554
20
7.2612762815194
30
0
41
1
10
82.3106002638085
20
7.25143808719631
30
0
41
1
10
82.3125716747526
20
7.24820789338673
30
0
41
1
10
82.3155461116009
20
7.24332480849498
30
0
41
1
10
82.3165435642268
20
7.24168461972292
30
0
41
1
10
82.3180786847992
20
7.23913966150414
30
0
41
1
10
82.3185963951748
20
7.23827789906133
30
0
41
1
10
82.3193796593716
20
7.23696973001867
30
0
41
1
10
82.3196414549781
20
7.2365321134497
30
0
41
1
10
82.3201546010201
20
7.23568048550695
30
0
41
1
10
82.3204178657992
20
7.23524436875451
30
0
41
1
10
82.320618074753
20
7.23493182484634
30
0
0
SPLINE
5
CB
100
AcDbEntity
8
1
62
256
6
ByLayer
370
18
48
1
60
0
100
AcDbSpline
70
4
71
3
72
18
73
14
40
0
40
0
40
0
40
0
40
0.249999999999953
40
0.249999999999953
40
0.374999999999929
40
0.374999999999929
40
0.499999999999905
40
0.499999999999905
40
0.749999999999974
40
0.749999999999974
40
0.874999999999987
40
0.874999999999987
40
1
40
1
40
1
40
1
41
1
10
22.3540693023064
20
-1.93904793032937
30
0
41
1
10
22.3446651116985
20
-1.9355450606881
30
0
41
1
10
22.3367224175809
20
-1.93126740206449
30
0
41
1
10
22.3264439962016
20
-1.9239778915327
30
0
41
1
10
22.3233182694691
20
-1.92140677938025
30
0
41
1
10
22.3177431558116
20
-1.91614180559608
30
0
41
1
10
22.315267899803
20
-1.91342969239528
30
0
41
1
10
22.3086875190996
20
-1.90507668337298
30
0
41
1
10
22.3054058840879
20
-1.89916360769595
30
0
41
1
10
22.3021723911542
20
-1.89019721925663
30
0
41
1
10
22.3013691736095
20
-1.88718554907851
30
0
41
1
10
22.300295386163
20
-1.88111759442739
30
0
41
1
10
22.3000255929536
20
-1.87803567217932
30
0
41
1
10
22.3000255929536
20
-1.8749949539062
30
0
0
SPLINE
5
CC
100
AcDbEntity
8
1
62
256
6
ByLayer
370
18
48
1
60
0
100
AcDbSpline
70
4
71
3
72
10
73
6
40
0
40
0
40
0
40
0
40
0.5
40
0.5
40
1
40
1
40
1
40
1
41
1
10
84.2604552105859
20
2.3927189404211
30
0
41
1
10
84.1031178516676
20
2.37370719431752
30
0
41
1
10
83.9456177724554
20
2.35676287944639
30
0
41
1
10
83.6303958243279
20
2.32569218315712
30
0
41
1
10
83.4726733958957
20
2.3115729106417
30
0
41
1
10
83.3148755437994
20
2.2984119281775
30
0
0
SPLINE
5
CD
100
AcDbEntity
8
1
62
256
6
ByLayer
370
18
48
1
60
0
100
AcDbSpline
70
4
71
3
72
30
73
26
40
0
40
0
40
0
40
0
40
0.125000000000016
40
0.125000000000016
40
0.250000000000032
40
0.250000000000032
40
0.281250000000033
40
0.281250000000033
40
0.312500000000034
40
0.375000000000036
40
0.375000000000036
40
0.406250000000034
40
0.406250000000034
40
0.421875000000033
40
0.421875000000033
40
0.437500000000032
40
0.500000000000028
40
0.500000000000028
40
0.625000000000021
40
0.625000000000021
40
0.750000000000014
40
0.750000000000014
40
0.875000000000007
40
0.875000000000007
40
1
40
1
40
1
40
1
41
1
10
84.2604552105858
20
2.3927189404211
30
0
41
1
10
84.1720460203704
20
2.55340491540019
30
0
41
1
10
84.0864486294002
20
2.72072342575376
30
0
41
1
10
83.9201032981431
20
3.06821424625696
30
0
41
1
10
83.8393546168639
20
3.24837672746068
30
0
41
1
10
83.7409314528855
20
3.48160161102845
30
0
41
1
10
83.7213755334923
20
3.52864413613233
30
0
41
1
10
83.6827470747388
20
3.62293733197274
30
0
41
1
10
83.6254358627586
20
3.76491134852094
30
0
41
1
10
83.5699319568517
20
3.90845435045418
30
0
41
1
10
83.5154978478978
20
4.0529817352581
30
0
41
1
10
83.4975255125335
20
4.10134288224927
30
0
41
1
10
83.4708346691322
20
4.17404870466419
30
0
41
1
10
83.4619911028137
20
4.19829921122854
30
0
41
1
10
83.4442923257223
20
4.24679695597595
30
0
41
1
10
83.4000881886098
20
4.36805361884086
30
0
41
1
10
83.3560971508639
20
4.48937114794978
30
0
41
1
10
83.2509166085965
20
4.78064362279076
30
0
41
1
10
83.181325810273
20
4.97497233151952
30
0
41
1
10
83.0431309946333
20
5.3638828583581
30
0
41
1
10
82.9745129295682
20
5.55850363873969
30
0
41
1
10
82.8383065477965
20
5.94753104082548
30
0
41
1
10
82.7706800407304
20
6.14206478181362
30
0
41
1
10
82.6364736385422
20
6.53027661107581
30
0
41
1
10
82.5698781837471
20
6.72397967524495
30
0
41
1
10
82.5037080206297
20
6.91717390641574
30
0
0
SPLINE
5
CE
100
AcDbEntity
8
1
62
256
6
ByLayer
370
18
48
1
60
0
100
AcDbSpline
70
4
71
3
72
8
73
4
40
0
40
0
40
0
40
0
40
1
40
1
40
1
40
1
41
1
10
82.5037080206297
20
6.91717390641574
30
0
41
1
10
82.4426411867469
20
7.02310035859742
30
0
41
1
10
82.3816093173565
20
7.129024230402
30
0
41
1
10
82.3206180747555
20
7.23493182481013
30
0
0
SPLINE
5
CF
100
AcDbEntity
8
1
62
256
6
ByLayer
370
18
48
1
60
0
100
AcDbSpline
70
4
71
3
72
28
73
24
40
0
40
0
40
0
40
0
40
0.0458547314708815
40
0.0458547314708815
40
0.0917094629417636
40
0.0917094629417636
40
0.183418925883527
40
0.183418925883527
40
0.366837851767052
40
0.366837851767052
40
0.458547314708818
40
0.458547314708818
40
0.504402046179701
40
0.504402046179701
40
0.550256777650584
40
0.550256777650584
40
0.733675703534126
40
0.733675703534126
40
0.917094629417667
40
0.917094629417667
40
0.962949360888554
40
0.962949360888554
40
1
40
1
40
1
40
1
41
1
10
82.3206180748231
20
7.23493182500073
30
0
41
1
10
82.1641346940938
20
7.23651034778087
30
0
41
1
10
82.0075847758275
20
7.23670451046331
30
0
41
1
10
81.6947373828685
20
7.23432467541036
30
0
41
1
10
81.5383973146008
20
7.23175032345034
30
0
41
1
10
81.0695730932126
20
7.21988841485717
30
0
41
1
10
80.7572838482772
20
7.20646693061295
30
0
41
1
10
79.8207782384641
20
7.14992223687
30
0
41
1
10
79.1968762066267
20
7.09043332462949
30
0
41
1
10
78.2598110600549
20
6.96889913278025
30
0
41
1
10
77.9472563778657
20
6.92299684091103
30
0
41
1
10
77.4779103722084
20
6.84617631959156
30
0
41
1
10
77.3213544036817
20
6.81923881752891
30
0
41
1
10
77.0085358285182
20
6.76282820297658
30
0
41
1
10
76.8522119262786
20
6.73334488860598
30
0
41
1
10
76.0709064639312
20
6.5796010179518
30
0
41
1
10
75.4468618669676
20
6.4363651974877
30
0
41
1
10
74.1983773868189
20
6.11161404959074
30
0
41
1
10
73.5739939673658
20
5.93007879174291
30
0
41
1
10
72.7917245490335
20
5.68073265778384
30
0
41
1
10
72.6351740820014
20
5.62973831905816
30
0
41
1
10
72.3522774720448
20
5.53566405539422
30
0
41
1
10
72.2258725204497
20
5.4929349209782
30
0
41
1
10
72.0994797638148
20
5.44953134652749
30
0
0
SPLINE
5
D0
100
AcDbEntity
8
1
62
256
6
ByLayer
370
18
48
1
60
0
100
AcDbSpline
70
4
71
3
72
22
73
18
40
0
40
0
40
0
40
0
40
0.100820284509241
40
0.100820284509241
40
0.213217748945631
40
0.213217748945631
40
0.269416481163813
40
0.269416481163813
40
0.325615213381995
40
0.325615213381995
40
0.438012677818329
40
0.438012677818329
40
0.550410142254664
40
0.550410142254664
40
0.775205071127332
40
0.775205071127332
40
1
40
1
40
1
40
1
41
1
10
81.7154810048141
20
1.7934388631231
30
0
41
1
10
81.7579438810517
20
1.78005192467268
30
0
41
1
10
81.8012408333232
20
1.76523329089935
30
0
41
1
10
81.8944069724802
20
1.73114721960442
30
0
41
1
10
81.9444463204853
20
1.71158769974372
30
0
41
1
10
82.0207076977439
20
1.68018457167085
30
0
41
1
10
82.0463473197066
20
1.66935987841427
30
0
41
1
10
82.0977464515705
20
1.64718931644049
30
0
41
1
10
82.123535001627
20
1.63583497084886
30
0
41
1
10
82.2011293301506
20
1.60108047083844
30
0
41
1
10
82.2531580267964
20
1.57700627043829
30
0
41
1
10
82.3576983419511
20
1.5273976408549
30
0
41
1
10
82.4102292580996
20
1.50180486068172
30
0
41
1
10
82.5687147243531
20
1.42232717615164
30
0
41
1
10
82.6755951913835
20
1.36564254237985
30
0
41
1
10
82.8915398382536
20
1.2456703012667
30
0
41
1
10
83.0005911478744
20
1.18242161008431
30
0
41
1
10
83.1105406720744
20
1.11645695410067
30
0
0
SPLINE
5
D1
100
AcDbEntity
8
1
62
256
6
ByLayer
370
18
48
1
60
0
100
AcDbSpline
70
4
71
3
72
26
73
22
40
0
40
0
40
0
40
0
40
0.157635518392138
40
0.157635518392138
40
0.315271036784276
40
0.315271036784276
40
0.354679916382322
40
0.354679916382322
40
0.394088795980368
40
0.394088795980368
40
0.472906555176415
40
0.472906555176415
40
0.630542073568553
40
0.630542073568553
40
0.709359832764622
40
0.709359832764622
40
0.78817759196069
40
0.78817759196069
40
0.945813110352828
40
0.945813110352828
40
1
40
1
40
1
40
1
41
1
10
83.3148755437994
20
2.2984119281775
30
0
41
1
10
83.2247211221689
20
2.29089268284946
30
0
41
1
10
83.1356064110835
20
2.27864704197594
30
0
41
1
10
82.9594616007934
20
2.24475838559252
30
0
41
1
10
82.8724339404745
20
2.22310388724168
30
0
41
1
10
82.764870671889
20
2.19060832081073
30
0
41
1
10
82.7434186594242
20
2.18383987772151
30
0
41
1
10
82.7006321263451
20
2.16978390709352
30
0
41
1
10
82.6792611457515
20
2.16248268954081
30
0
41
1
10
82.61581784124
20
2.14001721634912
30
0
41
1
10
82.5742873287059
20
2.12425337835879
30
0
41
1
10
82.451808392943
20
2.07508784740548
30
0
41
1
10
82.3729702317295
20
2.03981476109183
30
0
41
1
10
82.2582477111548
20
1.9850360228819
30
0
41
1
10
82.2205965782335
20
1.96646408037634
30
0
41
1
10
82.1463717035985
20
1.92899158010687
30
0
41
1
10
82.1096932354079
20
1.91003560766575
30
0
41
1
10
82.0025734555709
20
1.85384678413686
30
0
41
1
10
81.9346442346588
20
1.81711513482472
30
0
41
1
10
81.8472831573692
20
1.76991244253651
30
0
41
1
10
81.825281770588
20
1.75802344089394
30
0
41
1
10
81.8036094522936
20
1.74635596995157
30
0
0
SPLINE
5
D2
100
AcDbEntity
8
1
62
256
6
ByLayer
370
18
48
1
60
0
100
AcDbSpline
70
4
71
3
72
8
73
4
40
0
40
0
40
0
40
0
40
1
40
1
40
1
40
1
41
1
10
82.5037080206297
20
-6.9171739064158
30
0
41
1
10
82.4426411868478
20
-7.02310035842231
30
0
41
1
10
82.3816093175583
20
-7.12902423005173
30
0
41
1
10
82.3206180750581
20
-7.23493182428473
30
0
0
SPLINE
5
D3
100
AcDbEntity
8
1
62
256
6
ByLayer
370
18
48
1
60
0
100
AcDbSpline
70
4
71
3
72
23
73
19
40
0
40
0
40
0
40
0
40
0.500000000000178
40
0.750000000000222
40
0.750000000000222
40
0.8750000000002
40
0.8750000000002
40
0.937500000000143
40
0.937500000000143
40
0.968750000000067
40
0.968750000000067
40
0.984374999999981
40
0.984374999999981
40
0.992187499999988
40
0.992187499999988
40
0.996093749999994
40
0.996093749999994
40
1
40
1
40
1
40
1
41
1
10
82.1283709595389
20
-7.54961333620324
30
0
41
1
10
82.1603786786732
20
-7.4975670830093
30
0
41
1
10
82.2084146320363
20
-7.41919809855455
30
0
41
1
10
82.2564864489509
20
-7.34038570611438
30
0
41
1
10
82.2805280136849
20
-7.30090654819713
30
0
41
1
10
82.2885346614046
20
-7.28775214590041
30
0
41
1
10
82.3005832837134
20
-7.26792247317957
30
0
41
1
10
82.3046153347884
20
-7.26127628130033
30
0
41
1
10
82.3106002639446
20
-7.25143808697266
30
0
41
1
10
82.3125716748887
20
-7.24820789316388
30
0
41
1
10
82.3155461117412
20
-7.24332480826422
30
0
41
1
10
82.3165435643696
20
-7.24168461948761
30
0
41
1
10
82.3180786849467
20
-7.23913966125912
30
0
41
1
10
82.3185963953242
20
-7.23827789881204
30
0
41
1
10
82.319379659522
20
-7.23696972976748
30
0
41
1
10
82.3196414551281
20
-7.23653211319936
30
0
41
1
10
82.3201546011662
20
-7.2356804852659
30
0
41
1
10
82.3204178659478
20
-7.23524436851002
30
0
41
1
10
82.320618074869
20
-7.2349318246653
30
0
0
SPLINE
5
D4
100
AcDbEntity
8
1
62
256
6
ByLayer
370
18
48
1
60
0
100
AcDbSpline
70
4
71
3
72
86
73
82
40
0
40
0
40
0
40
0
40
0.0098996845763043
40
0.0098996845763043
40
0.0628391476156163
40
0.0628391476156163
40
0.0893088791352724
40
0.0893088791352724
40
0.102543744895101
40
0.102543744895101
40
0.115778610654928
40
0.115778610654928
40
0.168718073694238
40
0.168718073694238
40
0.195187805213894
40
0.195187805213894
40
0.221657536733549
40
0.221657536733549
40
0.234892402493377
40
0.234892402493377
40
0.248127268253205
40
0.248127268253205
40
0.27459699977286
40
0.27459699977286
40
0.287831865532687
40
0.287831865532687
40
0.301066731292515
40
0.301066731292515
40
0.327536462812171
40
0.327536462812171
40
0.354006194331827
40
0.354006194331827
40
0.380475925851483
40
0.380475925851483
40
0.406945657371139
40
0.406945657371139
40
0.420180523130967
40
0.420180523130967
40
0.433415388890795
40
0.433415388890795
40
0.486354851930107
40
0.486354851930107
40
0.539294314969418
40
0.539294314969418
40
0.552529180729245
40
0.552529180729245
40
0.565764046489073
40
0.565764046489073
40
0.592233778008728
40
0.592233778008728
40
0.645173241048039
40
0.645173241048039
40
0.671642972567694
40
0.671642972567694
40
0.684877838327521
40
0.684877838327521
40
0.698112704087349
40
0.698112704087349
40
0.751052167126661
40
0.751052167126661
40
0.803991630165973
40
0.803991630165973
40
0.817226495925802
40
0.817226495925802
40
0.83046136168563
40
0.83046136168563
40
0.856931093205287
40
0.856931093205287
40
0.883400824724943
40
0.883400824724943
40
0.896635690484771
40
0.896635690484771
40
0.909870556244599
40
0.909870556244599
40
0.936340287764254
40
0.936340287764254
40
0.962810019283909
40
0.962810019283909
40
0.989279750803564
40
0.989279750803564
40
1
40
1
40
1
40
1
41
1
10
63.9198453608921
20
-1.87894819585946
30
0
41
1
10
63.8028274957351
20
-1.8199496659627
30
0
41
1
10
63.6857939583145
20
-1.76074151235025
30
0
41
1
10
62.9427617352483
20
-1.38367771071245
30
0
41
1
10
62.3166120937885
20
-1.06080711524282
30
0
41
1
10
61.3774595440523
20
-0.573193166155704
30
0
41
1
10
61.0645068758088
20
-0.410130105688694
30
0
41
1
10
60.59502166406
20
-0.165160792385024
30
0
41
1
10
60.4384822319384
20
-0.0834306129649178
30
0
41
1
10
60.1256314420364
20
0.0799064468502309
30
0
41
1
10
59.96929175918
20
0.161528662505532
30
0
41
1
10
59.1879198819763
20
0.569214902466484
30
0
41
1
10
58.5638514490884
20
0.893977655661132
30
0
41
1
10
57.6275640401127
20
1.37579128408069
30
0
41
1
10
57.3154461839669
20
1.5355239667673
30
0
41
1
10
56.6908208443311
20
1.8525662089481
30
0
41
1
10
56.3783137024779
20
2.00987811330529
30
0
41
1
10
55.909032027973
20
2.24360486169326
30
0
41
1
10
55.7524804709134
20
2.32115854054041
30
0
41
1
10
55.4395189356657
20
2.47527357996901
30
0
41
1
10
55.2830752137639
20
2.55185240957189
30
0
41
1
10
54.813801869282
20
2.78006317538282
30
0
41
1
10
54.5010361065107
20
2.93018577044396
30
0
41
1
10
54.0317849073184
20
3.15192745657322
30
0
41
1
10
53.8753485875484
20
3.22526186917165
30
0
41
1
10
53.5623977874631
20
3.3706963956945
30
0
41
1
10
53.4058488553661
20
3.44281166012067
30
0
41
1
10
52.9365704167881
20
3.65695364693866
30
0
41
1
10
52.6240597027434
20
3.79685298534093
30
0
41
1
10
51.9994060552814
20
4.07048609331162
30
0
41
1
10
51.6872619607764
20
4.20421953129119
30
0
41
1
10
51.0630718534755
20
4.46515200861376
30
0
41
1
10
50.7510246321554
20
4.59234489309603
30
0
41
1
10
50.1266868301723
20
4.83959033108303
30
0
41
1
10
49.8143993243106
20
4.95964147962118
30
0
41
1
10
49.3455636032963
20
5.13403370691054
30
0
41
1
10
49.1892171577188
20
5.19121704367151
30
0
41
1
10
48.8763504834427
20
5.3036372461473
30
0
41
1
10
48.719784626555
20
5.35888986977355
30
0
41
1
10
47.9376300143836
20
5.62976754956762
30
0
41
1
10
47.3132995720228
20
5.8296426491016
30
0
41
1
10
46.0648617923871
20
6.19256569930337
30
0
41
1
10
45.4407647950243
20
6.35561065874094
30
0
41
1
10
44.6593753064438
20
6.53503215464869
30
0
41
1
10
44.5030341948752
20
6.56970026821804
30
0
41
1
10
44.1901778977305
20
6.63654415794548
30
0
41
1
10
44.0336166343054
20
6.66872883901496
30
0
41
1
10
43.5643349564845
20
6.76134316118916
30
0
41
1
10
43.2518193221917
20
6.81786908241807
30
0
41
1
10
42.3148315705619
20
6.97163481431556
30
0
41
1
10
41.6909162541023
20
7.0531037707724
30
0
41
1
10
40.7543988418213
20
7.14311730722676
30
0
41
1
10
40.4421077354351
20
7.16771993130786
30
0
41
1
10
39.9732635517548
20
7.19637725153763
30
0
41
1
10
39.8169149515213
20
7.20455691904132
30
0
41
1
10
39.504045313411
20
7.21814563234619
30
0
41
1
10
39.347477358075
20
7.2235550508704
30
0
41
1
10
38.5653165756006
20
7.24364674836244
30
0
41
1
10
37.9409956400325
20
7.23762392178713
30
0
41
1
10
36.6926056663408
20
7.18173383237524
30
0
41
1
10
36.068525029275
20
7.13179983913662
30
0
41
1
10
35.2871034038823
20
7.04240772361274
30
0
41
1
10
35.1307551994477
20
7.02318316380695
30
0
41
1
10
34.8178930777157
20
6.98205145368917
30
0
41
1
10
34.6613434455389
20
6.960137461687
30
0
41
1
10
34.1919121499155
20
6.89045177186929
30
0
41
1
10
33.8791029554278
20
6.83872051731527
30
0
41
1
10
33.2534687611021
20
6.72489898980746
30
0
41
1
10
32.9406453449417
20
6.6628120315506
30
0
41
1
10
32.4711777314402
20
6.56206334503531
30
0
41
1
10
32.3146345190317
20
6.52720656120113
30
0
41
1
10
32.0016198875134
20
6.45502836927787
30
0
41
1
10
31.8451295989229
20
6.41770419420649
30
0
41
1
10
31.3756499581145
20
6.30207710851937
30
0
41
1
10
31.0626011549676
20
6.22009932008191
30
0
41
1
10
30.4366226805384
20
6.04677467689029
30
0
41
1
10
30.123596611676
20
5.95540408604018
30
0
41
1
10
29.4975190462347
20
5.76366419855898
30
0
41
1
10
29.1844586458623
20
5.6632911518148
30
0
41
1
10
28.7446310860518
20
5.51626572300307
30
0
41
1
10
28.6178539491296
20
5.47318476696839
30
0
41
1
10
28.4910787500289
20
5.42942098627262
30
0
0
SPLINE
5
D5
100
AcDbEntity
8
1
62
256
6
ByLayer
370
18
48
1
60
0
100
AcDbSpline
70
4
71
3
72
18
73
14
40
0
40
0
40
0
40
0
40
0.250000000000052
40
0.250000000000052
40
0.375000000000077
40
0.375000000000077
40
0.500000000000103
40
0.500000000000103
40
0.750000000000051
40
0.750000000000051
40
0.875000000000025
40
0.875000000000025
40
1
40
1
40
1
40
1
41
1
10
22.3540693023064
20
-1.92810731763635
30
0
41
1
10
22.344665279347
20
-1.92520914241192
30
0
41
1
10
22.3367220484209
20
-1.92166863587889
30
0
41
1
10
22.3264428986729
20
-1.91563156962982
30
0
41
1
10
22.3233169638086
20
-1.91350167869186
30
0
41
1
10
22.3177416200289
20
-1.90913904993002
30
0
41
1
10
22.315266322685
20
-1.90689118873939
30
0
41
1
10
22.3086860046157
20
-1.89996612567714
30
0
41
1
10
22.3054046798985
20
-1.89506132334734
30
0
41
1
10
22.302171773737
20
-1.88761982907803
30
0
41
1
10
22.3013687574252
20
-1.88511969189202
30
0
41
1
10
22.3002952784321
20
-1.88008103573608
30
0
41
1
10
22.3000255929535
20
-1.87752113596829
30
0
41
1
10
22.3000255929535
20
-1.8749949539062
30
0
0
SPLINE
5
D6
100
AcDbEntity
8
1
62
256
6
ByLayer
370
13
48
1
60
0
100
AcDbSpline
70
4
71
3
72
10
73
6
40
0
40
0
40
0
40
0
40
0.5
40
0.5
40
1
40
1
40
1
40
1
41
1
10
22.4002418614714
20
-1.94572834916949
30
0
41
1
10
22.392238230288
20
-1.94214689592866
30
0
41
1
10
22.3843793296436
20
-1.93888809288819
30
0
41
1
10
22.3689469343944
20
-1.93299284999844
30
0
41
1
10
22.3613170906593
20
-1.93034097452022
30
0
41
1
10
22.3540693023069
20
-1.92810731763487
30
0
0
SPLINE
5
D7
100
AcDbEntity
8
1
62
256
6
ByLayer
370
18
48
1
60
0
100
AcDbSpline
70
4
71
3
72
24
73
20
40
0
40
0
40
0
40
0
40
0.124999999999922
40
0.124999999999922
40
0.249999999999844
40
0.249999999999844
40
0.49999999999974
40
0.49999999999974
40
0.624999999999689
40
0.624999999999689
40
0.687499999999741
40
0.687499999999741
40
0.749999999999794
40
0.749999999999794
40
0.812499999999846
40
0.812499999999846
40
0.874999999999898
40
0.874999999999898
40
1
40
1
40
1
40
1
41
1
10
22.3000255929535
20
6.4426408871486
30
0
41
1
10
22.3000255929535
20
6.43988539689877
30
0
41
1
10
22.3005260686571
20
6.43710442219592
30
0
41
1
10
22.3025220045457
20
6.43162252244636
30
0
41
1
10
22.3040162001293
20
6.42890172856502
30
0
41
1
10
22.3101147297739
20
6.42080768965826
30
0
41
1
10
22.3161058996409
20
6.4157098870671
30
0
41
1
10
22.328729377431
20
6.40864203727239
30
0
41
1
10
22.3335138357213
20
6.4064189351401
30
0
41
1
10
22.3415104456728
20
6.40340236622615
30
0
41
1
10
22.3443209202399
20
6.40244601000404
30
0
41
1
10
22.3502665497659
20
6.40064391071348
30
0
41
1
10
22.3534158920293
20
6.39979593583155
30
0
41
1
10
22.3599166725825
20
6.39826647108131
30
0
41
1
10
22.3632835389357
20
6.39757941400782
30
0
41
1
10
22.3702695985065
20
6.39637399692185
30
0
41
1
10
22.3739189387564
20
6.39585256851458
30
0
41
1
10
22.3850404469665
20
6.39460063806226
30
0
41
1
10
22.3926483632005
20
6.39417396665829
30
0
41
1
10
22.4004664637627
20
6.39419085824645
30
0
0
SPLINE
5
D8
100
AcDbEntity
8
1
62
256
6
ByLayer
370
18
48
1
60
0
100
AcDbSpline
70
2053
71
3
72
127
73
123
40
0
40
0
40
0
40
0
40
0.0312499999999935
40
0.0312499999999935
40
0.062499999999987
40
0.062499999999987
40
0.0781249999999838
40
0.0781249999999838
40
0.0937499999999806
40
0.0937499999999806
40
0.124999999999974
40
0.124999999999974
40
0.132812499999973
40
0.132812499999973
40
0.140624999999972
40
0.15624999999997
40
0.15624999999997
40
0.187499999999966
40
0.187499999999966
40
0.195312499999966
40
0.195312499999966
40
0.203124999999965
40
0.218749999999963
40
0.234374999999962
40
0.234374999999962
40
0.242187499999961
40
0.242187499999961
40
0.249999999999961
40
0.249999999999961
40
0.281249999999957
40
0.281249999999957
40
0.296874999999957
40
0.296874999999957
40
0.304687499999955
40
0.304687499999955
40
0.312499999999954
40
0.312499999999954
40
0.343749999999952
40
0.343749999999952
40
0.351562499999953
40
0.351562499999953
40
0.359374999999954
40
0.359374999999954
40
0.374999999999959
40
0.390624999999965
40
0.390624999999965
40
0.406249999999971
40
0.406249999999971
40
0.421874999999976
40
0.421874999999976
40
0.437499999999982
40
0.437499999999982
40
0.468749999999993
40
0.468749999999993
40
0.484374999999996
40
0.484374999999996
40
0.492187499999996
40
0.492187499999996
40
0.499999999999995
40
0.499999999999995
40
0.531249999999982
40
0.531249999999982
40
0.539062499999978
40
0.539062499999978
40
0.546874999999975
40
0.546874999999975
40
0.562499999999974
40
0.562499999999974
40
0.593749999999975
40
0.593749999999975
40
0.601562499999974
40
0.601562499999974
40
0.609374999999973
40
0.609374999999973
40
0.624999999999972
40
0.624999999999972
40
0.656249999999973
40
0.656249999999973
40
0.671874999999974
40
0.671874999999974
40
0.679687499999975
40
0.679687499999975
40
0.687499999999977
40
0.687499999999977
40
0.718749999999981
40
0.718749999999981
40
0.726562499999983
40
0.726562499999983
40
0.734374999999984
40
0.749999999999987
40
0.765624999999991
40
0.765624999999991
40
0.773437499999993
40
0.773437499999993
40
0.781249999999995
40
0.781249999999995
40
0.812500000000003
40
0.812500000000003
40
0.820312500000004
40
0.820312500000004
40
0.828125000000005
40
0.828125000000005
40
0.843750000000006
40
0.859375000000007
40
0.859375000000007
40
0.875000000000008
40
0.875000000000008
40
0.906250000000006
40
0.906250000000006
40
0.914062500000006
40
0.914062500000006
40
0.921875000000005
40
0.937500000000004
40
0.953125000000003
40
0.953125000000003
40
0.968750000000002
40
0.968750000000002
40
0.984375000000001
40
0.984375000000001
40
0.9921875
40
0.9921875
40
1
40
1
40
1
40
1
41
1
10
83.0994503685231
20
-3.06181703675535
30
0
41
1
10
83.0750653976172
20
-3.09134633183663
30
0
41
1
10
83.0517577415106
20
-3.11545921111673
30
0
41
1
10
83.00705764577
20
-3.15350753022
30
0
41
1
10
82.9856664577982
20
-3.16744001245416
30
0
41
1
10
82.954961654336
20
-3.18038271560189
30
0
41
1
10
82.9450815992741
20
-3.18330762382425
30
0
41
1
10
82.9260581697422
20
-3.18642269150948
30
0
41
1
10
82.9169037176683
20
-3.18661743268186
30
0
41
1
10
82.8904774404188
20
-3.18311859217707
30
0
41
1
10
82.8742336479694
20
-3.17538035820007
30
0
41
1
10
82.8556611798805
20
-3.15843657340787
30
0
41
1
10
82.8520467137822
20
-3.15469082547469
30
0
41
1
10
82.8450597867841
20
-3.14653583717276
30
0
41
1
10
82.834922180334
20
-3.13328577323063
30
0
41
1
10
82.8257919506734
20
-3.11700991290846
30
0
41
1
10
82.8088601747381
20
-3.08038322508858
30
0
41
1
10
82.7993280509086
20
-3.05057761159213
30
0
41
1
10
82.7897709784484
20
-3.00585727542756
30
0
41
1
10
82.7879855512615
20
-2.99656290977703
30
0
41
1
10
82.7846948569076
20
-2.97742720899842
30
0
41
1
10
82.7801665353133
20
-2.94783482994546
30
0
41
1
10
82.7746361060003
20
-2.89410071718831
30
0
41
1
10
82.7723941198036
20
-2.84632596707314
30
0
41
1
10
82.7715731776896
20
-2.80861234755832
30
0
41
1
10
82.7714432866525
20
-2.79572675602373
30
0
41
1
10
82.77148258992
20
-2.76930366303591
30
0
41
1
10
82.7716532568738
20
-2.75571742868348
30
0
41
1
10
82.7732716765972
20
-2.68681266179868
30
0
41
1
10
82.776964414677
20
-2.62863655831902
30
0
41
1
10
82.7862581165492
20
-2.53674427661215
30
0
41
1
10
82.789987107056
20
-2.50533633879886
30
0
41
1
10
82.7966028558674
20
-2.45699251494364
30
0
41
1
10
82.7989812344086
20
-2.44066591509551
30
0
41
1
10
82.8040177080005
20
-2.40806990701088
30
0
41
1
10
82.8066834414669
20
-2.39174195628033
30
0
41
1
10
82.8207481896904
20
-2.30995655459023
30
0
41
1
10
82.8343296142189
20
-2.2440667023331
30
0
41
1
10
82.854452833411
20
-2.1611459390131
30
0
41
1
10
82.8586393848725
20
-2.14452751623767
30
0
41
1
10
82.8672198797639
20
-2.11168572856513
30
0
41
1
10
82.8716273343437
20
-2.09540510314392
30
0
41
1
10
82.8851979660446
20
-2.04697493863185
30
0
41
1
10
82.9042192386033
20
-1.9834971376857
30
0
41
1
10
82.9251002551933
20
-1.92216868588969
30
0
41
1
10
82.9469397130937
20
-1.86192681967816
30
0
41
1
10
82.9581659214232
20
-1.83282881590088
30
0
41
1
10
82.9811432914752
20
-1.77672396243327
30
0
41
1
10
82.9929056498135
20
-1.74968701173975
30
0
41
1
10
83.0169701828492
20
-1.69757124490329
30
0
41
1
10
83.0292889993465
20
-1.67246089569565
30
0
41
1
10
83.0669570157583
20
-1.60024197663361
30
0
41
1
10
83.092390339848
20
-1.55738764901184
30
0
41
1
10
83.1309777497565
20
-1.50021165131199
30
0
41
1
10
83.1439131780689
20
-1.48234738832832
30
0
41
1
10
83.1634203816845
20
-1.45731805833881
30
0
41
1
10
83.1699366421574
20
-1.44927612898445
30
0
41
1
10
83.1828894911313
20
-1.43391047218938
30
0
41
1
10
83.189340323546
20
-1.42656812086662
30
0
41
1
10
83.221467160166
20
-1.39150986468542
30
0
41
1
10
83.2467661181377
20
-1.36871095153558
30
0
41
1
10
83.2778456033261
20
-1.3464568748891
30
0
41
1
10
83.2840339833518
20
-1.34232093454648
30
0
41
1
10
83.2963534346178
20
-1.33468133803029
30
0
41
1
10
83.3024947510762
20
-1.3311731864666
30
0
41
1
10
83.3206893435448
20
-1.32167476455766
30
0
41
1
10
83.3325493355658
20
-1.31668204889922
30
0
41
1
10
83.3673190736744
20
-1.30559016016503
30
0
41
1
10
83.3894261769134
20
-1.30334415436349
30
0
41
1
10
83.4156029340807
20
-1.30704912287661
30
0
41
1
10
83.4207648206095
20
-1.30811840670134
30
0
41
1
10
83.4309361578042
20
-1.31092660694606
30
0
41
1
10
83.4359567767157
20
-1.31267092424545
30
0
41
1
10
83.4506714052133
20
-1.31888551844114
30
0
41
1
10
83.460029849735
20
-1.32433026525371
30
0
41
1
10
83.4867339273653
20
-1.34453210875105
30
0
41
1
10
83.5027214302436
20
-1.36311898597006
30
0
41
1
10
83.5236935379081
20
-1.39917319496473
30
0
41
1
10
83.5301797165377
20
-1.41256235679256
30
0
41
1
10
83.5390815357238
20
-1.434863787507
30
0
41
1
10
83.5418990177701
20
-1.44264231801117
30
0
41
1
10
83.5471939966067
20
-1.45879390485794
30
0
41
1
10
83.5496773510791
20
-1.46718134478329
30
0
41
1
10
83.5612638501743
20
-1.51068864257778
30
0
41
1
10
83.5679018023982
20
-1.55046508760307
30
0
41
1
10
83.5725187286268
20
-1.60709015864637
30
0
41
1
10
83.5732576251204
20
-1.61879421079095
30
0
41
1
10
83.5743407859208
20
-1.64279124354022
30
0
41
1
10
83.57536852113
20
-1.67952391259334
30
0
41
1
10
83.5741225545543
20
-1.74440283055608
30
0
41
1
10
83.5699424786552
20
-1.80026586491607
30
0
41
1
10
83.5655686524134
20
-1.84371991088409
30
0
41
1
10
83.5639038779633
20
-1.85846458735367
30
0
41
1
10
83.5601481306639
20
-1.88849314363665
30
0
41
1
10
83.5580484192506
20
-1.90383055538876
30
0
41
1
10
83.5466088160507
20
-1.98086595253309
30
0
41
1
10
83.5344335216998
20
-2.04408145611868
30
0
41
1
10
83.5156170537502
20
-2.12508977271577
30
0
41
1
10
83.5116721446292
20
-2.14139191898116
30
0
41
1
10
83.5034165885588
20
-2.17420156890583
30
0
41
1
10
83.4990944137413
20
-2.19074842809709
30
0
41
1
10
83.4857545287107
20
-2.24004675773333
30
0
41
1
10
83.4668881659861
20
-2.30524116798623
30
0
41
1
10
83.4460183058479
20
-2.36942864708365
30
0
41
1
10
83.4241887319509
20
-2.43312815357322
30
0
41
1
10
83.4127342712717
20
-2.4648800447834
30
0
41
1
10
83.3777269420708
20
-2.55740401483155
30
0
41
1
10
83.353375182725
20
-2.61601409148787
30
0
41
1
10
83.3218542959644
20
-2.68573778161888
30
0
41
1
10
83.3154831407318
20
-2.69952918387059
30
0
41
1
10
83.3026891912346
20
-2.72663579925032
30
0
41
1
10
83.2834839103164
20
-2.76644709919773
30
0
41
1
10
83.2514191673483
20
-2.82873514819087
30
0
41
1
10
83.2257268361442
20
-2.87443572356506
30
0
41
1
10
83.2000184535192
20
-2.91810924278803
30
0
41
1
10
83.1871090368405
20
-2.93900120670071
30
0
41
1
10
83.1616045642814
20
-2.97824136127045
30
0
41
1
10
83.1489903546241
20
-2.99663040022585
30
0
41
1
10
83.1302664823418
20
-3.02242034722192
30
0
41
1
10
83.124058130211
20
-3.03071749679754
30
0
41
1
10
83.1117060468255
20
-3.0467151713832
30
0
41
1
10
83.1055466112496
20
-3.05443471298503
30
0
41
1
10
83.0994503685231
20
-3.06181703675535
30
0
0
SPLINE
5
D9
100
AcDbEntity
8
1
62
256
6
ByLayer
370
18
48
1
60
0
100
AcDbSpline
70
4
71
3
72
14
73
10
40
0
40
0
40
0
40
0
40
0.5
40
0.5
40
0.625
40
0.625
40
0.75
40
0.75
40
1
40
1
40
1
40
1
41
1
10
82.5037080206295
20
-6.91717390641656
30
0
41
1
10
82.4474646190063
20
-7.00057697459465
30
0
41
1
10
82.3960896482135
20
-7.0703837394631
30
0
41
1
10
82.3377987183019
20
-7.13920474017692
30
0
41
1
10
82.3264366427151
20
-7.15204504771697
30
0
41
1
10
82.3042997034891
20
-7.1758326931861
30
0
41
1
10
82.2935000125918
20
-7.1868013301528
30
0
41
1
10
82.262282940582
20
-7.21651269998793
30
0
41
1
10
82.2429673184479
20
-7.23216197532736
30
0
41
1
10
82.2249994075836
20
-7.24382966161883
30
0
0
SPLINE
5
DA
100
AcDbEntity
8
1
62
256
6
ByLayer
370
18
48
1
60
0
100
AcDbSpline
70
4
71
3
72
30
73
26
40
0
40
0
40
0
40
0
40
0.124999999999999
40
0.124999999999999
40
0.249999999999998
40
0.249999999999998
40
0.281249999999999
40
0.281249999999999
40
0.3125
40
0.374999999999997
40
0.374999999999997
40
0.406249999999998
40
0.406249999999998
40
0.421874999999999
40
0.421874999999999
40
0.437499999999999
40
0.500000000000001
40
0.500000000000001
40
0.625000000000001
40
0.625000000000001
40
0.750000000000001
40
0.750000000000001
40
0.875
40
0.875
40
1
40
1
40
1
40
1
41
1
10
84.2604552105858
20
-2.39271894042108
30
0
41
1
10
84.1720460203704
20
-2.55340491540019
30
0
41
1
10
84.0864486294002
20
-2.72072342575382
30
0
41
1
10
83.9201032981431
20
-3.06821424625701
30
0
41
1
10
83.8393546168639
20
-3.24837672746071
30
0
41
1
10
83.7409314528854
20
-3.48160161102845
30
0
41
1
10
83.7213755334923
20
-3.52864413613233
30
0
41
1
10
83.6827470747388
20
-3.62293733197274
30
0
41
1
10
83.6254358627585
20
-3.76491134852091
30
0
41
1
10
83.5699319568517
20
-3.90845435045423
30
0
41
1
10
83.5154978478978
20
-4.05298173525816
30
0
41
1
10
83.4975255125335
20
-4.10134288224933
30
0
41
1
10
83.4708346691323
20
-4.17404870466422
30
0
41
1
10
83.4619911028137
20
-4.1982992112286
30
0
41
1
10
83.4442923257224
20
-4.24679695597601
30
0
41
1
10
83.4000881886098
20
-4.36805361884089
30
0
41
1
10
83.3560971508638
20
-4.48937114794984
30
0
41
1
10
83.2509166085964
20
-4.78064362279082
30
0
41
1
10
83.181325810273
20
-4.97497233151961
30
0
41
1
10
83.0431309946333
20
-5.36388285835815
30
0
41
1
10
82.9745129295682
20
-5.55850363873978
30
0
41
1
10
82.8383065477965
20
-5.94753104082554
30
0
41
1
10
82.7706800407304
20
-6.14206478181367
30
0
41
1
10
82.6364736385421
20
-6.53027661107586
30
0
41
1
10
82.5698781837471
20
-6.72397967524503
30
0
41
1
10
82.5037080206297
20
-6.91717390641583
30
0
0
SPLINE
5
DB
100
AcDbEntity
8
1
62
256
6
ByLayer
370
18
48
1
60
0
100
AcDbSpline
70
4
71
3
72
8
73
4
40
0
40
0
40
0
40
0
40
1
40
1
40
1
40
1
41
1
10
84.2604552105857
20
-2.3927189404211
30
0
41
1
10
84.4529296375749
20
-1.85381538038123
30
0
41
1
10
84.6438502108397
20
-1.31436571067775
30
0
41
1
10
84.8331865500624
20
-0.774359253996039
30
0
0
SPLINE
5
DC
100
AcDbEntity
8
1
62
256
6
ByLayer
370
18
48
1
60
0
100
AcDbSpline
70
4
71
3
72
8
73
4
40
0
40
0
40
0
40
0
40
1
40
1
40
1
40
1
41
1
10
84.8331865500623
20
-0.77435925399601
30
0
41
1
10
84.8867578442203
20
-0.62156848568975
30
0
41
1
10
84.9413847101032
20
-0.469364501769746
30
0
41
1
10
84.9970648330378
20
-0.317726404359377
30
0
0
SPLINE
5
DD
100
AcDbEntity
8
1
62
256
6
ByLayer
370
18
48
1
60
0
100
AcDbSpline
70
4
71
3
72
8
73
4
40
0
40
0
40
0
40
0
40
1
40
1
40
1
40
1
41
1
10
84.9970648330378
20
0.317726404359348
30
0
41
1
10
85.0009694141514
20
0.106394555892706
30
0
41
1
10
85.0009874051663
20
-0.105420808818167
30
0
41
1
10
84.9970648330377
20
-0.317726404359377
30
0
0
SPLINE
5
DE
100
AcDbEntity
8
1
62
256
6
ByLayer
370
18
48
1
60
0
100
AcDbSpline
70
4
71
3
72
60
73
56
40
0
40
0
40
0
40
0
40
0.0624999999999616
40
0.0624999999999616
40
0.0937499999999423
40
0.0937499999999423
40
0.109374999999937
40
0.109374999999937
40
0.124999999999931
40
0.124999999999931
40
0.187499999999908
40
0.187499999999908
40
0.249999999999885
40
0.249999999999885
40
0.281249999999878
40
0.281249999999878
40
0.296874999999874
40
0.296874999999874
40
0.312499999999871
40
0.312499999999871
40
0.374999999999857
40
0.374999999999857
40
0.437499999999843
40
0.437499999999843
40
0.453124999999839
40
0.453124999999839
40
0.468749999999835
40
0.468749999999835
40
0.499999999999837
40
0.499999999999837
40
0.562499999999848
40
0.562499999999848
40
0.593749999999857
40
0.593749999999857
40
0.609374999999862
40
0.609374999999862
40
0.624999999999867
40
0.624999999999867
40
0.687499999999885
40
0.687499999999885
40
0.718749999999891
40
0.718749999999891
40
0.734374999999895
40
0.734374999999895
40
0.749999999999898
40
0.749999999999898
40
0.812499999999922
40
0.812499999999922
40
0.874999999999947
40
0.874999999999947
40
0.906249999999961
40
0.906249999999961
40
0.937499999999975
40
0.937499999999975
40
1
40
1
40
1
40
1
41
1
10
84.9970648330378
20
0.317726404359377
30
0
41
1
10
84.969536516828
20
0.237946062846504
30
0
41
1
10
84.9405368456202
20
0.158861053751423
30
0
41
1
10
84.8948356213357
20
0.0412877685173783
30
0
41
1
10
84.8792340216742
20
0.0022728121156206
30
0
41
1
10
84.8552713018209
20
-0.0559795642447511
30
0
41
1
10
84.8471902721465
20
-0.0753519794644149
30
0
41
1
10
84.8308389671708
20
-0.114005303723815
30
0
41
1
10
84.8225545417501
20
-0.133318589069631
30
0
41
1
10
84.7808312291091
20
-0.229240874697467
30
0
41
1
10
84.7466691340163
20
-0.303537051011944
30
0
41
1
10
84.676898646682
20
-0.447265074377185
30
0
41
1
10
84.6412904775816
20
-0.516698191584311
30
0
41
1
10
84.586811764556
20
-0.61703474422481
30
0
41
1
10
84.5684736862536
20
-0.649842770894054
30
0
41
1
10
84.5406932537758
20
-0.698056904501129
30
0
41
1
10
84.5313874979075
20
-0.713961803071896
30
0
41
1
10
84.5126830577013
20
-0.745429544033698
30
0
41
1
10
84.5032927642854
20
-0.760976899443477
30
0
41
1
10
84.4565320612581
20
-0.837151413792299
30
0
41
1
10
84.4194051858163
20
-0.893669326161074
30
0
41
1
10
84.3457211140727
20
-0.99791180154898
30
0
41
1
10
84.3091640200169
20
-1.04563819990807
30
0
41
1
10
84.2638116850993
20
-1.09952250782084
30
0
41
1
10
84.2547583507933
20
-1.11000935829682
30
0
41
1
10
84.2366853494818
20
-1.13039039181174
30
0
41
1
10
84.2276483414154
20
-1.14030217596604
30
0
41
1
10
84.2008156904387
20
-1.16888699537836
30
0
41
1
10
84.1832424013269
20
-1.18647817638399
30
0
41
1
10
84.1314234149075
20
-1.23495385920856
30
0
41
1
10
84.0980761900223
20
-1.26155918978299
30
0
41
1
10
84.0497258158768
20
-1.29293254429553
30
0
41
1
10
84.0338880714527
20
-1.30196315049352
30
0
41
1
10
84.0105393550177
20
-1.31332935835925
30
0
41
1
10
84.0028091432292
20
-1.31676033349188
30
0
41
1
10
83.9875648326635
20
-1.32285350345612
30
0
41
1
10
83.9800576830171
20
-1.3255146015544
30
0
41
1
10
83.943076717789
20
-1.33693190368535
30
0
41
1
10
83.9152599693634
20
-1.34004809023125
30
0
41
1
10
83.8758938113307
20
-1.33613232354634
30
0
41
1
10
83.8631663699774
20
-1.33339051559352
30
0
41
1
10
83.8446418935087
20
-1.32713760787345
30
0
41
1
10
83.8385615862864
20
-1.32469634894619
30
0
41
1
10
83.8265866131177
20
-1.31909933327179
30
0
41
1
10
83.820681782083
20
-1.3159369344549
30
0
41
1
10
83.7917673936906
20
-1.29842971246202
30
0
41
1
10
83.7705690207297
20
-1.279048215557
30
0
41
1
10
83.7315221646076
20
-1.23039367531518
30
0
41
1
10
83.7136760913588
20
-1.20111560108964
30
0
41
1
10
83.6891857825203
20
-1.15006816323441
30
0
41
1
10
83.681389767482
20
-1.13181832642255
30
0
41
1
10
83.6666586812046
20
-1.09329989736054
30
0
41
1
10
83.6597092326871
20
-1.07300936012973
30
0
41
1
10
83.6400346153631
20
-1.00916167232393
30
0
41
1
10
83.6284784107025
20
-0.962637377723837
30
0
41
1
10
83.6183499661501
20
-0.912344868124876
30
0
0
SPLINE
5
DF
100
AcDbEntity
8
1
62
256
6
ByLayer
370
18
48
1
60
0
100
AcDbSpline
70
4
71
3
72
8
73
4
40
0
40
0
40
0
40
0
40
1
40
1
40
1
40
1
41
1
10
83.61834996615
20
-0.912344868125018
30
0
41
1
10
83.4867211362696
20
-0.258745575949035
30
0
41
1
10
83.3176063935428
20
0.41742834138276
30
0
41
1
10
83.1105406720744
20
1.1164569541007
30
0
0
SPLINE
5
E0
100
AcDbEntity
8
1
62
256
6
ByLayer
370
18
48
1
60
0
100
AcDbSpline
70
4
71
3
72
18
73
14
40
0
40
0
40
0
40
0
40
0.250000000000008
40
0.250000000000008
40
0.500000000000016
40
0.500000000000016
40
0.625000000000012
40
0.625000000000012
40
0.750000000000008
40
0.750000000000008
40
0.875000000000004
40
0.875000000000004
40
1
40
1
40
1
40
1
41
1
10
82.2390734443731
20
0.557063362112331
30
0
41
1
10
82.3100248421982
20
0.623554148436085
30
0
41
1
10
82.3816251563986
20
0.68526661334289
30
0
41
1
10
82.5257924653056
20
0.798938076493044
30
0
41
1
10
82.5983590297227
20
0.850868918643897
30
0
41
1
10
82.7076532439829
20
0.920973806239346
30
0
41
1
10
82.7441584061065
20
0.943043006276582
30
0
41
1
10
82.8172673189557
20
0.984526350829469
30
0
41
1
10
82.8538696431269
20
1.00392049686687
30
0
41
1
10
82.9271354507534
20
1.04019419622736
30
0
41
1
10
82.9638008667245
20
1.05710324978335
30
0
41
1
10
83.0371669676578
20
1.08864785657787
30
0
41
1
10
83.0738656373191
20
1.1032467172937
30
0
41
1
10
83.1105406720744
20
1.11645695410067
30
0
0
SPLINE
5
E1
100
AcDbEntity
8
1
62
256
6
ByLayer
370
13
48
1
60
0
100
AcDbSpline
70
4
71
3
72
10
73
6
40
0
40
0
40
0
40
0
40
0.5
40
0.5
40
1
40
1
40
1
40
1
41
1
10
22.395629734253
20
-1.95699400753153
30
0
41
1
10
22.3884360986467
20
-1.95341409072276
30
0
41
1
10
22.3813673547209
20
-1.9501278421676
30
0
41
1
10
22.3674773745962
20
-1.94412424366894
30
0
41
1
10
22.360606814171
20
-1.94139081184238
30
0
41
1
10
22.3540693023064
20
-1.93904793032937
30
0
0
SPLINE
5
E2
100
AcDbEntity
8
1
62
256
6
ByLayer
370
13
48
1
60
0
100
AcDbSpline
70
4
71
3
72
8
73
4
40
0
40
0
40
0
40
0
40
1
40
1
40
1
40
1
41
1
10
22.3527265723586
20
-2.01043808009007
30
0
41
1
10
22.3531687925627
20
-1.98664694476156
30
0
41
1
10
22.3536163638087
20
-1.96285032520405
30
0
41
1
10
22.3540693023064
20
-1.93904793032939
30
0
0
SPLINE
5
E3
100
AcDbEntity
8
1
62
256
6
ByLayer
370
18
48
1
60
0
100
AcDbSpline
70
4
71
3
72
43
73
39
40
0
40
0
40
0
40
0
40
0.0139602269742005
40
0.0139602269742005
40
0.0658570571334542
40
0.0658570571334542
40
0.117753887292708
40
0.117753887292708
40
0.169650717451962
40
0.169650717451962
40
0.273444377770467
40
0.273444377770467
40
0.325341207929719
40
0.325341207929719
40
0.377238038088971
40
0.377238038088971
40
0.429134868248223
40
0.429134868248223
40
0.481031698407475
40
0.494005905947288
40
0.494005905947288
40
0.506980113487102
40
0.506980113487102
40
0.532928528566729
40
0.532928528566729
40
0.584825358725981
40
0.584825358725981
40
0.636722188885233
40
0.636722188885233
40
0.688619019044486
40
0.688619019044486
40
0.792412679362992
40
0.792412679362992
40
0.844309509522244
40
0.844309509522244
40
0.896206339681496
40
0.896206339681496
40
1
40
1
40
1
40
1
41
1
10
40.4072689280516
20
-7.19790989717245
30
0
41
1
10
40.3229508295786
20
-7.19798968299395
30
0
41
1
10
40.2386826849265
20
-7.19766988357995
30
0
41
1
10
39.8413704511081
20
-7.19427664400911
30
0
41
1
10
39.5289261938984
20
-7.18608298164418
30
0
41
1
10
38.9050077326985
20
-7.15876567734887
30
0
41
1
10
38.593544740388
20
-7.13968812324671
30
0
41
1
10
37.9713720532135
20
-7.09090951760498
30
0
41
1
10
37.6606522579966
20
-7.06116303220435
30
0
41
1
10
36.7290670703019
20
-6.95618552670405
30
0
41
1
10
36.1087640877242
20
-6.86521253378069
30
0
41
1
10
35.1777111219988
20
-6.6982164432871
30
0
41
1
10
34.8672730394585
20
-6.63747080730872
30
0
41
1
10
34.2459776919979
20
-6.50601325390821
30
0
41
1
10
33.9351109936366
20
-6.43529126368713
30
0
41
1
10
33.3125667770544
20
-6.28406395770932
30
0
41
1
10
33.000888773398
20
-6.20355724738951
30
0
41
1
10
32.3765066206165
20
-6.03298887143654
30
0
41
1
10
31.985627104405
20
-5.92041279406834
30
0
41
1
10
31.5936563694751
20
-5.8005545823514
30
0
41
1
10
31.4367758198646
20
-5.75203227128787
30
0
41
1
10
31.3582590019819
20
-5.72747195743761
30
0
41
1
10
31.1228487298985
20
-5.65301915083751
30
0
41
1
10
30.966080934
20
-5.6023514518842
30
0
41
1
10
30.4962369850316
20
-5.44733941096348
30
0
41
1
10
30.1836199193896
20
-5.33998710811701
30
0
41
1
10
29.559311607136
20
-5.11770790323647
30
0
41
1
10
29.2476299050991
20
-5.00276791759026
30
0
41
1
10
28.6249768160569
20
-4.76571409383232
30
0
41
1
10
28.3140015126271
20
-4.6436214802219
30
0
41
1
10
27.3815791276539
20
-4.26751486029437
30
0
41
1
10
26.7606309546628
20
-4.00361361455816
30
0
41
1
10
25.8284792800802
20
-3.59082318536338
30
0
41
1
10
25.5176353174122
20
-3.45040800804799
30
0
41
1
10
24.8954655605765
20
-3.16435140705644
30
0
41
1
10
24.5841429795931
20
-3.01870619283744
30
0
41
1
10
23.6489065331082
20
-2.57479304304343
30
0
41
1
10
23.0237157851286
20
-2.26956138429722
30
0
41
1
10
22.395629734253
20
-1.95699400753153
30
0
0
SPLINE
5
E4
100
AcDbEntity
8
1
62
256
6
ByLayer
370
13
48
1
60
0
100
AcDbSpline
70
4
71
3
72
10
73
6
40
0
40
0
40
0
40
0
40
0.276775657266711
40
0.276775657266711
40
1
40
1
40
1
40
1
41
1
10
22.4475053088945
20
6.64946852029172
30
0
41
1
10
22.4473793270767
20
6.62670429181878
30
0
41
1
10
22.4472529088061
20
6.60393985453385
30
0
41
1
10
22.4467945764791
20
6.52169039143305
30
0
41
1
10
22.4464601155793
20
6.46220413049363
30
0
41
1
10
22.4461226642915
20
6.40271636649706
30
0
0
SPLINE
5
E5
100
AcDbEntity
8
1
62
256
6
ByLayer
370
18
48
1
60
0
100
AcDbSpline
70
4
71
3
72
41
73
37
40
0
40
0
40
0
40
0
40
0.121743366935604
40
0.121743366935604
40
0.182615050403408
40
0.182615050403408
40
0.243486733871211
40
0.243486733871211
40
0.304358417339014
40
0.304358417339014
40
0.365230100806817
40
0.365230100806817
40
0.42610178427462
40
0.42610178427462
40
0.486973467742424
40
0.486973467742424
40
0.547845151210227
40
0.57828099294413
40
0.57828099294413
40
0.593498913811081
40
0.593498913811081
40
0.608716834678033
40
0.608716834678033
40
0.669588518145838
40
0.669588518145838
40
0.730460201613644
40
0.730460201613644
40
0.791331885081449
40
0.791331885081449
40
0.852203568549255
40
0.852203568549255
40
0.91307525201706
40
0.91307525201706
40
0.973946935484865
40
0.973946935484865
40
1
40
1
40
1
40
1
41
1
10
22.4461226642915
20
6.40271636649703
30
0
41
1
10
23.0722275763106
20
6.25906167782369
30
0
41
1
10
23.6959706568897
20
6.09529144042631
30
0
41
1
10
24.6293491616121
20
5.8234732158775
30
0
41
1
10
24.9400873644911
20
5.72850322329168
30
0
41
1
10
25.5607912578743
20
5.53047155593654
30
0
41
1
10
25.8707854646125
20
5.42738866323336
30
0
41
1
10
26.490739944164
20
5.21308974432264
30
0
41
1
10
26.8006870878915
20
5.10188838150751
30
0
41
1
10
27.4208009572816
20
4.87188234642909
30
0
41
1
10
27.7309620813343
20
4.75307668713126
30
0
41
1
10
28.3515644847792
20
4.50837394076683
30
0
41
1
10
28.6620357455772
20
4.38247839122431
30
0
41
1
10
29.2831814941386
20
4.12397017703623
30
0
41
1
10
29.5938219982841
20
3.99135848496812
30
0
41
1
10
30.2164513677009
20
3.71980995471554
30
0
41
1
10
30.6844478893195
20
3.51139956180512
30
0
41
1
10
31.1540829880786
20
3.29640431778864
30
0
41
1
10
31.3891824749171
20
3.18785529482676
30
0
41
1
10
31.4675731917293
20
3.15150743398135
30
0
41
1
10
31.6242115854467
20
3.07858082369972
30
0
41
1
10
31.7024870397105
20
3.04198930948746
30
0
41
1
10
32.0936548699265
20
2.85841179833315
30
0
41
1
10
32.4059167337012
20
2.70956211426562
30
0
41
1
10
33.0291885719997
20
2.40816471564722
30
0
41
1
10
33.3402072476268
20
2.25563035911756
30
0
41
1
10
33.9615502834764
20
1.94778539256148
30
0
41
1
10
34.2718656518885
20
1.79246101758321
30
0
41
1
10
34.8918330770034
20
1.47921840105059
30
0
41
1
10
35.2014979307392
20
1.32131711655828
30
0
41
1
10
35.8210306987466
20
1.00437301118512
30
0
41
1
10
36.1308877546784
20
0.845315288086937
30
0
41
1
10
36.7507942513539
20
0.526169236817026
30
0
41
1
10
37.0608443521697
20
0.36608193388966
30
0
41
1
10
37.5037860702122
20
0.136904044556871
30
0
41
1
10
37.6365684557611
20
0.0681405565113948
30
0
41
1
10
37.769368460337
20
-0.0007055848888058
30
0
0
SPLINE
5
E6
100
AcDbEntity
8
1
62
256
6
ByLayer
370
18
48
1
60
0
100
AcDbSpline
70
4
71
3
72
14
73
10
40
0
40
0
40
0
40
0
40
0.25
40
0.25
40
0.5
40
0.5
40
0.75
40
0.75
40
1
40
1
40
1
40
1
41
1
10
82.2360672170237
20
-7.21035193308904
30
0
41
1
10
82.2362315093545
20
-7.21051970389246
30
0
41
1
10
82.2363248380508
20
-7.21087828517594
30
0
41
1
10
82.2363258914331
20
-7.21207477277548
30
0
41
1
10
82.2362282241316
20
-7.21291033782197
30
0
41
1
10
82.2358103111841
20
-7.21498888274149
30
0
41
1
10
82.2354837523744
20
-7.21624957113971
30
0
41
1
10
82.2346765657614
20
-7.21887208650455
30
0
41
1
10
82.2342003707186
20
-7.22022526927717
30
0
41
1
10
82.233710845441
20
-7.22148072827324
30
0
0
SPLINE
5
E7
100
AcDbEntity
8
1
62
256
6
ByLayer
370
18
48
1
60
0
100
AcDbSpline
70
4
71
3
72
8
73
4
40
0
40
0
40
0
40
0
40
1
40
1
40
1
40
1
41
1
10
82.0738657254272
20
-7.48525759062949
30
0
41
1
10
82.1241845909972
20
-7.40514113461902
30
0
41
1
10
82.1745601646894
20
-7.32466471569907
30
0
41
1
10
82.2249994075835
20
-7.24382966161895
30
0
0
SPLINE
5
E8
100
AcDbEntity
8
1
62
256
6
ByLayer
370
18
48
1
60
0
100
AcDbSpline
70
4
71
3
72
8
73
4
40
0
40
0
40
0
40
0
40
1
40
1
40
1
40
1
41
1
10
82.2337108454409
20
-7.22148072827321
30
0
41
1
10
82.2308057627268
20
-7.22893123674251
30
0
41
1
10
82.2279019476751
20
-7.2363808791232
30
0
41
1
10
82.2249994075835
20
-7.24382966161895
30
0
0
SPLINE
5
E9
100
AcDbEntity
8
1
62
256
6
ByLayer
370
18
48
1
60
0
100
AcDbSpline
70
4
71
3
72
50
73
46
40
0
40
0
40
0
40
0
40
0.0463778864336068
40
0.0463778864336068
40
0.0695668296504101
40
0.0695668296504101
40
0.0927557728672135
40
0.0927557728672135
40
0.185511545734427
40
0.185511545734427
40
0.231889432168032
40
0.231889432168032
40
0.255078375384836
40
0.255078375384836
40
0.27826731860164
40
0.27826731860164
40
0.371023091468859
40
0.371023091468859
40
0.417400977902469
40
0.417400977902469
40
0.463778864336079
40
0.463778864336079
40
0.510156750769689
40
0.510156750769689
40
0.533345693986495
40
0.533345693986495
40
0.556534637203301
40
0.556534637203301
40
0.649290410070521
40
0.649290410070521
40
0.742046182937741
40
0.742046182937741
40
0.788424069371351
40
0.788424069371351
40
0.834801955804961
40
0.834801955804961
40
0.881179842238571
40
0.881179842238571
40
0.927557728672181
40
0.927557728672181
40
0.973935615105791
40
0.973935615105791
40
0.997124558322595
40
0.997124558322595
40
1
40
1
40
1
40
1
41
1
10
82.233710845441
20
-7.22148072827324
30
0
41
1
10
81.9206120404924
20
-7.20151602204183
30
0
41
1
10
81.6075560326055
20
-7.17598314026037
30
0
41
1
10
81.1378188432156
20
-7.12943020677224
30
0
41
1
10
80.9811655582261
20
-7.11253008934022
30
0
41
1
10
80.6683266333247
20
-7.07606192259601
30
0
41
1
10
80.5120812354374
20
-7.05648881364644
30
0
41
1
10
79.7316302127306
20
-6.95201760587344
30
0
41
1
10
79.1097514973654
20
-6.84731508463867
30
0
41
1
10
78.1789001469908
20
-6.6604848633321
30
0
41
1
10
77.8689461801623
20
-6.59324294836378
30
0
41
1
10
77.4042277052498
20
-6.48514066751056
30
0
41
1
10
77.2493541291016
20
-6.44789678953762
30
0
41
1
10
76.9396803432288
20
-6.37107294337915
30
0
41
1
10
76.7848847488316
20
-6.3315004199786
30
0
41
1
10
76.0109463469096
20
-6.12776366418936
30
0
41
1
10
75.3918768030493
20
-5.94586433346078
30
0
41
1
10
74.4615749486409
20
-5.64668909197042
30
0
41
1
10
74.1511868197624
20
-5.54257210446713
30
0
41
1
10
73.5296269886166
20
-5.32594852109511
30
0
41
1
10
73.2184632690217
20
-5.21344796461341
30
0
41
1
10
72.5949738783817
20
-4.98034942040334
30
0
41
1
10
72.2826418606625
20
-4.85974460697807
30
0
41
1
10
71.8130550888101
20
-4.67304720911673
30
0
41
1
10
71.656290433248
20
-4.6098271726313
30
0
41
1
10
71.3433414530684
20
-4.48190062902432
30
0
41
1
10
71.1870405413844
20
-4.41714829174421
30
0
41
1
10
70.406315309668
20
-4.08958619533439
30
0
41
1
10
69.7842290558395
20
-3.81537009274902
30
0
41
1
10
68.5425998493733
20
-3.24709032298605
30
0
41
1
10
67.9230372062419
20
-2.95307713391568
30
0
41
1
10
66.9937670662007
20
-2.50047238938495
30
0
41
1
10
66.6840305586382
20
-2.34764962760551
30
0
41
1
10
66.0643342003302
20
-2.03863443447222
30
0
41
1
10
65.7543768831108
20
-1.88244130454916
30
0
41
1
10
65.1339097578197
20
-1.56724294668331
30
0
41
1
10
64.8233988434473
20
-1.40823410160999
30
0
41
1
10
64.2015095132978
20
-1.08803516396753
30
0
41
1
10
63.8901295163917
20
-0.926846832258917
30
0
41
1
10
63.266241586211
20
-0.602730960618317
30
0
41
1
10
62.9537350742334
20
-0.439811573141128
30
0
41
1
10
62.4838860328535
20
-0.194597572863699
30
0
41
1
10
62.3270741913298
20
-0.112713328647686
30
0
41
1
10
62.1510239274862
20
-0.0207893477038681
30
0
41
1
10
62.1316032821709
20
-0.0106490166487276
30
0
41
1
10
62.1121839451492
20
-0.0005095486908999
30
0
0
SPLINE
5
EA
100
AcDbEntity
8
1
62
256
6
ByLayer
370
18
48
1
60
0
100
AcDbSpline
70
4
71
3
72
8
73
4
40
0
40
0
40
0
40
0
40
1
40
1
40
1
40
1
41
1
10
82.1010093659459
20
-0.426527594498083
30
0
41
1
10
82.1332215100138
20
-0.438958341031537
30
0
41
1
10
82.1654458985617
20
-0.450744665864562
30
0
41
1
10
82.1976960298088
20
-0.461890785646347
30
0
0
SPLINE
5
EB
100
AcDbEntity
8
1
62
256
6
ByLayer
370
18
48
1
60
0
100
AcDbSpline
70
4
71
3
72
62
73
58
40
0
40
0
40
0
40
0
40
0.0391322474777243
40
0.0391322474777243
40
0.0599916553374765
40
0.0599916553374765
40
0.0808510631972287
40
0.0808510631972287
40
0.122569878916731
40
0.122569878916731
40
0.143429286776482
40
0.143429286776482
40
0.164288694636232
40
0.164288694636232
40
0.206007510355732
40
0.206007510355732
40
0.226866918215481
40
0.226866918215481
40
0.247726326075231
40
0.247726326075231
40
0.289445141794729
40
0.289445141794729
40
0.331163957514227
40
0.331163957514227
40
0.372882773233725
40
0.372882773233725
40
0.414601588953224
40
0.414601588953224
40
0.456320404672722
40
0.456320404672722
40
0.539758036111717
40
0.539758036111717
40
0.560617443971466
40
0.560617443971466
40
0.581476851831215
40
0.581476851831215
40
0.623195667550713
40
0.623195667550713
40
0.664914483270212
40
0.664914483270212
40
0.70663329898971
40
0.70663329898971
40
0.790070930428708
40
0.790070930428708
40
0.810930338288458
40
0.810930338288458
40
0.831789746148207
40
0.831789746148207
40
0.873508561867707
40
0.873508561867707
40
0.956946193306709
40
0.956946193306709
40
0.977805601166462
40
0.977805601166462
40
0.998665009026214
40
0.998665009026214
40
1
40
1
40
1
40
1
41
1
10
58.9348857889347
20
7.22107833016653
30
0
41
1
10
59.2279386462483
20
7.22782233962894
30
0
41
1
10
59.520787937461
20
7.22991503057483
30
0
41
1
10
59.9694666806122
20
7.2264632810942
30
0
41
1
10
60.1254191162943
20
7.22403493839087
30
0
41
1
10
60.4371956581121
20
7.21681620316599
30
0
41
1
10
60.5930393752607
20
7.21198088398768
30
0
41
1
10
61.0609222986523
20
7.19263669608202
30
0
41
1
10
61.3732496314605
20
7.17345650279191
30
0
41
1
10
61.8423355148256
20
7.13613728203887
30
0
41
1
10
61.9987964471391
20
7.12226964886906
30
0
41
1
10
62.3119109163191
20
7.09176719775104
30
0
41
1
10
62.4686550209864
20
7.07512123750809
30
0
41
1
10
62.9382221090549
20
7.02127997858446
30
0
41
1
10
63.25051802985
20
6.98017815451544
30
0
41
1
10
63.7179412881048
20
6.91138394625992
30
0
41
1
10
63.8735777162539
20
6.88725834469287
30
0
41
1
10
64.1845391430412
20
6.83660325164595
30
0
41
1
10
64.3398750595119
20
6.81005209432635
30
0
41
1
10
64.8057235912635
20
6.72618782659521
30
0
41
1
10
65.1160355097855
20
6.66476904583044
30
0
41
1
10
65.7361445706948
20
6.53214141512242
30
0
41
1
10
66.0459506989768
20
6.46090983092734
30
0
41
1
10
66.6653294809502
20
6.30894508530574
30
0
41
1
10
66.9748896847199
20
6.22822275277804
30
0
41
1
10
67.5936455650614
20
6.05808267019935
30
0
41
1
10
67.9028714215773
20
5.96863667267584
30
0
41
1
10
68.5220295667286
20
5.78031941908597
30
0
41
1
10
68.8319397082556
20
5.68147392794191
30
0
41
1
10
69.7627967846477
20
5.37194252889998
30
0
41
1
10
70.3848674011805
20
5.14822778671609
30
0
41
1
10
71.1647766606027
20
4.84904418349734
30
0
41
1
10
71.3208794307447
20
4.78822934490285
30
0
41
1
10
71.6334294258751
20
4.66465122169703
30
0
41
1
10
71.789993034007
20
4.60183976840852
30
0
41
1
10
72.2589713199586
20
4.41105665091081
30
0
41
1
10
72.570937258172
20
4.28063867581608
30
0
41
1
10
73.1936836904472
20
4.01394901758053
30
0
41
1
10
73.504475550279
20
3.87768007933363
30
0
41
1
10
74.1253826593437
20
3.59985844198027
30
0
41
1
10
74.4354872011641
20
3.45830385352713
30
0
41
1
10
75.3649839365536
20
3.02654595177469
30
0
41
1
10
75.9835554502445
20
2.72922714993257
30
0
41
1
10
76.756092871583
20
2.34766214055344
30
0
41
1
10
76.9105759753354
20
2.27086172891725
30
0
41
1
10
77.2197056918491
20
2.11647660941347
30
0
41
1
10
77.3743451626529
20
2.03888621869587
30
0
41
1
10
77.8384914209489
20
1.80500536522138
30
0
41
1
10
78.1482276643108
20
1.64760585469332
30
0
41
1
10
79.0785569128226
20
1.17165942662399
30
0
41
1
10
79.7002706573836
20
0.849360138408827
30
0
41
1
10
80.4798281342711
20
0.441949795527051
30
0
41
1
10
80.6358601562558
20
0.36024095277088
30
0
41
1
10
80.9481874489718
20
0.196414098499929
30
0
41
1
10
81.1045342782284
20
0.114268902546428
30
0
41
1
10
81.270779495618
20
0.0268090252788795
30
0
41
1
10
81.2807789075379
20
0.0215480007999531
30
0
41
1
10
81.2907781004567
20
0.0162866608737602
30
0
0
SPLINE
5
EC
100
AcDbEntity
8
1
62
256
6
ByLayer
370
18
48
1
60
0
100
AcDbSpline
70
4
71
3
72
8
73
4
40
0
40
0
40
0
40
0
40
1
40
1
40
1
40
1
41
1
10
82.1976960298088
20
-0.46189078564629
30
0
41
1
10
82.1996022744377
20
-0.462549611832259
30
0
41
1
10
82.2005819079664
20
-0.467819663395602
30
0
41
1
10
82.1998735923563
20
-0.473637344947747
30
0
0
SPLINE
5
ED
100
AcDbEntity
8
1
62
256
6
ByLayer
370
18
48
1
60
0
100
AcDbSpline
70
4
71
3
72
42
73
38
40
0
40
0
40
0
40
0
40
0.0019374117815166
40
0.0019374117815166
40
0.0606469757943719
40
0.0606469757943719
40
0.119356539807227
40
0.119356539807227
40
0.178066103820083
40
0.178066103820083
40
0.236775667832938
40
0.236775667832938
40
0.295485231845793
40
0.295485231845793
40
0.354194795858648
40
0.354194795858648
40
0.412904359871504
40
0.427581750874717
40
0.427581750874717
40
0.44225914187793
40
0.44225914187793
40
0.471613923884356
40
0.530323487897205
40
0.530323487897205
40
0.589033051910054
40
0.589033051910054
40
0.647742615922904
40
0.647742615922904
40
0.706452179935753
40
0.706452179935753
40
0.765161743948602
40
0.765161743948602
40
0.823871307961452
40
0.823871307961452
40
0.882580871974301
40
0.882580871974301
40
1
40
1
40
1
40
1
41
1
10
38.3299559372265
20
-0.302618078647043
30
0
41
1
10
38.3197124507604
20
-0.297297853825427
30
0
41
1
10
38.3094690690728
20
-0.291978092517695
30
0
41
1
10
37.9888216884278
20
-0.12546960727272
30
0
41
1
10
37.6784681795915
20
0.0352165701876004
30
0
41
1
10
37.0580249837382
20
0.355795947095714
30
0
41
1
10
36.7479374385496
20
0.515693383213147
30
0
41
1
10
36.1279570354504
20
0.834477255509626
30
0
41
1
10
35.8180637446397
20
0.993363136186133
30
0
41
1
10
35.1984593130135
20
1.30998185696984
30
0
41
1
10
34.8887573240947
20
1.46772615497227
30
0
41
1
10
34.2687143076383
20
1.78066412358166
30
0
41
1
10
33.9583627350956
20
1.93584531144433
30
0
41
1
10
33.3369506563867
20
2.24342345147983
30
0
41
1
10
33.0258973787127
20
2.39583068479854
30
0
41
1
10
32.4025579420993
20
2.69698683114601
30
0
41
1
10
32.0121912539769
20
2.88290995097688
30
0
41
1
10
31.6207774664998
20
3.06574235407325
30
0
41
1
10
31.4641249384166
20
3.13862043278388
30
0
41
1
10
31.3857276364385
20
3.17494444002278
30
0
41
1
10
31.1506047829021
20
3.2834255637151
30
0
41
1
10
30.6809219567186
20
3.49829350944617
30
0
41
1
10
30.2128746596948
20
3.70660168052308
30
0
41
1
10
29.5901747380227
20
3.97803556524934
30
0
41
1
10
29.2794947717569
20
4.11059490152851
30
0
41
1
10
28.6582675625267
20
4.36901341257541
30
0
41
1
10
28.3477566005555
20
4.49487627744944
30
0
41
1
10
27.7270746450805
20
4.73953438327493
30
0
41
1
10
27.4168739067607
20
4.85832822252064
30
0
41
1
10
26.7966806570574
20
5.08833088061601
30
0
41
1
10
26.4866933566999
20
5.19954007660647
30
0
41
1
10
25.8666580323417
20
5.41387333864307
30
0
41
1
10
25.556621966681
20
5.51698107974781
30
0
41
1
10
24.9358328547307
20
5.71507661311091
30
0
41
1
10
24.6250530838066
20
5.8100879307751
30
0
41
1
10
23.6915545249351
20
6.08206072915459
30
0
41
1
10
23.0677348090861
20
6.24597131105963
30
0
41
1
10
22.4415558268642
20
6.38980221386609
30
0
0
SPLINE
5
EE
100
AcDbEntity
8
1
62
256
6
ByLayer
370
13
48
1
60
0
100
AcDbSpline
70
4
71
3
72
10
73
6
40
0
40
0
40
0
40
0
40
0.5
40
0.5
40
1
40
1
40
1
40
1
41
1
10
22.4415558268643
20
6.38980221386609
30
0
41
1
10
22.4351903213888
20
6.39126434598063
30
0
41
1
10
22.4285634815899
20
6.39235610483419
30
0
41
1
10
22.4148058783541
20
6.39382972170947
30
0
41
1
10
22.4076373027279
20
6.39420494022232
30
0
41
1
10
22.4004664637627
20
6.39419085824645
30
0
0
SPLINE
5
EF
100
AcDbEntity
8
1
62
256
6
ByLayer
370
13
48
1
60
0
100
AcDbSpline
70
4
71
3
72
47
73
43
40
0
40
0
40
0
40
0
40
0.0625000000000006
40
0.125000000000001
40
0.125000000000001
40
0.156250000000001
40
0.171875000000001
40
0.171875000000001
40
0.187500000000001
40
0.187500000000001
40
0.250000000000002
40
0.250000000000002
40
0.312500000000002
40
0.312500000000002
40
0.375000000000003
40
0.437500000000003
40
0.437500000000003
40
0.468750000000003
40
0.484375000000003
40
0.484375000000003
40
0.500000000000003
40
0.500000000000003
40
0.562500000000003
40
0.625000000000003
40
0.625000000000003
40
0.640625000000003
40
0.640625000000003
40
0.656250000000002
40
0.687500000000002
40
0.687500000000002
40
0.750000000000002
40
0.750000000000002
40
0.765625000000002
40
0.765625000000002
40
0.781250000000002
40
0.781250000000002
40
0.812500000000001
40
0.812500000000001
40
0.875000000000001
40
0.9375
40
0.9375
40
1
40
1
40
1
40
1
41
1
10
22.4004664637628
20
6.39419085824645
30
0
41
1
10
22.4004621579279
20
6.30124093668829
30
0
41
1
10
22.400452943184
20
6.10033104456801
30
0
41
1
10
22.4004428381764
20
5.87004108672392
30
0
41
1
10
22.4004350237222
20
5.68629541043939
30
0
41
1
10
22.4004310573275
20
5.59166182154985
30
0
41
1
10
22.4004270182977
20
5.49285023697064
30
0
41
1
10
22.4004243111108
20
5.42604079686291
30
0
41
1
10
22.4004229494745
20
5.39214851553223
30
0
41
1
10
22.400416119357
20
5.22059048300332
30
0
41
1
10
22.400410593503
20
5.07683799146466
30
0
41
1
10
22.4003995201246
20
4.77648822463436
30
0
41
1
10
22.40039402243
20
4.62123930070291
30
0
41
1
10
22.4003831713973
20
4.30091743494071
30
0
41
1
10
22.4003724644753
20
3.97076998017872
30
0
41
1
10
22.4003621290469
20
3.62116581343639
30
0
41
1
10
22.400354531174
20
3.35157752788641
30
0
41
1
10
22.4003507704124
20
3.21493456599831
30
0
41
1
10
22.4003470672575
20
3.07547785865611
30
0
41
1
10
22.4003446111576
20
2.98187518671301
30
0
41
1
10
22.4003433882853
20
2.93471229721706
30
0
41
1
10
22.4003373233228
20
2.69801513950532
30
0
41
1
10
22.4003279324802
20
2.31352926503294
30
0
41
1
10
22.4003190848044
20
1.91763849760213
30
0
41
1
10
22.4003136860905
20
1.66660458808934
30
0
41
1
10
22.4003126121847
20
1.61618565588262
30
0
41
1
10
22.40031048131
20
1.51522906639582
30
0
41
1
10
22.4003073092192
20
1.3635636282082
30
0
41
1
10
22.400304203476
20
1.2112101749652
30
0
41
1
10
22.4002980622466
20
0.905590743082939
30
0
41
1
10
22.4002940623646
20
0.700629463254359
30
0
41
1
10
22.4002891115139
20
0.442899404059858
30
0
41
1
10
22.4002881237474
20
0.39127683493902
30
0
41
1
10
22.400286151105
20
0.287877795137859
30
0
41
1
10
22.4002851673781
20
0.236161455942522
30
0
41
1
10
22.4002822276276
20
0.081314512366788
30
0
41
1
10
22.4002802803357
20
-0.0216560789697269
30
0
41
1
10
22.4002744507775
20
-0.329797855107813
30
0
41
1
10
22.4002667114714
20
-0.738603045848492
30
0
41
1
10
22.4002587581072
20
-1.14336540383607
30
0
41
1
10
22.4002505460349
20
-1.54609036910605
30
0
41
1
10
22.4002463107893
20
-1.7464343139562
30
0
41
1
10
22.4002418614714
20
-1.94572834916949
30
0
0
SPLINE
5
F0
100
AcDbEntity
8
1
62
256
6
ByLayer
370
18
48
1
60
0
100
AcDbSpline
70
4
71
3
72
44
73
40
40
0
40
0
40
0
40
0
40
0.102275631667892
40
0.102275631667892
40
0.153413447501838
40
0.153413447501838
40
0.204551263335784
40
0.204551263335784
40
0.306826895003676
40
0.306826895003676
40
0.357964710837622
40
0.357964710837622
40
0.409102526671569
40
0.409102526671569
40
0.460240342505516
40
0.485809250422489
40
0.485809250422489
40
0.498593704380974
40
0.498593704380974
40
0.511378158339459
40
0.511378158339459
40
0.562515974173401
40
0.562515974173401
40
0.613653790007342
40
0.613653790007342
40
0.664791605841284
40
0.664791605841284
40
0.715929421675225
40
0.715929421675225
40
0.818205053343108
40
0.818205053343108
40
0.86934286917705
40
0.86934286917705
40
0.920480685010991
40
0.920480685010991
40
0.971618500844933
40
0.997187408761904
40
0.997187408761904
40
1
40
1
40
1
40
1
41
1
10
22.4002418614713
20
-1.94572834916946
30
0
41
1
10
23.0282821598835
20
-2.2579475401335
30
0
41
1
10
23.653434265977
20
-2.56287286408528
30
0
41
1
10
24.5886208102447
20
-3.00638661593942
30
0
41
1
10
24.8999282175373
20
-3.15190852035576
30
0
41
1
10
25.5220699900515
20
-3.43773842043106
30
0
41
1
10
25.8329010053444
20
-3.57805044946514
30
0
41
1
10
26.765014878137
20
-3.99056319009892
30
0
41
1
10
27.3859395269404
20
-4.25432060671926
30
0
41
1
10
28.318326553443
20
-4.63027198485364
30
0
41
1
10
28.6292903570341
20
-4.75232258564699
30
0
41
1
10
29.2519190908638
20
-4.98931417963877
30
0
41
1
10
29.5635884037154
20
-5.10423329120562
30
0
41
1
10
30.1878696010222
20
-5.32649211857378
30
0
41
1
10
30.6567734221203
20
-5.48752070955521
30
0
41
1
10
31.127052255856
20
-5.63954740054626
30
0
41
1
10
31.3624498587575
20
-5.71401559780517
30
0
41
1
10
31.4409626765798
20
-5.7385817782878
30
0
41
1
10
31.5978355949924
20
-5.78711723601353
30
0
41
1
10
31.6762260508453
20
-5.8110961963398
30
0
41
1
10
32.0679604448152
20
-5.92953758929227
30
0
41
1
10
32.3806512779245
20
-6.01964086206999
30
0
41
1
10
33.0050106405185
20
-6.19031577009369
30
0
41
1
10
33.3166785064876
20
-6.27088679139294
30
0
41
1
10
33.9392037202093
20
-6.4222636028621
30
0
41
1
10
34.2500617469397
20
-6.49307053382694
30
0
41
1
10
34.8713410555415
20
-6.62471790966103
30
0
41
1
10
35.1817718197572
20
-6.68556853544243
30
0
41
1
10
36.1128008886656
20
-6.85290910633677
30
0
41
1
10
36.7330871316745
20
-6.94414843029531
30
0
41
1
10
37.6646453491335
20
-7.04958106627214
30
0
41
1
10
37.9753557441455
20
-7.07948868513523
30
0
41
1
10
38.5975088042977
20
-7.12860812312579
30
0
41
1
10
38.908961770152
20
-7.14786543352821
30
0
41
1
10
39.5328550580505
20
-7.17556032403084
30
0
41
1
10
40.0015005802714
20
-7.18814630431709
30
0
41
1
10
40.4715977966729
20
-7.18833151195122
30
0
41
1
10
40.6457353379055
20
-7.18686949831951
30
0
41
1
10
40.6629934287948
20
-7.18670792522556
30
0
41
1
10
40.6802516495351
20
-7.18652969492123
30
0
0
SPLINE
5
F1
100
AcDbEntity
8
1
62
256
6
ByLayer
370
18
48
1
60
0
100
AcDbSpline
70
4
71
3
72
8
73
4
40
0
40
0
40
0
40
0
40
1
40
1
40
1
40
1
41
1
10
82.1998735923563
20
-0.473637344947775
30
0
41
1
10
82.1770840385731
20
-0.461619691439438
30
0
41
1
10
82.1542938334186
20
-0.449602727703791
30
0
41
1
10
82.1315029406412
20
-0.437586522067875
30
0
0
SPLINE
5
F2
100
AcDbEntity
8
1
62
256
6
ByLayer
370
18
48
1
60
0
100
AcDbSpline
70
4
71
3
72
62
73
58
40
0
40
0
40
0
40
0
40
0.0264070697204862
40
0.0264070697204862
40
0.0472987254562348
40
0.0472987254562348
40
0.0681903811919837
40
0.0681903811919837
40
0.151757004134984
40
0.151757004134984
40
0.193540315606485
40
0.193540315606485
40
0.214431971342234
40
0.214431971342234
40
0.235323627077984
40
0.235323627077984
40
0.318890250020987
40
0.318890250020987
40
0.360673561492488
40
0.360673561492488
40
0.402456872963989
40
0.402456872963989
40
0.44424018443549
40
0.44424018443549
40
0.46513184017124
40
0.46513184017124
40
0.486023495906991
40
0.486023495906991
40
0.569590118849996
40
0.569590118849996
40
0.611373430321498
40
0.611373430321498
40
0.653156741793
40
0.653156741793
40
0.694940053264502
40
0.694940053264502
40
0.736723364736003
40
0.736723364736003
40
0.778506676207505
40
0.778506676207505
40
0.799398331943256
40
0.799398331943256
40
0.820289987679007
40
0.820289987679007
40
0.862073299150507
40
0.862073299150507
40
0.882964954886258
40
0.882964954886258
40
0.903856610622009
40
0.903856610622009
40
0.945639922093512
40
0.945639922093512
40
0.966531577829265
40
0.966531577829265
40
0.987423233565017
40
0.987423233565017
40
1
40
1
40
1
40
1
41
1
10
81.8551687683238
20
-0.291953548185632
30
0
41
1
10
81.6578036585051
20
-0.187986102015827
30
0
41
1
10
81.4603760298468
20
-0.084096172313707
30
0
41
1
10
81.1066016430555
20
0.1017668481025
30
0
41
1
10
80.9502372469696
20
0.183811403294015
30
0
41
1
10
80.6378691003708
20
0.347444953014673
30
0
41
1
10
80.4818166145436
20
0.429059600974085
30
0
41
1
10
79.7021567207698
20
0.83601125527818
30
0
41
1
10
79.080361271371
20
1.15798558668436
30
0
41
1
10
78.149909699453
20
1.63350602069264
30
0
41
1
10
77.8401330001016
20
1.79077454262503
30
0
41
1
10
77.3759263487851
20
2.02447501496306
30
0
41
1
10
77.2212668305048
20
2.10200814943789
30
0
41
1
10
76.912097619334
20
2.25628570209784
30
0
41
1
10
76.7575948521115
20
2.3330342003668
30
0
41
1
10
75.9849600153906
20
2.71434314776687
30
0
41
1
10
75.3663158321247
20
3.01149611674475
30
0
41
1
10
74.4367177632155
20
3.44306686871349
30
0
41
1
10
74.1265810593958
20
3.58457000915942
30
0
41
1
10
73.5056139299969
20
3.86231344772966
30
0
41
1
10
73.1947935643476
20
3.99855327366018
30
0
41
1
10
72.5719934078303
20
4.26520125443767
30
0
41
1
10
72.26000283857
20
4.3956089375346
30
0
41
1
10
71.7909915792555
20
4.58639476913217
30
0
41
1
10
71.6344115996068
20
4.64921188376908
30
0
41
1
10
71.3218219135405
20
4.77280766662307
30
0
41
1
10
71.1656992469707
20
4.83363339019547
30
0
41
1
10
70.3856908937594
20
5.13288177199829
30
0
41
1
10
69.76354123014
20
5.3566947402056
30
0
41
1
10
68.8325643896248
20
5.66643958984722
30
0
41
1
10
68.5226144473363
20
5.76536811643092
30
0
41
1
10
67.9033772573856
20
5.9538757360792
30
0
41
1
10
67.5941114494258
20
6.04342269507228
30
0
41
1
10
66.9752777915704
20
6.2137725428635
30
0
41
1
10
66.6656802556154
20
6.29461024617009
30
0
41
1
10
66.0462293634434
20
6.44683124656623
30
0
41
1
10
65.7363883428172
20
6.51820128582656
30
0
41
1
10
65.1162116172014
20
6.65112348761707
30
0
41
1
10
64.8058674657894
20
6.71270111360911
30
0
41
1
10
64.3399731272366
20
6.79682336704761
30
0
41
1
10
64.1846218964318
20
6.82346166505209
30
0
41
1
10
63.8736295436991
20
6.87428782628629
30
0
41
1
10
63.7179779070396
20
6.89849955852131
30
0
41
1
10
63.2505108856391
20
6.96755999193729
30
0
41
1
10
62.9381887958838
20
7.00884963747646
30
0
41
1
10
62.4685868323714
20
7.06298908010291
30
0
41
1
10
62.3118275024364
20
7.07973760212445
30
0
41
1
10
61.9986797879462
20
7.11045004688521
30
0
41
1
10
61.8422021859382
20
7.12442504705368
30
0
41
1
10
61.3730659628355
20
7.16207316968504
30
0
41
1
10
61.0607050226219
20
7.18148259651318
30
0
41
1
10
60.5927722962731
20
7.20118675453807
30
0
41
1
10
60.4369115817664
20
7.20614195214887
30
0
41
1
10
60.1251003174293
20
7.2135938798238
30
0
41
1
10
59.9691306474103
20
7.21613898560707
30
0
41
1
10
59.7191792165157
20
7.21825371448418
30
0
41
1
10
59.6252342517195
20
7.21860181799113
30
0
41
1
10
59.5312702488438
20
7.2184931870876
30
0
0
SPLINE
5
F3
100
AcDbEntity
8
1
62
256
6
ByLayer
370
18
48
1
60
0
100
AcDbSpline
70
4
71
3
72
9
73
5
40
0
40
0
40
0
40
0
40
0.210935351201949
40
1
40
1
40
1
40
1
41
1
10
40.1076487960701
20
7.18631554588004
30
0
41
1
10
40.1245509835575
20
7.18650315481153
30
0
41
1
10
40.204689487244
20
7.18731642025256
30
0
41
1
10
40.284870274676
20
7.18776848626112
30
0
41
1
10
40.3481657605789
20
7.18790023847205
30
0
0
SPLINE
5
F4
100
AcDbEntity
8
1
62
256
6
ByLayer
370
18
48
1
60
0
100
AcDbSpline
70
4
71
3
72
50
73
46
40
0
40
0
40
0
40
0
40
0.0056946402198622
40
0.0056946402198622
40
0.028292489305774
40
0.028292489305774
40
0.0508903383916857
40
0.0508903383916857
40
0.0960860365635112
40
0.0960860365635112
40
0.141281734735337
40
0.141281734735337
40
0.186477432907162
40
0.186477432907162
40
0.231673131078988
40
0.231673131078988
40
0.276868829250813
40
0.276868829250813
40
0.367260225594462
40
0.367260225594462
40
0.457651621938112
40
0.480249471024022
40
0.480249471024022
40
0.502847320109934
40
0.502847320109934
40
0.548043018281756
40
0.548043018281756
40
0.593238716453578
40
0.593238716453578
40
0.6384344146254
40
0.6384344146254
40
0.728825810969048
40
0.728825810969048
40
0.751423660054962
40
0.751423660054962
40
0.774021509140875
40
0.774021509140875
40
0.819217207312699
40
0.819217207312699
40
0.909608603656346
40
0.93220645274226
40
0.93220645274226
40
0.954804301828173
40
0.954804301828173
40
1
40
1
40
1
40
1
41
1
10
61.5855634295664
20
0.285225493364692
30
0
41
1
10
61.6249843186948
20
0.26469444723611
30
0
41
1
10
61.6644091788856
20
0.24415697752508
30
0
41
1
10
61.8603035676775
20
0.142092026781995
30
0
41
1
10
62.0168362473854
20
0.0604784806814678
30
0
41
1
10
62.3300762677579
20
-0.102854413842437
30
0
41
1
10
62.486879539607
20
-0.184623752147786
30
0
41
1
10
62.9567097622408
20
-0.429502550659862
30
0
41
1
10
63.269205253809
20
-0.592207077105712
30
0
41
1
10
63.8930737503269
20
-0.915910728699174
30
0
41
1
10
64.2044457213066
20
-1.07690097708502
30
0
41
1
10
64.8263197677753
20
-1.39672289821044
30
0
41
1
10
65.1368228763617
20
-1.55555400156013
30
0
41
1
10
65.7572751564974
20
-1.87041496380908
30
0
41
1
10
66.0672256713567
20
-2.02644789982014
30
0
41
1
10
66.6869079980422
20
-2.3351621703516
30
0
41
1
10
66.9966371493098
20
-2.48784451461924
30
0
41
1
10
67.9258856180184
20
-2.94005449454349
30
0
41
1
10
68.5454336234884
20
-3.23384063240408
30
0
41
1
10
69.7870220936871
20
-3.80174896254329
30
0
41
1
10
70.5645992176932
20
-4.14433522462511
30
0
41
1
10
71.3460639010283
20
-4.46797286487734
30
0
41
1
10
71.6589960705246
20
-4.59585520677675
30
0
41
1
10
71.815752361997
20
-4.65905582689146
30
0
41
1
10
72.2853222178334
20
-4.84570701537609
30
0
41
1
10
72.5976439638504
20
-4.966293226819
30
0
41
1
10
73.2211152555269
20
-5.19937591916533
30
0
41
1
10
73.5322712271175
20
-5.31187891298748
30
0
41
1
10
74.1538155422921
20
-5.52853148582867
30
0
41
1
10
74.4641958575601
20
-5.63267524510419
30
0
41
1
10
75.3944753543123
20
-5.93196205931258
30
0
41
1
10
76.0135314181943
20
-6.11397731921599
30
0
41
1
10
76.7874540644286
20
-6.31790796619228
30
0
41
1
10
76.9422467454388
20
-6.35752126684943
30
0
41
1
10
77.2519136637614
20
-6.43443301999977
30
0
41
1
10
77.4067831867479
20
-6.47172430603317
30
0
41
1
10
77.8714888014856
20
-6.57997632430249
30
0
41
1
10
78.1814334183154
20
-6.64732761826207
30
0
41
1
10
79.1122531893155
20
-6.83451556120573
30
0
41
1
10
79.8895695401085
20
-6.96574110264828
30
0
41
1
10
80.6707551185424
20
-7.06401937604056
30
0
41
1
10
80.9835767878256
20
-7.10065641748108
30
0
41
1
10
81.140221746015
20
-7.11764363047047
30
0
41
1
10
81.609938417087
20
-7.16446563959167
30
0
41
1
10
81.9229813041219
20
-7.19018781641952
30
0
41
1
10
82.2360672170097
20
-7.21035193308813
30
0
0
SPLINE
5
F5
100
AcDbEntity
8
1
62
256
6
ByLayer
370
18
48
1
60
0
100
AcDbSpline
70
4
71
3
72
46
73
42
40
0
40
0
40
0
40
0
40
0.0624999999999998
40
0.0624999999999998
40
0.125
40
0.1875
40
0.1875
40
0.21875
40
0.234375
40
0.234375
40
0.25
40
0.25
40
0.312499999999999
40
0.312499999999999
40
0.374999999999998
40
0.437499999999998
40
0.437499999999998
40
0.468749999999998
40
0.468749999999998
40
0.484374999999998
40
0.484374999999998
40
0.499999999999998
40
0.562499999999999
40
0.624999999999999
40
0.6875
40
0.6875
40
0.71875
40
0.71875
40
0.75
40
0.75
40
0.8125
40
0.8125
40
0.875000000000001
40
0.875000000000001
40
0.937500000000001
40
0.937500000000001
40
0.953125000000001
40
0.953125000000001
40
0.968750000000001
40
0.968750000000001
40
1
40
1
40
1
40
1
41
1
10
82.1998735923563
20
-0.473637344947804
30
0
41
1
10
82.1743296882759
20
-0.683439723178111
30
0
41
1
10
82.1520456979507
20
-0.891393847270194
30
0
41
1
10
82.1128632344083
20
-1.30362056158512
30
0
41
1
10
82.0790683157718
20
-1.71216540949729
30
0
41
1
10
82.0541697456724
20
-2.11323320272203
30
0
41
1
10
82.0382462225722
20
-2.41113200343204
30
0
41
1
10
82.0309738174806
20
-2.5593550063052
30
0
41
1
10
82.0246409059441
20
-2.7064613617068
30
0
41
1
10
82.0206182673001
20
-2.80428045958337
30
0
41
1
10
82.018708363058
20
-2.8530259944994
30
0
41
1
10
82.0096743023522
20
-3.09493249261121
30
0
41
1
10
82.0040488372658
20
-3.28354907692722
30
0
41
1
10
81.9952901875432
20
-3.65121562475326
30
0
41
1
10
81.9890257156457
20
-4.00931423376008
30
0
41
1
10
81.9867760131337
20
-4.34834812616913
30
0
41
1
10
81.9863806894826
20
-4.59534160961391
30
0
41
1
10
81.9864657862827
20
-4.67645744342153
30
0
41
1
10
81.9869062391198
20
-4.79627564168874
30
0
41
1
10
81.9871056366884
20
-4.83594649495902
30
0
41
1
10
81.9876054952161
20
-4.91431402422373
30
0
41
1
10
81.9891099017231
20
-5.10795107298978
30
0
41
1
10
81.9940187509836
20
-5.43622686121125
30
0
41
1
10
82.0052424300188
20
-5.83172156126966
30
0
41
1
10
82.0162492977253
20
-6.06729570034099
30
0
41
1
10
82.0261400498796
20
-6.23322176610381
30
0
41
1
10
82.0297112964307
20
-6.2867355091422
30
0
41
1
10
82.0374772703328
20
-6.39010398439521
30
0
41
1
10
82.0416437131098
20
-6.43957815166479
30
0
41
1
10
82.0550825119175
20
-6.58146445924513
30
0
41
1
10
82.0652904390155
20
-6.66736842065839
30
0
41
1
10
82.0888154556344
20
-6.82218905099202
30
0
41
1
10
82.1021319923429
20
-6.89110486751147
30
0
41
1
10
82.1326556175775
20
-7.01195970526797
30
0
41
1
10
82.1498615070706
20
-7.06389923084814
30
0
41
1
10
82.1744110422711
20
-7.1179906499234
30
0
41
1
10
82.1794735940132
20
-7.12826635140939
30
0
41
1
10
82.1899215430744
20
-7.14772318373397
30
0
41
1
10
82.1953105611648
20
-7.15690911854134
30
0
41
1
10
82.2119427513939
20
-7.18274049690038
30
0
41
1
10
82.2236603740648
20
-7.19768240674949
30
0
41
1
10
82.2360672170227
20
-7.21035193308796
30
0
0
SPLINE
5
F6
100
AcDbEntity
8
1
62
256
6
ByLayer
370
18
48
1
60
0
100
AcDbSpline
70
4
71
3
72
54
73
50
40
0
40
0
40
0
40
0
40
0.0141871361194209
40
0.0141871361194209
40
0.0570485649837945
40
0.0570485649837945
40
0.142771422712542
40
0.142771422712542
40
0.185632851576916
40
0.185632851576916
40
0.207063566009102
40
0.207063566009102
40
0.228494280441288
40
0.228494280441288
40
0.314217138170034
40
0.314217138170034
40
0.39993999589878
40
0.39993999589878
40
0.421370710330968
40
0.421370710330968
40
0.442801424763155
40
0.442801424763155
40
0.485662853627529
40
0.485662853627529
40
0.528524282491903
40
0.528524282491903
40
0.571385711356276
40
0.571385711356276
40
0.61424714022065
40
0.61424714022065
40
0.635677854652836
40
0.635677854652836
40
0.657108569085022
40
0.657108569085022
40
0.699969997949394
40
0.699969997949394
40
0.742831426813767
40
0.742831426813767
40
0.785692855678139
40
0.785692855678139
40
0.807123570110326
40
0.807123570110326
40
0.828554284542513
40
0.828554284542513
40
0.871415713406885
40
0.871415713406885
40
0.914277142271257
40
0.914277142271257
40
1
40
1
40
1
40
1
41
1
10
44.1480822272883
20
-7.20027167212624
30
0
41
1
10
44.0449148779252
20
-7.2152149145997
30
0
41
1
10
43.9417212540838
20
-7.22956504781857
30
0
41
1
10
43.5269279176658
20
-7.28481811421924
30
0
41
1
10
43.215640880325
20
-7.32077986055776
30
0
41
1
10
42.2823404119769
20
-7.41191245845494
30
0
41
1
10
41.6608507813548
20
-7.4503230306623
30
0
41
1
10
40.7279009637723
20
-7.47414307419368
30
0
41
1
10
40.416802878585
20
-7.47644939798448
30
0
41
1
10
39.9497269334375
20
-7.4714210154772
30
0
41
1
10
39.7939636089595
20
-7.4683303905552
30
0
41
1
10
39.4822527166108
20
-7.45931529874466
30
0
41
1
10
39.3262746038067
20
-7.45338825678058
30
0
41
1
10
38.5470903838853
20
-7.41672920665562
30
0
41
1
10
37.9251628746624
20
-7.36487698038391
30
0
41
1
10
36.6813732742713
20
-7.21721780105383
30
0
41
1
10
36.0594754390937
20
-7.12144109926953
30
0
41
1
10
35.2806123602798
20
-6.97498409270949
30
0
41
1
10
35.124766350045
20
-6.94435505820152
30
0
41
1
10
34.8128977664845
20
-6.88043226404344
30
0
41
1
10
34.6569382871817
20
-6.84715090707104
30
0
41
1
10
34.189469016223
20
-6.74351942826036
30
0
41
1
10
33.8781520401819
20
-6.66933817737444
30
0
41
1
10
33.2557905012814
20
-6.51115836590137
30
0
41
1
10
32.944750274786
20
-6.42715833891168
30
0
41
1
10
32.3226978245577
20
-6.24959425950368
30
0
41
1
10
32.0116821661297
20
-6.15603159933207
30
0
41
1
10
31.3893071763886
20
-5.95971493008392
30
0
41
1
10
31.0779492084013
20
-5.85696035694374
30
0
41
1
10
30.6104211341923
20
-5.69618009738014
30
0
41
1
10
30.4544859817699
20
-5.64147482694773
30
0
41
1
10
30.1424565047468
20
-5.52990467310411
30
0
41
1
10
29.9865213809434
20
-5.47309699306416
30
0
41
1
10
29.5188976703325
20
-5.2996878408444
30
0
41
1
10
29.2074010025582
20
-5.18008742958864
30
0
41
1
10
28.5846368075522
20
-4.93328560661354
30
0
41
1
10
28.2733678200072
20
-4.80608458982906
30
0
41
1
10
27.6506620582501
20
-4.54464226306303
30
0
41
1
10
27.3392235745197
20
-4.41040493830755
30
0
41
1
10
26.8717249521961
20
-4.20408272668828
30
0
41
1
10
26.7158350719631
20
-4.13448114037871
30
0
41
1
10
26.4038991014199
20
-3.99368456003381
30
0
41
1
10
26.247817830431
20
-3.92247292190461
30
0
41
1
10
25.7799317405134
20
-3.70684474896296
30
0
41
1
10
25.4682921456574
20
-3.56034846158096
30
0
41
1
10
24.8453155138385
20
-3.26232394370999
30
0
41
1
10
24.5339775993402
20
-3.11079626255147
30
0
41
1
10
23.5998558260229
20
-2.64962174658848
30
0
41
1
10
22.9769596622087
20
-2.33339419322545
30
0
41
1
10
22.3527265723587
20
-2.01043808009007
30
0
0
SPLINE
5
F7
100
AcDbEntity
8
1
62
256
6
ByLayer
370
18
48
1
60
0
100
AcDbSpline
70
4
71
3
72
16
73
12
40
0
40
0
40
0
40
0
40
0.250000000000205
40
0.250000000000205
40
0.375000000000175
40
0.375000000000175
40
0.500000000000144
40
0.500000000000144
40
0.750000000000072
40
0.750000000000072
40
1
40
1
40
1
40
1
41
1
10
22.3527265723587
20
-2.0104380800901
30
0
41
1
10
22.3447391765919
20
-2.00630568414243
30
0
41
1
10
22.3375059500002
20
-2.00123972852984
30
0
41
1
10
22.3277564195659
20
-1.99227630745113
30
0
41
1
10
22.3246781412224
20
-1.98903549790072
30
0
41
1
10
22.319073426593
20
-1.98226684293868
30
0
41
1
10
22.3165256782299
20
-1.97872398530254
30
0
41
1
10
22.3096356789523
20
-1.96762581026456
30
0
41
1
10
22.3060270669596
20
-1.95949734127114
30
0
41
1
10
22.3012599930497
20
-1.94286023497085
30
0
41
1
10
22.3000255929536
20
-1.93419744006368
30
0
41
1
10
22.3000255929536
20
-1.92544051574234
30
0
0
SPLINE
5
F8
100
AcDbEntity
8
1
62
256
6
ByLayer
370
18
48
1
60
0
100
AcDbSpline
70
4
71
3
72
27
73
23
40
0
40
0
40
0
40
0
40
0.124999999999975
40
0.124999999999975
40
0.187499999999937
40
0.187499999999937
40
0.249999999999898
40
0.31249999999986
40
0.31249999999986
40
0.374999999999822
40
0.374999999999822
40
0.499999999999741
40
0.499999999999741
40
0.624999999999661
40
0.624999999999661
40
0.687499999999717
40
0.687499999999717
40
0.749999999999774
40
0.749999999999774
40
0.874999999999887
40
0.874999999999887
40
1
40
1
40
1
40
1
41
1
10
22.3000255929536
20
6.60923821929058
30
0
41
1
10
22.3000255929536
20
6.61323155752854
30
0
41
1
10
22.301138649965
20
6.61712604111554
30
0
41
1
10
22.3044271026151
20
6.62282591879284
30
0
41
1
10
22.3058099963507
20
6.62471495153349
30
0
41
1
10
22.3090688486523
20
6.62835469880989
30
0
41
1
10
22.3128170455827
20
6.63186609168181
30
0
41
1
10
22.3175236211437
20
6.63512808540284
30
0
41
1
10
22.3227234327762
20
6.63826290933307
30
0
41
1
10
22.3255593183988
20
6.63975704634922
30
0
41
1
10
22.3345663435402
20
6.64392444767898
30
0
41
1
10
22.3413419949136
20
6.64634228289611
30
0
41
1
10
22.356212584136
20
6.65035454254908
30
0
41
1
10
22.3640730709701
20
6.65189321682695
30
0
41
1
10
22.3764921350619
20
6.65351601050719
30
0
41
1
10
22.3807577993372
20
6.65394104255378
30
0
41
1
10
22.3892656797834
20
6.6545333259964
30
0
41
1
10
22.3935342491595
20
6.65470515882046
30
0
41
1
10
22.4063832756496
20
6.654852888325
30
0
41
1
10
22.4151115803466
20
6.65444711404444
30
0
41
1
10
22.4317827743201
20
6.65267447180645
30
0
41
1
10
22.4398595629606
20
6.6513087958898
30
0
41
1
10
22.4475053088945
20
6.64946852029175
30
0
0
SPLINE
5
F9
100
AcDbEntity
8
1
62
256
6
ByLayer
370
18
48
1
60
0
100
AcDbSpline
70
4
71
3
72
103
73
99
40
0
40
0
40
0
40
0
40
0.050284104977444
40
0.050284104977444
40
0.0628551312218047
40
0.0628551312218047
40
0.0754261574661655
40
0.0754261574661655
40
0.100568209954887
40
0.100568209954887
40
0.125710262443609
40
0.125710262443609
40
0.15085231493233
40
0.15085231493233
40
0.175994367421052
40
0.175994367421052
40
0.188565393665413
40
0.188565393665413
40
0.201136419909774
40
0.201136419909774
40
0.251420524887217
40
0.251420524887217
40
0.276562577375939
40
0.276562577375939
40
0.301704629864661
40
0.301704629864661
40
0.314275656109022
40
0.314275656109022
40
0.326846682353383
40
0.326846682353383
40
0.351988734842104
40
0.351988734842104
40
0.377130787330825
40
0.377130787330825
40
0.402272839819546
40
0.402272839819546
40
0.414843866063907
40
0.414843866063907
40
0.427414892308268
40
0.427414892308268
40
0.439985918552628
40
0.439985918552628
40
0.452556944796989
40
0.452556944796989
40
0.47769899728571
40
0.47769899728571
40
0.502841049774431
40
0.502841049774431
40
0.527983102263152
40
0.527983102263152
40
0.540554128507513
40
0.540554128507513
40
0.553125154751873
40
0.553125154751873
40
0.578267207240594
40
0.578267207240594
40
0.590838233484954
40
0.590838233484954
40
0.603409259729314
40
0.603409259729314
40
0.653693364706754
40
0.653693364706754
40
0.666264390951113
40
0.666264390951113
40
0.678835417195473
40
0.678835417195473
40
0.691406443439833
40
0.691406443439833
40
0.703977469684193
40
0.703977469684193
40
0.729119522172912
40
0.729119522172912
40
0.754261574661631
40
0.754261574661631
40
0.76683260090599
40
0.76683260090599
40
0.779403627150349
40
0.791974653394708
40
0.791974653394708
40
0.804545679639067
40
0.804545679639067
40
0.829687732127785
40
0.829687732127785
40
0.854829784616503
40
0.854829784616503
40
0.879971837105221
40
0.879971837105221
40
0.905113889593939
40
0.905113889593939
40
0.917684915838298
40
0.917684915838298
40
0.930255942082657
40
0.930255942082657
40
0.955397994571376
40
0.955397994571376
40
0.980540047060095
40
0.980540047060095
40
1
40
1
40
1
40
1
41
1
10
22.4475053088945
20
6.64946852029175
30
0
41
1
10
23.0703007379501
20
6.49956617713255
30
0
41
1
10
23.6932125151643
20
6.33018215388879
30
0
41
1
10
24.4726410901237
20
6.09505316204812
30
0
41
1
10
24.6286071641256
20
6.04683903848886
30
0
41
1
10
24.9402636483803
20
5.94815544302509
30
0
41
1
10
25.0959797029529
20
5.89767642845254
30
0
41
1
10
25.5628038505905
20
5.74283785408878
30
0
41
1
10
25.8736224707669
20
5.63510895087077
30
0
41
1
10
26.4952509167184
20
5.41162273020771
30
0
41
1
10
26.8060387017215
20
5.29584552500671
30
0
41
1
10
27.4278241713305
20
5.056609942872
30
0
41
1
10
27.738812968203
20
4.93314227214421
30
0
41
1
10
28.3610654903601
20
4.6786008029739
30
0
41
1
10
28.6723602077958
20
4.54757368978403
30
0
41
1
10
29.1395168075689
20
4.34525858141518
30
0
41
1
10
29.2952740275244
20
4.27685795175265
30
0
41
1
10
29.606473710126
20
4.13854793341358
30
0
41
1
10
29.7619833929664
20
4.06861487248915
30
0
41
1
10
30.5394702050393
20
3.71568942977754
30
0
41
1
10
31.1611299918509
20
3.42274424933976
30
0
41
1
10
32.0938032423174
20
2.96872953051755
30
0
41
1
10
32.4047283502363
20
2.81495955585817
30
0
41
1
10
33.0266973298303
20
2.50259910134491
30
0
41
1
10
33.3377602111147
20
2.3440359085445
30
0
41
1
10
33.804994147237
20
2.10351341291258
30
0
41
1
10
33.960729804333
20
2.02294389555078
30
0
41
1
10
34.2719441866115
20
1.86113590280732
30
0
41
1
10
34.4274597008997
20
1.77987786787719
30
0
41
1
10
34.8937405229458
20
1.53505852719104
30
0
41
1
10
35.204266469945
20
1.37049819347277
30
0
41
1
10
35.8255984395272
20
1.04041005993102
30
0
41
1
10
36.1363773824887
20
0.874835071777085
30
0
41
1
10
36.7581128549839
20
0.542543815664487
30
0
41
1
10
37.0690712868977
20
0.375830661318957
30
0
41
1
10
37.5357255739594
20
0.125053880497433
30
0
41
1
10
37.691312805936
20
0.0413431394613042
30
0
41
1
10
38.0025503232616
20
-0.126334126326924
30
0
41
1
10
38.1582339044182
20
-0.210319657066009
30
0
41
1
10
38.4695183345552
20
-0.378468796423476
30
0
41
1
10
38.6250068042064
20
-0.462550775822933
30
0
41
1
10
38.9359167484495
20
-0.630279095489556
30
0
41
1
10
39.0913322095667
20
-0.71393711502671
30
0
41
1
10
39.5575183536038
20
-0.964190046414302
30
0
41
1
10
39.8682216011979
20
-1.13007834021875
30
0
41
1
10
40.4894849880735
20
-1.45991700410866
30
0
41
1
10
40.8000534613273
20
-1.62385056996402
30
0
41
1
10
41.421463011008
20
-1.94902110843711
30
0
41
1
10
41.7322947951519
20
-2.11027641075685
30
0
41
1
10
42.1987576820185
20
-2.35011012754498
30
0
41
1
10
42.3542838112094
20
-2.42970810850767
30
0
41
1
10
42.6654859228508
20
-2.58807844523909
30
0
41
1
10
42.8212264867284
20
-2.66688289361159
30
0
41
1
10
43.2882073976201
20
-2.9015930173932
30
0
41
1
10
43.5991727766383
20
-3.05581755546493
30
0
41
1
10
44.0650148096305
20
-3.28390228206049
30
0
41
1
10
44.2202038927056
20
-3.35937041323416
30
0
41
1
10
44.5306577491599
20
-3.50875891959763
30
0
41
1
10
44.6859149918746
20
-3.582693244154
30
0
41
1
10
45.4622924788981
20
-3.9486882927645
30
0
41
1
10
46.083650928479
20
-4.22981096232834
30
0
41
1
10
46.8610238789284
20
-4.56598342946691
30
0
41
1
10
47.0165355167917
20
-4.63244904167885
30
0
41
1
10
47.327657477636
20
-4.76379515043709
30
0
41
1
10
47.4833078060223
20
-4.82869196940277
30
0
41
1
10
47.7942349199513
20
-4.9566421084333
30
0
41
1
10
47.9495744780972
20
-5.01970656913858
30
0
41
1
10
48.2602859834885
20
-5.14363596893116
30
0
41
1
10
48.4156494513725
20
-5.20451510891255
30
0
41
1
10
48.8817002700853
20
-5.38401032408927
30
0
41
1
10
49.1923494797128
20
-5.49948483322393
30
0
41
1
10
49.8135253836243
20
-5.72212708279736
30
0
41
1
10
50.1240514791677
20
-5.82929417167625
30
0
41
1
10
50.5897992976025
20
-5.9837062222457
30
0
41
1
10
50.7450417209726
20
-6.03411988095809
30
0
41
1
10
51.0555037176017
20
-6.13282515265223
30
0
41
1
10
51.3659512537856
20
-6.2293964479245
30
0
41
1
10
51.676703448165
20
-6.32131835572818
30
0
41
1
10
51.9877713786692
20
-6.41075263940908
30
0
41
1
10
52.1434189818656
20
-6.45421886515069
30
0
41
1
10
52.6100426983338
20
-6.58073383355333
30
0
41
1
10
52.9209390899661
20
-6.65997223991226
30
0
41
1
10
53.5424232232257
20
-6.80828763643896
30
0
41
1
10
53.8530066321904
20
-6.87737098996968
30
0
41
1
10
54.4737648360896
20
-7.00541268144099
30
0
41
1
10
54.7839556257027
20
-7.06434516427635
30
0
41
1
10
55.404633257797
20
-7.17152550571356
30
0
41
1
10
55.7151129018571
20
-7.21978465114555
30
0
41
1
10
56.181274228355
20
-7.28401578207266
30
0
41
1
10
56.3367345079659
20
-7.30406704757431
30
0
41
1
10
56.6478127654821
20
-7.34143366908245
30
0
41
1
10
56.8032568296037
20
-7.35872555152955
30
0
41
1
10
57.2694310796256
20
-7.40635707413495
30
0
41
1
10
57.5800701304204
20
-7.43245391151714
30
0
41
1
10
58.2012396223091
20
-7.47343175699498
30
0
41
1
10
58.5117360033686
20
-7.48832309354307
30
0
41
1
10
59.0624272657003
20
-7.50481437017316
30
0
41
1
10
59.3026510713496
20
-7.50865664929478
30
0
41
1
10
59.5428567856171
20
-7.50911827440748
30
0
0
SPLINE
5
FA
100
AcDbEntity
8
1
62
256
6
ByLayer
370
18
48
1
60
0
100
AcDbSpline
70
4
71
3
72
131
73
127
40
0
40
0
40
0
40
0
40
0.0046239196932267
40
0.0046239196932267
40
0.026231058776248
40
0.026231058776248
40
0.0478381978592693
40
0.0478381978592693
40
0.0694453369422906
40
0.0694453369422906
40
0.0910524760253119
40
0.0910524760253119
40
0.112659615108333
40
0.112659615108333
40
0.134266754191355
40
0.134266754191355
40
0.155873893274376
40
0.155873893274376
40
0.177481032357397
40
0.177481032357397
40
0.182882817128153
40
0.182882817128153
40
0.188284601898908
40
0.199088171440419
40
0.199088171440419
40
0.220695310523441
40
0.220695310523441
40
0.231498880064952
40
0.231498880064952
40
0.242302449606464
40
0.242302449606464
40
0.263909588689487
40
0.263909588689487
40
0.28551672777251
40
0.28551672777251
40
0.296320297314022
40
0.296320297314022
40
0.307123866855534
40
0.307123866855534
40
0.328731005938558
40
0.328731005938558
40
0.350338145021582
40
0.350338145021582
40
0.361141714563094
40
0.361141714563094
40
0.366543499333851
40
0.366543499333851
40
0.371945284104607
40
0.371945284104607
40
0.393552423187632
40
0.393552423187632
40
0.415159562270656
40
0.415159562270656
40
0.436766701353682
40
0.436766701353682
40
0.458373840436706
40
0.458373840436706
40
0.469177409978219
40
0.469177409978219
40
0.479980979519731
40
0.479980979519731
40
0.501588118602756
40
0.501588118602756
40
0.52319525768578
40
0.52319525768578
40
0.533998827227292
40
0.533998827227292
40
0.544802396768804
40
0.544802396768804
40
0.55020418153956
40
0.55020418153956
40
0.555605966310316
40
0.566409535851828
40
0.566409535851828
40
0.588016674934851
40
0.588016674934851
40
0.609623814017874
40
0.609623814017874
40
0.631230953100897
40
0.631230953100897
40
0.65283809218392
40
0.65283809218392
40
0.674445231266943
40
0.674445231266943
40
0.696052370349966
40
0.696052370349966
40
0.717659509432989
40
0.717659509432989
40
0.728463078974501
40
0.728463078974501
40
0.733864863745257
40
0.733864863745257
40
0.739266648516013
40
0.739266648516013
40
0.760873787599038
40
0.760873787599038
40
0.77167735714055
40
0.77167735714055
40
0.782480926682063
40
0.782480926682063
40
0.804088065765089
40
0.804088065765089
40
0.825695204848116
40
0.825695204848116
40
0.836498774389629
40
0.836498774389629
40
0.847302343931141
40
0.847302343931141
40
0.868909483014167
40
0.868909483014167
40
0.890516622097194
40
0.890516622097194
40
0.91212376118022
40
0.91212376118022
40
0.917525545950976
40
0.917525545950976
40
0.922927330721732
40
0.933730900263245
40
0.933730900263245
40
0.955338039346271
40
0.955338039346271
40
0.976945178429296
40
0.976945178429296
40
0.998552317512322
40
0.998552317512322
40
1
40
1
40
1
40
1
41
1
10
18.1003407561852
20
7.43452155542349
30
0
41
1
10
18.1839803594878
20
7.43467376455345
30
0
41
1
10
18.2675690695333
20
7.43441860281209
30
0
41
1
10
18.7413999835715
20
7.43066997035243
30
0
41
1
10
19.1305156260733
20
7.41872512290524
30
0
41
1
10
19.9068825838275
20
7.37738483598511
30
0
41
1
10
20.2941135525682
20
7.34797385275741
30
0
41
1
10
21.0676140354959
20
7.27208707276955
30
0
41
1
10
21.4539967423394
20
7.22567211532078
30
0
41
1
10
22.2261732461908
20
7.11610971281078
30
0
41
1
10
22.611964211777
20
7.05295029466274
30
0
41
1
10
23.3835075312713
20
6.91015560656646
30
0
41
1
10
23.769232029949
20
6.83048829412863
30
0
41
1
10
24.5416885609534
20
6.65538171422327
30
0
41
1
10
24.9284069844602
20
6.55995557487847
30
0
41
1
10
25.7029764412253
20
6.35337232687465
30
0
41
1
10
26.090848045971
20
6.24222328957632
30
0
41
1
10
26.8683954582813
20
6.00457938782057
30
0
41
1
10
27.2580952672591
20
5.87809998793796
30
0
41
1
10
27.7470296833565
20
5.71105768639111
30
0
41
1
10
27.8448376162761
20
5.67721866124535
30
0
41
1
10
28.0402134372244
20
5.60877768507518
30
0
41
1
10
28.333040505206
20
5.5049254859764
30
0
41
1
10
28.6251863921179
20
5.39755047703264
30
0
41
1
10
29.2086592821388
20
5.17824738842799
30
0
41
1
10
29.5965383412672
20
5.02595707478679
30
0
41
1
10
30.1772463196634
20
4.78922593285688
30
0
41
1
10
30.370635160789
20
4.70893955860464
30
0
41
1
10
30.7572133133858
20
4.54586881804357
30
0
41
1
10
30.9504024971197
20
4.46308527475225
30
0
41
1
10
31.5296852892688
20
4.21103234565936
30
0
41
1
10
31.9154560141455
20
4.03800179570797
30
0
41
1
10
32.6866129047074
20
3.68266977215123
30
0
41
1
10
33.0719909293447
20
3.50035020477981
30
0
41
1
10
33.6503760208286
20
3.22089668056168
30
0
41
1
10
33.843241790724
20
3.12678057132359
30
0
41
1
10
34.2292179817027
20
2.93679782027706
30
0
41
1
10
34.4223191864754
20
2.84091585063916
30
0
41
1
10
35.0019566544464
20
2.55057963770261
30
0
41
1
10
35.3888339198651
20
2.35344655397972
30
0
41
1
10
36.1640316284891
20
1.95288682959367
30
0
41
1
10
36.5523245957603
20
1.74940205804262
30
0
41
1
10
37.1365873334877
20
1.44075155261126
30
0
41
1
10
37.3316583100197
20
1.33732443280962
30
0
41
1
10
37.624760330835
20
1.18139717292368
30
0
41
1
10
37.722567120111
20
1.12927420819156
30
0
41
1
10
37.9179145017941
20
1.02499074024851
30
0
41
1
10
38.0155066795877
20
0.972804389831595
30
0
41
1
10
38.5030792082347
20
0.711685231413071
30
0
41
1
10
38.8918812195904
20
0.502164072900911
30
0
41
1
10
39.6675830121432
20
0.0830217236027977
30
0
41
1
10
40.0544735076794
20
-0.126614812932928
30
0
41
1
10
40.8274350170971
20
-0.543944114461681
30
0
41
1
10
41.2134323333993
20
-0.751782176378896
30
0
41
1
10
41.984695725381
20
-1.16537955036921
30
0
41
1
10
42.3699782415416
20
-1.37110579848823
30
0
41
1
10
42.9478644979231
20
-1.6771753880779
30
0
41
1
10
43.1404902120297
20
-1.77877257851156
30
0
41
1
10
43.5258832090304
20
-1.98084329166144
30
0
41
1
10
43.7186616349141
20
-2.08129669472083
30
0
41
1
10
44.2973004802542
20
-2.38080680671206
30
0
41
1
10
44.6834055621369
20
-2.57812104523805
30
0
41
1
10
45.4566974775514
20
-2.96729467794364
30
0
41
1
10
45.843886970225
20
-3.15914737361237
30
0
41
1
10
46.4260622325569
20
-3.44176637585508
30
0
41
1
10
46.6203616669028
20
-3.53509666130481
30
0
41
1
10
47.0095878314795
20
-3.71974696148007
30
0
41
1
10
47.2045102964121
20
-3.81107479249198
30
0
41
1
10
47.497358368007
20
-3.9465647599171
30
0
41
1
10
47.595105683793
20
-3.99150283334549
30
0
41
1
10
47.7904118798078
20
-4.08070484487294
30
0
41
1
10
48.0831222545278
20
-4.21351137765328
30
0
41
1
10
48.3751136985502
20
-4.34329855614249
30
0
41
1
10
48.9582531331001
20
-4.59869753318381
30
0
41
1
10
49.34585903369
20
-4.7634351898954
30
0
41
1
10
50.1196921884777
20
-5.08062299897421
30
0
41
1
10
50.5060296630575
20
-5.2329295496794
30
0
41
1
10
51.2777352433961
20
-5.52487328573443
30
0
41
1
10
51.6630995752278
20
-5.66450730034174
30
0
41
1
10
52.4334086415331
20
-5.93040736752118
30
0
41
1
10
52.818325269831
20
-6.05669619578714
30
0
41
1
10
53.5887579096732
20
-6.29473782077949
30
0
41
1
10
53.9742679195017
20
-6.40651588422952
30
0
41
1
10
54.7460494064354
20
-6.61535316407802
30
0
41
1
10
55.1323399542461
20
-6.71238540912199
30
0
41
1
10
55.9063367072191
20
-6.89094220684493
30
0
41
1
10
56.2940587415208
20
-6.97244445352078
30
0
41
1
10
56.8775065207516
20
-7.08232299186358
30
0
41
1
10
57.072281401931
20
-7.11690248109159
30
0
41
1
10
57.3648908721172
20
-7.16567158807925
30
0
41
1
10
57.4625496161619
20
-7.18141752327142
30
0
41
1
10
57.6577995579035
20
-7.21182909447322
30
0
41
1
10
57.7553396923781
20
-7.22648735660627
30
0
41
1
10
58.2426352988321
20
-7.29704221297314
30
0
41
1
10
58.6311655693142
20
-7.34473136761784
30
0
41
1
10
59.2125400762384
20
-7.40307650534231
30
0
41
1
10
59.4060981938058
20
-7.42032519537841
30
0
41
1
10
59.7929079514209
20
-7.45040943924238
30
0
41
1
10
59.986160996224
20
-7.46324654467546
30
0
41
1
10
60.5654930377701
20
-7.49518633671846
30
0
41
1
10
60.9511056714897
20
-7.50772517478401
30
0
41
1
10
61.7215697852643
20
-7.51531685495442
30
0
41
1
10
62.1064149259226
20
-7.51036088440713
30
0
41
1
10
62.6836993821127
20
-7.48982533107693
30
0
41
1
10
62.8761461347579
20
-7.48079950755826
30
0
41
1
10
63.2611881529984
20
-7.45841431924467
30
0
41
1
10
63.4537753991575
20
-7.44505475242059
30
0
41
1
10
64.0317337084288
20
-7.39846730985528
30
0
41
1
10
64.4173074509647
20
-7.35873022148121
30
0
41
1
10
65.1895205983944
20
-7.26190500316167
30
0
41
1
10
65.5761348522639
20
-7.20479337841789
30
0
41
1
10
66.3513658112579
20
-7.07346225209608
30
0
41
1
10
66.7400519285708
20
-6.99930765045139
30
0
41
1
10
67.2273729676201
20
-6.89591989735348
30
0
41
1
10
67.3249370279742
20
-6.87470239919085
30
0
41
1
10
67.5201138097629
20
-6.83122256090786
30
0
41
1
10
67.8126193926129
20
-6.76450914863514
30
0
41
1
10
68.1043918336171
20
-6.69336773920787
30
0
41
1
10
68.6870822174012
20
-6.54532494934728
30
0
41
1
10
69.0743804822337
20
-6.43891953510575
30
0
41
1
10
69.8477491802974
20
-6.21196561328401
30
0
41
1
10
70.2337669008416
20
-6.09137856722961
30
0
41
1
10
71.0047153164792
20
-5.83637168778131
30
0
41
1
10
71.3896629814391
20
-5.70196392412305
30
0
41
1
10
71.8001777850664
20
-5.55159827346662
30
0
41
1
10
71.8259545014096
20
-5.54212731642883
30
0
41
1
10
71.8517305974552
20
-5.53262750866142
30
0
0
SPLINE
5
FB
100
AcDbEntity
8
1
62
256
6
ByLayer
370
18
48
1
60
0
100
AcDbSpline
70
4
71
3
72
100
73
96
40
0
40
0
40
0
40
0
40
0.0269330959120598
40
0.0269330959120598
40
0.0443092906279162
40
0.0529973879858445
40
0.0529973879858445
40
0.0616854853437727
40
0.0616854853437727
40
0.096437874775485
40
0.096437874775485
40
0.113814069491341
40
0.122502166849269
40
0.122502166849269
40
0.131190264207197
40
0.131190264207197
40
0.165942653638909
40
0.165942653638909
40
0.183318848354766
40
0.192006945712694
40
0.192006945712694
40
0.200695043070622
40
0.200695043070622
40
0.235447432502334
40
0.235447432502334
40
0.25282362721819
40
0.261511724576117
40
0.261511724576117
40
0.270199821934045
40
0.270199821934045
40
0.304952211365755
40
0.304952211365755
40
0.339704600797464
40
0.339704600797464
40
0.35708079551332
40
0.35708079551332
40
0.374456990229175
40
0.374456990229175
40
0.409209379660886
40
0.409209379660886
40
0.417897477018814
40
0.417897477018814
40
0.426585574376741
40
0.443961769092597
40
0.443961769092597
40
0.47871415852431
40
0.47871415852431
40
0.487402255882238
40
0.487402255882238
40
0.496090353240166
40
0.513466547956021
40
0.513466547956021
40
0.548218937387732
40
0.548218937387732
40
0.55690703474566
40
0.55690703474566
40
0.565595132103588
40
0.582971326819443
40
0.582971326819443
40
0.617723716251154
40
0.617723716251154
40
0.63509991096701
40
0.63509991096701
40
0.652476105682865
40
0.652476105682865
40
0.669852300398721
40
0.669852300398721
40
0.687228495114577
40
0.687228495114577
40
0.721980884546288
40
0.721980884546288
40
0.730668981904215
40
0.730668981904215
40
0.739357079262143
40
0.739357079262143
40
0.756733273977999
40
0.756733273977999
40
0.791485663409712
40
0.791485663409712
40
0.80017376076764
40
0.80017376076764
40
0.808861858125569
40
0.808861858125569
40
0.826238052841427
40
0.860990442273141
40
0.860990442273141
40
0.86967853963107
40
0.86967853963107
40
0.878366636988998
40
0.878366636988998
40
0.895742831704856
40
0.895742831704856
40
0.930495221136571
40
0.930495221136571
40
1
40
1
40
1
40
1
41
1
10
28.342473142752
20
5.49720740451667
30
0
41
1
10
28.8261946256538
20
5.67333928438535
30
0
41
1
10
29.3094923188346
20
5.83932670095706
30
0
41
1
10
30.1048857500302
20
6.09456574659021
30
0
41
1
10
30.572864146101
20
6.23795029832939
30
0
41
1
10
31.0413383680601
20
6.3708005153747
30
0
41
1
10
31.3538046928566
20
6.45698044553242
30
0
41
1
10
31.5100655643177
20
6.49886311884384
30
0
41
1
10
32.2907940772917
20
6.70193671817498
30
0
41
1
10
32.9142989128482
20
6.84430590218301
30
0
41
1
10
33.8498245587768
20
7.0263399453309
30
0
41
1
10
34.3176516816101
20
7.10947954614974
30
0
41
1
10
34.7859301517382
20
7.18054714658862
30
0
41
1
10
35.0982563984017
20
7.225214453277
30
0
41
1
10
35.2545149212189
20
7.24619475214593
30
0
41
1
10
36.0351892420782
20
7.34412322144721
30
0
41
1
10
36.6585628201675
20
7.40027140812015
30
0
41
1
10
37.5937990143808
20
7.45073179544047
30
0
41
1
10
38.061459554412
20
7.46752296126147
30
0
41
1
10
38.5295478162634
20
7.47157822452272
30
0
41
1
10
38.8417428823172
20
7.47144386867356
30
0
41
1
10
38.9979624896745
20
7.46995631674338
30
0
41
1
10
39.7786332999854
20
7.45542579321841
30
0
41
1
10
40.401983039606
20
7.42112523018221
30
0
41
1
10
41.337072225174
20
7.33618300939997
30
0
41
1
10
41.8046323875108
20
7.285338545629
30
0
41
1
10
42.2725726605117
20
7.22203794006117
30
0
41
1
10
42.5846578175718
20
7.17708203041738
30
0
41
1
10
42.740801945367
20
7.15321989809766
30
0
41
1
10
43.5214855403338
20
7.02712595037349
30
0
41
1
10
44.1447373293111
20
6.90474410881455
30
0
41
1
10
45.3912145619713
20
6.61892247917254
30
0
41
1
10
46.0144550551998
20
6.4554962035304
30
0
41
1
10
46.9512132099699
20
6.18109744411498
30
0
41
1
10
47.2631952746103
20
6.08492254565996
30
0
41
1
10
47.8867235666185
20
5.88359356180251
30
0
41
1
10
48.198304682005
20
5.77842933567007
30
0
41
1
10
49.1329826742829
20
5.45001710558992
30
0
41
1
10
49.7560175285035
20
5.2138512654472
30
0
41
1
10
50.5363143082016
20
4.89908106212408
30
0
41
1
10
50.6924240547038
20
4.83515709902062
30
0
41
1
10
51.0043984208162
20
4.70558314608212
30
0
41
1
10
51.4721498385103
20
4.50857036513568
30
0
41
1
10
51.9394484167437
20
4.30387330374822
30
0
41
1
10
52.8739289348409
20
3.88498235383372
30
0
41
1
10
53.4967693552337
20
3.59307113601451
30
0
41
1
10
54.2767547745665
20
3.21489258775662
30
0
41
1
10
54.4328596525283
20
3.13857208635119
30
0
41
1
10
54.744832478962
20
2.98486649597263
30
0
41
1
10
55.2125697814683
20
2.75264769462964
30
0
41
1
10
55.679818770875
20
2.51575962545908
30
0
41
1
10
56.6141495538558
20
2.03661035890215
30
0
41
1
10
57.2368227395957
20
1.7100283939721
30
0
41
1
10
58.0164937126179
20
1.29569366484259
30
0
41
1
10
58.1725481334829
20
1.2124908126263
30
0
41
1
10
58.4845145336539
20
1.04570960989949
30
0
41
1
10
58.9522278862564
20
0.794987624074651
30
0
41
1
10
59.419413183329
20
0.542949617946761
30
0
41
1
10
60.3535719177082
20
0.0380304710230632
30
0
41
1
10
60.9760778751871
20
-0.29967697416518
30
0
41
1
10
61.911342186542
20
-0.804349974516839
30
0
41
1
10
62.2234380568204
20
-0.972319073691324
30
0
41
1
10
62.8471622718751
20
-1.30637939388805
30
0
41
1
10
63.1589349889189
20
-1.47254846170947
30
0
41
1
10
63.7826293757591
20
-1.80256766793264
30
0
41
1
10
64.0946727844434
20
-1.96647947987037
30
0
41
1
10
64.7180069325603
20
-2.29073502817778
30
0
41
1
10
65.0294256689427
20
-2.4511414481091
30
0
41
1
10
65.9634057397676
20
-2.92639136208868
30
0
41
1
10
66.5856757704329
20
-3.23529110865613
30
0
41
1
10
67.3646151471757
20
-3.60878484819151
30
0
41
1
10
67.5204585793347
20
-3.68285132308753
30
0
41
1
10
67.8322977406729
20
-3.82964944698159
30
0
41
1
10
67.9882426279133
20
-3.90235657711298
30
0
41
1
10
68.4557342266916
20
-4.11808323421695
30
0
41
1
10
68.767123270596
20
-4.25879764234395
30
0
41
1
10
69.7009472403468
20
-4.67093447480184
30
0
41
1
10
70.3230368363235
20
-4.9323506895667
30
0
41
1
10
71.1017057201893
20
-5.24006680877616
30
0
41
1
10
71.2574925922941
20
-5.30065719341391
30
0
41
1
10
71.5692108419626
20
-5.41987678206127
30
0
41
1
10
71.7251658964342
20
-5.47851398796533
30
0
41
1
10
72.1926576305319
20
-5.65116341622181
30
0
41
1
10
73.126766222704
20
-5.98365650925422
30
0
41
1
10
74.0596851683092
20
-6.27612049937028
30
0
41
1
10
74.8380813407455
20
-6.49582509068034
30
0
41
1
10
74.993808630777
20
-6.53856559974508
30
0
41
1
10
75.305398420343
20
-6.62160349264786
30
0
41
1
10
75.4613378236293
20
-6.66191959723159
30
0
41
1
10
75.9286637558802
20
-6.77895270309335
30
0
41
1
10
76.2396286012751
20
-6.85177898994098
30
0
41
1
10
77.1712514218833
20
-7.05442831769324
30
0
41
1
10
77.7906407739889
20
-7.16841630056655
30
0
41
1
10
79.6475689964185
20
-7.44525362490339
30
0
41
1
10
80.8837818285602
20
-7.54298265601037
30
0
41
1
10
82.1283709595387
20
-7.54961333619002
30
0
0
SPLINE
5
FC
100
AcDbEntity
8
1
62
256
6
ByLayer
370
18
48
1
60
0
100
AcDbSpline
70
4
71
3
72
12
73
8
40
0
40
0
40
0
40
0
40
0.499999999999997
40
0.499999999999997
40
0.749999999999999
40
0.749999999999999
40
1
40
1
40
1
40
1
41
1
10
82.0738657254267
20
-7.48525759063179
30
0
41
1
10
82.0829232374689
20
-7.50563516159517
30
0
41
1
10
82.091990836784
20
-7.52120444993366
30
0
41
1
10
82.1056279302636
20
-7.53731832750842
30
0
41
1
10
82.110182568895
20
-7.54148322674897
30
0
41
1
10
82.119282072623
20
-7.54737167007767
30
0
41
1
10
82.1238282928895
20
-7.54909867495365
30
0
41
1
10
82.1283709595471
20
-7.54961333619008
30
0
0
SPLINE
5
FD
100
AcDbEntity
8
1
62
256
6
ByLayer
370
18
48
1
60
0
100
AcDbSpline
70
4
71
3
72
88
73
84
40
0
40
0
40
0
40
0
40
0.0223448708909165
40
0.0335173063363739
40
0.0335173063363739
40
0.0446897417818314
40
0.0446897417818314
40
0.0893794835636597
40
0.0893794835636597
40
0.134069225345488
40
0.134069225345488
40
0.145241660790945
40
0.145241660790945
40
0.156414096236402
40
0.156414096236402
40
0.178758967127315
40
0.178758967127315
40
0.201103838018228
40
0.201103838018228
40
0.223448708909141
40
0.223448708909141
40
0.245793579800054
40
0.245793579800054
40
0.25696601524551
40
0.25696601524551
40
0.268138450690967
40
0.268138450690967
40
0.312828192472793
40
0.312828192472793
40
0.35751793425462
40
0.35751793425462
40
0.368690369700077
40
0.368690369700077
40
0.379862805145534
40
0.379862805145534
40
0.402207676036449
40
0.402207676036449
40
0.446897417818277
40
0.446897417818277
40
0.469242288709191
40
0.469242288709191
40
0.480414724154648
40
0.480414724154648
40
0.491587159600105
40
0.491587159600105
40
0.536276901381934
40
0.536276901381934
40
0.580966643163763
40
0.580966643163763
40
0.59213907860922
40
0.59213907860922
40
0.603311514054677
40
0.603311514054677
40
0.625656384945591
40
0.625656384945591
40
0.670346126727421
40
0.670346126727421
40
0.692690997618336
40
0.692690997618336
40
0.703863433063793
40
0.703863433063793
40
0.71503586850925
40
0.71503586850925
40
0.759725610291081
40
0.759725610291081
40
0.782070481181996
40
0.793242916627454
40
0.793242916627454
40
0.804415352072911
40
0.804415352072911
40
0.849105093854742
40
0.849105093854742
40
0.893794835636572
40
0.893794835636572
40
0.90496727108203
40
0.90496727108203
40
0.916139706527488
40
0.916139706527488
40
0.938484577418403
40
0.938484577418403
40
0.983174319200234
40
0.983174319200234
40
1
40
1
40
1
40
1
41
1
10
82.0738657254293
20
-7.48525759063116
30
0
41
1
10
81.7629924411481
20
-7.46260941250526
30
0
41
1
10
81.2967385228731
20
-7.42017902938795
30
0
41
1
10
80.83024583256
20
-7.36518919931555
30
0
41
1
10
80.5191604382778
20
-7.32575162197818
30
0
41
1
10
80.3635410495186
20
-7.30463876339024
30
0
41
1
10
79.5860640651217
20
-7.19230661589367
30
0
41
1
10
78.965419360654
20
-7.080708435811
30
0
41
1
10
77.724391268103
20
-6.81582855208325
30
0
41
1
10
77.1039133944158
20
-6.66261794124068
30
0
41
1
10
76.326912135877
20
-6.44622911828742
30
0
41
1
10
76.1714345163821
20
-6.40171395860392
30
0
41
1
10
75.8602855198499
20
-6.31023992853849
30
0
41
1
10
75.7046551199361
20
-6.26329203489686
30
0
41
1
10
75.2381807486847
20
-6.11907812350037
30
0
41
1
10
74.9275126686837
20
-6.01837180105412
30
0
41
1
10
74.3064864227442
20
-5.80823243789726
30
0
41
1
10
73.996131735731
20
-5.69879625000397
30
0
41
1
10
73.3754772687147
20
-5.47151620406163
30
0
41
1
10
73.0651719915716
20
-5.35367726054093
30
0
41
1
10
72.444218743221
20
-5.1100899633179
30
0
41
1
10
72.1335744047937
20
-4.98433801768579
30
0
41
1
10
71.6671265572871
20
-4.79006750540728
30
0
41
1
10
71.5115635064762
20
-4.72437051436947
30
0
41
1
10
71.2002367476101
20
-4.59114749895122
30
0
41
1
10
71.0446572506895
20
-4.52370029878671
30
0
41
1
10
70.2671641840496
20
-4.18247951184986
30
0
41
1
10
69.6463787233419
20
-3.89671037327668
30
0
41
1
10
68.4047409698234
20
-3.3036136497405
30
0
41
1
10
67.7838581598521
20
-2.99633280419604
30
0
41
1
10
67.006033583167
20
-2.60151479625179
30
0
41
1
10
66.8503278552756
20
-2.52198341897824
30
0
41
1
10
66.5389910283449
20
-2.36204505240582
30
0
41
1
10
66.3834155685747
20
-2.28166693333938
30
0
41
1
10
65.9169127436269
20
-2.03940648455435
30
0
41
1
10
65.6062066944953
20
-1.87640195351398
30
0
41
1
10
64.6744728289043
20
-1.38381136154703
30
0
41
1
10
64.0537987909299
20
-1.05070332315088
30
0
41
1
10
63.1216141877623
20
-0.547438481098908
30
0
41
1
10
62.8106939050653
20
-0.379076660849705
30
0
41
1
10
62.3437856571502
20
-0.126062581999122
30
0
41
1
10
62.1880032251834
20
-0.0416143963440732
30
0
41
1
10
61.8766821404462
20
0.127116824314896
30
0
41
1
10
61.7211086147249
20
0.211418722903744
30
0
41
1
10
60.943578190063
20
0.632430106647433
30
0
41
1
10
60.3226423097643
20
0.967661490602779
30
0
41
1
10
59.0802752802578
20
1.63007541207199
30
0
41
1
10
58.4588854698794
20
1.95733403150447
30
0
41
1
10
57.6802714527782
20
2.35851749495566
30
0
41
1
10
57.5244561169567
20
2.43836149511137
30
0
41
1
10
57.2131345888694
20
2.5969560703694
30
0
41
1
10
57.0575620886096
20
2.67573758590044
30
0
41
1
10
56.5910304022422
20
2.91040176574742
30
0
41
1
10
56.2802522960403
20
3.06459603869865
30
0
41
1
10
55.3481728684028
20
3.5196565536595
30
0
41
1
10
54.7271675031802
20
3.81306565785081
30
0
41
1
10
53.794229887856
20
4.23497101420492
30
0
41
1
10
53.4830098264433
20
4.37256860156074
30
0
41
1
10
53.0156028356349
20
4.57405820207759
30
0
41
1
10
52.8598225728587
20
4.64035140218294
30
0
41
1
10
52.5484858298382
20
4.77104822847357
30
0
41
1
10
52.3928945853473
20
4.83546672398418
30
0
41
1
10
51.6152237272391
20
5.15278077318936
30
0
41
1
10
50.9940900217691
20
5.39145878685233
30
0
41
1
10
50.0618155215629
20
5.72404276486733
30
0
41
1
10
49.5955328075496
20
5.88397726170143
30
0
41
1
10
49.1286670432718
20
6.03392557529963
30
0
41
1
10
48.8172535596855
20
6.13162318499261
30
0
41
1
10
48.6614232672
20
6.17934925468845
30
0
41
1
10
47.8821784361183
20
6.41206325587623
30
0
41
1
10
47.2604351424545
20
6.57899500096829
30
0
41
1
10
46.0172150116659
20
6.87187031939857
30
0
41
1
10
45.3957514489804
20
6.9978457380054
30
0
41
1
10
44.6175562766091
20
7.12861836222382
30
0
41
1
10
44.4618513752108
20
7.15343983943276
30
0
41
1
10
44.1503013697726
20
7.20040242322079
30
0
41
1
10
43.9943884511782
20
7.22254944780116
30
0
41
1
10
43.5269279176658
20
7.28481811421924
30
0
41
1
10
43.215640880325
20
7.32077986055776
30
0
41
1
10
42.2823404119769
20
7.41191245845494
30
0
41
1
10
41.6608507813548
20
7.4503230306623
30
0
41
1
10
40.8047139292455
20
7.47218188812894
30
0
41
1
10
40.5704785224338
20
7.47496636588411
30
0
41
1
10
40.3361049781739
20
7.47454586680439
30
0
0
SPLINE
5
FE
100
AcDbEntity
8
1
62
256
6
ByLayer
370
18
48
1
60
0
100
AcDbSpline
70
4
71
3
72
78
73
74
40
0
40
0
40
0
40
0
40
0.0076552432454862
40
0.0076552432454862
40
0.0253756853303892
40
0.0253756853303892
40
0.0430961274152922
40
0.0430961274152922
40
0.0785370115850967
40
0.0785370115850967
40
0.113977895754901
40
0.113977895754901
40
0.149418779924706
40
0.149418779924706
40
0.167139222009609
40
0.167139222009609
40
0.184859664094512
40
0.184859664094512
40
0.202580106179415
40
0.202580106179415
40
0.220300548264317
40
0.220300548264317
40
0.255741432434123
40
0.255741432434123
40
0.291182316603929
40
0.291182316603929
40
0.308902758688831
40
0.308902758688831
40
0.326623200773734
40
0.326623200773734
40
0.362064084943537
40
0.362064084943537
40
0.379784527028439
40
0.379784527028439
40
0.39750496911334
40
0.39750496911334
40
0.432945853283144
40
0.432945853283144
40
0.468386737452947
40
0.468386737452947
40
0.503827621622751
40
0.503827621622751
40
0.539268505792554
40
0.539268505792554
40
0.556988947877456
40
0.556988947877456
40
0.574709389962359
40
0.574709389962359
40
0.610150274132162
40
0.610150274132162
40
0.645591158301965
40
0.645591158301965
40
0.681032042471768
40
0.681032042471768
40
0.716472926641571
40
0.716472926641571
40
0.734193368726474
40
0.734193368726474
40
0.751913810811376
40
0.787354694981181
40
0.787354694981181
40
0.805075137066084
40
0.805075137066084
40
0.822795579150987
40
0.822795579150987
40
0.858236463320792
40
0.858236463320792
40
0.875956905405694
40
0.875956905405694
40
0.893677347490596
40
0.929118231660398
40
0.929118231660398
40
1
40
1
40
1
40
1
41
1
10
55.8245447854339
20
7.23409739087154
30
0
41
1
10
55.8916461860658
20
7.24385307534658
30
0
41
1
10
55.9587597809591
20
7.25335610742474
30
0
41
1
10
56.1812742283551
20
7.28401578207266
30
0
41
1
10
56.3367345079659
20
7.30406704757431
30
0
41
1
10
56.6478127654821
20
7.34143366908245
30
0
41
1
10
56.8032568296037
20
7.35872555152955
30
0
41
1
10
57.2694310796256
20
7.40635707413495
30
0
41
1
10
57.5800701304204
20
7.43245391151714
30
0
41
1
10
58.2012396223091
20
7.47343175699501
30
0
41
1
10
58.5117360033686
20
7.4883230935431
30
0
41
1
10
59.1325829132582
20
7.50691528636736
30
0
41
1
10
59.4429329188944
20
7.51061459771412
30
0
41
1
10
59.9084315721905
20
7.50767860774468
30
0
41
1
10
60.0635940668774
20
7.50528545860229
30
0
41
1
10
60.3738864976216
20
7.4976399630805
30
0
41
1
10
60.529016833807
20
7.49238369143052
30
0
41
1
10
60.8395953042698
20
7.47903960683558
30
0
41
1
10
60.995096981039
20
7.47095229366167
30
0
41
1
10
61.3061445503135
20
7.45198127807734
30
0
41
1
10
61.4616247211822
20
7.44110258128455
30
0
41
1
10
61.9279240369068
20
7.40431844545498
30
0
41
1
10
62.2386003216973
20
7.3742690149102
30
0
41
1
10
62.8595626976157
20
7.30317300548714
30
0
41
1
10
63.1698481538352
20
7.26212436725712
30
0
41
1
10
63.6350399288903
20
7.19227015398124
30
0
41
1
10
63.790065196529
20
7.16760451590466
30
0
41
1
10
64.1000705656436
20
7.11551073859491
30
0
41
1
10
64.2550474966552
20
7.08807839631052
30
0
41
1
10
64.7203011100588
20
7.0018666047589
30
0
41
1
10
65.0309129693975
20
6.9391994478363
30
0
41
1
10
65.4973538968509
20
6.8373424660229
30
0
41
1
10
65.6529829299587
20
6.80206370868731
30
0
41
1
10
65.9640110774998
20
6.72900846925808
30
0
41
1
10
66.1194370725284
20
6.6912272907945
30
0
41
1
10
66.5855064469702
20
6.57418085187101
30
0
41
1
10
66.8959415588383
20
6.49122008374258
30
0
41
1
10
67.5161463883719
20
6.31530572881687
30
0
41
1
10
67.825915565876
20
6.22233118524238
30
0
41
1
10
68.4458714461201
20
6.02745134270913
30
0
41
1
10
68.7560575733989
20
5.92556274510932
30
0
41
1
10
69.3769167591119
20
5.71301111223906
30
0
41
1
10
69.6875910557851
20
5.60234877223476
30
0
41
1
10
70.1540596482113
20
5.42984660265685
30
0
41
1
10
70.309639429299
20
5.37125472201203
30
0
41
1
10
70.620455631031
20
5.25211566211632
30
0
41
1
10
70.7757560143767
20
5.19154514869837
30
0
41
1
10
71.2413686982125
20
5.00687541633224
30
0
41
1
10
71.5513917277192
20
4.87981121266091
30
0
41
1
10
72.171400702333
20
4.61882138061929
30
0
41
1
10
72.4813852416735
20
4.48490201802022
30
0
41
1
10
73.1013815333368
20
4.21032383482694
30
0
41
1
10
73.4113938051645
20
4.06965909950012
30
0
41
1
10
74.0320527669845
20
3.78251141168309
30
0
41
1
10
74.3426985986353
20
3.63603380698697
30
0
41
1
10
74.8091948119126
20
3.41203099094651
30
0
41
1
10
74.9646984691107
20
3.33668946133207
30
0
41
1
10
75.2754521023879
20
3.18482599354522
30
0
41
1
10
75.7413311704208
20
2.95519975906078
30
0
41
1
10
76.2065449952806
20
2.72022959475888
30
0
41
1
10
76.6714683641196
20
2.4819410977253
30
0
41
1
10
76.8263882033156
20
2.40194693484298
30
0
41
1
10
77.1363497789421
20
2.24123289241183
30
0
41
1
10
77.2913998818969
20
2.16052851658003
30
0
41
1
10
77.75674768984
20
1.9173621258663
30
0
41
1
10
78.0672336212148
20
1.75383097886117
30
0
41
1
10
78.5334397780675
20
1.50658031933128
30
0
41
1
10
78.6889793812454
20
1.42380854263197
30
0
41
1
10
78.9998929304841
20
1.25782860427455
30
0
41
1
10
79.4660164941107
20
1.00820553332713
30
0
41
1
10
79.9314821576141
20
0.756774809265153
30
0
41
1
10
80.861824898441
20
0.252029990596156
30
0
41
1
10
81.4812585115815
20
-0.0869961341531109
30
0
41
1
10
82.1010093659449
20
-0.426527594498907
30
0
0
SPLINE
5
FF
100
AcDbEntity
8
1
62
256
6
ByLayer
370
18
48
1
60
0
100
AcDbSpline
70
4
71
3
72
8
73
4
40
0
40
0
40
0
40
0
40
1
40
1
40
1
40
1
41
1
10
82.1010093659372
20
-0.426527594495837
30
0
41
1
10
82.1393912687075
20
-0.0967376325143903
30
0
41
1
10
82.184879223741
20
0.231199598130985
30
0
41
1
10
82.2390734443674
20
0.557063362113752
30
0
0
SPLINE
5
100
100
AcDbEntity
8
1
62
256
6
ByLayer
370
18
48
1
60
0
100
AcDbSpline
70
4
71
3
72
49
73
45
40
0
40
0
40
0
40
0
40
0.0568440208337449
40
0.0568440208337449
40
0.11368804166749
40
0.11368804166749
40
0.170532062501235
40
0.170532062501235
40
0.22737608333498
40
0.22737608333498
40
0.284220104168725
40
0.284220104168725
40
0.312642114585597
40
0.312642114585597
40
0.34106412500247
40
0.34106412500247
40
0.397908145836214
40
0.397908145836214
40
0.454752166669959
40
0.454752166669959
40
0.483174177086832
40
0.483174177086832
40
0.511596187503704
40
0.511596187503704
40
0.568440208337451
40
0.568440208337451
40
0.625284229171197
40
0.625284229171197
40
0.682128250004944
40
0.682128250004944
40
0.73897227083869
40
0.73897227083869
40
0.795816291672437
40
0.795816291672437
40
0.852660312506183
40
0.852660312506183
40
0.90950433333993
40
0.90950433333993
40
0.966348354173676
40
0.966348354173676
40
0.980559359382113
40
0.980559359382113
40
0.99477036459055
40
1
40
1
40
1
40
1
41
1
10
7.87477959998256
20
-5.47893435917717
30
0
41
1
10
8.2666842754017
20
-5.62061068337218
30
0
41
1
10
8.65717394674436
20
-5.75544714706359
30
0
41
1
10
9.43586730597406
20
-6.01090764536733
30
0
41
1
10
9.82400826858577
20
-6.1315927646543
30
0
41
1
10
10.5989592822999
20
-6.35777970385456
30
0
41
1
10
10.9857779750152
20
-6.46327958747236
30
0
41
1
10
11.7589205617907
20
-6.65850247623939
30
0
41
1
10
12.1452066383321
20
-6.74827434035578
30
0
41
1
10
12.91740669558
20
-6.91202594588907
30
0
41
1
10
13.3033390736729
20
-6.98598088181856
30
0
41
1
10
13.8824734177031
20
-7.08464128206654
30
0
41
1
10
14.0755612545698
20
-7.115479999907
30
0
41
1
10
14.4619726648559
20
-7.17297127954828
30
0
41
1
10
14.6553085072055
20
-7.19961883335097
30
0
41
1
10
15.2357621612161
20
-7.27323828484279
30
0
41
1
10
15.6232630748152
20
-7.31391880579403
30
0
41
1
10
16.3997063189722
20
-7.37812850409961
30
0
41
1
10
16.7886520057383
20
-7.4016463982984
30
0
41
1
10
17.3737492475725
20
-7.42368078925696
30
0
41
1
10
17.5690714820856
20
-7.42881737068686
30
0
41
1
10
17.960442326675
20
-7.43463128227592
30
0
41
1
10
18.155941507679
20
-7.43530172522847
30
0
41
1
10
18.7413999835715
20
-7.43066997035243
30
0
41
1
10
19.1305156260733
20
-7.41872512290524
30
0
41
1
10
19.9068825838275
20
-7.37738483598511
30
0
41
1
10
20.2941135525681
20
-7.34797385275741
30
0
41
1
10
21.067614035496
20
-7.27208707276955
30
0
41
1
10
21.4539967423394
20
-7.22567211532078
30
0
41
1
10
22.2261732461908
20
-7.11610971281078
30
0
41
1
10
22.611964211777
20
-7.05295029466274
30
0
41
1
10
23.3835075312714
20
-6.91015560656646
30
0
41
1
10
23.7692320299489
20
-6.83048829412863
30
0
41
1
10
24.5416885609534
20
-6.6553817142233
30
0
41
1
10
24.9284069844602
20
-6.55995557487847
30
0
41
1
10
25.7029764412252
20
-6.35337232687465
30
0
41
1
10
26.090848045971
20
-6.24222328957634
30
0
41
1
10
26.8683954582813
20
-6.0045793878206
30
0
41
1
10
27.2580952672591
20
-5.87809998793796
30
0
41
1
10
27.7470296833565
20
-5.71105768639111
30
0
41
1
10
27.8448376162761
20
-5.67721866124535
30
0
41
1
10
28.0402134372244
20
-5.60877768507521
30
0
41
1
10
28.1737424805802
20
-5.56142111762523
30
0
41
1
10
28.3071298820804
20
-5.51333203228054
30
0
41
1
10
28.3430017361648
20
-5.5003431045478
30
0
0
SPLINE
5
101
100
AcDbEntity
8
1
62
256
6
ByLayer
370
18
48
1
60
0
100
AcDbSpline
70
4
71
3
72
51
73
47
40
0
40
0
40
0
40
0
40
0.046176269754941
40
0.046176269754941
40
0.0742299088797973
40
0.0742299088797973
40
0.102283548004653
40
0.102283548004653
40
0.158390826254367
40
0.158390826254367
40
0.21449810450408
40
0.21449810450408
40
0.270605382753793
40
0.270605382753793
40
0.284632202316221
40
0.284632202316221
40
0.298659021878648
40
0.326712661003503
40
0.326712661003503
40
0.382819939253212
40
0.382819939253212
40
0.438927217502921
40
0.438927217502921
40
0.49503449575263
40
0.49503449575263
40
0.551141774002339
40
0.551141774002339
40
0.607249052252048
40
0.607249052252048
40
0.663356330501756
40
0.663356330501756
40
0.69140996962661
40
0.69140996962661
40
0.719463608751464
40
0.719463608751464
40
0.747517247876317
40
0.747517247876317
40
0.775570887001171
40
0.775570887001171
40
0.831678165250878
40
0.831678165250878
40
0.887785443500586
40
0.887785443500586
40
0.943892721750293
40
0.943892721750293
40
1
40
1
40
1
40
1
41
1
10
61.5408622097956
20
7.51271414683956
30
0
41
1
10
61.857805592518
20
7.513288796723
30
0
41
1
10
62.1745346306165
20
7.50793768417441
30
0
41
1
10
62.6836993821127
20
7.48982533107693
30
0
41
1
10
62.876146134758
20
7.48079950755826
30
0
41
1
10
63.2611881529984
20
7.45841431924467
30
0
41
1
10
63.4537753991576
20
7.44505475242059
30
0
41
1
10
64.0317337084286
20
7.39846730985528
30
0
41
1
10
64.4173074509646
20
7.35873022148121
30
0
41
1
10
65.1895205983944
20
7.26190500316167
30
0
41
1
10
65.5761348522638
20
7.20479337841792
30
0
41
1
10
66.3513658112578
20
7.07346225209608
30
0
41
1
10
66.7400519285707
20
6.99930765045141
30
0
41
1
10
67.2273729676199
20
6.89591989735351
30
0
41
1
10
67.3249370279741
20
6.87470239919088
30
0
41
1
10
67.5201138097628
20
6.83122256090789
30
0
41
1
10
67.8126193926129
20
6.76450914863514
30
0
41
1
10
68.1043918336171
20
6.6933677392079
30
0
41
1
10
68.687082217401
20
6.5453249493473
30
0
41
1
10
69.0743804822337
20
6.43891953510578
30
0
41
1
10
69.8477491802973
20
6.21196561328401
30
0
41
1
10
70.2337669008415
20
6.09137856722964
30
0
41
1
10
71.0047153164791
20
5.83637168778131
30
0
41
1
10
71.389662981439
20
5.70196392412305
30
0
41
1
10
72.1591376382187
20
5.42011645745942
30
0
41
1
10
72.5437059111352
20
5.27272367846913
30
0
41
1
10
73.3134259730416
20
4.96625671303858
30
0
41
1
10
73.6984614957869
20
4.80703241186274
30
0
41
1
10
74.4692633460323
20
4.47706336128374
30
0
41
1
10
74.8550343019394
20
4.30631912366596
30
0
41
1
10
75.4347930247297
20
4.0422889548579
30
0
41
1
10
75.6282357939004
20
3.95296965792107
30
0
41
1
10
76.0156522984611
20
3.77194473190815
30
0
41
1
10
76.2096239431906
20
3.68023704713485
30
0
41
1
10
76.5981032710725
20
3.49442725154665
30
0
41
1
10
76.7926071008463
20
3.40031799118501
30
0
41
1
10
77.1822045445849
20
3.20976505727324
30
0
41
1
10
77.3774183432849
20
3.11325669209773
30
0
41
1
10
77.9621238562392
20
2.82134315799962
30
0
41
1
10
78.3511886484815
20
2.62325198201395
30
0
41
1
10
79.1287334642278
20
2.22167626433688
30
0
41
1
10
79.5173360503019
20
2.01841046810458
30
0
41
1
10
80.2944583135171
20
1.6074007238561
30
0
41
1
10
80.6829644993509
20
1.3996306291377
30
0
41
1
10
81.4604419704351
20
0.980574463972488
30
0
41
1
10
81.849383898735
20
0.769231491447215
30
0
41
1
10
82.2390734443662
20
0.557063362105765
30
0
0
SPLINE
5
102
100
AcDbEntity
8
1
62
256
6
ByLayer
370
18
48
1
60
0
100
AcDbSpline
70
4
71
3
72
18
73
14
40
0
40
0
40
0
40
0
40
0.124999999999999
40
0.124999999999999
40
0.249999999999998
40
0.249999999999998
40
0.499999999999996
40
0.499999999999996
40
0.624999999999996
40
0.624999999999996
40
0.749999999999997
40
0.749999999999997
40
1
40
1
40
1
40
1
41
1
10
22.3000255929617
20
-2.97574861476917
30
0
41
1
10
21.8868244814745
20
-2.77188162586199
30
0
41
1
10
21.474940919683
20
-2.56470021982008
30
0
41
1
10
20.6529799652353
20
-2.14527707153073
30
0
41
1
10
20.2429141226365
20
-1.93301408736016
30
0
41
1
10
19.0144133117678
20
-1.29056153080319
30
0
41
1
10
18.1977639047042
20
-0.854539072730319
30
0
41
1
10
16.9718678724159
20
-0.197385654489324
30
0
41
1
10
16.5630888205857
20
0.0221974227928854
30
0
41
1
10
15.7445676761427
20
0.461152537559286
30
0
41
1
10
15.3348513141479
20
0.680574328598368
30
0
41
1
10
14.1031265940324
20
1.33636501278292
30
0
41
1
10
13.2785207245838
20
1.77021492715662
30
0
41
1
10
12.4476827570504
20
2.19541964930778
30
0
0
SPLINE
5
103
100
AcDbEntity
8
1
62
256
6
ByLayer
370
18
48
1
60
0
100
AcDbSpline
70
4
71
3
72
37
73
33
40
0
40
0
40
0
40
0
40
0.0573427385991407
40
0.0573427385991407
40
0.086014107898711
40
0.086014107898711
40
0.114685477198281
40
0.114685477198281
40
0.229370954396563
40
0.229370954396563
40
0.286713692995703
40
0.286713692995703
40
0.344056431594842
40
0.344056431594842
40
0.458741908793122
40
0.458741908793122
40
0.516084647392262
40
0.544756016691831
40
0.544756016691831
40
0.573427385991401
40
0.573427385991401
40
0.688112863189685
40
0.688112863189685
40
0.745455601788827
40
0.774126971088399
40
0.774126971088399
40
0.80279834038797
40
0.80279834038797
40
0.917483817586259
40
0.917483817586259
40
0.974826556185403
40
1
40
1
40
1
40
1
41
1
10
22.3000255929536
20
-2.85686340479816
30
0
41
1
10
22.6125295670714
20
-3.01190495215298
30
0
41
1
10
22.9249560644666
20
-3.16479038519097
30
0
41
1
10
23.393748189496
20
-3.39042541684052
30
0
41
1
10
23.5500731818364
20
-3.46503789611188
30
0
41
1
10
23.8626481169301
20
-3.61286884270277
30
0
41
1
10
24.0188630026998
20
-3.68607043188118
30
0
41
1
10
24.7996604750056
20
-4.04838076982821
30
0
41
1
10
25.4234026447107
20
-4.32641481431114
30
0
41
1
10
26.3594144078079
20
-4.72308438524533
30
0
41
1
10
26.6714866343085
20
-4.85190700056214
30
0
41
1
10
27.2960853975866
20
-5.10226541636467
30
0
41
1
10
27.6087752157045
20
-5.22385821430751
30
0
41
1
10
28.5455847794466
20
-5.57604554595224
30
0
41
1
10
29.1691286476046
20
-5.7942844764664
30
0
41
1
10
30.10488575003
20
-6.09456574659015
30
0
41
1
10
30.5728641461007
20
-6.23795029832934
30
0
41
1
10
31.0413383680599
20
-6.37080051537461
30
0
41
1
10
31.3538046928564
20
-6.45698044553234
30
0
41
1
10
31.5100655643176
20
-6.49886311884379
30
0
41
1
10
32.2907940772915
20
-6.70193671817492
30
0
41
1
10
32.914298912848
20
-6.84430590218295
30
0
41
1
10
33.8498245587766
20
-7.02633994533085
30
0
41
1
10
34.3176516816099
20
-7.10947954614971
30
0
41
1
10
34.785930151738
20
-7.18054714658859
30
0
41
1
10
35.0982563984015
20
-7.22521445327695
30
0
41
1
10
35.2545149212187
20
-7.2461947521459
30
0
41
1
10
36.035189242078
20
-7.34412322144718
30
0
41
1
10
36.6585628201672
20
-7.40027140812012
30
0
41
1
10
37.5937990143805
20
-7.45073179544047
30
0
41
1
10
38.0424412589106
20
-7.4668401169202
30
0
41
1
10
38.4914771444003
20
-7.47122733213163
30
0
41
1
10
38.6285163551786
20
-7.47147228197193
30
0
0
SPLINE
5
104
100
AcDbEntity
8
1
62
256
6
ByLayer
370
18
48
1
60
0
100
AcDbSpline
70
4
71
3
72
21
73
17
40
0
40
0
40
0
40
0
40
0.0029006588085434
40
0.0029006588085434
40
0.0935460534623166
40
0.274836842769859
40
0.274836842769859
40
0.320159540096745
40
0.320159540096745
40
0.365482237423631
40
0.365482237423631
40
0.456127632077399
40
0.456127632077399
40
0.637418421384935
40
0.637418421384935
40
1
40
1
40
1
40
1
41
1
10
71.8510754679481
20
5.52500087854665
30
0
41
1
10
71.8610496081261
20
5.52869295208973
30
0
41
1
10
71.8710232962249
20
5.5323806017343
30
0
41
1
10
72.1926576305311
20
5.65116341622152
30
0
41
1
10
73.1267662227033
20
5.98365650925396
30
0
41
1
10
74.0596851683084
20
6.27612049937005
30
0
41
1
10
74.8380813407447
20
6.49582509068011
30
0
41
1
10
74.9938086307762
20
6.53856559974486
30
0
41
1
10
75.3053984203422
20
6.62160349264764
30
0
41
1
10
75.4613378236285
20
6.66191959723136
30
0
41
1
10
75.9286637558794
20
6.77895270309315
30
0
41
1
10
76.2396286012743
20
6.85177898994078
30
0
41
1
10
77.1712514218825
20
7.05442831769304
30
0
41
1
10
77.790640773988
20
7.16841630056641
30
0
41
1
10
79.6475689964176
20
7.4452536249033
30
0
41
1
10
80.8837818285594
20
7.54298265601034
30
0
41
1
10
82.1283709595378
20
7.54961333619002
30
0
0
SPLINE
5
105
100
AcDbEntity
8
1
62
256
6
ByLayer
370
18
48
1
60
0
100
AcDbSpline
70
4
71
3
72
124
73
120
40
0
40
0
40
0
40
0
40
0.0624999999999591
40
0.0624999999999591
40
0.124999999999918
40
0.124999999999918
40
0.140624999999908
40
0.140624999999908
40
0.156249999999898
40
0.187499999999878
40
0.187499999999878
40
0.249999999999837
40
0.249999999999837
40
0.265624999999827
40
0.265624999999827
40
0.281249999999817
40
0.281249999999817
40
0.312499999999798
40
0.312499999999798
40
0.320312499999793
40
0.321289062499792
40
0.321289062499792
40
0.322265624999792
40
0.322265624999792
40
0.323242187499791
40
0.323242187499791
40
0.324218749999791
40
0.324218749999791
40
0.32519531249979
40
0.32519531249979
40
0.32617187499979
40
0.32617187499979
40
0.32666015624979
40
0.32666015624979
40
0.32714843749979
40
0.32714843749979
40
0.32763671874979
40
0.32763671874979
40
0.32812499999979
40
0.32812499999979
40
0.343749999999796
40
0.343749999999796
40
0.359374999999802
40
0.359374999999802
40
0.374999999999807
40
0.374999999999807
40
0.406249999999818
40
0.406249999999818
40
0.421874999999823
40
0.421874999999823
40
0.437499999999828
40
0.437499999999828
40
0.468749999999838
40
0.468749999999838
40
0.484374999999843
40
0.484374999999843
40
0.492187499999846
40
0.496093749999847
40
0.496093749999847
40
0.499999999999849
40
0.499999999999849
40
0.515624999999854
40
0.515624999999854
40
0.53124999999986
40
0.53124999999986
40
0.546874999999865
40
0.546874999999865
40
0.550781249999867
40
0.550781249999867
40
0.554687499999868
40
0.554687499999868
40
0.562499999999872
40
0.562499999999872
40
0.593749999999886
40
0.593749999999886
40
0.601562499999889
40
0.605468749999891
40
0.605468749999891
40
0.609374999999892
40
0.609374999999892
40
0.624999999999899
40
0.624999999999899
40
0.640624999999906
40
0.640624999999906
40
0.648437499999909
40
0.652343749999911
40
0.652343749999911
40
0.656249999999912
40
0.656249999999912
40
0.671874999999918
40
0.671874999999918
40
0.687499999999924
40
0.687499999999924
40
0.70312499999993
40
0.70312499999993
40
0.710937499999932
40
0.710937499999932
40
0.718749999999935
40
0.718749999999935
40
0.73437499999994
40
0.73437499999994
40
0.749999999999944
40
0.749999999999944
40
0.781249999999953
40
0.781249999999953
40
0.812499999999962
40
0.812499999999962
40
0.820312499999964
40
0.820312499999964
40
0.828124999999965
40
0.843749999999968
40
0.843749999999968
40
0.874999999999975
40
0.874999999999975
40
0.906249999999981
40
0.906249999999981
40
0.937499999999988
40
0.937499999999988
40
1
40
1
40
1
40
1
41
1
10
12.4476827614186
20
2.19541965434965
30
0
41
1
10
12.0324701666719
20
2.40826424004706
30
0
41
1
10
11.614369425309
20
2.61157960668203
30
0
41
1
10
10.7700428195225
20
2.99612038258431
30
0
41
1
10
10.3438268921405
20
3.17736757109773
30
0
41
1
10
9.80468447320095
20
3.38875170383483
30
0
41
1
10
9.69654529252296
20
3.43026826112239
30
0
41
1
10
9.47983843978662
20
3.51167610363041
30
0
41
1
10
9.15405020858503
20
3.63138627725775
30
0
41
1
10
8.82596748432576
20
3.74380835922264
30
0
41
1
10
8.16651077420067
20
3.9588675030908
30
0
41
1
10
7.72247828669805
20
4.08918239856612
30
0
41
1
10
7.16131919070853
20
4.23585592866178
30
0
41
1
10
7.04875952940515
20
4.26438803179528
30
0
41
1
10
6.8231858692823
20
4.31980282419087
30
0
41
1
10
6.71016166430826
20
4.34668742755557
30
0
41
1
10
6.37036438966501
20
4.42489807591548
30
0
41
1
10
6.14284324700125
20
4.47378627785378
30
0
41
1
10
5.8572624194444
20
4.53089626977427
30
0
41
1
10
5.79294333231274
20
4.54352035722491
30
0
41
1
10
5.72855563258898
20
4.55589200323126
30
0
41
1
10
5.71424559185743
20
4.55863516946968
30
0
41
1
10
5.70709792253137
20
4.56002994860228
30
0
41
1
10
5.69276461734162
20
4.56269695222042
30
0
41
1
10
5.68556716536801
20
4.56386059126274
30
0
41
1
10
5.671087358514
20
4.56544616433425
30
0
41
1
10
5.66380752673078
20
4.56592229005372
30
0
41
1
10
5.64915698021539
20
4.56615420489248
30
0
41
1
10
5.64173705495779
20
4.56588819953623
30
0
41
1
10
5.62716984959047
20
4.56451603303717
30
0
41
1
10
5.61999131343802
20
4.56342869870755
30
0
41
1
10
5.60942937367005
20
4.5610105455597
30
0
41
1
10
5.60594516856429
20
4.56005809602598
30
0
41
1
10
5.59904207289478
20
4.55793173315939
30
0
41
1
10
5.59572098417894
20
4.55666870335551
30
0
41
1
10
5.58917332597539
20
4.55399721222236
30
0
41
1
10
5.58601601182505
20
4.55248008611113
30
0
41
1
10
5.57978580318263
20
4.54932713530153
30
0
41
1
10
5.57669669880028
20
4.54771831281113
30
0
41
1
10
5.47445346911979
20
4.49498241197887
30
0
41
1
10
5.37596415361722
20
4.4425451911157
30
0
41
1
10
5.18044035549923
20
4.33488664214059
30
0
41
1
10
5.08342002675181
20
4.27967226802034
30
0
41
1
10
4.89117795649969
20
4.16636221317938
30
0
41
1
10
4.79592821802231
20
4.10825137488914
30
0
41
1
10
4.51299783701904
20
3.92916778403884
30
0
41
1
10
4.32811903997373
20
3.80347517864274
30
0
41
1
10
4.05748846102708
20
3.60348158730022
30
0
41
1
10
3.96868498237882
20
3.53511054489886
30
0
41
1
10
3.79430540127737
20
3.39478695572203
30
0
41
1
10
3.70870069806736
20
3.32281413030657
30
0
41
1
10
3.45707609217337
20
3.10093075348701
30
0
41
1
10
3.29620142864144
20
2.94510852719242
30
0
41
1
10
3.06756973118428
20
2.69663932677398
30
0
41
1
10
2.99348218528263
20
2.61134871259242
30
0
41
1
10
2.88595346720172
20
2.47920413017263
30
0
41
1
10
2.833091314066
20
2.41207780457773
30
0
41
1
10
2.78167768543307
20
2.34325508914841
30
0
41
1
10
2.74773581942446
20
2.29698179171112
30
0
41
1
10
2.7309170299375
20
2.2736284543881
30
0
41
1
10
2.64788121863592
20
2.15611901469092
30
0
41
1
10
2.58496751268819
20
2.05994272419508
30
0
41
1
10
2.46682280160792
20
1.86283272164707
30
0
41
1
10
2.41159005256708
20
1.7619001048659
30
0
41
1
10
2.30962480278447
20
1.55475401402029
30
0
41
1
10
2.26288964091151
20
1.44854221011599
30
0
41
1
10
2.21043902917694
20
1.31205887059483
30
0
41
1
10
2.20024801364198
20
1.28457584026515
30
0
41
1
10
2.18048365839428
20
1.22922467568426
30
0
41
1
10
2.17089907627627
20
1.20132005867444
30
0
41
1
10
2.14325648544545
20
1.11748807896984
30
0
41
1
10
2.12626622849186
20
1.06133267025214
30
0
41
1
10
2.04859708687536
20
0.779199900872584
30
0
41
1
10
2.00968127774431
20
0.54917040209483
30
0
41
1
10
1.99228922026811
20
0.255793409361644
30
0
41
1
10
1.98942386287356
20
0.1673408053164
30
0
41
1
10
1.99017626822553
20
0.078211843548587
30
0
41
1
10
1.99149303874589
20
0.0186400994853102
30
0
41
1
10
1.99256221350305
20
-0.0112665443490982
30
0
41
1
10
1.99991355564748
20
-0.16015729309683
30
0
41
1
10
2.01219773376704
20
-0.277836537014821
30
0
41
1
10
2.04871320282973
20
-0.510519516507173
30
0
41
1
10
2.07294602235231
20
-0.625522917075585
30
0
41
1
10
2.11775548588167
20
-0.796133255929959
30
0
41
1
10
2.14227727452823
20
-0.880964298080954
30
0
41
1
10
2.16989688019882
20
-0.965101629381252
30
0
41
1
10
2.18899072642245
20
-1.02104074669245
30
0
41
1
10
2.19888275520799
20
-1.04894392077051
30
0
41
1
10
2.24973532036702
20
-1.18732265628356
30
0
41
1
10
2.29506461172275
20
-1.29501468508551
30
0
41
1
10
2.39387688184723
20
-1.50511996892385
30
0
41
1
10
2.44736308902975
20
-1.60753114728624
30
0
41
1
10
2.56162169572505
20
-1.80764185640652
30
0
41
1
10
2.62239615820823
20
-1.90534005910075
30
0
41
1
10
2.7185116480334
20
-2.04868890841121
30
0
41
1
10
2.75137705423452
20
-2.09593795952662
30
0
41
1
10
2.81868950301691
20
-2.18941579314347
30
0
41
1
10
2.85319516166425
20
-2.23571825523928
30
0
41
1
10
2.95837668531596
20
-2.37238013393747
30
0
41
1
10
3.03079094436126
20
-2.46063299055069
30
0
41
1
10
3.17963939505501
20
-2.63214877231496
30
0
41
1
10
3.25607507011711
20
-2.7154098372832
30
0
41
1
10
3.49075614101088
20
-2.95854472433319
30
0
41
1
10
3.65434558769982
20
-3.11180797957422
30
0
41
1
10
3.99326870281314
20
-3.40392158332608
30
0
41
1
10
4.16861709160796
20
-3.54275343615137
30
0
41
1
10
4.39409248920572
20
-3.70864493758893
30
0
41
1
10
4.43953744014919
20
-3.74146257001803
30
0
41
1
10
4.53079125802722
20
-3.8061842680348
30
0
41
1
10
4.66826443827125
20
-3.90193267792765
30
0
41
1
10
4.80743420158942
20
-3.99387557294719
30
0
41
1
10
5.08785397938308
20
-4.1731324892508
30
0
41
1
10
5.27756695747294
20
-4.28648246396395
30
0
41
1
10
5.6617779968135
20
-4.50271787850826
30
0
41
1
10
5.85627896383974
20
-4.60559640229817
30
0
41
1
10
6.24952423648881
20
-4.80224194828367
30
0
41
1
10
6.44827025210861
20
-4.89600489545703
30
0
41
1
10
7.05025590486366
20
-5.16518974233216
30
0
41
1
10
7.45921393512006
20
-5.32857753732273
30
0
41
1
10
7.87464789964872
20
-5.47889835622303
30
0
0
SPLINE
5
106
100
AcDbEntity
8
1
62
256
6
ByLayer
370
18
48
1
60
0
100
AcDbSpline
70
4
71
3
72
76
73
72
40
0
40
0
40
0
40
0
40
0.021993403292416
40
0.021993403292416
40
0.039514130394271
40
0.039514130394271
40
0.0570348574961261
40
0.0570348574961261
40
0.0745555845979811
40
0.0745555845979811
40
0.0920763116998362
40
0.0920763116998362
40
0.109597038801691
40
0.109597038801691
40
0.111787129689423
40
0.112334652411356
40
0.112608413772323
40
0.112608413772323
40
0.112745294452806
40
0.112745294452806
40
0.112882175133289
40
0.112882175133289
40
0.113429697855222
40
0.113429697855222
40
0.113977220577155
40
0.113977220577155
40
0.118357402352619
40
0.118357402352619
40
0.127117765903546
40
0.127117765903546
40
0.162159220107254
40
0.162159220107254
40
0.23224212851467
40
0.23224212851467
40
0.372407945329503
40
0.372407945329503
40
0.44249085373692
40
0.44249085373692
40
0.477532307940628
40
0.477532307940628
40
0.495053035042482
40
0.495053035042482
40
0.512573762144336
40
0.512573762144336
40
0.514763853032068
40
0.514763853032068
40
0.515858898475933
40
0.515858898475933
40
0.5161326598369
40
0.5161326598369
40
0.516269540517383
40
0.516269540517383
40
0.516406421197867
40
0.516406421197867
40
0.51654330187835
40
0.51654330187835
40
0.516680182558833
40
0.5169539439198
40
0.521334125695263
40
0.530094489246189
40
0.547615216348041
40
0.547615216348041
40
0.582656670551745
40
0.582656670551745
40
0.652739578959153
40
0.652739578959153
40
0.79290539577397
40
0.79290539577397
40
0.933071212588786
40
0.933071212588786
40
1
40
1
40
1
40
1
41
1
10
12.3076193618602
20
2.26530088679138
30
0
41
1
10
12.2428356423362
20
2.29082010946718
30
0
41
1
10
12.1740149972678
20
2.30937259843938
30
0
41
1
10
12.0451063687284
20
2.32904009257209
30
0
41
1
10
11.985987235437
20
2.33293902463188
30
0
41
1
10
11.8647641443961
20
2.33042700902246
30
0
41
1
10
11.8026903006663
20
2.32418892763712
30
0
41
1
10
11.6724448109156
20
2.30346403184441
30
0
41
1
10
11.6048816875484
20
2.28868054547743
30
0
41
1
10
11.465857997147
20
2.2497928209545
30
0
41
1
10
11.3941969558582
20
2.22569761311181
30
0
41
1
10
11.2471279909096
20
2.16849292679564
30
0
41
1
10
11.1718773784205
20
2.13532710244397
30
0
41
1
10
11.0857238072211
20
2.09265248068965
30
0
41
1
10
11.0737324232616
20
2.08663251446626
30
0
41
1
10
11.0605108105241
20
2.07988358329664
30
0
41
1
10
11.0569023222457
20
2.07803252826707
30
0
41
1
10
11.0550976533348
20
2.07710526286033
30
0
41
1
10
11.0544865912465
20
2.07680024233909
30
0
41
1
10
11.0533027474432
20
2.07617186956185
30
0
41
1
10
11.0541389833015
20
2.07540296626593
30
0
41
1
10
11.0585087453349
20
2.07227869082072
30
0
41
1
10
11.0629160961737
20
2.06998078186615
30
0
41
1
10
11.0713564396542
20
2.06534653728997
30
0
41
1
10
11.0756410665105
20
2.06305348783016
30
0
41
1
10
11.1143913317249
20
2.04248439092277
30
0
41
1
10
11.1496832723743
20
2.02455478923002
30
0
41
1
10
11.2552686705118
20
1.9705901535211
30
0
41
1
10
11.3259972517616
20
1.93469683976343
30
0
41
1
10
11.6799309769199
20
1.75494993386917
30
0
41
1
10
11.9642079526986
20
1.61037971424673
30
0
41
1
10
12.8171429161227
20
1.17282536232054
30
0
41
1
10
13.3866849294059
20
0.876248785051644
30
0
41
1
10
15.0928654078068
20
-0.0295204915809393
30
0
41
1
10
16.2281558305463
20
-0.654697368981118
30
0
41
1
10
17.9285053024218
20
-1.62387020901758
30
0
41
1
10
18.4948917160842
20
-1.95208655904943
30
0
41
1
10
19.3436261598931
20
-2.45254477037722
30
0
41
1
10
19.6263047186163
20
-2.6206906157083
30
0
41
1
10
20.0494244718623
20
-2.87554622979187
30
0
41
1
10
20.1903266678808
20
-2.9609327508085
30
0
41
1
10
20.4715886062904
20
-3.13304702869382
30
0
41
1
10
20.6123848491386
20
-3.21906917942323
30
0
41
1
10
20.7686253097826
20
-3.31969391570874
30
0
41
1
10
20.7859511290777
20
-3.33093389099793
30
0
41
1
10
20.8116648908405
20
-3.34824187780748
30
0
41
1
10
20.820226397058
20
-3.35403825039461
30
0
41
1
10
20.8305674256965
20
-3.36180526200647
30
0
41
1
10
20.8326158405768
20
-3.36338469924763
30
0
41
1
10
20.8355840918172
20
-3.36589103338523
30
0
41
1
10
20.8365598746921
20
-3.36674798065897
30
0
41
1
10
20.8383968450692
20
-3.3685972685916
30
0
41
1
10
20.8397714252417
20
-3.36960212813105
30
0
41
1
10
20.83928216755
20
-3.37222118971769
30
0
41
1
10
20.8373521485372
20
-3.37200012079876
30
0
41
1
10
20.8348451573691
20
-3.37245715441972
30
0
41
1
10
20.8310846914849
20
-3.37314268541127
30
0
41
1
10
20.7872133210576
20
-3.38113986698113
30
0
41
1
10
20.6643965547302
20
-3.40351040705175
30
0
41
1
10
20.3838239706731
20
-3.45450243418392
30
0
41
1
10
20.1435960321913
20
-3.49796486586359
30
0
41
1
10
19.6635110600194
20
-3.58455043639413
30
0
41
1
10
19.3439405003161
20
-3.64182331124798
30
0
41
1
10
18.3866652013478
20
-3.81222170619392
30
0
41
1
10
17.7507005897051
20
-3.92387271969014
30
0
41
1
10
15.8498116140366
20
-4.25235926285859
30
0
41
1
10
14.591656960367
20
-4.46277736269312
30
0
41
1
10
12.0924811599228
20
-4.86343106051766
30
0
41
1
10
10.8535720594592
20
-5.05336186370252
30
0
41
1
10
9.03973725775572
20
-5.31675707702209
30
0
41
1
10
8.45601962497562
20
-5.39921968412986
30
0
41
1
10
7.87472027407028
20
-5.47894249549
30
0
0
SPLINE
5
107
100
AcDbEntity
8
SK1
62
256
6
ByLayer
370
18
48
1
60
0
100
AcDbSpline
70
4
71
3
72
8
73
4
40
0
40
0
40
0
40
0
40
1
40
1
40
1
40
1
41
1
10
-46.5
20
-3.35942448849238
30
0
41
1
10
-47.0011286539134
20
-3.04125575387886
30
0
41
1
10
-47.5014407634459
20
-2.7225885501891
30
0
41
1
10
-48
20
-2.40285128466948
30
0
0
SPLINE
5
108
100
AcDbEntity
8
SK1
62
256
6
ByLayer
370
18
48
1
60
0
100
AcDbSpline
70
4
71
3
72
20
73
16
40
0
40
0
40
0
40
0
40
0.0624999999999983
40
0.0624999999999983
40
0.124999999999997
40
0.124999999999997
40
0.249999999999995
40
0.249999999999995
40
0.374999999999994
40
0.374999999999994
40
0.499999999999992
40
0.499999999999992
40
0.749999999999996
40
0.749999999999996
40
1
40
1
40
1
40
1
41
1
10
-46.4
20
-3.51161348143651
30
0
41
1
10
-46.4
20
-3.50796396583519
30
0
41
1
10
-46.400255320285
20
-3.50421230893585
30
0
41
1
10
-46.401238720026
20
-3.49651975034922
30
0
41
1
10
-46.4019736794311
20
-3.49256550212485
30
0
41
1
10
-46.4047525178022
20
-3.4808194078017
30
0
41
1
10
-46.4073868202018
20
-3.47297779751236
30
0
41
1
10
-46.4138324199077
20
-3.45749388039755
30
0
41
1
10
-46.4175513092506
20
-3.45005841834555
30
0
41
1
10
-46.4257576562685
20
-3.43566206651153
30
0
41
1
10
-46.4302902765819
20
-3.42865056536942
30
0
41
1
10
-46.444519757331
20
-3.40880111552045
30
0
41
1
10
-46.4548628465271
20
-3.39699722017403
30
0
41
1
10
-46.476979534445
20
-3.37580674866524
30
0
41
1
10
-46.4883400853171
20
-3.36682741840147
30
0
41
1
10
-46.5
20
-3.35942448849235
30
0
0
SPLINE
5
109
100
AcDbEntity
8
SK1
62
256
6
ByLayer
370
18
48
1
60
0
100
AcDbSpline
70
4
71
3
72
20
73
16
40
0
40
0
40
0
40
0
40
0.25
40
0.25
40
0.375
40
0.375
40
0.5
40
0.5
40
0.625
40
0.625
40
0.75
40
0.75
40
0.875
40
0.875
40
1
40
1
40
1
40
1
41
1
10
-46.5
20
-5.31129685940547
30
0
41
1
10
-46.4883382808638
20
-5.31870093496971
30
0
41
1
10
-46.4769899849393
20
-5.32458407581953
30
0
41
1
10
-46.4604389640724
20
-5.33107837371125
30
0
41
1
10
-46.4550533753258
20
-5.33282104004266
30
0
41
1
10
-46.4447632897779
20
-5.33535892320765
30
0
41
1
10
-46.4398264111653
20
-5.33616822627536
30
0
41
1
10
-46.4304188308979
20
-5.3367505913692
30
0
41
1
10
-46.4259311640916
20
-5.33652452403743
30
0
41
1
10
-46.4176087338257
20
-5.33476827411693
30
0
41
1
10
-46.4138727961238
20
-5.33326418731301
30
0
41
1
10
-46.4074449634846
20
-5.32871363205632
30
0
41
1
10
-46.4047607228177
20
-5.32563332214187
30
0
41
1
10
-46.40105390221
20
-5.31780709437427
30
0
41
1
10
-46.4
20
-5.31293769598838
30
0
41
1
10
-46.4
20
-5.30733606267654
30
0
0
SPLINE
5
10A
100
AcDbEntity
8
SK1
62
256
6
ByLayer
370
18
48
1
60
0
100
AcDbSpline
70
4
71
3
72
8
73
4
40
0
40
0
40
0
40
0
40
1
40
1
40
1
40
1
41
1
10
-48
20
-4.3547236555826
30
0
41
1
10
-47.5014345417614
20
-4.67446491120859
30
0
41
1
10
-47.0011237550098
20
-4.99313123512692
30
0
41
1
10
-46.5
20
-5.31129685940547
30
0
0
SPLINE
5
10B
100
AcDbEntity
8
1
62
256
6
ByLayer
370
18
48
1
60
0
100
AcDbSpline
70
4
71
3
72
18
73
14
40
0
40
0
40
0
40
0
40
0.0006574969780047
40
0.14554030572266
40
0.329872315737714
40
0.421745453759317
40
0.504197319340709
40
0.576540923801139
40
0.64956331663464
40
0.720591420119681
40
0.804467991827939
40
0.906726709810807
40
1
40
1
40
1
40
1
41
1
10
81.7199089902934
20
1.79210019354633
30
0
41
1
10
81.71823396413
20
1.79260914199907
30
0
41
1
10
81.3474658738471
20
1.90529041468039
30
0
41
1
10
80.5134424294601
20
2.18067734011191
30
0
41
1
10
79.4521535540079
20
2.54084434038722
30
0
41
1
10
78.5537094052524
20
2.86277635493508
30
0
41
1
10
77.9378512980516
20
3.08936850941112
30
0
41
1
10
77.3708464243642
20
3.30316882057846
30
0
41
1
10
76.8337693631122
20
3.5102213283102
30
0
41
1
10
76.2694498518845
20
3.73250479181198
30
0
41
1
10
75.6345845400949
20
3.98842579617164
30
0
41
1
10
74.9479250953291
20
4.27226240831433
30
0
41
1
10
74.4701196630425
20
4.47636336223405
30
0
41
1
10
74.242781739798
20
4.57487344623976
30
0
0
SPLINE
5
10C
100
AcDbEntity
8
1
62
256
6
ByLayer
370
18
48
1
60
0
100
AcDbSpline
70
4
71
3
72
42
73
38
40
0
40
0
40
0
40
0
40
1.5308244798E-06
40
4.22920039046E-05
40
5.75085630386E-05
40
7.03878348872E-05
40
8.19454373776E-05
40
9.30988173383E-05
40
0.0001163012571931
40
0.0002561913817666
40
0.0003575948266532
40
0.0005416905888409
40
0.0008800897067563
40
0.0015153343403651
40
0.00274923648452
40
0.0052735639453349
40
0.0108178398231004
40
0.0240385196272252
40
0.0509168669587953
40
0.102677470227573
40
0.188358872882208
40
0.257835251783405
40
0.312605319902545
40
0.372456971904203
40
0.444594619862645
40
0.510580968322494
40
0.579457038881745
40
0.638821400190762
40
0.696854051508089
40
0.75162492481449
40
0.79729780823047
40
0.817353397195344
40
0.841370337166206
40
0.875135598715067
40
0.918650130931478
40
0.971916878942128
40
1
40
1
40
1
40
1
41
1
10
42.685057684009
20
0.525747942437619
30
0
41
1
10
42.6850602396009
20
0.52574737775592
30
0
41
1
10
42.6851301198923
20
0.525731955666174
30
0
41
1
10
42.6851976146528
20
0.52571777267346
30
0
41
1
10
42.6852162432003
20
0.525717846140537
30
0
41
1
10
42.6851726512869
20
0.525728583393118
30
0
41
1
10
42.6851040397438
20
0.525746549685579
30
0
41
1
10
42.6849738170005
20
0.525779555082693
30
0
41
1
10
42.6843179716418
20
0.525941869823299
30
0
41
1
10
42.6832484565454
20
0.526203404416606
30
0
41
1
10
42.6816727823779
20
0.526593073448339
30
0
41
1
10
42.6793063629284
20
0.527176659768514
30
0
41
1
10
42.6749250054555
20
0.528257976522525
30
0
41
1
10
42.6664855552088
20
0.530339825832073
30
0
41
1
10
42.6495106349211
20
0.534527500868734
30
0
41
1
10
42.6130203273768
20
0.543534714218112
30
0
41
1
10
42.5282054360396
20
0.564524148364058
30
0
41
1
10
42.3437218013824
20
0.610520494673779
30
0
41
1
10
41.9729652372319
20
0.704306259294469
30
0
41
1
10
41.312361123112
20
0.876071216388368
30
0
41
1
10
40.4821769598712
20
1.10223886520635
30
0
41
1
10
39.6435528579411
20
1.34246643435691
30
0
41
1
10
38.9105032293122
20
1.56069535299898
30
0
41
1
10
38.1696325474157
20
1.78895215401994
30
0
41
1
10
37.3874786125114
20
2.03929232063788
30
0
41
1
10
36.5723056153348
20
2.31042217008076
30
0
41
1
10
35.8096926608261
20
2.57342417412019
30
0
41
1
10
35.0806358449746
20
2.83336559928395
30
0
41
1
10
34.4094011945783
20
3.07987053212915
30
0
41
1
10
33.7938683973912
20
3.3122402988574
30
0
41
1
10
33.3271058239842
20
3.49271687634683
30
0
41
1
10
32.9799901356226
20
3.62900883428276
30
0
41
1
10
32.6792496565956
20
3.74830777348439
30
0
41
1
10
32.288570499622
20
3.90530943634667
30
0
41
1
10
31.7863757040378
20
4.11087306727643
30
0
41
1
10
31.3072451489873
20
4.31042614243668
30
0
41
1
10
30.996480053814
20
4.44366895860736
30
0
41
1
10
30.8893308923537
20
4.48997491451826
30
0
0
SPLINE
5
10D
100
AcDbEntity
8
1
62
256
6
ByLayer
370
18
48
1
60
0
100
AcDbSpline
70
4
71
2
72
6
73
3
40
0
40
0
40
0
40
1
40
1
40
1
41
1
10
62.1116926350914
20
-0.0002530041075204
30
0
41
1
10
62.1116423328445
20
-0.0002279787002806
30
0
41
1
10
62.1115920305308
20
-0.0002019204142698
30
0
0
SPLINE
5
10E
100
AcDbEntity
8
1
62
256
6
ByLayer
370
18
48
1
60
0
100
AcDbSpline
70
4
71
3
72
27
73
23
40
0
40
0
40
0
40
0
40
0.0216973423261055
40
0.04268583170603
40
0.0637683501354616
40
0.0858153772729541
40
0.15238991081147
40
0.215571384989837
40
0.273624159435211
40
0.33664425147923
40
0.394352563033219
40
0.4435939778235
40
0.498712408277852
40
0.547511936941594
40
0.598306674668948
40
0.661255367003779
40
0.718374152113721
40
0.781904602703872
40
0.853270174175487
40
0.931793085457004
40
0.985908588203727
40
1
40
1
40
1
40
1
41
1
10
40.3365216138501
20
-7.18788236814311
30
0
41
1
10
40.4321297381814
20
-7.18764908764166
30
0
41
1
10
40.6278602047177
20
-7.18701486930775
30
0
41
1
10
40.947163335693
20
-7.18420489004259
30
0
41
1
10
41.2814854022863
20
-7.18358459721586
30
0
41
1
10
41.8466243262171
20
-7.18784587418301
30
0
41
1
10
42.6113439654683
20
-7.19235114798147
30
0
41
1
10
43.5914907910899
20
-7.19300888698785
30
0
41
1
10
44.5458421134724
20
-7.19567906383645
30
0
41
1
10
45.4737034001653
20
-7.1966968663221
30
0
41
1
10
46.3553411669538
20
-7.19761124242353
30
0
41
1
10
47.1961114902657
20
-7.19850049714071
30
0
41
1
10
47.9906320528332
20
-7.20158836662301
30
0
41
1
10
48.7932268355481
20
-7.20260170087329
30
0
41
1
10
49.6364394192947
20
-7.20321345914061
30
0
41
1
10
50.5228095096818
20
-7.20358407849452
30
0
41
1
10
51.4752424547365
20
-7.20716320147071
30
0
41
1
10
52.4713393104318
20
-7.20991083440407
30
0
41
1
10
53.5784913344742
20
-7.20937739603624
30
0
41
1
10
54.6367308304859
20
-7.21060371620206
30
0
41
1
10
55.3980307949689
20
-7.21275485971913
30
0
41
1
10
55.7517390847997
20
-7.21361521486352
30
0
41
1
10
55.8248163418531
20
-7.21379210196818
30
0
0
SPLINE
5
10F
100
AcDbEntity
8
1
62
256
6
ByLayer
370
18
48
1
60
0
100
AcDbSpline
70
4
71
3
72
26
73
22
40
0
40
0
40
0
40
0
40
0.0437205989589496
40
0.0797370492057421
40
0.109395475505738
40
0.138083267757399
40
0.167856331267585
40
0.198669249682443
40
0.228819571824132
40
0.281906407575147
40
0.339429597803949
40
0.396711382831746
40
0.488619164300335
40
0.567307477507839
40
0.648425364534554
40
0.713481642522299
40
0.782338752702063
40
0.849069126222083
40
0.916389884150729
40
0.99093542051849
40
1
40
1
40
1
40
1
41
1
10
59.5468123177155
20
7.21851562211731
30
0
41
1
10
59.3306568197612
20
7.21769818836987
30
0
41
1
10
58.9324708449522
20
7.2167344551402
30
0
41
1
10
58.3676580601144
20
7.2144893824798
30
0
41
1
10
57.8869407722455
20
7.21701583497469
30
0
41
1
10
57.4427207085731
20
7.21790831629269
30
0
41
1
10
56.9844865752531
20
7.21710850100212
30
0
41
1
10
56.5177938018112
20
7.21554067232287
30
0
41
1
10
55.9311156092134
20
7.21402120963918
30
0
41
1
10
55.2069944350854
20
7.21235212296384
30
0
41
1
10
54.343316711497
20
7.20987255127667
30
0
41
1
10
53.2799232612037
20
7.20954463361198
30
0
41
1
10
52.1076542717509
20
7.21004972169328
30
0
41
1
10
50.812772638813
20
7.20384935926563
30
0
41
1
10
49.6560155474575
20
7.20309926091426
30
0
41
1
10
48.5498292869156
20
7.20279210948809
30
0
41
1
10
47.5176672351584
20
7.19938716178868
30
0
41
1
10
46.4738385262212
20
7.19758491238338
30
0
41
1
10
45.4008160957387
20
7.19674402627507
30
0
41
1
10
44.624214190613
20
7.19554320836625
30
0
41
1
10
44.1942561403463
20
7.19468967280554
30
0
41
1
10
44.1476440915739
20
7.19459554555115
30
0
0
LINE
5
82
100
AcDbEntity
8
4
62
256
6
ByLayer
370
18
48
0.05
60
0
100
AcDbLine
10
0
20
0
30
0
11
85
21
0
31
0
39
0
210
0
220
0
230
1
0
LINE
5
84
100
AcDbEntity
8
81
62
256
6
ByLayer
370
18
48
1
60
0
100
AcDbLine
10
85
20
0
30
0
11
88
21
0
31
0
39
0
210
0
220
0
230
1
0
LINE
5
85
100
AcDbEntity
8
80
62
256
6
ByLayer
370
18
48
1
60
0
100
AcDbLine
10
0
20
0
30
0
11
-3
21
0
31
0
39
0
210
0
220
0
230
1
0
LINE
5
86
100
AcDbEntity
8
SK4
62
256
6
ByLayer
370
18
48
0.05
60
0
100
AcDbLine
10
-51
20
0
30
0
11
88
21
0
31
0
39
0
210
0
220
0
230
1
0
LINE
5
88
100
AcDbEntity
8
1
62
256
6
ByLayer
370
18
48
1
60
0
100
AcDbLine
10
0
20
8
30
0
11
0
21
-8
31
0
39
0
210
0
220
0
230
1
0
LINE
5
89
100
AcDbEntity
8
1
62
256
6
ByLayer
370
13
48
1
60
0
100
AcDbLine
10
84.833187
20
0.774359
30
0
11
83.314876
21
2.298412
31
0
39
0
210
0
220
0
230
1
0
LINE
5
8A
100
AcDbEntity
8
1
62
256
6
ByLayer
370
13
48
1
60
0
100
AcDbLine
10
0.622819
20
-7.702092
30
0
11
0.622819
21
7.702092
31
0
39
0
210
0
220
0
230
1
0
LINE
5
8B
100
AcDbEntity
8
1
62
256
6
ByLayer
370
18
48
1
60
0
100
AcDbLine
10
22.300026
20
-1.925441
30
0
11
22.300026
21
6.609238
31
0
39
0
210
0
220
0
230
1
0
LINE
5
8C
100
AcDbEntity
8
1
62
256
6
ByLayer
370
18
48
1
60
0
100
AcDbLine
10
22.300026
20
-2.856863
30
0
11
22.300026
21
-2.975749
31
0
39
0
210
0
220
0
230
1
0
LINE
5
8D
100
AcDbEntity
8
1
62
256
6
ByLayer
370
13
48
1
60
0
100
AcDbLine
10
1.247078
20
-7.404186
30
0
11
1.247078
21
7.404186
31
0
39
0
210
0
220
0
230
1
0
LINE
5
8E
100
AcDbEntity
8
SK1
62
256
6
ByLayer
370
18
48
1
60
0
100
AcDbLine
10
-48
20
-2.40278
30
0
11
-48
21
-4.354724
31
0
39
0
210
0
220
0
230
1
0
LINE
5
90
100
AcDbEntity
8
SK1
62
256
6
ByLayer
370
13
48
1
60
0
100
AcDbLine
10
-46.5
20
-5.311297
30
0
11
-46.5
21
-3.359301
31
0
39
0
210
0
220
0
230
1
0
LINE
5
91
100
AcDbEntity
8
SK1
62
256
6
ByLayer
370
18
48
1
60
0
100
AcDbLine
10
-46.4
20
-5.307336
30
0
11
-46.4
21
-3.511613
31
0
39
0
210
0
220
0
230
1
0
LINE
5
92
100
AcDbEntity
8
SK1
62
256
6
ByLayer
370
18
48
1
60
0
100
AcDbLine
10
-48
20
-5.55
30
0
11
-48
21
-4.354724
31
0
39
0
210
0
220
0
230
1
0
LINE
5
93
100
AcDbEntity
8
SK1
62
256
6
ByLayer
370
18
48
1
60
0
100
AcDbLine
10
-48
20
5.55
30
0
11
-48
21
-2.402851
31
0
39
0
210
0
220
0
230
1
0
LINE
5
94
100
AcDbEntity
8
SK1
62
256
6
ByLayer
370
18
48
1
60
0
100
AcDbLine
10
-45.55
20
-8
30
0
11
-45.55
21
8
31
0
39
0
210
0
220
0
230
1
0
LINE
5
95
100
AcDbEntity
8
SK1
62
256
6
ByLayer
370
18
48
1
60
0
100
AcDbLine
10
0
20
8
30
0
11
0
21
-8
31
0
39
0
210
0
220
0
230
1
0
LINE
5
96
100
AcDbEntity
8
1
62
256
6
ByLayer
370
18
48
1
60
0
100
AcDbLine
10
1.247078
20
-7.404186
30
0
11
18.100009
21
-7.434521
31
0
39
0
210
0
220
0
230
1
0
LINE
5
97
100
AcDbEntity
8
1
62
256
6
ByLayer
370
18
48
1
60
0
100
AcDbLine
10
38.628349
20
-7.471472
30
0
11
40.335371
21
-7.474545
31
0
39
0
210
0
220
0
230
1
0
LINE
5
98
100
AcDbEntity
8
1
62
256
6
ByLayer
370
18
48
1
60
0
100
AcDbLine
10
59.543028
20
-7.509118
30
0
11
61.540651
21
-7.512714
31
0
39
0
210
0
220
0
230
1
0
LINE
5
99
100
AcDbEntity
8
1
62
256
6
ByLayer
370
18
48
1
60
0
100
AcDbLine
10
61.540651
20
7.512714
30
0
11
59.543028
21
7.509118
31
0
39
0
210
0
220
0
230
1
0
LINE
5
9A
100
AcDbEntity
8
1
62
256
6
ByLayer
370
18
48
1
60
0
100
AcDbLine
10
40.335371
20
7.474545
30
0
11
38.628349
21
7.471472
31
0
39
0
210
0
220
0
230
1
0
LINE
5
9B
100
AcDbEntity
8
1
62
256
6
ByLayer
370
18
48
1
60
0
100
AcDbLine
10
18.100009
20
7.434521
30
0
11
1.247078
21
7.404186
31
0
39
0
210
0
220
0
230
1
0
LINE
5
9C
100
AcDbEntity
8
SK1
62
256
6
ByLayer
370
18
48
1
60
0
100
AcDbLine
10
-48
20
-5.55
30
0
11
-45.55
21
-8
31
0
39
0
210
0
220
0
230
1
0
LINE
5
9D
100
AcDbEntity
8
SK1
62
256
6
ByLayer
370
18
48
1
60
0
100
AcDbLine
10
-45.55
20
8
30
0
11
-48
21
5.55
31
0
39
0
210
0
220
0
230
1
0
LINE
5
9E
100
AcDbEntity
8
SK1
62
256
6
ByLayer
370
18
48
1
60
0
100
AcDbLine
10
-45.55
20
-8
30
0
11
0
21
-8
31
0
39
0
210
0
220
0
230
1
0
LINE
5
9F
100
AcDbEntity
8
SK1
62
256
6
ByLayer
370
18
48
1
60
0
100
AcDbLine
10
0
20
8
30
0
11
-45.55
21
8
31
0
39
0
210
0
220
0
230
1
0
LINE
5
A0
100
AcDbEntity
8
2
62
256
6
ByLayer
370
13
48
1
60
0
100
AcDbLine
10
92.5
20
-7.55
30
0
11
92.5
21
32.591141
31
0
39
0
210
0
220
0
230
1
0
LINE
5
A2
100
AcDbEntity
8
2
62
256
6
ByLayer
370
13
48
1
60
0
100
AcDbLine
10
86.5875
20
7.55
30
0
11
94.5
21
7.55
31
0
39
0
210
0
220
0
230
1
0
LINE
5
A3
100
AcDbEntity
8
2
62
256
6
ByLayer
370
13
48
1
60
0
100
AcDbLine
10
86.5875
20
-7.55
30
0
11
94.5
21
-7.55
31
0
39
0
210
0
220
0
230
1
0
LINE
5
A4
100
AcDbEntity
8
1
62
256
6
ByLayer
370
18
48
1
60
1
100
AcDbLine
10
92.5
20
7.55
30
0
11
92.960784
21
4.050002
31
0
39
0
210
0
220
0
230
1
0
LINE
5
A5
100
AcDbEntity
8
1
62
256
6
ByLayer
370
18
48
1
60
1
100
AcDbLine
10
92.960784
20
4.050002
30
0
11
92.039216
21
4.049998
31
0
39
0
210
0
220
0
230
1
0
LINE
5
A6
100
AcDbEntity
8
1
62
256
6
ByLayer
370
18
48
1
60
1
100
AcDbLine
10
92.039216
20
4.049998
30
0
11
92.5
21
7.55
31
0
39
0
210
0
220
0
230
1
0
LINE
5
A7
100
AcDbEntity
8
1
62
256
6
ByLayer
370
18
48
1
60
1
100
AcDbLine
10
92.5
20
-7.55
30
0
11
92.039216
21
-4.050002
31
0
39
0
210
0
220
0
230
1
0
LINE
5
A8
100
AcDbEntity
8
1
62
256
6
ByLayer
370
18
48
1
60
1
100
AcDbLine
10
92.039216
20
-4.050002
30
0
11
92.960784
21
-4.049998
31
0
39
0
210
0
220
0
230
1
0
LINE
5
A9
100
AcDbEntity
8
1
62
256
6
ByLayer
370
18
48
1
60
1
100
AcDbLine
10
92.960784
20
-4.049998
30
0
11
92.5
21
-7.55
31
0
39
0
210
0
220
0
230
1
0
LINE
5
AA
100
AcDbEntity
8
SK2
62
256
6
ByLayer
370
13
48
1
60
0
100
AcDbLine
10
-56.5
20
-8
30
0
11
-56.5
21
15.333771
31
0
39
0
210
0
220
0
230
1
0
LINE
5
AC
100
AcDbEntity
8
SK2
62
256
6
ByLayer
370
13
48
1
60
0
100
AcDbLine
10
-49.5875
20
8
30
0
11
-58.5
21
8
31
0
39
0
210
0
220
0
230
1
0
LINE
5
AD
100
AcDbEntity
8
SK2
62
256
6
ByLayer
370
13
48
1
60
0
100
AcDbLine
10
-49.5875
20
-8
30
0
11
-58.5
21
-8
31
0
39
0
210
0
220
0
230
1
0
LINE
5
AE
100
AcDbEntity
8
1
62
256
6
ByLayer
370
18
48
1
60
1
100
AcDbLine
10
-56.5
20
8
30
0
11
-56.039216
21
4.500002
31
0
39
0
210
0
220
0
230
1
0
LINE
5
AF
100
AcDbEntity
8
1
62
256
6
ByLayer
370
18
48
1
60
1
100
AcDbLine
10
-56.039216
20
4.500002
30
0
11
-56.960784
21
4.499998
31
0
39
0
210
0
220
0
230
1
0
LINE
5
B0
100
AcDbEntity
8
1
62
256
6
ByLayer
370
18
48
1
60
1
100
AcDbLine
10
-56.960784
20
4.499998
30
0
11
-56.5
21
8
31
0
39
0
210
0
220
0
230
1
0
LINE
5
B1
100
AcDbEntity
8
1
62
256
6
ByLayer
370
18
48
1
60
1
100
AcDbLine
10
-56.5
20
-8
30
0
11
-56.960784
21
-4.500002
31
0
39
0
210
0
220
0
230
1
0
LINE
5
B2
100
AcDbEntity
8
1
62
256
6
ByLayer
370
18
48
1
60
1
100
AcDbLine
10
-56.960784
20
-4.500002
30
0
11
-56.039216
21
-4.499998
31
0
39
0
210
0
220
0
230
1
0
LINE
5
B3
100
AcDbEntity
8
1
62
256
6
ByLayer
370
18
48
1
60
1
100
AcDbLine
10
-56.039216
20
-4.499998
30
0
11
-56.5
21
-8
31
0
39
0
210
0
220
0
230
1
0
LINE
5
B4
100
AcDbEntity
8
SK2
62
256
6
ByLayer
370
13
48
1
60
0
100
AcDbLine
10
85.542961
20
1.49176
30
0
11
94.007911
21
24.74881
31
0
39
0
210
0
220
0
230
1
0
LINE
5
B5
100
AcDbEntity
8
SK2
62
256
6
ByLayer
370
13
48
1
60
0
100
AcDbLine
10
85.542961
20
-1.49176
30
0
11
94.007911
21
-24.74881
31
0
39
0
210
0
220
0
230
1
0
LINE
5
B6
100
AcDbEntity
8
1
62
256
6
ByLayer
370
18
48
1
60
1
100
AcDbLine
10
93.323865
20
22.869426
30
0
11
96.740745
21
21.98216
31
0
39
0
210
0
220
0
230
1
0
LINE
5
B7
100
AcDbEntity
8
1
62
256
6
ByLayer
370
18
48
1
60
1
100
AcDbLine
10
96.740745
20
21.98216
30
0
11
96.394679
21
21.128037
31
0
39
0
210
0
220
0
230
1
0
LINE
5
B8
100
AcDbEntity
8
1
62
256
6
ByLayer
370
18
48
1
60
1
100
AcDbLine
10
96.394679
20
21.128037
30
0
11
93.323865
21
22.869426
31
0
39
0
210
0
220
0
230
1
0
LINE
5
B9
100
AcDbEntity
8
1
62
256
6
ByLayer
370
18
48
1
60
1
100
AcDbLine
10
93.323865
20
-22.869426
30
0
11
96.394676
21
-21.128038
31
0
39
0
210
0
220
0
230
1
0
LINE
5
BA
100
AcDbEntity
8
1
62
256
6
ByLayer
370
18
48
1
60
1
100
AcDbLine
10
96.394676
20
-21.128038
30
0
11
96.740748
21
-21.982158
31
0
39
0
210
0
220
0
230
1
0
LINE
5
BB
100
AcDbEntity
8
1
62
256
6
ByLayer
370
18
48
1
60
1
100
AcDbLine
10
96.740748
20
-21.982158
30
0
11
93.323865
21
-22.869426
31
0
39
0
210
0
220
0
230
1
0
LINE
5
110
100
AcDbEntity
8
1
62
256
6
ByLayer
370
13
48
0.05
60
0
100
AcDbLine
10
-54.5
20
0
30
0
11
88.739098
21
0
31
0
39
0
210
0
220
0
230
1
0
LINE
5
115
100
AcDbEntity
8
1
62
256
6
ByLayer
370
18
48
1
60
1
100
AcDbLine
10
92.5
20
7.55
30
0
11
92.960784
21
4.050002
31
0
39
0
210
0
220
0
230
1
0
LINE
5
116
100
AcDbEntity
8
1
62
256
6
ByLayer
370
18
48
1
60
1
100
AcDbLine
10
92.960784
20
4.050002
30
0
11
92.039216
21
4.049998
31
0
39
0
210
0
220
0
230
1
0
LINE
5
117
100
AcDbEntity
8
1
62
256
6
ByLayer
370
18
48
1
60
1
100
AcDbLine
10
92.039216
20
4.049998
30
0
11
92.5
21
7.55
31
0
39
0
210
0
220
0
230
1
0
LINE
5
119
100
AcDbEntity
8
1
62
256
6
ByLayer
370
18
48
1
60
1
100
AcDbLine
10
92.5
20
-7.55
30
0
11
92.039216
21
-4.050002
31
0
39
0
210
0
220
0
230
1
0
LINE
5
11A
100
AcDbEntity
8
1
62
256
6
ByLayer
370
18
48
1
60
1
100
AcDbLine
10
92.039216
20
-4.050002
30
0
11
92.960784
21
-4.049998
31
0
39
0
210
0
220
0
230
1
0
LINE
5
11B
100
AcDbEntity
8
1
62
256
6
ByLayer
370
18
48
1
60
1
100
AcDbLine
10
92.960784
20
-4.049998
30
0
11
92.5
21
-7.55
31
0
39
0
210
0
220
0
230
1
0
LINE
5
11F
100
AcDbEntity
8
1
62
256
6
ByLayer
370
18
48
1
60
1
100
AcDbLine
10
-56.5
20
8
30
0
11
-56.039216
21
4.500002
31
0
39
0
210
0
220
0
230
1
0
LINE
5
120
100
AcDbEntity
8
1
62
256
6
ByLayer
370
18
48
1
60
1
100
AcDbLine
10
-56.039216
20
4.500002
30
0
11
-56.960784
21
4.499998
31
0
39
0
210
0
220
0
230
1
0
LINE
5
121
100
AcDbEntity
8
1
62
256
6
ByLayer
370
18
48
1
60
1
100
AcDbLine
10
-56.960784
20
4.499998
30
0
11
-56.5
21
8
31
0
39
0
210
0
220
0
230
1
0
LINE
5
123
100
AcDbEntity
8
1
62
256
6
ByLayer
370
18
48
1
60
1
100
AcDbLine
10
-56.5
20
-8
30
0
11
-56.960784
21
-4.500002
31
0
39
0
210
0
220
0
230
1
0
LINE
5
124
100
AcDbEntity
8
1
62
256
6
ByLayer
370
18
48
1
60
1
100
AcDbLine
10
-56.960784
20
-4.500002
30
0
11
-56.039216
21
-4.499998
31
0
39
0
210
0
220
0
230
1
0
LINE
5
125
100
AcDbEntity
8
1
62
256
6
ByLayer
370
18
48
1
60
1
100
AcDbLine
10
-56.039216
20
-4.499998
30
0
11
-56.5
21
-8
31
0
39
0
210
0
220
0
230
1
0
LINE
5
128
100
AcDbEntity
8
1
62
256
6
ByLayer
370
18
48
1
60
1
100
AcDbLine
10
93.323865
20
22.869426
30
0
11
96.740745
21
21.98216
31
0
39
0
210
0
220
0
230
1
0
LINE
5
129
100
AcDbEntity
8
1
62
256
6
ByLayer
370
18
48
1
60
1
100
AcDbLine
10
96.740745
20
21.98216
30
0
11
96.394679
21
21.128037
31
0
39
0
210
0
220
0
230
1
0
LINE
5
12A
100
AcDbEntity
8
1
62
256
6
ByLayer
370
18
48
1
60
1
100
AcDbLine
10
96.394679
20
21.128037
30
0
11
93.323865
21
22.869426
31
0
39
0
210
0
220
0
230
1
0
LINE
5
12C
100
AcDbEntity
8
1
62
256
6
ByLayer
370
18
48
1
60
1
100
AcDbLine
10
93.323865
20
-22.869426
30
0
11
96.394676
21
-21.128038
31
0
39
0
210
0
220
0
230
1
0
LINE
5
12D
100
AcDbEntity
8
1
62
256
6
ByLayer
370
18
48
1
60
1
100
AcDbLine
10
96.394676
20
-21.128038
30
0
11
96.740748
21
-21.982158
31
0
39
0
210
0
220
0
230
1
0
LINE
5
12E
100
AcDbEntity
8
1
62
256
6
ByLayer
370
18
48
1
60
1
100
AcDbLine
10
96.740748
20
-21.982158
30
0
11
93.323865
21
-22.869426
31
0
39
0
210
0
220
0
230
1
0
MTEXT
5
111
100
AcDbEntity
8
2
62
256
6
ByLayer
370
18
48
1
60
0
100
AcDbMText
10
91.158886
20
21.208438
30
0
210
0
220
0
230
1
1
%%c
40
3
41
0
44
1.084337
50
90
71
7
72
5
7
iso_b_vert
0
MTEXT
5
114
100
AcDbEntity
8
2
62
256
6
ByLayer
370
18
48
1
60
0
100
AcDbMText
10
91.158886
20
27.185
30
0
210
0
220
0
230
1
1
\W0.6347;15.1
40
3
41
0
44
1.084337
50
90
71
7
72
5
7
iso_b_vert
0
MTEXT
5
11D
100
AcDbEntity
8
SK2
62
256
6
ByLayer
370
18
48
1
60
0
100
AcDbMText
10
-57.841114
20
6.658437
30
0
210
0
220
0
230
1
1
%%c
40
3
41
0
44
1.084337
50
90
71
7
72
5
7
iso_b_vert
0
MTEXT
5
11E
100
AcDbEntity
8
SK2
62
256
6
ByLayer
370
18
48
1
60
0
100
AcDbMText
10
-57.841114
20
12.635
30
0
210
0
220
0
230
1
1
\W0.5321;16
40
3
41
0
44
1.084337
50
90
71
7
72
5
7
iso_b_vert
0
MTEXT
5
127
100
AcDbEntity
8
SK2
62
256
6
ByLayer
370
18
48
1
60
0
100
AcDbMText
10
105.896504
20
-2.114886
30
0
210
0
220
0
230
1
1
\W0.7071;140%%d
40
3
41
0
44
1.084337
50
0
71
7
72
5
7
iso_b_vert
0
MTEXT
5
130
100
AcDbEntity
8
SK6
62
256
6
ByLayer
370
18
48
1
60
0
100
AcDbMText
10
-2.872301
20
-77.114886
30
0
210
0
220
0
230
1
1
\W0.7307;860.1-1510-062A1-SD S2BM
40
3
41
0
44
1.084337
50
0
71
7
72
5
7
iso_b_vert
0
HATCH
5
118
100
AcDbEntity
8
2
62
256
6
ByLayer
370
13
48
1
60
0
100
AcDbHatch
10
0
20
0
30
0
210
0
220
0
230
1
2
ANSI31
70
0
71
0
91
1
92
5
93
3
72
1
10
92.5
20
7.55000000000001
11
92.9607837415528
21
4.0500016925532
72
1
10
92.9607837415528
20
4.0500016925532
11
92.0392162584472
21
4.04999830744683
72
1
10
92.0392162584472
20
4.04999830744683
11
92.5
21
7.55000000000001
97
0
75
0
76
1
52
0
41
0.0062
77
0
78
1
53
45
43
0
44
0
45
-0.0139193969876572
46
0.0139193969876572
79
0
47
0
98
1
10
0
20
0
0
HATCH
5
11C
100
AcDbEntity
8
2
62
256
6
ByLayer
370
13
48
1
60
0
100
AcDbHatch
10
0
20
0
30
0
210
0
220
0
230
1
2
ANSI31
70
0
71
0
91
1
92
5
93
3
72
1
10
92.5
20
-7.54999999999998
11
92.0392162584472
21
-4.05000169255317
72
1
10
92.0392162584472
20
-4.05000169255317
11
92.9607837415528
21
-4.0499983074468
72
1
10
92.9607837415528
20
-4.0499983074468
11
92.5
21
-7.54999999999998
97
0
75
0
76
1
52
0
41
0.0062
77
0
78
1
53
45
43
0
44
0
45
-0.0139193969876572
46
0.0139193969876572
79
0
47
0
98
1
10
0
20
0
0
HATCH
5
122
100
AcDbEntity
8
SK2
62
256
6
ByLayer
370
13
48
1
60
0
100
AcDbHatch
10
0
20
0
30
0
210
0
220
0
230
1
2
ANSI31
70
0
71
0
91
1
92
5
93
3
72
1
10
-56.5
20
8
11
-56.0392162584472
21
4.50000169255318
72
1
10
-56.0392162584472
20
4.50000169255318
11
-56.9607837415528
21
4.49999830744682
72
1
10
-56.9607837415528
20
4.49999830744682
11
-56.5
21
8
97
0
75
0
76
1
52
0
41
0.0062
77
0
78
1
53
45
43
0
44
0
45
-0.0139193969876572
46
0.0139193969876572
79
0
47
0
98
1
10
0
20
0
0
HATCH
5
126
100
AcDbEntity
8
SK2
62
256
6
ByLayer
370
13
48
1
60
0
100
AcDbHatch
10
0
20
0
30
0
210
0
220
0
230
1
2
ANSI31
70
0
71
0
91
1
92
5
93
3
72
1
10
-56.5
20
-8
11
-56.9607837415528
21
-4.50000169255318
72
1
10
-56.9607837415528
20
-4.50000169255318
11
-56.0392162584472
21
-4.49999830744682
72
1
10
-56.0392162584472
20
-4.49999830744682
11
-56.5
21
-8
97
0
75
0
76
1
52
0
41
0.0062
77
0
78
1
53
45
43
0
44
0
45
-0.0139193969876572
46
0.0139193969876572
79
0
47
0
98
1
10
0
20
0
0
HATCH
5
12B
100
AcDbEntity
8
SK2
62
256
6
ByLayer
370
13
48
1
60
0
100
AcDbHatch
10
0
20
0
30
0
210
0
220
0
230
1
2
ANSI31
70
0
71
0
91
1
92
5
93
3
72
1
10
93.3238653494148
20
22.8694262693167
11
96.7407451397362
21
21.9821595072303
72
1
10
96.7407451397362
20
21.9821595072303
11
96.3946791675072
21
21.1280371689238
72
1
10
96.3946791675072
20
21.1280371689238
11
93.3238653494148
21
22.8694262693167
97
0
75
0
76
1
52
0
41
0.0062
77
0
78
1
53
45
43
0
44
0
45
-0.0139193969876572
46
0.0139193969876572
79
0
47
0
98
1
10
0
20
0
0
HATCH
5
12F
100
AcDbEntity
8
SK2
62
256
6
ByLayer
370
13
48
1
60
0
100
AcDbHatch
10
0
20
0
30
0
210
0
220
0
230
1
2
ANSI31
70
0
71
0
91
1
92
5
93
3
72
1
10
93.323865349415
20
-22.8694262693166
11
96.3946760301455
21
-21.1280384401065
72
1
10
96.3946760301455
20
-21.1280384401065
11
96.7407482770982
21
-21.9821582360473
72
1
10
96.7407482770982
20
-21.9821582360473
11
93.323865349415
21
-22.8694262693166
97
0
75
0
76
1
52
0
41
0.0062
77
0
78
1
53
45
43
0
44
0
45
-0.0139193969876572
46
0.0139193969876572
79
0
47
0
98
1
10
0
20
0
0
DIMENSION
5
133
100
AcDbEntity
8
SK2
62
256
6
ByLayer
370
18
48
1
60
0
100
AcDbDimension
2
_U0
10
22.3
20
-25.059233
30
0
11
53.65
21
-25.059233
31
0
70
32
71
1
72
1
41
1
210
0
220
0
230
1
3
Standard
100
AcDbAlignedDimension
13
85
23
-7.55
33
0
14
22.3
24
-7.55
34
0
50
0
100
AcDbRotatedDimension
1001
ACAD
1000
DSTYLE
1002
{
1070
   371
1070
    13
1070
   372
1070
    13
1070
   170
1070
     0
1070
   144
1040
1.0
1070
   277
1070
     2
1070
   284
1070
     8
1070
   278
1070
    46
1070
   146
1040
1.166667
1070
   345
1005
16
1070
   347
1005
16
1070
   346
1005
16
1070
   344
1005
0
1070
   343
1005
0
1070
   172
1070
     1
1070
    76
1070
     0
1070
    75
1070
     0
1070
   282
1070
     0
1070
   281
1070
     0
1070
     3
1000

1070
    71
1070
     0
1070
    74
1070
     0
1070
   279
1070
     0
1070
   173
1070
     1
1070
   340
1005
112
1070
   271
1070
     2
1070
   272
1070
     2
1070
    77
1070
     1
1070
    73
1070
     1
1070
   171
1070
     3
1070
   274
1070
     4
1070
   177
1070
     2
1070
   176
1070
     2
1070
   178
1070
     2
1070
    78
1070
     8
1070
    48
1040
-0.1
1070
    41
1040
3.5
1070
   147
1040
1.5
1070
    42
1040
1.5875
1070
    44
1040
2.0
1070
   140
1040
3.0
1002
}
1001
ACAD_DSTYLE_DIM_LINETYPE
1070
   380
1005
16
1001
ACAD_DSTYLE_DIM_EXT1_LINETYPE
1070
   381
1005
16
1001
ACAD_DSTYLE_DIM_EXT2_LINETYPE
1070
   382
1005
16
0
DIMENSION
5
14E
100
AcDbEntity
8
SK2
62
256
6
ByLayer
370
18
48
1
60
0
100
AcDbDimension
2
_U1
10
2
20
-35.059233
30
0
11
43.5
21
-35.059233
31
0
70
32
71
1
72
1
41
1
210
0
220
0
230
1
3
Standard
100
AcDbAlignedDimension
13
85
23
-7.55
33
0
14
2
24
-7.55
34
0
50
0
100
AcDbRotatedDimension
1001
ACAD
1000
DSTYLE
1002
{
1070
   371
1070
    13
1070
   372
1070
    13
1070
     3
1000

1070
   170
1070
     0
1070
   144
1040
1.0
1070
   277
1070
     2
1070
   284
1070
     8
1070
   278
1070
    46
1070
   146
1040
1.166667
1070
   345
1005
16
1070
   347
1005
16
1070
   346
1005
16
1070
   344
1005
0
1070
   343
1005
0
1070
   172
1070
     1
1070
    76
1070
     0
1070
    75
1070
     0
1070
   282
1070
     0
1070
   281
1070
     0
1070
    71
1070
     0
1070
    74
1070
     0
1070
   279
1070
     0
1070
   173
1070
     1
1070
   340
1005
112
1070
   271
1070
     2
1070
   272
1070
     2
1070
    77
1070
     1
1070
    73
1070
     1
1070
   171
1070
     3
1070
   274
1070
     4
1070
   177
1070
     2
1070
   176
1070
     2
1070
   178
1070
     2
1070
    78
1070
     8
1070
    48
1040
-0.1
1070
    41
1040
3.5
1070
   147
1040
1.5
1070
    42
1040
1.5875
1070
    44
1040
2.0
1070
   140
1040
3.0
1002
}
1001
ACAD_DSTYLE_DIM_LINETYPE
1070
   380
1005
16
1001
ACAD_DSTYLE_DIM_EXT1_LINETYPE
1070
   381
1005
16
1001
ACAD_DSTYLE_DIM_EXT2_LINETYPE
1070
   382
1005
16
0
DIMENSION
5
166
100
AcDbEntity
8
SK2
62
256
6
ByLayer
370
18
48
1
60
0
100
AcDbDimension
2
_U2
10
0
20
-43.059233
30
0
11
-24
21
-43.059233
31
0
70
32
71
1
72
1
41
1
210
0
220
0
230
1
3
Standard
100
AcDbAlignedDimension
13
-48
23
-8
33
0
14
0
24
-8
34
0
50
0
100
AcDbRotatedDimension
1001
ACAD
1000
DSTYLE
1002
{
1070
   371
1070
    13
1070
   372
1070
    13
1070
     3
1000

1070
   170
1070
     0
1070
   144
1040
1.0
1070
   277
1070
     2
1070
   284
1070
     8
1070
   278
1070
    46
1070
   146
1040
1.166667
1070
   345
1005
16
1070
   347
1005
16
1070
   346
1005
16
1070
   344
1005
0
1070
   343
1005
0
1070
   172
1070
     1
1070
    76
1070
     0
1070
    75
1070
     0
1070
   282
1070
     0
1070
   281
1070
     0
1070
    71
1070
     0
1070
    74
1070
     0
1070
   279
1070
     0
1070
   173
1070
     1
1070
   340
1005
112
1070
   271
1070
     2
1070
   272
1070
     2
1070
    77
1070
     1
1070
    73
1070
     1
1070
   171
1070
     3
1070
   274
1070
     4
1070
   177
1070
     2
1070
   176
1070
     2
1070
   178
1070
     2
1070
    78
1070
     8
1070
    48
1040
-0.1
1070
    41
1040
3.5
1070
   147
1040
1.5
1070
    42
1040
1.5875
1070
    44
1040
2.0
1070
   140
1040
3.0
1002
}
1001
ACAD_DSTYLE_DIM_LINETYPE
1070
   380
1005
16
1001
ACAD_DSTYLE_DIM_EXT1_LINETYPE
1070
   381
1005
16
1001
ACAD_DSTYLE_DIM_EXT2_LINETYPE
1070
   382
1005
16
0
DIMENSION
5
17E
100
AcDbEntity
8
SK2
62
256
6
ByLayer
370
18
48
1
60
0
100
AcDbDimension
2
_U3
10
85
20
-51.059233
30
0
11
18.5
21
-51.059233
31
0
70
32
71
1
72
1
41
1
210
0
220
0
230
1
3
Standard
100
AcDbAlignedDimension
13
-48
23
-8
33
0
14
85
24
-7.55
34
0
50
0
100
AcDbRotatedDimension
1001
ACAD
1000
DSTYLE
1002
{
1070
   371
1070
    13
1070
   372
1070
    13
1070
     3
1000

1070
   170
1070
     0
1070
   144
1040
1.0
1070
   277
1070
     2
1070
   284
1070
     8
1070
   278
1070
    46
1070
   146
1040
1.166667
1070
   345
1005
16
1070
   347
1005
16
1070
   346
1005
16
1070
   344
1005
0
1070
   343
1005
0
1070
   172
1070
     1
1070
    76
1070
     0
1070
    75
1070
     0
1070
   282
1070
     0
1070
   281
1070
     0
1070
    71
1070
     0
1070
    74
1070
     0
1070
   279
1070
     0
1070
   173
1070
     1
1070
   340
1005
112
1070
   271
1070
     2
1070
   272
1070
     2
1070
    77
1070
     1
1070
    73
1070
     1
1070
   171
1070
     3
1070
   274
1070
     4
1070
   177
1070
     2
1070
   176
1070
     2
1070
   178
1070
     2
1070
    78
1070
     8
1070
    48
1040
-0.1
1070
    41
1040
3.5
1070
   147
1040
1.5
1070
    42
1040
1.5875
1070
    44
1040
2.0
1070
   140
1040
3.0
1002
}
1001
ACAD_DSTYLE_DIM_LINETYPE
1070
   380
1005
16
1001
ACAD_DSTYLE_DIM_EXT1_LINETYPE
1070
   381
1005
16
1001
ACAD_DSTYLE_DIM_EXT2_LINETYPE
1070
   382
1005
16
0
DIMENSION
5
196
100
AcDbEntity
8
2
62
256
6
ByLayer
370
18
48
1
60
0
100
AcDbDimension
2
_U4
10
0
20
-43.059233
30
0
11
42.5
21
-43.059233
31
0
70
32
71
1
72
1
41
1
210
0
220
0
230
1
3
Standard
100
AcDbAlignedDimension
13
85
23
-7.55
33
0
14
0
24
-7.55
34
0
50
0
100
AcDbRotatedDimension
1001
ACAD
1000
DSTYLE
1002
{
1070
   371
1070
    13
1070
   372
1070
    13
1070
     3
1000

1070
   170
1070
     0
1070
   144
1040
1.0
1070
   277
1070
     2
1070
   284
1070
     8
1070
   278
1070
    46
1070
   146
1040
1.166667
1070
   345
1005
16
1070
   347
1005
16
1070
   346
1005
16
1070
   344
1005
0
1070
   343
1005
0
1070
   172
1070
     1
1070
    76
1070
     0
1070
    75
1070
     0
1070
   282
1070
     0
1070
   281
1070
     0
1070
    71
1070
     0
1070
    74
1070
     0
1070
   279
1070
     0
1070
   173
1070
     1
1070
   340
1005
112
1070
   271
1070
     2
1070
   272
1070
     2
1070
    77
1070
     1
1070
    73
1070
     1
1070
   171
1070
     3
1070
   274
1070
     4
1070
   177
1070
     2
1070
   176
1070
     2
1070
   178
1070
     2
1070
    78
1070
     8
1070
    48
1040
-0.1
1070
    41
1040
3.5
1070
   147
1040
1.5
1070
    42
1040
1.5875
1070
    44
1040
2.0
1070
   140
1040
3.0
1002
}
1001
ACAD_DSTYLE_DIM_LINETYPE
1070
   380
1005
16
1001
ACAD_DSTYLE_DIM_EXT1_LINETYPE
1070
   381
1005
16
1001
ACAD_DSTYLE_DIM_EXT2_LINETYPE
1070
   382
1005
16
0
ENDSEC
0
SECTION
2
OBJECTS
0
DICTIONARY
5
21e
330
0
100
AcDbDictionary
280
0
281
1
3
ACAD_GROUP
350
21f
3
ACAD_MLINESTYLE
350
220
0
DICTIONARY
5
21f
330
0
100
AcDbDictionary
280
0
281
1
0
DICTIONARY
5
220
330
0
100
AcDbDictionary
280
0
281
1
3
Standard
350
18
0
MLINESTYLE
5
18
330
220
100
AcDbMlineStyle
2
Standard
70
0
3

62
256
51
90
52
90
71
2
49
-0.5
62
256
6
ByLayer
49
0.5
62
256
6
ByLayer
0
RASTERVARIABLES
5
20c
330

100
AcDbRasterVariables
90
0
70
1
71
1
72
1
0
ENDSEC
0
EOF
