0
SECTION
2
HEADER
9
$ACADVER
1
AC1015
9
$DWGCODEPAGE
3
ANSI_1252
9
$HANDSEED
5
22b
9
$ANGBASE
50
0
9
$ANGDIR
70
0
9
$ATTMODE
70
1
9
$AUNITS
70
0
9
$AUPREC
70
0
9
$CECOLOR
62
256
9
$CELTSCALE
40
1
9
$CELTYPE
6
ByLayer
9
$CELWEIGHT
370
18
9
$CLAYER
8
0
9
$CMLJUST
70
0
9
$CMLSCALE
40
1
9
$CMLSTYLE
2
Standard
9
$DIMSTYLE
2
Standard
9
$TEXTSIZE
40
0.2
9
$TEXTSTYLE
7
Standard
9
$LUNITS
70
2
9
$LUPREC
70
4
9
$EXTNAMES
290
1
9
$INSUNITS
70
4
9
$LTSCALE
40
1
9
$LWDISPLAY
290
1
9
$PDMODE
70
0
9
$PDSIZE
40
0
9
$PLINEGEN
70
0
0
ENDSEC
0
SECTION
2
CLASSES
0
CLASS
1
RASTERVARIABLES
2
AcDbRasterVariables
3
ISM
90
0
280
0
281
0
0
ENDSEC
0
SECTION
2
TABLES
0
TABLE
2
VPORT
5
221
100
AcDbSymbolTable
0
VPORT
5
1
100
AcDbSymbolTableRecord
100
AcDbViewportTableRecord
2
*Active
70
0
10
0
20
0
11
1
21
1
12
-1
22
1
13
0
23
0
14
0.5
24
0.5
15
10
25
10
16
0
26
0
36
1
17
0
27
0
37
0
0
ENDTAB
0
TABLE
2
LTYPE
5
222
100
AcDbSymbolTable
0
LTYPE
5
14
100
AcDbSymbolTableRecord
100
AcDbLinetypeTableRecord
70
0
2
ByBlock
3

72
65
73
0
40
0
0
LTYPE
5
15
100
AcDbSymbolTableRecord
100
AcDbLinetypeTableRecord
70
0
2
ByLayer
3

72
65
73
0
40
0
0
LTYPE
5
16
100
AcDbSymbolTableRecord
100
AcDbLinetypeTableRecord
70
0
2
Continuous
3
Solid line
72
65
73
0
40
0
0
LTYPE
5
6E
100
AcDbSymbolTableRecord
100
AcDbLinetypeTableRecord
70
0
2
CENTER
3
____ _ ____ _ ____ _ ____
72
65
73
4
40
47.5
49
22
74
0
49
-8.5
74
0
49
8.5
74
0
49
-8.5
74
0
0
LTYPE
5
6F
100
AcDbSymbolTableRecord
100
AcDbLinetypeTableRecord
70
0
2
DASHED
3
__ __ __ __ __ __ __ __ __
72
65
73
2
40
25.72
49
12.86
74
0
49
-12.86
74
0
0
ENDTAB
0
TABLE
2
LAYER
5
223
100
AcDbSymbolTable
0
LAYER
5
10
100
AcDbSymbolTableRecord
100
AcDbLayerTableRecord
2
0
70
0
62
7
6
Continuous
290
1
370
-3
390
0
0
LAYER
5
71
100
AcDbSymbolTableRecord
100
AcDbLayerTableRecord
2
80
70
0
62
-6
6
Continuous
290
1
370
-3
390
0
0
LAYER
5
73
100
AcDbSymbolTableRecord
100
AcDbLayerTableRecord
2
81
70
0
62
-3
6
Continuous
290
1
370
-3
390
0
0
LAYER
5
75
100
AcDbSymbolTableRecord
100
AcDbLayerTableRecord
2
1
70
0
62
4
6
Continuous
290
1
370
-3
390
0
0
LAYER
5
83
100
AcDbSymbolTableRecord
100
AcDbLayerTableRecord
2
4
70
0
62
-2
6
CENTER
290
1
370
-3
390
0
0
LAYER
5
A1
100
AcDbSymbolTableRecord
100
AcDbLayerTableRecord
2
2
70
0
62
7
6
Continuous
290
1
370
-3
390
0
0
LAYER
5
136
100
AcDbSymbolTableRecord
100
AcDbLayerTableRecord
2
Defpoints
70
0
62
7
6
Continuous
290
0
370
-3
390
0
0
LAYER
5
20d
100
AcDbSymbolTableRecord
100
AcDbLayerTableRecord
2
SK4
70
0
62
2
6
CENTER
290
1
370
-3
390
0
0
LAYER
5
20e
100
AcDbSymbolTableRecord
100
AcDbLayerTableRecord
2
SK1
70
0
62
4
6
Continuous
290
1
370
-3
390
0
0
LAYER
5
20f
100
AcDbSymbolTableRecord
100
AcDbLayerTableRecord
2
SK2
70
0
62
7
6
Continuous
290
1
370
-3
390
0
0
LAYER
5
210
100
AcDbSymbolTableRecord
100
AcDbLayerTableRecord
2
SK6
70
0
62
5
6
Continuous
290
1
370
-3
390
0
0
ENDTAB
0
TABLE
2
STYLE
5
224
100
AcDbSymbolTable
0
STYLE
5
11
100
AcDbSymbolTableRecord
100
AcDbTextStyleTableRecord
2
Standard
3
txt
70
0
71
0
40
0
41
1
42
0
50
0
0
STYLE
5
112
100
AcDbSymbolTableRecord
100
AcDbTextStyleTableRecord
2
iso_b_vert
3
simplex.shx
70
0
71
0
40
0
41
1
42
0
50
0
0
STYLE
5
113
100
AcDbSymbolTableRecord
100
AcDbTextStyleTableRecord
2
DWGDirectTextStyle
3
simplex
70
0
71
0
40
0
41
1
42
0
50
0
0
ENDTAB
0
TABLE
2
DIMSTYLE
5
225
100
AcDbSymbolTable
100
AcDbDimStyleTable
0
DIMSTYLE
105
27
100
AcDbSymbolTableRecord
100
AcDbDimStyleTableRecord
2
Standard
70
0
3
<>
41
0.18
42
0.0625
44
0.18
140
0.18
147
0.09
73
0
74
0
77
1
271
2
275
0
278
52
280
0
340
11
0
ENDTAB
0
TABLE
2
VIEW
5
226
100
AcDbSymbolTable
0
ENDTAB
0
TABLE
2
UCS
5
227
100
AcDbSymbolTable
0
ENDTAB
0
TABLE
2
APPID
5
228
100
AcDbSymbolTable
0
APPID
5
12
100
AcDbSymbolTableRecord
100
AcDbRegAppTableRecord
2
ACAD
70
0
0
APPID
5
132
100
AcDbSymbolTableRecord
100
AcDbRegAppTableRecord
2
ACAD_DSTYLE_DIMBREAK
70
0
0
APPID
5
1CC
100
AcDbSymbolTableRecord
100
AcDbRegAppTableRecord
2
ACAD_DSTYLE_DIM_LINETYPE
70
0
0
APPID
5
1CD
100
AcDbSymbolTableRecord
100
AcDbRegAppTableRecord
2
ACAD_DSTYLE_DIM_EXT1_LINETYPE
70
0
0
APPID
5
1CE
100
AcDbSymbolTableRecord
100
AcDbRegAppTableRecord
2
ACAD_DSTYLE_DIM_EXT2_LINETYPE
70
0
0
APPID
5
209
100
AcDbSymbolTableRecord
100
AcDbRegAppTableRecord
2
ACAD_MLEADERVER
70
0
0
ENDTAB
0
TABLE
2
BLOCK_RECORD
5
229
100
AcDbSymbolTable
0
BLOCK_RECORD
5
1F
100
AcDbSymbolTableRecord
100
AcDbBlockTableRecord
2
*Model_Space
340
0
70
0
0
BLOCK_RECORD
5
1B
100
AcDbSymbolTableRecord
100
AcDbBlockTableRecord
2
*Paper_Space
340
0
70
0
0
BLOCK_RECORD
5
23
100
AcDbSymbolTableRecord
100
AcDbBlockTableRecord
2
*Paper_Space0
340
0
70
0
0
BLOCK_RECORD
5
137
100
AcDbSymbolTableRecord
100
AcDbBlockTableRecord
2
*D1
340
0
70
0
0
BLOCK_RECORD
5
143
100
AcDbSymbolTableRecord
100
AcDbBlockTableRecord
2
_U0
340
0
70
0
0
BLOCK_RECORD
5
151
100
AcDbSymbolTableRecord
100
AcDbBlockTableRecord
2
*D3
340
0
70
0
0
BLOCK_RECORD
5
15D
100
AcDbSymbolTableRecord
100
AcDbBlockTableRecord
2
_U1
340
0
70
0
0
BLOCK_RECORD
5
169
100
AcDbSymbolTableRecord
100
AcDbBlockTableRecord
2
*D5
340
0
70
0
0
BLOCK_RECORD
5
175
100
AcDbSymbolTableRecord
100
AcDbBlockTableRecord
2
_U2
340
0
70
0
0
BLOCK_RECORD
5
181
100
AcDbSymbolTableRecord
100
AcDbBlockTableRecord
2
*D7
340
0
70
0
0
BLOCK_RECORD
5
18D
100
AcDbSymbolTableRecord
100
AcDbBlockTableRecord
2
_U3
340
0
70
0
0
BLOCK_RECORD
5
199
100
AcDbSymbolTableRecord
100
AcDbBlockTableRecord
2
*D9
340
0
70
0
0
BLOCK_RECORD
5
1A5
100
AcDbSymbolTableRecord
100
AcDbBlockTableRecord
2
_U4
340
0
70
0
0
ENDTAB
0
ENDSEC
0
SECTION
2
BLOCKS
0
BLOCK
5
20
100
AcDbEntity
8
0
100
AcDbBlockBegin
2
*Model_Space
70
0
10
0
20
0
30
0
3
*Model_Space
0
ENDBLK
5
21
100
AcDbEntity
8
0
100
AcDbBlockEnd
0
BLOCK
5
1C
100
AcDbEntity
8
0
100
AcDbBlockBegin
2
*Paper_Space
70
0
10
0
20
0
30
0
3
*Paper_Space
0
ENDBLK
5
1D
100
AcDbEntity
8
0
100
AcDbBlockEnd
0
BLOCK
5
24
100
AcDbEntity
8
0
100
AcDbBlockBegin
2
*Paper_Space0
70
0
10
0
20
0
30
0
3
*Paper_Space0
0
ENDBLK
5
25
100
AcDbEntity
8
0
100
AcDbBlockEnd
0
BLOCK
5
138
100
AcDbEntity
8
0
100
AcDbBlockBegin
2
*D1
70
1
10
0
20
0
30
0
3
*D1
0
LINE
5
13A
100
AcDbEntity
8
0
62
256
6
ByLayer
370
-2
48
1
60
0
100
AcDbLine
10
85
20
-9.1875
30
0
11
85
21
-27.027029
31
0
39
0
210
0
220
0
230
1
0
LINE
5
13B
100
AcDbEntity
8
0
62
256
6
ByLayer
370
-2
48
1
60
0
100
AcDbLine
10
22.4
20
-9.1875
30
0
11
22.4
21
-27.027029
31
0
39
0
210
0
220
0
230
1
0
LINE
5
13C
100
AcDbEntity
8
0
62
256
6
ByLayer
370
-2
48
1
60
0
100
AcDbLine
10
81.5
20
-25.027029
30
0
11
25.9
21
-25.027029
31
0
39
0
210
0
220
0
230
1
0
SOLID
5
13D
100
AcDbEntity
8
0
62
256
6
ByLayer
370
-1
48
1
60
0
100
AcDbTrace
10
81.5
20
-25.610363
30
0
11
81.5
21
-24.443696
31
0
12
85
22
-25.027029
32
0
13
85
23
-25.027029
33
0
39
0
210
0
220
0
230
1
0
SOLID
5
13E
100
AcDbEntity
8
0
62
256
6
ByLayer
370
-1
48
1
60
0
100
AcDbTrace
10
25.9
20
-24.443696
30
0
11
25.9
21
-25.610363
31
0
12
22.4
22
-25.027029
32
0
13
22.4
23
-25.027029
33
0
39
0
210
0
220
0
230
1
0
MTEXT
5
13F
100
AcDbEntity
8
0
62
256
6
ByLayer
370
18
48
1
60
0
100
AcDbMText
10
53.7
20
-19.027029
30
0
210
0
220
0
230
1
1
\A1;62.6
40
3
41
0
44
1
50
0
71
5
72
5
7
iso_b_vert
0
POINT
5
140
100
AcDbEntity
8
Defpoints
62
0
6
ByLayer
370
-1
48
1
60
0
100
AcDbPoint
10
85
20
-7.6
30
0
39
0
210
0
220
0
230
1
50
360
0
POINT
5
141
100
AcDbEntity
8
Defpoints
62
0
6
ByLayer
370
-1
48
1
60
0
100
AcDbPoint
10
22.4
20
-7.6
30
0
39
0
210
0
220
0
230
1
50
360
0
POINT
5
142
100
AcDbEntity
8
Defpoints
62
0
6
ByLayer
370
-1
48
1
60
0
100
AcDbPoint
10
22.4
20
-25.027029
30
0
39
0
210
0
220
0
230
1
50
360
0
ENDBLK
5
139
100
AcDbEntity
8
0
100
AcDbBlockEnd
0
BLOCK
5
14C
100
AcDbEntity
8
0
100
AcDbBlockBegin
2
_U0
70
0
10
0
20
0
30
0
3
_U0
0
MTEXT
5
144
100
AcDbEntity
8
SK2
62
256
6
ByLayer
370
18
48
1
60
0
100
AcDbMText
10
50.338544
20
-22.829415
30
0
210
0
220
0
230
1
1
\W0.7346;62.6
40
3
41
0
44
1.084337
50
0
71
7
72
5
7
iso_b_vert
0
MTEXT
5
145
100
AcDbEntity
8
SK2
62
256
6
ByLayer
370
18
48
1
60
0
100
AcDbMText
10
48.238544
20
-22.829415
30
0
210
0
220
0
230
1
1
\W1.1313;{\H1.88x;(}
40
3
41
0
44
1.084337
50
0
71
7
72
5
7
iso_b_vert
0
MTEXT
5
146
100
AcDbEntity
8
SK2
62
256
6
ByLayer
370
18
48
1
60
0
100
AcDbMText
10
57.379456
20
-22.829415
30
0
210
0
220
0
230
1
1
\W1.1313;{\H1.88x;)}
40
3
41
0
44
1.084337
50
0
71
7
72
5
7
iso_b_vert
0
LINE
5
147
100
AcDbEntity
8
SK2
62
256
6
ByLayer
370
13
48
1
60
0
100
AcDbLine
10
85
20
-9.1875
30
0
11
85
21
-27.027029
31
0
39
0
210
0
220
0
230
1
0
LINE
5
148
100
AcDbEntity
8
SK2
62
256
6
ByLayer
370
13
48
1
60
0
100
AcDbLine
10
22.4
20
-9.1875
30
0
11
22.4
21
-27.027029
31
0
39
0
210
0
220
0
230
1
0
LINE
5
149
100
AcDbEntity
8
SK2
62
256
6
ByLayer
370
13
48
1
60
0
100
AcDbLine
10
85
20
-25.027029
30
0
11
22.4
21
-25.027029
31
0
39
0
210
0
220
0
230
1
0
SOLID
5
14A
100
AcDbEntity
8
SK2
62
256
6
ByLayer
370
18
48
1
60
0
100
AcDbTrace
10
85
20
-25.027029
30
0
11
81.500002
21
-25.487813
31
0
12
81.499998
22
-24.566245
32
0
13
81.499998
23
-24.566245
33
0
39
0
210
0
220
0
230
1
0
SOLID
5
14B
100
AcDbEntity
8
SK2
62
256
6
ByLayer
370
18
48
1
60
0
100
AcDbTrace
10
22.4
20
-25.027029
30
0
11
25.899998
21
-24.566245
31
0
12
25.900002
22
-25.487813
32
0
13
25.900002
23
-25.487813
33
0
39
0
210
0
220
0
230
1
0
ENDBLK
5
14D
100
AcDbEntity
8
0
100
AcDbBlockEnd
0
BLOCK
5
152
100
AcDbEntity
8
0
100
AcDbBlockBegin
2
*D3
70
1
10
0
20
0
30
0
3
*D3
0
LINE
5
154
100
AcDbEntity
8
0
62
256
6
ByLayer
370
-2
48
1
60
0
100
AcDbLine
10
85
20
-9.1875
30
0
11
85
21
-37.027029
31
0
39
0
210
0
220
0
230
1
0
LINE
5
155
100
AcDbEntity
8
0
62
256
6
ByLayer
370
-2
48
1
60
0
100
AcDbLine
10
2
20
-9.1875
30
0
11
2
21
-37.027029
31
0
39
0
210
0
220
0
230
1
0
LINE
5
156
100
AcDbEntity
8
0
62
256
6
ByLayer
370
-2
48
1
60
0
100
AcDbLine
10
81.5
20
-35.027029
30
0
11
5.5
21
-35.027029
31
0
39
0
210
0
220
0
230
1
0
SOLID
5
157
100
AcDbEntity
8
0
62
256
6
ByLayer
370
-1
48
1
60
0
100
AcDbTrace
10
81.5
20
-35.610363
30
0
11
81.5
21
-34.443696
31
0
12
85
22
-35.027029
32
0
13
85
23
-35.027029
33
0
39
0
210
0
220
0
230
1
0
SOLID
5
158
100
AcDbEntity
8
0
62
256
6
ByLayer
370
-1
48
1
60
0
100
AcDbTrace
10
5.5
20
-34.443696
30
0
11
5.5
21
-35.610363
31
0
12
2
22
-35.027029
32
0
13
2
23
-35.027029
33
0
39
0
210
0
220
0
230
1
0
MTEXT
5
159
100
AcDbEntity
8
0
62
256
6
ByLayer
370
18
48
1
60
0
100
AcDbMText
10
43.5
20
-29.027029
30
0
210
0
220
0
230
1
1
\A1;83
40
3
41
0
44
1
50
0
71
5
72
5
7
iso_b_vert
0
POINT
5
15A
100
AcDbEntity
8
Defpoints
62
0
6
ByLayer
370
-1
48
1
60
0
100
AcDbPoint
10
85
20
-7.6
30
0
39
0
210
0
220
0
230
1
50
360
0
POINT
5
15B
100
AcDbEntity
8
Defpoints
62
0
6
ByLayer
370
-1
48
1
60
0
100
AcDbPoint
10
2
20
-7.6
30
0
39
0
210
0
220
0
230
1
50
360
0
POINT
5
15C
100
AcDbEntity
8
Defpoints
62
0
6
ByLayer
370
-1
48
1
60
0
100
AcDbPoint
10
2
20
-35.027029
30
0
39
0
210
0
220
0
230
1
50
360
0
ENDBLK
5
153
100
AcDbEntity
8
0
100
AcDbBlockEnd
0
BLOCK
5
164
100
AcDbEntity
8
0
100
AcDbBlockBegin
2
_U1
70
0
10
0
20
0
30
0
3
_U1
0
MTEXT
5
15E
100
AcDbEntity
8
SK2
62
256
6
ByLayer
370
18
48
1
60
0
100
AcDbMText
10
41.867172
20
-34.141915
30
0
210
0
220
0
230
1
1
\W0.6740;83
40
3
41
0
44
1.084337
50
0
71
7
72
5
7
iso_b_vert
0
LINE
5
15F
100
AcDbEntity
8
SK2
62
256
6
ByLayer
370
13
48
1
60
0
100
AcDbLine
10
85
20
-9.1875
30
0
11
85
21
-37.027029
31
0
39
0
210
0
220
0
230
1
0
LINE
5
160
100
AcDbEntity
8
SK2
62
256
6
ByLayer
370
13
48
1
60
0
100
AcDbLine
10
2
20
-9.1875
30
0
11
2
21
-37.027029
31
0
39
0
210
0
220
0
230
1
0
LINE
5
161
100
AcDbEntity
8
SK2
62
256
6
ByLayer
370
13
48
1
60
0
100
AcDbLine
10
85
20
-35.027029
30
0
11
2
21
-35.027029
31
0
39
0
210
0
220
0
230
1
0
SOLID
5
162
100
AcDbEntity
8
SK2
62
256
6
ByLayer
370
18
48
1
60
0
100
AcDbTrace
10
85
20
-35.027029
30
0
11
81.500002
21
-35.487813
31
0
12
81.499998
22
-34.566245
32
0
13
81.499998
23
-34.566245
33
0
39
0
210
0
220
0
230
1
0
SOLID
5
163
100
AcDbEntity
8
SK2
62
256
6
ByLayer
370
18
48
1
60
0
100
AcDbTrace
10
2
20
-35.027029
30
0
11
5.499998
21
-34.566245
31
0
12
5.500002
22
-35.487813
32
0
13
5.500002
23
-35.487813
33
0
39
0
210
0
220
0
230
1
0
ENDBLK
5
165
100
AcDbEntity
8
0
100
AcDbBlockEnd
0
BLOCK
5
16A
100
AcDbEntity
8
0
100
AcDbBlockBegin
2
*D5
70
1
10
0
20
0
30
0
3
*D5
0
LINE
5
16C
100
AcDbEntity
8
0
62
256
6
ByLayer
370
-2
48
1
60
0
100
AcDbLine
10
-48
20
-9.5875
30
0
11
-48
21
-45.027029
31
0
39
0
210
0
220
0
230
1
0
LINE
5
16D
100
AcDbEntity
8
0
62
256
6
ByLayer
370
-2
48
1
60
0
100
AcDbLine
10
0
20
-9.5875
30
0
11
0
21
-45.027029
31
0
39
0
210
0
220
0
230
1
0
LINE
5
16E
100
AcDbEntity
8
0
62
256
6
ByLayer
370
-2
48
1
60
0
100
AcDbLine
10
-44.5
20
-43.027029
30
0
11
-3.5
21
-43.027029
31
0
39
0
210
0
220
0
230
1
0
SOLID
5
16F
100
AcDbEntity
8
0
62
256
6
ByLayer
370
-1
48
1
60
0
100
AcDbTrace
10
-44.5
20
-42.443696
30
0
11
-44.5
21
-43.610363
31
0
12
-48
22
-43.027029
32
0
13
-48
23
-43.027029
33
0
39
0
210
0
220
0
230
1
0
SOLID
5
170
100
AcDbEntity
8
0
62
256
6
ByLayer
370
-1
48
1
60
0
100
AcDbTrace
10
-3.5
20
-43.610363
30
0
11
-3.5
21
-42.443696
31
0
12
0
22
-43.027029
32
0
13
0
23
-43.027029
33
0
39
0
210
0
220
0
230
1
0
MTEXT
5
171
100
AcDbEntity
8
0
62
256
6
ByLayer
370
18
48
1
60
0
100
AcDbMText
10
-24
20
-37.027029
30
0
210
0
220
0
230
1
1
\A1;48
40
3
41
0
44
1
50
0
71
5
72
5
7
iso_b_vert
0
POINT
5
172
100
AcDbEntity
8
Defpoints
62
0
6
ByLayer
370
-1
48
1
60
0
100
AcDbPoint
10
-48
20
-8
30
0
39
0
210
0
220
0
230
1
50
360
0
POINT
5
173
100
AcDbEntity
8
Defpoints
62
0
6
ByLayer
370
-1
48
1
60
0
100
AcDbPoint
10
0
20
-8
30
0
39
0
210
0
220
0
230
1
50
360
0
POINT
5
174
100
AcDbEntity
8
Defpoints
62
0
6
ByLayer
370
-1
48
1
60
0
100
AcDbPoint
10
0
20
-43.027029
30
0
39
0
210
0
220
0
230
1
50
360
0
ENDBLK
5
16B
100
AcDbEntity
8
0
100
AcDbBlockEnd
0
BLOCK
5
17C
100
AcDbEntity
8
0
100
AcDbBlockBegin
2
_U2
70
0
10
0
20
0
30
0
3
_U2
0
MTEXT
5
176
100
AcDbEntity
8
SK2
62
256
6
ByLayer
370
18
48
1
60
0
100
AcDbMText
10
-25.790771
20
-42.141915
30
0
210
0
220
0
230
1
1
\W0.7361;48
40
3
41
0
44
1.084337
50
0
71
7
72
5
7
iso_b_vert
0
LINE
5
177
100
AcDbEntity
8
SK2
62
256
6
ByLayer
370
13
48
1
60
0
100
AcDbLine
10
-48
20
-9.5875
30
0
11
-48
21
-45.027029
31
0
39
0
210
0
220
0
230
1
0
LINE
5
178
100
AcDbEntity
8
SK2
62
256
6
ByLayer
370
13
48
1
60
0
100
AcDbLine
10
0
20
-9.5875
30
0
11
0
21
-45.027029
31
0
39
0
210
0
220
0
230
1
0
LINE
5
179
100
AcDbEntity
8
SK2
62
256
6
ByLayer
370
13
48
1
60
0
100
AcDbLine
10
-48
20
-43.027029
30
0
11
0
21
-43.027029
31
0
39
0
210
0
220
0
230
1
0
SOLID
5
17A
100
AcDbEntity
8
SK2
62
256
6
ByLayer
370
18
48
1
60
0
100
AcDbTrace
10
-48
20
-43.027029
30
0
11
-44.500002
21
-42.566245
31
0
12
-44.499998
22
-43.487813
32
0
13
-44.499998
23
-43.487813
33
0
39
0
210
0
220
0
230
1
0
SOLID
5
17B
100
AcDbEntity
8
SK2
62
256
6
ByLayer
370
18
48
1
60
0
100
AcDbTrace
10
0
20
-43.027029
30
0
11
-3.499998
21
-43.487813
31
0
12
-3.500002
22
-42.566245
32
0
13
-3.500002
23
-42.566245
33
0
39
0
210
0
220
0
230
1
0
ENDBLK
5
17D
100
AcDbEntity
8
0
100
AcDbBlockEnd
0
BLOCK
5
182
100
AcDbEntity
8
0
100
AcDbBlockBegin
2
*D7
70
1
10
0
20
0
30
0
3
*D7
0
LINE
5
184
100
AcDbEntity
8
0
62
256
6
ByLayer
370
-2
48
1
60
0
100
AcDbLine
10
-48
20
-9.5875
30
0
11
-48
21
-53.027029
31
0
39
0
210
0
220
0
230
1
0
LINE
5
185
100
AcDbEntity
8
0
62
256
6
ByLayer
370
-2
48
1
60
0
100
AcDbLine
10
85
20
-9.1875
30
0
11
85
21
-53.027029
31
0
39
0
210
0
220
0
230
1
0
LINE
5
186
100
AcDbEntity
8
0
62
256
6
ByLayer
370
-2
48
1
60
0
100
AcDbLine
10
-44.5
20
-51.027029
30
0
11
81.5
21
-51.027029
31
0
39
0
210
0
220
0
230
1
0
SOLID
5
187
100
AcDbEntity
8
0
62
256
6
ByLayer
370
-1
48
1
60
0
100
AcDbTrace
10
-44.5
20
-50.443696
30
0
11
-44.5
21
-51.610363
31
0
12
-48
22
-51.027029
32
0
13
-48
23
-51.027029
33
0
39
0
210
0
220
0
230
1
0
SOLID
5
188
100
AcDbEntity
8
0
62
256
6
ByLayer
370
-1
48
1
60
0
100
AcDbTrace
10
81.5
20
-51.610363
30
0
11
81.5
21
-50.443696
31
0
12
85
22
-51.027029
32
0
13
85
23
-51.027029
33
0
39
0
210
0
220
0
230
1
0
MTEXT
5
189
100
AcDbEntity
8
0
62
256
6
ByLayer
370
18
48
1
60
0
100
AcDbMText
10
18.5
20
-45.027029
30
0
210
0
220
0
230
1
1
\A1;133
40
3
41
0
44
1
50
0
71
5
72
5
7
iso_b_vert
0
POINT
5
18A
100
AcDbEntity
8
Defpoints
62
0
6
ByLayer
370
-1
48
1
60
0
100
AcDbPoint
10
-48
20
-8
30
0
39
0
210
0
220
0
230
1
50
360
0
POINT
5
18B
100
AcDbEntity
8
Defpoints
62
0
6
ByLayer
370
-1
48
1
60
0
100
AcDbPoint
10
85
20
-7.6
30
0
39
0
210
0
220
0
230
1
50
360
0
POINT
5
18C
100
AcDbEntity
8
Defpoints
62
0
6
ByLayer
370
-1
48
1
60
0
100
AcDbPoint
10
85
20
-51.027029
30
0
39
0
210
0
220
0
230
1
50
360
0
ENDBLK
5
183
100
AcDbEntity
8
0
100
AcDbBlockEnd
0
BLOCK
5
194
100
AcDbEntity
8
0
100
AcDbBlockBegin
2
_U3
70
0
10
0
20
0
30
0
3
_U3
0
MTEXT
5
18E
100
AcDbEntity
8
SK2
62
256
6
ByLayer
370
18
48
1
60
0
100
AcDbMText
10
16.121201
20
-50.141915
30
0
210
0
220
0
230
1
1
\W0.6217;133
40
3
41
0
44
1.084337
50
0
71
7
72
5
7
iso_b_vert
0
LINE
5
18F
100
AcDbEntity
8
SK2
62
256
6
ByLayer
370
13
48
1
60
0
100
AcDbLine
10
-48
20
-9.5875
30
0
11
-48
21
-53.027029
31
0
39
0
210
0
220
0
230
1
0
LINE
5
190
100
AcDbEntity
8
SK2
62
256
6
ByLayer
370
13
48
1
60
0
100
AcDbLine
10
85
20
-9.1875
30
0
11
85
21
-53.027029
31
0
39
0
210
0
220
0
230
1
0
LINE
5
191
100
AcDbEntity
8
SK2
62
256
6
ByLayer
370
13
48
1
60
0
100
AcDbLine
10
-48
20
-51.027029
30
0
11
85
21
-51.027029
31
0
39
0
210
0
220
0
230
1
0
SOLID
5
192
100
AcDbEntity
8
SK2
62
256
6
ByLayer
370
18
48
1
60
0
100
AcDbTrace
10
-48
20
-51.027029
30
0
11
-44.500002
21
-50.566245
31
0
12
-44.499998
22
-51.487813
32
0
13
-44.499998
23
-51.487813
33
0
39
0
210
0
220
0
230
1
0
SOLID
5
193
100
AcDbEntity
8
SK2
62
256
6
ByLayer
370
18
48
1
60
0
100
AcDbTrace
10
85
20
-51.027029
30
0
11
81.500002
21
-51.487813
31
0
12
81.499998
22
-50.566245
32
0
13
81.499998
23
-50.566245
33
0
39
0
210
0
220
0
230
1
0
ENDBLK
5
195
100
AcDbEntity
8
0
100
AcDbBlockEnd
0
BLOCK
5
19A
100
AcDbEntity
8
0
100
AcDbBlockBegin
2
*D9
70
1
10
0
20
0
30
0
3
*D9
0
LINE
5
19C
100
AcDbEntity
8
0
62
256
6
ByLayer
370
-2
48
1
60
0
100
AcDbLine
10
85
20
-9.1875
30
0
11
85
21
-45.027029
31
0
39
0
210
0
220
0
230
1
0
LINE
5
19D
100
AcDbEntity
8
0
62
256
6
ByLayer
370
-2
48
1
60
0
100
AcDbLine
10
0
20
-9.1875
30
0
11
0
21
-45.027029
31
0
39
0
210
0
220
0
230
1
0
LINE
5
19E
100
AcDbEntity
8
0
62
256
6
ByLayer
370
-2
48
1
60
0
100
AcDbLine
10
81.5
20
-43.027029
30
0
11
3.5
21
-43.027029
31
0
39
0
210
0
220
0
230
1
0
SOLID
5
19F
100
AcDbEntity
8
0
62
256
6
ByLayer
370
-1
48
1
60
0
100
AcDbTrace
10
81.5
20
-43.610363
30
0
11
81.5
21
-42.443696
31
0
12
85
22
-43.027029
32
0
13
85
23
-43.027029
33
0
39
0
210
0
220
0
230
1
0
SOLID
5
1A0
100
AcDbEntity
8
0
62
256
6
ByLayer
370
-1
48
1
60
0
100
AcDbTrace
10
3.5
20
-42.443696
30
0
11
3.5
21
-43.610363
31
0
12
0
22
-43.027029
32
0
13
0
23
-43.027029
33
0
39
0
210
0
220
0
230
1
0
MTEXT
5
1A1
100
AcDbEntity
8
0
62
256
6
ByLayer
370
18
48
1
60
0
100
AcDbMText
10
42.5
20
-37.027029
30
0
210
0
220
0
230
1
1
\A1;85
40
3
41
0
44
1
50
0
71
5
72
5
7
iso_b_vert
0
POINT
5
1A2
100
AcDbEntity
8
Defpoints
62
0
6
ByLayer
370
-1
48
1
60
0
100
AcDbPoint
10
85
20
-7.6
30
0
39
0
210
0
220
0
230
1
50
360
0
POINT
5
1A3
100
AcDbEntity
8
Defpoints
62
0
6
ByLayer
370
-1
48
1
60
0
100
AcDbPoint
10
0
20
-7.6
30
0
39
0
210
0
220
0
230
1
50
360
0
POINT
5
1A4
100
AcDbEntity
8
Defpoints
62
0
6
ByLayer
370
-1
48
1
60
0
100
AcDbPoint
10
0
20
-43.027029
30
0
39
0
210
0
220
0
230
1
50
360
0
ENDBLK
5
19B
100
AcDbEntity
8
0
100
AcDbBlockEnd
0
BLOCK
5
1AC
100
AcDbEntity
8
0
100
AcDbBlockBegin
2
_U4
70
0
10
0
20
0
30
0
3
_U4
0
MTEXT
5
1A6
100
AcDbEntity
8
2
62
256
6
ByLayer
370
18
48
1
60
0
100
AcDbMText
10
40.867172
20
-42.141915
30
0
210
0
220
0
230
1
1
\W0.6740;85
40
3
41
0
44
1.084337
50
0
71
7
72
5
7
iso_b_vert
0
LINE
5
1A7
100
AcDbEntity
8
2
62
256
6
ByLayer
370
13
48
1
60
0
100
AcDbLine
10
85
20
-9.1875
30
0
11
85
21
-45.027029
31
0
39
0
210
0
220
0
230
1
0
LINE
5
1A8
100
AcDbEntity
8
2
62
256
6
ByLayer
370
13
48
1
60
0
100
AcDbLine
10
0
20
-9.1875
30
0
11
0
21
-45.027029
31
0
39
0
210
0
220
0
230
1
0
LINE
5
1A9
100
AcDbEntity
8
2
62
256
6
ByLayer
370
13
48
1
60
0
100
AcDbLine
10
85
20
-43.027029
30
0
11
0
21
-43.027029
31
0
39
0
210
0
220
0
230
1
0
SOLID
5
1AA
100
AcDbEntity
8
2
62
256
6
ByLayer
370
18
48
1
60
0
100
AcDbTrace
10
85
20
-43.027029
30
0
11
81.500002
21
-43.487813
31
0
12
81.499998
22
-42.566245
32
0
13
81.499998
23
-42.566245
33
0
39
0
210
0
220
0
230
1
0
SOLID
5
1AB
100
AcDbEntity
8
2
62
256
6
ByLayer
370
18
48
1
60
0
100
AcDbTrace
10
0
20
-43.027029
30
0
11
3.499998
21
-42.566245
31
0
12
3.500002
22
-43.487813
32
0
13
3.500002
23
-43.487813
33
0
39
0
210
0
220
0
230
1
0
ENDBLK
5
1AD
100
AcDbEntity
8
0
100
AcDbBlockEnd
0
ENDSEC
0
SECTION
2
ENTITIES
0
ARC
5
BC
100
AcDbEntity
8
1
62
256
6
ByLayer
370
18
48
1
60
0
100
AcDbCircle
39
0
10
1.203655
20
-8.254142
30
0
40
0.800000000000002
210
0
220
0
230
1
100
AcDbArc
50
89.896868
51
138.78865
0
ARC
5
BD
100
AcDbEntity
8
1
62
256
6
ByLayer
370
18
48
1
60
0
100
AcDbCircle
39
0
10
1.203655
20
8.254142
30
0
40
0.800000000000002
210
0
220
0
230
1
100
AcDbArc
50
221.21135
51
270.103132
0
ARC
5
BE
100
AcDbEntity
8
1
62
256
6
ByLayer
370
18
48
1
60
0
100
AcDbCircle
39
0
10
0
20
-7.2
30
0
40
0.799999999999996
210
0
220
0
230
1
100
AcDbArc
50
270
51
318.78865
0
ARC
5
BF
100
AcDbEntity
8
1
62
256
6
ByLayer
370
18
48
1
60
0
100
AcDbCircle
39
0
10
0
20
7.2
30
0
40
0.799999999999996
210
0
220
0
230
1
100
AcDbArc
50
41.21135
51
90
0
ARC
5
C0
100
AcDbEntity
8
SK2
62
256
6
ByLayer
370
13
48
1
60
0
100
AcDbCircle
39
0
10
85
20
0
30
0
40
24.4173632031753
210
0
220
0
230
1
100
AcDbArc
50
7.057386
51
70.001157
0
ARC
5
C1
100
AcDbEntity
8
SK2
62
256
6
ByLayer
370
13
48
1
60
0
100
AcDbCircle
39
0
10
85
20
0
30
0
40
24.4173632031753
210
0
220
0
230
1
100
AcDbArc
50
289.998843
51
352.942614
0
ELLIPSE
5
C2
100
AcDbEntity
8
1
62
256
6
ByLayer
370
13
48
1
60
0
100
AcDbEllipse
10
22.500224
20
6.417575
30
0
11
-1.90684538510641E-05
21
0.00999998181968686
31
0
210
0
220
0
230
1
40
0.005933
41
-2.66725256211776
42
-1.09631194284794
0
ELLIPSE
5
C3
100
AcDbEntity
8
1
62
256
6
ByLayer
370
13
48
1
60
0
100
AcDbEllipse
10
22.458247
20
-2.002505
30
0
11
0.0033494413182895
21
0.00942237989338867
31
0
210
0
220
0
230
1
40
0.519207
41
1.49379995137844
42
2.84849738336498
0
ELLIPSE
5
C4
100
AcDbEntity
8
1
62
256
6
ByLayer
370
13
48
1
60
0
100
AcDbEllipse
10
22.500022
20
-2.020541
30
0
11
-0.00447195966313227
21
-0.00894436005376114
31
0
210
0
220
0
230
1
40
0.127428
41
-1.82504284099081
42
-0.254370150923357
0
ELLIPSE
5
C5
100
AcDbEntity
8
1
62
256
6
ByLayer
370
18
48
1
60
0
100
AcDbEllipse
10
22.541533
20
6.413048
30
0
11
-0.00229419284282806
21
-0.00973327689937549
31
0
210
0
220
0
230
1
40
0.413671
41
0.527154995114247
42
2.09484526332676
0
POINT
5
70
100
AcDbEntity
8
80
62
256
6
ByLayer
370
18
48
1
60
0
100
AcDbPoint
10
0
20
0
30
0
39
0
210
0
220
0
230
1
50
360
0
POINT
5
72
100
AcDbEntity
8
81
62
256
6
ByLayer
370
18
48
1
60
0
100
AcDbPoint
10
85
20
0
30
0
39
0
210
0
220
0
230
1
50
360
0
POINT
5
74
100
AcDbEntity
8
1
62
256
6
ByLayer
370
18
48
1
60
0
100
AcDbPoint
10
-197.466318
20
-200
30
0
39
0
210
0
220
0
230
1
50
360
0
POINT
5
76
100
AcDbEntity
8
1
62
256
6
ByLayer
370
13
48
1
60
1
100
AcDbPoint
10
-49.5
20
0
30
0
39
0
210
0
220
0
230
1
50
360
0
POINT
5
77
100
AcDbEntity
8
1
62
256
6
ByLayer
370
13
48
1
60
1
100
AcDbPoint
10
83.72052
20
0
30
0
39
0
210
0
220
0
230
1
50
360
0
POINT
5
78
100
AcDbEntity
8
1
62
256
6
ByLayer
370
18
48
1
60
1
100
AcDbPoint
10
85
20
-7.6
30
0
39
0
210
0
220
0
230
1
50
360
0
POINT
5
79
100
AcDbEntity
8
1
62
256
6
ByLayer
370
18
48
1
60
1
100
AcDbPoint
10
22.4
20
-7.6
30
0
39
0
210
0
220
0
230
1
50
360
0
POINT
5
7A
100
AcDbEntity
8
1
62
256
6
ByLayer
370
18
48
1
60
1
100
AcDbPoint
10
85
20
-7.6
30
0
39
0
210
0
220
0
230
1
50
360
0
POINT
5
7B
100
AcDbEntity
8
1
62
256
6
ByLayer
370
18
48
1
60
1
100
AcDbPoint
10
2
20
-7.6
30
0
39
0
210
0
220
0
230
1
50
360
0
POINT
5
7C
100
AcDbEntity
8
1
62
256
6
ByLayer
370
18
48
1
60
1
100
AcDbPoint
10
-48
20
-8
30
0
39
0
210
0
220
0
230
1
50
360
0
POINT
5
7D
100
AcDbEntity
8
1
62
256
6
ByLayer
370
18
48
1
60
1
100
AcDbPoint
10
0
20
-8
30
0
39
0
210
0
220
0
230
1
50
360
0
POINT
5
7E
100
AcDbEntity
8
1
62
256
6
ByLayer
370
18
48
1
60
1
100
AcDbPoint
10
-48
20
-8
30
0
39
0
210
0
220
0
230
1
50
360
0
POINT
5
7F
100
AcDbEntity
8
1
62
256
6
ByLayer
370
18
48
1
60
1
100
AcDbPoint
10
85
20
-7.6
30
0
39
0
210
0
220
0
230
1
50
360
0
POINT
5
80
100
AcDbEntity
8
1
62
256
6
ByLayer
370
18
48
1
60
1
100
AcDbPoint
10
85
20
-7.6
30
0
39
0
210
0
220
0
230
1
50
360
0
POINT
5
81
100
AcDbEntity
8
1
62
256
6
ByLayer
370
18
48
1
60
1
100
AcDbPoint
10
0
20
-7.6
30
0
39
0
210
0
220
0
230
1
50
360
0
SPLINE
5
C6
100
AcDbEntity
8
1
62
256
6
ByLayer
370
18
48
1
60
0
100
AcDbSpline
70
4
71
3
72
8
73
4
40
0
40
0
40
0
40
0
40
1
40
1
40
1
40
1
41
1
10
84.2565784201319
20
2.40570644729391
30
0
41
1
10
84.4499817368689
20
1.86418483060118
30
0
41
1
10
84.6418263457135
20
1.3221153990751
30
0
41
1
10
84.8320818252357
20
0.779487460968625
30
0
0
SPLINE
5
C7
100
AcDbEntity
8
1
62
256
6
ByLayer
370
18
48
1
60
0
100
AcDbSpline
70
4
71
3
72
8
73
4
40
0
40
0
40
0
40
0
40
1
40
1
40
1
40
1
41
1
10
84.8320818252358
20
0.779487460968653
30
0
41
1
10
84.8860079111683
20
0.625684790510945
30
0
41
1
10
84.9409965444074
20
0.472472835028867
30
0
41
1
10
84.9970453948511
20
0.319830552731759
30
0
0
SPLINE
5
C8
100
AcDbEntity
8
1
62
256
6
ByLayer
370
18
48
1
60
0
100
AcDbSpline
70
4
71
3
72
24
73
20
40
0
40
0
40
0
40
0
40
0.124999999999995
40
0.124999999999995
40
0.187499999999993
40
0.187499999999993
40
0.24999999999999
40
0.24999999999999
40
0.312499999999988
40
0.312499999999988
40
0.374999999999985
40
0.374999999999985
40
0.499999999999977
40
0.499999999999977
40
0.749999999999959
40
0.749999999999959
40
0.87499999999998
40
0.87499999999998
40
1
40
1
40
1
40
1
41
1
10
22.5002676244821
20
6.42214396667046
30
0
41
1
10
22.492448048949
20
6.42213212107271
30
0
41
1
10
22.4848390040528
20
6.42243159948941
30
0
41
1
10
22.4737162117064
20
6.42331002044463
30
0
41
1
10
22.4700665967218
20
6.42367584505271
30
0
41
1
10
22.4630802824556
20
6.42452138064189
30
0
41
1
10
22.4597134105784
20
6.42500324713373
30
0
41
1
10
22.4532127912162
20
6.42607571601152
30
0
41
1
10
22.4500636404632
20
6.42667021620031
30
0
41
1
10
22.4441185552771
20
6.42793334173746
30
0
41
1
10
22.4413083945203
20
6.42860354148124
30
0
41
1
10
22.4333127671692
20
6.43071702834209
30
0
41
1
10
22.4285290269789
20
6.43227397142508
30
0
41
1
10
22.4159074266912
20
6.4372213969267
30
0
41
1
10
22.4099166880716
20
6.44078684473922
30
0
41
1
10
22.4038181642917
20
6.44644198092482
30
0
41
1
10
22.4023238321061
20
6.44834205404143
30
0
41
1
10
22.4003276286236
20
6.45216848838209
30
0
41
1
10
22.3998270174897
20
6.45410864465839
30
0
41
1
10
22.3998270174896
20
6.45603020236098
30
0
0
SPLINE
5
C9
100
AcDbEntity
8
1
62
256
6
ByLayer
370
13
48
1
60
0
100
AcDbSpline
70
4
71
3
72
10
73
6
40
0
40
0
40
0
40
0
40
0.5
40
0.5
40
1
40
1
40
1
40
1
41
1
10
22.546167272177
20
6.41709721420725
30
0
41
1
10
22.5390649091008
20
6.41877357290443
30
0
41
1
10
22.5316657474691
20
6.42002706346795
30
0
41
1
10
22.5162946339796
20
6.42172228271525
30
0
41
1
10
22.5082823888583
20
6.42215610795284
30
0
41
1
10
22.5002676244821
20
6.42214396667046
30
0
0
SPLINE
5
CA
100
AcDbEntity
8
1
62
256
6
ByLayer
370
18
48
1
60
0
100
AcDbSpline
70
4
71
3
72
24
73
20
40
0
40
0
40
0
40
0
40
0.500000000000049
40
0.500000000000049
40
0.750000000000024
40
0.750000000000024
40
0.875000000000009
40
0.875000000000009
40
0.937500000000004
40
0.937500000000004
40
0.968750000000002
40
0.968750000000002
40
0.984374999999955
40
0.984374999999955
40
0.99218749999998
40
0.99218749999998
40
0.99609374999999
40
0.99609374999999
40
1
40
1
40
1
40
1
41
1
10
82.1093072236343
20
7.59960690530369
30
0
41
1
10
82.1415057618544
20
7.54726640204652
30
0
41
1
10
82.1737352381224
20
7.49469121089172
30
0
41
1
10
82.2221093473106
20
7.41551818357158
30
0
41
1
10
82.2382353119779
20
7.38908360982546
30
0
41
1
10
82.2624102179274
20
7.34940023323824
30
0
41
1
10
82.2704659482956
20
7.3361676673137
30
0
41
1
10
82.2825446202139
20
7.3163137342066
30
0
41
1
10
82.2865717194553
20
7.30969128955795
30
0
41
1
10
82.2926412419583
20
7.2996919671572
30
0
41
1
10
82.2946715339372
20
7.29634310120633
30
0
41
1
10
82.2976771963636
20
7.29140362011407
30
0
41
1
10
82.2986629937393
20
7.2897910852152
30
0
41
1
10
82.3001791581535
20
7.2872921563249
30
0
41
1
10
82.3006925814935
20
7.28644202415222
30
0
41
1
10
82.3014720980049
20
7.28514562644168
30
0
41
1
10
82.3017326698525
20
7.28471185128222
30
0
41
1
10
82.3022432058445
20
7.28386791070994
30
0
41
1
10
82.3025014195374
20
7.28344252804334
30
0
41
1
10
82.3027064836821
20
7.2831208294777
30
0
0
SPLINE
5
CB
100
AcDbEntity
8
1
62
256
6
ByLayer
370
18
48
1
60
0
100
AcDbSpline
70
4
71
3
72
18
73
14
40
0
40
0
40
0
40
0
40
0.249999999999803
40
0.249999999999803
40
0.374999999999798
40
0.374999999999798
40
0.499999999999794
40
0.499999999999794
40
0.749999999999905
40
0.749999999999905
40
0.874999999999952
40
0.874999999999952
40
1
40
1
40
1
40
1
41
1
10
22.4536267102361
20
-2.01102354043732
30
0
41
1
10
22.4442640791662
20
-2.00755971820573
30
0
41
1
10
22.4363575722145
20
-2.00333882654064
30
0
41
1
10
22.4261279337027
20
-1.99615407942082
30
0
41
1
10
22.4230157209504
20
-1.99361987292551
30
0
41
1
10
22.4174655317788
20
-1.98843229262249
30
0
41
1
10
22.4150015293657
20
-1.9857608078552
30
0
41
1
10
22.4084514883043
20
-1.9775349616842
30
0
41
1
10
22.4051847835748
20
-1.97171414515054
30
0
41
1
10
22.4019646268333
20
-1.96288404205177
30
0
41
1
10
22.4011647918502
20
-1.95991838262688
30
0
41
1
10
22.4000955993198
20
-1.95394359007071
30
0
41
1
10
22.3998270174895
20
-1.95090927616854
30
0
41
1
10
22.3998270174895
20
-1.94791566780143
30
0
0
SPLINE
5
CC
100
AcDbEntity
8
1
62
256
6
ByLayer
370
18
48
1
60
0
100
AcDbSpline
70
4
71
3
72
10
73
6
40
0
40
0
40
0
40
0
40
0.5
40
0.5
40
1
40
1
40
1
40
1
41
1
10
84.2565784201317
20
2.40570644729385
30
0
41
1
10
84.0987589554024
20
2.38642911997067
30
0
41
1
10
83.9406887215686
20
2.36925364663316
30
0
41
1
10
83.6242092656654
20
2.33774397410332
30
0
41
1
10
83.4657983350741
20
2.32342409511304
30
0
41
1
10
83.3072730794071
20
2.31006244666642
30
0
0
SPLINE
5
CD
100
AcDbEntity
8
1
62
256
6
ByLayer
370
18
48
1
60
0
100
AcDbSpline
70
4
71
3
72
31
73
27
40
0
40
0
40
0
40
0
40
0.125000000000007
40
0.125000000000007
40
0.250000000000014
40
0.250000000000014
40
0.281250000000012
40
0.281250000000012
40
0.312500000000011
40
0.312500000000011
40
0.343750000000009
40
0.343750000000009
40
0.375000000000008
40
0.375000000000008
40
0.406250000000006
40
0.406250000000006
40
0.437500000000005
40
0.500000000000002
40
0.500000000000002
40
0.625000000000001
40
0.625000000000001
40
0.750000000000001
40
0.750000000000001
40
0.875
40
0.875
40
1
40
1
40
1
40
1
41
1
10
84.2565784201319
20
2.40570644729391
30
0
41
1
10
84.1675381047382
20
2.5674806301422
30
0
41
1
10
84.0813223230374
20
2.7360360016684
30
0
41
1
10
83.9137611313633
20
3.08631182880865
30
0
41
1
10
83.8324168405749
20
3.26802942690318
30
0
41
1
10
83.7332554797914
20
3.50341027422829
30
0
41
1
10
83.7135882104529
20
3.55080852780455
30
0
41
1
10
83.6746822475474
20
3.64595613625821
30
0
41
1
10
83.6554260714535
20
3.69374958691594
30
0
41
1
10
83.6172910229102
20
3.78977197207055
30
0
41
1
10
83.5984096045955
20
3.83800827757952
30
0
41
1
10
83.5610766459586
20
3.93471508396195
30
0
41
1
10
83.5426156469562
20
3.98320891241158
30
0
41
1
10
83.5060761428855
20
4.08046394830399
30
0
41
1
10
83.4879967926075
20
4.12924184548658
30
0
41
1
10
83.4522110649066
20
4.22695023476064
30
0
41
1
10
83.3986331050056
20
4.37355976408719
30
0
41
1
10
83.3453635713552
20
4.52027404240829
30
0
41
1
10
83.2392258405241
20
4.81383705888655
30
0
41
1
10
83.1689729429702
20
5.00980786006483
30
0
41
1
10
83.0296894776798
20
5.40142897285247
30
0
41
1
10
82.9606438131173
20
5.59712199362156
30
0
41
1
10
82.823667607012
20
5.98813625335896
30
0
41
1
10
82.7557433754348
20
6.18345626552943
30
0
41
1
10
82.6208454981956
20
6.57357122120521
30
0
41
1
10
82.5538686384067
20
6.76836713122333
30
0
41
1
10
82.487275276686
20
6.96281120940736
30
0
0
SPLINE
5
CE
100
AcDbEntity
8
1
62
256
6
ByLayer
370
18
48
1
60
0
100
AcDbSpline
70
4
71
3
72
8
73
4
40
0
40
0
40
0
40
0
40
1
40
1
40
1
40
1
41
1
10
82.487275276686
20
6.96281120940736
30
0
41
1
10
82.4257143635911
20
7.06958797251374
30
0
41
1
10
82.3641894673178
20
7.17636259984298
30
0
41
1
10
82.3027064836825
20
7.28312082947753
30
0
0
SPLINE
5
CF
100
AcDbEntity
8
1
62
256
6
ByLayer
370
18
48
1
60
0
100
AcDbSpline
70
4
71
3
72
26
73
22
40
0
40
0
40
0
40
0
40
0.182949140481338
40
0.182949140481338
40
0.228686425601673
40
0.228686425601673
40
0.274423710722009
40
0.274423710722009
40
0.365898280962681
40
0.365898280962681
40
0.457372851203353
40
0.457372851203353
40
0.548847421444024
40
0.548847421444024
40
0.731796561925368
40
0.731796561925368
40
0.82327113216604
40
0.82327113216604
40
0.914745702406713
40
0.914745702406713
40
1
40
1
40
1
40
1
41
1
10
82.3027064836813
20
7.28312082947014
30
0
41
1
10
81.6785025803982
20
7.28951460238432
30
0
41
1
10
81.054795268324
20
7.27375720917109
30
0
41
1
10
80.2743629348339
20
7.2264428228772
30
0
41
1
10
80.1181982273645
20
7.21559658117655
30
0
41
1
10
79.8059205377875
20
7.19115357702478
30
0
41
1
10
79.6498356710067
20
7.17756056602749
30
0
41
1
10
79.1816836237817
20
7.13268769168121
30
0
41
1
10
78.8697201424487
20
7.09730891957187
30
0
41
1
10
78.2457641204911
20
7.01578557320886
30
0
41
1
10
77.9337676831063
20
6.96964567244575
30
0
41
1
10
77.3094529212332
20
6.86685587098822
30
0
41
1
10
76.9970569141235
20
6.81019591624454
30
0
41
1
10
76.0607033311737
20
6.62501332686327
30
0
41
1
10
75.4370214682122
20
6.48123643324902
30
0
41
1
10
74.5005643974704
20
6.23639297045224
30
0
41
1
10
74.1880875711637
20
6.14983903935379
30
0
41
1
10
73.5643005073831
20
5.96782222110875
30
0
41
1
10
73.2528017254639
20
5.8723134947175
30
0
41
1
10
72.6514339359475
20
5.67949837922598
30
0
41
1
10
72.3615334458043
20
5.582758370709
30
0
41
1
10
72.07171642413
20
5.48245672986772
30
0
0
SPLINE
5
D0
100
AcDbEntity
8
1
62
256
6
ByLayer
370
18
48
1
60
0
100
AcDbSpline
70
4
71
3
72
20
73
16
40
0
40
0
40
0
40
0
40
0.109800535062881
40
0.109800535062881
40
0.221075468180021
40
0.221075468180021
40
0.332350401297161
40
0.332350401297161
40
0.443625334414301
40
0.443625334414301
40
0.554900267531441
40
0.554900267531441
40
0.77745013376572
40
0.77745013376572
40
1
40
1
40
1
40
1
41
1
10
81.6658312705439
20
1.8273468414977
30
0
41
1
10
81.713344827834
20
1.8122826368737
30
0
41
1
10
81.7619326704922
20
1.79543776580238
30
0
41
1
10
81.8617129142194
20
1.75828611848999
30
0
41
1
10
81.9130164480393
20
1.73791393779968
30
0
41
1
10
82.0162516682739
20
1.6948042728859
30
0
41
1
10
82.0683122579604
20
1.67200250718486
30
0
41
1
10
82.1730918484619
20
1.62454562907934
30
0
41
1
10
82.2258049155338
20
1.59990721943484
30
0
41
1
10
82.3317665734506
20
1.54912296629973
30
0
41
1
10
82.3850361759896
20
1.52291797746378
30
0
41
1
10
82.545828820216
20
1.44153363137113
30
0
41
1
10
82.6543680696198
20
1.38349377382883
30
0
41
1
10
82.8738534126486
20
1.260639086981
30
0
41
1
10
82.9847856533254
20
1.19586325202909
30
0
41
1
10
83.0967152279841
20
1.12828004404236
30
0
0
SPLINE
5
D1
100
AcDbEntity
8
1
62
256
6
ByLayer
370
18
48
1
60
0
100
AcDbSpline
70
4
71
3
72
26
73
22
40
0
40
0
40
0
40
0
40
0.160095999433031
40
0.160095999433031
40
0.320191998866062
40
0.320191998866062
40
0.360215998724343
40
0.360215998724343
40
0.400239998582624
40
0.400239998582624
40
0.480287998299185
40
0.480287998299185
40
0.640383997732309
40
0.640383997732309
40
0.720431997448871
40
0.720431997448871
40
0.800479997165432
40
0.800479997165432
40
0.960575996598555
40
0.960575996598555
40
1
40
1
40
1
40
1
41
1
10
83.3072730794071
20
2.31006244666639
30
0
41
1
10
83.2162565814741
20
2.30239092175319
30
0
41
1
10
83.1262997383885
20
2.28993445480947
30
0
41
1
10
82.9485025505319
20
2.25555016845709
30
0
41
1
10
82.8606641103756
20
2.2336134565461
30
0
41
1
10
82.7520952712769
20
2.20077724747762
30
0
41
1
10
82.7304425526184
20
2.19394121365173
30
0
41
1
10
82.6872550466602
20
2.17975291126828
30
0
41
1
10
82.6656815648953
20
2.17238626448918
30
0
41
1
10
82.6016241142579
20
2.14972727763635
30
0
41
1
10
82.5596867894328
20
2.13384223583478
30
0
41
1
10
82.4359929513823
20
2.08434279788651
30
0
41
1
10
82.356352022483
20
2.04888725728125
30
0
41
1
10
82.2404227350162
20
1.99392778301277
30
0
41
1
10
82.2023690402231
20
1.97531078989914
30
0
41
1
10
82.1273373153799
20
1.93778158683338
30
0
41
1
10
82.0902484113935
20
1.91881015119773
30
0
41
1
10
81.9818854060735
20
1.86260874503162
30
0
41
1
10
81.9131409425071
20
1.82593276039972
30
0
41
1
10
81.8311076086
20
1.7823225596668
30
0
41
1
10
81.8150767195145
20
1.77380536551675
30
0
41
1
10
81.7992169891637
20
1.76540226747957
30
0
0
SPLINE
5
D2
100
AcDbEntity
8
1
62
256
6
ByLayer
370
18
48
1
60
0
100
AcDbSpline
70
4
71
3
72
8
73
4
40
0
40
0
40
0
40
0
40
1
40
1
40
1
40
1
41
1
10
82.4872752766861
20
-6.96281120940716
30
0
41
1
10
82.4257143635925
20
-7.06958797251124
30
0
41
1
10
82.3641894673206
20
-7.1763625998382
30
0
41
1
10
82.3027064836865
20
-7.28312082947045
30
0
0
SPLINE
5
D3
100
AcDbEntity
8
1
62
256
6
ByLayer
370
18
48
1
60
0
100
AcDbSpline
70
4
71
3
72
24
73
20
40
0
40
0
40
0
40
0
40
0.500000000000097
40
0.500000000000097
40
0.750000000000099
40
0.750000000000099
40
0.875000000000102
40
0.875000000000102
40
0.937500000000055
40
0.937500000000055
40
0.968750000000032
40
0.968750000000032
40
0.984374999999972
40
0.984374999999972
40
0.992187499999986
40
0.992187499999986
40
0.996093749999993
40
0.996093749999993
40
1
40
1
40
1
40
1
41
1
10
82.1093072236343
20
-7.59960690530372
30
0
41
1
10
82.1415057618551
20
-7.54726640204532
30
0
41
1
10
82.173735238124
20
-7.49469121088919
30
0
41
1
10
82.2221093473133
20
-7.41551818356712
30
0
41
1
10
82.2382353119809
20
-7.38908360982037
30
0
41
1
10
82.2624102179311
20
-7.34940023323222
30
0
41
1
10
82.2704659482995
20
-7.33616766730734
30
0
41
1
10
82.282544620218
20
-7.31631373419975
30
0
41
1
10
82.2865717194596
20
-7.30969128955095
30
0
41
1
10
82.2926412419628
20
-7.2996919671499
30
0
41
1
10
82.2946715339417
20
-7.29634310119891
30
0
41
1
10
82.297677196368
20
-7.29140362010668
30
0
41
1
10
82.2986629937438
20
-7.28979108520784
30
0
41
1
10
82.3001791581581
20
-7.28729215631719
30
0
41
1
10
82.3006925814984
20
-7.28644202414435
30
0
41
1
10
82.3014720980098
20
-7.28514562643372
30
0
41
1
10
82.3017326698572
20
-7.28471185127427
30
0
41
1
10
82.3022432058491
20
-7.28386791070236
30
0
41
1
10
82.3025014195421
20
-7.28344252803572
30
0
41
1
10
82.3027064836858
20
-7.28312082947173
30
0
0
SPLINE
5
D4
100
AcDbEntity
8
1
62
256
6
ByLayer
370
18
48
1
60
0
100
AcDbSpline
70
4
71
3
72
86
73
82
40
0
40
0
40
0
40
0
40
0.0194971535455046
40
0.0194971535455046
40
0.0456327451238041
40
0.0456327451238041
40
0.0587005409129538
40
0.0587005409129538
40
0.0717683367021035
40
0.0717683367021035
40
0.124039519858701
40
0.124039519858701
40
0.137107315647851
40
0.137107315647851
40
0.150175111437
40
0.150175111437
40
0.176310703015299
40
0.176310703015299
40
0.202446294593599
40
0.202446294593599
40
0.215514090382748
40
0.215514090382748
40
0.228581886171898
40
0.228581886171898
40
0.280853069328497
40
0.280853069328497
40
0.293920865117647
40
0.293920865117647
40
0.306988660906797
40
0.306988660906797
40
0.333124252485097
40
0.333124252485097
40
0.359259844063397
40
0.359259844063397
40
0.372327639852547
40
0.372327639852547
40
0.385395435641696
40
0.385395435641696
40
0.437666618798299
40
0.437666618798299
40
0.450734414587449
40
0.450734414587449
40
0.4638022103766
40
0.4638022103766
40
0.489937801954901
40
0.489937801954901
40
0.516073393533203
40
0.516073393533203
40
0.529141189322353
40
0.529141189322353
40
0.542208985111504
40
0.542208985111504
40
0.594480168268107
40
0.594480168268107
40
0.64675135142471
40
0.64675135142471
40
0.672886943003012
40
0.672886943003012
40
0.685954738792163
40
0.685954738792163
40
0.699022534581314
40
0.699022534581314
40
0.725158126159616
40
0.725158126159616
40
0.751293717737919
40
0.751293717737919
40
0.777429309316222
40
0.777429309316222
40
0.803564900894524
40
0.803564900894524
40
0.829700492472827
40
0.829700492472827
40
0.855836084051129
40
0.855836084051129
40
0.908107267207734
40
0.908107267207734
40
0.960378450364339
40
0.960378450364339
40
0.986514041942642
40
0.986514041942642
40
1
40
1
40
1
40
1
41
1
10
64.2865905439328
20
-2.08602191948373
30
0
41
1
10
64.0538484216358
20
-1.96883033259857
30
0
41
1
10
63.8211384201995
20
-1.85076185994231
30
0
41
1
10
63.2763876423748
20
-1.57267949864817
30
0
41
1
10
62.9643160053855
20
-1.41206764759869
30
0
41
1
10
62.4958726235349
20
-1.16956031659782
30
0
41
1
10
62.3397078397037
20
-1.08847996604129
30
0
41
1
10
62.0275277742521
20
-0.926018794358129
30
0
41
1
10
61.8714800737037
20
-0.844620982330468
30
0
41
1
10
61.0913637077535
20
-0.436967113905496
30
0
41
1
10
60.4677018182097
20
-0.108642464549035
30
0
41
1
10
59.6870226054454
20
0.301408784439985
30
0
41
1
10
59.5308395544782
20
0.383398156890763
30
0
41
1
10
59.2186402086615
20
0.547108789237853
30
0
41
1
10
59.0625846001512
20
0.628849564569776
30
0
41
1
10
58.5944931058776
20
0.873621309879752
30
0
41
1
10
58.28253165037
20
1.03620023546
30
0
41
1
10
57.6585404596808
20
1.35965290772145
30
0
41
1
10
57.3465084741016
20
1.52052131892901
30
0
41
1
10
56.8781454782014
20
1.76003263052277
30
0
41
1
10
56.7219562414721
20
1.83958076610347
30
0
41
1
10
56.4097450630551
20
1.99785188143497
30
0
41
1
10
56.2536860563754
20
2.07659468422571
30
0
41
1
10
55.4735283044652
20
2.46818094357982
30
0
41
1
10
54.8498342163231
20
2.77463084200886
30
0
41
1
10
54.0692791788845
20
3.14660935070262
30
0
41
1
10
53.9130869435026
20
3.22045726479592
30
0
41
1
10
53.6008521726955
20
3.36682183587001
30
0
41
1
10
53.4447826295078
20
3.43935119828203
30
0
41
1
10
52.9766608860262
20
3.65488558601538
30
0
41
1
10
52.66469806613
20
3.79584030499706
30
0
41
1
10
52.0407050623343
20
4.07178782732342
30
0
41
1
10
51.7286740026547
20
4.20678444591209
30
0
41
1
10
51.2603708535547
20
4.40450672866524
30
0
41
1
10
51.104187781624
20
4.46963289297778
30
0
41
1
10
50.7919411547832
20
4.59810183716939
30
0
41
1
10
50.6358691975611
20
4.66144942395408
30
0
41
1
10
49.8556688479417
20
4.9736025941055
30
0
41
1
10
49.2320172600602
20
5.20859507526956
30
0
41
1
10
48.4515616935209
20
5.48205035941407
30
0
41
1
10
48.2953904955892
20
5.53574442808426
30
0
41
1
10
47.9831241505744
20
5.64100434737736
30
0
41
1
10
47.8270460499173
20
5.69256329510841
30
0
41
1
10
47.3589090513635
20
5.84392809779902
30
0
41
1
10
47.0469481638059
20
5.94042442136296
30
0
41
1
10
46.4229800013836
20
6.12423973727709
30
0
41
1
10
46.1109750049172
20
6.21156766436837
30
0
41
1
10
45.6427128318065
20
6.33542506341581
30
0
41
1
10
45.4865411775396
20
6.37553195268512
30
0
41
1
10
45.174273691403
20
6.45328571693162
30
0
41
1
10
45.0182571622527
20
6.49091706199874
30
0
41
1
10
44.2386632277453
20
6.67280510254676
30
0
41
1
10
43.6165074432224
20
6.79812643972662
30
0
41
1
10
42.3727308855014
20
7.0069378613664
30
0
41
1
10
41.7511432731514
20
7.09045973792487
30
0
41
1
10
40.8174337804582
20
7.18356299581603
30
0
41
1
10
40.505964149372
20
7.20920693181188
30
0
41
1
10
40.0381807308525
20
7.23943919260356
30
0
41
1
10
39.8821572365515
20
7.24814613149798
30
0
41
1
10
39.5698798915244
20
7.26279047365762
30
0
41
1
10
39.4136975233338
20
7.26872390357886
30
0
41
1
10
38.9452904518946
20
7.28235812587866
30
0
41
1
10
38.6330726410615
20
7.28590330751118
30
0
41
1
10
38.0084563295108
20
7.2819837587551
30
0
41
1
10
37.6961342865003
20
7.27449144915519
30
0
41
1
10
37.0714880860431
20
7.24841499568112
30
0
41
1
10
36.7591624719695
20
7.22983769648187
30
0
41
1
10
36.1344736778228
20
7.18167077873574
30
0
41
1
10
35.8221378169806
20
7.15206575871397
30
0
41
1
10
35.1976347857873
20
7.08204518838591
30
0
41
1
10
34.8853727498948
20
7.04163431632705
30
0
41
1
10
34.2607858111581
20
6.9501577738196
30
0
41
1
10
33.9487070046966
20
6.89913137522024
30
0
41
1
10
33.0126530443651
20
6.73054022249485
30
0
41
1
10
32.3888260710399
20
6.59746681028062
30
0
41
1
10
31.1395000759771
20
6.29170351805658
30
0
41
1
10
30.5157642421393
20
6.11939816142811
30
0
41
1
10
29.5796887942245
20
5.83375413860188
30
0
41
1
10
29.2675857618163
20
5.73400596989023
30
0
41
1
10
28.7941110020732
20
5.57614993843447
30
0
41
1
10
28.6329573361947
20
5.52127273286897
30
0
41
1
10
28.4718029458264
20
5.46527682703791
30
0
0
SPLINE
5
D5
100
AcDbEntity
8
1
62
256
6
ByLayer
370
18
48
1
60
0
100
AcDbSpline
70
4
71
3
72
18
73
14
40
0
40
0
40
0
40
0
40
0.249999999999938
40
0.249999999999938
40
0.374999999999905
40
0.374999999999905
40
0.499999999999872
40
0.499999999999872
40
0.749999999999942
40
0.749999999999942
40
0.874999999999971
40
0.874999999999971
40
1
40
1
40
1
40
1
41
1
10
22.453626710236
20
-2.00004675411819
30
0
41
1
10
22.4442642320431
20
-1.99719180259237
30
0
41
1
10
22.4363571921705
20
-1.99371156829224
30
0
41
1
10
22.4261268352414
20
-1.98778385277001
30
0
41
1
10
22.423014416741
20
-1.98569249464802
30
0
41
1
10
22.4174640024525
20
-1.98141027701908
30
0
41
1
10
22.4149999608512
20
-1.97920446748444
30
0
41
1
10
22.4084499868408
20
-1.97241060291364
30
0
41
1
10
22.405183590813
20
-1.96760053476655
30
0
41
1
10
22.4019640156433
20
-1.96029970633936
30
0
41
1
10
22.4011643799433
20
-1.95784701109505
30
0
41
1
10
22.4000954927537
20
-1.95290432247808
30
0
41
1
10
22.3998270174896
20
-1.95039340598151
30
0
41
1
10
22.3998270174896
20
-1.94791566780143
30
0
0
SPLINE
5
D6
100
AcDbEntity
8
1
62
256
6
ByLayer
370
13
48
1
60
0
100
AcDbSpline
70
4
71
3
72
10
73
6
40
0
40
0
40
0
40
0
40
0.5
40
0.5
40
1
40
1
40
1
40
1
41
1
10
22.5000434778549
20
-2.01773994599409
30
0
41
1
10
22.4919952840467
20
-2.01412296355628
30
0
41
1
10
22.484093259859
20
-2.01084018530847
30
0
41
1
10
22.4685776180784
20
-2.00491972826089
30
0
41
1
10
22.460907583478
20
-2.00226695049597
30
0
41
1
10
22.453626710236
20
-2.00004675411819
30
0
0
SPLINE
5
D7
100
AcDbEntity
8
1
62
256
6
ByLayer
370
18
48
1
60
0
100
AcDbSpline
70
4
71
3
72
24
73
20
40
0
40
0
40
0
40
0
40
0.125000000000094
40
0.125000000000094
40
0.250000000000189
40
0.250000000000189
40
0.500000000000436
40
0.500000000000436
40
0.625000000000501
40
0.625000000000501
40
0.687500000000453
40
0.687500000000453
40
0.750000000000405
40
0.750000000000405
40
0.812500000000357
40
0.812500000000357
40
0.875000000000308
40
0.875000000000308
40
1
40
1
40
1
40
1
41
1
10
22.3998270174896
20
6.45603020236098
30
0
41
1
10
22.3998270174896
20
6.45333772331847
30
0
41
1
10
22.4003274660843
20
6.45062027338213
30
0
41
1
10
22.4023233111832
20
6.44526340984493
30
0
41
1
10
22.4038174353987
20
6.44260460043722
30
0
41
1
10
22.4099157575984
20
6.434694658578
30
0
41
1
10
22.4159067675182
20
6.42971247254187
30
0
41
1
10
22.4285300311015
20
6.42280457028718
30
0
41
1
10
22.4333144618766
20
6.42063169564742
30
0
41
1
10
22.4413110390858
20
6.41768322588661
30
0
41
1
10
22.4441215068113
20
6.41674844773868
30
0
41
1
10
22.4500671319689
20
6.41498699049794
30
0
41
1
10
22.4532164851683
20
6.41415812739965
30
0
41
1
10
22.4597173068562
20
6.412663119283
30
0
41
1
10
22.4630841990663
20
6.41199153355839
30
0
41
1
10
22.4700703217728
20
6.41081325158066
30
0
41
1
10
22.4737196993491
20
6.41030355581867
30
0
41
1
10
22.4848413617539
20
6.40907978431414
30
0
41
1
10
22.492449393753
20
6.40866269888795
30
0
41
1
10
22.5002676244821
20
6.40867920036854
30
0
0
SPLINE
5
D8
100
AcDbEntity
8
1
62
256
6
ByLayer
370
18
48
1
60
0
100
AcDbSpline
70
2053
71
3
72
127
73
123
40
0
40
0
40
0
40
0
40
0.0312500000000077
40
0.0312500000000077
40
0.0625000000000153
40
0.0625000000000153
40
0.078125000000019
40
0.078125000000019
40
0.0937500000000228
40
0.0937500000000228
40
0.12500000000003
40
0.12500000000003
40
0.132812500000031
40
0.132812500000031
40
0.140625000000032
40
0.156250000000032
40
0.156250000000032
40
0.187500000000033
40
0.187500000000033
40
0.195312500000034
40
0.195312500000034
40
0.203125000000035
40
0.218750000000036
40
0.234375000000038
40
0.234375000000038
40
0.242187500000038
40
0.242187500000038
40
0.250000000000038
40
0.250000000000038
40
0.28125000000004
40
0.28125000000004
40
0.29687500000004
40
0.29687500000004
40
0.30468750000004
40
0.30468750000004
40
0.31250000000004
40
0.31250000000004
40
0.343750000000045
40
0.343750000000045
40
0.351562500000044
40
0.351562500000044
40
0.359375000000044
40
0.359375000000044
40
0.375000000000043
40
0.390625000000042
40
0.390625000000042
40
0.406250000000041
40
0.406250000000041
40
0.42187500000004
40
0.42187500000004
40
0.437500000000039
40
0.437500000000039
40
0.468750000000038
40
0.468750000000038
40
0.484375000000039
40
0.484375000000039
40
0.49218750000004
40
0.49218750000004
40
0.50000000000004
40
0.50000000000004
40
0.531250000000033
40
0.531250000000033
40
0.539062500000034
40
0.539062500000034
40
0.546875000000034
40
0.546875000000034
40
0.562500000000036
40
0.562500000000036
40
0.593750000000038
40
0.593750000000038
40
0.601562500000038
40
0.601562500000038
40
0.609375000000038
40
0.609375000000038
40
0.625000000000034
40
0.625000000000034
40
0.656250000000022
40
0.656250000000022
40
0.671875000000017
40
0.671875000000017
40
0.679687500000015
40
0.679687500000015
40
0.687500000000014
40
0.687500000000014
40
0.71875000000001
40
0.71875000000001
40
0.726562500000009
40
0.726562500000009
40
0.734375000000008
40
0.750000000000007
40
0.765625000000005
40
0.765625000000005
40
0.773437500000004
40
0.773437500000004
40
0.781250000000004
40
0.781250000000004
40
0.812500000000002
40
0.812500000000002
40
0.820312500000002
40
0.820312500000002
40
0.828125000000001
40
0.828125000000001
40
0.843750000000004
40
0.859375000000006
40
0.859375000000006
40
0.875000000000009
40
0.875000000000009
40
0.906250000000014
40
0.906250000000014
40
0.914062500000013
40
0.914062500000013
40
0.921875000000012
40
0.937500000000009
40
0.953125000000007
40
0.953125000000007
40
0.968750000000005
40
0.968750000000005
40
0.984375000000002
40
0.984375000000002
40
0.992187500000001
40
0.992187500000001
40
1
40
1
40
1
40
1
41
1
10
83.0975849711815
20
-3.05627811268597
30
0
41
1
10
83.0731663697679
20
-3.08567899410227
30
0
41
1
10
83.0498274749664
20
-3.10966253413773
30
0
41
1
10
83.0050698097463
20
-3.14744980072663
30
0
41
1
10
82.9836522870099
20
-3.16125058484107
30
0
41
1
10
82.9529124462258
20
-3.17399382834699
30
0
41
1
10
82.9430207357008
20
-3.17685298905192
30
0
41
1
10
82.9239767722969
20
-3.17983732626686
30
0
41
1
10
82.9148130234038
20
-3.17996718538169
30
0
41
1
10
82.8883620165104
20
-3.17627508463718
30
0
41
1
10
82.8721059055757
20
-3.16840985691385
30
0
41
1
10
82.8535246673825
20
-3.15130952779484
30
0
41
1
10
82.8499082502208
20
-3.14753212811476
30
0
41
1
10
82.8429185946143
20
-3.13931486143915
30
0
41
1
10
82.8327780715598
20
-3.12597225208543
30
0
41
1
10
82.8236485296436
20
-3.10960644207611
30
0
41
1
10
82.8067232855609
20
-3.07280330291698
30
0
41
1
10
82.7972023197282
20
-3.04288464382208
30
0
41
1
10
82.7876697412194
20
-2.9980288576958
30
0
41
1
10
82.7858893765882
20
-2.98870593465298
30
0
41
1
10
82.7826101377073
20
-2.9695154064799
30
0
41
1
10
82.7781006545848
20
-2.93984238514076
30
0
41
1
10
82.7726099473422
20
-2.88598190397752
30
0
41
1
10
82.7704089822745
20
-2.83811489687068
30
0
41
1
10
82.7696225124165
20
-2.80033557795994
30
0
41
1
10
82.7695047309995
20
-2.7874286697465
30
0
41
1
10
82.7695695469787
20
-2.76096415218157
30
0
41
1
10
82.7697536569818
20
-2.74735770885479
30
0
41
1
10
82.7714422397911
20
-2.67834862027928
30
0
41
1
10
82.775199927383
20
-2.62010393277623
30
0
41
1
10
82.7846036427535
20
-2.52813247017213
30
0
41
1
10
82.788371415354
20
-2.49670211434909
30
0
41
1
10
82.7950485261193
20
-2.44833110733822
30
0
41
1
10
82.7974479208723
20
-2.43199639970464
30
0
41
1
10
82.8025268310164
20
-2.39938681434717
30
0
41
1
10
82.8052140608178
20
-2.38305333349868
30
0
41
1
10
82.8193875549991
20
-2.30124649462425
30
0
41
1
10
82.8330600219945
20
-2.23535917325467
30
0
41
1
10
82.853300197931
20
-2.15246693970539
30
0
41
1
10
82.8575099168171
20
-2.13585707717075
30
0
41
1
10
82.8661363189603
20
-2.10303464953756
30
0
41
1
10
82.8705666170814
20
-2.08676479007616
30
0
41
1
10
82.8842053898212
20
-2.03837006976031
30
0
41
1
10
82.9033164796949
20
-1.97494790086162
30
0
41
1
10
82.9242845684141
20
-1.91369107439576
30
0
41
1
10
82.9462093431023
20
-1.85352869636279
30
0
41
1
10
82.9574740734096
20
-1.82448035586458
30
0
41
1
10
82.9805280061198
20
-1.7684717899435
30
0
41
1
10
82.9923271396925
20
-1.74148510902373
30
0
41
1
10
83.0164621176364
20
-1.68947391237657
30
0
41
1
10
83.0288155923648
20
-1.66441614558727
30
0
41
1
10
83.0665762744106
20
-1.59237207797705
30
0
41
1
10
83.092063941378
20
-1.54963587721443
30
0
41
1
10
83.1307223642291
20
-1.49264030081727
30
0
41
1
10
83.143679704346
20
-1.47483671406027
30
0
41
1
10
83.1632171470575
20
-1.4498993139336
30
0
41
1
10
83.1697429195101
20
-1.44188831342311
30
0
41
1
10
83.1827138890394
20
-1.42658413068517
30
0
41
1
10
83.1891733267626
20
-1.41927242816513
30
0
41
1
10
83.2213409720657
20
-1.38436709562691
30
0
41
1
10
83.2466655190862
20
-1.36168952279769
30
0
41
1
10
83.2777686624415
20
-1.33958742386579
30
0
41
1
10
83.2839613552964
20
-1.33548189288587
30
0
41
1
10
83.2962885974965
20
-1.32790317838371
30
0
41
1
10
83.3024335709971
20
-1.32442544184801
30
0
41
1
10
83.320638496123
20
-1.31501747813093
30
0
41
1
10
83.3325036092363
20
-1.31008469046279
30
0
41
1
10
83.367283653928
20
-1.2991718767974
30
0
41
1
10
83.3893909192738
20
-1.29704431405059
30
0
41
1
10
83.4155597854574
20
-1.30089733078327
30
0
41
1
10
83.4207196864267
20
-1.30199622347627
30
0
41
1
10
83.4308862339466
20
-1.30486366857261
30
0
41
1
10
83.4359041264881
20
-1.30663768561527
30
0
41
1
10
83.4506113177204
20
-1.3129418703333
30
0
41
1
10
83.4599629908778
20
-1.31844596720842
30
0
41
1
10
83.4866415994126
20
-1.33882473922938
30
0
41
1
10
83.5026052912513
20
-1.3575280878924
30
0
41
1
10
83.5235317955108
20
-1.39375459852425
30
0
41
1
10
83.5300011150891
20
-1.40720079006695
30
0
41
1
10
83.5388750988367
20
-1.42958709694861
30
0
41
1
10
83.541683720037
20
-1.43739593987152
30
0
41
1
10
83.5469595437727
20
-1.45360594208896
30
0
41
1
10
83.5494328974821
20
-1.46202228073
30
0
41
1
10
83.5609673552083
20
-1.50567242841805
30
0
41
1
10
83.567557218647
20
-1.54555796567783
30
0
41
1
10
83.5721065615409
20
-1.60231074406346
30
0
41
1
10
83.5728315083321
20
-1.61403934950829
30
0
41
1
10
83.5738863140597
20
-1.63808794304131
30
0
41
1
10
83.5748703614186
20
-1.67489622641114
30
0
41
1
10
83.5735485849463
20
-1.73988870469688
30
0
41
1
10
83.5693040713018
20
-1.7958302716703
30
0
41
1
10
83.5648807130925
20
-1.83933802541617
30
0
41
1
10
83.5631992265797
20
-1.85409973746525
30
0
41
1
10
83.5594096635408
20
-1.8841605336834
30
0
41
1
10
83.5572928085004
20
-1.8995130341923
30
0
41
1
10
83.5457679731696
20
-1.97661654324435
30
0
41
1
10
83.5335247985568
20
-2.03986892780273
30
0
41
1
10
83.5146240153921
20
-2.1209012054513
30
0
41
1
10
83.5106622673061
20
-2.13720702585076
30
0
41
1
10
83.5023730753243
20
-2.17002173849707
30
0
41
1
10
83.4980343349478
20
-2.18656892066846
30
0
41
1
10
83.4846463241474
20
-2.23586285548561
30
0
41
1
10
83.465716820177
20
-2.30104272334046
30
0
41
1
10
83.444786579302
20
-2.36519955224378
30
0
41
1
10
83.4228976441956
20
-2.42886036307658
30
0
41
1
10
83.4114144418528
20
-2.46058709633169
30
0
41
1
10
83.3763258078524
20
-2.55302101039345
30
0
41
1
10
83.3519230071981
20
-2.61155896291066
30
0
41
1
10
83.3203407689154
20
-2.68117778912384
30
0
41
1
10
83.3139571944935
20
-2.69494795766565
30
0
41
1
10
83.301140247228
20
-2.72200764395666
30
0
41
1
10
83.2819010369445
20
-2.76174770600829
30
0
41
1
10
83.2497819309157
20
-2.82390863233866
30
0
41
1
10
83.2240481715839
20
-2.86950054214702
30
0
41
1
10
83.1982992270604
20
-2.91306163292111
30
0
41
1
10
83.1853700079662
20
-2.93389507229551
30
0
41
1
10
83.1598277155541
20
-2.97301519247165
30
0
41
1
10
83.1471951178485
20
-2.99134317642904
30
0
41
1
10
83.1284443914784
20
-3.01703994382166
30
0
41
1
10
83.1222272098164
20
-3.0253057673865
30
0
41
1
10
83.1098577076563
20
-3.04124025082564
30
0
41
1
10
83.1036896215349
20
-3.0489278923319
30
0
41
1
10
83.0975849711815
20
-3.05627811268597
30
0
0
SPLINE
5
D9
100
AcDbEntity
8
1
62
256
6
ByLayer
370
18
48
1
60
0
100
AcDbSpline
70
4
71
3
72
14
73
10
40
0
40
0
40
0
40
0
40
0.499999999999991
40
0.499999999999991
40
0.624999999999993
40
0.624999999999993
40
0.749999999999995
40
0.749999999999995
40
1
40
1
40
1
40
1
41
1
10
82.4872752766856
20
-6.96281120940833
30
0
41
1
10
82.4306249573227
20
-7.04682355367493
30
0
41
1
10
82.378884398242
20
-7.11712978909361
30
0
41
1
10
82.3201846167029
20
-7.18643371651825
30
0
41
1
10
82.3087431751716
20
-7.19936352928499
30
0
41
1
10
82.2864522160583
20
-7.22331587805763
30
0
41
1
10
82.2755767964829
20
-7.23436086506837
30
0
41
1
10
82.2441368679105
20
-7.26428127371142
30
0
41
1
10
82.2246848455516
20
-7.28003716341053
30
0
41
1
10
82.2065912105704
20
-7.29178091002416
30
0
0
SPLINE
5
DA
100
AcDbEntity
8
1
62
256
6
ByLayer
370
18
48
1
60
0
100
AcDbSpline
70
4
71
3
72
31
73
27
40
0
40
0
40
0
40
0
40
0.125000000000001
40
0.125000000000001
40
0.250000000000002
40
0.250000000000002
40
0.281250000000001
40
0.281250000000001
40
0.312499999999999
40
0.312499999999999
40
0.343749999999998
40
0.343749999999998
40
0.374999999999997
40
0.374999999999997
40
0.406249999999996
40
0.406249999999996
40
0.437499999999994
40
0.499999999999993
40
0.499999999999993
40
0.624999999999994
40
0.624999999999994
40
0.749999999999996
40
0.749999999999996
40
0.874999999999998
40
0.874999999999998
40
1
40
1
40
1
40
1
41
1
10
84.2565784201319
20
-2.40570644729391
30
0
41
1
10
84.1675381047382
20
-2.5674806301422
30
0
41
1
10
84.0813223230373
20
-2.73603600166837
30
0
41
1
10
83.9137611313632
20
-3.08631182880859
30
0
41
1
10
83.8324168405749
20
-3.26802942690313
30
0
41
1
10
83.7332554797915
20
-3.50341027422817
30
0
41
1
10
83.7135882104529
20
-3.55080852780443
30
0
41
1
10
83.6746822475475
20
-3.64595613625806
30
0
41
1
10
83.6554260714535
20
-3.69374958691583
30
0
41
1
10
83.6172910229103
20
-3.78977197207044
30
0
41
1
10
83.5984096045954
20
-3.83800827757938
30
0
41
1
10
83.5610766459586
20
-3.93471508396183
30
0
41
1
10
83.5426156469562
20
-3.98320891241147
30
0
41
1
10
83.5060761428855
20
-4.08046394830387
30
0
41
1
10
83.4879967926074
20
-4.1292418454864
30
0
41
1
10
83.4522110649068
20
-4.22695023476055
30
0
41
1
10
83.3986331050056
20
-4.37355976408708
30
0
41
1
10
83.3453635713553
20
-4.52027404240818
30
0
41
1
10
83.2392258405243
20
-4.81383705888643
30
0
41
1
10
83.1689729429701
20
-5.00980786006466
30
0
41
1
10
83.0296894776799
20
-5.4014289728523
30
0
41
1
10
82.9606438131173
20
-5.59712199362139
30
0
41
1
10
82.823667607012
20
-5.98813625335879
30
0
41
1
10
82.7557433754349
20
-6.18345626552926
30
0
41
1
10
82.6208454981956
20
-6.57357122120504
30
0
41
1
10
82.5538686384068
20
-6.76836713122313
30
0
41
1
10
82.487275276686
20
-6.96281120940716
30
0
0
SPLINE
5
DB
100
AcDbEntity
8
1
62
256
6
ByLayer
370
18
48
1
60
0
100
AcDbSpline
70
4
71
3
72
8
73
4
40
0
40
0
40
0
40
0
40
1
40
1
40
1
40
1
41
1
10
84.2565784201319
20
-2.40570644729388
30
0
41
1
10
84.4499817368689
20
-1.8641848306012
30
0
41
1
10
84.6418263457136
20
-1.32211539907519
30
0
41
1
10
84.8320818252358
20
-0.779487460968738
30
0
0
SPLINE
5
DC
100
AcDbEntity
8
1
62
256
6
ByLayer
370
18
48
1
60
0
100
AcDbSpline
70
4
71
3
72
8
73
4
40
0
40
0
40
0
40
0
40
1
40
1
40
1
40
1
41
1
10
84.8320818252357
20
-0.77948746096871
30
0
41
1
10
84.8860079111682
20
-0.625684790510974
30
0
41
1
10
84.9409965444074
20
-0.472472835028867
30
0
41
1
10
84.9970453948511
20
-0.31983055273173
30
0
0
SPLINE
5
DD
100
AcDbEntity
8
1
62
256
6
ByLayer
370
18
48
1
60
0
100
AcDbSpline
70
4
71
3
72
8
73
4
40
0
40
0
40
0
40
0
40
1
40
1
40
1
40
1
41
1
10
84.9970453948511
20
0.31983055273173
30
0
41
1
10
85.0009758343977
20
0.107099140451027
30
0
41
1
10
85.000993943996
20
-0.106118975158864
30
0
41
1
10
84.9970453948511
20
-0.319830552731759
30
0
0
SPLINE
5
DE
100
AcDbEntity
8
1
62
256
6
ByLayer
370
18
48
1
60
0
100
AcDbSpline
70
4
71
3
72
60
73
56
40
0
40
0
40
0
40
0
40
0.0624999999999948
40
0.0624999999999948
40
0.0937499999999922
40
0.0937499999999922
40
0.109374999999991
40
0.109374999999991
40
0.12499999999999
40
0.12499999999999
40
0.187499999999984
40
0.187499999999984
40
0.249999999999979
40
0.249999999999979
40
0.281249999999977
40
0.281249999999977
40
0.29687499999998
40
0.29687499999998
40
0.312499999999983
40
0.312499999999983
40
0.374999999999995
40
0.374999999999995
40
0.437500000000008
40
0.437500000000008
40
0.453125000000011
40
0.453125000000011
40
0.468750000000014
40
0.468750000000014
40
0.50000000000002
40
0.50000000000002
40
0.562500000000032
40
0.562500000000032
40
0.593750000000038
40
0.593750000000038
40
0.609375000000042
40
0.609375000000042
40
0.625000000000045
40
0.625000000000045
40
0.687500000000057
40
0.687500000000057
40
0.718750000000061
40
0.718750000000061
40
0.734375000000059
40
0.734375000000059
40
0.750000000000057
40
0.750000000000057
40
0.81250000000004
40
0.81250000000004
40
0.875000000000023
40
0.875000000000023
40
0.906250000000016
40
0.906250000000016
40
0.93750000000001
40
0.93750000000001
40
1
40
1
40
1
40
1
41
1
10
84.9970453948511
20
0.31983055273173
30
0
41
1
10
84.9693347719115
20
0.239521864586237
30
0
41
1
10
84.9401430499011
20
0.159913113709024
30
0
41
1
10
84.8941391685021
20
0.0415611974468391
30
0
41
1
10
84.8784342469884
20
0.002287863850313
30
0
41
1
10
84.8543128336262
20
-0.0563502898370132
30
0
41
1
10
84.846178287199
20
-0.0758509991972005
30
0
41
1
10
84.8297186954355
20
-0.114760305736496
30
0
41
1
10
84.8213794062701
20
-0.134201493634265
30
0
41
1
10
84.7793797803004
20
-0.230759026186945
30
0
41
1
10
84.7449914461672
20
-0.30554723015922
30
0
41
1
10
84.6747589026255
20
-0.450227094739034
30
0
41
1
10
84.6389149178357
20
-0.520120033914537
30
0
41
1
10
84.5840754186312
20
-0.621121067036256
30
0
41
1
10
84.5656158961015
20
-0.654146365405353
30
0
41
1
10
84.5376514872496
20
-0.702679797910548
30
0
41
1
10
84.5282841038592
20
-0.718690026935462
30
0
41
1
10
84.5094557931881
20
-0.750366163532846
30
0
41
1
10
84.5000033123983
20
-0.766016481561252
30
0
41
1
10
84.452932935841
20
-0.842695462892664
30
0
41
1
10
84.4155601870521
20
-0.899587666071994
30
0
41
1
10
84.3413881413235
20
-1.0045204889793
30
0
41
1
10
84.304588947307
20
-1.05256295620185
30
0
41
1
10
84.2589362658005
20
-1.10680411383606
30
0
41
1
10
84.2498229756382
20
-1.11736041365299
30
0
41
1
10
84.2316302855762
20
-1.13787642089989
30
0
41
1
10
84.2225334297743
20
-1.14785384600893
30
0
41
1
10
84.1955230791223
20
-1.1766279688612
30
0
41
1
10
84.1778334106124
20
-1.19433564775429
30
0
41
1
10
84.1256712520975
20
-1.24313236159116
30
0
41
1
10
84.0921031846634
20
-1.26991388640801
30
0
41
1
10
84.0434326093647
20
-1.30149501148043
30
0
41
1
10
84.0274899792159
20
-1.31058542301756
30
0
41
1
10
84.0039866355197
20
-1.32202690378318
30
0
41
1
10
83.9962052302757
20
-1.3254806006054
30
0
41
1
10
83.980859964011
20
-1.33161412268871
30
0
41
1
10
83.9733030981417
20
-1.33429284395325
30
0
41
1
10
83.936077225859
20
-1.34578575735677
30
0
41
1
10
83.9080762605564
20
-1.34892258089982
30
0
41
1
10
83.8684493994904
20
-1.34498088198541
30
0
41
1
10
83.8556376704461
20
-1.34222091636403
30
0
41
1
10
83.8369905153253
20
-1.33592659865914
30
0
41
1
10
83.8308699411677
20
-1.33346917245424
30
0
41
1
10
83.8188156635412
20
-1.32783509045092
30
0
41
1
10
83.8128717276651
20
-1.32465174859561
30
0
41
1
10
83.7837658532567
20
-1.30702858473535
30
0
41
1
10
83.76242709372
20
-1.28751873354617
30
0
41
1
10
83.7231216491468
20
-1.23854197780619
30
0
41
1
10
83.7051573899824
20
-1.20907000904941
30
0
41
1
10
83.6805048936683
20
-1.15768450869191
30
0
41
1
10
83.6726572493913
20
-1.13931381203369
30
0
41
1
10
83.6578286062512
20
-1.10054029403753
30
0
41
1
10
83.6508331348958
20
-1.08011538238796
30
0
41
1
10
83.631028222093
20
-1.01584486221262
30
0
41
1
10
83.6193954862756
20
-0.969012459701304
30
0
41
1
10
83.6091999659316
20
-0.918386887124882
30
0
0
SPLINE
5
DF
100
AcDbEntity
8
1
62
256
6
ByLayer
370
18
48
1
60
0
100
AcDbSpline
70
4
71
3
72
8
73
4
40
0
40
0
40
0
40
0
40
1
40
1
40
1
40
1
41
1
10
83.6091999659316
20
-0.918386887124939
30
0
41
1
10
83.4764212817636
20
-0.259078025474821
30
0
41
1
10
83.3057498297838
20
0.423049863555036
30
0
41
1
10
83.096715227984
20
1.12828004404238
30
0
0
SPLINE
5
E0
100
AcDbEntity
8
1
62
256
6
ByLayer
370
18
48
1
60
0
100
AcDbSpline
70
4
71
3
72
18
73
14
40
0
40
0
40
0
40
0
40
0.25
40
0.25
40
0.5
40
0.5
40
0.625
40
0.625
40
0.75
40
0.75
40
0.875
40
0.875
40
1
40
1
40
1
40
1
41
1
10
82.2204949533027
20
0.55898302879416
30
0
41
1
10
82.2917897623583
20
0.626362784282691
30
0
41
1
10
82.3637453545351
20
0.688926535091525
30
0
41
1
10
82.5086491815944
20
0.80428138244929
30
0
41
1
10
82.5815970144055
20
0.857042892066801
30
0
41
1
10
82.6914847231072
20
0.92839261915924
30
0
41
1
10
82.7281912821716
20
0.950875754100167
30
0
41
1
10
82.8017104077243
20
0.993185804982801
30
0
41
1
10
82.8385215965452
20
1.0129928226944
30
0
41
1
10
82.9122113394366
20
1.05007312127671
30
0
41
1
10
82.9490915260206
20
1.06737237540526
30
0
41
1
10
83.0228937860513
20
1.09969108724681
30
0
41
1
10
83.0598140202395
20
1.11467574902065
30
0
41
1
10
83.096715227984
20
1.12828004404236
30
0
0
SPLINE
5
E1
100
AcDbEntity
8
1
62
256
6
ByLayer
370
13
48
1
60
0
100
AcDbSpline
70
4
71
3
72
10
73
6
40
0
40
0
40
0
40
0
40
0.5
40
0.5
40
1
40
1
40
1
40
1
41
1
10
22.4954069653868
20
-2.02905428512369
30
0
41
1
10
22.4881734685646
20
-2.02543902736883
30
0
41
1
10
22.4810660408122
20
-2.02212781690577
30
0
41
1
10
22.4671011865651
20
-2.01609484178235
30
0
41
1
10
22.4601943737674
20
-2.01335726719915
30
0
41
1
10
22.4536267102361
20
-2.01102354043732
30
0
0
SPLINE
5
E2
100
AcDbEntity
8
1
62
256
6
ByLayer
370
13
48
1
60
0
100
AcDbSpline
70
4
71
3
72
8
73
4
40
0
40
0
40
0
40
0
40
1
40
1
40
1
40
1
41
1
10
22.4522809528549
20
-2.08508037356179
30
0
41
1
10
22.4527241141515
20
-2.060400350755
30
0
41
1
10
22.4531726937104
20
-2.03571483800775
30
0
41
1
10
22.453626710236
20
-2.01102354043732
30
0
0
SPLINE
5
E3
100
AcDbEntity
8
1
62
256
6
ByLayer
370
18
48
1
60
0
100
AcDbSpline
70
4
71
3
72
42
73
38
40
0
40
0
40
0
40
0
40
0.0137043180823263
40
0.0137043180823263
40
0.0656146171306241
40
0.0656146171306241
40
0.117524916178923
40
0.117524916178923
40
0.16943521522722
40
0.16943521522722
40
0.273255813323817
40
0.273255813323817
40
0.325166112372116
40
0.325166112372116
40
0.377076411420414
40
0.377076411420414
40
0.428986710468714
40
0.428986710468714
40
0.480897009517012
40
0.480897009517012
40
0.506852159041163
40
0.506852159041163
40
0.532807308565313
40
0.532807308565313
40
0.584717607613612
40
0.584717607613612
40
0.636627906661911
40
0.636627906661911
40
0.68853820571021
40
0.68853820571021
40
0.792358803806808
40
0.792358803806808
40
0.844269102855106
40
0.844269102855106
40
0.896179401903404
40
0.896179401903404
40
1
40
1
40
1
40
1
41
1
10
40.4673522251285
20
-7.24582646946109
30
0
41
1
10
40.3847527422388
20
-7.2461491545568
30
0
41
1
10
40.3022019581734
20
-7.24608564025667
30
0
41
1
10
39.9071776700409
20
-7.24393285045693
30
0
41
1
10
39.595314059753
20
-7.23669075392189
30
0
41
1
10
38.9725730613167
20
-7.21123663203429
30
0
41
1
10
38.6617068692794
20
-7.19307093911758
30
0
41
1
10
38.0407425767046
20
-7.14607601089506
30
0
41
1
10
37.7306343765802
20
-7.11720096839807
30
0
41
1
10
36.8009034180044
20
-7.01477213667249
30
0
41
1
10
36.181862461515
20
-6.9254107419427
30
0
41
1
10
35.2527337499127
20
-6.76068544663164
30
0
41
1
10
34.9429423762543
20
-6.70067257072768
30
0
41
1
10
34.3229499970329
20
-6.570629513292
30
0
41
1
10
34.0127394679768
20
-6.5005889250038
30
0
41
1
10
33.3915155209828
20
-6.35066760720142
30
0
41
1
10
33.0805015819293
20
-6.27078545283621
30
0
41
1
10
32.457454391696
20
-6.10140670628789
30
0
41
1
10
32.1454217240519
20
-6.01191093307227
30
0
41
1
10
31.6763290822329
20
-5.87062720841044
30
0
41
1
10
31.5197399351873
20
-5.82234293173118
30
0
41
1
10
31.2063914842873
20
-5.72352529177297
30
0
41
1
10
31.0498915529777
20
-5.67307453194707
30
0
41
1
10
30.5808565442857
20
-5.51868467768935
30
0
41
1
10
30.2687858948394
20
-5.41170900419959
30
0
41
1
10
29.6455828009496
20
-5.19010483743875
30
0
41
1
10
29.3344600323703
20
-5.07546355166153
30
0
41
1
10
28.7129359982899
20
-4.83892879457287
30
0
41
1
10
28.4025306679869
20
-4.71705644270824
30
0
41
1
10
27.4718321167018
20
-4.34148703566416
30
0
41
1
10
26.8520514477684
20
-4.0777789358844
30
0
41
1
10
25.921669278353
20
-3.66501353348698
30
0
41
1
10
25.6114182340124
20
-3.52456238873646
30
0
41
1
10
24.9904392351573
20
-3.23834328680067
30
0
41
1
10
24.6797145193816
20
-3.09257159499092
30
0
41
1
10
23.746275916653
20
-2.64813630195343
30
0
41
1
10
23.1222893061461
20
-2.34236626956937
30
0
41
1
10
22.4954069653867
20
-2.02905428512369
30
0
0
SPLINE
5
E4
100
AcDbEntity
8
1
62
256
6
ByLayer
370
13
48
1
60
0
100
AcDbSpline
70
4
71
3
72
10
73
6
40
0
40
0
40
0
40
0
40
0.281710337783382
40
0.281710337783382
40
1
40
1
40
1
40
1
41
1
10
22.5475532281686
20
6.66442687752803
30
0
41
1
10
22.5474247100563
20
6.64120256859292
30
0
41
1
10
22.5472957340011
20
6.61797803867734
30
0
41
1
10
22.54683627413
20
6.53553607196943
30
0
41
1
10
22.546503267537
20
6.47631740082224
30
0
41
1
10
22.546167272177
20
6.41709721420725
30
0
0
SPLINE
5
E5
100
AcDbEntity
8
1
62
256
6
ByLayer
370
18
48
1
60
0
100
AcDbSpline
70
4
71
3
72
39
73
35
40
0
40
0
40
0
40
0
40
0.122481472605662
40
0.122481472605662
40
0.183722208908495
40
0.183722208908495
40
0.244962945211327
40
0.244962945211327
40
0.306203681514159
40
0.306203681514159
40
0.367444417816991
40
0.367444417816991
40
0.428685154119824
40
0.428685154119824
40
0.489925890422656
40
0.489925890422656
40
0.551166626725488
40
0.581786994876904
40
0.581786994876904
40
0.61240736302832
40
0.61240736302832
40
0.673648099331152
40
0.673648099331152
40
0.734888835633984
40
0.734888835633984
40
0.796129571936816
40
0.796129571936816
40
0.857370308239648
40
0.857370308239648
40
0.91861104454248
40
0.91861104454248
40
0.979851780845312
40
0.979851780845312
40
1
40
1
40
1
40
1
41
1
10
22.5461672721771
20
6.41709721420722
30
0
41
1
10
23.1710621026722
20
6.2701625773592
30
0
41
1
10
23.7935999023995
20
6.10318308192007
30
0
41
1
10
24.725180825007
20
5.82664469861473
30
0
41
1
10
25.0353214343984
20
5.73011668035241
30
0
41
1
10
25.6548334206364
20
5.52899423723102
30
0
41
1
10
25.9642335928193
20
5.4243793219137
30
0
41
1
10
26.5830077345966
20
5.20705775066037
30
0
41
1
10
26.892368413234
20
5.09436538569531
30
0
41
1
10
27.5113176661386
20
4.86141846671484
30
0
41
1
10
27.8209005857262
20
4.74116283013572
30
0
41
1
10
28.4403552743513
20
4.49359759177776
30
0
41
1
10
28.7502571353203
20
4.36628999402038
30
0
41
1
10
29.370272732848
20
4.10499097679465
30
0
41
1
10
29.6803527770156
20
3.97100003913479
30
0
41
1
10
30.3018766836215
20
3.69674300828132
30
0
41
1
10
30.7690549319294
20
3.48633892885815
30
0
41
1
10
31.2378889268205
20
3.26940307574077
30
0
41
1
10
31.550824768716
20
3.12338872380394
30
0
41
1
10
31.7071319598812
20
3.04984998210645
30
0
41
1
10
32.1755213950293
20
2.82778636847843
30
0
41
1
10
32.4871110755442
20
2.67778970138235
30
0
41
1
10
33.1090439110949
20
2.37416145133201
30
0
41
1
10
33.419396001674
20
2.2205436208607
30
0
41
1
10
34.0394141906839
20
1.91060039944713
30
0
41
1
10
34.3490710706277
20
1.754260853282
30
0
41
1
10
34.9677292215146
20
1.4390507329064
30
0
41
1
10
35.2767437350498
20
1.28019798882082
30
0
41
1
10
35.8949895164184
20
0.961423290174196
30
0
41
1
10
36.204209566965
20
0.801485725405598
30
0
41
1
10
36.8228541049207
20
0.480644855741104
30
0
41
1
10
37.1322792727414
20
0.319742610879558
30
0
41
1
10
37.5436903576951
20
0.105410310752802
30
0
41
1
10
37.6455519260966
20
0.0523106868259333
30
0
41
1
10
37.7474253960745
20
-0.0008334269955412
30
0
0
SPLINE
5
E6
100
AcDbEntity
8
1
62
256
6
ByLayer
370
18
48
1
60
0
100
AcDbSpline
70
4
71
3
72
14
73
10
40
0
40
0
40
0
40
0
40
0.25
40
0.25
40
0.5
40
0.5
40
0.75
40
0.75
40
1
40
1
40
1
40
1
41
1
10
82.2177473113524
20
-7.25808664492078
30
0
41
1
10
82.217911705951
20
-7.25825455274986
30
0
41
1
10
82.2180053108195
20
-7.25861264473607
30
0
41
1
10
82.2180072143123
20
-7.25980808225279
30
0
41
1
10
82.2179101005769
20
-7.26064283420152
30
0
41
1
10
82.2174928430314
20
-7.26272115681613
30
0
41
1
10
82.2171663330783
20
-7.2639824279791
30
0
41
1
10
82.2163586164956
20
-7.26660664499016
30
0
41
1
10
82.2158818362833
20
-7.26796095564583
30
0
41
1
10
82.2153918861533
20
-7.26921673967232
30
0
0
SPLINE
5
E7
100
AcDbEntity
8
1
62
256
6
ByLayer
370
18
48
1
60
0
100
AcDbSpline
70
4
71
3
72
8
73
4
40
0
40
0
40
0
40
0
40
1
40
1
40
1
40
1
41
1
10
82.0544279809296
20
-7.53472284894818
30
0
41
1
10
82.1050888820135
20
-7.45410811314252
30
0
41
1
10
82.1558075902561
20
-7.37312702023138
30
0
41
1
10
82.2065912105704
20
-7.2917809100241
30
0
0
SPLINE
5
E8
100
AcDbEntity
8
1
62
256
6
ByLayer
370
18
48
1
60
0
100
AcDbSpline
70
4
71
3
72
8
73
4
40
0
40
0
40
0
40
0
40
1
40
1
40
1
40
1
41
1
10
82.2153918861533
20
-7.26921673967234
30
0
41
1
10
82.2124570339194
20
-7.27673901659406
30
0
41
1
10
82.2095234729084
20
-7.28426040458575
30
0
41
1
10
82.2065912105704
20
-7.2917809100241
30
0
0
SPLINE
5
E9
100
AcDbEntity
8
1
62
256
6
ByLayer
370
18
48
1
60
0
100
AcDbSpline
70
4
71
3
72
50
73
46
40
0
40
0
40
0
40
0
40
0.046285582448754
40
0.046285582448754
40
0.0694283736731311
40
0.0694283736731311
40
0.0925711648975083
40
0.0925711648975083
40
0.185142329795027
40
0.185142329795027
40
0.231427912243786
40
0.231427912243786
40
0.254570703468167
40
0.254570703468167
40
0.277713494692546
40
0.277713494692546
40
0.370284659590067
40
0.370284659590067
40
0.416570242038826
40
0.416570242038826
40
0.462855824487586
40
0.462855824487586
40
0.509141406936346
40
0.509141406936346
40
0.532284198160725
40
0.532284198160725
40
0.555426989385104
40
0.555426989385104
40
0.647998154282618
40
0.647998154282618
40
0.740569319180132
40
0.740569319180132
40
0.786854901628887
40
0.786854901628887
40
0.833140484077643
40
0.833140484077643
40
0.879426066526399
40
0.879426066526399
40
0.925711648975155
40
0.925711648975155
40
0.971997231423911
40
0.971997231423911
40
0.995140022648288
40
0.995140022648288
40
1
40
1
40
1
40
1
41
1
10
82.215391886153
20
-7.26921673967232
30
0
41
1
10
81.902894922123
20
-7.24915758534632
30
0
41
1
10
81.590440292411
20
-7.2235152703922
30
0
41
1
10
81.1216034052385
20
-7.17677505587213
30
0
41
1
10
80.9652541217357
20
-7.15980903284191
30
0
41
1
10
80.6530315924132
20
-7.12320297661441
30
0
41
1
10
80.4970952689665
20
-7.1035574654083
30
0
41
1
10
79.7181934985244
20
-6.99870716076927
30
0
41
1
10
79.0975665712843
20
-6.89364686488568
30
0
41
1
10
78.1686034291109
20
-6.70620045397689
30
0
41
1
10
77.8592806192958
20
-6.63873984565711
30
0
41
1
10
77.3955109040874
20
-6.53028968759031
30
0
41
1
10
77.2409539124486
20
-6.49292654754612
30
0
41
1
10
76.9319137874482
20
-6.41585730477536
30
0
41
1
10
76.7774352933866
20
-6.37615865183793
30
0
41
1
10
76.0050830988743
20
-6.17177432065577
30
0
41
1
10
75.3872843448266
20
-5.98930255921417
30
0
41
1
10
74.4588838987236
20
-5.68917704705379
30
0
41
1
10
74.1491287547871
20
-5.58472798006738
30
0
41
1
10
73.5288319358942
20
-5.36740801752003
30
0
41
1
10
73.2182982739574
20
-5.25454321803554
30
0
41
1
10
72.596065078428
20
-5.02068170299964
30
0
41
1
10
72.2843591723969
20
-4.8996781296006
30
0
41
1
10
71.8157074579868
20
-4.71235455816694
30
0
41
1
10
71.6592389202964
20
-4.64891499487894
30
0
41
1
10
71.3468754681647
20
-4.52053940469196
30
0
41
1
10
71.1908690908448
20
-4.45555945715029
30
0
41
1
10
70.4116247523593
20
-4.1268440342256
30
0
41
1
10
69.7907494200635
20
-3.85165655410827
30
0
41
1
10
68.5515820539055
20
-3.28133191529108
30
0
41
1
10
67.9332705914451
20
-2.98624466801215
30
0
41
1
10
67.0059002072117
20
-2.53194393813303
30
0
41
1
10
66.6968007249028
20
-2.37854180635887
30
0
41
1
10
66.0783846240662
20
-2.06833877832517
30
0
41
1
10
65.7690705504391
20
-1.91153722091715
30
0
41
1
10
65.149894969784
20
-1.59509064937674
30
0
41
1
10
64.8400323624848
20
-1.4354419509601
30
0
41
1
10
64.2194431850187
20
-1.11393027203678
30
0
41
1
10
63.9087152013494
20
-0.952068862291355
30
0
41
1
10
63.2861346198113
20
-0.626570765120988
30
0
41
1
10
62.9742829229814
20
-0.462942991878748
30
0
41
1
10
62.5054167320594
20
-0.216638853956368
30
0
41
1
10
62.3488984749961
20
-0.1343686341352
30
0
41
1
10
62.1597268430389
20
-0.0349367215847849
30
0
41
1
10
62.1268993776785
20
-0.0176821006172929
30
0
41
1
10
62.0940756523353
20
-0.0004299721756524
30
0
0
SPLINE
5
EA
100
AcDbEntity
8
1
62
256
6
ByLayer
370
18
48
1
60
0
100
AcDbSpline
70
4
71
3
72
8
73
4
40
0
40
0
40
0
40
0
40
1
40
1
40
1
40
1
41
1
10
82.0816379743701
20
-0.430837158140008
30
0
41
1
10
82.1140575118739
20
-0.443443133193341
30
0
41
1
10
82.1464895327375
20
-0.455396181046296
30
0
41
1
10
82.1789477111433
20
-0.466700593889811
30
0
0
SPLINE
5
EB
100
AcDbEntity
8
1
62
256
6
ByLayer
370
18
48
1
60
0
100
AcDbSpline
70
4
71
3
72
62
73
58
40
0
40
0
40
0
40
0
40
0.0451152554574121
40
0.0451152554574121
40
0.0658483789665803
40
0.0658483789665803
40
0.0865815024757486
40
0.0865815024757486
40
0.128047749494085
40
0.128047749494085
40
0.148780873003253
40
0.148780873003253
40
0.169513996512421
40
0.169513996512421
40
0.210980243530756
40
0.210980243530756
40
0.231713367039924
40
0.231713367039924
40
0.252446490549092
40
0.252446490549092
40
0.293912737567428
40
0.293912737567428
40
0.335378984585763
40
0.335378984585763
40
0.376845231604098
40
0.376845231604098
40
0.418311478622433
40
0.418311478622433
40
0.459777725640768
40
0.459777725640768
40
0.542710219677439
40
0.542710219677439
40
0.563443343186606
40
0.563443343186606
40
0.584176466695774
40
0.584176466695774
40
0.62564271371411
40
0.62564271371411
40
0.667108960732447
40
0.667108960732447
40
0.708575207750784
40
0.708575207750784
40
0.791507701787455
40
0.791507701787455
40
0.812240825296623
40
0.812240825296623
40
0.832973948805793
40
0.832973948805793
40
0.874440195824131
40
0.874440195824131
40
0.957372689860806
40
0.957372689860806
40
0.978105813369974
40
0.978105813369974
40
0.998838936879143
40
0.998838936879143
40
1
40
1
40
1
40
1
41
1
10
58.822782248546
20
7.26699411280367
30
0
41
1
10
59.1621070145294
20
7.2759467374124
30
0
41
1
10
59.5011563492311
20
7.27855685846012
30
0
41
1
10
59.9956737318635
20
7.27380949315969
30
0
41
1
10
60.1513234353159
20
7.27108291085904
30
0
41
1
10
60.4624960270507
20
7.26325982826
30
0
41
1
10
60.6180388484849
20
7.25811798583254
30
0
41
1
10
61.0850251667759
20
7.23784340760841
30
0
41
1
10
61.3967618816378
20
7.2180298566854
30
0
41
1
10
61.8649716605093
20
7.17973999189715
30
0
41
1
10
62.0211421969594
20
7.16554534532881
30
0
41
1
10
62.3336790813435
20
7.1343818411022
30
0
41
1
10
62.4901225354433
20
7.11740286133121
30
0
41
1
10
62.9586942725409
20
7.0625676552695
30
0
41
1
10
63.2703273338618
20
7.0207955139195
30
0
41
1
10
63.7367572281453
20
6.95098438801023
30
0
41
1
10
63.8920626619611
20
6.9265179176067
30
0
41
1
10
64.2023627130022
20
6.87517749659514
30
0
41
1
10
64.357368416498
20
6.84828173956444
30
0
41
1
10
64.8222294965834
20
6.76337993020425
30
0
41
1
10
65.1318867636793
20
6.70126487211422
30
0
41
1
10
65.7506919694981
20
6.56723401165192
30
0
41
1
10
66.0598490803929
20
6.49529532592902
30
0
41
1
10
66.677937858009
20
6.34190303726899
30
0
41
1
10
66.9868569058939
20
6.26046035609514
30
0
41
1
10
67.6043371935441
20
6.08886607298121
30
0
41
1
10
67.9129288506895
20
5.99868625790995
30
0
41
1
10
68.5308291763657
20
5.80889251481983
30
0
41
1
10
68.8401155616152
20
5.70930424047873
30
0
41
1
10
69.7691181264869
20
5.39752499318263
30
0
41
1
10
70.3899747319961
20
5.17228580934145
30
0
41
1
10
71.1684009886296
20
4.87115739633549
30
0
41
1
10
71.3242089136486
20
4.80995163193882
30
0
41
1
10
71.6361730283381
20
4.68558766714415
30
0
41
1
10
71.7924363104525
20
4.62238458501008
30
0
41
1
10
72.2604621763372
20
4.43044950228042
30
0
41
1
10
72.5717909976122
20
4.29926607631569
30
0
41
1
10
73.193260216327
20
4.03104979842169
30
0
41
1
10
73.5034120189637
20
3.8940196895494
30
0
41
1
10
74.123037026515
20
3.61467894927779
30
0
41
1
10
74.4324995026825
20
3.47236643013656
30
0
41
1
10
75.3600690338362
20
3.03833815122644
30
0
41
1
10
75.9773544887625
20
2.73951058228897
30
0
41
1
10
76.7482911816566
20
2.35606982986244
30
0
41
1
10
76.9024544474747
20
2.27889468545752
30
0
41
1
10
77.2109449420038
20
2.12375929917033
30
0
41
1
10
77.3652650620489
20
2.04579344062841
30
0
41
1
10
77.8284544210005
20
1.81078522650597
30
0
41
1
10
78.1375542486431
20
1.65263285048951
30
0
41
1
10
79.0659805688925
20
1.17442296032087
30
0
41
1
10
79.6864341602145
20
0.850608335173263
30
0
41
1
10
80.4644364009749
20
0.441301348225835
30
0
41
1
10
80.6201583675374
20
0.359213050264827
30
0
41
1
10
80.9318678515456
20
0.194627301791599
30
0
41
1
10
81.0879091653297
20
0.112101306650402
30
0
41
1
10
81.2525840828943
20
0.0248974557856911
30
0
41
1
10
81.2613167320978
20
0.0202727370250955
30
0
41
1
10
81.2700492133616
20
0.0156477809617286
30
0
0
SPLINE
5
EC
100
AcDbEntity
8
1
62
256
6
ByLayer
370
18
48
1
60
0
100
AcDbSpline
70
4
71
3
72
8
73
4
40
0
40
0
40
0
40
0
40
1
40
1
40
1
40
1
41
1
10
82.1789477111435
20
-0.466700593889811
30
0
41
1
10
82.1808546542044
20
-0.467364736879034
30
0
41
1
10
82.1818318027115
20
-0.47264415008388
30
0
41
1
10
82.1811233078143
20
-0.478466984828486
30
0
0
SPLINE
5
ED
100
AcDbEntity
8
1
62
256
6
ByLayer
370
18
48
1
60
0
100
AcDbSpline
70
4
71
3
72
39
73
35
40
0
40
0
40
0
40
0
40
0.0540939909322098
40
0.0540939909322098
40
0.113213116498946
40
0.113213116498946
40
0.172332242065683
40
0.172332242065683
40
0.23145136763242
40
0.23145136763242
40
0.290570493199157
40
0.290570493199157
40
0.349689618765894
40
0.349689618765894
40
0.408808744332631
40
0.408808744332631
40
0.438368307115999
40
0.438368307115999
40
0.467927869899368
40
0.527046995466104
40
0.527046995466104
40
0.586166121032841
40
0.586166121032841
40
0.645285246599578
40
0.645285246599578
40
0.704404372166315
40
0.704404372166315
40
0.763523497733052
40
0.763523497733052
40
0.822642623299789
40
0.822642623299789
40
0.881761748866526
40
0.881761748866526
40
1
40
1
40
1
40
1
41
1
10
38.2891850902002
20
-0.294697600028457
30
0
41
1
10
38.0057306162933
20
-0.146619156709761
30
0
41
1
10
37.7223288067328
20
0.0010696186638768
30
0
41
1
10
37.129439628687
20
0.309525131415654
30
0
41
1
10
36.8199768873305
20
0.470236564189662
30
0
41
1
10
36.2012581843569
20
0.790713244810291
30
0
41
1
10
35.8920017722717
20
0.950477904210658
30
0
41
1
10
35.2736840791534
20
1.26892497784439
30
0
41
1
10
34.9646322899547
20
1.42761954772092
30
0
41
1
10
34.3458981874592
20
1.74252244853187
30
0
41
1
10
34.0362049104052
20
1.89871744305611
30
0
41
1
10
33.4161172898285
20
2.20839098680148
30
0
41
1
10
33.1057303858286
20
2.36188020119485
30
0
41
1
10
32.4837294664111
20
2.66526404055961
30
0
41
1
10
32.1721080381917
20
2.81514785969733
30
0
41
1
10
31.7036742262376
20
3.03705630649935
30
0
41
1
10
31.5473544950634
20
3.11054482183349
30
0
41
1
10
31.2343875347518
20
3.25646666616805
30
0
41
1
10
30.7655058698293
20
3.47327223053082
30
0
41
1
10
30.298276908671
20
3.68357101410575
30
0
41
1
10
29.6766825375203
20
3.95770922259595
30
0
41
1
10
29.366563050542
20
4.09164565161956
30
0
41
1
10
28.7464659704966
20
4.35285052606028
30
0
41
1
10
28.4365243960201
20
4.48012318649273
30
0
41
1
10
27.8169901305332
20
4.72763922614925
30
0
41
1
10
27.5073675811764
20
4.84788073321474
30
0
41
1
10
26.888338912535
20
5.0808195942453
30
0
41
1
10
26.5789380540143
20
5.19351741601864
30
0
41
1
10
25.9600830002067
20
5.41086850017405
30
0
41
1
10
25.6506409153446
20
5.51550579504283
30
0
41
1
10
25.0310435389837
20
5.71668704794092
30
0
41
1
10
24.7208612608416
20
5.81325383190799
30
0
41
1
10
23.7891599780972
20
6.08993907194852
30
0
41
1
10
23.1665452956438
20
6.25705365639698
30
0
41
1
10
22.541576083425
20
6.40415911626758
30
0
0
SPLINE
5
EE
100
AcDbEntity
8
1
62
256
6
ByLayer
370
13
48
1
60
0
100
AcDbSpline
70
4
71
3
72
10
73
6
40
0
40
0
40
0
40
0
40
0.5
40
0.5
40
1
40
1
40
1
40
1
41
1
10
22.5415760834249
20
6.40415911626758
30
0
41
1
10
22.5351829958599
20
6.40566392333304
30
0
41
1
10
22.5285233273556
20
6.40678798933683
30
0
41
1
10
22.5146898075297
20
6.40830607182565
30
0
41
1
10
22.5074798281838
20
6.40869297952653
30
0
41
1
10
22.5002676244821
20
6.40867920036854
30
0
0
SPLINE
5
EF
100
AcDbEntity
8
1
62
256
6
ByLayer
370
13
48
1
60
0
100
AcDbSpline
70
4
71
3
72
47
73
43
40
0
40
0
40
0
40
0
40
0.0625000000000003
40
0.125000000000001
40
0.125000000000001
40
0.156250000000001
40
0.171875000000001
40
0.171875000000001
40
0.187500000000001
40
0.187500000000001
40
0.250000000000001
40
0.250000000000001
40
0.312500000000001
40
0.312500000000001
40
0.375000000000001
40
0.437500000000001
40
0.437500000000001
40
0.46875
40
0.484375
40
0.484375
40
0.5
40
0.5
40
0.5625
40
0.625
40
0.625
40
0.640625
40
0.640625
40
0.65625
40
0.6875
40
0.6875
40
0.75
40
0.75
40
0.765625
40
0.765625
40
0.78125
40
0.78125
40
0.8125
40
0.8125
40
0.875
40
0.9375
40
0.9375
40
1
40
1
40
1
40
1
41
1
10
22.5002676244822
20
6.40867920036854
30
0
41
1
10
22.5002632687922
20
6.31348694473351
30
0
41
1
10
22.5002539552202
20
6.10808848321602
30
0
41
1
10
22.5002437574175
20
5.87330356463889
30
0
41
1
10
22.5002358771063
20
5.68618483359973
30
0
41
1
10
22.500231878717
20
5.5898642601554
30
0
41
1
10
22.5002278093611
20
5.48936512438078
30
0
41
1
10
22.5002250823569
20
5.42143053874577
30
0
41
1
10
22.5002237110364
20
5.3869760644169
30
0
41
1
10
22.5002168330002
20
5.21259467696879
30
0
41
1
10
22.5002112724064
20
5.0665952789943
30
0
41
1
10
22.5002001387822
20
4.76179259806736
30
0
41
1
10
22.5001946156077
20
4.60435109380018
30
0
41
1
10
22.5001837237173
20
4.27970942322543
30
0
41
1
10
22.5001729860373
20
3.9453075320522
30
0
41
1
10
22.5001626413587
20
3.59157809856717
30
0
41
1
10
22.5001550450024
20
3.3189448543834
30
0
41
1
10
22.5001512871114
20
3.18079167873299
30
0
41
1
10
22.5001475900557
20
3.0398434268906
30
0
41
1
10
22.5001451387453
20
2.94525058309492
30
0
41
1
10
22.5001439186335
20
2.89759426179478
30
0
41
1
10
22.5001378692437
20
2.65844777323218
30
0
41
1
10
22.5001285145906
20
2.27015318004482
30
0
41
1
10
22.5001197246165
20
1.87067122152462
30
0
41
1
10
22.500114368273
20
1.61746146040392
30
0
41
1
10
22.5001133031735
20
1.56661106008014
30
0
41
1
10
22.5001111905223
20
1.46480240738822
30
0
41
1
10
22.5001080466248
20
1.31187150559981
30
0
41
1
10
22.5001049715613
20
1.15829027123598
30
0
41
1
10
22.500098894762
20
0.850265228038495
30
0
41
1
10
22.5000949419334
20
0.643766714617669
30
0
41
1
10
22.500090054137
20
0.38419869565746
30
0
41
1
10
22.5000890791928
20
0.332212721081674
30
0
41
1
10
22.5000871325938
20
0.228095284459869
30
0
41
1
10
22.5000861621873
20
0.176030498973404
30
0
41
1
10
22.5000832626958
20
0.020148013166704
30
0
41
1
10
22.5000813428351
20
-0.0834924074174523
30
0
41
1
10
22.5000755969851
20
-0.393583006164107
30
0
41
1
10
22.5000679730683
20
-0.804825073770303
30
0
41
1
10
22.5000601386988
20
-1.21170558899695
30
0
41
1
10
22.5000520453228
20
-1.61638801553241
30
0
41
1
10
22.5000478692782
20
-1.81763035556241
30
0
41
1
10
22.500043477855
20
-2.01773994599407
30
0
0
SPLINE
5
F0
100
AcDbEntity
8
1
62
256
6
ByLayer
370
18
48
1
60
0
100
AcDbSpline
70
4
71
3
72
40
73
36
40
0
40
0
40
0
40
0
40
0.104597041513997
40
0.104597041513997
40
0.156895562270995
40
0.156895562270995
40
0.209194083027993
40
0.209194083027993
40
0.31379112454199
40
0.31379112454199
40
0.366089645298989
40
0.366089645298989
40
0.418388166055989
40
0.418388166055989
40
0.470686686812988
40
0.496835947191488
40
0.496835947191488
40
0.522985207569988
40
0.522985207569988
40
0.575283728326987
40
0.575283728326987
40
0.627582249083986
40
0.627582249083986
40
0.679880769840986
40
0.679880769840986
40
0.732179290597985
40
0.732179290597985
40
0.836776332111984
40
0.836776332111984
40
0.889074852868984
40
0.889074852868984
40
0.941373373625984
40
0.941373373625984
40
0.993671894382984
40
1
40
1
40
1
40
1
41
1
10
22.5000434778549
20
-2.01773994599404
30
0
41
1
10
23.1268797262128
20
-2.33070834422853
30
0
41
1
10
23.7508273296378
20
-2.63617662162324
30
0
41
1
10
24.684215450364
20
-3.08021932449506
30
0
41
1
10
24.9949247958816
20
-3.22586996443164
30
0
41
1
10
25.6158754026418
20
-3.51186687797849
30
0
41
1
10
25.9261132865302
20
-3.65221712925754
30
0
41
1
10
26.8564569973814
20
-4.06471154443159
30
0
41
1
10
27.4762136873583
20
-4.32828019503972
30
0
41
1
10
28.4068761823389
20
-4.70370079475256
30
0
41
1
10
28.7172697797861
20
-4.82553325908853
30
0
41
1
10
29.3387689791811
20
-5.06200999784494
30
0
41
1
10
29.649879117977
20
-5.17663249609566
30
0
41
1
10
30.2730545939491
20
-5.39822041547004
30
0
41
1
10
30.741138414924
20
-5.55868710543257
30
0
41
1
10
31.2106132766815
20
-5.71006595756614
30
0
41
1
10
31.5239445853684
20
-5.80890608496804
30
0
41
1
10
31.6805265448191
20
-5.85720466661613
30
0
41
1
10
32.1495975596338
20
-5.9985389715481
30
0
41
1
10
32.461617469726
20
-6.08807907403065
30
0
41
1
10
33.0846418710672
20
-6.25756806919242
30
0
41
1
10
33.3956456490621
20
-6.33751633225623
30
0
41
1
10
34.0168505103139
20
-6.48759060996071
30
0
41
1
10
34.3270523102226
20
-6.55771779752121
30
0
41
1
10
34.9470285038432
20
-6.68795387276523
30
0
41
1
10
35.2568124720832
20
-6.74807327436997
30
0
41
1
10
36.1859169629444
20
-6.91314745855217
30
0
41
1
10
36.8049409078342
20
-7.00277786083169
30
0
41
1
10
37.7346444180877
20
-7.10566549522335
30
0
41
1
10
38.0447430467214
20
-7.13470283646018
30
0
41
1
10
38.6656873447639
20
-7.18204083388301
30
0
41
1
10
38.9765433213161
20
-7.20038735257211
30
0
41
1
10
39.5992587257815
20
-7.22622107883385
30
0
41
1
10
39.9488419033824
20
-7.23456136828133
30
0
41
1
10
40.2992471133384
20
-7.23595152843447
30
0
41
1
10
40.337079403997
20
-7.23602059280879
30
0
0
SPLINE
5
F1
100
AcDbEntity
8
1
62
256
6
ByLayer
370
18
48
1
60
0
100
AcDbSpline
70
4
71
3
72
53
73
49
40
0
40
0
40
0
40
0
40
0.0108377676159243
40
0.0108377676159243
40
0.0538448211978422
40
0.0538448211978422
40
0.139858928361678
40
0.139858928361678
40
0.182865981943595
40
0.182865981943595
40
0.204369508734553
40
0.204369508734553
40
0.225873035525512
40
0.225873035525512
40
0.311887142689347
40
0.311887142689347
40
0.397901249853183
40
0.397901249853183
40
0.419404776644142
40
0.419404776644142
40
0.440908303435101
40
0.440908303435101
40
0.483915357017017
40
0.483915357017017
40
0.526922410598933
40
0.526922410598933
40
0.56992946418085
40
0.56992946418085
40
0.612936517762766
40
0.634440044553724
40
0.634440044553724
40
0.655943571344682
40
0.655943571344682
40
0.698950624926598
40
0.698950624926598
40
0.741957678508515
40
0.741957678508515
40
0.784964732090431
40
0.784964732090431
40
0.806468258881389
40
0.806468258881389
40
0.827971785672346
40
0.827971785672346
40
0.870978839254259
40
0.870978839254259
40
0.913985892836172
40
0.913985892836172
40
1
40
1
40
1
40
1
41
1
10
44.1308642778762
20
-7.2482876776478
30
0
41
1
10
44.0524791569726
20
-7.25972112072805
30
0
41
1
10
43.9740809781978
20
-7.27080918635619
30
0
41
1
10
43.5846061862789
20
-7.32415183462865
30
0
41
1
10
43.2738927024008
20
-7.36119435883793
30
0
41
1
10
42.3423558121393
20
-7.45553132787708
30
0
41
1
10
41.7220993741367
20
-7.4960275644282
30
0
41
1
10
40.7910771936161
20
-7.52289994147441
30
0
41
1
10
40.4806345855617
20
-7.52621101607082
30
0
41
1
10
40.014560449879
20
-7.52266987513082
30
0
41
1
10
39.8591341607364
20
-7.5200716793108
30
0
41
1
10
39.5481033938427
20
-7.51203462496542
30
0
41
1
10
39.3924360506533
20
-7.5065924637901
30
0
41
1
10
38.6146386595825
20
-7.47232236211025
30
0
41
1
10
37.9938878195706
20
-7.42229869571389
30
0
41
1
10
36.7525715074774
20
-7.27812744239245
30
0
41
1
10
36.1319703560071
20
-7.18400956332641
30
0
41
1
10
35.3547974258656
20
-7.0395142892001
30
0
41
1
10
35.1992929242136
20
-7.00927200444289
30
0
41
1
10
34.8881142462242
20
-6.94611139622728
30
0
41
1
10
34.73241728044
20
-6.91318735902419
30
0
41
1
10
34.2657761626394
20
-6.81061042624734
30
0
41
1
10
33.9550294576979
20
-6.73710369002703
30
0
41
1
10
33.3338429645886
20
-6.58021457722117
30
0
41
1
10
33.023407551549
20
-6.49683076011277
30
0
41
1
10
32.4025979415405
20
-6.32044089453245
30
0
41
1
10
32.0922202744991
20
-6.22743622351464
30
0
41
1
10
31.4711529113853
20
-6.03217516410839
30
0
41
1
10
31.0051204347216
20
-5.87878974289768
30
0
41
1
10
30.5383856258781
20
-5.71536154799523
30
0
41
1
10
30.2270339337523
20
-5.60421834803699
30
0
41
1
10
30.0713246441538
20
-5.54757348347229
30
0
41
1
10
29.604535649545
20
-5.37467715115071
30
0
41
1
10
29.2936100201484
20
-5.2553817076784
30
0
41
1
10
28.672015159707
20
-5.0091155356491
30
0
41
1
10
28.3613443878453
20
-4.88214529669668
30
0
41
1
10
27.7398606925724
20
-4.62108695615251
30
0
41
1
10
27.4290460714477
20
-4.48700277901324
30
0
41
1
10
26.962501358579
20
-4.280850775369
30
0
41
1
10
26.8069324677988
20
-4.21129600096472
30
0
41
1
10
26.4956443721878
20
-4.0705727638682
30
0
41
1
10
26.3398734096361
20
-3.99938013825047
30
0
41
1
10
25.8728592854983
20
-3.78374625650997
30
0
41
1
10
25.5618069237905
20
-3.63720138092137
30
0
41
1
10
24.9400151048048
20
-3.33898854627773
30
0
41
1
10
24.6292747480306
20
-3.18732114723721
30
0
41
1
10
23.6969582336018
20
-2.72558637968155
30
0
41
1
10
23.0752823671758
20
-2.40879723847996
30
0
41
1
10
22.4522809528548
20
-2.08508037356179
30
0
0
SPLINE
5
F2
100
AcDbEntity
8
1
62
256
6
ByLayer
370
18
48
1
60
0
100
AcDbSpline
70
4
71
3
72
16
73
12
40
0
40
0
40
0
40
0
40
0.249999999999998
40
0.249999999999998
40
0.374999999999997
40
0.374999999999997
40
0.499999999999996
40
0.499999999999996
40
0.749999999999998
40
0.749999999999998
40
1
40
1
40
1
40
1
41
1
10
22.4522809528548
20
-2.08508037356179
30
0
41
1
10
22.4443262163102
20
-2.08094702439712
30
0
41
1
10
22.437124530505
20
-2.07588909136174
30
0
41
1
10
22.4274204490458
20
-2.06695103989438
30
0
41
1
10
22.4243566402857
20
-2.06372068529919
30
0
41
1
10
22.418778148805
20
-2.05697537513458
30
0
41
1
10
22.4162427421684
20
-2.05344599995544
30
0
41
1
10
22.4093871499215
20
-2.04239382864051
30
0
41
1
10
22.4057968881941
20
-2.03430214729769
30
0
41
1
10
22.4010542783375
20
-2.01774247475888
30
0
41
1
10
22.3998270174896
20
-2.00912586797992
30
0
41
1
10
22.3998270174896
20
-2.00041193704362
30
0
0
SPLINE
5
F3
100
AcDbEntity
8
1
62
256
6
ByLayer
370
18
48
1
60
0
100
AcDbSpline
70
4
71
3
72
26
73
22
40
0
40
0
40
0
40
0
40
0.124999999999966
40
0.124999999999966
40
0.187499999999971
40
0.187499999999971
40
0.249999999999977
40
0.249999999999977
40
0.374999999999883
40
0.374999999999883
40
0.49999999999979
40
0.49999999999979
40
0.624999999999696
40
0.624999999999696
40
0.687499999999747
40
0.687499999999747
40
0.749999999999797
40
0.749999999999797
40
0.874999999999899
40
0.874999999999899
40
1
40
1
40
1
40
1
41
1
10
22.3998270174896
20
6.62357360681986
30
0
41
1
10
22.3998270174896
20
6.62763947153613
30
0
41
1
10
22.4009430232919
20
6.63160489561463
30
0
41
1
10
22.4042403368477
20
6.63740885258375
30
0
41
1
10
22.405626986598
20
6.63933238558886
30
0
41
1
10
22.4088941948415
20
6.64303807827207
30
0
41
1
10
22.4107730817979
20
6.64482556304313
30
0
41
1
10
22.4171304818825
20
6.6499974386293
30
0
41
1
10
22.4224171076696
20
6.65323199328205
30
0
41
1
10
22.4344545332502
20
6.65888568060606
30
0
41
1
10
22.4412488173579
20
6.66134581232888
30
0
41
1
10
22.4561487198467
20
6.665422568157
30
0
41
1
10
22.4640247250839
20
6.66698448125703
30
0
41
1
10
22.4764690966995
20
6.66862792033947
30
0
41
1
10
22.4807418930548
20
6.66905719995657
30
0
41
1
10
22.489262085408
20
6.669652851764
30
0
41
1
10
22.4935368416383
20
6.66982392452545
30
0
41
1
10
22.5064045529769
20
6.66996184306203
30
0
41
1
10
22.5151429929011
20
6.66953901280812
30
0
41
1
10
22.5318249150125
20
6.66771403768448
30
0
41
1
10
22.5399088073551
20
6.66631193783871
30
0
41
1
10
22.5475532281686
20
6.66442687752803
30
0
0
SPLINE
5
F4
100
AcDbEntity
8
1
62
256
6
ByLayer
370
18
48
1
60
0
100
AcDbSpline
70
4
71
3
72
101
73
97
40
0
40
0
40
0
40
0
40
0.0503486649695192
40
0.0503486649695192
40
0.0629358312118996
40
0.0629358312118996
40
0.07552299745428
40
0.07552299745428
40
0.10069732993904
40
0.10069732993904
40
0.1258716624238
40
0.1258716624238
40
0.15104599490856
40
0.15104599490856
40
0.17622032739332
40
0.17622032739332
40
0.1888074936357
40
0.1888074936357
40
0.201394659878081
40
0.201394659878081
40
0.251743324847602
40
0.251743324847602
40
0.276917657332362
40
0.276917657332362
40
0.302091989817122
40
0.302091989817122
40
0.314679156059502
40
0.314679156059502
40
0.327266322301882
40
0.327266322301882
40
0.352440654786642
40
0.352440654786642
40
0.377614987271402
40
0.377614987271402
40
0.402789319756162
40
0.402789319756162
40
0.427963652240922
40
0.427963652240922
40
0.440550818483302
40
0.440550818483302
40
0.453137984725681
40
0.453137984725681
40
0.478312317210441
40
0.478312317210441
40
0.503486649695201
40
0.503486649695201
40
0.528660982179961
40
0.528660982179961
40
0.541248148422342
40
0.541248148422342
40
0.553835314664722
40
0.553835314664722
40
0.579009647149482
40
0.579009647149482
40
0.591596813391862
40
0.591596813391862
40
0.604183979634242
40
0.604183979634242
40
0.654532644603762
40
0.654532644603762
40
0.667119810846142
40
0.667119810846142
40
0.679706977088522
40
0.679706977088522
40
0.692294143330902
40
0.692294143330902
40
0.704881309573283
40
0.704881309573283
40
0.730055642058042
40
0.730055642058042
40
0.755229974542801
40
0.755229974542801
40
0.767817140785181
40
0.767817140785181
40
0.780404307027561
40
0.792991473269941
40
0.792991473269941
40
0.805578639512321
40
0.805578639512321
40
0.830752971997081
40
0.830752971997081
40
0.855927304481841
40
0.855927304481841
40
0.881101636966601
40
0.881101636966601
40
0.906275969451361
40
0.906275969451361
40
0.918863135693741
40
0.918863135693741
40
0.931450301936121
40
0.931450301936121
40
0.956624634420879
40
0.956624634420879
40
0.981798966905637
40
0.981798966905637
40
1
40
1
40
1
40
1
41
1
10
22.5475532281686
20
6.66442687752806
30
0
41
1
10
23.1691082776124
20
6.51115578175902
30
0
41
1
10
23.7907776418922
20
6.33845261214509
30
0
41
1
10
24.568655145818
20
6.09924229742498
30
0
41
1
10
24.7243121610038
20
6.05021469870087
30
0
41
1
10
25.0353517863287
20
5.94991256423356
30
0
41
1
10
25.1907585774866
20
5.89862877473337
30
0
41
1
10
25.6566526724391
20
5.74138993623376
30
0
41
1
10
25.9668483624134
20
5.63208003219046
30
0
41
1
10
26.5872279571961
20
5.40547686107354
30
0
41
1
10
26.8973897215866
20
5.28816340774904
30
0
41
1
10
27.5179208433508
20
5.04590115181065
30
0
41
1
10
27.8282813060861
20
4.92094298724669
30
0
41
1
10
28.449275683514
20
4.66346767557889
30
0
41
1
10
28.7599406491268
20
4.53099725889754
30
0
41
1
10
29.2261520171051
20
4.32655419174694
30
0
41
1
10
29.3816044667108
20
4.25744582661397
30
0
41
1
10
29.6921925121924
20
4.11773682073832
30
0
41
1
10
29.8473952531222
20
4.04711222794177
30
0
41
1
10
30.6233428905101
20
3.69076961058136
30
0
41
1
10
31.2437569818947
20
3.39521974828978
30
0
41
1
10
32.1745449700418
20
2.93749455611902
30
0
41
1
10
32.4848388919522
20
2.78252061027703
30
0
41
1
10
33.1055411352996
20
2.46782079251113
30
0
41
1
10
33.4159683791831
20
2.30812207903861
30
0
41
1
10
33.8822464764951
20
2.06594589356504
30
0
41
1
10
34.0376916653007
20
1.98481908996217
30
0
41
1
10
34.3483000077335
20
1.82192795005315
30
0
41
1
10
34.5035109388493
20
1.74013819773003
30
0
41
1
10
34.968873474874
20
1.49375351788768
30
0
41
1
10
35.2787813075819
20
1.32818950298929
30
0
41
1
10
35.8988692186329
20
0.996171524216663
30
0
41
1
10
36.2090221324785
20
0.829670302855277
30
0
41
1
10
36.8294973916811
20
0.495603616894073
30
0
41
1
10
37.1398216387858
20
0.328041272532431
30
0
41
1
10
37.760751263391
20
-0.0079489329609146
30
0
41
1
10
38.071377521998
20
-0.176402424335549
30
0
41
1
10
38.5374134073941
20
-0.429766266523245
30
0
41
1
10
38.6926026922619
20
-0.514217256217592
30
0
41
1
10
39.0029109250797
20
-0.682662455640696
30
0
41
1
10
39.1580238774005
20
-0.76666825202426
30
0
41
1
10
39.6232974743191
20
-1.01793372360535
30
0
41
1
10
39.9333857273094
20
-1.18445582048551
30
0
41
1
10
40.5534064409847
20
-1.51547997286556
30
0
41
1
10
40.8633471962613
20
-1.67996535463513
30
0
41
1
10
41.4834903971113
20
-2.0061604911937
30
0
41
1
10
41.793683599684
20
-2.16788840700963
30
0
41
1
10
42.2591805666888
20
-2.40837153833633
30
0
41
1
10
42.4143833624209
20
-2.48817613409284
30
0
41
1
10
42.7249363714436
20
-2.64694055950756
30
0
41
1
10
42.8803459115704
20
-2.72593004202835
30
0
41
1
10
43.3464452474589
20
-2.96122363705109
30
0
41
1
10
43.6568137908812
20
-3.1157944748376
30
0
41
1
10
44.1217467458701
20
-3.34433473559867
30
0
41
1
10
44.2766304066012
20
-3.41994433177882
30
0
41
1
10
44.5864697569784
20
-3.56959733772769
30
0
41
1
10
44.7414179844155
20
-3.64365448371044
30
0
41
1
10
45.5162411693994
20
-4.01021679187164
30
0
41
1
10
46.1363266631098
20
-4.29164324361187
30
0
41
1
10
46.9120736302335
20
-4.62801300480518
30
0
41
1
10
47.0672583304132
20
-4.69450897995964
30
0
41
1
10
47.3777230737824
20
-4.82589777836449
30
0
41
1
10
47.5330624370527
20
-4.89081511011582
30
0
41
1
10
47.8434063542733
20
-5.01880454757679
30
0
41
1
10
47.9984513460563
20
-5.08187897467553
30
0
41
1
10
48.3085689492464
20
-5.20581184382911
30
0
41
1
10
48.463633199247
20
-5.2666842098065
30
0
41
1
10
48.928779334361
20
-5.44613345309094
30
0
41
1
10
49.2388160152871
20
-5.56154319853394
30
0
41
1
10
49.8587481201254
20
-5.78398925050487
30
0
41
1
10
50.1686429412529
20
-5.89102489593211
30
0
41
1
10
50.6334298331136
20
-6.04519140201032
30
0
41
1
10
50.7883496349299
20
-6.09551511881253
30
0
41
1
10
51.0981617554232
20
-6.19402430256957
30
0
41
1
10
51.4079546439842
20
-6.29038357329586
30
0
41
1
10
51.7180439366871
20
-6.38206529135564
30
0
41
1
10
52.0284455614658
20
-6.47124705194784
30
0
41
1
10
52.1838114055331
20
-6.51459560233135
30
0
41
1
10
52.649567746905
20
-6.64073100750272
30
0
41
1
10
52.9598742801964
20
-6.71968710754203
30
0
41
1
10
53.5801560122708
20
-6.8673826358264
30
0
41
1
10
53.8901269499437
20
-6.93612830588413
30
0
41
1
10
54.5096374314781
20
-7.06344076410571
30
0
41
1
10
54.8191927790484
20
-7.12198203713484
30
0
41
1
10
55.4385790026117
20
-7.22833496685476
30
0
41
1
10
55.7484027680534
20
-7.27615776995577
30
0
41
1
10
56.2135658355423
20
-7.33970379604631
30
0
41
1
10
56.368690980499
20
-7.3595215741569
30
0
41
1
10
56.6790942048079
20
-7.39641129633259
30
0
41
1
10
56.83429446051
20
-7.41347067112838
30
0
41
1
10
57.2996059789322
20
-7.46037475456137
30
0
41
1
10
57.609656781592
20
-7.48596643571992
30
0
41
1
10
58.2296251541586
20
-7.5258977234474
30
0
41
1
10
58.5395083994251
20
-7.54024743062743
30
0
41
1
10
59.0732899818663
20
-7.55530245713163
30
0
41
1
10
59.2972288010952
20
-7.55868542801824
30
0
41
1
10
59.5211438516409
20
-7.55911211470229
30
0
0
SPLINE
5
F5
100
AcDbEntity
8
1
62
256
6
ByLayer
370
18
48
1
60
0
100
AcDbSpline
70
4
71
3
72
125
73
121
40
0
40
0
40
0
40
0
40
0.0044922406747268
40
0.0044922406747268
40
0.026089579701197
40
0.026089579701197
40
0.0476869187276673
40
0.0476869187276673
40
0.0692842577541375
40
0.0692842577541375
40
0.0908815967806077
40
0.0908815967806077
40
0.112478935807078
40
0.112478935807078
40
0.134076274833548
40
0.134076274833548
40
0.155673613860018
40
0.155673613860018
40
0.177270952886489
40
0.177270952886489
40
0.198868291912959
40
0.198868291912959
40
0.220465630939429
40
0.220465630939429
40
0.231264300452664
40
0.231264300452664
40
0.242062969965899
40
0.242062969965899
40
0.263660308992368
40
0.263660308992368
40
0.285257648018837
40
0.285257648018837
40
0.296056317532071
40
0.296056317532071
40
0.306854987045306
40
0.306854987045306
40
0.328452326071775
40
0.328452326071775
40
0.350049665098244
40
0.350049665098244
40
0.360848334611478
40
0.360848334611478
40
0.366247669368095
40
0.366247669368095
40
0.371647004124713
40
0.371647004124713
40
0.393244343151183
40
0.393244343151183
40
0.414841682177653
40
0.414841682177653
40
0.436439021204123
40
0.436439021204123
40
0.458036360230593
40
0.458036360230593
40
0.468835029743828
40
0.468835029743828
40
0.479633699257063
40
0.479633699257063
40
0.501231038283534
40
0.501231038283534
40
0.522828377310005
40
0.522828377310005
40
0.53362704682324
40
0.53362704682324
40
0.544425716336476
40
0.544425716336476
40
0.549825051093093
40
0.549825051093093
40
0.555224385849711
40
0.566023055362946
40
0.566023055362946
40
0.587620394389417
40
0.587620394389417
40
0.609217733415888
40
0.609217733415888
40
0.630815072442358
40
0.630815072442358
40
0.652412411468829
40
0.652412411468829
40
0.6740097504953
40
0.6740097504953
40
0.695607089521771
40
0.695607089521771
40
0.717204428548241
40
0.717204428548241
40
0.728003098061477
40
0.728003098061477
40
0.733402432818095
40
0.733402432818095
40
0.738801767574713
40
0.738801767574713
40
0.760399106601186
40
0.760399106601186
40
0.771197776114422
40
0.771197776114422
40
0.781996445627659
40
0.781996445627659
40
0.803593784654133
40
0.803593784654133
40
0.825191123680606
40
0.825191123680606
40
0.835989793193843
40
0.835989793193843
40
0.84678846270708
40
0.84678846270708
40
0.868385801733553
40
0.868385801733553
40
0.889983140760027
40
0.889983140760027
40
0.911580479786501
40
0.911580479786501
40
0.933177818812975
40
0.933177818812975
40
0.954775157839449
40
0.954775157839449
40
0.976372496865923
40
0.976372496865923
40
0.997969835892396
40
0.997969835892396
40
1
40
1
40
1
40
1
41
1
10
18.0791428407816
20
7.48451636412963
30
0
41
1
10
18.1604171570663
20
7.48466294733427
30
0
41
1
10
18.2416405474517
20
7.48442214144538
30
0
41
1
10
18.7130661497588
20
7.48078406664047
30
0
41
1
10
19.1021331844448
20
7.46885683432109
30
0
41
1
10
19.878418664635
20
7.42744006984961
30
0
41
1
10
20.2656175532362
20
7.39793593229712
30
0
41
1
10
21.039052884524
20
7.32174407724801
30
0
41
1
10
21.4254002874643
20
7.2751144946987
30
0
41
1
10
22.1975368732863
20
7.16501013861432
30
0
41
1
10
22.5833222420905
20
7.10152380728908
30
0
41
1
10
23.3548862056253
20
6.95796350774592
30
0
41
1
10
23.7406369935459
20
6.87785832813509
30
0
41
1
10
24.5131578488673
20
6.70173746753494
30
0
41
1
10
24.8999196313657
20
6.60573793714687
30
0
41
1
10
25.6746273135566
20
6.39789476751852
30
0
41
1
10
26.0625925324458
20
6.28605865705782
30
0
41
1
10
26.8403767380744
20
6.04691834210397
30
0
41
1
10
27.2302158405735
20
5.91962524889166
30
0
41
1
10
28.0128293248503
20
5.65057426280805
30
0
41
1
10
28.4029340157703
20
5.50957673237309
30
0
41
1
10
29.1808709525163
20
5.21534776418071
30
0
41
1
10
29.5687489707688
20
5.06210843391551
30
0
41
1
10
30.1494691960245
20
4.8238866953333
30
0
41
1
10
30.3428637691421
20
4.74309124500226
30
0
41
1
10
30.7294546991243
20
4.5789726462618
30
0
41
1
10
30.9226514751903
20
4.4956510927986
30
0
41
1
10
31.5019680181426
20
4.24195242875808
30
0
41
1
10
31.8877774609276
20
4.0677854037786
30
0
41
1
10
32.6590549612044
20
3.71011347646109
30
0
41
1
10
33.0445153257101
20
3.52659160946743
30
0
41
1
10
33.6230466079335
20
3.24525978130563
30
0
41
1
10
33.8159640556398
20
3.15050340341841
30
0
41
1
10
34.2020520029668
20
2.95921405635633
30
0
41
1
10
34.395213646148
20
2.86266647368566
30
0
41
1
10
34.975053374811
20
2.57030848786408
30
0
41
1
10
35.36209327827
20
2.37179412725547
30
0
41
1
10
36.1376787999478
20
1.96840816008753
30
0
41
1
10
36.5261974893098
20
1.76348004615798
30
0
41
1
10
37.1108341404702
20
1.45258157711467
30
0
41
1
10
37.3060356079934
20
1.34839099462778
30
0
41
1
10
37.5993460779481
20
1.19130387293359
30
0
41
1
10
37.6970898147027
20
1.1388639582984
30
0
41
1
10
37.892364637758
20
1.03391889981253
30
0
41
1
10
37.9899219654649
20
0.981401166908313
30
0
41
1
10
38.4773277765128
20
0.718622653079507
30
0
41
1
10
38.866021427127
20
0.50776818574289
30
0
41
1
10
39.6415578493373
20
0.0859410770328566
30
0
41
1
10
40.0283898481175
20
-0.125049831743183
30
0
41
1
10
40.8012689587421
20
-0.545152222110175
30
0
41
1
10
41.1872483932777
20
-0.754396014664252
30
0
41
1
10
41.9585465637181
20
-1.17079979194352
30
0
41
1
10
42.3438808211137
20
-1.37792890323735
30
0
41
1
10
42.9218945385404
20
-1.6861112506931
30
0
41
1
10
43.1145705245424
20
-1.78841510443743
30
0
41
1
10
43.500077218064
20
-1.99190980281153
30
0
41
1
10
43.6929187306056
20
-2.09308123756872
30
0
41
1
10
44.2717728490539
20
-2.39475036044044
30
0
41
1
10
44.6580582170114
20
-2.59350606671805
30
0
41
1
10
45.4318015350712
20
-2.9855397399796
30
0
41
1
10
45.8192619614743
20
-3.17881158043045
30
0
41
1
10
46.401906497905
20
-3.46355662176751
30
0
41
1
10
46.5963722284112
20
-3.55759624877896
30
0
41
1
10
46.9859503647146
20
-3.74366790854393
30
0
41
1
10
47.1810590650586
20
-3.8357067287385
30
0
41
1
10
47.4742054898292
20
-3.97225729713989
30
0
41
1
10
47.5719034005944
20
-4.01747732624693
30
0
41
1
10
47.7670762247919
20
-4.10722311985697
30
0
41
1
10
48.059593693645
20
-4.24084175641289
30
0
41
1
10
48.3514146344954
20
-4.37142887421686
30
0
41
1
10
48.9342434986836
20
-4.62841153664027
30
0
41
1
10
49.3216839287097
20
-4.79418200520104
30
0
41
1
10
50.0952528367625
20
-5.11341784945881
30
0
41
1
10
50.4814884044294
20
-5.26674416401127
30
0
41
1
10
51.2530835829766
20
-5.56066378187762
30
0
41
1
10
51.6384390691022
20
-5.70125514216792
30
0
41
1
10
52.4088269251696
20
-5.96900322014903
30
0
41
1
10
52.7938314111655
20
-6.09618286394024
30
0
41
1
10
53.5645178970367
20
-6.33595608075166
30
0
41
1
10
53.9501975909923
20
-6.44856966563469
30
0
41
1
10
54.7224349640935
20
-6.65897642947385
30
0
41
1
10
55.1090105924388
20
-6.75674450636211
30
0
41
1
10
55.8836947508838
20
-6.93666605806337
30
0
41
1
10
56.2718166358791
20
-7.01879957369326
30
0
41
1
10
56.8559447747229
20
-7.12953983469316
30
0
41
1
10
57.0509607700136
20
-7.16439155665
30
0
41
1
10
57.3439576949863
20
-7.21354230945764
30
0
41
1
10
57.441592664526
20
-7.22938502730744
30
0
41
1
10
57.636648769059
20
-7.25996226907432
30
0
41
1
10
57.7340953477088
20
-7.27470107621497
30
0
41
1
10
58.2209402643143
20
-7.34564682455314
30
0
41
1
10
58.6091657522403
20
-7.39361061474989
30
0
41
1
10
59.190161846869
20
-7.45230713825518
30
0
41
1
10
59.3836064243387
20
-7.4696630158214
30
0
41
1
10
59.7702119077783
20
-7.49994042781961
30
0
41
1
10
59.9633744720834
20
-7.5128633411515
30
0
41
1
10
60.5424759032119
20
-7.54502338344426
30
0
41
1
10
60.9279916233368
20
-7.55765904334109
30
0
41
1
10
61.6983873768209
20
-7.56533227014083
30
0
41
1
10
62.0832612093425
20
-7.56036173087287
30
0
41
1
10
62.6606739450918
20
-7.53970904588806
30
0
41
1
10
62.8531770192557
20
-7.53062805901726
30
0
41
1
10
63.2383599175329
20
-7.5080974017755
30
0
41
1
10
63.4310319431206
20
-7.49464752790016
30
0
41
1
10
64.0092956222443
20
-7.44773486083128
30
0
41
1
10
64.39514112554
20
-7.40770884857801
30
0
41
1
10
65.1680433306554
20
-7.31014780370279
30
0
41
1
10
65.5550751256935
20
-7.25259000362584
30
0
41
1
10
66.331275937673
20
-7.12017844769434
30
0
41
1
10
66.720511769175
20
-7.04538661282569
30
0
41
1
10
67.50149433526
20
-6.87849661191268
30
0
41
1
10
67.8906542940094
20
-6.78694985604014
30
0
41
1
10
68.6667698532482
20
-6.58840379832964
30
0
41
1
10
69.0537343303158
20
-6.48137402463755
30
0
41
1
10
69.826554992005
20
-6.25303633282999
30
0
41
1
10
70.2123623880669
20
-6.13169375009949
30
0
41
1
10
70.9830427979286
20
-5.8750624950921
30
0
41
1
10
71.3679316870091
20
-5.73978495031983
30
0
41
1
10
71.7888518638368
20
-5.58458926963576
30
0
41
1
10
71.8250180392679
20
-5.57119646575077
30
0
41
1
10
71.8611837248346
20
-5.55774636666544
30
0
0
SPLINE
5
F6
100
AcDbEntity
8
1
62
256
6
ByLayer
370
18
48
1
60
0
100
AcDbSpline
70
4
71
3
72
103
73
99
40
0
40
0
40
0
40
0
40
0.0288905001916487
40
0.0288905001916487
40
0.0462317412596587
40
0.0462317412596587
40
0.0549023617936636
40
0.0549023617936636
40
0.0635729823276686
40
0.0982554644636867
40
0.0982554644636867
40
0.115596705531695
40
0.115596705531695
40
0.1242673260657
40
0.1242673260657
40
0.132937946599704
40
0.132937946599704
40
0.167620428735721
40
0.167620428735721
40
0.184961669803729
40
0.184961669803729
40
0.193632290337732
40
0.193632290337732
40
0.202302910871736
40
0.202302910871736
40
0.236985393007752
40
0.236985393007752
40
0.25432663407576
40
0.25432663407576
40
0.262997254609763
40
0.262997254609763
40
0.271667875143766
40
0.306350357279781
40
0.306350357279781
40
0.341032839415797
40
0.341032839415797
40
0.3497034599498
40
0.3497034599498
40
0.358374080483804
40
0.375715321551811
40
0.375715321551811
40
0.410397803687824
40
0.410397803687824
40
0.427739044755831
40
0.427739044755831
40
0.436409665289834
40
0.436409665289834
40
0.445080285823838
40
0.47976276795985
40
0.47976276795985
40
0.497104009027856
40
0.497104009027856
40
0.514445250095862
40
0.523115870629865
40
0.523115870629865
40
0.531786491163868
40
0.531786491163868
40
0.549127732231873
40
0.566468973299878
40
0.566468973299878
40
0.575139593833881
40
0.575139593833881
40
0.583810214367884
40
0.583810214367884
40
0.653175178639903
40
0.653175178639903
40
0.661845799173905
40
0.661845799173905
40
0.670516419707908
40
0.687857660775913
40
0.687857660775913
40
0.705198901843918
40
0.705198901843918
40
0.722540142911923
40
0.722540142911923
40
0.791905107183944
40
0.791905107183944
40
0.800575727717947
40
0.800575727717947
40
0.80924634825195
40
0.826587589319954
40
0.826587589319954
40
0.861270071455964
40
0.861270071455964
40
0.878611312523968
40
0.878611312523968
40
0.887281933057971
40
0.887281933057971
40
0.895952553591973
40
0.930635035727981
40
0.930635035727981
40
0.939305656261984
40
0.939305656261984
40
0.947976276795987
40
0.947976276795987
40
0.965317517863992
40
0.965317517863992
40
1
40
1
40
1
40
1
41
1
10
28.3208470742466
20
5.53268189560433
30
0
41
1
10
28.8395941729911
20
5.72287388391555
30
0
41
1
10
29.3579753476345
20
5.90131860472414
30
0
41
1
10
30.1880207696967
20
6.1667991102621
30
0
41
1
10
30.4994804387537
20
6.26185909741193
30
0
41
1
10
30.9670788225008
20
6.39739178155912
30
0
41
1
10
31.123031415737
20
6.44139706614479
30
0
41
1
10
31.4346978343963
20
6.5268966078342
30
0
41
1
10
32.213521497841
20
6.73444162703359
30
0
41
1
10
32.9911431067929
20
6.91057145383229
30
0
41
1
10
33.9249719427111
20
7.09034538560732
30
0
41
1
10
34.236363718032
20
7.14500480130869
30
0
41
1
10
34.7038692848634
20
7.21891092826763
30
0
41
1
10
34.8597604943438
20
7.24219580294181
30
0
41
1
10
35.1713048524883
20
7.28598707878805
30
0
41
1
10
35.3270098351936
20
7.306501903911
30
0
41
1
10
36.1053040778677
20
7.40213825035306
30
0
41
1
10
36.7272221434725
20
7.45643747817152
30
0
41
1
10
37.6608964926515
20
7.50403562183132
30
0
41
1
10
37.9722522895678
20
7.51426022696793
30
0
41
1
10
38.4397233229468
20
7.52106872402737
30
0
41
1
10
38.5955639412423
20
7.52191514573954
30
0
41
1
10
38.9070312060826
20
7.52076381462115
30
0
41
1
10
39.0627004615855
20
7.51876678028469
30
0
41
1
10
39.8408283077527
20
7.5016931977128
30
0
41
1
10
40.462646562052
20
7.46535312778451
30
0
41
1
10
41.3962046092325
20
7.37719497694172
30
0
41
1
10
41.7075286419407
20
7.34220055130206
30
0
41
1
10
42.1749632947145
20
7.28134786136698
30
0
41
1
10
42.3307236612918
20
7.25968612475208
30
0
41
1
10
42.6420158006441
20
7.21365827272572
30
0
41
1
10
43.4198087511164
20
7.09181220287479
30
0
41
1
10
44.1958916260163
20
6.9364174136968
30
0
41
1
10
45.4380190075402
20
6.64674000889181
30
0
41
1
10
46.059298737988
20
6.48139733294931
30
0
41
1
10
46.8377254077495
20
6.25028335589533
30
0
41
1
10
46.9935566962346
20
6.20282060457916
30
0
41
1
10
47.3049276888726
20
6.10564489363631
30
0
41
1
10
47.7716932877533
20
5.95646521062667
30
0
41
1
10
48.2377668511813
20
5.7972624326255
30
0
41
1
10
49.1694784222926
20
5.46610625557463
30
0
41
1
10
49.790042024424
20
5.22833595113184
30
0
41
1
10
50.7219632208167
20
4.84867856184789
30
0
41
1
10
51.0327797018895
20
4.71828879776933
30
0
41
1
10
51.4995043218753
20
4.51725377397923
30
0
41
1
10
51.655188133376
20
4.44932260451313
30
0
41
1
10
51.9666527009027
20
4.31174577005976
30
0
41
1
10
52.7450515830047
20
3.96373790293182
30
0
41
1
10
53.5226728713338
20
3.59623817562107
30
0
41
1
10
54.4569615197094
20
3.13950370379919
30
0
41
1
10
54.768224577763
20
2.98481109756625
30
0
41
1
10
55.3905681626743
20
2.6711703862903
30
0
41
1
10
55.8572319155156
20
2.43272759858951
30
0
41
1
10
56.3241237700205
20
2.19009947165537
30
0
41
1
10
56.6354767331084
20
2.02748802882221
30
0
41
1
10
56.7911770776637
20
1.94576392546995
30
0
41
1
10
57.2580687277688
20
1.69962505770909
30
0
41
1
10
57.8802904975968
20
1.36873254498698
30
0
41
1
10
58.5025325731977
20
1.03354515583499
30
0
41
1
10
58.9694610383896
20
0.78097565149946
30
0
41
1
10
59.1251658932283
20
0.696578081531896
30
0
41
1
10
59.436288233652
20
0.52768688469547
30
0
41
1
10
59.5917550636224
20
0.443166633210097
30
0
41
1
10
60.9902906307435
20
-0.317850012868178
30
0
41
1
10
62.2287058633933
20
-0.99666887831404
30
0
41
1
10
63.6281418946952
20
-1.74176740965615
30
0
41
1
10
63.7837672631245
20
-1.82432182802324
30
0
41
1
10
64.0950040099165
20
-1.98871936472489
30
0
41
1
10
64.5617119761115
20
-2.23418247547292
30
0
41
1
10
65.0281569172557
20
-2.4759352151786
30
0
41
1
10
65.6501632873159
20
-2.79442808873725
30
0
41
1
10
65.9612412361888
20
-2.95176986177637
30
0
41
1
10
66.5836590579607
20
-3.26197320702352
30
0
41
1
10
66.8944469078983
20
-3.41455905125756
30
0
41
1
10
68.4471061736035
20
-4.16362723055761
30
0
41
1
10
69.6851879920664
20
-4.71843361266556
30
0
41
1
10
71.084838553272
20
-5.27520107368014
30
0
41
1
10
71.2404381251816
20
-5.33612146257147
30
0
41
1
10
71.5513147573959
20
-5.45581900985289
30
0
41
1
10
72.0173526073482
20
-5.63223322859986
30
0
41
1
10
72.4827396362064
20
-5.79904846806124
30
0
41
1
10
73.413134224766
20
-6.1193375354996
30
0
41
1
10
74.0328930049438
20
-6.31506952107517
30
0
41
1
10
74.9637412570148
20
-6.57984841794243
30
0
41
1
10
75.274223561708
20
-6.66330819315644
30
0
41
1
10
75.7404733935567
20
-6.78105230782924
30
0
41
1
10
75.896036395281
20
-6.81907270400578
30
0
41
1
10
76.2070237280477
20
-6.89250610040062
30
0
41
1
10
76.984153909388
20
-7.06958006540057
30
0
41
1
10
77.7600912080466
20
-7.21377367449409
30
0
41
1
10
78.5367156198962
20
-7.33063677014499
30
0
41
1
10
78.6920749276879
20
-7.35264309248731
30
0
41
1
10
79.0029033932123
20
-7.39389855205334
30
0
41
1
10
79.1584180775523
20
-7.41315273006879
30
0
41
1
10
79.6248285065012
20
-7.46670340632048
30
0
41
1
10
79.935492870522
20
-7.49678071399521
30
0
41
1
10
80.8671473715362
20
-7.57004312010042
30
0
41
1
10
81.4878130617135
20
-7.59625520114821
30
0
41
1
10
82.1093072236343
20
-7.59960690530372
30
0
0
SPLINE
5
F7
100
AcDbEntity
8
1
62
256
6
ByLayer
370
18
48
1
60
0
100
AcDbSpline
70
4
71
3
72
12
73
8
40
0
40
0
40
0
40
0
40
0.499999999999997
40
0.499999999999997
40
0.749999999999999
40
0.749999999999999
40
1
40
1
40
1
40
1
41
1
10
82.0544279809289
20
-7.53472284895065
30
0
41
1
10
82.0635476394672
20
-7.55525696757144
30
0
41
1
10
82.0726774347841
20
-7.57094865152831
30
0
41
1
10
82.0864080646873
20
-7.58719477908789
30
0
41
1
10
82.0909939514805
20
-7.59139522299316
30
0
41
1
10
82.1001559339713
20
-7.59733742222747
30
0
41
1
10
82.1047333679807
20
-7.59908264503912
30
0
41
1
10
82.1093072236343
20
-7.59960690530372
30
0
0
SPLINE
5
F8
100
AcDbEntity
8
1
62
256
6
ByLayer
370
18
48
1
60
0
100
AcDbSpline
70
4
71
3
72
87
73
83
40
0
40
0
40
0
40
0
40
0.0223010193698293
40
0.0334515290547432
40
0.0334515290547432
40
0.0446020387396571
40
0.0446020387396571
40
0.0892040774793157
40
0.0892040774793157
40
0.133806116218974
40
0.133806116218974
40
0.144956625903889
40
0.144956625903889
40
0.156107135588804
40
0.156107135588804
40
0.178408154958634
40
0.178408154958634
40
0.200709174328464
40
0.200709174328464
40
0.223010193698294
40
0.223010193698294
40
0.245311213068124
40
0.245311213068124
40
0.256461722753039
40
0.256461722753039
40
0.267612232437954
40
0.267612232437954
40
0.312214271177616
40
0.312214271177616
40
0.356816309917279
40
0.356816309917279
40
0.367966819602194
40
0.367966819602194
40
0.37911732928711
40
0.37911732928711
40
0.40141834865694
40
0.40141834865694
40
0.446020387396601
40
0.446020387396601
40
0.468321406766431
40
0.468321406766431
40
0.479471916451346
40
0.479471916451346
40
0.490622426136261
40
0.490622426136261
40
0.535224464875922
40
0.535224464875922
40
0.579826503615583
40
0.579826503615583
40
0.590977013300498
40
0.590977013300498
40
0.602127522985412
40
0.602127522985412
40
0.624428542355241
40
0.624428542355241
40
0.6690305810949
40
0.6690305810949
40
0.691331600464729
40
0.691331600464729
40
0.702482110149644
40
0.702482110149644
40
0.713632619834559
40
0.713632619834559
40
0.758234658574217
40
0.758234658574217
40
0.802836697313876
40
0.802836697313876
40
0.825137716683705
40
0.825137716683705
40
0.847438736053534
40
0.847438736053534
40
0.892040774793194
40
0.892040774793194
40
0.903191284478109
40
0.903191284478109
40
0.914341794163023
40
0.914341794163023
40
0.936642813532853
40
0.936642813532853
40
0.981244852272512
40
0.981244852272512
40
1
40
1
40
1
40
1
41
1
10
82.0544279809318
20
-7.53472284895
30
0
41
1
10
81.7441729963116
20
-7.5119557571773
30
0
41
1
10
81.2788469137018
20
-7.46932498225877
30
0
41
1
10
80.813281103714
20
-7.41410137101784
30
0
41
1
10
80.5028132420729
20
-7.37450043906964
30
0
41
1
10
80.347501440929
20
-7.35330198959821
30
0
41
1
10
79.5715640982479
20
-7.2405241132135
30
0
41
1
10
78.9521612996091
20
-7.12851310468389
30
0
41
1
10
77.7136268828745
20
-6.86269511148566
30
0
41
1
10
77.0944015467412
20
-6.7089580680715
30
0
41
1
10
76.3189656868407
20
-6.49183580885281
30
0
41
1
10
76.1638011132878
20
-6.44717014795543
30
0
41
1
10
75.8532779726971
20
-6.35538729834747
30
0
41
1
10
75.6979489401726
20
-6.30827768465957
30
0
41
1
10
75.2323896617781
20
-6.16357092318191
30
0
41
1
10
74.9223357101502
20
-6.06252244545286
30
0
41
1
10
74.3025444835596
20
-5.85167113400402
30
0
41
1
10
73.9928107217107
20
-5.74186513560028
30
0
41
1
10
73.3734034970207
20
-5.51381765799428
30
0
41
1
10
73.0637245036248
20
-5.39558110389618
30
0
41
1
10
72.4440281582679
20
-5.15116847594771
30
0
41
1
10
72.1340144584677
20
-5.02498880705491
30
0
41
1
10
71.6685148569004
20
-4.83005296870729
30
0
41
1
10
71.5132682657367
20
-4.76413024546122
30
0
41
1
10
71.2025749653063
20
-4.63044768800006
30
0
41
1
10
71.0472813379014
20
-4.56275353893338
30
0
41
1
10
70.2713008094091
20
-4.22031466610864
30
0
41
1
10
69.6517474614118
20
-3.93351944814464
30
0
41
1
10
68.41260703527
20
-3.33826006824057
30
0
41
1
10
67.7929897736038
20
-3.029841762187
30
0
41
1
10
67.0167618822052
20
-2.63352257889338
30
0
41
1
10
66.8613871213683
20
-2.55369252524858
30
0
41
1
10
66.5506433770053
20
-2.39311326991941
30
0
41
1
10
66.3953663287856
20
-2.31241177607797
30
0
41
1
10
65.9297640455615
20
-2.06917232404206
30
0
41
1
10
65.6196654207968
20
-1.90550328404521
30
0
41
1
10
64.6897729147959
20
-1.41088150344552
30
0
41
1
10
64.0703516415667
20
-1.07636924909525
30
0
41
1
10
63.1400773039301
20
-0.570911820769709
30
0
41
1
10
62.8297986694451
20
-0.401805332954467
30
0
41
1
10
62.3638593603264
20
-0.147652114129187
30
0
41
1
10
62.2083942983395
20
-0.0628166602163276
30
0
41
1
10
61.8976609055904
20
0.106721809624986
30
0
41
1
10
61.7423834550159
20
0.191429754527945
30
0
41
1
10
60.9663440925987
20
0.614483866636562
30
0
41
1
10
60.3466351364908
20
0.951389156161241
30
0
41
1
10
59.1067805363316
20
1.61724524536959
30
0
41
1
10
58.4866747078491
20
1.94626889347819
30
0
41
1
10
57.7096949408402
20
2.34972258627775
30
0
41
1
10
57.5541741328212
20
2.43004135573693
30
0
41
1
10
57.2434356638439
20
2.5895938991496
30
0
41
1
10
57.0881573247793
20
2.66885599452758
30
0
41
1
10
56.6225156060024
20
2.90496688893657
30
0
41
1
10
56.312340939806
20
3.0601325775919
30
0
41
1
10
55.3821000497593
20
3.51812987760147
30
0
41
1
10
54.7623572843676
20
3.81352550235397
30
0
41
1
10
53.8313609574012
20
4.23846075360899
30
0
41
1
10
53.5207959805997
20
4.37707677965852
30
0
41
1
10
53.0543825904008
20
4.58010711175413
30
0
41
1
10
52.8988649149824
20
4.64694588412493
30
0
41
1
10
52.588107236915
20
4.77871331144894
30
0
41
1
10
52.4328085079846
20
4.84366749762859
30
0
41
1
10
51.6566147486948
20
5.16366240739492
30
0
41
1
10
51.0367087482804
20
5.40449215153697
30
0
41
1
10
49.7962124971203
20
5.85226250492604
30
0
41
1
10
49.1756128539225
20
6.05919783105847
30
0
41
1
10
48.2422512230568
20
6.34181470109277
30
0
41
1
10
47.9315181710671
20
6.43120981053613
30
0
41
1
10
47.3105856104719
20
6.60006952697708
30
0
41
1
10
47.0003467069537
20
6.67951531139121
30
0
41
1
10
46.0697745648307
20
6.90248865192342
30
0
41
1
10
45.4495877584437
20
7.03065666050554
30
0
41
1
10
44.6730432134515
20
7.1641473027365
30
0
41
1
10
44.5176711996551
20
7.18951125347067
30
0
41
1
10
44.2067923387493
20
7.23755664209543
30
0
41
1
10
44.0512294252154
20
7.2602428992449
30
0
41
1
10
43.5846061862788
20
7.32415183462865
30
0
41
1
10
43.2738927024008
20
7.36119435883793
30
0
41
1
10
42.3423558121393
20
7.45553132787708
30
0
41
1
10
41.7220993741367
20
7.4960275644282
30
0
41
1
10
40.8404215022558
20
7.52147570165008
30
0
41
1
10
40.5793530254818
20
7.52501534449522
30
0
41
1
10
40.3181104179027
20
7.52454627228579
30
0
0
SPLINE
5
F9
100
AcDbEntity
8
1
62
256
6
ByLayer
370
18
48
1
60
0
100
AcDbSpline
70
4
71
3
72
78
73
74
40
0
40
0
40
0
40
0
40
0.009270385949665
40
0.009270385949665
40
0.0269619862005633
40
0.0269619862005633
40
0.0446535864514617
40
0.0446535864514617
40
0.0800367869532581
40
0.0800367869532581
40
0.115419987455055
40
0.115419987455055
40
0.150803187956851
40
0.150803187956851
40
0.16849478820775
40
0.16849478820775
40
0.186186388458649
40
0.186186388458649
40
0.203877988709548
40
0.203877988709548
40
0.221569588960447
40
0.221569588960447
40
0.256952789462245
40
0.256952789462245
40
0.292335989964042
40
0.292335989964042
40
0.310027590214942
40
0.310027590214942
40
0.327719190465842
40
0.327719190465842
40
0.363102390967641
40
0.363102390967641
40
0.38079399121854
40
0.38079399121854
40
0.39848559146944
40
0.39848559146944
40
0.433868791971239
40
0.433868791971239
40
0.469251992473038
40
0.469251992473038
40
0.504635192974837
40
0.504635192974837
40
0.540018393476635
40
0.540018393476635
40
0.557709993727535
40
0.557709993727535
40
0.575401593978434
40
0.575401593978434
40
0.610784794480233
40
0.610784794480233
40
0.646167994982031
40
0.646167994982031
40
0.681551195483829
40
0.681551195483829
40
0.716934395985627
40
0.716934395985627
40
0.734625996236525
40
0.734625996236525
40
0.752317596487423
40
0.78770079698922
40
0.78770079698922
40
0.805392397240118
40
0.805392397240118
40
0.823083997491015
40
0.823083997491015
40
0.858467197992813
40
0.858467197992813
40
0.876158798243711
40
0.876158798243711
40
0.893850398494609
40
0.929233598996407
40
0.929233598996407
40
1
40
1
40
1
40
1
41
1
10
55.8148222676473
20
7.28410146988134
30
0
41
1
10
55.8960342951396
20
7.29594836049441
30
0
41
1
10
55.9772631075286
20
7.30742242985645
30
0
41
1
10
56.2135658355423
20
7.33970379604634
30
0
41
1
10
56.368690980499
20
7.3595215741569
30
0
41
1
10
56.679094204808
20
7.39641129633259
30
0
41
1
10
56.8342944605101
20
7.41347067112838
30
0
41
1
10
57.2996059789322
20
7.46037475456137
30
0
41
1
10
57.6096567815921
20
7.48596643571992
30
0
41
1
10
58.2296251541587
20
7.5258977234474
30
0
41
1
10
58.5395083994252
20
7.54024743062743
30
0
41
1
10
59.1591041008655
20
7.55772279885653
30
0
41
1
10
59.4688160322319
20
7.56084691552178
30
0
41
1
10
59.9333389692425
20
7.55702576865573
30
0
41
1
10
60.0881731645603
20
7.55433384300258
30
0
41
1
10
60.3978027087087
20
7.54608361505339
30
0
41
1
10
60.552598111547
20
7.54052137573728
30
0
41
1
10
60.8625013383939
20
7.52656037074223
30
0
41
1
10
61.0176203332398
20
7.51816485002792
30
0
41
1
10
61.3281113493379
20
7.49855914413055
30
0
41
1
10
61.4833096083765
20
7.48736003308125
30
0
41
1
10
61.9487522452056
20
7.44960597909252
30
0
41
1
10
62.2588428338952
20
7.41889835365109
30
0
41
1
10
62.8786048624886
20
7.34646611939237
30
0
41
1
10
63.1882756652707
20
7.30473945599147
30
0
41
1
10
63.6525237859155
20
7.23385622842144
30
0
41
1
10
63.8072308753204
20
7.20884558714621
30
0
41
1
10
64.1165926906929
20
7.15605835515734
30
0
41
1
10
64.2712440291278
20
7.12827744977548
30
0
41
1
10
64.7355111199148
20
7.0410161231861
30
0
41
1
10
65.0454535198168
20
6.97764480637144
30
0
41
1
10
65.5108715883461
20
6.87472573434147
30
0
41
1
10
65.6661538443412
20
6.8390927590487
30
0
41
1
10
65.9766297234281
20
6.76529225231721
30
0
41
1
10
66.1317753378185
20
6.7271373466894
30
0
41
1
10
66.5969914117341
20
6.60896750353965
30
0
41
1
10
66.9068417134451
20
6.52525502373933
30
0
41
1
10
67.5258445285471
20
6.34783540129965
30
0
41
1
10
67.8349958729825
20
6.25410692985844
30
0
41
1
10
68.4536847963283
20
6.05771822780397
30
0
41
1
10
68.7632223123018
20
5.95507501586249
30
0
41
1
10
69.3827553924111
20
5.74101683174834
30
0
41
1
10
69.6927521666804
20
5.6296025223767
30
0
41
1
10
70.158183602972
20
5.45597693170049
30
0
41
1
10
70.3134608007771
20
5.39699382531111
30
0
41
1
10
70.623728362488
20
5.27704920559614
30
0
41
1
10
70.7787498087672
20
5.21607693449909
30
0
41
1
10
71.2435121249305
20
5.03020579644854
30
0
41
1
10
71.5529498387941
20
4.90234548741859
30
0
41
1
10
72.1717528916896
20
4.63977280219575
30
0
41
1
10
72.4811171765853
20
4.50506704063858
30
0
41
1
10
73.0998399967559
20
4.22893011249948
30
0
41
1
10
73.4091987467389
20
4.08749271984644
30
0
41
1
10
74.0285175236774
20
3.79881002860699
30
0
41
1
10
74.338477014306
20
3.65157043500443
30
0
41
1
10
74.8039204401642
20
3.42643560544772
30
0
41
1
10
74.9591675881427
20
3.35067095121514
30
0
41
1
10
75.2693670685671
20
3.19798134911721
30
0
41
1
10
75.7344038502134
20
2.96712168182464
30
0
41
1
10
76.1987434396561
20
2.73093735078192
30
0
41
1
10
76.6627725925885
20
2.49144958508396
30
0
41
1
10
76.8173908548158
20
2.41105793973202
30
0
41
1
10
77.1267418859553
20
2.24955032321392
30
0
41
1
10
77.2814832288154
20
2.16845009578088
30
0
41
1
10
77.745895192053
20
1.92410060935239
30
0
41
1
10
78.0557442336063
20
1.75978635893631
30
0
41
1
10
78.5209763820152
20
1.51137014369115
30
0
41
1
10
78.6761808977333
20
1.42821511281031
30
0
41
1
10
78.986514122166
20
1.26142156312073
30
0
41
1
10
79.4517624616435
20
1.01058219755819
30
0
41
1
10
79.9163398718915
20
0.757948707465687
30
0
41
1
10
80.8448915003852
20
0.250818208183887
30
0
41
1
10
81.4631115041802
20
-0.0897718975139412
30
0
41
1
10
82.081637974369
20
-0.430837158140861
30
0
0
SPLINE
5
FA
100
AcDbEntity
8
1
62
256
6
ByLayer
370
18
48
1
60
0
100
AcDbSpline
70
4
71
3
72
8
73
4
40
0
40
0
40
0
40
0
40
1
40
1
40
1
40
1
41
1
10
82.081637974361
20
-0.430837158137677
30
0
41
1
10
82.1202441387355
20
-0.0989310000475143
30
0
41
1
10
82.1659948481755
20
0.231082651530329
30
0
41
1
10
82.2204949533027
20
0.55898302879416
30
0
0
SPLINE
5
FB
100
AcDbEntity
8
1
62
256
6
ByLayer
370
18
48
1
60
0
100
AcDbSpline
70
4
71
3
72
48
73
44
40
0
40
0
40
0
40
0
40
0.0568278696227259
40
0.0568278696227259
40
0.113655739245452
40
0.113655739245452
40
0.170483608868178
40
0.170483608868178
40
0.227311478490904
40
0.227311478490904
40
0.28413934811363
40
0.28413934811363
40
0.312553282924993
40
0.312553282924993
40
0.340967217736356
40
0.340967217736356
40
0.397795087359085
40
0.397795087359085
40
0.454622956981813
40
0.454622956981813
40
0.468829924387495
40
0.468829924387495
40
0.483036891793177
40
0.483036891793177
40
0.51145082660454
40
0.51145082660454
40
0.568278696227265
40
0.568278696227265
40
0.62510656584999
40
0.62510656584999
40
0.681934435472715
40
0.681934435472715
40
0.738762305095441
40
0.738762305095441
40
0.795590174718166
40
0.795590174718166
40
0.852418044340891
40
0.852418044340891
40
0.909245913963616
40
0.909245913963616
40
0.966073783586341
40
0.966073783586341
40
1
40
1
40
1
40
1
41
1
10
7.8443175780427
20
-5.51260532040058
30
0
41
1
10
8.23627345370582
20
-5.65539429857608
30
0
41
1
10
8.62681605910382
20
-5.79127591416523
30
0
41
1
10
9.40562666011132
20
-6.04870073550518
30
0
41
1
10
9.79383527919396
20
-6.17030148468174
30
0
41
1
10
10.5689140875899
20
-6.39823025894506
30
0
41
1
10
10.95578995789
20
-6.50455862041633
30
0
41
1
10
11.7290371463099
20
-6.70134871669836
30
0
41
1
10
12.1153758427223
20
-6.79185391264255
30
0
41
1
10
12.887704931257
20
-6.95695466618423
30
0
41
1
10
13.2737128915351
20
-7.03152682575077
30
0
41
1
10
13.8529752229638
20
-7.13103080052528
30
0
41
1
10
14.0461076695088
20
-7.16213728639636
30
0
41
1
10
14.4326093412024
20
-7.22013827212996
30
0
41
1
10
14.6259906079395
20
-7.2470277988545
30
0
41
1
10
15.2065896961178
20
-7.32132893923782
30
0
41
1
10
15.5942015966006
20
-7.36240404380271
30
0
41
1
10
16.3709102415222
20
-7.4272763781801
30
0
41
1
10
16.76001029304
20
-7.45106305379289
30
0
41
1
10
17.2478060560109
20
-7.46968098228933
30
0
41
1
10
17.3454374900613
20
-7.47284880882762
30
0
41
1
10
17.5408669032411
20
-7.47806616551779
30
0
41
1
10
17.6386932650977
20
-7.48011604860875
30
0
41
1
10
17.9322661311508
20
-7.48457908664562
30
0
41
1
10
18.1276865455992
20
-7.48530154464504
30
0
41
1
10
18.7130661497588
20
-7.48078406664047
30
0
41
1
10
19.1021331844448
20
-7.46885683432109
30
0
41
1
10
19.8784186646349
20
-7.42744006984961
30
0
41
1
10
20.2656175532362
20
-7.39793593229712
30
0
41
1
10
21.039052884524
20
-7.32174407724804
30
0
41
1
10
21.4254002874643
20
-7.2751144946987
30
0
41
1
10
22.1975368732863
20
-7.16501013861432
30
0
41
1
10
22.5833222420905
20
-7.10152380728911
30
0
41
1
10
23.3548862056252
20
-6.95796350774592
30
0
41
1
10
23.7406369935459
20
-6.87785832813506
30
0
41
1
10
24.5131578488673
20
-6.70173746753494
30
0
41
1
10
24.8999196313657
20
-6.60573793714687
30
0
41
1
10
25.6746273135566
20
-6.39789476751855
30
0
41
1
10
26.0625925324458
20
-6.28605865705782
30
0
41
1
10
26.8403767380743
20
-6.04691834210402
30
0
41
1
10
27.2302158405734
20
-5.91962524889169
30
0
41
1
10
27.8551325579941
20
-5.70478808799413
30
0
41
1
10
28.0883141119531
20
-5.62216973072088
30
0
41
1
10
28.3210812513346
20
-5.53732023724243
30
0
0
SPLINE
5
FC
100
AcDbEntity
8
1
62
256
6
ByLayer
370
18
48
1
60
0
100
AcDbSpline
70
4
71
3
72
48
73
44
40
0
40
0
40
0
40
0
40
0.0461227501764879
40
0.0461227501764879
40
0.0741779634065909
40
0.0741779634065909
40
0.102233176636694
40
0.102233176636694
40
0.158343603096901
40
0.158343603096901
40
0.214454029557107
40
0.214454029557107
40
0.270564456017314
40
0.270564456017314
40
0.326674882477521
40
0.326674882477521
40
0.382785308937727
40
0.382785308937727
40
0.438895735397933
40
0.438895735397933
40
0.49500616185814
40
0.49500616185814
40
0.551116588318346
40
0.551116588318346
40
0.607227014778553
40
0.607227014778553
40
0.663337441238759
40
0.663337441238759
40
0.691392654468862
40
0.691392654468862
40
0.719447867698966
40
0.719447867698966
40
0.747503080929069
40
0.747503080929069
40
0.775558294159172
40
0.775558294159172
40
0.831668720619379
40
0.831668720619379
40
0.887779147079586
40
0.887779147079586
40
0.943889573539793
40
0.943889573539793
40
1
40
1
40
1
40
1
41
1
10
61.5188569956771
20
7.56270732366997
30
0
41
1
10
61.8354048949409
20
7.56328400020001
30
0
41
1
10
62.1517809937579
20
7.55791094058864
30
0
41
1
10
62.6606739450918
20
7.53970904588806
30
0
41
1
10
62.8531770192557
20
7.53062805901729
30
0
41
1
10
63.2383599175329
20
7.5080974017755
30
0
41
1
10
63.4310319431206
20
7.49464752790016
30
0
41
1
10
64.0092956222443
20
7.44773486083128
30
0
41
1
10
64.3951411255399
20
7.40770884857801
30
0
41
1
10
65.1680433306553
20
7.31014780370279
30
0
41
1
10
65.5550751256935
20
7.25259000362587
30
0
41
1
10
66.331275937673
20
7.12017844769437
30
0
41
1
10
66.720511769175
20
7.04538661282569
30
0
41
1
10
67.5014943352598
20
6.87849661191271
30
0
41
1
10
67.8906542940094
20
6.78694985604017
30
0
41
1
10
68.6667698532481
20
6.58840379832967
30
0
41
1
10
69.0537343303157
20
6.48137402463755
30
0
41
1
10
69.826554992005
20
6.25303633283002
30
0
41
1
10
70.2123623880669
20
6.13169375009952
30
0
41
1
10
70.9830427979286
20
5.87506249509212
30
0
41
1
10
71.367931687009
20
5.73978495031989
30
0
41
1
10
72.1374379450714
20
5.45606358440503
30
0
41
1
10
72.5220923469511
20
5.3076608748018
30
0
41
1
10
73.2921247178108
20
4.99900173480057
30
0
41
1
10
73.6773923989261
20
4.83860407229182
30
0
41
1
10
74.4488313060825
20
4.50614453374627
30
0
41
1
10
74.8350067286991
20
4.33408287361195
30
0
41
1
10
75.4154986867263
20
4.06794692321373
30
0
41
1
10
75.6092065493403
20
3.97790336566788
30
0
41
1
10
75.9971932869507
20
3.79537938579409
30
0
41
1
10
76.1914704947416
20
3.70289759538986
30
0
41
1
10
76.580606249927
20
3.51549443745819
30
0
41
1
10
76.7755085264762
20
3.42054398934039
30
0
41
1
10
77.1657573511117
20
3.22836341910684
30
0
41
1
10
77.3606757234114
20
3.13134138305631
30
0
41
1
10
77.9449261157262
20
2.83767773860222
30
0
41
1
10
78.3337301629422
20
2.6383973265531
30
0
41
1
10
79.1108250646531
20
2.23436223352439
30
0
41
1
10
79.4992332782167
20
2.02981570155075
30
0
41
1
10
80.276057367733
20
1.61618869116756
30
0
41
1
10
80.6644610111265
20
1.40708453630762
30
0
41
1
10
81.4418314598724
20
0.985309681108049
30
0
41
1
10
81.8307693642068
20
0.772583191579542
30
0
41
1
10
82.2204949533027
20
0.55898302879416
30
0
0
SPLINE
5
FD
100
AcDbEntity
8
1
62
256
6
ByLayer
370
18
48
1
60
0
100
AcDbSpline
70
4
71
3
72
18
73
14
40
0
40
0
40
0
40
0
40
0.125000000000001
40
0.125000000000001
40
0.250000000000001
40
0.250000000000001
40
0.500000000000003
40
0.500000000000003
40
0.625000000000002
40
0.625000000000002
40
0.75
40
0.75
40
1
40
1
40
1
40
1
41
1
10
22.3998270174979
20
-3.05464738873661
30
0
41
1
10
21.9876025602641
20
-2.85065630759885
30
0
41
1
10
21.5766694519297
20
-2.64325929533814
30
0
41
1
10
20.7565605887245
20
-2.2232029079849
30
0
41
1
10
20.3473969102258
20
-2.0105215839875
30
0
41
1
10
19.1215279879794
20
-1.36649973156102
30
0
41
1
10
18.3065302909742
20
-0.929019545691148
30
0
41
1
10
17.0829422431393
20
-0.269029179693661
30
0
41
1
10
16.6749051634504
20
-0.0483905175984205
30
0
41
1
10
15.8578090821081
20
0.392896910601877
30
0
41
1
10
15.4487753810371
20
0.613594431559591
30
0
41
1
10
14.218998216379
20
1.27353579388495
30
0
41
1
10
13.3955640414177
20
1.71059767579692
30
0
41
1
10
12.5657557537735
20
2.13946778890147
30
0
0
SPLINE
5
FE
100
AcDbEntity
8
1
62
256
6
ByLayer
370
18
48
1
60
0
100
AcDbSpline
70
4
71
3
72
41
73
37
40
0
40
0
40
0
40
0
40
0.0576368876143359
40
0.0576368876143359
40
0.0864553314215029
40
0.0864553314215029
40
0.11527377522867
40
0.11527377522867
40
0.23054755045734
40
0.23054755045734
40
0.288184438071675
40
0.288184438071675
40
0.317002881878841
40
0.317002881878841
40
0.345821325686008
40
0.345821325686008
40
0.461095100914673
40
0.461095100914673
40
0.518731988529006
40
0.518731988529006
40
0.547550432336173
40
0.547550432336173
40
0.576368876143339
40
0.691642651372007
40
0.691642651372007
40
0.749279538986342
40
0.749279538986342
40
0.778097982793509
40
0.778097982793509
40
0.806916426600677
40
0.806916426600677
40
0.92219020182935
40
0.92219020182935
40
0.979827089443688
40
0.979827089443688
40
1
40
1
40
1
40
1
41
1
10
22.3998270174896
20
-2.93473746698893
30
0
41
1
10
22.7116401901467
20
-3.08993490469217
30
0
41
1
10
23.0234058455827
20
-3.24289296922086
30
0
41
1
10
23.4912518394738
20
-3.46852084548274
30
0
41
1
10
23.6472693299789
20
-3.54311684063913
30
0
41
1
10
23.9591377035857
20
-3.69086607793682
30
0
41
1
10
24.1150015387618
20
-3.76402593258089
30
0
41
1
10
24.8940564385378
20
-4.12611913769834
30
0
41
1
10
25.5164418197196
20
-4.40395534539405
30
0
41
1
10
26.4505528725705
20
-4.80015756877748
30
0
41
1
10
26.7620146597557
20
-4.92879528938886
30
0
41
1
10
27.2295975593581
20
-5.11622384196755
30
0
41
1
10
27.3855634378871
20
-5.17779339914949
30
0
41
1
10
27.6972764088083
20
-5.29887242349673
30
0
41
1
10
27.8530626520653
20
-5.35839805563728
30
0
41
1
10
28.631756372647
20
-5.65082032340766
30
0
41
1
10
29.2539860111613
20
-5.86805880847243
30
0
41
1
10
30.1880207696966
20
-6.16679911026208
30
0
41
1
10
30.4994804387536
20
-6.2618590974119
30
0
41
1
10
30.9670788225008
20
-6.39739178155909
30
0
41
1
10
31.123031415737
20
-6.44139706614476
30
0
41
1
10
31.4346978343963
20
-6.5268966078342
30
0
41
1
10
32.213521497841
20
-6.73444162703356
30
0
41
1
10
32.9911431067929
20
-6.91057145383229
30
0
41
1
10
33.9249719427111
20
-7.09034538560732
30
0
41
1
10
34.236363718032
20
-7.14500480130869
30
0
41
1
10
34.7038692848633
20
-7.21891092826763
30
0
41
1
10
34.8597604943438
20
-7.24219580294181
30
0
41
1
10
35.1713048524883
20
-7.28598707878805
30
0
41
1
10
35.3270098351936
20
-7.30650190391097
30
0
41
1
10
36.1053040778677
20
-7.40213825035306
30
0
41
1
10
36.7272221434724
20
-7.45643747817152
30
0
41
1
10
37.6608964926514
20
-7.50403562183132
30
0
41
1
10
37.9722522895677
20
-7.51426022696793
30
0
41
1
10
38.3929762190211
20
-7.52038787431289
30
0
41
1
10
38.5020610937345
20
-7.52127921574495
30
0
41
1
10
38.6111117625473
20
-7.52147358888621
30
0
0
SPLINE
5
FF
100
AcDbEntity
8
1
62
256
6
ByLayer
370
18
48
1
60
0
100
AcDbSpline
70
4
71
3
72
26
73
22
40
0
40
0
40
0
40
0
40
9.08608243608E-05
40
0.0909916916585087
40
0.0909916916585087
40
0.272793353326808
40
0.272793353326808
40
0.363694184160956
40
0.363694184160956
40
0.409144599578031
40
0.409144599578031
40
0.454595014995106
40
0.636396676663396
40
0.636396676663396
40
0.681847092080473
40
0.681847092080473
40
0.72729750749755
40
0.72729750749755
40
0.818198338331698
40
0.818198338331698
40
1
40
1
40
1
40
1
41
1
10
71.8610031112489
20
5.57201564632572
30
0
41
1
10
71.8613135224248
20
5.57213108040068
30
0
41
1
10
72.1721714954964
20
5.68772714720549
30
0
41
1
10
72.4827396362064
20
5.79904846806122
30
0
41
1
10
73.413134224766
20
6.11933753549957
30
0
41
1
10
74.0328930049437
20
6.31506952107515
30
0
41
1
10
74.9637412570148
20
6.5798484179424
30
0
41
1
10
75.274223561708
20
6.66330819315644
30
0
41
1
10
75.7404733935566
20
6.78105230782924
30
0
41
1
10
75.896036395281
20
6.81907270400578
30
0
41
1
10
76.2070237280477
20
6.89250610040062
30
0
41
1
10
76.984153909388
20
7.06958006540057
30
0
41
1
10
77.7600912080466
20
7.21377367449409
30
0
41
1
10
78.5367156198961
20
7.33063677014499
30
0
41
1
10
78.6920749276878
20
7.35264309248728
30
0
41
1
10
79.0029033932121
20
7.39389855205332
30
0
41
1
10
79.1584180775523
20
7.41315273006879
30
0
41
1
10
79.6248285065012
20
7.46670340632048
30
0
41
1
10
79.935492870522
20
7.49678071399521
30
0
41
1
10
80.8671473715362
20
7.57004312010042
30
0
41
1
10
81.4878130617134
20
7.59625520114821
30
0
41
1
10
82.1093072236343
20
7.59960690530372
30
0
0
SPLINE
5
100
100
AcDbEntity
8
1
62
256
6
ByLayer
370
18
48
1
60
0
100
AcDbSpline
70
4
71
3
72
8
73
4
40
0
40
0
40
0
40
0
40
1
40
1
40
1
40
1
41
1
10
82.1811233078145
20
-0.478466984828515
30
0
41
1
10
82.1583780764892
20
-0.466394798430372
30
0
41
1
10
82.1356322000881
20
-0.45432326428255
30
0
41
1
10
82.1128856419049
20
-0.442252451106867
30
0
0
SPLINE
5
101
100
AcDbEntity
8
1
62
256
6
ByLayer
370
18
48
1
60
0
100
AcDbSpline
70
4
71
3
72
62
73
58
40
0
40
0
40
0
40
0
40
0.0260655513001147
40
0.0260655513001147
40
0.0469179990630454
40
0.0469179990630454
40
0.0677704468259761
40
0.0677704468259761
40
0.151180237877705
40
0.151180237877705
40
0.192885133403569
40
0.192885133403569
40
0.2137375811665
40
0.2137375811665
40
0.23459002892943
40
0.23459002892943
40
0.317999819981145
40
0.317999819981145
40
0.359704715507002
40
0.359704715507002
40
0.401409611032859
40
0.401409611032859
40
0.443114506558716
40
0.443114506558716
40
0.463966954321644
40
0.463966954321644
40
0.484819402084572
40
0.484819402084572
40
0.568229193136285
40
0.568229193136285
40
0.609934088662141
40
0.609934088662141
40
0.651638984187996
40
0.651638984187996
40
0.693343879713852
40
0.693343879713852
40
0.735048775239708
40
0.735048775239708
40
0.776753670765564
40
0.776753670765564
40
0.797606118528492
40
0.797606118528492
40
0.81845856629142
40
0.81845856629142
40
0.860163461817276
40
0.860163461817276
40
0.881015909580205
40
0.881015909580205
40
0.901868357343133
40
0.901868357343133
40
0.943573252868989
40
0.943573252868989
40
0.964425700631917
40
0.964425700631917
40
0.985278148394845
40
0.985278148394845
40
1
40
1
40
1
40
1
41
1
10
81.8305416915582
20
-0.292484102178065
30
0
41
1
10
81.6357403946674
20
-0.18919940475979
30
0
41
1
10
81.4408779909804
20
-0.0859883954042004
30
0
41
1
10
81.0899741565457
20
0.0995811781938869
30
0
41
1
10
80.9339149994277
20
0.182006889110852
30
0
41
1
10
80.6221644059225
20
0.346399900831443
30
0
41
1
10
80.4664218510776
20
0.428394280295947
30
0
41
1
10
79.6883165893864
20
0.837243927173915
30
0
41
1
10
79.0677808669681
20
1.16073455356448
30
0
41
1
10
78.1392316871196
20
1.63851969827161
30
0
41
1
10
77.8300912429363
20
1.79654146989591
30
0
41
1
10
77.3668412783766
20
2.03136983248714
30
0
41
1
10
77.2125010456
20
2.109278604693
30
0
41
1
10
76.9039709380579
20
2.26430674039605
30
0
41
1
10
76.7497879485588
20
2.34143010570455
30
0
41
1
10
75.9787535003491
20
2.72461534709106
30
0
41
1
10
75.3613951131458
20
3.02327735115497
30
0
41
1
10
74.4337238988679
20
3.45711864727642
30
0
41
1
10
74.1242291513325
20
3.5993797302782
30
0
41
1
10
73.504543921879
20
3.87864218904781
30
0
41
1
10
73.1943635136593
20
4.01564308688336
30
0
41
1
10
72.5728403573575
20
4.28381738459157
30
0
41
1
10
72.2614867996628
20
4.41499032104539
30
0
41
1
10
71.7934278108389
20
4.60692775332257
30
0
41
1
10
71.6371490122078
20
4.67013601947733
30
0
41
1
10
71.3251450016782
20
4.79451745991673
30
0
41
1
10
71.1693170796167
20
4.85573400355725
30
0
41
1
10
70.3907912300432
20
5.15692660021594
30
0
41
1
10
69.7698552002234
20
5.38226336884034
30
0
41
1
10
68.840732345308
20
5.69425486428904
30
0
41
1
10
68.5314059909813
20
5.79392572857339
30
0
41
1
10
67.9134263023206
20
5.98390885520712
30
0
41
1
10
67.6047945365667
20
6.07418908321219
30
0
41
1
10
66.9872361345404
20
6.24599191688321
30
0
41
1
10
66.6782795849247
20
6.32754933061381
30
0
41
1
10
66.0601183632255
20
6.48119656210719
30
0
41
1
10
65.7509261893197
20
6.55327300172979
30
0
41
1
10
65.1320529671126
20
6.6875969235854
30
0
41
1
10
64.8223632936742
20
6.74987004287001
30
0
41
1
10
64.3574561531309
20
6.83502863106395
30
0
41
1
10
64.2024350481566
20
6.86201112039248
30
0
41
1
10
63.8921038710153
20
6.91352172080767
30
0
41
1
10
63.7367831219668
20
6.93807385220401
30
0
41
1
10
63.2703091419111
20
7.00814979802564
30
0
41
1
10
62.9586496884588
20
7.05010879603549
30
0
41
1
10
62.4900427368709
20
7.10524071413661
30
0
41
1
10
62.3335852750667
20
7.12232164796052
30
0
41
1
10
62.0210149989609
20
7.15369423890186
30
0
41
1
10
61.8648277210776
20
7.16799579599947
30
0
41
1
10
61.3965673912024
20
7.20661318194402
30
0
41
1
10
61.0847969350871
20
7.22665503374614
30
0
41
1
10
60.6177606299776
20
7.247288168279
30
0
41
1
10
60.4622007480523
20
7.25254941537776
30
0
41
1
10
60.1509932786136
20
7.26060465407573
30
0
41
1
10
59.9953262576728
20
7.26344745331954
30
0
41
1
10
59.729665467091
20
7.26620110662361
30
0
41
1
10
59.6197013787848
20
7.26672457436968
30
0
41
1
10
59.5097112957112
20
7.26661553882661
30
0
0
SPLINE
5
102
100
AcDbEntity
8
1
62
256
6
ByLayer
370
18
48
1
60
0
100
AcDbSpline
70
4
71
3
72
8
73
4
40
0
40
0
40
0
40
0
40
1
40
1
40
1
40
1
41
1
10
40.2245490689569
20
7.23557615787826
30
0
41
1
10
40.2632995821667
20
7.23581154216353
30
0
41
1
10
40.3020601560501
20
7.23596188637683
30
0
41
1
10
40.3408311008988
20
7.23602717614844
30
0
0
SPLINE
5
103
100
AcDbEntity
8
1
62
256
6
ByLayer
370
18
48
1
60
0
100
AcDbSpline
70
4
71
3
72
51
73
47
40
0
40
0
40
0
40
0
40
0.0076232696981693
40
0.0076232696981693
40
0.0301772862959386
40
0.0301772862959386
40
0.052731302893708
40
0.052731302893708
40
0.0978393360892468
40
0.0978393360892468
40
0.142947369284786
40
0.142947369284786
40
0.188055402480324
40
0.188055402480324
40
0.233163435675863
40
0.233163435675863
40
0.278271468871402
40
0.278271468871402
40
0.368487535262478
40
0.368487535262478
40
0.458703601653553
40
0.458703601653553
40
0.481257618251322
40
0.481257618251322
40
0.503811634849091
40
0.503811634849091
40
0.548919668044628
40
0.548919668044628
40
0.594027701240164
40
0.594027701240164
40
0.6391357344357
40
0.6391357344357
40
0.729351800826774
40
0.729351800826774
40
0.751905817424543
40
0.751905817424543
40
0.774459834022311
40
0.774459834022311
40
0.819567867217852
40
0.819567867217852
40
0.909783933608932
40
0.9323379502067
40
0.9323379502067
40
0.954891966804468
40
0.954891966804468
40
1
40
1
40
1
40
1
41
1
10
61.5684874796177
20
0.286604240595864
30
0
41
1
10
61.6212595390343
20
0.258936931853498
30
0
41
1
10
61.6740387139239
20
0.231258095739094
30
0
41
1
10
61.8830000235697
20
0.121648671611126
30
0
41
1
10
62.039243106181
20
0.0396394276000933
30
0
41
1
10
62.3519068454277
20
-0.124478941662716
30
0
41
1
10
62.5084168825364
20
-0.20663493674769
30
0
41
1
10
62.9772642864233
20
-0.452605468013701
30
0
41
1
10
63.2891049645952
20
-0.616019427128577
30
0
41
1
10
63.9116660795785
20
-0.941107358421277
30
0
41
1
10
64.2223860031967
20
-1.10277169546597
30
0
41
1
10
64.8429597874111
20
-1.42390833638007
30
0
41
1
10
65.1528145139202
20
-1.58338025206461
30
0
41
1
10
65.7719750715196
20
-1.89949128517779
30
0
41
1
10
66.0812822422595
20
-2.05613354476509
30
0
41
1
10
66.6996840800708
20
-2.36603737992695
30
0
41
1
10
67.0087760738617
20
-2.5192999292353
30
0
41
1
10
67.9361243503807
20
-2.97320831682964
30
0
41
1
10
68.5544208384721
20
-3.26806999244869
30
0
41
1
10
69.7935467066104
20
-3.83802585062642
30
0
41
1
10
70.4143970657408
20
-4.11306742293755
30
0
41
1
10
71.1936027545793
20
-4.44164922804609
30
0
41
1
10
71.3496010654148
20
-4.50660481846714
30
0
41
1
10
71.6619474733595
20
-4.63493669572443
30
0
41
1
10
71.8184078139876
20
-4.69835719523465
30
0
41
1
10
72.2870425673273
20
-4.88563538583617
30
0
41
1
10
72.5987381574546
20
-5.00662086984102
30
0
41
1
10
73.2209531392456
20
-5.24046748798977
30
0
41
1
10
73.5314789827534
20
-5.35333516641725
30
0
41
1
10
74.1517601254639
20
-5.57068490483175
30
0
41
1
10
74.4615073657658
20
-5.67516109006004
30
0
41
1
10
75.3898851587117
20
-5.97539910050341
30
0
41
1
10
76.0076701992288
20
-6.15798726006906
30
0
41
1
10
76.7800063145206
20
-6.36256587519782
30
0
41
1
10
76.934481830412
20
-6.40230537114954
30
0
41
1
10
77.2435149553889
20
-6.4794626286951
30
0
41
1
10
77.398067826213
20
-6.51687321945789
30
0
41
1
10
77.8618244726524
20
-6.62547322192117
30
0
41
1
10
78.1711377845241
20
-6.69304325317398
30
0
41
1
10
79.1000688914575
20
-6.88084742202656
30
0
41
1
10
79.8758201101351
20
-7.01252005154385
30
0
41
1
10
80.6554599086613
20
-7.11116005449333
30
0
41
1
10
80.9676650228081
20
-7.14793483814893
30
0
41
1
10
81.1240058001543
20
-7.1649878668722
30
0
41
1
10
81.5928219856784
20
-7.21199690967362
30
0
41
1
10
81.9052633686348
20
-7.23782831869656
30
0
41
1
10
82.2177473113387
20
-7.2580866449199
30
0
0
SPLINE
5
104
100
AcDbEntity
8
1
62
256
6
ByLayer
370
18
48
1
60
0
100
AcDbSpline
70
4
71
3
72
46
73
42
40
0
40
0
40
0
40
0
40
0.0624999999999993
40
0.0624999999999993
40
0.124999999999999
40
0.187499999999998
40
0.187499999999998
40
0.218749999999998
40
0.234374999999998
40
0.234374999999998
40
0.249999999999998
40
0.249999999999998
40
0.312499999999998
40
0.312499999999998
40
0.374999999999998
40
0.437499999999998
40
0.437499999999998
40
0.468749999999998
40
0.468749999999998
40
0.484374999999998
40
0.484374999999998
40
0.499999999999998
40
0.562499999999998
40
0.624999999999998
40
0.687499999999998
40
0.687499999999998
40
0.718749999999998
40
0.718749999999998
40
0.749999999999998
40
0.749999999999998
40
0.812499999999998
40
0.812499999999998
40
0.874999999999998
40
0.874999999999998
40
0.937499999999998
40
0.937499999999998
40
0.953124999999999
40
0.953124999999999
40
0.968749999999999
40
0.968749999999999
40
1
40
1
40
1
40
1
41
1
10
82.1811233078143
20
-0.478466984828515
30
0
41
1
10
82.1554312301234
20
-0.689619843135603
30
0
41
1
10
82.1330184124408
20
-0.89891033158807
30
0
41
1
10
82.0936100997719
20
-1.31378187739696
30
0
41
1
10
82.0596219564562
20
-1.72494384597394
30
0
41
1
10
82.0345808577815
20
-2.12857218720762
30
0
41
1
10
82.0185671645296
20
-2.42836991632177
30
0
41
1
10
82.0112537158188
20
-2.5775369709221
30
0
41
1
10
82.0048852647043
20
-2.72557909447104
30
0
41
1
10
82.0008401006636
20
-2.82402017405988
30
0
41
1
10
81.99891946644
20
-2.8730770685485
30
0
41
1
10
81.9898348528467
20
-3.1165266642856
30
0
41
1
10
81.9841783578941
20
-3.30634478676367
30
0
41
1
10
81.9753723498641
20
-3.67635043674917
30
0
41
1
10
81.9690752325324
20
-4.03672416463735
30
0
41
1
10
81.9668167985915
20
-4.37790623821419
30
0
41
1
10
81.9664227443428
20
-4.62646263832121
30
0
41
1
10
81.9665095766086
20
-4.70809139737361
30
0
41
1
10
81.9669545425796
20
-4.82866673753597
30
0
41
1
10
81.9671557683158
20
-4.86858887773394
30
0
41
1
10
81.9676599212885
20
-4.94745493933405
30
0
41
1
10
81.9691766392135
20
-5.14232341860904
30
0
41
1
10
81.9741213329976
20
-5.47268356148624
30
0
41
1
10
81.9854223440225
20
-5.87068360119204
30
0
41
1
10
81.9965031320615
20
-6.10774693670618
30
0
41
1
10
82.0064596397112
20
-6.27472114297294
30
0
41
1
10
82.0100545337766
20
-6.32857279178583
30
0
41
1
10
82.0178717077436
20
-6.43259379808612
30
0
41
1
10
82.0220660906923
20
-6.48238701908573
30
0
41
1
10
82.0355938960935
20
-6.62517798922258
30
0
41
1
10
82.0458691024412
20
-6.71162918980539
30
0
41
1
10
82.0695482078769
20
-6.86743594801746
30
0
41
1
10
82.0829515522634
20
-6.93679064448523
30
0
41
1
10
82.1136728875753
20
-7.05841597625769
30
0
41
1
10
82.1309896745199
20
-7.11068711477509
30
0
41
1
10
82.1556963790451
20
-7.16512535882703
30
0
41
1
10
82.1607912947562
20
-7.17546703551591
30
0
41
1
10
82.1713059307008
20
-7.19504900125727
30
0
41
1
10
82.1767294033208
20
-7.20429433607359
30
0
41
1
10
82.1934683847037
20
-7.23029391000216
30
0
41
1
10
82.2052611084677
20
-7.24533360292838
30
0
41
1
10
82.2177473113513
20
-7.25808664491973
30
0
0
SPLINE
5
105
100
AcDbEntity
8
1
62
256
6
ByLayer
370
18
48
1
60
0
100
AcDbSpline
70
4
71
3
72
121
73
117
40
0
40
0
40
0
40
0
40
0.0625000000000084
40
0.0625000000000084
40
0.125000000000017
40
0.125000000000017
40
0.140625000000019
40
0.140625000000019
40
0.156250000000021
40
0.187500000000025
40
0.187500000000025
40
0.250000000000033
40
0.250000000000033
40
0.281250000000038
40
0.281250000000038
40
0.312500000000042
40
0.312500000000042
40
0.328125000000043
40
0.328125000000043
40
0.329101562500044
40
0.329101562500044
40
0.330078125000044
40
0.330078125000044
40
0.331054687500044
40
0.331054687500044
40
0.332031250000044
40
0.332031250000044
40
0.333007812500045
40
0.333007812500045
40
0.333984375000045
40
0.333984375000045
40
0.334960937500045
40
0.334960937500045
40
0.335937500000045
40
0.335937500000045
40
0.343750000000045
40
0.343750000000045
40
0.375000000000044
40
0.375000000000044
40
0.406250000000044
40
0.406250000000044
40
0.437500000000043
40
0.437500000000043
40
0.468750000000043
40
0.468750000000043
40
0.484375000000042
40
0.484375000000042
40
0.492187500000041
40
0.496093750000041
40
0.496093750000041
40
0.50000000000004
40
0.50000000000004
40
0.515625000000039
40
0.515625000000039
40
0.531250000000039
40
0.531250000000039
40
0.546875000000038
40
0.546875000000038
40
0.550781250000038
40
0.550781250000038
40
0.554687500000038
40
0.562500000000037
40
0.562500000000037
40
0.593750000000036
40
0.593750000000036
40
0.601562500000035
40
0.601562500000035
40
0.605468750000035
40
0.605468750000035
40
0.609375000000035
40
0.625000000000034
40
0.625000000000034
40
0.640625000000033
40
0.640625000000033
40
0.648437500000032
40
0.648437500000032
40
0.652343750000032
40
0.652343750000032
40
0.656250000000031
40
0.671875000000031
40
0.671875000000031
40
0.68750000000003
40
0.68750000000003
40
0.703125000000029
40
0.703125000000029
40
0.707031250000028
40
0.707031250000028
40
0.710937500000028
40
0.710937500000028
40
0.718750000000027
40
0.718750000000027
40
0.734375000000025
40
0.734375000000025
40
0.750000000000024
40
0.750000000000024
40
0.78125000000002
40
0.78125000000002
40
0.796875000000019
40
0.796875000000019
40
0.804687500000018
40
0.804687500000018
40
0.812500000000017
40
0.812500000000017
40
0.843750000000014
40
0.843750000000014
40
0.875000000000011
40
0.875000000000011
40
0.906250000000008
40
0.906250000000008
40
0.937500000000005
40
0.937500000000005
40
0.968750000000002
40
0.968750000000002
40
0.984375000000001
40
0.984375000000001
40
1
40
1
40
1
40
1
41
1
10
12.5658884310423
20
2.13939944317153
30
0
41
1
10
12.1536024480331
20
2.35281894793019
30
0
41
1
10
11.7384865961777
20
2.55697528198056
30
0
41
1
10
10.9002845650265
20
2.94374127969925
30
0
41
1
10
10.4771956032113
20
3.12634841472209
30
0
41
1
10
9.9420620681409
20
3.33973230531484
30
0
41
1
10
9.83472155828014
20
3.38166644521735
30
0
41
1
10
9.61961762296426
20
3.46393708519651
30
0
41
1
10
9.2962426263779
20
3.5849833295994
30
0
41
1
10
8.97059806211871
20
3.69885778199432
30
0
41
1
10
8.31604228378069
20
3.91694303082886
30
0
41
1
10
7.87531051500895
20
4.0494383083811
30
0
41
1
10
7.20691628672193
20
4.2289023338254
30
0
41
1
10
6.98290243329919
20
4.28551565489812
30
0
41
1
10
6.53305557694873
20
4.39222875220142
30
0
41
1
10
6.30711984614095
20
4.44235697971803
30
0
41
1
10
5.96687806659165
20
4.51275859749711
30
0
41
1
10
5.85323976871049
20
4.53542589996175
30
0
41
1
10
5.7322689464491
20
4.55867337965844
30
0
41
1
10
5.72515133472805
20
4.56003268075057
30
0
41
1
10
5.71091949442933
20
4.56276627630703
30
0
41
1
10
5.70381425858002
20
4.56418234704174
30
0
41
1
10
5.68948097475663
20
4.56644280951585
30
0
41
1
10
5.68224970542238
20
4.56727229039859
30
0
41
1
10
5.66764347294813
20
4.56826324984732
30
0
41
1
10
5.66023009594716
20
4.56842866287752
30
0
41
1
10
5.64539842693978
20
4.56791408201386
30
0
41
1
10
5.63807051110143
20
4.56725559728386
30
0
41
1
10
5.62361284141579
20
4.56503368317095
30
0
41
1
10
5.61644495470921
20
4.5634383702878
30
0
41
1
10
5.60256258704447
20
4.55913630298573
30
0
41
1
10
5.59599783463813
20
4.55632097018483
30
0
41
1
10
5.58342556409625
20
4.54991836080967
30
0
41
1
10
5.57719925350824
20
4.54664132153664
30
0
41
1
10
5.52096005419767
20
4.51738007572507
30
0
41
1
10
5.47113713796517
20
4.49103861092161
30
0
41
1
10
5.2229002788699
20
4.35761385806316
30
0
41
1
10
5.02723164649291
20
4.24546666885237
30
0
41
1
10
4.64279668703463
20
4.00847844791184
30
0
41
1
10
4.45506733044462
20
3.88428021531621
30
0
41
1
10
4.08997317665904
20
3.62252355817509
30
0
41
1
10
3.91259843413906
20
3.48497857706397
30
0
41
1
10
3.57015936313428
20
3.19380980571057
30
0
41
1
10
3.40507599500447
20
3.04021213121416
30
0
41
1
10
3.16887271411198
20
2.79471608966242
30
0
41
1
10
3.09205102658922
20
2.71035496846886
30
0
41
1
10
2.98008258878295
20
2.57947327105222
30
0
41
1
10
2.92491590146534
20
2.51294535031374
30
0
41
1
10
2.87106598283063
20
2.4446618810648
30
0
41
1
10
2.83547009067368
20
2.39873366447162
30
0
41
1
10
2.81782249612078
20
2.37556350523133
30
0
41
1
10
2.73070856086258
20
2.25911375059377
30
0
41
1
10
2.66433660055145
20
2.16369463601848
30
0
41
1
10
2.53888838120099
20
1.9678713544684
30
0
41
1
10
2.47981026927315
20
1.86746847430771
30
0
41
1
10
2.36977646967389
20
1.66109349862285
30
0
41
1
10
2.31881791467211
20
1.55512339316402
30
0
41
1
10
2.26086345992047
20
1.41871031830226
30
0
41
1
10
2.2495468401948
20
1.39119494828236
30
0
41
1
10
2.22757846424597
20
1.33592978374028
30
0
41
1
10
2.19565330692655
20
1.25276382296059
30
0
41
1
10
2.16684046863583
20
1.16878483984664
30
0
41
1
10
2.0778659000255
20
0.887006261145928
30
0
41
1
10
2.02920196509015
20
0.655694225601025
30
0
41
1
10
1.99988164995645
20
0.35828130470739
30
0
41
1
10
1.99560007319241
20
0.298383276436283
30
0
41
1
10
1.99163769306134
20
0.207890008415376
30
0
41
1
10
1.99072861187449
20
0.177603721347083
30
0
41
1
10
1.98974654477331
20
0.11726729091248
30
0
41
1
10
1.98936770772553
20
-0.0332630948161636
30
0
41
1
10
1.99920609838213
20
-0.182264275957834
30
0
41
1
10
2.02739192398587
20
-0.418802651433623
30
0
41
1
10
2.04770800431197
20
-0.536139940835596
30
0
41
1
10
2.08715902393496
20
-0.710801364224437
30
0
41
1
10
2.10180663952008
20
-0.768797589958893
30
0
41
1
10
2.12598869084121
20
-0.855460850599826
30
0
41
1
10
2.1344301400475
20
-0.884331233452286
30
0
41
1
10
2.15194690415635
20
-0.941651082298733
30
0
41
1
10
2.19735812164941
20
-1.0840288545119
30
0
41
1
10
2.25056810653126
20
-1.22196712291625
30
0
41
1
10
2.34454725301384
20
-1.4376373948374
30
0
41
1
10
2.39596140758863
20
-1.54295536217782
30
0
41
1
10
2.50675992354059
20
-1.74906160935808
30
0
41
1
10
2.56614623460973
20
-1.84984878851174
30
0
41
1
10
2.64492995690733
20
-1.97325002642745
30
0
41
1
10
2.66091462260093
20
-1.9978009228648
30
0
41
1
10
2.69333040212902
20
-2.04664944814857
30
0
41
1
10
2.70976292334672
20
-2.07094803429331
30
0
41
1
10
2.75952422616228
20
-2.14319849638878
30
0
41
1
10
2.79337868661278
20
-2.19060075494633
30
0
41
1
10
2.89684365553617
20
-2.33067240768057
30
0
41
1
10
2.96835105333543
20
-2.42121199157378
30
0
41
1
10
3.11582065077249
20
-2.59730294470256
30
0
41
1
10
3.19178438956467
20
-2.68285257635941
30
0
41
1
10
3.42565261786905
20
-2.93282969596439
30
0
41
1
10
3.58950201187395
20
-3.09062176955982
30
0
41
1
10
3.84513678508961
20
-3.31638520837254
30
0
41
1
10
3.93200099040132
20
-3.38980853037313
30
0
41
1
10
4.06458667227241
20
-3.49741746198535
30
0
41
1
10
4.10916937781153
20
-3.53286835652989
30
0
41
1
10
4.19872947860082
20
-3.60269967914181
30
0
41
1
10
4.24374960462464
20
-3.63711528954471
30
0
41
1
10
4.46999210255859
20
-3.80682303859263
30
0
41
1
10
4.65462203955084
20
-3.93504355218548
30
0
41
1
10
5.02998170686385
20
-4.1790107096478
30
0
41
1
10
5.22071723780005
20
-4.2947447437071
30
0
41
1
10
5.60747823107832
20
-4.51556714886266
30
0
41
1
10
5.80350687212274
20
-4.62064860064666
30
0
41
1
10
6.2002586119392
20
-4.82152627030084
30
0
41
1
10
6.40098358400712
20
-4.91731840537472
30
0
41
1
10
6.80667537775258
20
-5.1006658935263
30
0
41
1
10
7.01164336849075
20
-5.18821869589971
30
0
41
1
10
7.32201169772642
20
-5.31399406367694
30
0
41
1
10
7.42599378320392
20
-5.35500682745933
30
0
41
1
10
7.63464155823831
20
-5.43517159248688
30
0
41
1
10
7.73931503731583
20
-5.47432773895579
30
0
41
1
10
7.84432440998691
20
-5.51260574097981
30
0
0
SPLINE
5
106
100
AcDbEntity
8
1
62
256
6
ByLayer
370
18
48
1
60
0
100
AcDbSpline
70
4
71
3
72
79
73
75
40
0
40
0
40
0
40
0
40
0.0211041810214591
40
0.0211041810214591
40
0.0385489922148191
40
0.0385489922148191
40
0.0559938034081794
40
0.0559938034081794
40
0.0734386146015395
40
0.0734386146015395
40
0.0908834257948996
40
0.0908834257948996
40
0.10832823698826
40
0.10832823698826
40
0.1126894397866
40
0.1126894397866
40
0.11487004118577
40
0.115960341885355
40
0.116232917060251
40
0.116369204647699
40
0.116369204647699
40
0.116505492235148
40
0.116505492235148
40
0.11705064258494
40
0.11705064258494
40
0.119231243984111
40
0.119231243984111
40
0.121411845383281
40
0.121411845383281
40
0.125773048181622
40
0.125773048181622
40
0.160662670568352
40
0.160662670568352
40
0.230441915341812
40
0.230441915341812
40
0.370000404888731
40
0.370000404888731
40
0.439779649662191
40
0.439779649662191
40
0.47466927204892
40
0.47466927204892
40
0.492114083242285
40
0.492114083242285
40
0.50955889443565
40
0.50955889443565
40
0.513920097233991
40
0.513920097233991
40
0.516100698633162
40
0.516100698633162
40
0.516645848982954
40
0.516645848982954
40
0.516918424157851
40
0.516918424157851
40
0.517054711745299
40
0.517054711745299
40
0.517190999332747
40
0.517190999332747
40
0.517327286920195
40
0.517327286920195
40
0.517463574507643
40
0.517736149682539
40
0.518281300032332
40
0.527003705629011
40
0.54444851682237
40
0.54444851682237
40
0.579338139209088
40
0.579338139209088
40
0.649117383982524
40
0.649117383982524
40
0.71889662875596
40
0.71889662875596
40
0.788675873529395
40
0.788675873529395
40
1
40
1
40
1
40
1
41
1
10
12.4137613584366
20
2.2201846495193
30
0
41
1
10
12.3524741593139
20
2.2457498555579
30
0
41
1
10
12.2876640013478
20
2.26519347213531
30
0
41
1
10
12.1644818115212
20
2.28856150262135
30
0
41
1
10
12.1067845261893
20
2.29459756545037
30
0
41
1
10
11.9888007671768
20
2.29696144522143
30
0
41
1
10
11.9289530406424
20
2.29317449150466
30
0
41
1
10
11.8033225948126
20
2.27784448409156
30
0
41
1
10
11.738107292779
20
2.26602938641966
30
0
41
1
10
11.6037977856027
20
2.23365192335132
30
0
41
1
10
11.5347037054253
20
2.21300825666361
30
0
41
1
10
11.3928039389391
20
2.16324978521354
30
0
41
1
10
11.3201214039304
20
2.13408404939091
30
0
41
1
10
11.2275576554957
20
2.09203466916523
30
0
41
1
10
11.2089622375237
20
2.08334642885552
30
0
41
1
10
11.18096106155
20
2.06989624649984
30
0
41
1
10
11.1669328346873
20
2.06306641623974
30
0
41
1
10
11.1516922340768
20
2.05549641047821
30
0
41
1
10
11.1452370299842
20
2.05226361973593
30
0
41
1
10
11.1434759233131
20
2.05137948307262
30
0
41
1
10
11.1423017210322
20
2.05078951090852
30
0
41
1
10
11.1422889989416
20
2.05023424656167
30
0
41
1
10
11.1462751507577
20
2.04709623066313
30
0
41
1
10
11.1508648538791
20
2.044796250107
30
0
41
1
10
11.1719428250692
20
2.03322511861563
30
0
41
1
10
11.1895226990783
20
2.02424360494726
30
0
41
1
10
11.2245008280633
20
2.0062178313506
30
0
41
1
10
11.2420642158156
20
1.99723379134619
30
0
41
1
10
11.2948362423839
20
1.97030315826899
30
0
41
1
10
11.3301336872793
20
1.95238108149334
30
0
41
1
10
11.6481475596847
20
1.79107009703043
30
0
41
1
10
11.9326672766001
20
1.6472185060359
30
0
41
1
10
12.7858153297203
20
1.21159348724916
30
0
41
1
10
13.355512817063
20
0.916415288544641
30
0
41
1
10
15.0635738357522
20
0.0140459891962337
30
0
41
1
10
16.200344438893
20
-0.609128604939912
30
0
41
1
10
17.9032115223089
20
-1.57582120844117
30
0
41
1
10
18.4704086586727
20
-1.903270394401
30
0
41
1
10
19.3197131030162
20
-2.40213104707311
30
0
41
1
10
19.602604738098
20
-2.56972908421474
30
0
41
1
10
20.0261677386543
20
-2.82369820903273
30
0
41
1
10
20.1672243164448
20
-2.90877298695503
30
0
41
1
10
20.4488744933992
20
-3.08011116135623
30
0
41
1
10
20.5895872876162
20
-3.16616568803539
30
0
41
1
10
20.7643843999843
20
-3.2758865197099
30
0
41
1
10
20.7992919830498
20
-3.29792839434032
30
0
41
1
10
20.8513035662145
20
-3.33158999556562
30
0
41
1
10
20.8686287973088
20
-3.34284327339117
30
0
41
1
10
20.8898634332146
20
-3.35757046885826
30
0
41
1
10
20.8940875806558
20
-3.36055143510347
30
0
41
1
10
20.9002985956911
20
-3.36520636410413
30
0
41
1
10
20.9023495672927
20
-3.36678419046129
30
0
41
1
10
20.9053247279836
20
-3.36928775470977
30
0
41
1
10
20.9063007394083
20
-3.37014210548497
30
0
41
1
10
20.9081381127091
20
-3.37197728357953
30
0
41
1
10
20.9094399400054
20
-3.37293804147578
30
0
41
1
10
20.9092450106266
20
-3.37558876137146
30
0
41
1
10
20.9072400352142
20
-3.37543402113991
30
0
41
1
10
20.9047191819857
20
-3.37589582351234
30
0
41
1
10
20.9009379232168
20
-3.37658850783356
30
0
41
1
10
20.8921151340841
20
-3.37820463636254
30
0
41
1
10
20.803890196668
20
-3.39436322460367
30
0
41
1
10
20.5569543614772
20
-3.43952155908892
30
0
41
1
10
20.3153226783154
20
-3.48351696065981
30
0
41
1
10
19.8324284027305
20
-3.571173957594
30
0
41
1
10
19.5109635545715
20
-3.62917183797256
30
0
41
1
10
18.5481436227327
20
-3.80173977130946
30
0
41
1
10
17.9085227449567
20
-3.91485584801379
30
0
41
1
10
16.6336665741595
20
-4.13686909835965
30
0
41
1
10
15.9984316775099
20
-4.245768385047
30
0
41
1
10
14.7322191853433
20
-4.4589737922517
30
0
41
1
10
14.1011879039724
20
-4.56326109351329
30
0
41
1
10
11.5716177358699
20
-4.97269316253644
30
0
41
1
10
9.69598296869748
20
-5.25640310939787
30
0
41
1
10
7.84431757804055
20
-5.51260532040089
30
0
0
SPLINE
5
107
100
AcDbEntity
8
SK1
62
256
6
ByLayer
370
18
48
1
60
0
100
AcDbSpline
70
4
71
3
72
8
73
4
40
0
40
0
40
0
40
0
40
1
40
1
40
1
40
1
41
1
10
-46.5
20
-3.34783501209515
30
0
41
1
10
-47.0011286514402
20
-3.03040981999118
30
0
41
1
10
-47.501440760305
20
-2.71248732257928
30
0
41
1
10
-48
20
-2.39349726155405
30
0
0
SPLINE
5
108
100
AcDbEntity
8
SK1
62
256
6
ByLayer
370
18
48
1
60
0
100
AcDbSpline
70
4
71
3
72
20
73
16
40
0
40
0
40
0
40
0
40
0.0625000000000015
40
0.0625000000000015
40
0.125000000000003
40
0.125000000000003
40
0.250000000000003
40
0.250000000000003
40
0.375000000000004
40
0.375000000000004
40
0.500000000000004
40
0.500000000000004
40
0.750000000000002
40
0.750000000000002
40
1
40
1
40
1
40
1
41
1
10
-46.4
20
-3.49996744512532
30
0
41
1
10
-46.4
20
-3.49631409033785
30
0
41
1
10
-46.400255320285
20
-3.49255904248289
30
0
41
1
10
-46.401238720026
20
-3.48486053238659
30
0
41
1
10
-46.4019736794312
20
-3.48090372454303
30
0
41
1
10
-46.4047525178022
20
-3.46915132383455
30
0
41
1
10
-46.407386820202
20
-3.46130720014503
30
0
41
1
10
-46.4138324199078
20
-3.44582102329446
30
0
41
1
10
-46.4175513092506
20
-3.43838583124298
30
0
41
1
10
-46.4257576562687
20
-3.42399217924137
30
0
41
1
10
-46.4302902765822
20
-3.4169831527276
30
0
41
1
10
-46.444519757331
20
-3.39714371919533
30
0
41
1
10
-46.454862846528
20
-3.38534983175049
30
0
41
1
10
-46.4769795344452
20
-3.364184902516
30
0
41
1
10
-46.4883400853171
20
-3.35522064180819
30
0
41
1
10
-46.5
20
-3.34783501209515
30
0
0
SPLINE
5
109
100
AcDbEntity
8
SK1
62
256
6
ByLayer
370
18
48
1
60
0
100
AcDbSpline
70
4
71
3
72
20
73
16
40
0
40
0
40
0
40
0
40
0.249999999999998
40
0.249999999999998
40
0.374999999999998
40
0.374999999999998
40
0.499999999999998
40
0.499999999999998
40
0.624999999999999
40
0.624999999999999
40
0.749999999999999
40
0.749999999999999
40
0.875
40
0.875
40
1
40
1
40
1
40
1
41
1
10
-46.5
20
-5.30262338842451
30
0
41
1
10
-46.4883382808638
20
-5.31001016111537
30
0
41
1
10
-46.4769899849393
20
-5.31587363632954
30
0
41
1
10
-46.4604389640724
20
-5.32233483380114
30
0
41
1
10
-46.4550533753258
20
-5.32406594491886
30
0
41
1
10
-46.4447632897779
20
-5.32658008445583
30
0
41
1
10
-46.4398264111653
20
-5.32737713717873
30
0
41
1
10
-46.4304188308979
20
-5.32793415251962
30
0
41
1
10
-46.4259311640915
20
-5.32769493958637
30
0
41
1
10
-46.4176087338257
20
-5.32591153197524
30
0
41
1
10
-46.4138727961238
20
-5.32439376656097
30
0
41
1
10
-46.4074449634846
20
-5.31981561173816
30
0
41
1
10
-46.4047607228177
20
-5.31672133260008
30
0
41
1
10
-46.40105390221
20
-5.30886842472592
30
0
41
1
10
-46.4
20
-5.30398597170276
30
0
41
1
10
-46.4
20
-5.29837275134833
30
0
0
SPLINE
5
10A
100
AcDbEntity
8
SK1
62
256
6
ByLayer
370
18
48
1
60
0
100
AcDbSpline
70
4
71
3
72
8
73
4
40
0
40
0
40
0
40
0
40
1
40
1
40
1
40
1
41
1
10
-48
20
-4.34828563788341
30
0
41
1
10
-47.501434534221
20
-4.66727968250524
30
0
41
1
10
-47.0011237490726
20
-4.98520130158093
30
0
41
1
10
-46.5
20
-5.30262338842451
30
0
0
SPLINE
5
10B
100
AcDbEntity
8
1
62
256
6
ByLayer
370
18
48
1
60
0
100
AcDbSpline
70
4
71
3
72
20
73
16
40
0
40
0
40
0
40
0
40
0.118531958244572
40
0.206290442401895
40
0.306104869534101
40
0.402344947770872
40
0.491845856264871
40
0.56315422417586
40
0.594739489642779
40
0.626561301622357
40
0.674024544416651
40
0.737829537457693
40
0.817978950152874
40
0.91448211182001
40
1
40
1
40
1
40
1
41
1
10
81.6723182789704
20
1.8255597002694
30
0
41
1
10
81.3696756655214
20
1.92088796267373
30
0
41
1
10
80.844095075567
20
2.09011421477814
30
0
41
1
10
80.0671514814036
20
2.34991874570244
30
0
41
1
10
79.3492176933935
20
2.59777898345121
30
0
41
1
10
78.6295938200523
20
2.85447209528951
30
0
41
1
10
77.9841945960588
20
3.09168910042996
30
0
41
1
10
77.5026553698089
20
3.2732123596538
30
0
41
1
10
77.1662063507332
20
3.40206974593957
30
0
41
1
10
76.8896945593772
20
3.508999536576
30
0
41
1
10
76.5333949409132
20
3.6484452458611
30
0
41
1
10
76.0578365010544
20
3.83765702662524
30
0
41
1
10
75.4622571382555
20
4.07975650525731
30
0
41
1
10
74.8151551565417
20
4.34911628593588
30
0
41
1
10
74.3680284057469
20
4.5410464718627
30
0
41
1
10
74.1583905929238
20
4.63222471418069
30
0
0
SPLINE
5
10C
100
AcDbEntity
8
1
62
256
6
ByLayer
370
18
48
1
60
0
100
AcDbSpline
70
4
71
3
72
38
73
34
40
0
40
0
40
0
40
0
40
9.0869338516E-06
40
3.23323966415E-05
40
5.05679288347E-05
40
6.57991835245E-05
40
8.00420593031E-05
40
0.0001101941038832
40
0.0003327395769474
40
0.0004985537432843
40
0.0007982380937354
40
0.0013448568281409
40
0.0023576794266693
40
0.004284126459679
40
0.0081034571499803
40
0.0161474131326123
40
0.0343658948520265
40
0.0683860474226619
40
0.135227858087464
40
0.218822476169038
40
0.300527931257395
40
0.371333275610419
40
0.425667300558134
40
0.486468752105719
40
0.548484745494232
40
0.596757531955717
40
0.659413350052629
40
0.722203690783697
40
0.773663243083205
40
0.817145638258775
40
0.875175120447108
40
0.947758798746279
40
1
40
1
40
1
40
1
41
1
10
42.6356949566066
20
0.554695936446393
30
0
41
1
10
42.635709348802
20
0.554692941871139
30
0
41
1
10
42.6357573296453
20
0.554683079512074
30
0
41
1
10
42.6358130805244
20
0.554672369312215
30
0
41
1
10
42.6358311299293
20
0.554673993562858
30
0
41
1
10
42.6357625037635
20
0.554691613351537
30
0
41
1
10
42.6356078444186
20
0.554732217129526
30
0
41
1
10
42.6345830306162
20
0.554988428035557
30
0
41
1
10
42.6329409711044
20
0.555394331167548
30
0
41
1
10
42.6303467609866
20
0.556042047959039
30
0
41
1
10
42.6264862236433
20
0.557003445310329
30
0
41
1
10
42.6193938409551
20
0.558770505125722
30
0
41
1
10
42.6060054749681
20
0.562103687933302
30
0
41
1
10
42.5798298068147
20
0.56861780942819
30
0
41
1
10
42.5257549884179
20
0.582075678543049
30
0
41
1
10
42.4060864819084
20
0.611930641056233
30
0
41
1
10
42.1626335670296
20
0.67321600444896
30
0
41
1
10
41.6820567175435
20
0.796483427079323
30
0
41
1
10
40.9387221568464
20
0.993917518693763
30
0
41
1
10
40.0063378625231
20
1.25428162652761
30
0
41
1
10
39.0622490137955
20
1.53207149168316
30
0
41
1
10
38.238732130237
20
1.78579962414022
30
0
41
1
10
37.5014806174041
20
2.02134091562385
30
0
41
1
10
36.8012056775964
20
2.25241453872326
30
0
41
1
10
36.1271095982119
20
2.48239191018141
30
0
41
1
10
35.4475991135767
20
2.72105263938315
30
0
41
1
10
34.7669808455793
20
2.96699367594349
30
0
41
1
10
34.0764310606857
20
3.22443875457918
30
0
41
1
10
33.4628229030174
20
3.45962321738179
30
0
41
1
10
32.8692558933305
20
3.69223905759242
30
0
41
1
10
32.1958383141376
20
3.96263935174713
30
0
41
1
10
31.4910715683105
20
4.25305746664904
30
0
41
1
10
31.0127460872607
20
4.45786660403581
30
0
41
1
10
30.8129735891121
20
4.54457810296029
30
0
0
SPLINE
5
10D
100
AcDbEntity
8
1
62
256
6
ByLayer
370
18
48
1
60
0
100
AcDbSpline
70
4
71
2
72
6
73
3
40
0
40
0
40
0
40
1
40
1
40
1
41
1
10
62.0935733863825
20
-0.0001659624863919
30
0
41
1
10
62.0935226588704
20
-0.0001407199864616
30
0
41
1
10
62.0934719313074
20
-0.0001144289905426
30
0
0
SPLINE
5
10E
100
AcDbEntity
8
1
62
256
6
ByLayer
370
18
48
1
60
0
100
AcDbSpline
70
4
71
3
72
29
73
25
40
0
40
0
40
0
40
0
40
0.0522592857209152
40
0.0942663009689394
40
0.126277731718453
40
0.151598876520172
40
0.17569081579841
40
0.198855863990211
40
0.221709660225004
40
0.287071350490015
40
0.362223690840643
40
0.463619209383051
40
0.559962234807052
40
0.65231267904663
40
0.689863842064957
40
0.717041902115403
40
0.745742591406558
40
0.78539446061827
40
0.830131388453287
40
0.870154211746661
40
0.90632833525119
40
0.944058140481506
40
0.989573627743813
40
1
40
1
40
1
40
1
41
1
10
40.3184748397989
20
-7.23598901459721
30
0
41
1
10
40.5867020243485
20
-7.23629726968738
30
0
41
1
10
41.0716470758645
20
-7.23693967535831
30
0
41
1
10
41.723848428449
20
-7.23729949900275
30
0
41
1
10
42.2387312156828
20
-7.23869486684296
30
0
41
1
10
42.6511336914408
20
-7.23996259168655
30
0
41
1
10
43.0257943794277
20
-7.2404424206745
30
0
41
1
10
43.388477192605
20
-7.24106483236525
30
0
41
1
10
43.9636812225185
20
-7.24211957741446
30
0
41
1
10
44.8086015445287
20
-7.24432894573954
30
0
41
1
10
46.0590849562084
20
-7.24533701395504
30
0
41
1
10
47.4699266196797
20
-7.24722375004569
30
0
41
1
10
48.9696151302965
20
-7.2515801133917
30
0
41
1
10
50.1392619206346
20
-7.25146473223896
30
0
41
1
10
50.9513339601928
20
-7.25299054305816
30
0
41
1
10
51.4343453897855
20
-7.25491181087659
30
0
41
1
10
51.9282182856704
20
-7.25685966594293
30
0
41
1
10
52.5128255949845
20
-7.25763002447633
30
0
41
1
10
53.1559712160569
20
-7.25793158283656
30
0
41
1
10
53.7812042677455
20
-7.25779360547469
30
0
41
1
10
54.3701020304135
20
-7.25826732730482
30
0
41
1
10
54.987340554484
20
-7.25980620585204
30
0
41
1
10
55.4719711744719
20
-7.26107991378447
30
0
41
1
10
55.7607081673062
20
-7.26171738736042
30
0
41
1
10
55.8145176867683
20
-7.26183567088972
30
0
0
SPLINE
5
10F
100
AcDbEntity
8
1
62
256
6
ByLayer
370
18
48
1
60
0
100
AcDbSpline
70
4
71
3
72
30
73
26
40
0
40
0
40
0
40
0
40
0.0414345076876574
40
0.0760149079611843
40
0.105097103180249
40
0.133626836933932
40
0.163660802822652
40
0.195135053757326
40
0.225370276205735
40
0.263563082633343
40
0.303269861463534
40
0.348213160612627
40
0.390959893064928
40
0.445886839876435
40
0.49778978996402
40
0.546347763630949
40
0.588329333657743
40
0.636739402027927
40
0.696009492457902
40
0.752392555103116
40
0.814348283545854
40
0.8737910065533
40
0.944082722369451
40
0.990177733889336
40
1
40
1
40
1
40
1
41
1
10
59.5246394049119
20
7.26663498618382
30
0
41
1
10
59.3215823958832
20
7.26581798810705
30
0
41
1
10
58.9443495703293
20
7.26481441916351
30
0
41
1
10
58.4023204669022
20
7.26228097776942
30
0
41
1
10
57.9318470239078
20
7.26486093669084
30
0
41
1
10
57.4910563667527
20
7.26603416735315
30
0
41
1
10
57.0291980134887
20
7.26533166899569
30
0
41
1
10
56.5574866640688
20
7.26375885795457
30
0
41
1
10
56.0436103996816
20
7.26242398160664
30
0
41
1
10
55.4873240962912
20
7.26109401513227
30
0
41
1
10
54.8553958825492
20
7.25946161089678
30
0
41
1
10
54.2000363090005
20
7.25792007821966
30
0
41
1
10
53.4663754398354
20
7.25788388347257
30
0
41
1
10
52.696917130616
20
7.25781556940083
30
0
41
1
10
51.8975605091925
20
7.25702857539886
30
0
41
1
10
51.164805599492
20
7.25357709864653
30
0
41
1
10
50.4500143496763
20
7.25197878614108
30
0
41
1
10
49.6801160872404
20
7.25133660968552
30
0
41
1
10
48.8361314855489
20
7.25093908940471
30
0
41
1
10
47.922464661295
20
7.24931842459608
30
0
41
1
10
47.0079182717905
20
7.24624640658124
30
0
41
1
10
46.0219560312565
20
7.24540632513182
30
0
41
1
10
45.1179085771777
20
7.24449651720116
30
0
41
1
10
44.4676354073611
20
7.24344968653384
30
0
41
1
10
44.1809167783945
20
7.24265695202823
30
0
41
1
10
44.1305632892089
20
7.24251484406918
30
0
0
LINE
5
82
100
AcDbEntity
8
4
62
256
6
ByLayer
370
18
48
0.05
60
0
100
AcDbLine
10
0
20
0
30
0
11
85
21
0
31
0
39
0
210
0
220
0
230
1
0
LINE
5
84
100
AcDbEntity
8
81
62
256
6
ByLayer
370
18
48
1
60
0
100
AcDbLine
10
85
20
0
30
0
11
88
21
0
31
0
39
0
210
0
220
0
230
1
0
LINE
5
85
100
AcDbEntity
8
80
62
256
6
ByLayer
370
18
48
1
60
0
100
AcDbLine
10
0
20
0
30
0
11
-3
21
0
31
0
39
0
210
0
220
0
230
1
0
LINE
5
86
100
AcDbEntity
8
SK4
62
256
6
ByLayer
370
18
48
0.05
60
0
100
AcDbLine
10
-51
20
0
30
0
11
88
21
0
31
0
39
0
210
0
220
0
230
1
0
LINE
5
88
100
AcDbEntity
8
1
62
256
6
ByLayer
370
18
48
1
60
0
100
AcDbLine
10
0
20
8
30
0
11
0
21
-8
31
0
39
0
210
0
220
0
230
1
0
LINE
5
89
100
AcDbEntity
8
1
62
256
6
ByLayer
370
13
48
1
60
0
100
AcDbLine
10
84.832082
20
0.779487
30
0
11
83.307273
21
2.310062
31
0
39
0
210
0
220
0
230
1
0
LINE
5
8A
100
AcDbEntity
8
1
62
256
6
ByLayer
370
13
48
1
60
0
100
AcDbLine
10
0.601828
20
-7.727071
30
0
11
0.601828
21
7.727071
31
0
39
0
210
0
220
0
230
1
0
LINE
5
8B
100
AcDbEntity
8
1
62
256
6
ByLayer
370
18
48
1
60
0
100
AcDbLine
10
22.399827
20
-2.000412
30
0
11
22.399827
21
6.623574
31
0
39
0
210
0
220
0
230
1
0
LINE
5
8C
100
AcDbEntity
8
1
62
256
6
ByLayer
370
18
48
1
60
0
100
AcDbLine
10
22.399827
20
-2.934737
30
0
11
22.399827
21
-3.054647
31
0
39
0
210
0
220
0
230
1
0
LINE
5
8D
100
AcDbEntity
8
1
62
256
6
ByLayer
370
13
48
1
60
0
100
AcDbLine
10
1.205095
20
-7.454143
30
0
11
1.205095
21
7.454143
31
0
39
0
210
0
220
0
230
1
0
LINE
5
8E
100
AcDbEntity
8
SK1
62
256
6
ByLayer
370
18
48
1
60
0
100
AcDbLine
10
-48
20
-2.393474
30
0
11
-48
21
-4.348286
31
0
39
0
210
0
220
0
230
1
0
LINE
5
90
100
AcDbEntity
8
SK1
62
256
6
ByLayer
370
13
48
1
60
0
100
AcDbLine
10
-46.5
20
-5.302623
30
0
11
-46.5
21
-3.347755
31
0
39
0
210
0
220
0
230
1
0
LINE
5
91
100
AcDbEntity
8
SK1
62
256
6
ByLayer
370
18
48
1
60
0
100
AcDbLine
10
-46.4
20
-5.298373
30
0
11
-46.4
21
-3.499967
31
0
39
0
210
0
220
0
230
1
0
LINE
5
92
100
AcDbEntity
8
SK1
62
256
6
ByLayer
370
18
48
1
60
0
100
AcDbLine
10
-48
20
-5.55
30
0
11
-48
21
-4.348286
31
0
39
0
210
0
220
0
230
1
0
LINE
5
93
100
AcDbEntity
8
SK1
62
256
6
ByLayer
370
18
48
1
60
0
100
AcDbLine
10
-48
20
5.55
30
0
11
-48
21
-2.393497
31
0
39
0
210
0
220
0
230
1
0
LINE
5
94
100
AcDbEntity
8
SK1
62
256
6
ByLayer
370
18
48
1
60
0
100
AcDbLine
10
-45.55
20
-8
30
0
11
-45.55
21
8
31
0
39
0
210
0
220
0
230
1
0
LINE
5
95
100
AcDbEntity
8
SK1
62
256
6
ByLayer
370
18
48
1
60
0
100
AcDbLine
10
0
20
8
30
0
11
0
21
-8
31
0
39
0
210
0
220
0
230
1
0
LINE
5
96
100
AcDbEntity
8
1
62
256
6
ByLayer
370
18
48
1
60
0
100
AcDbLine
10
1.205095
20
-7.454143
30
0
11
18.078355
21
-7.484515
31
0
39
0
210
0
220
0
230
1
0
LINE
5
97
100
AcDbEntity
8
1
62
256
6
ByLayer
370
18
48
1
60
0
100
AcDbLine
10
38.610322
20
-7.521472
30
0
11
40.317402
21
-7.524545
31
0
39
0
210
0
220
0
230
1
0
LINE
5
98
100
AcDbEntity
8
1
62
256
6
ByLayer
370
18
48
1
60
0
100
AcDbLine
10
59.521146
20
-7.559112
30
0
11
61.51927
21
-7.562708
31
0
39
0
210
0
220
0
230
1
0
LINE
5
99
100
AcDbEntity
8
1
62
256
6
ByLayer
370
18
48
1
60
0
100
AcDbLine
10
61.51927
20
7.562708
30
0
11
59.521146
21
7.559112
31
0
39
0
210
0
220
0
230
1
0
LINE
5
9A
100
AcDbEntity
8
1
62
256
6
ByLayer
370
18
48
1
60
0
100
AcDbLine
10
40.317402
20
7.524545
30
0
11
38.610322
21
7.521472
31
0
39
0
210
0
220
0
230
1
0
LINE
5
9B
100
AcDbEntity
8
1
62
256
6
ByLayer
370
18
48
1
60
0
100
AcDbLine
10
18.078355
20
7.484515
30
0
11
1.205095
21
7.454143
31
0
39
0
210
0
220
0
230
1
0
LINE
5
9C
100
AcDbEntity
8
SK1
62
256
6
ByLayer
370
18
48
1
60
0
100
AcDbLine
10
-48
20
-5.55
30
0
11
-45.55
21
-8
31
0
39
0
210
0
220
0
230
1
0
LINE
5
9D
100
AcDbEntity
8
SK1
62
256
6
ByLayer
370
18
48
1
60
0
100
AcDbLine
10
-45.55
20
8
30
0
11
-48
21
5.55
31
0
39
0
210
0
220
0
230
1
0
LINE
5
9E
100
AcDbEntity
8
SK1
62
256
6
ByLayer
370
18
48
1
60
0
100
AcDbLine
10
-45.55
20
-8
30
0
11
0
21
-8
31
0
39
0
210
0
220
0
230
1
0
LINE
5
9F
100
AcDbEntity
8
SK1
62
256
6
ByLayer
370
18
48
1
60
0
100
AcDbLine
10
0
20
8
30
0
11
-45.55
21
8
31
0
39
0
210
0
220
0
230
1
0
LINE
5
A0
100
AcDbEntity
8
2
62
256
6
ByLayer
370
13
48
1
60
0
100
AcDbLine
10
92.5
20
-7.6
30
0
11
92.5
21
33.391027
31
0
39
0
210
0
220
0
230
1
0
LINE
5
A2
100
AcDbEntity
8
2
62
256
6
ByLayer
370
13
48
1
60
0
100
AcDbLine
10
86.5875
20
7.6
30
0
11
94.5
21
7.6
31
0
39
0
210
0
220
0
230
1
0
LINE
5
A3
100
AcDbEntity
8
2
62
256
6
ByLayer
370
13
48
1
60
0
100
AcDbLine
10
86.5875
20
-7.6
30
0
11
94.5
21
-7.6
31
0
39
0
210
0
220
0
230
1
0
LINE
5
A4
100
AcDbEntity
8
1
62
256
6
ByLayer
370
18
48
1
60
1
100
AcDbLine
10
92.5
20
7.6
30
0
11
92.960784
21
4.100002
31
0
39
0
210
0
220
0
230
1
0
LINE
5
A5
100
AcDbEntity
8
1
62
256
6
ByLayer
370
18
48
1
60
1
100
AcDbLine
10
92.960784
20
4.100002
30
0
11
92.039216
21
4.099998
31
0
39
0
210
0
220
0
230
1
0
LINE
5
A6
100
AcDbEntity
8
1
62
256
6
ByLayer
370
18
48
1
60
1
100
AcDbLine
10
92.039216
20
4.099998
30
0
11
92.5
21
7.6
31
0
39
0
210
0
220
0
230
1
0
LINE
5
A7
100
AcDbEntity
8
1
62
256
6
ByLayer
370
18
48
1
60
1
100
AcDbLine
10
92.5
20
-7.6
30
0
11
92.039216
21
-4.100002
31
0
39
0
210
0
220
0
230
1
0
LINE
5
A8
100
AcDbEntity
8
1
62
256
6
ByLayer
370
18
48
1
60
1
100
AcDbLine
10
92.039216
20
-4.100002
30
0
11
92.960784
21
-4.099998
31
0
39
0
210
0
220
0
230
1
0
LINE
5
A9
100
AcDbEntity
8
1
62
256
6
ByLayer
370
18
48
1
60
1
100
AcDbLine
10
92.960784
20
-4.099998
30
0
11
92.5
21
-7.6
31
0
39
0
210
0
220
0
230
1
0
LINE
5
AA
100
AcDbEntity
8
SK2
62
256
6
ByLayer
370
13
48
1
60
0
100
AcDbLine
10
-56.5
20
-8
30
0
11
-56.5
21
15.333771
31
0
39
0
210
0
220
0
230
1
0
LINE
5
AC
100
AcDbEntity
8
SK2
62
256
6
ByLayer
370
13
48
1
60
0
100
AcDbLine
10
-49.5875
20
8
30
0
11
-58.5
21
8
31
0
39
0
210
0
220
0
230
1
0
LINE
5
AD
100
AcDbEntity
8
SK2
62
256
6
ByLayer
370
13
48
1
60
0
100
AcDbLine
10
-49.5875
20
-8
30
0
11
-58.5
21
-8
31
0
39
0
210
0
220
0
230
1
0
LINE
5
AE
100
AcDbEntity
8
1
62
256
6
ByLayer
370
18
48
1
60
1
100
AcDbLine
10
-56.5
20
8
30
0
11
-56.039216
21
4.500002
31
0
39
0
210
0
220
0
230
1
0
LINE
5
AF
100
AcDbEntity
8
1
62
256
6
ByLayer
370
18
48
1
60
1
100
AcDbLine
10
-56.039216
20
4.500002
30
0
11
-56.960784
21
4.499998
31
0
39
0
210
0
220
0
230
1
0
LINE
5
B0
100
AcDbEntity
8
1
62
256
6
ByLayer
370
18
48
1
60
1
100
AcDbLine
10
-56.960784
20
4.499998
30
0
11
-56.5
21
8
31
0
39
0
210
0
220
0
230
1
0
LINE
5
B1
100
AcDbEntity
8
1
62
256
6
ByLayer
370
18
48
1
60
1
100
AcDbLine
10
-56.5
20
-8
30
0
11
-56.960784
21
-4.500002
31
0
39
0
210
0
220
0
230
1
0
LINE
5
B2
100
AcDbEntity
8
1
62
256
6
ByLayer
370
18
48
1
60
1
100
AcDbLine
10
-56.960784
20
-4.500002
30
0
11
-56.039216
21
-4.499998
31
0
39
0
210
0
220
0
230
1
0
LINE
5
B3
100
AcDbEntity
8
1
62
256
6
ByLayer
370
18
48
1
60
1
100
AcDbLine
10
-56.039216
20
-4.499998
30
0
11
-56.5
21
-8
31
0
39
0
210
0
220
0
230
1
0
LINE
5
B4
100
AcDbEntity
8
SK2
62
256
6
ByLayer
370
13
48
1
60
0
100
AcDbLine
10
85.542927
20
1.491773
30
0
11
94.034769
21
24.824384
31
0
39
0
210
0
220
0
230
1
0
LINE
5
B5
100
AcDbEntity
8
SK2
62
256
6
ByLayer
370
13
48
1
60
0
100
AcDbLine
10
85.542927
20
-1.491773
30
0
11
94.034769
21
-24.824384
31
0
39
0
210
0
220
0
230
1
0
LINE
5
B6
100
AcDbEntity
8
1
62
256
6
ByLayer
370
18
48
1
60
1
100
AcDbLine
10
93.350767
20
22.944985
30
0
11
96.767771
21
22.058198
31
0
39
0
210
0
220
0
230
1
0
LINE
5
B7
100
AcDbEntity
8
1
62
256
6
ByLayer
370
18
48
1
60
1
100
AcDbLine
10
96.767771
20
22.058198
30
0
11
96.421825
21
21.204027
31
0
39
0
210
0
220
0
230
1
0
LINE
5
B8
100
AcDbEntity
8
1
62
256
6
ByLayer
370
18
48
1
60
1
100
AcDbLine
10
96.421825
20
21.204027
30
0
11
93.350767
21
22.944985
31
0
39
0
210
0
220
0
230
1
0
LINE
5
B9
100
AcDbEntity
8
1
62
256
6
ByLayer
370
18
48
1
60
1
100
AcDbLine
10
93.350767
20
-22.944985
30
0
11
96.421822
21
-21.204028
31
0
39
0
210
0
220
0
230
1
0
LINE
5
BA
100
AcDbEntity
8
1
62
256
6
ByLayer
370
18
48
1
60
1
100
AcDbLine
10
96.421822
20
-21.204028
30
0
11
96.767774
21
-22.058197
31
0
39
0
210
0
220
0
230
1
0
LINE
5
BB
100
AcDbEntity
8
1
62
256
6
ByLayer
370
18
48
1
60
1
100
AcDbLine
10
96.767774
20
-22.058197
30
0
11
93.350767
21
-22.944985
31
0
39
0
210
0
220
0
230
1
0
LINE
5
110
100
AcDbEntity
8
1
62
256
6
ByLayer
370
13
48
0.05
60
0
100
AcDbLine
10
-54.5
20
0
30
0
11
88.72052
21
0
31
0
39
0
210
0
220
0
230
1
0
LINE
5
115
100
AcDbEntity
8
1
62
256
6
ByLayer
370
18
48
1
60
1
100
AcDbLine
10
92.5
20
7.6
30
0
11
92.960784
21
4.100002
31
0
39
0
210
0
220
0
230
1
0
LINE
5
116
100
AcDbEntity
8
1
62
256
6
ByLayer
370
18
48
1
60
1
100
AcDbLine
10
92.960784
20
4.100002
30
0
11
92.039216
21
4.099998
31
0
39
0
210
0
220
0
230
1
0
LINE
5
117
100
AcDbEntity
8
1
62
256
6
ByLayer
370
18
48
1
60
1
100
AcDbLine
10
92.039216
20
4.099998
30
0
11
92.5
21
7.6
31
0
39
0
210
0
220
0
230
1
0
LINE
5
119
100
AcDbEntity
8
1
62
256
6
ByLayer
370
18
48
1
60
1
100
AcDbLine
10
92.5
20
-7.6
30
0
11
92.039216
21
-4.100002
31
0
39
0
210
0
220
0
230
1
0
LINE
5
11A
100
AcDbEntity
8
1
62
256
6
ByLayer
370
18
48
1
60
1
100
AcDbLine
10
92.039216
20
-4.100002
30
0
11
92.960784
21
-4.099998
31
0
39
0
210
0
220
0
230
1
0
LINE
5
11B
100
AcDbEntity
8
1
62
256
6
ByLayer
370
18
48
1
60
1
100
AcDbLine
10
92.960784
20
-4.099998
30
0
11
92.5
21
-7.6
31
0
39
0
210
0
220
0
230
1
0
LINE
5
11F
100
AcDbEntity
8
1
62
256
6
ByLayer
370
18
48
1
60
1
100
AcDbLine
10
-56.5
20
8
30
0
11
-56.039216
21
4.500002
31
0
39
0
210
0
220
0
230
1
0
LINE
5
120
100
AcDbEntity
8
1
62
256
6
ByLayer
370
18
48
1
60
1
100
AcDbLine
10
-56.039216
20
4.500002
30
0
11
-56.960784
21
4.499998
31
0
39
0
210
0
220
0
230
1
0
LINE
5
121
100
AcDbEntity
8
1
62
256
6
ByLayer
370
18
48
1
60
1
100
AcDbLine
10
-56.960784
20
4.499998
30
0
11
-56.5
21
8
31
0
39
0
210
0
220
0
230
1
0
LINE
5
123
100
AcDbEntity
8
1
62
256
6
ByLayer
370
18
48
1
60
1
100
AcDbLine
10
-56.5
20
-8
30
0
11
-56.960784
21
-4.500002
31
0
39
0
210
0
220
0
230
1
0
LINE
5
124
100
AcDbEntity
8
1
62
256
6
ByLayer
370
18
48
1
60
1
100
AcDbLine
10
-56.960784
20
-4.500002
30
0
11
-56.039216
21
-4.499998
31
0
39
0
210
0
220
0
230
1
0
LINE
5
125
100
AcDbEntity
8
1
62
256
6
ByLayer
370
18
48
1
60
1
100
AcDbLine
10
-56.039216
20
-4.499998
30
0
11
-56.5
21
-8
31
0
39
0
210
0
220
0
230
1
0
LINE
5
128
100
AcDbEntity
8
1
62
256
6
ByLayer
370
18
48
1
60
1
100
AcDbLine
10
93.350767
20
22.944985
30
0
11
96.767771
21
22.058198
31
0
39
0
210
0
220
0
230
1
0
LINE
5
129
100
AcDbEntity
8
1
62
256
6
ByLayer
370
18
48
1
60
1
100
AcDbLine
10
96.767771
20
22.058198
30
0
11
96.421825
21
21.204027
31
0
39
0
210
0
220
0
230
1
0
LINE
5
12A
100
AcDbEntity
8
1
62
256
6
ByLayer
370
18
48
1
60
1
100
AcDbLine
10
96.421825
20
21.204027
30
0
11
93.350767
21
22.944985
31
0
39
0
210
0
220
0
230
1
0
LINE
5
12C
100
AcDbEntity
8
1
62
256
6
ByLayer
370
18
48
1
60
1
100
AcDbLine
10
93.350767
20
-22.944985
30
0
11
96.421822
21
-21.204028
31
0
39
0
210
0
220
0
230
1
0
LINE
5
12D
100
AcDbEntity
8
1
62
256
6
ByLayer
370
18
48
1
60
1
100
AcDbLine
10
96.421822
20
-21.204028
30
0
11
96.767774
21
-22.058197
31
0
39
0
210
0
220
0
230
1
0
LINE
5
12E
100
AcDbEntity
8
1
62
256
6
ByLayer
370
18
48
1
60
1
100
AcDbLine
10
96.767774
20
-22.058197
30
0
11
93.350767
21
-22.944985
31
0
39
0
210
0
220
0
230
1
0
MTEXT
5
111
100
AcDbEntity
8
2
62
256
6
ByLayer
370
18
48
1
60
0
100
AcDbMText
10
91.158886
20
21.258437
30
0
210
0
220
0
230
1
1
%%c
40
3
41
0
44
1.084337
50
90
71
7
72
5
7
iso_b_vert
0
MTEXT
5
114
100
AcDbEntity
8
2
62
256
6
ByLayer
370
18
48
1
60
0
100
AcDbMText
10
91.158886
20
27.235
30
0
210
0
220
0
230
1
1
\W0.6563;15.2
40
3
41
0
44
1.084337
50
90
71
7
72
5
7
iso_b_vert
0
MTEXT
5
11D
100
AcDbEntity
8
SK2
62
256
6
ByLayer
370
18
48
1
60
0
100
AcDbMText
10
-57.841114
20
6.658437
30
0
210
0
220
0
230
1
1
%%c
40
3
41
0
44
1.084337
50
90
71
7
72
5
7
iso_b_vert
0
MTEXT
5
11E
100
AcDbEntity
8
SK2
62
256
6
ByLayer
370
18
48
1
60
0
100
AcDbMText
10
-57.841114
20
12.635
30
0
210
0
220
0
230
1
1
\W0.5321;16
40
3
41
0
44
1.084337
50
90
71
7
72
5
7
iso_b_vert
0
MTEXT
5
127
100
AcDbEntity
8
SK2
62
256
6
ByLayer
370
18
48
1
60
0
100
AcDbMText
10
105.976707
20
-2.114886
30
0
210
0
220
0
230
1
1
\W0.7071;140%%d
40
3
41
0
44
1.084337
50
0
71
7
72
5
7
iso_b_vert
0
MTEXT
5
130
100
AcDbEntity
8
SK6
62
256
6
ByLayer
370
18
48
1
60
0
100
AcDbMText
10
-3.207143
20
-77.114886
30
0
210
0
220
0
230
1
1
\W0.7415;860.1-1520-062A1-SD S2BM
40
3
41
0
44
1.084337
50
0
71
7
72
5
7
iso_b_vert
0
HATCH
5
118
100
AcDbEntity
8
2
62
256
6
ByLayer
370
13
48
1
60
0
100
AcDbHatch
10
0
20
0
30
0
210
0
220
0
230
1
2
ANSI31
70
0
71
0
91
1
92
5
93
3
72
1
10
92.5
20
7.59999999999999
11
92.9607837415528
21
4.10000169255318
72
1
10
92.9607837415528
20
4.10000169255318
11
92.0392162584472
21
4.09999830744681
72
1
10
92.0392162584472
20
4.09999830744681
11
92.5
21
7.59999999999999
97
0
75
0
76
1
52
0
41
0.0062
77
0
78
1
53
45
43
0
44
0
45
-0.0139193969876572
46
0.0139193969876572
79
0
47
0
98
1
10
0
20
0
0
HATCH
5
11C
100
AcDbEntity
8
2
62
256
6
ByLayer
370
13
48
1
60
0
100
AcDbHatch
10
0
20
0
30
0
210
0
220
0
230
1
2
ANSI31
70
0
71
0
91
1
92
5
93
3
72
1
10
92.5
20
-7.60000000000002
11
92.0392162584472
21
-4.10000169255321
72
1
10
92.0392162584472
20
-4.10000169255321
11
92.9607837415528
21
-4.09999830744684
72
1
10
92.9607837415528
20
-4.09999830744684
11
92.5
21
-7.60000000000002
97
0
75
0
76
1
52
0
41
0.0062
77
0
78
1
53
45
43
0
44
0
45
-0.0139193969876572
46
0.0139193969876572
79
0
47
0
98
1
10
0
20
0
0
HATCH
5
122
100
AcDbEntity
8
SK2
62
256
6
ByLayer
370
13
48
1
60
0
100
AcDbHatch
10
0
20
0
30
0
210
0
220
0
230
1
2
ANSI31
70
0
71
0
91
1
92
5
93
3
72
1
10
-56.5
20
8
11
-56.0392162584472
21
4.50000169255318
72
1
10
-56.0392162584472
20
4.50000169255318
11
-56.9607837415528
21
4.49999830744682
72
1
10
-56.9607837415528
20
4.49999830744682
11
-56.5
21
8
97
0
75
0
76
1
52
0
41
0.0062
77
0
78
1
53
45
43
0
44
0
45
-0.0139193969876572
46
0.0139193969876572
79
0
47
0
98
1
10
0
20
0
0
HATCH
5
126
100
AcDbEntity
8
SK2
62
256
6
ByLayer
370
13
48
1
60
0
100
AcDbHatch
10
0
20
0
30
0
210
0
220
0
230
1
2
ANSI31
70
0
71
0
91
1
92
5
93
3
72
1
10
-56.5
20
-8
11
-56.9607837415528
21
-4.50000169255318
72
1
10
-56.9607837415528
20
-4.50000169255318
11
-56.0392162584472
21
-4.49999830744682
72
1
10
-56.0392162584472
20
-4.49999830744682
11
-56.5
21
-8
97
0
75
0
76
1
52
0
41
0.0062
77
0
78
1
53
45
43
0
44
0
45
-0.0139193969876572
46
0.0139193969876572
79
0
47
0
98
1
10
0
20
0
0
HATCH
5
12B
100
AcDbEntity
8
SK2
62
256
6
ByLayer
370
13
48
1
60
0
100
AcDbHatch
10
0
20
0
30
0
210
0
220
0
230
1
2
ANSI31
70
0
71
0
91
1
92
5
93
3
72
1
10
93.350766777365
20
22.9449846377338
11
96.767771258801
21
22.0581982020818
72
1
10
96.767771258801
20
22.0581982020818
11
96.4218253556871
21
21.2040272250241
72
1
10
96.4218253556871
20
21.2040272250241
11
93.350766777365
21
22.9449846377338
97
0
75
0
76
1
52
0
41
0.0062
77
0
78
1
53
45
43
0
44
0
45
-0.0139193969876572
46
0.0139193969876572
79
0
47
0
98
1
10
0
20
0
0
HATCH
5
12F
100
AcDbEntity
8
SK2
62
256
6
ByLayer
370
13
48
1
60
0
100
AcDbHatch
10
0
20
0
30
0
210
0
220
0
230
1
2
ANSI31
70
0
71
0
91
1
92
5
93
3
72
1
10
93.350766777365
20
-22.9449846377338
11
96.4218222181466
21
-21.2040284957659
72
1
10
96.4218222181466
20
-21.2040284957659
11
96.7677743963415
21
-22.05819693134
72
1
10
96.7677743963415
20
-22.05819693134
11
93.350766777365
21
-22.9449846377338
97
0
75
0
76
1
52
0
41
0.0062
77
0
78
1
53
45
43
0
44
0
45
-0.0139193969876572
46
0.0139193969876572
79
0
47
0
98
1
10
0
20
0
0
DIMENSION
5
133
100
AcDbEntity
8
SK2
62
256
6
ByLayer
370
18
48
1
60
0
100
AcDbDimension
2
_U0
10
22.4
20
-25.027029
30
0
11
53.7
21
-25.027029
31
0
70
32
71
1
72
1
41
1
210
0
220
0
230
1
3
Standard
100
AcDbAlignedDimension
13
85
23
-7.6
33
0
14
22.4
24
-7.6
34
0
50
0
100
AcDbRotatedDimension
1001
ACAD
1000
DSTYLE
1002
{
1070
   371
1070
    13
1070
   372
1070
    13
1070
   170
1070
     0
1070
   144
1040
1.0
1070
   277
1070
     2
1070
   284
1070
     8
1070
   278
1070
    46
1070
   146
1040
1.166667
1070
   345
1005
16
1070
   347
1005
16
1070
   346
1005
16
1070
   344
1005
0
1070
   343
1005
0
1070
   172
1070
     1
1070
    76
1070
     0
1070
    75
1070
     0
1070
   282
1070
     0
1070
   281
1070
     0
1070
     3
1000

1070
    71
1070
     0
1070
    74
1070
     0
1070
   279
1070
     0
1070
   173
1070
     1
1070
   340
1005
112
1070
   271
1070
     2
1070
   272
1070
     2
1070
    77
1070
     1
1070
    73
1070
     1
1070
   171
1070
     3
1070
   274
1070
     4
1070
   177
1070
     2
1070
   176
1070
     2
1070
   178
1070
     2
1070
    78
1070
     8
1070
    48
1040
-0.1
1070
    41
1040
3.5
1070
   147
1040
1.5
1070
    42
1040
1.5875
1070
    44
1040
2.0
1070
   140
1040
3.0
1002
}
1001
ACAD_DSTYLE_DIM_LINETYPE
1070
   380
1005
16
1001
ACAD_DSTYLE_DIM_EXT1_LINETYPE
1070
   381
1005
16
1001
ACAD_DSTYLE_DIM_EXT2_LINETYPE
1070
   382
1005
16
0
DIMENSION
5
14E
100
AcDbEntity
8
SK2
62
256
6
ByLayer
370
18
48
1
60
0
100
AcDbDimension
2
_U1
10
2
20
-35.027029
30
0
11
43.5
21
-35.027029
31
0
70
32
71
1
72
1
41
1
210
0
220
0
230
1
3
Standard
100
AcDbAlignedDimension
13
85
23
-7.6
33
0
14
2
24
-7.6
34
0
50
0
100
AcDbRotatedDimension
1001
ACAD
1000
DSTYLE
1002
{
1070
   371
1070
    13
1070
   372
1070
    13
1070
     3
1000

1070
   170
1070
     0
1070
   144
1040
1.0
1070
   277
1070
     2
1070
   284
1070
     8
1070
   278
1070
    46
1070
   146
1040
1.166667
1070
   345
1005
16
1070
   347
1005
16
1070
   346
1005
16
1070
   344
1005
0
1070
   343
1005
0
1070
   172
1070
     1
1070
    76
1070
     0
1070
    75
1070
     0
1070
   282
1070
     0
1070
   281
1070
     0
1070
    71
1070
     0
1070
    74
1070
     0
1070
   279
1070
     0
1070
   173
1070
     1
1070
   340
1005
112
1070
   271
1070
     2
1070
   272
1070
     2
1070
    77
1070
     1
1070
    73
1070
     1
1070
   171
1070
     3
1070
   274
1070
     4
1070
   177
1070
     2
1070
   176
1070
     2
1070
   178
1070
     2
1070
    78
1070
     8
1070
    48
1040
-0.1
1070
    41
1040
3.5
1070
   147
1040
1.5
1070
    42
1040
1.5875
1070
    44
1040
2.0
1070
   140
1040
3.0
1002
}
1001
ACAD_DSTYLE_DIM_LINETYPE
1070
   380
1005
16
1001
ACAD_DSTYLE_DIM_EXT1_LINETYPE
1070
   381
1005
16
1001
ACAD_DSTYLE_DIM_EXT2_LINETYPE
1070
   382
1005
16
0
DIMENSION
5
166
100
AcDbEntity
8
SK2
62
256
6
ByLayer
370
18
48
1
60
0
100
AcDbDimension
2
_U2
10
0
20
-43.027029
30
0
11
-24
21
-43.027029
31
0
70
32
71
1
72
1
41
1
210
0
220
0
230
1
3
Standard
100
AcDbAlignedDimension
13
-48
23
-8
33
0
14
0
24
-8
34
0
50
0
100
AcDbRotatedDimension
1001
ACAD
1000
DSTYLE
1002
{
1070
   371
1070
    13
1070
   372
1070
    13
1070
     3
1000

1070
   170
1070
     0
1070
   144
1040
1.0
1070
   277
1070
     2
1070
   284
1070
     8
1070
   278
1070
    46
1070
   146
1040
1.166667
1070
   345
1005
16
1070
   347
1005
16
1070
   346
1005
16
1070
   344
1005
0
1070
   343
1005
0
1070
   172
1070
     1
1070
    76
1070
     0
1070
    75
1070
     0
1070
   282
1070
     0
1070
   281
1070
     0
1070
    71
1070
     0
1070
    74
1070
     0
1070
   279
1070
     0
1070
   173
1070
     1
1070
   340
1005
112
1070
   271
1070
     2
1070
   272
1070
     2
1070
    77
1070
     1
1070
    73
1070
     1
1070
   171
1070
     3
1070
   274
1070
     4
1070
   177
1070
     2
1070
   176
1070
     2
1070
   178
1070
     2
1070
    78
1070
     8
1070
    48
1040
-0.1
1070
    41
1040
3.5
1070
   147
1040
1.5
1070
    42
1040
1.5875
1070
    44
1040
2.0
1070
   140
1040
3.0
1002
}
1001
ACAD_DSTYLE_DIM_LINETYPE
1070
   380
1005
16
1001
ACAD_DSTYLE_DIM_EXT1_LINETYPE
1070
   381
1005
16
1001
ACAD_DSTYLE_DIM_EXT2_LINETYPE
1070
   382
1005
16
0
DIMENSION
5
17E
100
AcDbEntity
8
SK2
62
256
6
ByLayer
370
18
48
1
60
0
100
AcDbDimension
2
_U3
10
85
20
-51.027029
30
0
11
18.5
21
-51.027029
31
0
70
32
71
1
72
1
41
1
210
0
220
0
230
1
3
Standard
100
AcDbAlignedDimension
13
-48
23
-8
33
0
14
85
24
-7.6
34
0
50
0
100
AcDbRotatedDimension
1001
ACAD
1000
DSTYLE
1002
{
1070
   371
1070
    13
1070
   372
1070
    13
1070
     3
1000

1070
   170
1070
     0
1070
   144
1040
1.0
1070
   277
1070
     2
1070
   284
1070
     8
1070
   278
1070
    46
1070
   146
1040
1.166667
1070
   345
1005
16
1070
   347
1005
16
1070
   346
1005
16
1070
   344
1005
0
1070
   343
1005
0
1070
   172
1070
     1
1070
    76
1070
     0
1070
    75
1070
     0
1070
   282
1070
     0
1070
   281
1070
     0
1070
    71
1070
     0
1070
    74
1070
     0
1070
   279
1070
     0
1070
   173
1070
     1
1070
   340
1005
112
1070
   271
1070
     2
1070
   272
1070
     2
1070
    77
1070
     1
1070
    73
1070
     1
1070
   171
1070
     3
1070
   274
1070
     4
1070
   177
1070
     2
1070
   176
1070
     2
1070
   178
1070
     2
1070
    78
1070
     8
1070
    48
1040
-0.1
1070
    41
1040
3.5
1070
   147
1040
1.5
1070
    42
1040
1.5875
1070
    44
1040
2.0
1070
   140
1040
3.0
1002
}
1001
ACAD_DSTYLE_DIM_LINETYPE
1070
   380
1005
16
1001
ACAD_DSTYLE_DIM_EXT1_LINETYPE
1070
   381
1005
16
1001
ACAD_DSTYLE_DIM_EXT2_LINETYPE
1070
   382
1005
16
0
DIMENSION
5
196
100
AcDbEntity
8
2
62
256
6
ByLayer
370
18
48
1
60
0
100
AcDbDimension
2
_U4
10
0
20
-43.027029
30
0
11
42.5
21
-43.027029
31
0
70
32
71
1
72
1
41
1
210
0
220
0
230
1
3
Standard
100
AcDbAlignedDimension
13
85
23
-7.6
33
0
14
0
24
-7.6
34
0
50
0
100
AcDbRotatedDimension
1001
ACAD
1000
DSTYLE
1002
{
1070
   371
1070
    13
1070
   372
1070
    13
1070
     3
1000

1070
   170
1070
     0
1070
   144
1040
1.0
1070
   277
1070
     2
1070
   284
1070
     8
1070
   278
1070
    46
1070
   146
1040
1.166667
1070
   345
1005
16
1070
   347
1005
16
1070
   346
1005
16
1070
   344
1005
0
1070
   343
1005
0
1070
   172
1070
     1
1070
    76
1070
     0
1070
    75
1070
     0
1070
   282
1070
     0
1070
   281
1070
     0
1070
    71
1070
     0
1070
    74
1070
     0
1070
   279
1070
     0
1070
   173
1070
     1
1070
   340
1005
112
1070
   271
1070
     2
1070
   272
1070
     2
1070
    77
1070
     1
1070
    73
1070
     1
1070
   171
1070
     3
1070
   274
1070
     4
1070
   177
1070
     2
1070
   176
1070
     2
1070
   178
1070
     2
1070
    78
1070
     8
1070
    48
1040
-0.1
1070
    41
1040
3.5
1070
   147
1040
1.5
1070
    42
1040
1.5875
1070
    44
1040
2.0
1070
   140
1040
3.0
1002
}
1001
ACAD_DSTYLE_DIM_LINETYPE
1070
   380
1005
16
1001
ACAD_DSTYLE_DIM_EXT1_LINETYPE
1070
   381
1005
16
1001
ACAD_DSTYLE_DIM_EXT2_LINETYPE
1070
   382
1005
16
0
ENDSEC
0
SECTION
2
OBJECTS
0
DICTIONARY
5
21e
330
0
100
AcDbDictionary
280
0
281
1
3
ACAD_GROUP
350
21f
3
ACAD_MLINESTYLE
350
220
0
DICTIONARY
5
21f
330
0
100
AcDbDictionary
280
0
281
1
0
DICTIONARY
5
220
330
0
100
AcDbDictionary
280
0
281
1
3
Standard
350
18
0
MLINESTYLE
5
18
330
220
100
AcDbMlineStyle
2
Standard
70
0
3

62
256
51
90
52
90
71
2
49
-0.5
62
256
6
ByLayer
49
0.5
62
256
6
ByLayer
0
RASTERVARIABLES
5
20c
330

100
AcDbRasterVariables
90
0
70
1
71
1
72
1
0
ENDSEC
0
EOF
