0
SECTION
2
HEADER
9
$ACADVER
1
AC1015
9
$DWGCODEPAGE
3
ANSI_1252
9
$HANDSEED
5
237
9
$ANGBASE
50
0
9
$ANGDIR
70
0
9
$ATTMODE
70
1
9
$AUNITS
70
0
9
$AUPREC
70
0
9
$CECOLOR
62
256
9
$CELTSCALE
40
1
9
$CELTYPE
6
ByLayer
9
$CELWEIGHT
370
18
9
$CLAYER
8
0
9
$CMLJUST
70
0
9
$CMLSCALE
40
1
9
$CMLSTYLE
2
Standard
9
$DIMSTYLE
2
Standard
9
$TEXTSIZE
40
0.2
9
$TEXTSTYLE
7
Standard
9
$LUNITS
70
2
9
$LUPREC
70
4
9
$EXTNAMES
290
1
9
$INSUNITS
70
4
9
$LTSCALE
40
1
9
$LWDISPLAY
290
1
9
$PDMODE
70
0
9
$PDSIZE
40
0
9
$PLINEGEN
70
0
0
ENDSEC
0
SECTION
2
CLASSES
0
CLASS
1
RASTERVARIABLES
2
AcDbRasterVariables
3
ISM
90
0
280
0
281
0
0
ENDSEC
0
SECTION
2
TABLES
0
TABLE
2
VPORT
5
22d
100
AcDbSymbolTable
0
VPORT
5
1
100
AcDbSymbolTableRecord
100
AcDbViewportTableRecord
2
*Active
70
0
10
0
20
0
11
1
21
1
12
-1
22
1
13
0
23
0
14
0.5
24
0.5
15
10
25
10
16
0
26
0
36
1
17
0
27
0
37
0
0
ENDTAB
0
TABLE
2
LTYPE
5
22e
100
AcDbSymbolTable
0
LTYPE
5
14
100
AcDbSymbolTableRecord
100
AcDbLinetypeTableRecord
70
0
2
ByBlock
3

72
65
73
0
40
0
0
LTYPE
5
15
100
AcDbSymbolTableRecord
100
AcDbLinetypeTableRecord
70
0
2
ByLayer
3

72
65
73
0
40
0
0
LTYPE
5
16
100
AcDbSymbolTableRecord
100
AcDbLinetypeTableRecord
70
0
2
Continuous
3
Solid line
72
65
73
0
40
0
0
LTYPE
5
6E
100
AcDbSymbolTableRecord
100
AcDbLinetypeTableRecord
70
0
2
CENTER
3
____ _ ____ _ ____ _ ____
72
65
73
4
40
47.5
49
22
74
0
49
-8.5
74
0
49
8.5
74
0
49
-8.5
74
0
0
LTYPE
5
6F
100
AcDbSymbolTableRecord
100
AcDbLinetypeTableRecord
70
0
2
DASHED
3
__ __ __ __ __ __ __ __ __
72
65
73
2
40
25.72
49
12.86
74
0
49
-12.86
74
0
0
ENDTAB
0
TABLE
2
LAYER
5
22f
100
AcDbSymbolTable
0
LAYER
5
10
100
AcDbSymbolTableRecord
100
AcDbLayerTableRecord
2
0
70
0
62
7
6
Continuous
290
1
370
-3
390
0
0
LAYER
5
71
100
AcDbSymbolTableRecord
100
AcDbLayerTableRecord
2
80
70
0
62
-6
6
Continuous
290
1
370
-3
390
0
0
LAYER
5
73
100
AcDbSymbolTableRecord
100
AcDbLayerTableRecord
2
81
70
0
62
-3
6
Continuous
290
1
370
-3
390
0
0
LAYER
5
75
100
AcDbSymbolTableRecord
100
AcDbLayerTableRecord
2
1
70
0
62
4
6
Continuous
290
1
370
-3
390
0
0
LAYER
5
83
100
AcDbSymbolTableRecord
100
AcDbLayerTableRecord
2
4
70
0
62
-2
6
CENTER
290
1
370
-3
390
0
0
LAYER
5
A9
100
AcDbSymbolTableRecord
100
AcDbLayerTableRecord
2
2
70
0
62
7
6
Continuous
290
1
370
-3
390
0
0
LAYER
5
142
100
AcDbSymbolTableRecord
100
AcDbLayerTableRecord
2
Defpoints
70
0
62
7
6
Continuous
290
0
370
-3
390
0
0
LAYER
5
219
100
AcDbSymbolTableRecord
100
AcDbLayerTableRecord
2
SK4
70
0
62
2
6
CENTER
290
1
370
-3
390
0
0
LAYER
5
21a
100
AcDbSymbolTableRecord
100
AcDbLayerTableRecord
2
SK1
70
0
62
4
6
Continuous
290
1
370
-3
390
0
0
LAYER
5
21b
100
AcDbSymbolTableRecord
100
AcDbLayerTableRecord
2
SK2
70
0
62
7
6
Continuous
290
1
370
-3
390
0
0
LAYER
5
21c
100
AcDbSymbolTableRecord
100
AcDbLayerTableRecord
2
SK6
70
0
62
5
6
Continuous
290
1
370
-3
390
0
0
ENDTAB
0
TABLE
2
STYLE
5
230
100
AcDbSymbolTable
0
STYLE
5
11
100
AcDbSymbolTableRecord
100
AcDbTextStyleTableRecord
2
Standard
3
txt
70
0
71
0
40
0
41
1
42
0
50
0
0
STYLE
5
11E
100
AcDbSymbolTableRecord
100
AcDbTextStyleTableRecord
2
iso_b_vert
3
simplex.shx
70
0
71
0
40
0
41
1
42
0
50
0
0
STYLE
5
11F
100
AcDbSymbolTableRecord
100
AcDbTextStyleTableRecord
2
DWGDirectTextStyle
3
simplex
70
0
71
0
40
0
41
1
42
0
50
0
0
ENDTAB
0
TABLE
2
DIMSTYLE
5
231
100
AcDbSymbolTable
100
AcDbDimStyleTable
0
DIMSTYLE
105
27
100
AcDbSymbolTableRecord
100
AcDbDimStyleTableRecord
2
Standard
70
0
3
<>
41
0.18
42
0.0625
44
0.18
140
0.18
147
0.09
73
0
74
0
77
1
271
2
275
0
278
52
280
0
340
11
0
ENDTAB
0
TABLE
2
VIEW
5
232
100
AcDbSymbolTable
0
ENDTAB
0
TABLE
2
UCS
5
233
100
AcDbSymbolTable
0
ENDTAB
0
TABLE
2
APPID
5
234
100
AcDbSymbolTable
0
APPID
5
12
100
AcDbSymbolTableRecord
100
AcDbRegAppTableRecord
2
ACAD
70
0
0
APPID
5
13E
100
AcDbSymbolTableRecord
100
AcDbRegAppTableRecord
2
ACAD_DSTYLE_DIMBREAK
70
0
0
APPID
5
1D8
100
AcDbSymbolTableRecord
100
AcDbRegAppTableRecord
2
ACAD_DSTYLE_DIM_LINETYPE
70
0
0
APPID
5
1D9
100
AcDbSymbolTableRecord
100
AcDbRegAppTableRecord
2
ACAD_DSTYLE_DIM_EXT1_LINETYPE
70
0
0
APPID
5
1DA
100
AcDbSymbolTableRecord
100
AcDbRegAppTableRecord
2
ACAD_DSTYLE_DIM_EXT2_LINETYPE
70
0
0
APPID
5
215
100
AcDbSymbolTableRecord
100
AcDbRegAppTableRecord
2
ACAD_MLEADERVER
70
0
0
ENDTAB
0
TABLE
2
BLOCK_RECORD
5
235
100
AcDbSymbolTable
0
BLOCK_RECORD
5
1F
100
AcDbSymbolTableRecord
100
AcDbBlockTableRecord
2
*Model_Space
340
0
70
0
0
BLOCK_RECORD
5
1B
100
AcDbSymbolTableRecord
100
AcDbBlockTableRecord
2
*Paper_Space
340
0
70
0
0
BLOCK_RECORD
5
23
100
AcDbSymbolTableRecord
100
AcDbBlockTableRecord
2
*Paper_Space0
340
0
70
0
0
BLOCK_RECORD
5
143
100
AcDbSymbolTableRecord
100
AcDbBlockTableRecord
2
*D1
340
0
70
0
0
BLOCK_RECORD
5
14F
100
AcDbSymbolTableRecord
100
AcDbBlockTableRecord
2
_U0
340
0
70
0
0
BLOCK_RECORD
5
15D
100
AcDbSymbolTableRecord
100
AcDbBlockTableRecord
2
*D3
340
0
70
0
0
BLOCK_RECORD
5
169
100
AcDbSymbolTableRecord
100
AcDbBlockTableRecord
2
_U1
340
0
70
0
0
BLOCK_RECORD
5
175
100
AcDbSymbolTableRecord
100
AcDbBlockTableRecord
2
*D5
340
0
70
0
0
BLOCK_RECORD
5
181
100
AcDbSymbolTableRecord
100
AcDbBlockTableRecord
2
_U2
340
0
70
0
0
BLOCK_RECORD
5
18D
100
AcDbSymbolTableRecord
100
AcDbBlockTableRecord
2
*D7
340
0
70
0
0
BLOCK_RECORD
5
199
100
AcDbSymbolTableRecord
100
AcDbBlockTableRecord
2
_U3
340
0
70
0
0
BLOCK_RECORD
5
1A5
100
AcDbSymbolTableRecord
100
AcDbBlockTableRecord
2
*D9
340
0
70
0
0
BLOCK_RECORD
5
1B1
100
AcDbSymbolTableRecord
100
AcDbBlockTableRecord
2
_U4
340
0
70
0
0
ENDTAB
0
ENDSEC
0
SECTION
2
BLOCKS
0
BLOCK
5
20
100
AcDbEntity
8
0
100
AcDbBlockBegin
2
*Model_Space
70
0
10
0
20
0
30
0
3
*Model_Space
0
ENDBLK
5
21
100
AcDbEntity
8
0
100
AcDbBlockEnd
0
BLOCK
5
1C
100
AcDbEntity
8
0
100
AcDbBlockBegin
2
*Paper_Space
70
0
10
0
20
0
30
0
3
*Paper_Space
0
ENDBLK
5
1D
100
AcDbEntity
8
0
100
AcDbBlockEnd
0
BLOCK
5
24
100
AcDbEntity
8
0
100
AcDbBlockBegin
2
*Paper_Space0
70
0
10
0
20
0
30
0
3
*Paper_Space0
0
ENDBLK
5
25
100
AcDbEntity
8
0
100
AcDbBlockEnd
0
BLOCK
5
144
100
AcDbEntity
8
0
100
AcDbBlockBegin
2
*D1
70
1
10
0
20
0
30
0
3
*D1
0
LINE
5
146
100
AcDbEntity
8
0
62
256
6
ByLayer
370
-2
48
1
60
0
100
AcDbLine
10
179
20
-8.9325
30
0
11
179
21
-28.760482
31
0
39
0
210
0
220
0
230
1
0
LINE
5
147
100
AcDbEntity
8
0
62
256
6
ByLayer
370
-2
48
1
60
0
100
AcDbLine
10
58.9
20
-8.9325
30
0
11
58.9
21
-28.760482
31
0
39
0
210
0
220
0
230
1
0
LINE
5
148
100
AcDbEntity
8
0
62
256
6
ByLayer
370
-2
48
1
60
0
100
AcDbLine
10
175.5
20
-26.760482
30
0
11
62.4
21
-26.760482
31
0
39
0
210
0
220
0
230
1
0
SOLID
5
149
100
AcDbEntity
8
0
62
256
6
ByLayer
370
-1
48
1
60
0
100
AcDbTrace
10
175.5
20
-27.343815
30
0
11
175.5
21
-26.177148
31
0
12
179
22
-26.760482
32
0
13
179
23
-26.760482
33
0
39
0
210
0
220
0
230
1
0
SOLID
5
14A
100
AcDbEntity
8
0
62
256
6
ByLayer
370
-1
48
1
60
0
100
AcDbTrace
10
62.4
20
-26.177148
30
0
11
62.4
21
-27.343815
31
0
12
58.9
22
-26.760482
32
0
13
58.9
23
-26.760482
33
0
39
0
210
0
220
0
230
1
0
MTEXT
5
14B
100
AcDbEntity
8
0
62
256
6
ByLayer
370
18
48
1
60
0
100
AcDbMText
10
118.95
20
-20.760482
30
0
210
0
220
0
230
1
1
\A1;120.1
40
3
41
0
44
1
50
0
71
5
72
5
7
iso_b_vert
0
POINT
5
14C
100
AcDbEntity
8
Defpoints
62
0
6
ByLayer
370
-1
48
1
60
0
100
AcDbPoint
10
179
20
-7.345
30
0
39
0
210
0
220
0
230
1
50
360
0
POINT
5
14D
100
AcDbEntity
8
Defpoints
62
0
6
ByLayer
370
-1
48
1
60
0
100
AcDbPoint
10
58.9
20
-7.345
30
0
39
0
210
0
220
0
230
1
50
360
0
POINT
5
14E
100
AcDbEntity
8
Defpoints
62
0
6
ByLayer
370
-1
48
1
60
0
100
AcDbPoint
10
58.9
20
-26.760482
30
0
39
0
210
0
220
0
230
1
50
360
0
ENDBLK
5
145
100
AcDbEntity
8
0
100
AcDbBlockEnd
0
BLOCK
5
158
100
AcDbEntity
8
0
100
AcDbBlockBegin
2
_U0
70
0
10
0
20
0
30
0
3
_U0
0
MTEXT
5
150
100
AcDbEntity
8
SK2
62
256
6
ByLayer
370
18
48
1
60
0
100
AcDbMText
10
115.217515
20
-24.562867
30
0
210
0
220
0
230
1
1
\W0.6725;120.1
40
3
41
0
44
1.084337
50
0
71
7
72
5
7
iso_b_vert
0
MTEXT
5
151
100
AcDbEntity
8
SK2
62
256
6
ByLayer
370
18
48
1
60
0
100
AcDbMText
10
113.117515
20
-24.562867
30
0
210
0
220
0
230
1
1
\W1.1313;{\H1.88x;(}
40
3
41
0
44
1.084337
50
0
71
7
72
5
7
iso_b_vert
0
MTEXT
5
152
100
AcDbEntity
8
SK2
62
256
6
ByLayer
370
18
48
1
60
0
100
AcDbMText
10
123.000485
20
-24.562867
30
0
210
0
220
0
230
1
1
\W1.1313;{\H1.88x;)}
40
3
41
0
44
1.084337
50
0
71
7
72
5
7
iso_b_vert
0
LINE
5
153
100
AcDbEntity
8
SK2
62
256
6
ByLayer
370
13
48
1
60
0
100
AcDbLine
10
179
20
-8.9325
30
0
11
179
21
-28.760482
31
0
39
0
210
0
220
0
230
1
0
LINE
5
154
100
AcDbEntity
8
SK2
62
256
6
ByLayer
370
13
48
1
60
0
100
AcDbLine
10
58.9
20
-8.9325
30
0
11
58.9
21
-28.760482
31
0
39
0
210
0
220
0
230
1
0
LINE
5
155
100
AcDbEntity
8
SK2
62
256
6
ByLayer
370
13
48
1
60
0
100
AcDbLine
10
179
20
-26.760482
30
0
11
58.9
21
-26.760482
31
0
39
0
210
0
220
0
230
1
0
SOLID
5
156
100
AcDbEntity
8
SK2
62
256
6
ByLayer
370
18
48
1
60
0
100
AcDbTrace
10
179
20
-26.760482
30
0
11
175.500002
21
-27.221265
31
0
12
175.499998
22
-26.299698
32
0
13
175.499998
23
-26.299698
33
0
39
0
210
0
220
0
230
1
0
SOLID
5
157
100
AcDbEntity
8
SK2
62
256
6
ByLayer
370
18
48
1
60
0
100
AcDbTrace
10
58.9
20
-26.760482
30
0
11
62.399998
21
-26.299698
31
0
12
62.400002
22
-27.221265
32
0
13
62.400002
23
-27.221265
33
0
39
0
210
0
220
0
230
1
0
ENDBLK
5
159
100
AcDbEntity
8
0
100
AcDbBlockEnd
0
BLOCK
5
15E
100
AcDbEntity
8
0
100
AcDbBlockBegin
2
*D3
70
1
10
0
20
0
30
0
3
*D3
0
LINE
5
160
100
AcDbEntity
8
0
62
256
6
ByLayer
370
-2
48
1
60
0
100
AcDbLine
10
179
20
-8.9325
30
0
11
179
21
-38.760482
31
0
39
0
210
0
220
0
230
1
0
LINE
5
161
100
AcDbEntity
8
0
62
256
6
ByLayer
370
-2
48
1
60
0
100
AcDbLine
10
7
20
-8.9325
30
0
11
7
21
-38.760482
31
0
39
0
210
0
220
0
230
1
0
LINE
5
162
100
AcDbEntity
8
0
62
256
6
ByLayer
370
-2
48
1
60
0
100
AcDbLine
10
175.5
20
-36.760482
30
0
11
10.5
21
-36.760482
31
0
39
0
210
0
220
0
230
1
0
SOLID
5
163
100
AcDbEntity
8
0
62
256
6
ByLayer
370
-1
48
1
60
0
100
AcDbTrace
10
175.5
20
-37.343815
30
0
11
175.5
21
-36.177148
31
0
12
179
22
-36.760482
32
0
13
179
23
-36.760482
33
0
39
0
210
0
220
0
230
1
0
SOLID
5
164
100
AcDbEntity
8
0
62
256
6
ByLayer
370
-1
48
1
60
0
100
AcDbTrace
10
10.5
20
-36.177148
30
0
11
10.5
21
-37.343815
31
0
12
7
22
-36.760482
32
0
13
7
23
-36.760482
33
0
39
0
210
0
220
0
230
1
0
MTEXT
5
165
100
AcDbEntity
8
0
62
256
6
ByLayer
370
18
48
1
60
0
100
AcDbMText
10
93
20
-30.760482
30
0
210
0
220
0
230
1
1
\A1;172
40
3
41
0
44
1
50
0
71
5
72
5
7
iso_b_vert
0
POINT
5
166
100
AcDbEntity
8
Defpoints
62
0
6
ByLayer
370
-1
48
1
60
0
100
AcDbPoint
10
179
20
-7.345
30
0
39
0
210
0
220
0
230
1
50
360
0
POINT
5
167
100
AcDbEntity
8
Defpoints
62
0
6
ByLayer
370
-1
48
1
60
0
100
AcDbPoint
10
7
20
-7.345
30
0
39
0
210
0
220
0
230
1
50
360
0
POINT
5
168
100
AcDbEntity
8
Defpoints
62
0
6
ByLayer
370
-1
48
1
60
0
100
AcDbPoint
10
7
20
-36.760482
30
0
39
0
210
0
220
0
230
1
50
360
0
ENDBLK
5
15F
100
AcDbEntity
8
0
100
AcDbBlockEnd
0
BLOCK
5
170
100
AcDbEntity
8
0
100
AcDbBlockBegin
2
_U1
70
0
10
0
20
0
30
0
3
_U1
0
MTEXT
5
16A
100
AcDbEntity
8
SK2
62
256
6
ByLayer
370
18
48
1
60
0
100
AcDbMText
10
90.621201
20
-35.875367
30
0
210
0
220
0
230
1
1
\W0.6217;172
40
3
41
0
44
1.084337
50
0
71
7
72
5
7
iso_b_vert
0
LINE
5
16B
100
AcDbEntity
8
SK2
62
256
6
ByLayer
370
13
48
1
60
0
100
AcDbLine
10
179
20
-8.9325
30
0
11
179
21
-38.760482
31
0
39
0
210
0
220
0
230
1
0
LINE
5
16C
100
AcDbEntity
8
SK2
62
256
6
ByLayer
370
13
48
1
60
0
100
AcDbLine
10
7
20
-8.9325
30
0
11
7
21
-38.760482
31
0
39
0
210
0
220
0
230
1
0
LINE
5
16D
100
AcDbEntity
8
SK2
62
256
6
ByLayer
370
13
48
1
60
0
100
AcDbLine
10
179
20
-36.760482
30
0
11
7
21
-36.760482
31
0
39
0
210
0
220
0
230
1
0
SOLID
5
16E
100
AcDbEntity
8
SK2
62
256
6
ByLayer
370
18
48
1
60
0
100
AcDbTrace
10
179
20
-36.760482
30
0
11
175.500002
21
-37.221265
31
0
12
175.499998
22
-36.299698
32
0
13
175.499998
23
-36.299698
33
0
39
0
210
0
220
0
230
1
0
SOLID
5
16F
100
AcDbEntity
8
SK2
62
256
6
ByLayer
370
18
48
1
60
0
100
AcDbTrace
10
7
20
-36.760482
30
0
11
10.499998
21
-36.299698
31
0
12
10.500002
22
-37.221265
32
0
13
10.500002
23
-37.221265
33
0
39
0
210
0
220
0
230
1
0
ENDBLK
5
171
100
AcDbEntity
8
0
100
AcDbBlockEnd
0
BLOCK
5
176
100
AcDbEntity
8
0
100
AcDbBlockBegin
2
*D5
70
1
10
0
20
0
30
0
3
*D5
0
LINE
5
178
100
AcDbEntity
8
0
62
256
6
ByLayer
370
-2
48
1
60
0
100
AcDbLine
10
-48
20
-9.5875
30
0
11
-48
21
-46.760482
31
0
39
0
210
0
220
0
230
1
0
LINE
5
179
100
AcDbEntity
8
0
62
256
6
ByLayer
370
-2
48
1
60
0
100
AcDbLine
10
0
20
-9.5875
30
0
11
0
21
-46.760482
31
0
39
0
210
0
220
0
230
1
0
LINE
5
17A
100
AcDbEntity
8
0
62
256
6
ByLayer
370
-2
48
1
60
0
100
AcDbLine
10
-44.5
20
-44.760482
30
0
11
-3.5
21
-44.760482
31
0
39
0
210
0
220
0
230
1
0
SOLID
5
17B
100
AcDbEntity
8
0
62
256
6
ByLayer
370
-1
48
1
60
0
100
AcDbTrace
10
-44.5
20
-44.177148
30
0
11
-44.5
21
-45.343815
31
0
12
-48
22
-44.760482
32
0
13
-48
23
-44.760482
33
0
39
0
210
0
220
0
230
1
0
SOLID
5
17C
100
AcDbEntity
8
0
62
256
6
ByLayer
370
-1
48
1
60
0
100
AcDbTrace
10
-3.5
20
-45.343815
30
0
11
-3.5
21
-44.177148
31
0
12
0
22
-44.760482
32
0
13
0
23
-44.760482
33
0
39
0
210
0
220
0
230
1
0
MTEXT
5
17D
100
AcDbEntity
8
0
62
256
6
ByLayer
370
18
48
1
60
0
100
AcDbMText
10
-24
20
-38.760482
30
0
210
0
220
0
230
1
1
\A1;48
40
3
41
0
44
1
50
0
71
5
72
5
7
iso_b_vert
0
POINT
5
17E
100
AcDbEntity
8
Defpoints
62
0
6
ByLayer
370
-1
48
1
60
0
100
AcDbPoint
10
-48
20
-8
30
0
39
0
210
0
220
0
230
1
50
360
0
POINT
5
17F
100
AcDbEntity
8
Defpoints
62
0
6
ByLayer
370
-1
48
1
60
0
100
AcDbPoint
10
0
20
-8
30
0
39
0
210
0
220
0
230
1
50
360
0
POINT
5
180
100
AcDbEntity
8
Defpoints
62
0
6
ByLayer
370
-1
48
1
60
0
100
AcDbPoint
10
0
20
-44.760482
30
0
39
0
210
0
220
0
230
1
50
360
0
ENDBLK
5
177
100
AcDbEntity
8
0
100
AcDbBlockEnd
0
BLOCK
5
188
100
AcDbEntity
8
0
100
AcDbBlockBegin
2
_U2
70
0
10
0
20
0
30
0
3
_U2
0
MTEXT
5
182
100
AcDbEntity
8
SK2
62
256
6
ByLayer
370
18
48
1
60
0
100
AcDbMText
10
-25.790771
20
-43.875367
30
0
210
0
220
0
230
1
1
\W0.7361;48
40
3
41
0
44
1.084337
50
0
71
7
72
5
7
iso_b_vert
0
LINE
5
183
100
AcDbEntity
8
SK2
62
256
6
ByLayer
370
13
48
1
60
0
100
AcDbLine
10
-48
20
-9.5875
30
0
11
-48
21
-46.760482
31
0
39
0
210
0
220
0
230
1
0
LINE
5
184
100
AcDbEntity
8
SK2
62
256
6
ByLayer
370
13
48
1
60
0
100
AcDbLine
10
0
20
-9.5875
30
0
11
0
21
-46.760482
31
0
39
0
210
0
220
0
230
1
0
LINE
5
185
100
AcDbEntity
8
SK2
62
256
6
ByLayer
370
13
48
1
60
0
100
AcDbLine
10
-48
20
-44.760482
30
0
11
0
21
-44.760482
31
0
39
0
210
0
220
0
230
1
0
SOLID
5
186
100
AcDbEntity
8
SK2
62
256
6
ByLayer
370
18
48
1
60
0
100
AcDbTrace
10
-48
20
-44.760482
30
0
11
-44.500002
21
-44.299698
31
0
12
-44.499998
22
-45.221265
32
0
13
-44.499998
23
-45.221265
33
0
39
0
210
0
220
0
230
1
0
SOLID
5
187
100
AcDbEntity
8
SK2
62
256
6
ByLayer
370
18
48
1
60
0
100
AcDbTrace
10
0
20
-44.760482
30
0
11
-3.499998
21
-45.221265
31
0
12
-3.500002
22
-44.299698
32
0
13
-3.500002
23
-44.299698
33
0
39
0
210
0
220
0
230
1
0
ENDBLK
5
189
100
AcDbEntity
8
0
100
AcDbBlockEnd
0
BLOCK
5
18E
100
AcDbEntity
8
0
100
AcDbBlockBegin
2
*D7
70
1
10
0
20
0
30
0
3
*D7
0
LINE
5
190
100
AcDbEntity
8
0
62
256
6
ByLayer
370
-2
48
1
60
0
100
AcDbLine
10
-48
20
-9.5875
30
0
11
-48
21
-54.760482
31
0
39
0
210
0
220
0
230
1
0
LINE
5
191
100
AcDbEntity
8
0
62
256
6
ByLayer
370
-2
48
1
60
0
100
AcDbLine
10
179
20
-8.9325
30
0
11
179
21
-54.760482
31
0
39
0
210
0
220
0
230
1
0
LINE
5
192
100
AcDbEntity
8
0
62
256
6
ByLayer
370
-2
48
1
60
0
100
AcDbLine
10
-44.5
20
-52.760482
30
0
11
175.5
21
-52.760482
31
0
39
0
210
0
220
0
230
1
0
SOLID
5
193
100
AcDbEntity
8
0
62
256
6
ByLayer
370
-1
48
1
60
0
100
AcDbTrace
10
-44.5
20
-52.177148
30
0
11
-44.5
21
-53.343815
31
0
12
-48
22
-52.760482
32
0
13
-48
23
-52.760482
33
0
39
0
210
0
220
0
230
1
0
SOLID
5
194
100
AcDbEntity
8
0
62
256
6
ByLayer
370
-1
48
1
60
0
100
AcDbTrace
10
175.5
20
-53.343815
30
0
11
175.5
21
-52.177148
31
0
12
179
22
-52.760482
32
0
13
179
23
-52.760482
33
0
39
0
210
0
220
0
230
1
0
MTEXT
5
195
100
AcDbEntity
8
0
62
256
6
ByLayer
370
18
48
1
60
0
100
AcDbMText
10
65.5
20
-46.760482
30
0
210
0
220
0
230
1
1
\A1;227
40
3
41
0
44
1
50
0
71
5
72
5
7
iso_b_vert
0
POINT
5
196
100
AcDbEntity
8
Defpoints
62
0
6
ByLayer
370
-1
48
1
60
0
100
AcDbPoint
10
-48
20
-8
30
0
39
0
210
0
220
0
230
1
50
360
0
POINT
5
197
100
AcDbEntity
8
Defpoints
62
0
6
ByLayer
370
-1
48
1
60
0
100
AcDbPoint
10
179
20
-7.345
30
0
39
0
210
0
220
0
230
1
50
360
0
POINT
5
198
100
AcDbEntity
8
Defpoints
62
0
6
ByLayer
370
-1
48
1
60
0
100
AcDbPoint
10
179
20
-52.760482
30
0
39
0
210
0
220
0
230
1
50
360
0
ENDBLK
5
18F
100
AcDbEntity
8
0
100
AcDbBlockEnd
0
BLOCK
5
1A0
100
AcDbEntity
8
0
100
AcDbBlockBegin
2
_U3
70
0
10
0
20
0
30
0
3
_U3
0
MTEXT
5
19A
100
AcDbEntity
8
SK2
62
256
6
ByLayer
370
18
48
1
60
0
100
AcDbMText
10
62.746258
20
-51.875367
30
0
210
0
220
0
230
1
1
\W0.7138;227
40
3
41
0
44
1.084337
50
0
71
7
72
5
7
iso_b_vert
0
LINE
5
19B
100
AcDbEntity
8
SK2
62
256
6
ByLayer
370
13
48
1
60
0
100
AcDbLine
10
-48
20
-9.5875
30
0
11
-48
21
-54.760482
31
0
39
0
210
0
220
0
230
1
0
LINE
5
19C
100
AcDbEntity
8
SK2
62
256
6
ByLayer
370
13
48
1
60
0
100
AcDbLine
10
179
20
-8.9325
30
0
11
179
21
-54.760482
31
0
39
0
210
0
220
0
230
1
0
LINE
5
19D
100
AcDbEntity
8
SK2
62
256
6
ByLayer
370
13
48
1
60
0
100
AcDbLine
10
-48
20
-52.760482
30
0
11
179
21
-52.760482
31
0
39
0
210
0
220
0
230
1
0
SOLID
5
19E
100
AcDbEntity
8
SK2
62
256
6
ByLayer
370
18
48
1
60
0
100
AcDbTrace
10
-48
20
-52.760482
30
0
11
-44.500002
21
-52.299698
31
0
12
-44.499998
22
-53.221265
32
0
13
-44.499998
23
-53.221265
33
0
39
0
210
0
220
0
230
1
0
SOLID
5
19F
100
AcDbEntity
8
SK2
62
256
6
ByLayer
370
18
48
1
60
0
100
AcDbTrace
10
179
20
-52.760482
30
0
11
175.500002
21
-53.221265
31
0
12
175.499998
22
-52.299698
32
0
13
175.499998
23
-52.299698
33
0
39
0
210
0
220
0
230
1
0
ENDBLK
5
1A1
100
AcDbEntity
8
0
100
AcDbBlockEnd
0
BLOCK
5
1A6
100
AcDbEntity
8
0
100
AcDbBlockBegin
2
*D9
70
1
10
0
20
0
30
0
3
*D9
0
LINE
5
1A8
100
AcDbEntity
8
0
62
256
6
ByLayer
370
-2
48
1
60
0
100
AcDbLine
10
179
20
-8.9325
30
0
11
179
21
-46.760482
31
0
39
0
210
0
220
0
230
1
0
LINE
5
1A9
100
AcDbEntity
8
0
62
256
6
ByLayer
370
-2
48
1
60
0
100
AcDbLine
10
0
20
-8.9325
30
0
11
0
21
-46.760482
31
0
39
0
210
0
220
0
230
1
0
LINE
5
1AA
100
AcDbEntity
8
0
62
256
6
ByLayer
370
-2
48
1
60
0
100
AcDbLine
10
175.5
20
-44.760482
30
0
11
3.5
21
-44.760482
31
0
39
0
210
0
220
0
230
1
0
SOLID
5
1AB
100
AcDbEntity
8
0
62
256
6
ByLayer
370
-1
48
1
60
0
100
AcDbTrace
10
175.5
20
-45.343815
30
0
11
175.5
21
-44.177148
31
0
12
179
22
-44.760482
32
0
13
179
23
-44.760482
33
0
39
0
210
0
220
0
230
1
0
SOLID
5
1AC
100
AcDbEntity
8
0
62
256
6
ByLayer
370
-1
48
1
60
0
100
AcDbTrace
10
3.5
20
-44.177148
30
0
11
3.5
21
-45.343815
31
0
12
0
22
-44.760482
32
0
13
0
23
-44.760482
33
0
39
0
210
0
220
0
230
1
0
MTEXT
5
1AD
100
AcDbEntity
8
0
62
256
6
ByLayer
370
18
48
1
60
0
100
AcDbMText
10
89.5
20
-38.760482
30
0
210
0
220
0
230
1
1
\A1;179
40
3
41
0
44
1
50
0
71
5
72
5
7
iso_b_vert
0
POINT
5
1AE
100
AcDbEntity
8
Defpoints
62
0
6
ByLayer
370
-1
48
1
60
0
100
AcDbPoint
10
179
20
-7.345
30
0
39
0
210
0
220
0
230
1
50
360
0
POINT
5
1AF
100
AcDbEntity
8
Defpoints
62
0
6
ByLayer
370
-1
48
1
60
0
100
AcDbPoint
10
0
20
-7.345
30
0
39
0
210
0
220
0
230
1
50
360
0
POINT
5
1B0
100
AcDbEntity
8
Defpoints
62
0
6
ByLayer
370
-1
48
1
60
0
100
AcDbPoint
10
0
20
-44.760482
30
0
39
0
210
0
220
0
230
1
50
360
0
ENDBLK
5
1A7
100
AcDbEntity
8
0
100
AcDbBlockEnd
0
BLOCK
5
1B8
100
AcDbEntity
8
0
100
AcDbBlockBegin
2
_U4
70
0
10
0
20
0
30
0
3
_U4
0
MTEXT
5
1B2
100
AcDbEntity
8
2
62
256
6
ByLayer
370
18
48
1
60
0
100
AcDbMText
10
87.121201
20
-43.875367
30
0
210
0
220
0
230
1
1
\W0.6328;179
40
3
41
0
44
1.084337
50
0
71
7
72
5
7
iso_b_vert
0
LINE
5
1B3
100
AcDbEntity
8
2
62
256
6
ByLayer
370
13
48
1
60
0
100
AcDbLine
10
179
20
-8.9325
30
0
11
179
21
-46.760482
31
0
39
0
210
0
220
0
230
1
0
LINE
5
1B4
100
AcDbEntity
8
2
62
256
6
ByLayer
370
13
48
1
60
0
100
AcDbLine
10
0
20
-8.9325
30
0
11
0
21
-46.760482
31
0
39
0
210
0
220
0
230
1
0
LINE
5
1B5
100
AcDbEntity
8
2
62
256
6
ByLayer
370
13
48
1
60
0
100
AcDbLine
10
179
20
-44.760482
30
0
11
0
21
-44.760482
31
0
39
0
210
0
220
0
230
1
0
SOLID
5
1B6
100
AcDbEntity
8
2
62
256
6
ByLayer
370
18
48
1
60
0
100
AcDbTrace
10
179
20
-44.760482
30
0
11
175.500002
21
-45.221265
31
0
12
175.499998
22
-44.299698
32
0
13
175.499998
23
-44.299698
33
0
39
0
210
0
220
0
230
1
0
SOLID
5
1B7
100
AcDbEntity
8
2
62
256
6
ByLayer
370
18
48
1
60
0
100
AcDbTrace
10
0
20
-44.760482
30
0
11
3.499998
21
-44.299698
31
0
12
3.500002
22
-45.221265
32
0
13
3.500002
23
-45.221265
33
0
39
0
210
0
220
0
230
1
0
ENDBLK
5
1B9
100
AcDbEntity
8
0
100
AcDbBlockEnd
0
ENDSEC
0
SECTION
2
ENTITIES
0
ARC
5
C4
100
AcDbEntity
8
1
62
256
6
ByLayer
370
18
48
1
60
0
100
AcDbCircle
39
0
10
1.470639
20
-7.830255
30
0
40
0.799999999999998
210
0
220
0
230
1
100
AcDbArc
50
89.896868
51
156.802024
0
ARC
5
C5
100
AcDbEntity
8
1
62
256
6
ByLayer
370
18
48
1
60
0
100
AcDbCircle
39
0
10
1.470639
20
7.830255
30
0
40
0.799999999999998
210
0
220
0
230
1
100
AcDbArc
50
203.197976
51
270.103132
0
ARC
5
C6
100
AcDbEntity
8
1
62
256
6
ByLayer
370
18
48
1
60
0
100
AcDbCircle
39
0
10
0
20
-7.2
30
0
40
0.800000000000002
210
0
220
0
230
1
100
AcDbArc
50
270
51
336.802024
0
ARC
5
C7
100
AcDbEntity
8
1
62
256
6
ByLayer
370
18
48
1
60
0
100
AcDbCircle
39
0
10
0
20
7.2
30
0
40
0.800000000000002
210
0
220
0
230
1
100
AcDbArc
50
23.197976
51
90
0
ARC
5
C8
100
AcDbEntity
8
SK2
62
256
6
ByLayer
370
13
48
1
60
0
100
AcDbCircle
39
0
10
179
20
0
30
0
40
24.5371491672727
210
0
220
0
230
1
100
AcDbArc
50
7.022759
51
70.002489
0
ARC
5
C9
100
AcDbEntity
8
SK2
62
256
6
ByLayer
370
13
48
1
60
0
100
AcDbCircle
39
0
10
179
20
0
30
0
40
24.5371491672727
210
0
220
0
230
1
100
AcDbArc
50
289.997511
51
352.977241
0
ELLIPSE
5
CA
100
AcDbEntity
8
1
62
256
6
ByLayer
370
18
48
1
60
0
100
AcDbEllipse
10
105.64964
20
-7.039034
30
0
11
0.1
21
0
31
0
210
0
220
0
230
1
40
1
41
1.56758629361507
42
3.13945602796471
0
ELLIPSE
5
CB
100
AcDbEntity
8
1
62
256
6
ByLayer
370
18
48
1
60
0
100
AcDbEllipse
10
105.64964
20
7.039034
30
0
11
0.1
21
0
31
0
210
0
220
0
230
1
40
1
41
-3.13945602796473
42
-1.56561544115188
0
POINT
5
70
100
AcDbEntity
8
80
62
256
6
ByLayer
370
18
48
1
60
0
100
AcDbPoint
10
0
20
0
30
0
39
0
210
0
220
0
230
1
50
360
0
POINT
5
72
100
AcDbEntity
8
81
62
256
6
ByLayer
370
18
48
1
60
0
100
AcDbPoint
10
179
20
0
30
0
39
0
210
0
220
0
230
1
50
360
0
POINT
5
74
100
AcDbEntity
8
1
62
256
6
ByLayer
370
18
48
1
60
0
100
AcDbPoint
10
-150.406425
20
-200
30
0
39
0
210
0
220
0
230
1
50
360
0
POINT
5
76
100
AcDbEntity
8
1
62
256
6
ByLayer
370
13
48
1
60
1
100
AcDbPoint
10
-49.5
20
0
30
0
39
0
210
0
220
0
230
1
50
360
0
POINT
5
77
100
AcDbEntity
8
1
62
256
6
ByLayer
370
13
48
1
60
1
100
AcDbPoint
10
177.814837
20
0
30
0
39
0
210
0
220
0
230
1
50
360
0
POINT
5
78
100
AcDbEntity
8
1
62
256
6
ByLayer
370
18
48
1
60
1
100
AcDbPoint
10
179
20
-7.345
30
0
39
0
210
0
220
0
230
1
50
360
0
POINT
5
79
100
AcDbEntity
8
1
62
256
6
ByLayer
370
18
48
1
60
1
100
AcDbPoint
10
58.9
20
-7.345
30
0
39
0
210
0
220
0
230
1
50
360
0
POINT
5
7A
100
AcDbEntity
8
1
62
256
6
ByLayer
370
18
48
1
60
1
100
AcDbPoint
10
179
20
-7.345
30
0
39
0
210
0
220
0
230
1
50
360
0
POINT
5
7B
100
AcDbEntity
8
1
62
256
6
ByLayer
370
18
48
1
60
1
100
AcDbPoint
10
7
20
-7.345
30
0
39
0
210
0
220
0
230
1
50
360
0
POINT
5
7C
100
AcDbEntity
8
1
62
256
6
ByLayer
370
18
48
1
60
1
100
AcDbPoint
10
-48
20
-8
30
0
39
0
210
0
220
0
230
1
50
360
0
POINT
5
7D
100
AcDbEntity
8
1
62
256
6
ByLayer
370
18
48
1
60
1
100
AcDbPoint
10
0
20
-8
30
0
39
0
210
0
220
0
230
1
50
360
0
POINT
5
7E
100
AcDbEntity
8
1
62
256
6
ByLayer
370
18
48
1
60
1
100
AcDbPoint
10
-48
20
-8
30
0
39
0
210
0
220
0
230
1
50
360
0
POINT
5
7F
100
AcDbEntity
8
1
62
256
6
ByLayer
370
18
48
1
60
1
100
AcDbPoint
10
179
20
-7.345
30
0
39
0
210
0
220
0
230
1
50
360
0
POINT
5
80
100
AcDbEntity
8
1
62
256
6
ByLayer
370
18
48
1
60
1
100
AcDbPoint
10
179
20
-7.345
30
0
39
0
210
0
220
0
230
1
50
360
0
POINT
5
81
100
AcDbEntity
8
1
62
256
6
ByLayer
370
18
48
1
60
1
100
AcDbPoint
10
0
20
-7.345
30
0
39
0
210
0
220
0
230
1
50
360
0
SPLINE
5
CC
100
AcDbEntity
8
1
62
256
6
ByLayer
370
18
48
1
60
0
100
AcDbSpline
70
4
71
3
72
8
73
4
40
0
40
0
40
0
40
0
40
1
40
1
40
1
40
1
41
1
10
178.276256100628
20
2.33973219613372
30
0
41
1
10
178.46495400625
20
1.81147553709778
30
0
41
1
10
178.652117357565
20
1.28267954866877
30
0
41
1
10
178.837715921891
20
0.753333605368027
30
0
0
SPLINE
5
CD
100
AcDbEntity
8
1
62
256
6
ByLayer
370
18
48
1
60
0
100
AcDbSpline
70
4
71
3
72
8
73
4
40
0
40
0
40
0
40
0
40
1
40
1
40
1
40
1
41
1
10
178.837715921891
20
0.753333605368027
30
0
41
1
10
178.88983256991
20
0.604691635494618
30
0
41
1
10
178.942976189628
20
0.456620335009319
30
0
41
1
10
178.99714452963
20
0.309099396030291
30
0
0
SPLINE
5
CE
100
AcDbEntity
8
1
62
256
6
ByLayer
370
18
48
1
60
0
100
AcDbSpline
70
4
71
3
72
23
73
19
40
0
40
0
40
0
40
0
40
0.499999999999993
40
0.499999999999993
40
0.749999999999991
40
0.749999999999991
40
0.875000000000042
40
0.875000000000042
40
0.937500000000069
40
0.937500000000069
40
0.968750000000032
40
0.984375000000014
40
0.984375000000014
40
0.992187500000007
40
0.992187500000007
40
0.996093750000003
40
0.996093750000003
40
1
40
1
40
1
40
1
41
1
10
176.206531372895
20
-7.34463911874008
30
0
41
1
10
176.237680556319
20
-7.29392372100088
30
0
41
1
10
176.268846726114
20
-7.24301778666012
30
0
41
1
10
176.315574886769
20
-7.16647553913137
30
0
41
1
10
176.33114109472
20
-7.14094432307425
30
0
41
1
10
176.354523615558
20
-7.10251793431982
30
0
41
1
10
176.36232392223
20
-7.08968631092043
30
0
41
1
10
176.374040581341
20
-7.07038993363361
30
0
41
1
10
176.377951884926
20
-7.06394308879666
30
0
41
1
10
176.383808321935
20
-7.05429200297198
30
0
41
1
10
176.386733089262
20
-7.04947302615335
30
0
41
1
10
176.389645896951
20
-7.04467824935938
30
0
41
1
10
176.391099624644
20
-7.04228631198603
30
0
41
1
10
176.391583220286
20
-7.04149107152912
30
0
41
1
10
176.392316501774
20
-7.0402812282683
30
0
41
1
10
176.392562354539
20
-7.03987489279021
30
0
41
1
10
176.393057169395
20
-7.03905541322061
30
0
41
1
10
176.393323282805
20
-7.03861038500909
30
0
41
1
10
176.39351589714
20
-7.03831015072271
30
0
0
SPLINE
5
CF
100
AcDbEntity
8
1
62
256
6
ByLayer
370
18
48
1
60
0
100
AcDbSpline
70
4
71
3
72
23
73
19
40
0
40
0
40
0
40
0
40
0.500000000000137
40
0.500000000000137
40
0.750000000000158
40
0.750000000000158
40
0.87500000000017
40
0.87500000000017
40
0.937500000000174
40
0.937500000000174
40
0.96875000000013
40
0.984375000000063
40
0.984375000000063
40
0.992187500000031
40
0.992187500000031
40
0.996093750000016
40
0.996093750000016
40
1
40
1
40
1
40
1
41
1
10
176.206531372897
20
7.34463911873806
30
0
41
1
10
176.237680556392
20
7.2939237208821
30
0
41
1
10
176.268846726258
20
7.24301778642371
30
0
41
1
10
176.315574887021
20
7.16647553871795
30
0
41
1
10
176.331141095008
20
7.14094432260171
30
0
41
1
10
176.3545236159
20
7.10251793375693
30
0
41
1
10
176.362323922591
20
7.08968631032718
30
0
41
1
10
176.374040581729
20
7.07038993299437
30
0
41
1
10
176.377951885323
20
7.06394308814168
30
0
41
1
10
176.383808322345
20
7.05429200229665
30
0
41
1
10
176.386733089678
20
7.0494730254685
30
0
41
1
10
176.389645897373
20
7.0446782486662
30
0
41
1
10
176.391099625068
20
7.04228631128893
30
0
41
1
10
176.391583220712
20
7.0414910708281
30
0
41
1
10
176.392316502206
20
7.04028122755469
30
0
41
1
10
176.392562354975
20
7.03987489206853
30
0
41
1
10
176.393057169833
20
7.03905541249506
30
0
41
1
10
176.393323283279
20
7.03861038421715
30
0
41
1
10
176.393515897482
20
7.03831015019043
30
0
0
SPLINE
5
D0
100
AcDbEntity
8
1
62
256
6
ByLayer
370
18
48
1
60
0
100
AcDbSpline
70
4
71
3
72
10
73
6
40
0
40
0
40
0
40
0
40
0.5
40
0.5
40
1
40
1
40
1
40
1
41
1
10
178.276256100627
20
2.33973219613301
30
0
41
1
10
178.12150847359
20
2.32204597006228
30
0
41
1
10
177.966528745021
20
2.3061854117727
30
0
41
1
10
177.656250121064
20
2.2769748024341
30
0
41
1
10
177.500949474418
20
2.26363852645213
30
0
41
1
10
177.345540860864
20
2.25115149822716
30
0
0
SPLINE
5
D1
100
AcDbEntity
8
1
62
256
6
ByLayer
370
18
48
1
60
0
100
AcDbSpline
70
4
71
3
72
34
73
30
40
0
40
0
40
0
40
0
40
0.124999999999999
40
0.124999999999999
40
0.249999999999998
40
0.249999999999998
40
0.281249999999994
40
0.281249999999994
40
0.31249999999999
40
0.31249999999999
40
0.374999999999983
40
0.374999999999983
40
0.406249999999979
40
0.406249999999979
40
0.42187499999998
40
0.42187499999998
40
0.437499999999981
40
0.437499999999981
40
0.499999999999986
40
0.499999999999986
40
0.62499999999999
40
0.62499999999999
40
0.749999999999994
40
0.749999999999994
40
0.812499999999995
40
0.812499999999995
40
0.874999999999997
40
0.874999999999997
40
1
40
1
40
1
40
1
41
1
10
178.276256100628
20
2.33973219613384
30
0
41
1
10
178.189950402458
20
2.49678275545295
30
0
41
1
10
178.106454531006
20
2.65990618709546
30
0
41
1
10
177.944325983072
20
2.99789157700522
30
0
41
1
10
177.865697473894
20
3.17276416280589
30
0
41
1
10
177.769940122956
20
3.398597535416
30
0
41
1
10
177.750914762463
20
3.44412659107766
30
0
41
1
10
177.713102155106
20
3.53590810581559
30
0
41
1
10
177.694375743021
20
3.58201464316266
30
0
41
1
10
177.638879914552
20
3.72055465412689
30
0
41
1
10
177.602723668116
20
3.81338342682105
30
0
41
1
10
177.549617647561
20
3.95327574919372
30
0
41
1
10
177.532103264128
20
4.0000144603064
30
0
41
1
10
177.506096834663
20
4.07027787476201
30
0
41
1
10
177.497471775721
20
4.09372464339725
30
0
41
1
10
177.480306396331
20
4.14066831375493
30
0
41
1
10
177.471773719784
20
4.16416977918914
30
0
41
1
10
177.429222615618
20
4.2817442997441
30
0
41
1
10
177.395292210177
20
4.37587013783678
30
0
41
1
10
177.293818586769
20
4.65844696318939
30
0
41
1
10
177.226595881065
20
4.84708698378233
30
0
41
1
10
177.093126446242
20
5.22427310218768
30
0
41
1
10
177.026853408703
20
5.4128897522892
30
0
41
1
10
176.928066472142
20
5.69579151851136
30
0
41
1
10
176.895233495437
20
5.79011090042971
30
0
41
1
10
176.8298141791
20
5.97857861061885
30
0
41
1
10
176.797225840835
20
6.07273243635134
30
0
41
1
10
176.699792581648
20
6.35492396611656
30
0
41
1
10
176.635278878304
20
6.54269284198119
30
0
41
1
10
176.571112882572
20
6.73001552207421
30
0
0
SPLINE
5
D2
100
AcDbEntity
8
1
62
256
6
ByLayer
370
18
48
1
60
0
100
AcDbSpline
70
4
71
3
72
8
73
4
40
0
40
0
40
0
40
0
40
1
40
1
40
1
40
1
41
1
10
176.571112882572
20
6.73001552207418
30
0
41
1
10
176.511881485928
20
6.83278839072099
30
0
41
1
10
176.452680299214
20
6.93555793926777
30
0
41
1
10
176.393515897497
20
7.03831015010181
30
0
0
SPLINE
5
D3
100
AcDbEntity
8
1
62
256
6
ByLayer
370
18
48
1
60
0
100
AcDbSpline
70
4
71
3
72
27
73
23
40
0
40
0
40
0
40
0
40
0.0540540561724681
40
0.081081084258706
40
0.081081084258706
40
0.108108112344943
40
0.108108112344943
40
0.216216224689899
40
0.216216224689899
40
0.324324337034855
40
0.324324337034855
40
0.432432449379812
40
0.432432449379812
40
0.486486505552293
40
0.486486505552293
40
0.540540561724774
40
0.540540561724774
40
0.648648674069743
40
0.648648674069743
40
0.864864898759682
40
0.864864898759682
40
1
40
1
40
1
40
1
41
1
10
176.393515897781
20
7.03831015068843
30
0
41
1
10
176.209187822639
20
7.04018608018683
30
0
41
1
10
175.932486642328
20
7.04021619412134
30
0
41
1
10
175.655406947245
20
7.03599917607903
30
0
41
1
10
175.470595355443
20
7.03223479708569
30
0
41
1
10
175.378126349651
20
7.02987560250338
30
0
41
1
10
174.91590368038
20
7.01569032455379
30
0
41
1
10
174.546326155889
20
6.99664236898008
30
0
41
1
10
173.807049237137
20
6.94369859336118
30
0
41
1
10
173.437260282092
20
6.90979466080157
30
0
41
1
10
172.697670470998
20
6.82742623850896
30
0
41
1
10
172.327856557076
20
6.77896384934269
30
0
41
1
10
171.77311978993
20
6.69559016548371
30
0
41
1
10
171.588305134022
20
6.66603348643409
30
0
41
1
10
171.219115234383
20
6.6034732300547
30
0
41
1
10
171.034698103422
20
6.57046309896793
30
0
41
1
10
170.481889350439
20
6.46629079685204
30
0
41
1
10
170.11392964928
20
6.38997290990088
30
0
41
1
10
169.011014558018
20
6.14116506064204
30
0
41
1
10
168.277008100491
20
5.94880847792766
30
0
41
1
10
167.083416824931
20
5.59702373147582
30
0
41
1
10
166.624115436107
20
5.45223332802473
30
0
41
1
10
166.164117193049
20
5.29847343714172
30
0
0
SPLINE
5
D4
100
AcDbEntity
8
1
62
256
6
ByLayer
370
18
48
1
60
0
100
AcDbSpline
70
4
71
3
72
26
73
22
40
0
40
0
40
0
40
0
40
0.0432911092953488
40
0.0432911092953488
40
0.16287972063343
40
0.16287972063343
40
0.28246833197151
40
0.28246833197151
40
0.34226263764055
40
0.34226263764055
40
0.402056943309591
40
0.402056943309591
40
0.521645554647671
40
0.521645554647671
40
0.760822777323832
40
0.760822777323832
40
0.880411388661916
40
0.880411388661916
40
0.940205694330958
40
0.940205694330958
40
1
40
1
40
1
40
1
41
1
10
114.81271508741
20
-2.00852318075849
30
0
41
1
10
114.678858974296
20
-1.94337374182322
30
0
41
1
10
114.545010528385
20
-1.87794806207421
30
0
41
1
10
114.041502066967
20
-1.63087932057562
30
0
41
1
10
113.6719474367
20
-1.44757554894741
30
0
41
1
10
112.932555727446
20
-1.07817414600822
30
0
41
1
10
112.562743788184
20
-0.892093598449605
30
0
41
1
10
112.008072172148
20
-0.611885776936077
30
0
41
1
10
111.823179875332
20
-0.518297526039959
30
0
41
1
10
111.453394751648
20
-0.330893912017274
30
0
41
1
10
111.268490184953
20
-0.237072111870987
30
0
41
1
10
110.714299396438
20
0.0442756437336982
30
0
41
1
10
110.345358055373
20
0.231812437180821
30
0
41
1
10
109.239246039441
20
0.792679034021745
30
0
41
1
10
108.502756881523
20
1.16419239286401
30
0
41
1
10
107.396593028968
20
1.71240438088742
30
0
41
1
10
107.027658562617
20
1.89368733359373
30
0
41
1
10
106.473544187755
20
2.16265222244874
30
0
41
1
10
106.288636629578
20
2.25185042330537
30
0
41
1
10
105.919007482552
20
2.42889436136105
30
0
41
1
10
105.734289548445
20
2.51673855849728
30
0
41
1
10
105.549639761447
20
2.60385327299335
30
0
0
SPLINE
5
D5
100
AcDbEntity
8
1
62
256
6
ByLayer
370
18
48
1
60
0
100
AcDbSpline
70
4
71
3
72
8
73
4
40
0
40
0
40
0
40
0
40
1
40
1
40
1
40
1
41
1
10
105.549639761433
20
2.61445403856456
30
0
41
1
10
105.549639761433
20
2.61159767574338
30
0
41
1
10
105.549639761433
20
2.60806224335764
30
0
41
1
10
105.549639761433
20
2.60385327301108
30
0
0
SPLINE
5
D6
100
AcDbEntity
8
1
62
256
6
ByLayer
370
18
48
1
60
0
100
AcDbSpline
70
4
71
3
72
23
73
19
40
0
40
0
40
0
40
0
40
0.0463131887116153
40
0.0463131887116153
40
0.165524040122686
40
0.225129465828205
40
0.225129465828205
40
0.284734891533725
40
0.284734891533725
40
0.403945742944765
40
0.403945742944765
40
0.523156594355805
40
0.523156594355805
40
0.642367445766845
40
0.642367445766845
40
0.761578297177885
40
0.761578297177885
40
1
40
1
40
1
40
1
41
1
10
175.935576404475
20
1.6488984000209
30
0
41
1
10
175.952849580204
20
1.64352690437872
30
0
41
1
10
175.970268182321
20
1.63790600522978
30
0
41
1
10
176.033019594925
20
1.61696437091481
30
0
41
1
10
176.102177718206
20
1.59199576360507
30
0
41
1
10
176.173148267249
20
1.56391888033477
30
0
41
1
10
176.220843462304
20
1.54454670024381
30
0
41
1
10
176.244912276941
20
1.53452033749738
30
0
41
1
10
176.317410646486
20
1.50361413389072
30
0
41
1
10
176.366106462155
20
1.48190580918461
30
0
41
1
10
176.464052430181
20
1.436805595056
30
0
41
1
10
176.51331705791
20
1.41336974277161
30
0
41
1
10
176.612155159456
20
1.36556004801258
30
0
41
1
10
176.661770675148
20
1.34105852100856
30
0
41
1
10
176.761554158378
20
1.29037762669961
30
0
41
1
10
176.811711398396
20
1.26423083972853
30
0
41
1
10
176.962986390912
20
1.18335087629796
30
0
41
1
10
177.064878441036
20
1.12626609621537
30
0
41
1
10
177.167659105809
20
1.06648252259288
30
0
0
SPLINE
5
D7
100
AcDbEntity
8
1
62
256
6
ByLayer
370
18
48
1
60
0
100
AcDbSpline
70
4
71
3
72
26
73
22
40
0
40
0
40
0
40
0
40
0.149981261864861
40
0.149981261864861
40
0.299962523729722
40
0.299962523729722
40
0.337457839195914
40
0.337457839195914
40
0.374953154662107
40
0.374953154662107
40
0.449943785594492
40
0.449943785594492
40
0.599925047459262
40
0.599925047459262
40
0.674915678391627
40
0.674915678391627
40
0.749906309323992
40
0.749906309323992
40
0.899887571188759
40
0.899887571188759
40
1
40
1
40
1
40
1
41
1
10
177.345540860864
20
2.2511514982271
30
0
41
1
10
177.258690736644
20
2.24417312085356
30
0
41
1
10
177.172822399854
20
2.23264117785271
30
0
41
1
10
177.00308195583
20
2.2003752411253
30
0
41
1
10
176.919219312204
20
2.17959610290941
30
0
41
1
10
176.815574787566
20
2.14822330762056
30
0
41
1
10
176.794904584156
20
2.14168116409303
30
0
41
1
10
176.753678484962
20
2.12807780997829
30
0
41
1
10
176.733099594718
20
2.12100729690727
30
0
41
1
10
176.672046482943
20
2.09923626193529
30
0
41
1
10
176.63209195626
20
2.08392522333895
30
0
41
1
10
176.514308798454
20
2.03603782739174
30
0
41
1
10
176.43855833953
20
2.00150908907787
30
0
41
1
10
176.328479748064
20
1.94750675546169
30
0
41
1
10
176.292378637448
20
1.92913711642601
30
0
41
1
10
176.221268905011
20
1.89193171770776
30
0
41
1
10
176.186193516423
20
1.87305738556373
30
0
41
1
10
176.083957041776
20
1.81694538014889
30
0
41
1
10
176.019275543792
20
1.77998019444615
30
0
41
1
10
175.916319357251
20
1.72046379989669
30
0
41
1
10
175.876421761105
20
1.6971957843503
30
0
41
1
10
175.837734008208
20
1.67471210395104
30
0
0
SPLINE
5
D8
100
AcDbEntity
8
1
62
256
6
ByLayer
370
18
48
1
60
0
100
AcDbSpline
70
4
71
3
72
8
73
4
40
0
40
0
40
0
40
0
40
1
40
1
40
1
40
1
41
1
10
176.571112882572
20
-6.73001552207421
30
0
41
1
10
176.511881485812
20
-6.83278839092173
30
0
41
1
10
176.452680298983
20
-6.9355579396692
30
0
41
1
10
176.39351589715
20
-7.03831015070386
30
0
0
SPLINE
5
D9
100
AcDbEntity
8
1
62
256
6
ByLayer
370
18
48
1
60
0
100
AcDbSpline
70
4
71
3
72
89
73
85
40
0
40
0
40
0
40
0
40
0.0171083735197362
40
0.0171083735197362
40
0.0482145077022772
40
0.0482145077022772
40
0.0793206418848182
40
0.0793206418848182
40
0.0948737089760879
40
0.0948737089760879
40
0.110426776067357
40
0.110426776067357
40
0.141532910249897
40
0.141532910249897
40
0.172639044432436
40
0.172639044432436
40
0.203745178614975
40
0.203745178614975
40
0.234851312797515
40
0.242627846343148
40
0.242627846343148
40
0.250404379888781
40
0.250404379888781
40
0.265957446980048
40
0.265957446980048
40
0.297063581162584
40
0.297063581162584
40
0.328169715345119
40
0.328169715345119
40
0.359275849527655
40
0.359275849527655
40
0.39038198371019
40
0.39038198371019
40
0.405935050801458
40
0.405935050801458
40
0.421488117892725
40
0.421488117892725
40
0.483700386257798
40
0.483700386257798
40
0.514806520440335
40
0.514806520440335
40
0.545912654622871
40
0.545912654622871
40
0.577018788805407
40
0.577018788805407
40
0.592571855896677
40
0.592571855896677
40
0.608124922987946
40
0.608124922987946
40
0.639231057170486
40
0.639231057170486
40
0.654784124261755
40
0.654784124261755
40
0.670337191353024
40
0.670337191353024
40
0.701443325535562
40
0.701443325535562
40
0.7325494597181
40
0.7325494597181
40
0.763655593900639
40
0.763655593900639
40
0.794761728083177
40
0.794761728083177
40
0.810314795174447
40
0.810314795174447
40
0.825867862265717
40
0.825867862265717
40
0.856973996448257
40
0.856973996448257
40
0.872527063539527
40
0.872527063539527
40
0.888080130630797
40
0.888080130630797
40
0.919186264813339
40
0.919186264813339
40
0.950292398995881
40
0.950292398995881
40
0.965845466087153
40
0.965845466087153
40
0.973621999632789
40
0.973621999632789
40
0.981398533178425
40
0.981398533178425
40
1
40
1
40
1
40
1
41
1
10
158.183856483875
20
-1.92133970463397
30
0
41
1
10
157.981024371765
20
-1.82223382185595
30
0
41
1
10
157.778274394618
20
-1.72253327265815
30
0
41
1
10
157.207012482305
20
-1.4401027489034
30
0
41
1
10
156.838579633623
20
-1.25622598051533
30
0
41
1
10
156.101405781636
20
-0.886274282293527
30
0
41
1
10
155.73267137394
20
-0.700194253618008
30
0
41
1
10
155.179044171526
20
-0.419933444467631
30
0
41
1
10
154.994414286111
20
-0.326320970626313
30
0
41
1
10
154.624923058694
20
-0.138822096672584
30
0
41
1
10
154.439971501728
20
-0.0448904796682257
30
0
41
1
10
153.885603261371
20
0.236677916528805
30
0
41
1
10
153.516553287988
20
0.424112689763291
30
0
41
1
10
152.778954656966
20
0.797335192557483
30
0
41
1
10
152.41040791738
20
0.983131497104779
30
0
41
1
10
151.673341413878
20
1.3521790411497
30
0
41
1
10
151.304821837306
20
1.53542677523723
30
0
41
1
10
150.567413287935
20
1.89861023114042
30
0
41
1
10
150.106284523956
20
2.12349864973331
30
0
41
1
10
149.644427032524
20
2.34493028828012
30
0
41
1
10
149.459619633883
20
2.4332139657333
30
0
41
1
10
149.367160640003
20
2.47722160573525
30
0
41
1
10
149.089864451083
20
2.60869975844281
30
0
41
1
10
148.90513544821
20
2.69561225235472
30
0
41
1
10
148.35126681239
20
2.95396390597423
30
0
41
1
10
147.982444961986
20
3.12300653515925
30
0
41
1
10
147.245202095212
20
3.45406906914033
30
0
41
1
10
146.876776586361
20
3.61607030329444
30
0
41
1
10
146.139770240178
20
3.93202391961103
30
0
41
1
10
145.771193773798
20
4.08599043183611
30
0
41
1
10
145.033416284901
20
4.38514565730921
30
0
41
1
10
144.664210304663
20
4.53032782572851
30
0
41
1
10
144.109622449617
20
4.74104628760719
30
0
41
1
10
143.92483183144
20
4.81003444074381
30
0
41
1
10
143.555656527544
20
4.94526172479414
30
0
41
1
10
143.371219658681
20
5.01152259090284
30
0
41
1
10
142.449636452843
20
5.33584459367304
30
0
41
1
10
141.714279034291
20
5.57283083971333
30
0
41
1
10
140.611371578559
20
5.89187358534644
30
0
41
1
10
140.243767805832
20
5.99217908406467
30
0
41
1
10
139.508080298179
20
6.17995697576168
30
0
41
1
10
139.140002396757
20
6.26742767556755
30
0
41
1
10
138.402902076242
20
6.42908983582012
30
0
41
1
10
138.033873777973
20
6.50328144143222
30
0
41
1
10
137.479305950492
20
6.60434731606949
30
0
41
1
10
137.294423634983
20
6.63630956971599
30
0
41
1
10
136.924768601543
20
6.69666099584643
30
0
41
1
10
136.739958452543
20
6.72505628029941
30
0
41
1
10
136.185482943653
20
6.80483338612328
30
0
41
1
10
135.815698780897
20
6.85080833569285
30
0
41
1
10
135.261016645681
20
6.90869255418048
30
0
41
1
10
135.076088174276
20
6.92614168841061
30
0
41
1
10
134.706386416454
20
6.95731672137873
30
0
41
1
10
134.521669711015
20
6.97103915014227
30
0
41
1
10
133.967843747923
20
7.00664891357238
30
0
41
1
10
133.599063099284
20
7.0229892103464
30
0
41
1
10
132.861823221135
20
7.04070100171686
30
0
41
1
10
132.493367553901
20
7.04207893807938
30
0
41
1
10
131.756316121436
20
7.02988202438974
30
0
41
1
10
131.387716203636
20
7.01629209007623
30
0
41
1
10
130.649940756631
20
6.97424937375081
30
0
41
1
10
130.28077841367
20
6.9458118112976
30
0
41
1
10
129.726193532376
20
6.89198772255006
30
0
41
1
10
129.541352728888
20
6.8721994605136
30
0
41
1
10
129.171851935868
20
6.82897137709872
30
0
41
1
10
128.98716060836
20
6.8055304031775
30
0
41
1
10
128.433170576561
20
6.72979859900488
30
0
41
1
10
128.063950651659
20
6.67209546640632
30
0
41
1
10
127.509951316134
20
6.57503933709253
30
0
41
1
10
127.325260416012
20
6.54094026522694
30
0
41
1
10
126.955761593583
20
6.46927343977461
30
0
41
1
10
126.770923207164
20
6.43169696886287
30
0
41
1
10
126.21631520107
20
6.31382949696854
30
0
41
1
10
125.846909411675
20
6.22849639446309
30
0
41
1
10
125.108295994248
20
6.04472032301331
30
0
41
1
10
124.739085096002
20
5.94625930021661
30
0
41
1
10
124.18506905934
20
5.78919918522794
30
0
41
1
10
124.000367864399
20
5.7352815884731
30
0
41
1
10
123.72322211178
20
5.65210816960263
30
0
41
1
10
123.630823892316
20
5.62400112109634
30
0
41
1
10
123.445986118568
20
5.56703090065935
30
0
41
1
10
123.353532739552
20
5.53816323479808
30
0
41
1
10
123.040133213162
20
5.43906838460768
30
0
41
1
10
122.81935967947
20
5.36717549896798
30
0
41
1
10
122.598770091539
20
5.29334258568841
30
0
0
SPLINE
5
DA
100
AcDbEntity
8
1
62
256
6
ByLayer
370
18
48
1
60
0
100
AcDbSpline
70
2053
71
3
72
125
73
121
40
0
40
0
40
0
40
0
40
0.0312500000000022
40
0.0312500000000022
40
0.0625000000000045
40
0.0625000000000045
40
0.0781250000000055
40
0.0781250000000055
40
0.0937500000000065
40
0.0937500000000065
40
0.125000000000005
40
0.125000000000005
40
0.132812500000006
40
0.132812500000006
40
0.140625000000007
40
0.156250000000007
40
0.156250000000007
40
0.187500000000004
40
0.187500000000004
40
0.195312500000002
40
0.195312500000002
40
0.203125000000001
40
0.218749999999999
40
0.234374999999997
40
0.234374999999997
40
0.242187499999996
40
0.242187499999996
40
0.249999999999995
40
0.249999999999995
40
0.28124999999999
40
0.28124999999999
40
0.296874999999988
40
0.296874999999988
40
0.304687499999986
40
0.304687499999986
40
0.312499999999985
40
0.312499999999985
40
0.343749999999983
40
0.343749999999983
40
0.351562499999982
40
0.351562499999982
40
0.359374999999981
40
0.359374999999981
40
0.374999999999978
40
0.390624999999976
40
0.390624999999976
40
0.406249999999974
40
0.406249999999974
40
0.421874999999972
40
0.421874999999972
40
0.43749999999997
40
0.43749999999997
40
0.468749999999966
40
0.468749999999966
40
0.484374999999962
40
0.484374999999962
40
0.492187499999959
40
0.492187499999959
40
0.499999999999957
40
0.499999999999957
40
0.531249999999954
40
0.531249999999954
40
0.53906249999995
40
0.53906249999995
40
0.546874999999947
40
0.546874999999947
40
0.562499999999944
40
0.562499999999944
40
0.59374999999994
40
0.59374999999994
40
0.601562499999939
40
0.601562499999939
40
0.609374999999938
40
0.609374999999938
40
0.624999999999936
40
0.624999999999936
40
0.656249999999935
40
0.656249999999935
40
0.671874999999935
40
0.671874999999935
40
0.687499999999936
40
0.687499999999936
40
0.718749999999936
40
0.718749999999936
40
0.726562499999937
40
0.726562499999937
40
0.734374999999937
40
0.749999999999939
40
0.76562499999994
40
0.76562499999994
40
0.773437499999941
40
0.773437499999941
40
0.781249999999942
40
0.781249999999942
40
0.812499999999949
40
0.812499999999949
40
0.82031249999995
40
0.82031249999995
40
0.828124999999951
40
0.828124999999951
40
0.843749999999953
40
0.859374999999954
40
0.859374999999954
40
0.874999999999956
40
0.874999999999956
40
0.90624999999996
40
0.90624999999996
40
0.914062499999963
40
0.914062499999963
40
0.921874999999967
40
0.937499999999973
40
0.95312499999998
40
0.95312499999998
40
0.968749999999987
40
0.968749999999987
40
0.984374999999993
40
0.984374999999993
40
0.992187499999997
40
0.992187499999997
40
1
40
1
40
1
40
1
41
1
10
177.10735622411
20
-3.08486055564598
30
0
41
1
10
177.083117160304
20
-3.11491351228284
30
0
41
1
10
177.059945967033
20
-3.13955457952019
30
0
41
1
10
177.015499439785
20
-3.17866973877742
30
0
41
1
10
176.994225372881
20
-3.19314082000619
30
0
41
1
10
176.963678550848
20
-3.20689927655323
30
0
41
1
10
176.953851060934
20
-3.21009296622995
30
0
41
1
10
176.934921490763
20
-3.21374246785589
30
0
41
1
10
176.92581003856
20
-3.21420239667967
30
0
41
1
10
176.899499939813
20
-3.21149317302294
30
0
41
1
10
176.883316695402
20
-3.20427343416964
30
0
41
1
10
176.864792946079
20
-3.18796788751763
30
0
41
1
10
176.861189055373
20
-3.18435108540433
30
0
41
1
10
176.85421835705
20
-3.17644967690632
30
0
41
1
10
176.844100271556
20
-3.16357630161733
30
0
41
1
10
176.834974772313
20
-3.14766617198865
30
0
41
1
10
176.818031259154
20
-3.11175638563947
30
0
41
1
10
176.808463340827
20
-3.08240933142932
30
0
41
1
10
176.798818054473
20
-3.0382374476311
30
0
41
1
10
176.797014382429
20
-3.02905900377448
30
0
41
1
10
176.793681526585
20
-3.01014520150682
30
0
41
1
10
176.789083082
20
-2.98087911908678
30
0
41
1
10
176.783401140716
20
-2.92765595273752
30
0
41
1
10
176.780999419128
20
-2.88025388925266
30
0
41
1
10
176.78004320943
20
-2.84280556255763
30
0
41
1
10
176.77986564684
20
-2.83000602797381
30
0
41
1
10
176.779804207395
20
-2.80375013364898
30
0
41
1
10
176.779921644782
20
-2.79024575913888
30
0
41
1
10
176.781261575887
20
-2.72176422653294
30
0
41
1
10
176.784694101579
20
-2.66386651035006
30
0
41
1
10
176.793543886105
20
-2.5722957867182
30
0
41
1
10
176.797115917763
20
-2.54097892372775
30
0
41
1
10
176.803482633653
20
-2.49274557617866
30
0
41
1
10
176.805775507236
20
-2.47645269981623
30
0
41
1
10
176.810639082291
20
-2.44391339835764
30
0
41
1
10
176.813217121269
20
-2.42760866304849
30
0
41
1
10
176.826837709731
20
-2.34591395853178
30
0
41
1
10
176.840045615752
20
-2.28001627638435
30
0
41
1
10
176.859687251947
20
-2.19698188967291
30
0
41
1
10
176.863778075605
20
-2.1803298290736
30
0
41
1
10
176.872168789921
20
-2.14741114721477
30
0
41
1
10
176.876481726165
20
-2.13108759294511
30
0
41
1
10
176.889770189222
20
-2.08251571258771
30
0
41
1
10
176.908418895714
20
-2.01881429792795
30
0
41
1
10
176.928937631629
20
-1.95719635524742
30
0
41
1
10
176.950421591995
20
-1.89663260786995
30
0
41
1
10
176.961486104665
20
-1.86733412375347
30
0
41
1
10
176.984142725193
20
-1.81083894826662
30
0
41
1
10
176.995750776206
20
-1.78359802910236
30
0
41
1
10
177.019519264023
20
-1.73105768536973
30
0
41
1
10
177.03169234433
20
-1.70573385370403
30
0
41
1
10
177.068968630672
20
-1.63280440052867
30
0
41
1
10
177.094171297426
20
-1.58946981391412
30
0
41
1
10
177.132455852912
20
-1.53156014045524
30
0
41
1
10
177.145297554363
20
-1.51344911478358
30
0
41
1
10
177.164674963881
20
-1.48804589742738
30
0
41
1
10
177.171150218897
20
-1.4798782449358
30
0
41
1
10
177.184024823268
20
-1.46426267636878
30
0
41
1
10
177.190438414752
20
-1.45679572601051
30
0
41
1
10
177.222388213892
20
-1.42111576914019
30
0
41
1
10
177.247574716136
20
-1.39782352819131
30
0
41
1
10
177.278547978167
20
-1.37495155670797
30
0
41
1
10
177.284716840685
20
-1.37069198102819
30
0
41
1
10
177.297000696769
20
-1.3628048574771
30
0
41
1
10
177.303125106197
20
-1.35917312683239
30
0
41
1
10
177.321271790764
20
-1.34930715244619
30
0
41
1
10
177.333107162931
20
-1.34407091030633
30
0
41
1
10
177.367823944567
20
-1.33225127171437
30
0
41
1
10
177.389923478368
20
-1.32952384946711
30
0
41
1
10
177.416124089835
20
-1.33262709323517
30
0
41
1
10
177.421292423979
20
-1.333576036637
30
0
41
1
10
177.431480021462
20
-1.33614345250049
30
0
41
1
10
177.436509853359
20
-1.33776698188473
30
0
41
1
10
177.451249834649
20
-1.34361764146203
30
0
41
1
10
177.460632660362
20
-1.34882126585129
30
0
41
1
10
177.487431105609
20
-1.36830425468156
30
0
41
1
10
177.503509649247
20
-1.38641784895134
30
0
41
1
10
177.524658840254
20
-1.42177203551401
30
0
41
1
10
177.53121084167
20
-1.43492952061712
30
0
41
1
10
177.543225458563
20
-1.46420512859925
30
0
41
1
10
177.548608136775
20
-1.480139984522
30
0
41
1
10
177.562757798262
20
-1.53165226617566
30
0
41
1
10
177.569586200298
20
-1.57098539742432
30
0
41
1
10
177.574471797962
20
-1.62709168707582
30
0
41
1
10
177.575266204152
20
-1.63869590686798
30
0
41
1
10
177.576462177331
20
-1.66248305568783
30
0
41
1
10
177.577662651761
20
-1.6989097946209
30
0
41
1
10
177.576720578349
20
-1.76332427333699
30
0
41
1
10
177.572798418203
20
-1.818867332975
30
0
41
1
10
177.568623060206
20
-1.86210254800605
30
0
41
1
10
177.56702528368
20
-1.8767778129974
30
0
41
1
10
177.563405168168
20
-1.90667501624046
30
0
41
1
10
177.561374271459
20
-1.92195079842472
30
0
41
1
10
177.55027722629
20
-1.99870643183911
30
0
41
1
10
177.538375413053
20
-2.06176975509968
30
0
41
1
10
177.519899403591
20
-2.14267810046209
30
0
41
1
10
177.516022528154
20
-2.15896481017228
30
0
41
1
10
177.507902949751
20
-2.19175290817105
30
0
41
1
10
177.503647930891
20
-2.20829746667448
30
0
41
1
10
177.490504189404
20
-2.2576114102915
30
0
41
1
10
177.471893462444
20
-2.32286116297962
30
0
41
1
10
177.451269729221
20
-2.38717024499618
30
0
41
1
10
177.429682562301
20
-2.4510242444139
30
0
41
1
10
177.418345967352
20
-2.48287645070616
30
0
41
1
10
177.383673121943
20
-2.57576090327771
30
0
41
1
10
177.359532302577
20
-2.63466116012745
30
0
41
1
10
177.328266233868
20
-2.70480818634096
30
0
41
1
10
177.321946694562
20
-2.71868533667717
30
0
41
1
10
177.309248950972
20
-2.74598117195188
30
0
41
1
10
177.290185979084
20
-2.78608217832019
30
0
41
1
10
177.258349656219
20
-2.84888223956298
30
0
41
1
10
177.232832505242
20
-2.89502350545374
30
0
41
1
10
177.207296137076
20
-2.93915346917757
30
0
41
1
10
177.194471038173
20
-2.96028318164497
30
0
41
1
10
177.169128485704
20
-3.00001110833816
30
0
41
1
10
177.156593239426
20
-3.01864850772992
30
0
41
1
10
177.137985045865
20
-3.04481782741843
30
0
41
1
10
177.131814790214
20
-3.05324257321448
30
0
41
1
10
177.119537988309
20
-3.06949773901434
30
0
41
1
10
177.113415990062
20
-3.07734731648676
30
0
41
1
10
177.10735622411
20
-3.08486055564598
30
0
0
SPLINE
5
DB
100
AcDbEntity
8
1
62
256
6
ByLayer
370
18
48
1
60
0
100
AcDbSpline
70
4
71
3
72
14
73
10
40
0
40
0
40
0
40
0
40
0.5
40
0.5
40
0.625000000000004
40
0.625000000000004
40
0.750000000000009
40
0.750000000000009
40
1
40
1
40
1
40
1
41
1
10
176.571112882572
20
-6.73001552207521
30
0
41
1
10
176.516526797292
20
-6.81093931607177
30
0
41
1
10
176.466630331691
20
-6.8787293304101
30
0
41
1
10
176.409984605269
20
-6.94560281953864
30
0
41
1
10
176.398941433169
20
-6.95808231076347
30
0
41
1
10
176.377422574634
20
-6.98120564142442
30
0
41
1
10
176.366939578111
20
-6.99185231599407
30
0
41
1
10
176.336661613426
20
-7.02067753945553
30
0
41
1
10
176.31791573433
20
-7.03588037860823
30
0
41
1
10
176.300469461173
20
-7.04723173061345
30
0
0
SPLINE
5
DC
100
AcDbEntity
8
1
62
256
6
ByLayer
370
18
48
1
60
0
100
AcDbSpline
70
4
71
3
72
34
73
30
40
0
40
0
40
0
40
0
40
0.124999999999984
40
0.124999999999984
40
0.249999999999968
40
0.249999999999968
40
0.281249999999965
40
0.281249999999965
40
0.312499999999963
40
0.312499999999963
40
0.374999999999958
40
0.374999999999958
40
0.406249999999956
40
0.406249999999956
40
0.421874999999957
40
0.421874999999957
40
0.437499999999959
40
0.437499999999959
40
0.499999999999967
40
0.499999999999967
40
0.624999999999975
40
0.624999999999975
40
0.749999999999984
40
0.749999999999984
40
0.812499999999988
40
0.812499999999988
40
0.874999999999992
40
0.874999999999992
40
1
40
1
40
1
40
1
41
1
10
178.276256100628
20
-2.33973219613387
30
0
41
1
10
178.189950402458
20
-2.49678275545301
30
0
41
1
10
178.106454531006
20
-2.6599061870954
30
0
41
1
10
177.944325983072
20
-2.99789157700516
30
0
41
1
10
177.865697473894
20
-3.17276416280598
30
0
41
1
10
177.769940122956
20
-3.39859753541609
30
0
41
1
10
177.750914762463
20
-3.44412659107766
30
0
41
1
10
177.713102155106
20
-3.53590810581559
30
0
41
1
10
177.694375743021
20
-3.58201464316269
30
0
41
1
10
177.638879914552
20
-3.72055465412694
30
0
41
1
10
177.602723668116
20
-3.81338342682111
30
0
41
1
10
177.549617647561
20
-3.95327574919378
30
0
41
1
10
177.532103264128
20
-4.00001446030646
30
0
41
1
10
177.506096834663
20
-4.07027787476204
30
0
41
1
10
177.497471775721
20
-4.09372464339734
30
0
41
1
10
177.480306396331
20
-4.14066831375501
30
0
41
1
10
177.471773719784
20
-4.16416977918919
30
0
41
1
10
177.429222615618
20
-4.28174429974413
30
0
41
1
10
177.395292210177
20
-4.37587013783687
30
0
41
1
10
177.293818586769
20
-4.6584469631895
30
0
41
1
10
177.226595881065
20
-4.84708698378239
30
0
41
1
10
177.093126446242
20
-5.22427310218774
30
0
41
1
10
177.026853408703
20
-5.4128897522892
30
0
41
1
10
176.928066472142
20
-5.69579151851138
30
0
41
1
10
176.895233495437
20
-5.79011090042977
30
0
41
1
10
176.8298141791
20
-5.97857861061891
30
0
41
1
10
176.797225840835
20
-6.07273243635137
30
0
41
1
10
176.699792581648
20
-6.35492396611659
30
0
41
1
10
176.635278878304
20
-6.54269284198122
30
0
41
1
10
176.571112882572
20
-6.73001552207424
30
0
0
SPLINE
5
DD
100
AcDbEntity
8
1
62
256
6
ByLayer
370
18
48
1
60
0
100
AcDbSpline
70
4
71
3
72
8
73
4
40
0
40
0
40
0
40
0
40
1
40
1
40
1
40
1
41
1
10
178.276256100628
20
-2.33973219613372
30
0
41
1
10
178.46495400625
20
-1.81147553709775
30
0
41
1
10
178.652117357565
20
-1.28267954866877
30
0
41
1
10
178.837715921891
20
-0.753333605368027
30
0
0
SPLINE
5
DE
100
AcDbEntity
8
1
62
256
6
ByLayer
370
18
48
1
60
0
100
AcDbSpline
70
4
71
3
72
8
73
4
40
0
40
0
40
0
40
0
40
1
40
1
40
1
40
1
41
1
10
178.837715921891
20
-0.753333605368027
30
0
41
1
10
178.88983256991
20
-0.604691635494618
30
0
41
1
10
178.942976189628
20
-0.456620335009291
30
0
41
1
10
178.99714452963
20
-0.309099396030263
30
0
0
SPLINE
5
DF
100
AcDbEntity
8
1
62
256
6
ByLayer
370
18
48
1
60
0
100
AcDbSpline
70
4
71
3
72
8
73
4
40
0
40
0
40
0
40
0
40
1
40
1
40
1
40
1
41
1
10
178.99714452963
20
0.309099396030263
30
0
41
1
10
179.000943091152
20
0.103505760066241
30
0
41
1
10
179.000960596008
20
-0.102558325948991
30
0
41
1
10
178.99714452963
20
-0.309099396030291
30
0
0
SPLINE
5
E0
100
AcDbEntity
8
1
62
256
6
ByLayer
370
18
48
1
60
0
100
AcDbSpline
70
4
71
3
72
60
73
56
40
0
40
0
40
0
40
0
40
0.0624999999999508
40
0.0624999999999508
40
0.0937499999999224
40
0.0937499999999224
40
0.109374999999908
40
0.109374999999908
40
0.124999999999894
40
0.124999999999894
40
0.187499999999862
40
0.187499999999862
40
0.249999999999829
40
0.249999999999829
40
0.281249999999818
40
0.281249999999818
40
0.296874999999816
40
0.296874999999816
40
0.312499999999815
40
0.312499999999815
40
0.37499999999981
40
0.37499999999981
40
0.437499999999805
40
0.437499999999805
40
0.453124999999811
40
0.453124999999811
40
0.468749999999817
40
0.468749999999817
40
0.499999999999819
40
0.499999999999819
40
0.562499999999823
40
0.562499999999823
40
0.593749999999826
40
0.593749999999826
40
0.609374999999827
40
0.609374999999827
40
0.624999999999828
40
0.624999999999828
40
0.687499999999847
40
0.687499999999847
40
0.718749999999857
40
0.718749999999857
40
0.734374999999865
40
0.734374999999865
40
0.749999999999873
40
0.749999999999873
40
0.812499999999905
40
0.812499999999905
40
0.874999999999937
40
0.874999999999937
40
0.906249999999953
40
0.906249999999953
40
0.937499999999969
40
0.937499999999969
40
1
40
1
40
1
40
1
41
1
10
178.99714452963
20
0.309099396030319
30
0
41
1
10
178.970363671013
20
0.231485275710668
30
0
41
1
10
178.942151408096
20
0.154547607922012
30
0
41
1
10
178.897691077981
20
0.040166709902735
30
0
41
1
10
178.882513097913
20
0.0022110999992435
30
0
41
1
10
178.859201021446
20
-0.0544595893209703
30
0
41
1
10
178.851339410458
20
-0.073305998564507
30
0
41
1
10
178.835432081313
20
-0.110909795476545
30
0
41
1
10
178.827372597245
20
-0.129698680359354
30
0
41
1
10
178.786782169251
20
-0.223016453596188
30
0
41
1
10
178.753547654224
20
-0.295295316514199
30
0
41
1
10
178.68567159734
20
-0.435120790900981
30
0
41
1
10
178.651030272566
20
-0.50266863803833
30
0
41
1
10
178.598030782875
20
-0.600280820706701
30
0
41
1
10
178.580190625903
20
-0.632198033406866
30
0
41
1
10
178.553164496559
20
-0.679103041531988
30
0
41
1
10
178.544111413532
20
-0.694576085240897
30
0
41
1
10
178.525914842232
20
-0.725189404097193
30
0
41
1
10
178.516779517048
20
-0.740314612770675
30
0
41
1
10
178.471288475494
20
-0.814420812491647
30
0
41
1
10
178.435169680776
20
-0.869404132538051
30
0
41
1
10
178.36348630237
20
-0.970816183097782
30
0
41
1
10
178.327921818153
20
-1.01724669911738
30
0
41
1
10
178.28380090425
20
-1.069667923173
30
0
41
1
10
178.274993388954
20
-1.07987003135142
30
0
41
1
10
178.25741111152
20
-1.09969767256564
30
0
41
1
10
178.248619479169
20
-1.1093403288059
30
0
41
1
10
178.222515396861
20
-1.13714900411503
30
0
41
1
10
178.205419263281
20
-1.15426254378201
30
0
41
1
10
178.155007282453
20
-1.20142199945712
30
0
41
1
10
178.122565512018
20
-1.22730493363855
30
0
41
1
10
178.075527962601
20
-1.25782642885639
30
0
41
1
10
178.060120249648
20
-1.26661183316429
30
0
41
1
10
178.037405504984
20
-1.27766942214097
30
0
41
1
10
178.029885186363
20
-1.28100723834615
30
0
41
1
10
178.015054794163
20
-1.28693496462262
30
0
41
1
10
178.007751481031
20
-1.28952380773936
30
0
41
1
10
177.971774634726
20
-1.3006311036535
30
0
41
1
10
177.944713175496
20
-1.30366267851179
30
0
41
1
10
177.9064158999
20
-1.29985323396858
30
0
41
1
10
177.89403403808
20
-1.29718587245688
30
0
41
1
10
177.876012544084
20
-1.29110274567486
30
0
41
1
10
177.870097331297
20
-1.28872777258599
30
0
41
1
10
177.858447506406
20
-1.28328272886031
30
0
41
1
10
177.852703005221
20
-1.28020619650132
30
0
41
1
10
177.824573709493
20
-1.26317433616515
30
0
41
1
10
177.803950921493
20
-1.24431909182499
30
0
41
1
10
177.76596427802
20
-1.19698563512603
30
0
41
1
10
177.748602767025
20
-1.16850252847868
30
0
41
1
10
177.724777426837
20
-1.11884114688294
30
0
41
1
10
177.717193091677
20
-1.10108683544141
30
0
41
1
10
177.702861988537
20
-1.06361427100944
30
0
41
1
10
177.696101233655
20
-1.04387466889545
30
0
41
1
10
177.676960827795
20
-0.981760593804751
30
0
41
1
10
177.665718400876
20
-0.9364995416407
30
0
41
1
10
177.65586496707
20
-0.887572590249277
30
0
0
SPLINE
5
E1
100
AcDbEntity
8
1
62
256
6
ByLayer
370
18
48
1
60
0
100
AcDbSpline
70
4
71
3
72
8
73
4
40
0
40
0
40
0
40
0
40
1
40
1
40
1
40
1
41
1
10
177.65586496707
20
-0.887572590249306
30
0
41
1
10
177.529045129072
20
-0.257852213459301
30
0
41
1
10
177.366457331935
20
0.393410659872643
30
0
41
1
10
177.167659105809
20
1.06648252259291
30
0
0
SPLINE
5
E2
100
AcDbEntity
8
1
62
256
6
ByLayer
370
18
48
1
60
0
100
AcDbSpline
70
4
71
3
72
19
73
15
40
0
40
0
40
0
40
0
40
0.250000000000011
40
0.250000000000011
40
0.500000000000022
40
0.500000000000022
40
0.625000000000028
40
0.625000000000028
40
0.687500000000023
40
0.687500000000023
40
0.750000000000018
40
0.750000000000018
40
0.875000000000009
40
1
40
1
40
1
40
1
41
1
10
176.314811641215
20
0.546579463596402
30
0
41
1
10
176.3844184113
20
0.609703878542661
30
0
41
1
10
176.454623128374
20
0.667971641434121
30
0
41
1
10
176.595884334792
20
0.774587776814002
30
0
41
1
10
176.666941588281
20
0.822938821394359
30
0
41
1
10
176.773881586477
20
0.887650478698589
30
0
41
1
10
176.809586739054
20
0.907917779990356
30
0
41
1
10
176.863207482781
20
0.936505807500652
30
0
41
1
10
176.881091700855
20
0.945735384934267
30
0
41
1
10
176.916884750075
20
0.963718989390685
30
0
41
1
10
176.934793236895
20
0.972466110019667
30
0
41
1
10
176.988534821235
20
0.997793968377067
30
0
41
1
10
177.060237811238
20
1.02918538484252
30
0
41
1
10
177.131884049759
20
1.05503605797611
30
0
41
1
10
177.167659105809
20
1.06648252259291
30
0
0
SPLINE
5
E3
100
AcDbEntity
8
1
62
256
6
ByLayer
370
18
48
1
60
0
100
AcDbSpline
70
4
71
3
72
55
73
51
40
0
40
0
40
0
40
0
40
0.0178012232073805
40
0.0178012232073805
40
0.0675252541648616
40
0.0675252541648616
40
0.117249285122343
40
0.117249285122343
40
0.142111300601086
40
0.142111300601086
40
0.166973316079827
40
0.166973316079827
40
0.216697347037315
40
0.216697347037315
40
0.241559362516058
40
0.241559362516058
40
0.253990370255429
40
0.253990370255429
40
0.266421377994799
40
0.266421377994799
40
0.316145408952283
40
0.316145408952283
40
0.341007424431024
40
0.341007424431024
40
0.365869439909765
40
0.365869439909765
40
0.415593470867243
40
0.415593470867243
40
0.465317501824721
40
0.465317501824721
40
0.5150415327822
40
0.5150415327822
40
0.564765563739678
40
0.614489594697156
40
0.639351610175895
40
0.651782617915265
40
0.651782617915265
40
0.664213625654634
40
0.664213625654634
40
0.713937656612119
40
0.713937656612119
40
0.763661687569603
40
0.763661687569603
40
0.813385718527087
40
0.813385718527087
40
0.912833780442052
40
0.912833780442052
40
0.962557811399534
40
0.962557811399534
40
1
40
1
40
1
40
1
41
1
10
134.784605591656
20
-6.99850318692856
30
0
41
1
10
134.653232966786
20
-7.00005211138273
30
0
41
1
10
134.521878273873
20
-7.00065389974682
30
0
41
1
10
134.023637006133
20
-6.9993359096238
30
0
41
1
10
133.656815680853
20
-6.99105986628027
30
0
41
1
10
132.922874741418
20
-6.95991972802133
30
0
41
1
10
132.555739575731
20
-6.93697333560743
30
0
41
1
10
132.004380038966
20
-6.89151113366501
30
0
41
1
10
131.820482190022
20
-6.8745121011134
30
0
41
1
10
131.45246274747
20
-6.83694162806907
30
0
41
1
10
131.268343976351
20
-6.81637713965316
30
0
41
1
10
130.715508736901
20
-6.74920177753424
30
0
41
1
10
130.346309244742
20
-6.69709361504951
30
0
41
1
10
129.791140591794
20
-6.60804706140664
30
0
41
1
10
129.605854295127
20
-6.57654766310583
30
0
41
1
10
129.327579770625
20
-6.52664396958804
30
0
41
1
10
129.234823841504
20
-6.50957825036571
30
0
41
1
10
129.049484595438
20
-6.47461591661383
30
0
41
1
10
128.956874121132
20
-6.45671436225177
30
0
41
1
10
128.494093839825
20
-6.3651014979533
30
0
41
1
10
128.124739352875
20
-6.28507037799562
30
0
41
1
10
127.571605408055
20
-6.15539288278228
30
0
41
1
10
127.387376778047
20
-6.11056028400523
30
0
41
1
10
127.019194881806
20
-6.01779739714055
30
0
41
1
10
126.835242098617
20
-5.96986875733782
30
0
41
1
10
126.283683232218
20
-5.82147709793676
30
0
41
1
10
125.91637615184
20
-5.71640608813968
30
0
41
1
10
125.182047562697
20
-5.49466045080115
30
0
41
1
10
124.815025730908
20
-5.37798545752531
30
0
41
1
10
124.080876282363
20
-5.1335667767496
30
0
41
1
10
123.713749492834
20
-5.00582268300695
30
0
41
1
10
122.978856244251
20
-4.73995036572035
30
0
41
1
10
122.243322390775
20
-4.46369042166154
30
0
41
1
10
121.321329525683
20
-4.09382798959308
30
0
41
1
10
120.673921703647
20
-3.82298330153583
30
0
41
1
10
120.395955143112
20
-3.70444828788038
30
0
41
1
10
120.210523254483
20
-3.62488963386812
30
0
41
1
10
120.117711442827
20
-3.58482724468857
30
0
41
1
10
119.653752736792
20
-3.38338874875603
30
0
41
1
10
119.283658508959
20
-3.21896412259915
30
0
41
1
10
118.545160557054
20
-2.88448360888228
30
0
41
1
10
118.176757338887
20
-2.71442673398661
30
0
41
1
10
117.441225119819
20
-2.36951699447624
30
0
41
1
10
117.074093578699
20
-2.19466933808678
30
0
41
1
10
115.973800778223
20
-1.66454913177452
30
0
41
1
10
115.241720759477
20
-1.30373515554069
30
0
41
1
10
114.143095842862
20
-0.756779392519718
30
0
41
1
10
113.77683277871
20
-0.573448360454591
30
0
41
1
10
113.134284327294
20
-0.251096609372183
30
0
41
1
10
112.858125081852
20
-0.11230858692943
30
0
41
1
10
112.581689516328
20
0.0265562463717401
30
0
0
SPLINE
5
E4
100
AcDbEntity
8
1
62
256
6
ByLayer
370
18
48
1
60
0
100
AcDbSpline
70
4
71
3
72
61
73
57
40
0
40
0
40
0
40
0
40
0.0061573441558258
40
0.0061573441558258
40
0.030786672932452
40
0.030786672932452
40
0.0800453304857045
40
0.0800453304857045
40
0.129303988038957
40
0.129303988038957
40
0.178562645592209
40
0.203191974368837
40
0.203191974368837
40
0.227821303145465
40
0.227821303145465
40
0.277079960698723
40
0.277079960698723
40
0.326338618251981
40
0.326338618251981
40
0.37559727580524
40
0.37559727580524
40
0.424855933358498
40
0.424855933358498
40
0.474114590911757
40
0.474114590911757
40
0.498743919688386
40
0.498743919688386
40
0.523373248465015
40
0.523373248465015
40
0.572631906018276
40
0.572631906018276
40
0.621890563571537
40
0.621890563571537
40
0.671149221124798
40
0.671149221124798
40
0.72040787867806
40
0.72040787867806
40
0.76966653623132
40
0.76966653623132
40
0.794295865007953
40
0.794295865007953
40
0.818925193784585
40
0.818925193784585
40
0.868183851337851
40
0.868183851337851
40
0.880498515726169
40
0.880498515726169
40
0.892813180114486
40
0.892813180114486
40
0.917442508891124
40
0.917442508891124
40
0.966701166444397
40
0.966701166444397
40
0.991330495221034
40
0.991330495221034
40
1
40
1
40
1
40
1
41
1
10
109.445592723604
20
6.95023826734015
30
0
41
1
10
109.491949359204
20
6.95138438280668
30
0
41
1
10
109.538304010311
20
6.95242334169634
30
0
41
1
10
109.770053583004
20
6.95708829270015
30
0
41
1
10
109.955149131514
20
6.95908782900472
30
0
41
1
10
110.509795598959
20
6.9590527430108
30
0
41
1
10
110.878682098308
20
6.95109188986686
30
0
41
1
10
111.614952574694
20
6.9206391729289
30
0
41
1
10
111.98234036759
20
6.89813171636854
30
0
41
1
10
112.716100284615
20
6.83872424900241
30
0
41
1
10
113.265653432294
20
6.78338140719833
30
0
41
1
10
113.814250883809
20
6.71294077116571
30
0
41
1
10
114.179803349543
20
6.66267061520077
30
0
41
1
10
114.362502723847
20
6.6358533481241
30
0
41
1
10
114.91075633147
20
6.54979432975176
30
0
41
1
10
115.276421783084
20
6.48505400745779
30
0
41
1
10
116.008231517501
20
6.34183055723298
30
0
41
1
10
116.374375456979
20
6.26334876372923
30
0
41
1
10
117.107370445234
20
6.09345374676531
30
0
41
1
10
117.474223253836
20
6.00203834416604
30
0
41
1
10
118.208588247982
20
5.80699754071512
30
0
41
1
10
118.576090173202
20
5.703394856789
30
0
41
1
10
119.313308503013
20
5.48319061870603
30
0
41
1
10
119.683032545445
20
5.36656722202
30
0
41
1
10
120.239275495356
20
5.18261054375176
30
0
41
1
10
120.424530115871
20
5.11993249180057
30
0
41
1
10
120.794519409724
20
4.99204804792862
30
0
41
1
10
120.979296799885
20
4.92682755572412
30
0
41
1
10
121.533067717131
20
4.72748151765791
30
0
41
1
10
121.901497589269
20
4.58967060130266
30
0
41
1
10
122.637092595162
20
4.30503975987079
30
0
41
1
10
123.004267896139
20
4.15822587640963
30
0
41
1
10
123.738290091324
20
3.8563053427591
30
0
41
1
10
124.105122634894
20
3.70119282349864
30
0
41
1
10
124.838415145864
20
3.38345230650088
30
0
41
1
10
125.204889976449
20
3.22083412520937
30
0
41
1
10
125.93846403711
20
2.8890715424244
30
0
41
1
10
126.305545414851
20
2.71991252521283
30
0
41
1
10
126.856426267625
20
2.46161476304789
30
0
41
1
10
127.040104491023
20
2.37476197344688
30
0
41
1
10
127.407815230247
20
2.19976035495066
30
0
41
1
10
127.591841646176
20
2.11160749705346
30
0
41
1
10
128.144455025184
20
1.84533537484822
30
0
41
1
10
128.513571266082
20
1.66539376271876
30
0
41
1
10
128.975755954078
20
1.43762659055884
30
0
41
1
10
129.068234891296
20
1.39193374782141
30
0
41
1
10
129.253314827871
20
1.30031027798856
30
0
41
1
10
129.345954556941
20
1.25436100143173
30
0
41
1
10
129.623829014963
20
1.11635580230367
30
0
41
1
10
129.808855645536
20
1.02421114914526
30
0
41
1
10
130.363310353393
20
0.747377927723278
30
0
41
1
10
130.73211028277
20
0.562284899105777
30
0
41
1
10
131.28416173247
20
0.283889322226315
30
0
41
1
10
131.467996291067
20
0.190987775082789
30
0
41
1
10
131.716429940379
20
0.0655868624497202
30
0
41
1
10
131.781099645508
20
0.0329539780916832
30
0
41
1
10
131.845758041756
20
0.0003354727655278
30
0
0
SPLINE
5
E5
100
AcDbEntity
8
1
62
256
6
ByLayer
370
18
48
1
60
0
100
AcDbSpline
70
4
71
3
72
14
73
10
40
0
40
0
40
0
40
0
40
0.25
40
0.25
40
0.5
40
0.5
40
0.75
40
0.75
40
1
40
1
40
1
40
1
41
1
10
176.311178064984
20
-7.01463681512607
30
0
41
1
10
176.311341949644
20
-7.01480403956182
30
0
41
1
10
176.311434149932
20
-7.01516463294615
30
0
41
1
10
176.31143176079
20
-7.01636542788899
30
0
41
1
10
176.311331863779
20
-7.01720426084208
30
0
41
1
10
176.31091134614
20
-7.01928368014828
30
0
41
1
10
176.310584630421
20
-7.02054197057561
30
0
41
1
10
176.309779619312
20
-7.02315765300372
30
0
41
1
10
176.309305785087
20
-7.02450634034096
30
0
41
1
10
176.30881796909
20
-7.02576053820823
30
0
0
SPLINE
5
E6
100
AcDbEntity
8
1
62
256
6
ByLayer
370
18
48
1
60
0
100
AcDbSpline
70
4
71
3
72
8
73
4
40
0
40
0
40
0
40
0
40
1
40
1
40
1
40
1
41
1
10
176.153555926692
20
-7.28243888104683
30
0
41
1
10
176.202473041785
20
-7.20436879764975
30
0
41
1
10
176.251442136821
20
-7.12596585996511
30
0
41
1
10
176.300469461173
20
-7.04723173061348
30
0
0
SPLINE
5
E7
100
AcDbEntity
8
1
62
256
6
ByLayer
370
18
48
1
60
0
100
AcDbSpline
70
4
71
3
72
8
73
4
40
0
40
0
40
0
40
0
40
1
40
1
40
1
40
1
41
1
10
176.30881796909
20
-7.02576053820829
30
0
41
1
10
176.306033955638
20
-7.03291836772013
30
0
41
1
10
176.303251117454
20
-7.04007543005929
30
0
41
1
10
176.300469461173
20
-7.04723173061345
30
0
0
SPLINE
5
E8
100
AcDbEntity
8
1
62
256
6
ByLayer
370
18
48
1
60
0
100
AcDbSpline
70
4
71
3
72
40
73
36
40
0
40
0
40
0
40
0
40
0.109427149537777
40
0.109427149537777
40
0.218854299075554
40
0.218854299075554
40
0.328281448613331
40
0.328281448613331
40
0.382995023382222
40
0.382995023382222
40
0.437708598151112
40
0.437708598151112
40
0.465065385535559
40
0.465065385535559
40
0.492422172920006
40
0.492422172920006
40
0.547135747688896
40
0.547135747688896
40
0.656562897226676
40
0.656562897226676
40
0.711276471995567
40
0.711276471995567
40
0.765990046764457
40
0.765990046764457
40
0.820703621533348
40
0.820703621533348
40
0.875417196302238
40
0.875417196302238
40
0.930130771071128
40
0.930130771071128
40
0.984844345840019
40
0.984844345840019
40
0.998522739532241
40
0.998522739532241
40
1
40
1
40
1
40
1
41
1
10
176.30881796909
20
-7.02576053820823
30
0
41
1
10
175.569512319028
20
-6.97984394693609
30
0
41
1
10
174.833982967614
20
-6.90397401616664
30
0
41
1
10
173.366809318801
20
-6.69568775470836
30
0
41
1
10
172.635151648522
20
-6.56331321662825
30
0
41
1
10
171.172068185717
20
-6.24534404195626
30
0
41
1
10
170.440648863446
20
-6.05968165552599
30
0
41
1
10
169.340779043562
20
-5.74378284524727
30
0
41
1
10
168.973702015373
20
-5.63223172336072
30
0
41
1
10
168.23821798609
20
-5.39713105252679
30
0
41
1
10
167.869815630767
20
-5.27358740673154
30
0
41
1
10
167.315836352429
20
-5.07959876029744
30
0
41
1
10
167.130946586837
20
-5.0134878104688
30
0
41
1
10
166.760643571816
20
-4.87844530646248
30
0
41
1
10
166.575695292034
20
-4.80968377830419
30
0
41
1
10
166.021708256051
20
-4.59999257465188
30
0
41
1
10
165.653370611862
20
-4.45561221387362
30
0
41
1
10
164.550648937635
20
-4.00986385249101
30
0
41
1
10
163.818563884494
20
-3.69585993836398
30
0
41
1
10
162.722223880018
20
-3.20483852218288
30
0
41
1
10
162.357078429351
20
-3.0378200294015
30
0
41
1
10
161.626886417826
20
-2.69803952349744
30
0
41
1
10
161.26183348859
20
-2.52529010198532
30
0
41
1
10
160.531428458689
20
-2.17476969946003
30
0
41
1
10
160.166084813722
20
-1.99697903485
30
0
41
1
10
159.434596138468
20
-1.63734454827329
30
0
41
1
10
159.068443777898
20
-1.4555149842902
30
0
41
1
10
158.33490493867
20
-1.08861670047034
30
0
41
1
10
157.96752557841
20
-0.903530734045262
30
0
41
1
10
157.231012843063
20
-0.531130166336595
30
0
41
1
10
156.861870908621
20
-0.343833102149944
30
0
41
1
10
156.399073872083
20
-0.108830792637434
30
0
41
1
10
156.306402240188
20
-0.0617635768659568
30
0
41
1
10
156.203823309251
20
-0.0096639572686001
30
0
41
1
10
156.193825487213
20
-0.0045860834077871
30
0
41
1
10
156.183828468918
20
0.0004913700764462
30
0
0
SPLINE
5
E9
100
AcDbEntity
8
1
62
256
6
ByLayer
370
18
48
1
60
0
100
AcDbSpline
70
4
71
3
72
62
73
58
40
0
40
0
40
0
40
0
40
0.0076113234463348
40
0.0076113234463348
40
0.0323234273397161
40
0.0323234273397161
40
0.0570355312330973
40
0.0570355312330973
40
0.10645973901986
40
0.10645973901986
40
0.131171842913242
40
0.131171842913242
40
0.143527894859934
40
0.143527894859934
40
0.155883946806625
40
0.155883946806625
40
0.205308154593391
40
0.205308154593391
40
0.230020258486774
40
0.230020258486774
40
0.254732362380157
40
0.254732362380157
40
0.304156570166919
40
0.304156570166919
40
0.353580777953682
40
0.353580777953682
40
0.403004985740444
40
0.403004985740444
40
0.452429193527207
40
0.452429193527207
40
0.501853401313969
40
0.501853401313969
40
0.526565505207352
40
0.526565505207352
40
0.551277609100735
40
0.551277609100735
40
0.600701816887498
40
0.600701816887498
40
0.65012602467426
40
0.65012602467426
40
0.699550232461023
40
0.699550232461023
40
0.748974440247785
40
0.748974440247785
40
0.798398648034548
40
0.798398648034548
40
0.823110751927928
40
0.823110751927928
40
0.847822855821308
40
0.847822855821308
40
0.897247063608067
40
0.897247063608067
40
0.946671271394827
40
0.946671271394827
40
0.996095479181587
40
0.996095479181587
40
1
40
1
40
1
40
1
41
1
10
132.370354416112
20
-0.274938795327415
30
0
41
1
10
132.313827272303
20
-0.246497674382311
30
0
41
1
10
132.257291529288
20
-0.218047042167569
30
0
41
1
10
132.017160660521
20
-0.097184298628747
30
0
41
1
10
131.833481122586
20
-0.0046841916264384
30
0
41
1
10
131.465943904691
20
0.180578389143108
30
0
41
1
10
131.282093496911
20
0.27336099380426
30
0
41
1
10
130.729993433331
20
0.551402194748874
30
0
41
1
10
130.361163583364
20
0.736268986278105
30
0
41
1
10
129.806668459594
20
1.01278008067348
30
0
41
1
10
129.621629141749
20
1.1048203174648
30
0
41
1
10
129.343737255754
20
1.24267433145647
30
0
41
1
10
129.251088833672
20
1.28857534882078
30
0
41
1
10
129.065992378376
20
1.38010237715665
30
0
41
1
10
128.97350496996
20
1.42574748970574
30
0
41
1
10
128.511277046273
20
1.65327824981713
30
0
41
1
10
128.142125665358
20
1.83304497578632
30
0
41
1
10
127.589458687603
20
2.09907765087439
30
0
41
1
10
127.405414234454
20
2.18715439910028
30
0
41
1
10
127.037667441437
20
2.36201220357518
30
0
41
1
10
126.853970550023
20
2.44879554868007
30
0
41
1
10
126.303031820213
20
2.70688949886556
30
0
41
1
10
125.935912857944
20
2.87592788074559
30
0
41
1
10
125.20226524328
20
3.20748202886944
30
0
41
1
10
124.835752283444
20
3.37000708981174
30
0
41
1
10
124.102383515937
20
3.68758340771859
30
0
41
1
10
123.7355147525
20
3.84262924238482
30
0
41
1
10
123.001423219645
20
4.14444762626314
30
0
41
1
10
122.634212533534
20
4.2912211624662
30
0
41
1
10
121.898548248068
20
4.57579283971293
30
0
41
1
10
121.530086070007
20
4.71358820755762
30
0
41
1
10
120.976270591412
20
4.91293273925675
30
0
41
1
10
120.791478865889
20
4.9781561069737
30
0
41
1
10
120.421461960566
20
5.10605286659518
30
0
41
1
10
120.236196440912
20
5.16873959256253
30
0
41
1
10
119.67990726627
20
5.35273703346869
30
0
41
1
10
119.310150961773
20
5.46940378837684
30
0
41
1
10
118.572864815046
20
5.68972592246595
30
0
41
1
10
118.205324823816
20
5.79339764797416
30
0
41
1
10
117.470880592553
20
5.98859732566746
30
0
41
1
10
117.103988608141
20
6.0801064434792
30
0
41
1
10
116.370915614956
20
6.25021574803714
30
0
41
1
10
116.004732836667
20
6.32881803719781
30
0
41
1
10
115.272845469525
20
6.47230754958187
30
0
41
1
10
114.907141431936
20
6.53719370701941
30
0
41
1
10
114.358830071619
20
6.62349040557851
30
0
41
1
10
114.176111145959
20
6.65038981564777
30
0
41
1
10
113.810516928498
20
6.70082655975736
30
0
41
1
10
113.627630406828
20
6.72439298151485
30
0
41
1
10
113.078653777183
20
6.79006683208709
30
0
41
1
10
112.712246737046
20
6.82715136164762
30
0
41
1
10
111.978413929912
20
6.88695921894936
30
0
41
1
10
111.610990773198
20
6.90967728366121
30
0
41
1
10
110.874652596271
20
6.9405716828316
30
0
41
1
10
110.505734660577
20
6.94876395472883
30
0
41
1
10
110.106727988995
20
6.94905086276626
30
0
41
1
10
110.07750895036
20
6.94902172615807
30
0
41
1
10
110.048284221823
20
6.94894354444332
30
0
0
SPLINE
5
EA
100
AcDbEntity
8
1
62
256
6
ByLayer
370
13
48
1
60
0
100
AcDbSpline
70
4
71
3
72
44
73
40
40
0
40
0
40
0
40
0
40
0.0282618981495465
40
0.0282618981495465
40
0.0695878373823386
40
0.0695878373823386
40
0.110913776615131
40
0.110913776615131
40
0.193565655080715
40
0.276217533546299
40
0.276217533546299
40
0.317543472779091
40
0.338206442395487
40
0.338206442395487
40
0.358869412011883
40
0.358869412011883
40
0.441521290477466
40
0.441521290477466
40
0.482847229710258
40
0.503510199326654
40
0.503510199326654
40
0.524173168943049
40
0.524173168943049
40
0.606825047408632
40
0.606825047408632
40
0.648150986641423
40
0.648150986641423
40
0.689476925874214
40
0.689476925874214
40
0.772128804339796
40
0.772128804339796
40
0.813454743572587
40
0.813454743572587
40
0.834117713188982
40
0.834117713188982
40
0.854780682805378
40
0.854780682805378
40
0.937432561270959
40
1
40
1
40
1
40
1
41
1
10
105.650172715434
20
6.93903829024242
30
0
41
1
10
105.650170016955
20
6.93906151536638
30
0
41
1
10
105.650167297555
20
6.93807560911281
30
0
41
1
10
105.650160555734
20
6.93316922726061
30
0
41
1
10
105.650156511777
20
6.92809988811069
30
0
41
1
10
105.650148354295
20
6.91362865748494
30
0
41
1
10
105.650144235106
20
6.90420676648304
30
0
41
1
10
105.650131857646
20
6.86959755685859
30
0
41
1
10
105.650115272083
20
6.80655105952462
30
0
41
1
10
105.650098628952
20
6.71033134987263
30
0
41
1
10
105.65008614102
20
6.62568245105254
30
0
41
1
10
105.65007989531
20
6.5802327859991
30
0
41
1
10
105.650073646689
20
6.53004756045266
30
0
41
1
10
105.650069480028
20
6.49553023758398
30
0
41
1
10
105.6500673946
20
6.47772665248351
30
0
41
1
10
105.650056989259
20
6.3862569456135
30
0
41
1
10
105.650048735325
20
6.3052628055525
30
0
41
1
10
105.650036428183
20
6.17214293132093
30
0
41
1
10
105.650030292731
20
6.10267172926262
30
0
41
1
10
105.650024175509
20
6.0288151947824
30
0
41
1
10
105.650020100201
20
5.97859835474586
30
0
41
1
10
105.650018063815
20
5.95299764641595
30
0
41
1
10
105.650007910212
20
5.82285324360026
30
0
41
1
10
105.649999859325
20
5.71166212230094
30
0
41
1
10
105.649987815665
20
5.53433333761097
30
0
41
1
10
105.649983806378
20
5.47346425836454
30
0
41
1
10
105.649975783471
20
5.3481893581808
30
0
41
1
10
105.649971765891
20
5.28371569990236
30
0
41
1
10
105.649959735023
20
5.08582463460971
30
0
41
1
10
105.649951731193
20
4.94775633810008
30
0
41
1
10
105.649939640964
20
4.73148858365491
30
0
41
1
10
105.649935596666
20
4.65786964313008
30
0
41
1
10
105.64992949373
20
4.54513311366816
30
0
41
1
10
105.649927452037
20
4.50714526227853
30
0
41
1
10
105.649923360569
20
4.43052308475185
30
0
41
1
10
105.649921311486
20
4.39190214459506
30
0
41
1
10
105.649911042824
20
4.19725657988815
30
0
41
1
10
105.649896479084
20
3.91501451073233
30
0
41
1
10
105.649881420515
20
3.61769372796829
30
0
41
1
10
105.64987479985
20
3.48676317407418
30
0
0
SPLINE
5
EB
100
AcDbEntity
8
1
62
256
6
ByLayer
370
18
48
1
60
0
100
AcDbSpline
70
4
71
3
72
57
73
53
40
0
40
0
40
0
40
0
40
0.0131533729322928
40
0.0131533729322928
40
0.0624168846229782
40
0.0624168846229782
40
0.111680396313664
40
0.111680396313664
40
0.210207419695035
40
0.210207419695035
40
0.25947093138572
40
0.25947093138572
40
0.308734443076404
40
0.308734443076404
40
0.357997954767088
40
0.357997954767088
40
0.370313832689758
40
0.370313832689758
40
0.382629710612428
40
0.407261466457772
40
0.407261466457772
40
0.456524978148459
40
0.505788489839146
40
0.505788489839146
40
0.555052001529833
40
0.555052001529833
40
0.60431551322052
40
0.60431551322052
40
0.653579024911207
40
0.653579024911207
40
0.678210780756549
40
0.678210780756549
40
0.702842536601891
40
0.702842536601891
40
0.752106048292578
40
0.76442192621525
40
0.76442192621525
40
0.776737804137921
40
0.776737804137921
40
0.801369559983262
40
0.801369559983262
40
0.85063307167394
40
0.85063307167394
40
0.875264827519278
40
0.875264827519278
40
0.899896583364617
40
0.899896583364617
40
0.949160095055299
40
0.949160095055299
40
0.99842360674598
40
0.99842360674598
40
1
40
1
40
1
40
1
41
1
10
112.019390216534
20
0.319578339363716
30
0
41
1
10
112.117558559043
20
0.270412893155736
30
0
41
1
10
112.215683455997
20
0.221238728049571
30
0
41
1
10
112.681130793983
20
-0.0121081789692994
30
0
41
1
10
113.047935245451
20
-0.196297081572794
30
0
41
1
10
113.781006064834
20
-0.56355928410386
30
0
41
1
10
114.147263313791
20
-0.746645518831201
30
0
41
1
10
115.245869569304
20
-1.29290265263131
30
0
41
1
10
115.977935543227
20
-1.65329854089279
30
0
41
1
10
117.078202962784
20
-2.18285861470648
30
0
41
1
10
117.44532518394
20
-2.35753100827947
30
0
41
1
10
118.180836418362
20
-2.70211279374294
30
0
41
1
10
118.549228051634
20
-2.87201683275549
30
0
41
1
10
119.287697598898
20
-3.20621831042195
30
0
41
1
10
119.657774986503
20
-3.37051676094055
30
0
41
1
10
120.121709399235
20
-3.57181326521371
30
0
41
1
10
120.214517002458
20
-3.61184838828854
30
0
41
1
10
120.399940505079
20
-3.69135429890892
30
0
41
1
10
120.677894914071
20
-3.80981302647751
30
0
41
1
10
120.955344533277
20
-3.92582166559538
30
0
41
1
10
121.509669546037
20
-4.15443870995762
30
0
41
1
10
122.247239575042
20
-4.45019445394749
30
0
41
1
10
122.98275454463
20
-4.72637992330016
30
0
41
1
10
123.717629249174
20
-4.99220798946965
30
0
41
1
10
124.084747099127
20
-5.11994475182723
30
0
41
1
10
124.818879155226
20
-5.36437762562267
30
0
41
1
10
125.185892560586
20
-5.48107413906192
30
0
41
1
10
125.920202624894
20
-5.70289199960581
30
0
41
1
10
126.287499661567
20
-5.80801359007032
30
0
41
1
10
126.839042674184
20
-5.95650172092311
30
0
41
1
10
127.022990210904
20
-6.00446572747899
30
0
41
1
10
127.391160555211
20
-6.09730713688461
30
0
41
1
10
127.575382631063
20
-6.14218321708242
30
0
41
1
10
128.128495416554
20
-6.27200184565768
30
0
41
1
10
128.590169040471
20
-6.37217533499253
30
0
41
1
10
129.053199245143
20
-6.46183781611882
30
0
41
1
10
129.238529522446
20
-6.4968641803832
30
0
41
1
10
129.331280364337
20
-6.51396270946924
30
0
41
1
10
129.609542775823
20
-6.56396845397586
30
0
41
1
10
129.794821112954
20
-6.59554012746054
30
0
41
1
10
130.349967033092
20
-6.68481363746036
30
0
41
1
10
130.71915331753
20
-6.73708613293152
30
0
41
1
10
131.271971792657
20
-6.80452668656969
30
0
41
1
10
131.456085680606
20
-6.82518249790306
30
0
41
1
10
131.824095323375
20
-6.86294267772337
30
0
41
1
10
132.007988010962
20
-6.8800403052746
30
0
41
1
10
132.559332425303
20
-6.9258070915775
30
0
41
1
10
132.926458484802
20
-6.94896788812255
30
0
41
1
10
133.660382760185
20
-6.98055970388805
30
0
41
1
10
134.027196525299
20
-6.98907301434556
30
0
41
1
10
134.40582070835
20
-6.99033130564632
30
0
41
1
10
134.41756076471
20
-6.99036274860407
30
0
41
1
10
134.429300882955
20
-6.99038662016645
30
0
0
SPLINE
5
EC
100
AcDbEntity
8
1
62
256
6
ByLayer
370
18
48
1
60
0
100
AcDbSpline
70
4
71
3
72
8
73
4
40
0
40
0
40
0
40
0
40
1
40
1
40
1
40
1
41
1
10
176.274038844383
20
-0.445979890344347
30
0
41
1
10
176.275944901162
20
-0.446611153690497
30
0
41
1
10
176.276940571726
20
-0.451840147859599
30
0
41
1
10
176.276232481972
20
-0.457643506810228
30
0
0
SPLINE
5
ED
100
AcDbEntity
8
1
62
256
6
ByLayer
370
18
48
1
60
0
100
AcDbSpline
70
4
71
3
72
54
73
50
40
0
40
0
40
0
40
0
40
0.0010368236607331
40
0.0010368236607331
40
0.0504097863000022
40
0.0504097863000022
40
0.0997827489392714
40
0.0997827489392714
40
0.124469230258906
40
0.124469230258906
40
0.136812470918723
40
0.136812470918723
40
0.14915571157854
40
0.14915571157854
40
0.198528674217801
40
0.198528674217801
40
0.247901636857061
40
0.247901636857061
40
0.297274599496321
40
0.297274599496321
40
0.346647562135581
40
0.346647562135581
40
0.396020524774841
40
0.396020524774841
40
0.445393487414102
40
0.445393487414102
40
0.544139412692622
40
0.544139412692622
40
0.593512375331882
40
0.593512375331882
40
0.605855615991699
40
0.605855615991699
40
0.618198856651515
40
0.618198856651515
40
0.642885337971145
40
0.642885337971145
40
0.692258300610409
40
0.692258300610409
40
0.741631263249672
40
0.741631263249672
40
0.791004225888935
40
0.791004225888935
40
0.840377188528199
40
0.840377188528199
40
0.889750151167462
40
0.889750151167462
40
0.939123113806725
40
0.939123113806725
40
1
40
1
40
1
40
1
41
1
10
153.145069621922
20
7.0296160148595
30
0
41
1
10
153.152752127316
20
7.0297651936439
30
0
41
1
10
153.160434954816
20
7.02991083945693
30
0
41
1
10
153.533985806991
20
7.03681941829694
30
0
41
1
10
153.900512399527
20
7.03575765792101
30
0
41
1
10
154.634565478214
20
7.01978049867958
30
0
41
1
10
155.002163337904
20
7.00471442927329
30
0
41
1
10
155.555263482173
20
6.9702976263286
30
0
41
1
10
155.739897814875
20
6.95688759719494
30
0
41
1
10
156.017217805415
20
6.93400399757573
30
0
41
1
10
156.109740953649
20
6.92591273761059
30
0
41
1
10
156.294810322205
20
6.90883980009633
30
0
41
1
10
156.387268735073
20
6.89986918622964
30
0
41
1
10
156.849200727687
20
6.85286840183232
30
0
41
1
10
157.217612970206
20
6.80832663121703
30
0
41
1
10
157.953031996944
20
6.70423359138906
30
0
41
1
10
158.319996004445
20
6.64483334186914
30
0
41
1
10
159.05257467339
20
6.5129579486395
30
0
41
1
10
159.418226878859
20
6.44038707811862
30
0
41
1
10
160.148958673081
20
6.28178257556942
30
0
41
1
10
160.513986121238
20
6.19583893544436
30
0
41
1
10
161.243274650307
20
6.01206328155965
30
0
41
1
10
161.607611581465
20
5.91412498884816
30
0
41
1
10
162.336964600946
20
5.70530841162369
30
0
41
1
10
162.701928793772
20
5.59451772570844
30
0
41
1
10
163.797955716814
20
5.24470584200168
30
0
41
1
10
164.53013648122
20
4.98814586513251
30
0
41
1
10
165.631727967084
20
4.57225070925219
30
0
41
1
10
165.999543412379
20
4.42842506237272
30
0
41
1
10
166.460929645291
20
4.24220209585809
30
0
41
1
10
166.553284007787
20
4.20463733673986
30
0
41
1
10
166.738147200746
20
4.1288813131776
30
0
41
1
10
166.830692265208
20
4.09067478127861
30
0
41
1
10
167.108035472405
20
3.97535560852006
30
0
41
1
10
167.292679157192
20
3.89748802530389
30
0
41
1
10
167.845927488674
20
3.66111814518896
30
0
41
1
10
168.213857099214
20
3.49984821091945
30
0
41
1
10
168.948409465662
20
3.1708350625307
30
0
41
1
10
169.315020984671
20
3.00308274958729
30
0
41
1
10
170.047232645503
20
2.66185507815436
30
0
41
1
10
170.412852594592
20
2.48839850636202
30
0
41
1
10
171.1437969049
20
2.13683690353014
30
0
41
1
10
171.509105566149
20
1.95871814743919
30
0
41
1
10
172.239713542427
20
1.59856709345919
30
0
41
1
10
172.605026753785
20
1.41655215181496
30
0
41
1
10
173.336373978343
20
1.0498097397394
30
0
41
1
10
173.702395756797
20
0.865066614685617
30
0
41
1
10
174.520677125899
20
0.450102517620024
30
0
41
1
10
174.973164238475
20
0.219320885225869
30
0
41
1
10
175.426617566712
20
-0.0124534639418528
30
0
0
SPLINE
5
EE
100
AcDbEntity
8
1
62
256
6
ByLayer
370
18
48
1
60
0
100
AcDbSpline
70
4
71
3
72
8
73
4
40
0
40
0
40
0
40
0
40
1
40
1
40
1
40
1
41
1
10
176.17995226746
20
-0.412983519359159
30
0
41
1
10
176.211298552272
20
-0.424589002834637
30
0
41
1
10
176.242656507519
20
-0.435586433446275
30
0
41
1
10
176.274038844383
20
-0.445979890344376
30
0
0
SPLINE
5
EF
100
AcDbEntity
8
1
62
256
6
ByLayer
370
18
48
1
60
0
100
AcDbSpline
70
4
71
3
72
8
73
4
40
0
40
0
40
0
40
0
40
1
40
1
40
1
40
1
41
1
10
176.276232481972
20
-0.457643506810456
30
0
41
1
10
176.25336242298
20
-0.445956328936802
30
0
41
1
10
176.230495293753
20
-0.434270574792322
30
0
41
1
10
176.207631054799
20
-0.422586327948324
30
0
0
SPLINE
5
F0
100
AcDbEntity
8
1
62
256
6
ByLayer
370
18
48
1
60
0
100
AcDbSpline
70
4
71
3
72
52
73
48
40
0
40
0
40
0
40
0
40
0.0844468332166488
40
0.0844468332166488
40
0.133572398800559
40
0.133572398800559
40
0.18269796438447
40
0.18269796438447
40
0.231823529968381
40
0.231823529968381
40
0.280949095552291
40
0.280949095552291
40
0.330074661136202
40
0.330074661136202
40
0.379200226720113
40
0.379200226720113
40
0.403763009512069
40
0.403763009512069
40
0.416044400908049
40
0.416044400908049
40
0.428325792304029
40
0.428325792304029
40
0.477451357887946
40
0.477451357887946
40
0.575702489055779
40
0.575702489055779
40
0.624828054639695
40
0.624828054639695
40
0.673953620223612
40
0.673953620223612
40
0.723079185807528
40
0.723079185807528
40
0.772204751391445
40
0.772204751391445
40
0.821330316975362
40
0.821330316975362
40
0.870455882559278
40
0.870455882559278
40
0.882737273955259
40
0.882737273955259
40
0.895018665351241
40
0.895018665351241
40
0.919581448143201
40
0.919581448143201
40
0.96870701372712
40
0.96870701372712
40
1
40
1
40
1
40
1
41
1
10
175.965449980603
20
-0.298830930461008
30
0
41
1
10
175.332073025908
20
0.024800064455178
30
0
41
1
10
174.700810653757
20
0.347045443868979
30
0
41
1
10
173.70433510753
20
0.851742767664348
30
0
41
1
10
173.338276626817
20
1.03628676912405
30
0
41
1
10
172.606856219468
20
1.40266079681018
30
0
41
1
10
172.241506393637
20
1.5845051221753
30
0
41
1
10
171.510827146016
20
1.94434211803858
30
0
41
1
10
171.145483887228
20
2.12231827457327
30
0
41
1
10
170.414472715437
20
2.47362425907591
30
0
41
1
10
170.048820111316
20
2.6469662861962
30
0
41
1
10
169.316546708915
20
2.98799072445854
30
0
41
1
10
168.949906429888
20
3.15565566040868
30
0
41
1
10
168.215301563508
20
3.48452507834853
30
0
41
1
10
167.847348027845
20
3.6457378957335
30
0
41
1
10
167.294067800075
20
3.88204323873032
30
0
41
1
10
167.10941421094
20
3.95989300432672
30
0
41
1
10
166.832057573785
20
4.07519203106131
30
0
41
1
10
166.739505375968
20
4.11339409649202
30
0
41
1
10
166.554621479322
20
4.18914607483194
30
0
41
1
10
166.46225666036
20
4.22670997376053
30
0
41
1
10
166.000817623955
20
4.41293440916743
30
0
41
1
10
165.632958417292
20
4.55677509323399
30
0
41
1
10
164.531237709804
20
4.97274510749369
30
0
41
1
10
163.798971974629
20
5.22941705571833
30
0
41
1
10
162.702817226201
20
5.5794893988384
30
0
41
1
10
162.337810743823
20
5.69038297129401
30
0
41
1
10
161.608374466229
20
5.8994391436446
30
0
41
1
10
161.243995677515
20
5.99750821482138
30
0
41
1
10
160.514626758366
20
6.18155784487337
30
0
41
1
10
160.149561659573
20
6.26765197955055
30
0
41
1
10
159.418758607382
20
6.42659457889016
30
0
41
1
10
159.053072039538
20
6.49934753671576
30
0
41
1
10
158.320428893511
20
6.63160565272042
30
0
41
1
10
157.953435668896
20
6.69121114965481
30
0
41
1
10
157.217964458926
20
6.7957496347544
30
0
41
1
10
156.849527760394
20
6.84052556340757
30
0
41
1
10
156.387568525342
20
6.88782696444056
30
0
41
1
10
156.295104839792
20
6.89685809583816
30
0
41
1
10
156.110025614435
20
6.91405438809559
30
0
41
1
10
156.017489750099
20
6.92220900115046
30
0
41
1
10
155.740140808901
20
6.94528440421485
30
0
41
1
10
155.555486849891
20
6.95882587135162
30
0
41
1
10
155.002326601769
20
6.99364714314763
30
0
41
1
10
154.634686970606
20
7.00899173830666
30
0
41
1
10
154.033796101719
20
7.02253180255443
30
0
41
1
10
153.800176503079
20
7.02499402606475
30
0
41
1
10
153.56680076788
20
7.02441757857284
30
0
0
SPLINE
5
F1
100
AcDbEntity
8
1
62
256
6
ByLayer
370
13
48
1
60
0
100
AcDbSpline
70
4
71
3
72
13
73
9
40
0
40
0
40
0
40
0
40
0.284217524377738
40
0.43760097283008
40
0.43760097283008
40
0.590984421282422
40
0.590984421282422
40
1
40
1
40
1
40
1
41
1
10
105.650209307043
20
-6.87071232206537
30
0
41
1
10
105.650206042739
20
-6.88362902230534
30
0
41
1
10
105.650200903105
20
-6.90073267377448
30
0
41
1
10
105.650195603246
20
-6.91351291969789
30
0
41
1
10
105.650191850312
20
-6.92140198332223
30
0
41
1
10
105.650189954575
20
-6.92481132363912
30
0
41
1
10
105.650182958793
20
-6.93530981348465
30
0
41
1
10
105.650177775012
20
-6.93909174482744
30
0
41
1
10
105.650172511923
20
-6.93903812903881
30
0
0
SPLINE
5
F2
100
AcDbEntity
8
1
62
256
6
ByLayer
370
18
48
1
60
0
100
AcDbSpline
70
4
71
3
72
10
73
6
40
0
40
0
40
0
40
0
40
0.935999756089715
40
0.935999756089715
40
1
40
1
40
1
40
1
41
1
10
133.878999486383
20
6.98378890048554
30
0
41
1
10
134.050692754523
20
6.98755348201757
30
0
41
1
10
134.222379018885
20
6.98972166925123
30
0
41
1
10
134.405821040008
20
6.99033130674849
30
0
41
1
10
134.417561428029
20
6.99036275038054
30
0
41
1
10
134.429301877938
20
6.99038662218948
30
0
0
SPLINE
5
F3
100
AcDbEntity
8
1
62
256
6
ByLayer
370
18
48
1
60
0
100
AcDbSpline
70
4
71
3
72
41
73
37
40
0
40
0
40
0
40
0
40
0.0174730558863835
40
0.0307504470230544
40
0.0307504470230544
40
0.0440278381597253
40
0.0440278381597253
40
0.0971374027064067
40
0.0971374027064067
40
0.150246967253087
40
0.150246967253087
40
0.203356531799768
40
0.203356531799768
40
0.256466096346449
40
0.256466096346449
40
0.30957566089313
40
0.30957566089313
40
0.362685225439811
40
0.362685225439811
40
0.468904354533173
40
0.468904354533173
40
0.522013919079854
40
0.522013919079854
40
0.548568701353196
40
0.548568701353196
40
0.575123483626538
40
0.575123483626538
40
0.628233048173222
40
0.628233048173222
40
0.681342612719906
40
0.681342612719906
40
0.78756174181327
40
0.78756174181327
40
0.893780870906635
40
0.893780870906635
40
1
40
1
40
1
40
1
41
1
10
155.574472380795
20
0.320606298499058
30
0
41
1
10
155.695910588614
20
0.259094441495932
30
0
41
1
10
155.909806960417
20
0.150672658054646
30
0
41
1
10
156.124050659773
20
0.0420140915448997
30
0
41
1
10
156.309200846659
20
-0.0518900623048921
30
0
41
1
10
156.401868321718
20
-0.0988891253095403
30
0
41
1
10
156.86464841395
20
-0.33355597279197
30
0
41
1
10
157.233779402323
20
-0.520596562280133
30
0
41
1
10
157.97027259751
20
-0.892511355604256
30
0
41
1
10
158.337643433452
20
-1.07736790043199
30
0
41
1
10
159.071167773354
20
-1.44383243874697
30
0
41
1
10
159.43731416007
20
-1.62545763754727
30
0
41
1
10
160.168791429164
20
-1.9847104659101
30
0
41
1
10
160.53412968045
20
-2.16232379079429
30
0
41
1
10
161.264524851071
20
-2.51251467811551
30
0
41
1
10
161.629573298549
20
-2.68511187822327
30
0
41
1
10
162.35975417637
20
-3.02461644131594
30
0
41
1
10
162.724893032452
20
-3.19151111845011
30
0
41
1
10
163.821209794052
20
-3.68220164626013
30
0
41
1
10
164.553274934487
20
-3.99603866951145
30
0
41
1
10
165.655955976473
20
-4.44161825088756
30
0
41
1
10
166.024278332716
20
-4.58595577322052
30
0
41
1
10
166.578237490845
20
-4.79560531740188
30
0
41
1
10
166.76317201702
20
-4.86435539716368
30
0
41
1
10
167.133461279726
20
-4.99938802572581
30
0
41
1
10
167.318344711996
20
-5.06549823431337
30
0
41
1
10
167.872306733273
20
-5.25949627883122
30
0
41
1
10
168.240699879274
20
-5.38306170119094
30
0
41
1
10
168.976168219431
20
-5.61823781715484
30
0
41
1
10
169.343238785136
20
-5.7298426535742
30
0
41
1
10
170.443093242173
20
-6.04594690581717
30
0
41
1
10
171.174506934857
20
-6.23180514939151
30
0
41
1
10
172.637577865197
20
-6.55027844003715
30
0
41
1
10
173.369228608339
20
-6.68296074208294
30
0
41
1
10
174.836379516947
20
-6.89196928367284
30
0
41
1
10
175.571894241254
20
-6.96825276946731
30
0
41
1
10
176.311178064985
20
-7.01463681512607
30
0
0
SPLINE
5
F4
100
AcDbEntity
8
1
62
256
6
ByLayer
370
18
48
1
60
0
100
AcDbSpline
70
4
71
3
72
54
73
50
40
0
40
0
40
0
40
0
40
0.0624999999999989
40
0.0624999999999989
40
0.0937499999999984
40
0.109374999999998
40
0.109374999999998
40
0.124999999999998
40
0.124999999999998
40
0.187499999999997
40
0.187499999999997
40
0.249999999999996
40
0.312499999999995
40
0.312499999999995
40
0.343749999999995
40
0.343749999999995
40
0.359374999999994
40
0.359374999999994
40
0.374999999999994
40
0.437499999999994
40
0.437499999999994
40
0.468749999999994
40
0.468749999999994
40
0.484374999999994
40
0.484374999999994
40
0.499999999999994
40
0.562499999999994
40
0.562499999999994
40
0.593749999999994
40
0.593749999999994
40
0.624999999999994
40
0.624999999999994
40
0.687499999999994
40
0.687499999999994
40
0.703124999999994
40
0.703124999999994
40
0.718749999999995
40
0.718749999999995
40
0.749999999999995
40
0.749999999999995
40
0.812499999999996
40
0.812499999999996
40
0.843749999999997
40
0.843749999999997
40
0.874999999999998
40
0.874999999999998
40
0.937499999999999
40
0.937499999999999
40
1
40
1
40
1
40
1
41
1
10
176.276232481972
20
-0.457643506810342
30
0
41
1
10
176.251433916968
20
-0.660887478919648
30
0
41
1
10
176.229691656255
20
-0.863154832010963
30
0
41
1
10
176.200936941171
20
-1.16502320332373
30
0
41
1
10
176.187526084608
20
-1.31557379567934
30
0
41
1
10
176.175444193422
20
-1.4655322124822
30
0
41
1
10
176.167672471802
20
-1.56537072745246
30
0
41
1
10
176.163926335724
20
-1.61524923880768
30
0
41
1
10
176.145935846631
20
-1.86339271445934
30
0
41
1
10
176.133848166809
20
-2.05858892049835
30
0
41
1
10
176.113338504534
20
-2.44248229321113
30
0
41
1
10
176.096496544592
20
-2.81987583546652
30
0
41
1
10
176.085519635007
20
-3.18426967698989
30
0
41
1
10
176.079067813805
20
-3.45258667676521
30
0
41
1
10
176.077215346548
20
-3.5411948581133
30
0
41
1
10
176.074843380175
20
-3.67283753004571
30
0
41
1
10
176.074120091667
20
-3.71654103487339
30
0
41
1
10
176.072805999039
20
-3.80335123735992
30
0
41
1
10
176.069856062783
20
-4.01870889972929
30
0
41
1
10
176.068470933548
20
-4.22578813365357
30
0
41
1
10
176.068069547235
20
-4.46635893171788
30
0
41
1
10
176.068147519807
20
-4.5452266349599
30
0
41
1
10
176.068566573216
20
-4.66153032752649
30
0
41
1
10
176.06875678959
20
-4.69996527736819
30
0
41
1
10
176.06923527652
20
-4.77598454978022
30
0
41
1
10
176.070678999541
20
-4.96402064109421
30
0
41
1
10
176.073317523451
20
-5.14206505637228
30
0
41
1
10
176.077651872024
20
-5.34613447691669
30
0
41
1
10
176.079293667604
20
-5.41258227412183
30
0
41
1
10
176.08299048266
20
-5.54215118622147
30
0
41
1
10
176.085040167357
20
-5.6050908384351
30
0
41
1
10
176.091834666188
20
-5.78841777931942
30
0
41
1
10
176.097218475831
20
-5.90332331102059
30
0
41
1
10
176.10524987075
20
-6.03779970084108
30
0
41
1
10
176.106921737607
20
-6.06423639525121
30
0
41
1
10
176.110404562716
20
-6.11618899188036
30
0
41
1
10
176.112216189888
20
-6.1417121264094
30
0
41
1
10
176.11785904149
20
-6.21671887069562
30
0
41
1
10
176.121901516866
20
-6.26469891694901
30
0
41
1
10
176.134970483553
20
-6.40260586547589
30
0
41
1
10
176.144932331498
20
-6.4865106566825
30
0
41
1
10
176.162254728208
20
-6.60027667521913
30
0
41
1
10
176.168435236595
20
-6.63621283745132
30
0
41
1
10
176.181616550121
20
-6.70364157809379
30
0
41
1
10
176.188623296466
20
-6.73518340123684
30
0
41
1
10
176.21102676114
20
-6.82336537429089
30
0
41
1
10
176.227801873068
20
-6.87357315312343
30
0
41
1
10
176.265860717162
20
-6.9569465931624
30
0
41
1
10
176.287143401552
20
-6.99011235357079
30
0
41
1
10
176.311178064984
20
-7.01463681512607
30
0
0
SPLINE
5
F5
100
AcDbEntity
8
1
62
256
6
ByLayer
370
18
48
1
60
0
100
AcDbSpline
70
4
71
3
72
67
73
63
40
0
40
0
40
0
40
0
40
0.0025696580998311
40
0.0025696580998311
40
0.0194752571150889
40
0.0194752571150889
40
0.0532864551456053
40
0.0532864551456053
40
0.120908851206637
40
0.120908851206637
40
0.137814450221896
40
0.137814450221896
40
0.154720049237153
40
0.188531247267667
40
0.188531247267667
40
0.256153643328698
40
0.256153643328698
40
0.273059242343956
40
0.273059242343956
40
0.281512041851584
40
0.281512041851584
40
0.289964841359212
40
0.323776039389721
40
0.323776039389721
40
0.39139843545074
40
0.39139843545074
40
0.408304034465993
40
0.408304034465993
40
0.425209633481247
40
0.425209633481247
40
0.459020831511756
40
0.459020831511756
40
0.526643227572774
40
0.526643227572774
40
0.54354882658803
40
0.552001626095659
40
0.552001626095659
40
0.560454425603288
40
0.560454425603288
40
0.594265623633803
40
0.594265623633803
40
0.628076821664318
40
0.628076821664318
40
0.661888019694832
40
0.661888019694832
40
0.695699217725348
40
0.695699217725348
40
0.729510415755863
40
0.729510415755863
40
0.797132811816893
40
0.797132811816893
40
0.830944009847409
40
0.830944009847409
40
0.847849608862667
40
0.847849608862667
40
0.864755207877925
40
0.864755207877925
40
0.898566405908445
40
0.898566405908445
40
0.932377603938964
40
0.932377603938964
40
1
40
1
40
1
40
1
41
1
10
138.236548457912
20
-7.00088287882932
30
0
41
1
10
138.20856805307
20
-7.00483793141302
30
0
41
1
10
138.18058989228
20
-7.00874986362024
30
0
41
1
10
137.968581310354
20
-7.03806812752967
30
0
41
1
10
137.784666694575
20
-7.061645811316
30
0
41
1
10
137.233178072596
20
-7.12673175107568
30
0
41
1
10
136.865847922908
20
-7.16258838272282
30
0
41
1
10
135.764122667318
20
-7.24740493971007
30
0
41
1
10
135.030055181435
20
-7.27361181272244
30
0
41
1
10
134.110382519626
20
-7.26795466477074
30
0
41
1
10
133.926328888556
20
-7.26490313731063
30
0
41
1
10
133.558039542853
20
-7.25495095216723
30
0
41
1
10
133.005995615965
20
-7.23426830076835
30
0
41
1
10
132.454791419742
20
-7.19642578114386
30
0
41
1
10
131.35267383485
20
-7.09819449269108
30
0
41
1
10
130.618555892633
20
-7.00254327011689
30
0
41
1
10
129.69889398454
20
-6.84649194871335
30
0
41
1
10
129.514864552314
20
-6.81345752397232
30
0
41
1
10
129.238653413724
20
-6.76117312876872
30
0
41
1
10
129.146540658456
20
-6.74328706324303
30
0
41
1
10
128.962412290716
20
-6.7066443238102
30
0
41
1
10
128.502242763065
20
-6.61284529913985
30
0
41
1
10
128.042703877395
20
-6.50819701283595
30
0
41
1
10
126.940207431782
20
-6.23701350728334
30
0
41
1
10
126.205946499989
20
-6.02931872085497
30
0
41
1
10
125.286349241447
20
-5.73877169115559
30
0
41
1
10
125.102341560152
20
-5.67911690040589
30
0
41
1
10
124.73409470323
20
-5.55677325497072
30
0
41
1
10
124.549790525864
20
-5.49406059755188
30
0
41
1
10
123.997413785168
20
-5.30180001347202
30
0
41
1
10
123.629617224651
20
-5.16805137237989
30
0
41
1
10
122.526757447277
20
-4.75128606098409
30
0
41
1
10
121.792290057267
20
-4.45265951321596
30
0
41
1
10
120.872716261183
20
-4.05702602236971
30
0
41
1
10
120.59672846162
20
-3.93666625828715
30
0
41
1
10
120.320492798164
20
-3.81391485914875
30
0
41
1
10
120.136272379693
20
-3.73156175575377
30
0
41
1
10
120.044111990678
20
-3.6901174117686
30
0
41
1
10
119.583519869063
20
-3.48180562003992
30
0
41
1
10
119.215508936677
20
-3.31157432732366
30
0
41
1
10
118.479949600155
20
-2.96477763134681
30
0
41
1
10
118.112401813035
20
-2.78821110492899
30
0
41
1
10
117.377305545601
20
-2.42957092321294
30
0
41
1
10
117.009752415964
20
-2.2475046588327
30
0
41
1
10
116.274068363786
20
-1.87890523194386
30
0
41
1
10
115.905939608806
20
-1.69236869263887
30
0
41
1
10
115.168607215752
20
-1.3157370900791
30
0
41
1
10
114.800389711372
20
-1.12614606373953
30
0
41
1
10
113.696782194957
20
-0.555041880519411
30
0
41
1
10
112.962383783209
20
-0.170897748804634
30
0
41
1
10
111.859492310842
20
0.404067362113722
30
0
41
1
10
111.491641910728
20
0.595505415593067
30
0
41
1
10
110.939201624353
20
0.881691518475861
30
0
41
1
10
110.754915496775
20
0.976938435965138
30
0
41
1
10
110.386173326646
20
1.16692205229452
30
0
41
1
10
110.20193945248
20
1.26154421568643
30
0
41
1
10
109.649553748015
20
1.5441256780324
30
0
41
1
10
109.281710017555
20
1.7307855811589
30
0
41
1
10
108.546439173893
20
2.09990024492393
30
0
41
1
10
108.179010183994
20
2.2823499154207
30
0
41
1
10
107.076445941691
20
2.82173717453981
30
0
41
1
10
106.34103344401
20
3.17072035751127
30
0
41
1
10
105.603450839405
20
3.50582994451546
30
0
0
SPLINE
5
F6
100
AcDbEntity
8
1
62
256
6
ByLayer
370
18
48
1
60
0
100
AcDbSpline
70
4
71
3
72
16
73
12
40
0
40
0
40
0
40
0
40
0.249999999999984
40
0.249999999999984
40
0.374999999999984
40
0.374999999999984
40
0.499999999999984
40
0.499999999999984
40
0.749999999999992
40
0.749999999999992
40
1
40
1
40
1
40
1
41
1
10
105.603450839405
20
3.50582994451548
30
0
41
1
10
105.595317279526
20
3.50952530538064
30
0
41
1
10
105.587942597801
20
3.51409435268374
30
0
41
1
10
105.577988815255
20
3.52221905631151
30
0
41
1
10
105.574845688807
20
3.52516089274579
30
0
41
1
10
105.569123028392
20
3.53130908610794
30
0
41
1
10
105.566519715496
20
3.53453110605528
30
0
41
1
10
105.559474680547
20
3.54463449597051
30
0
41
1
10
105.555783756337
20
3.55203904832359
30
0
41
1
10
105.550906226558
20
3.56718568005547
30
0
41
1
10
105.549639761433
20
3.57508576152188
30
0
41
1
10
105.549639761433
20
3.5830463559281
30
0
0
SPLINE
5
F7
100
AcDbEntity
8
1
62
256
6
ByLayer
370
18
48
1
60
0
100
AcDbSpline
70
4
71
3
72
140
73
136
40
0
40
0
40
0
40
0
40
0.0096268078753773
40
0.0096268078753773
40
0.0212815478286994
40
0.0212815478286994
40
0.0329362877820214
40
0.0329362877820214
40
0.056245767688664
40
0.056245767688664
40
0.0679005076419854
40
0.0679005076419854
40
0.0795552475953067
40
0.0795552475953067
40
0.102864727501951
40
0.102864727501951
40
0.126174207408595
40
0.126174207408595
40
0.137828947361917
40
0.137828947361917
40
0.149483687315239
40
0.161138427268561
40
0.161138427268561
40
0.172793167221883
40
0.172793167221883
40
0.196102647128527
40
0.196102647128527
40
0.219412127035171
40
0.219412127035171
40
0.231066866988492
40
0.231066866988492
40
0.242721606941814
40
0.242721606941814
40
0.266031086848456
40
0.266031086848456
40
0.289340566755099
40
0.289340566755099
40
0.312650046661742
40
0.312650046661742
40
0.324304786615064
40
0.324304786615064
40
0.335959526568386
40
0.335959526568386
40
0.359269006475028
40
0.359269006475028
40
0.382578486381671
40
0.382578486381671
40
0.405887966288314
40
0.405887966288314
40
0.417542706241635
40
0.417542706241635
40
0.429197446194956
40
0.429197446194956
40
0.440852186148278
40
0.440852186148278
40
0.452506926101599
40
0.452506926101599
40
0.47581640600824
40
0.47581640600824
40
0.487471145961562
40
0.487471145961562
40
0.499125885914883
40
0.510780625868204
40
0.510780625868204
40
0.516607995844864
40
0.516607995844864
40
0.522435365821524
40
0.522435365821524
40
0.534090105774844
40
0.534090105774844
40
0.545744845728164
40
0.545744845728164
40
0.569054325634806
40
0.569054325634806
40
0.580709065588127
40
0.580709065588127
40
0.592363805541448
40
0.60401854549477
40
0.60401854549477
40
0.615673285448091
40
0.615673285448091
40
0.638982765354735
40
0.638982765354735
40
0.650637505308057
40
0.650637505308057
40
0.662292245261379
40
0.673946985214701
40
0.673946985214701
40
0.685601725168023
40
0.697256465121345
40
0.697256465121345
40
0.703083835098006
40
0.703083835098006
40
0.708911205074667
40
0.708911205074667
40
0.72056594502799
40
0.72056594502799
40
0.732220684981314
40
0.743875424934637
40
0.743875424934637
40
0.755530164887961
40
0.755530164887961
40
0.767184904841284
40
0.767184904841284
40
0.778839644794607
40
0.778839644794607
40
0.790494384747931
40
0.790494384747931
40
0.802149124701254
40
0.802149124701254
40
0.813803864654577
40
0.813803864654577
40
0.825458604607901
40
0.825458604607901
40
0.837113344561224
40
0.837113344561224
40
0.848768084514547
40
0.848768084514547
40
0.872077564421196
40
0.872077564421196
40
0.895387044327844
40
0.895387044327844
40
0.907041784281168
40
0.907041784281168
40
0.918696524234493
40
0.918696524234493
40
0.942006004141142
40
0.942006004141142
40
0.96531548404779
40
0.96531548404779
40
0.976970224001115
40
0.976970224001115
40
0.988624963954439
40
0.988624963954439
40
1
40
1
40
1
40
1
41
1
10
106.343922686709
20
6.95993966400141
30
0
41
1
10
106.495884630422
20
6.98129618942775
30
0
41
1
10
106.647877105603
20
7.00136477919963
30
0
41
1
10
106.983958200254
20
7.04289760401201
30
0
41
1
10
107.168063895339
20
7.06376328119634
30
0
41
1
10
107.536405603193
20
7.10173869740103
30
0
41
1
10
107.720685567913
20
7.11885186158202
30
0
41
1
10
108.273467836804
20
7.16452083700503
30
0
41
1
10
108.641535797514
20
7.18738726917465
30
0
41
1
10
109.193095284929
20
7.21032986157047
30
0
41
1
10
109.376855614425
20
7.21608404080104
30
0
41
1
10
109.744171714463
20
7.22378976629167
30
0
41
1
10
109.927738753924
20
7.22573645931743
30
0
41
1
10
110.478616731872
20
7.22584655184517
30
0
41
1
10
110.846071065612
20
7.21830299432366
30
0
41
1
10
111.581425824922
20
7.1880357512394
30
0
41
1
10
111.949333180248
20
7.16530099971197
30
0
41
1
10
112.501930149924
20
7.11981247209005
30
0
41
1
10
112.68611579917
20
7.10276274078822
30
0
41
1
10
113.054131155956
20
7.06493295801863
30
0
41
1
10
113.421897927275
20
7.02336411786672
30
0
41
1
10
113.789219764073
20
6.97433088384852
30
0
41
1
10
114.15635897278
20
6.92157151151557
30
0
41
1
10
114.339846447001
20
6.89333045367201
30
0
41
1
10
114.890523928934
20
6.80330422486108
30
0
41
1
10
115.257870065657
20
6.73620157471498
30
0
41
1
10
115.993095191488
20
6.58799309155762
30
0
41
1
10
116.360973850687
20
6.50688246486396
30
0
41
1
10
116.913393370732
20
6.37481182112919
30
0
41
1
10
117.097668149004
20
6.32904455516285
30
0
41
1
10
117.465751827803
20
6.23420403382926
30
0
41
1
10
117.649642143496
20
6.18511190948882
30
0
41
1
10
118.200880523765
20
6.0328265340186
30
0
41
1
10
118.567799475064
20
5.92460611867904
30
0
41
1
10
119.301947236173
20
5.69638212310309
30
0
41
1
10
119.669163841849
20
5.57639291080952
30
0
41
1
10
120.403931112425
20
5.32477882597067
30
0
41
1
10
120.77148706401
20
5.19315137862816
30
0
41
1
10
121.323463013832
20
4.98744242115399
30
0
41
1
10
121.507647476259
20
4.91746161993825
30
0
41
1
10
121.875753750929
20
4.77495582403233
30
0
41
1
10
122.059667688475
20
4.70243538558148
30
0
41
1
10
122.611034707616
20
4.48113383067292
30
0
41
1
10
122.978124196484
20
4.32861963641247
30
0
41
1
10
123.712412737676
20
4.01533017114912
30
0
41
1
10
124.079590379433
20
3.85453751320716
30
0
41
1
10
124.813937375066
20
3.52452821424924
30
0
41
1
10
125.181128558088
20
3.35533215347354
30
0
41
1
10
125.732717687471
20
3.09654306244923
30
0
41
1
10
125.916730648138
20
3.00943276981221
30
0
41
1
10
126.284900167756
20
2.83351862839851
30
0
41
1
10
126.468841595749
20
2.74481729828577
30
0
41
1
10
126.836424202936
20
2.56590127451963
30
0
41
1
10
127.020070688451
20
2.47569528245944
30
0
41
1
10
127.387320676901
20
2.29423573103207
30
0
41
1
10
127.570919664023
20
2.2029747211686
30
0
41
1
10
128.121655904457
20
1.92763654035844
30
0
41
1
10
128.488725148195
20
1.7419932904694
30
0
41
1
10
129.039190427413
20
1.46037716362261
30
0
41
1
10
129.222662229666
20
1.36599063703483
30
0
41
1
10
129.5898332362
20
1.17667933107091
30
0
41
1
10
129.957221825057
20
0.986812984845756
30
0
41
1
10
130.325000437882
20
0.795752394458788
30
0
41
1
10
130.60097973443
20
0.652003928853787
30
0
41
1
10
130.693010873369
20
0.604005111286028
30
0
41
1
10
130.876957308125
20
0.507943699530642
30
0
41
1
10
130.968890643069
20
0.459871676463678
30
0
41
1
10
131.244573238007
20
0.315536069467669
30
0
41
1
10
131.428209244416
20
0.219161189966599
30
0
41
1
10
131.795458825841
20
0.0266520608446399
30
0
41
1
10
131.9790673811
20
-0.0694921592124729
30
0
41
1
10
132.529770861993
20
-0.35773725093938
30
0
41
1
10
132.896742618276
20
-0.549652711252861
30
0
41
1
10
133.447037820312
20
-0.836990553922647
30
0
41
1
10
133.63044654143
20
-0.93267251734909
30
0
41
1
10
133.997471636778
20
-1.12335860713588
30
0
41
1
10
134.36469802534
20
-1.31337949746756
30
0
41
1
10
134.732254011024
20
-1.50220902341638
30
0
41
1
10
135.099977400695
20
-1.69043645321295
30
0
41
1
10
135.283990500175
20
-1.78428145970665
30
0
41
1
10
135.835462794308
20
-2.0641505799575
30
0
41
1
10
136.20265234161
20
-2.24854455613829
30
0
41
1
10
136.753265858789
20
-2.52094357307934
30
0
41
1
10
136.936763153986
20
-2.6110674014387
30
0
41
1
10
137.303641355266
20
-2.79002592581264
30
0
41
1
10
137.670406041284
20
-2.96768864571592
30
0
41
1
10
138.037188706678
20
-3.14232069657092
30
0
41
1
10
138.404111389557
20
-3.31521092562968
30
0
41
1
10
138.77117186027
20
-3.48636436461845
30
0
41
1
10
139.138536429863
20
-3.65399554786904
30
0
41
1
10
139.414155071591
20
-3.77842407012108
30
0
41
1
10
139.506044142266
20
-3.81968373966572
30
0
41
1
10
139.689873462394
20
-3.90173769724336
30
0
41
1
10
139.781833504475
20
-3.94254064037315
30
0
41
1
10
140.057590934982
20
-4.06410685770734
30
0
41
1
10
140.241308544718
20
-4.14404613240717
30
0
41
1
10
140.608625230146
20
-4.30153371048243
30
0
41
1
10
140.975820128766
20
-4.45663776793941
30
0
41
1
10
141.342740766825
20
-4.60704110034558
30
0
41
1
10
141.709533446435
20
-4.75507688146979
30
0
41
1
10
141.892867362489
20
-4.82790769246
30
0
41
1
10
142.259553724374
20
-4.97098588021899
30
0
41
1
10
142.442905655593
20
-5.0412343825505
30
0
41
1
10
142.809723213111
20
-5.17901968723064
30
0
41
1
10
142.993187241286
20
-5.24655954970098
30
0
41
1
10
143.360217871035
20
-5.3789414769779
30
0
41
1
10
143.543785026897
20
-5.44378248486635
30
0
41
1
10
143.911054915393
20
-5.57071050063405
30
0
41
1
10
144.09475965603
20
-5.63279398864231
30
0
41
1
10
144.462455421038
20
-5.75400766500448
30
0
41
1
10
144.646246721108
20
-5.81307413278898
30
0
41
1
10
145.013607034758
20
-5.92800438580491
30
0
41
1
10
145.197203196906
20
-5.98388051126199
30
0
41
1
10
145.564221282051
20
-6.09247037611254
30
0
41
1
10
145.747644157233
20
-6.14518253397534
30
0
41
1
10
146.114361155908
20
-6.24739294807731
30
0
41
1
10
146.297658121311
20
-6.29688710406464
30
0
41
1
10
146.847598932889
20
-6.44031152316845
30
0
41
1
10
147.214316968565
20
-6.52917437818746
30
0
41
1
10
147.947994688035
20
-6.69332394632565
30
0
41
1
10
148.314944655127
20
-6.76859921628662
30
0
41
1
10
148.866236016292
20
-6.87073372572823
30
0
41
1
10
149.050141775703
20
-6.90298648557049
30
0
41
1
10
149.417550034537
20
-6.9637893099536
30
0
41
1
10
149.601138703537
20
-6.99235593240042
30
0
41
1
10
150.151584576583
20
-7.07254176053507
30
0
41
1
10
150.518139220463
20
-7.11862588490868
30
0
41
1
10
151.251299363299
20
-7.19569773267799
30
0
41
1
10
151.617886433053
20
-7.22670742549286
30
0
41
1
10
152.16797251858
20
-7.2618668756885
30
0
41
1
10
152.351367068171
20
-7.27169402491367
30
0
41
1
10
152.718216893432
20
-7.28754168494527
30
0
41
1
10
152.901683152018
20
-7.29355721605816
30
0
41
1
10
153.264552061137
20
-7.30163817517058
30
0
41
1
10
153.444016263864
20
-7.30379868471746
30
0
41
1
10
153.623351958008
20
-7.30412865909724
30
0
0
SPLINE
5
F8
100
AcDbEntity
8
1
62
256
6
ByLayer
370
18
48
1
60
0
100
AcDbSpline
70
4
71
3
72
163
73
159
40
0
40
0
40
0
40
0
40
0.0111249117604961
40
0.0111249117604961
40
0.0230615045069889
40
0.0230615045069889
40
0.0349980972534818
40
0.0349980972534818
40
0.0588712827464669
40
0.0588712827464669
40
0.0708078754929597
40
0.0708078754929597
40
0.0827444682394525
40
0.0827444682394525
40
0.0946810609859453
40
0.0946810609859453
40
0.106617653732438
40
0.106617653732438
40
0.130490839225424
40
0.130490839225424
40
0.142427431971917
40
0.142427431971917
40
0.154364024718409
40
0.154364024718409
40
0.160332321091656
40
0.160332321091656
40
0.166300617464903
40
0.166300617464903
40
0.178237210211396
40
0.178237210211396
40
0.202110395704383
40
0.202110395704383
40
0.20807869207763
40
0.20807869207763
40
0.214046988450877
40
0.22598358119737
40
0.22598358119737
40
0.249856766690356
40
0.249856766690356
40
0.26179335943685
40
0.26179335943685
40
0.273729952183343
40
0.273729952183343
40
0.285666544929837
40
0.285666544929837
40
0.29760313767633
40
0.29760313767633
40
0.321476323169317
40
0.321476323169317
40
0.333412915915811
40
0.333412915915811
40
0.345349508662304
40
0.345349508662304
40
0.351317805035551
40
0.351317805035551
40
0.357286101408798
40
0.369222694155292
40
0.369222694155292
40
0.381159286901786
40
0.381159286901786
40
0.39309587964828
40
0.39309587964828
40
0.405032472394774
40
0.405032472394774
40
0.416969065141268
40
0.416969065141268
40
0.440842250634257
40
0.440842250634257
40
0.452778843380751
40
0.452778843380751
40
0.458747139753998
40
0.464715436127245
40
0.464715436127245
40
0.47665202887374
40
0.47665202887374
40
0.488588621620235
40
0.488588621620235
40
0.512461807113225
40
0.512461807113225
40
0.524398399859721
40
0.524398399859721
40
0.536334992606216
40
0.536334992606216
40
0.542303288979463
40
0.542303288979463
40
0.548271585352711
40
0.548271585352711
40
0.560208178099205
40
0.560208178099205
40
0.5721447708457
40
0.5721447708457
40
0.584081363592194
40
0.584081363592194
40
0.596017956338689
40
0.596017956338689
40
0.607954549085184
40
0.607954549085184
40
0.631827734578173
40
0.631827734578173
40
0.643764327324667
40
0.643764327324667
40
0.655700920071162
40
0.655700920071162
40
0.679574105564151
40
0.679574105564151
40
0.691510698310644
40
0.691510698310644
40
0.703447291057139
40
0.703447291057139
40
0.709415587430385
40
0.709415587430385
40
0.715383883803632
40
0.715383883803632
40
0.727320476550125
40
0.727320476550125
40
0.733288772923372
40
0.733288772923372
40
0.739257069296618
40
0.739257069296618
40
0.75119366204311
40
0.75119366204311
40
0.763130254789603
40
0.763130254789603
40
0.775066847536095
40
0.775066847536095
40
0.787003440282587
40
0.787003440282587
40
0.798940033029079
40
0.798940033029079
40
0.822813218522063
40
0.822813218522063
40
0.834749811268555
40
0.834749811268555
40
0.846686404015047
40
0.846686404015047
40
0.870559589508031
40
0.870559589508031
40
0.882496182254523
40
0.882496182254523
40
0.894432775001016
40
0.894432775001016
40
0.906369367747508
40
0.906369367747508
40
0.918305960494
40
0.918305960494
40
0.924274256867247
40
0.924274256867247
40
0.930242553240492
40
0.930242553240492
40
0.942179145986985
40
0.942179145986985
40
0.954115738733478
40
0.954115738733478
40
0.966052331479971
40
0.966052331479971
40
0.989925516972958
40
0.989925516972958
40
1
40
1
40
1
40
1
41
1
10
25.3044277122922
20
7.0731539326429
30
0
41
1
10
25.5033990836488
20
7.07350783959728
30
0
41
1
10
25.7021414062099
20
7.07166127304959
30
0
41
1
10
26.1137375012401
20
7.06328697548233
30
0
41
1
10
26.3265573005395
20
7.05642363171813
30
0
41
1
10
26.7521229653151
20
7.03773551123274
30
0
41
1
10
26.9648337761321
20
7.02591137035608
30
0
41
1
10
27.6026120736343
20
6.98301512974339
30
0
41
1
10
28.0273142591503
20
6.9445062431918
30
0
41
1
10
28.6641350560048
20
6.87201391791786
30
0
41
1
10
28.8763707092514
20
6.84539497847157
30
0
41
1
10
29.3008605957084
20
6.7872763634256
30
0
41
1
10
29.5131119472899
20
6.7557725449231
30
0
41
1
10
29.9378935661711
20
6.68802998657233
30
0
41
1
10
30.1504794742963
20
6.6518325555345
30
0
41
1
10
30.5759021847389
20
6.57470487395682
30
0
41
1
10
30.7887397505477
20
6.53377256228106
30
0
41
1
10
31.4276854919419
20
6.40386497067655
30
0
41
1
10
31.8542500803246
20
6.30779496890176
30
0
41
1
10
32.4955417993028
20
6.14969875217076
30
0
41
1
10
32.7095439918168
20
6.09466378164598
30
0
41
1
10
33.1382243228891
20
5.98008396152772
30
0
41
1
10
33.3529684854365
20
5.92061528139257
30
0
41
1
10
33.6756907993073
20
5.82813387912515
30
0
41
1
10
33.7833939899089
20
5.7967446175258
30
0
41
1
10
33.9984949546646
20
5.73299876146837
30
0
41
1
10
34.1059490737329
20
5.70062460993324
30
0
41
1
10
34.4280346035829
20
5.6020180493627
30
0
41
1
10
34.6423912530286
20
5.53430412778093
30
0
41
1
10
35.2844899410529
20
5.32542880152658
30
0
41
1
10
35.7112273437937
20
5.17848440133614
30
0
41
1
10
36.2436039225598
20
4.98610085923872
30
0
41
1
10
36.3500270722746
20
4.94718921767779
30
0
41
1
10
36.5628310617232
20
4.86858956740181
30
0
41
1
10
36.8819921553842
20
4.74955375776051
30
0
41
1
10
37.2008838798041
20
4.62693216575639
30
0
41
1
10
37.8382542706933
20
4.37684252938709
30
0
41
1
10
38.2626419498324
20
4.20368818544299
30
0
41
1
10
38.8989524533453
20
3.93511808045244
30
0
41
1
10
39.1110040480349
20
3.8441100610338
30
0
41
1
10
39.5351454892378
20
3.6593537837486
30
0
41
1
10
39.7472270629171
20
3.56558967150184
30
0
41
1
10
40.1717668699735
20
3.3759101090395
30
0
41
1
10
40.3841748910333
20
3.27991060843132
30
0
41
1
10
40.8091963112119
20
3.08546496204374
30
0
41
1
10
41.0218086048761
20
2.98701552731075
30
0
41
1
10
41.660073093275
20
2.6881825861133
30
0
41
1
10
42.0861467920189
20
2.48430224369224
30
0
41
1
10
42.7266771956563
20
2.17242623359829
30
0
41
1
10
42.9404195114258
20
2.06744772054066
30
0
41
1
10
43.3686724978046
20
1.8560375645379
30
0
41
1
10
43.5832105051481
20
1.74966511818798
30
0
41
1
10
43.9055377420916
20
1.5888969892581
30
0
41
1
10
44.0131117011433
20
1.53508933417962
30
0
41
1
10
44.2282456711183
20
1.42717217547965
30
0
41
1
10
44.5506457990014
20
1.26499394203668
30
0
41
1
10
44.872192760141
20
1.10200721349912
30
0
41
1
10
45.30025317016
20
0.884152803611073
30
0
41
1
10
45.5139500808625
20
0.774958563085903
30
0
41
1
10
45.9407655622963
20
0.556213279131299
30
0
41
1
10
46.153883897191
20
0.446662080061372
30
0
41
1
10
46.57975923373
20
0.227640181427944
30
0
41
1
10
46.7925875582444
20
0.118313471532048
30
0
41
1
10
47.2179505591074
20
-0.100132494208452
30
0
41
1
10
47.430475450108
20
-0.209271227957686
30
0
41
1
10
48.0676010655108
20
-0.536395941532618
30
0
41
1
10
48.4917839837184
20
-0.754027211286314
30
0
41
1
10
49.1277302814703
20
-1.07875275124164
30
0
41
1
10
49.3396507970325
20
-1.18672108132029
30
0
41
1
10
49.657577105853
20
-1.34799159007167
30
0
41
1
10
49.8695375598286
20
-1.45528874775218
30
0
41
1
10
50.0816510845637
20
-1.56189291580563
30
0
41
1
10
50.3998900332268
20
-1.72137011855312
30
0
41
1
10
50.6121455376941
20
-1.82710722216262
30
0
41
1
10
51.0368212906031
20
-2.0374707185058
30
0
41
1
10
51.2492497912302
20
-2.14208093544201
30
0
41
1
10
51.886935147396
20
-2.45394324573113
30
0
41
1
10
52.312568062149
20
-2.65927168074003
30
0
41
1
10
52.9524472506159
20
-2.96208869338855
30
0
41
1
10
53.1659867121347
20
-3.06214942840904
30
0
41
1
10
53.5938835998218
20
-3.25990270438498
30
0
41
1
10
53.8081844712225
20
-3.35770182754248
30
0
41
1
10
54.1301286613399
20
-3.50284588141386
30
0
41
1
10
54.237525688003
20
-3.55096775734705
30
0
41
1
10
54.4524957848498
20
-3.64667003404386
30
0
41
1
10
54.5600285828645
20
-3.69423198175914
30
0
41
1
10
54.8821585905015
20
-3.83574577804944
30
0
41
1
10
55.0965216973198
20
-3.92863173319103
30
0
41
1
10
55.5245612982313
20
-4.11135292160785
30
0
41
1
10
55.7382333023525
20
-4.20119551280442
30
0
41
1
10
56.1650013467669
20
-4.3776658557054
30
0
41
1
10
56.3780853605836
20
-4.46431042333126
30
0
41
1
10
56.8040016560001
20
-4.63390343677276
30
0
41
1
10
57.0168229824096
20
-4.7168746132601
30
0
41
1
10
57.4420919178819
20
-4.87935605479376
30
0
41
1
10
57.6545397467781
20
-4.9588638803119
30
0
41
1
10
58.2914235269378
20
-5.19205430025337
30
0
41
1
10
58.7154075930258
20
-5.34039155987722
30
0
41
1
10
59.3510060018763
20
-5.5514819685676
30
0
41
1
10
59.5628087201983
20
-5.61994180721811
30
0
41
1
10
59.9865168273093
20
-5.75277372912905
30
0
41
1
10
60.1984887756728
20
-5.81707008582632
30
0
41
1
10
60.834606399633
20
-6.00380654866891
30
0
41
1
10
61.2588963059421
20
-6.12015408746566
30
0
41
1
10
61.8960446225097
20
-6.28191782406239
30
0
41
1
10
62.1085532585122
20
-6.33370490077147
30
0
41
1
10
62.5339117141244
20
-6.43289351581475
30
0
41
1
10
62.7467559733367
20
-6.4802988611271
30
0
41
1
10
63.0664103668354
20
-6.54797785833333
30
0
41
1
10
63.1730254607963
20
-6.56996683388755
30
0
41
1
10
63.3864486080527
20
-6.61274987218636
30
0
41
1
10
63.4932512010648
20
-6.63354884429683
30
0
41
1
10
63.8138939510352
20
-6.69419614935046
30
0
41
1
10
64.0279733049285
20
-6.73229212323366
30
0
41
1
10
64.3495603203854
20
-6.78590859991493
30
0
41
1
10
64.4568362239237
20
-6.80319099607976
30
0
41
1
10
64.6715600298302
20
-6.83656193173255
30
0
41
1
10
64.779065651366
20
-6.85265836668054
30
0
41
1
10
65.1011832862703
20
-6.89904078899264
30
0
41
1
10
65.315529536487
20
-6.92744317545163
30
0
41
1
10
65.7435187564231
20
-6.97919559939987
30
0
41
1
10
65.9571529616547
20
-7.00254862690434
30
0
41
1
10
66.3838661190616
20
-7.04417067863267
30
0
41
1
10
66.5969540818932
20
-7.06243454402497
30
0
41
1
10
67.0228721707398
20
-7.09384325742235
30
0
41
1
10
67.2356455981858
20
-7.10700898886194
30
0
41
1
10
67.6607839811708
20
-7.1283056400458
30
0
41
1
10
67.8731520095972
20
-7.13643402779516
30
0
41
1
10
68.5097808988933
20
-7.15325492965232
30
0
41
1
10
68.9335518829609
20
-7.15438165047468
30
0
41
1
10
69.5688295512932
20
-7.14092586735117
30
0
41
1
10
69.7805189504399
20
-7.1339124009875
30
0
41
1
10
70.2041092508111
20
-7.11489734160688
30
0
41
1
10
70.4159857207216
20
-7.10289796071731
30
0
41
1
10
71.051727728681
20
-7.05941207105454
30
0
41
1
10
71.4756933322168
20
-7.02042537696801
30
0
41
1
10
72.1123425119264
20
-6.94696479845143
30
0
41
1
10
72.3246774122885
20
-6.91998151413483
30
0
41
1
10
72.7496771278285
20
-6.8610278874776
30
0
41
1
10
72.9623403615403
20
-6.82905428934254
30
0
41
1
10
73.3882361042548
20
-6.76022954936641
30
0
41
1
10
73.6015273782361
20
-6.72342183719147
30
0
41
1
10
74.0286890872302
20
-6.64493211519351
30
0
41
1
10
74.2425576916571
20
-6.60324645780645
30
0
41
1
10
74.5638217188524
20
-6.53703780450633
30
0
41
1
10
74.6709883016131
20
-6.51435611347446
30
0
41
1
10
74.8854899741506
20
-6.46776974576821
30
0
41
1
10
74.9928742368833
20
-6.44385366200811
30
0
41
1
10
75.3149496344678
20
-6.37035298502155
30
0
41
1
10
75.5292614611607
20
-6.31908850976055
30
0
41
1
10
75.9571658144172
20
-6.21214528042665
30
0
41
1
10
76.1707552984785
20
-6.15646233081927
30
0
41
1
10
76.5973994419098
20
-6.04090000591663
30
0
41
1
10
76.8105145132195
20
-5.98108746355106
30
0
41
1
10
77.4492867945884
20
-5.79568214195584
30
0
41
1
10
77.8742200052074
20
-5.66395222660813
30
0
41
1
10
78.4774854544833
20
-5.46552127955317
30
0
41
1
10
78.6563906819506
20
-5.40524188606219
30
0
41
1
10
78.8352077045867
20
-5.34361678211528
30
0
0
SPLINE
5
F9
100
AcDbEntity
8
1
62
256
6
ByLayer
370
18
48
1
60
0
100
AcDbSpline
70
4
71
3
72
143
73
139
40
0
40
0
40
0
40
0
40
0.0098419594635719
40
0.0098419594635719
40
0.0216712393675659
40
0.0216712393675659
40
0.0335005192715603
40
0.0335005192715603
40
0.0571590790795488
40
0.0571590790795488
40
0.0689883589835425
40
0.0689883589835425
40
0.0749029989355384
40
0.0749029989355384
40
0.0808176388875345
40
0.0808176388875345
40
0.10447619869552
40
0.10447619869552
40
0.128134758503504
40
0.128134758503504
40
0.15179331831149
40
0.15179331831149
40
0.163622598215483
40
0.163622598215483
40
0.175451878119476
40
0.175451878119476
40
0.199110437927461
40
0.199110437927461
40
0.210939717831453
40
0.210939717831453
40
0.222768997735446
40
0.222768997735446
40
0.246427557543431
40
0.246427557543431
40
0.258256837447423
40
0.258256837447423
40
0.264171477399418
40
0.264171477399418
40
0.270086117351414
40
0.270086117351414
40
0.281915397255407
40
0.281915397255407
40
0.2937446771594
40
0.2937446771594
40
0.317403236967386
40
0.317403236967386
40
0.32923251687138
40
0.32923251687138
40
0.341061796775373
40
0.341061796775373
40
0.364720356583358
40
0.364720356583358
40
0.388378916391343
40
0.388378916391343
40
0.400208196295335
40
0.400208196295335
40
0.412037476199328
40
0.412037476199328
40
0.435696036007314
40
0.435696036007314
40
0.447525315911306
40
0.447525315911306
40
0.453439955863303
40
0.453439955863303
40
0.4593545958153
40
0.4593545958153
40
0.471183875719295
40
0.471183875719295
40
0.48301315562329
40
0.506671715431279
40
0.506671715431279
40
0.518500995335274
40
0.518500995335274
40
0.530330275239269
40
0.530330275239269
40
0.553988835047258
40
0.553988835047258
40
0.577647394855248
40
0.577647394855248
40
0.589476674759244
40
0.589476674759244
40
0.601305954663239
40
0.601305954663239
40
0.624964514471229
40
0.624964514471229
40
0.636793794375223
40
0.636793794375223
40
0.642708434327221
40
0.642708434327221
40
0.648623074279219
40
0.648623074279219
40
0.660452354183214
40
0.660452354183214
40
0.67228163408721
40
0.67228163408721
40
0.695940193895202
40
0.695940193895202
40
0.707769473799198
40
0.707769473799198
40
0.719598753703194
40
0.719598753703194
40
0.743257313511188
40
0.743257313511188
40
0.755086593415184
40
0.755086593415184
40
0.766915873319181
40
0.766915873319181
40
0.778745153223177
40
0.778745153223177
40
0.790574433127174
40
0.790574433127174
40
0.814232992935167
40
0.814232992935167
40
0.820147632887166
40
0.820147632887166
40
0.826062272839164
40
0.826062272839164
40
0.837891552743163
40
0.837891552743163
40
0.86155011255116
40
0.86155011255116
40
0.885208672359157
40
0.885208672359157
40
0.897037952263155
40
0.897037952263155
40
0.908867232167154
40
0.908867232167154
40
0.93252579197515
40
0.93252579197515
40
0.944355071879149
40
0.944355071879149
40
0.956184351783148
40
0.956184351783148
40
0.968013631687146
40
0.968013631687146
40
0.979842911591145
40
0.979842911591145
40
1
40
1
40
1
40
1
41
1
10
112.183864313968
20
7.22953752841707
30
0
41
1
10
112.359834161778
20
7.22986011448333
30
0
41
1
10
112.535851532704
20
7.22842467740992
30
0
41
1
10
112.923591088846
20
7.22137513507508
30
0
41
1
10
113.135343129887
20
7.21497299783289
30
0
41
1
10
113.559317286377
20
7.19707575169869
30
0
41
1
10
113.771580759028
20
7.18559328564356
30
0
41
1
10
114.409043263586
20
7.14350275039516
30
0
41
1
10
114.83489282103
20
7.10523781733383
30
0
41
1
10
115.475451414026
20
7.03238352471831
30
0
41
1
10
115.689273308782
20
7.00552388546987
30
0
41
1
10
116.0105296668
20
6.96135463067998
30
0
41
1
10
116.11768483983
20
6.94598610643757
30
0
41
1
10
116.331681510083
20
6.91404128471589
30
0
41
1
10
116.43858558758
20
6.8974561185068
30
0
41
1
10
116.972699576428
20
6.81152114648498
30
0
41
1
10
117.398945000107
20
6.73333269914176
30
0
41
1
10
118.249209563622
20
6.55834601391223
30
0
41
1
10
118.673281487577
20
6.4615669835315
30
0
41
1
10
119.520014930513
20
6.25015276361057
30
0
41
1
10
119.942605795363
20
6.13542537787345
30
0
41
1
10
120.576646348557
20
5.95126137980671
30
0
41
1
10
120.787972435024
20
5.88781805733151
30
0
41
1
10
121.210560197516
20
5.75679998231675
30
0
41
1
10
121.421827384362
20
5.68923035058964
30
0
41
1
10
122.055676719477
20
5.48047579548705
30
0
41
1
10
122.478290122535
20
5.33322240709327
30
0
41
1
10
123.112892046783
20
5.10089013430979
30
0
41
1
10
123.32453611008
20
5.02152998320656
30
0
41
1
10
123.748378631971
20
4.85944794244253
30
0
41
1
10
123.960541339775
20
4.77667889076923
30
0
41
1
10
124.597673488884
20
4.52304629456509
30
0
41
1
10
125.023275315845
20
4.34683351857419
30
0
41
1
10
125.663483587818
20
4.07242218358971
30
0
41
1
10
125.877187281182
20
3.97926929447124
30
0
41
1
10
126.198272784773
20
3.83710920400003
30
0
41
1
10
126.305363605511
20
3.78933239436378
30
0
41
1
10
126.519239094004
20
3.69324062241137
30
0
41
1
10
126.626082148813
20
3.64489230021459
30
0
41
1
10
126.946409417456
20
3.49908890025907
30
0
41
1
10
127.159709593562
20
3.40090814055941
30
0
41
1
10
127.585715416446
20
3.20243903488429
30
0
41
1
10
127.798421712975
20
3.10215137550949
30
0
41
1
10
128.435732502551
20
2.7982862307818
30
0
41
1
10
128.859546209216
20
2.59173774224897
30
0
41
1
10
129.494210174332
20
2.27695622726745
30
0
41
1
10
129.705587300562
20
2.17119964416483
30
0
41
1
10
130.128170530888
20
1.95837382448218
30
0
41
1
10
130.339437553714
20
1.85141933836661
30
0
41
1
10
130.973177214081
20
1.52896603265546
30
0
41
1
10
131.395469686153
20
1.31165305361094
30
0
41
1
10
132.240124871383
20
0.873228061287762
30
0
41
1
10
132.662490522381
20
0.652119191303882
30
0
41
1
10
133.296783998817
20
0.318920151805884
30
0
41
1
10
133.508364654122
20
0.207647395886482
30
0
41
1
10
133.932058339052
20
-0.0148504371574063
30
0
41
1
10
134.144123285591
20
-0.126169943177501
30
0
41
1
10
134.780942104749
20
-0.460408570457673
30
0
41
1
10
135.206334987514
20
-0.683578936061878
30
0
41
1
10
135.846245808716
20
-1.0178051911841
30
0
41
1
10
136.059848241176
20
-1.12913558564091
30
0
41
1
10
136.380801058848
20
-1.2958173085236
30
0
41
1
10
136.487812027938
20
-1.35128829507499
30
0
41
1
10
136.701551959789
20
-1.46181947235823
30
0
41
1
10
136.808339059089
20
-1.51689616196276
30
0
41
1
10
137.128517280701
20
-1.68143685373704
30
0
41
1
10
137.341687031197
20
-1.79028969714483
30
0
41
1
10
137.767418058415
20
-2.00643069694468
30
0
41
1
10
138.405097753713
20
-2.32830017949985
30
0
41
1
10
139.040394986767
20
-2.6425004529346
30
0
41
1
10
139.674656371048
20
-2.95061022595215
30
0
41
1
10
139.885900962082
20
-3.05230300332366
30
0
41
1
10
140.308292586889
20
-3.25322687577702
30
0
41
1
10
140.519481551922
20
-3.35238697409451
30
0
41
1
10
141.152888256207
20
-3.64623022095259
30
0
41
1
10
141.574922316795
20
-3.83731279141361
30
0
41
1
10
142.419109221089
20
-4.20882487976507
30
0
41
1
10
142.841238404447
20
-4.38928621457532
30
0
41
1
10
143.475256034958
20
-4.65075253026615
30
0
41
1
10
143.686798204707
20
-4.73627155158613
30
0
41
1
10
144.110336154948
20
-4.90396743316947
30
0
41
1
10
144.322308641824
20
-4.98617913104908
30
0
41
1
10
144.958846743277
20
-5.22786448028037
30
0
41
1
10
145.384062286501
20
-5.38234415951933
30
0
41
1
10
146.023725984657
20
-5.60315529900782
30
0
41
1
10
146.237247299261
20
-5.67494910337902
30
0
41
1
10
146.55810201521
20
-5.77973880272248
30
0
41
1
10
146.665002343143
20
-5.81414091624933
30
0
41
1
10
146.878604716711
20
-5.88179010171345
30
0
41
1
10
146.985338079354
20
-5.91503533830553
30
0
41
1
10
147.305317812458
20
-6.01307018668749
30
0
41
1
10
147.518335437971
20
-6.07616978852047
30
0
41
1
10
147.943751883242
20
-6.19792008967869
30
0
41
1
10
148.156154761963
20
-6.25656474666388
30
0
41
1
10
148.792579958123
20
-6.4257091538546
30
0
41
1
10
149.215804833256
20
-6.52943085024097
30
0
41
1
10
149.849657763867
20
-6.67099008221396
30
0
41
1
10
150.060772387123
20
-6.71584103672586
30
0
41
1
10
150.482990341829
20
-6.80065007316909
30
0
41
1
10
150.694066144147
20
-6.84063371951811
30
0
41
1
10
151.327115057571
20
-6.95340971600436
30
0
41
1
10
151.748896267049
20
-7.01902910856319
30
0
41
1
10
152.381693791811
20
-7.10276336232491
30
0
41
1
10
152.592648243496
20
-7.12822478930158
30
0
41
1
10
153.01469301176
20
-7.17418416746415
30
0
41
1
10
153.225781421546
20
-7.19468093647376
30
0
41
1
10
153.648316919544
20
-7.23061459228708
30
0
41
1
10
153.859816353779
20
-7.2460397839468
30
0
41
1
10
154.283202957265
20
-7.27182746492235
30
0
41
1
10
154.495087661265
20
-7.28218882903167
30
0
41
1
10
155.131380043427
20
-7.30560854848179
30
0
41
1
10
155.556447068154
20
-7.31099768599509
30
0
41
1
10
156.08933580314
20
-7.30466025569106
30
0
41
1
10
156.195990476918
20
-7.30273887857595
30
0
41
1
10
156.40947597269
20
-7.29758203078242
30
0
41
1
10
156.516341427636
20
-7.2943453012156
30
0
41
1
10
156.837008694525
20
-7.28266570786627
30
0
41
1
10
157.050457962021
20
-7.27228039304248
30
0
41
1
10
157.689940349738
20
-7.23346821620154
30
0
41
1
10
158.11495844188
20
-7.1973556626883
30
0
41
1
10
158.962868557095
20
-7.10507209492934
30
0
41
1
10
159.385769004433
20
-7.04889250878293
30
0
41
1
10
160.019205327482
20
-6.94998411481629
30
0
41
1
10
160.23021427836
20
-6.91458283491227
30
0
41
1
10
160.652222891143
20
-6.83911716101207
30
0
41
1
10
160.863175227457
20
-6.7990251782432
30
0
41
1
10
161.495844928469
20
-6.67166920452749
30
0
41
1
10
161.917382236935
20
-6.57732533089393
30
0
41
1
10
162.549846856121
20
-6.42201265844801
30
0
41
1
10
162.760691418145
20
-6.36793868615084
30
0
41
1
10
163.182541690558
20
-6.25527137406203
30
0
41
1
10
163.393536121825
20
-6.19666422435205
30
0
41
1
10
163.815976118816
20
-6.07521858797784
30
0
41
1
10
164.027412648284
20
-6.01237558280747
30
0
41
1
10
164.450656778643
20
-5.88237205533196
30
0
41
1
10
164.66246343412
20
-5.81520861917113
30
0
41
1
10
165.235787072985
20
-5.62782015464524
30
0
41
1
10
165.597729581002
20
-5.50353188691361
30
0
41
1
10
165.96055139668
20
-5.37321790163037
30
0
0
SPLINE
5
FA
100
AcDbEntity
8
1
62
256
6
ByLayer
370
18
48
1
60
0
100
AcDbSpline
70
4
71
3
72
101
73
97
40
0
40
0
40
0
40
0
40
0.0002851545569497
40
0.0002851545569497
40
0.0262086803701697
40
0.0262086803701697
40
0.0521322061833897
40
0.0521322061833897
40
0.0650939690899996
40
0.0650939690899996
40
0.071574850543304
40
0.071574850543304
40
0.0780557319966084
40
0.0780557319966084
40
0.103979257809822
40
0.103979257809822
40
0.129902783623036
40
0.129902783623036
40
0.15582630943625
40
0.15582630943625
40
0.181749835249464
40
0.181749835249464
40
0.207673361062678
40
0.207673361062678
40
0.233596886875892
40
0.233596886875892
40
0.246558649782499
40
0.253039531235803
40
0.253039531235803
40
0.259520412689106
40
0.259520412689106
40
0.285443938502321
40
0.285443938502321
40
0.311367464315536
40
0.311367464315536
40
0.337290990128752
40
0.337290990128752
40
0.363214515941967
40
0.363214515941967
40
0.415061567568397
40
0.415061567568397
40
0.440985093381612
40
0.440985093381612
40
0.447465974834916
40
0.447465974834916
40
0.453946856288219
40
0.453946856288219
40
0.466908619194826
40
0.466908619194826
40
0.49283214500804
40
0.49283214500804
40
0.518755670821253
40
0.518755670821253
40
0.570602722447679
40
0.570602722447679
40
0.596526248260891
40
0.596526248260891
40
0.622449774074104
40
0.622449774074104
40
0.63541153698071
40
0.63541153698071
40
0.641892418434014
40
0.641892418434014
40
0.648373299887317
40
0.648373299887317
40
0.67429682570053
40
0.67429682570053
40
0.700220351513744
40
0.700220351513744
40
0.726143877326957
40
0.726143877326957
40
0.75206740314017
40
0.75206740314017
40
0.777990928953383
40
0.777990928953383
40
0.803914454766596
40
0.803914454766596
40
0.829837980579809
40
0.829837980579809
40
0.836318862033113
40
0.836318862033113
40
0.842799743486416
40
0.842799743486416
40
0.855761506393023
40
0.855761506393023
40
0.881685032206236
40
0.881685032206236
40
0.907608558019449
40
0.907608558019449
40
0.933532083832663
40
0.933532083832663
40
0.959455609645876
40
0.959455609645876
40
0.985379135459089
40
0.985379135459089
40
1
40
1
40
1
40
1
41
1
10
88.9309083657723
20
-7.1876822489053
30
0
41
1
10
88.925838078862
20
-7.18767286891133
30
0
41
1
10
88.9207677216648
20
-7.18766204288843
30
0
41
1
10
88.4547424471039
20
-7.18653410354932
30
0
41
1
10
87.9932046864226
20
-7.17347016862001
30
0
41
1
10
87.06806394456
20
-7.12331254061917
30
0
41
1
10
86.6044957034574
20
-7.08620412992673
30
0
41
1
10
85.9067878102781
20
-7.01245712409477
30
0
41
1
10
85.6738271631117
20
-6.98486193808517
30
0
41
1
10
85.3237087006669
20
-6.93894500079475
30
0
41
1
10
85.2069625910897
20
-6.92289401849476
30
0
41
1
10
84.9738052305655
20
-6.88937423390212
30
0
41
1
10
84.8573310407668
20
-6.87189730246891
30
0
41
1
10
84.2754456966668
20
-6.78096777988841
30
0
41
1
10
83.8115069180865
20
-6.69687057697564
30
0
41
1
10
82.885807295923
20
-6.50699517818097
30
0
41
1
10
82.4240062521084
20
-6.40124808632433
30
0
41
1
10
81.5015271491263
20
-6.16923482111326
30
0
41
1
10
81.0408407940635
20
-6.04297990359467
30
0
41
1
10
80.119736850201
20
-5.7709450847434
30
0
41
1
10
79.6593233273883
20
-5.62515360977423
30
0
41
1
10
78.7376735170179
20
-5.31532547783641
30
0
41
1
10
78.2764531528423
20
-5.15127324345633
30
0
41
1
10
77.3522966701414
20
-4.80602514443248
30
0
41
1
10
76.8893942283643
20
-4.62477836147468
30
0
41
1
10
76.1930311477835
20
-4.34094153117587
30
0
41
1
10
75.8443399750625
20
-4.19604394001718
30
0
41
1
10
75.4947396749928
20
-4.04686774758514
30
0
41
1
10
75.2614566877446
20
-3.94648415684313
30
0
41
1
10
75.1446396887516
20
-3.89579677702108
30
0
41
1
10
74.5608169044922
20
-3.64045386152921
30
0
41
1
10
74.0954932877714
20
-3.43050056642363
30
0
41
1
10
73.1674521854027
20
-3.00090049268471
30
0
41
1
10
72.7046989451909
20
-2.78131782166821
30
0
41
1
10
71.7806704716543
20
-2.33461853833566
30
0
41
1
10
71.3194055380595
20
-2.10748349960198
30
0
41
1
10
70.3974679529229
20
-1.64739971856423
30
0
41
1
10
69.9368360852957
20
-1.41437169073865
30
0
41
1
10
68.5543330480087
20
-0.709467278923341
30
0
41
1
10
67.6318082203408
20
-0.231866755211143
30
0
41
1
10
66.2413667089834
20
0.48554149635163
30
0
41
1
10
65.7767350160872
20
0.724760825017682
30
0
41
1
10
65.1938700025931
20
1.02263146160829
30
0
41
1
10
65.0771937805301
20
1.08214902592294
30
0
41
1
10
64.8436186875436
20
1.20103888547985
30
0
41
1
10
64.7266938358837
20
1.26042413419412
30
0
41
1
10
64.3764550123394
20
1.43786691574437
30
0
41
1
10
64.1433870942067
20
1.55535798292331
30
0
41
1
10
63.4452971905483
20
1.90514177464473
30
0
41
1
10
62.9814063996379
20
2.1347759931636
30
0
41
1
10
62.0554898780186
20
2.58489737489972
30
0
41
1
10
61.593476265781
20
2.80541125053247
30
0
41
1
10
60.208870901899
20
3.45091513182854
30
0
41
1
10
59.2878508854974
20
3.86008715420482
30
0
41
1
10
57.9033953334983
20
4.43193137551302
30
0
41
1
10
57.4414220504174
20
4.61556819805847
30
0
41
1
10
56.5156721574666
20
4.967496327416
30
0
41
1
10
56.0518853141178
20
5.13576758272916
30
0
41
1
10
55.3540076954649
20
5.37530025722555
30
0
41
1
10
55.1210198381698
20
5.45300544720249
30
0
41
1
10
54.7709037084052
20
5.56620774460396
30
0
41
1
10
54.6540923815346
20
5.60338230216342
30
0
41
1
10
54.4202429719017
20
5.67658840477466
30
0
41
1
10
54.3033725403936
20
5.71256729246826
30
0
41
1
10
53.7196779348001
20
5.88918575716525
30
0
41
1
10
53.2544225117026
20
6.02016615094078
30
0
41
1
10
52.3262380156418
20
6.26071292155871
30
0
41
1
10
51.8632948237375
20
6.37026817669332
30
0
41
1
10
50.9387539086859
20
6.5673689960833
30
0
41
1
10
50.4771530674075
20
6.65491567413437
30
0
41
1
10
49.5544703807133
20
6.80752746495776
30
0
41
1
10
49.0933426790266
20
6.87255679385947
30
0
41
1
10
48.17051100135
20
6.9795355745083
30
0
41
1
10
47.7088132249875
20
7.02149165542218
30
0
41
1
10
46.7839653659023
20
7.08189644617963
30
0
41
1
10
46.3208533437578
20
7.10034844159114
30
0
41
1
10
45.3921429314469
20
7.11328103671525
30
0
41
1
10
44.9265483837243
20
7.10776735270358
30
0
41
1
10
44.3424028630769
20
7.08566528672307
30
0
41
1
10
44.2254007575394
20
7.08048095361247
30
0
41
1
10
43.9914917866919
20
7.0686023628852
30
0
41
1
10
43.874647173808
20
7.0619122833987
30
0
41
1
10
43.5244241392968
20
7.03960581763863
30
0
41
1
10
43.2913620846892
20
7.02175119625977
30
0
41
1
10
42.5932130117854
20
6.95938487700138
30
0
41
1
10
42.1291471619676
20
6.90607662262289
30
0
41
1
10
41.2027627217525
20
6.77680670731971
30
0
41
1
10
40.740437465147
20
6.7008524912147
30
0
41
1
10
39.8166783489254
20
6.52704342089442
30
0
41
1
10
39.3552557007274
20
6.42917255330681
30
0
41
1
10
38.4322279914726
20
6.21246245708969
30
0
41
1
10
37.9706377066258
20
6.09361535642483
30
0
41
1
10
37.0463943989407
20
5.83579792143732
30
0
41
1
10
36.5837730267275
20
5.69679106836188
30
0
41
1
10
35.8586755995826
20
5.46433885084326
30
0
41
1
10
35.5968703115613
20
5.37746433544507
30
0
41
1
10
35.3346530322161
20
5.28763088363866
30
0
0
SPLINE
5
FB
100
AcDbEntity
8
1
62
256
6
ByLayer
370
18
48
1
60
0
100
AcDbSpline
70
4
71
3
72
108
73
104
40
0
40
0
40
0
40
0
40
0.0150411385842461
40
0.0150411385842461
40
0.0355611148637407
40
0.0355611148637407
40
0.0458211030034874
40
0.0458211030034874
40
0.0509510970733607
40
0.0509510970733607
40
0.056081091143234
40
0.0971210437022159
40
0.0971210437022159
40
0.138160996261198
40
0.138160996261198
40
0.143290990331071
40
0.143290990331071
40
0.148420984400944
40
0.158680972540691
40
0.179200948820186
40
0.179200948820186
40
0.220240901379175
40
0.220240901379175
40
0.230500889518922
40
0.230500889518922
40
0.235630883588795
40
0.235630883588795
40
0.240760877658668
40
0.261280853938163
40
0.261280853938163
40
0.302320806497153
40
0.302320806497153
40
0.322840782776649
40
0.322840782776649
40
0.327970776846522
40
0.327970776846522
40
0.333100770916396
40
0.343360759056144
40
0.384400711615136
40
0.384400711615136
40
0.404920687894632
40
0.404920687894632
40
0.415180676034381
40
0.415180676034381
40
0.420310670104255
40
0.420310670104255
40
0.425440664174128
40
0.466480616733125
40
0.466480616733125
40
0.507520569292122
40
0.507520569292122
40
0.512650563361996
40
0.512650563361996
40
0.51778055743187
40
0.528040545571619
40
0.548560521851116
40
0.548560521851116
40
0.589600474410109
40
0.589600474410109
40
0.599860462549857
40
0.599860462549857
40
0.604990456619731
40
0.604990456619731
40
0.610120450689605
40
0.610120450689605
40
0.630640426969101
40
0.630640426969101
40
0.671680379528091
40
0.671680379528091
40
0.692200355807587
40
0.692200355807587
40
0.69733034987746
40
0.69733034987746
40
0.702460343947334
40
0.712720332087079
40
0.712720332087079
40
0.753760284646064
40
0.753760284646064
40
0.774280260925555
40
0.774280260925555
40
0.784540249065301
40
0.784540249065301
40
0.789670243135174
40
0.789670243135174
40
0.794800237205047
40
0.835840189764035
40
0.835840189764035
40
0.876880142323023
40
0.876880142323023
40
0.887140130462771
40
0.887140130462771
40
0.897400118602518
40
0.917920094882014
40
0.917920094882014
40
0.93844007116151
40
0.93844007116151
40
0.948700059301258
40
0.948700059301258
40
0.958960047441006
40
0.958960047441006
40
0.979480023720503
40
0.979480023720503
40
1
40
1
40
1
40
1
41
1
10
122.426333197168
20
5.34995160258026
30
0
41
1
10
122.69602311881
20
5.44533138524619
30
0
41
1
10
122.965694526389
20
5.53769898844507
30
0
41
1
10
123.603442745363
20
5.74866961520195
30
0
41
1
10
123.971582698353
20
5.86457339281401
30
0
41
1
10
124.524394003017
20
6.02917080621972
30
0
41
1
10
124.708765172014
20
6.08249316112952
30
0
41
1
10
124.985524686014
20
6.16009744061705
30
0
41
1
10
125.077818965812
20
6.18557074751791
30
0
41
1
10
125.262296701864
20
6.23566384747843
30
0
41
1
10
126.092156928249
20
6.45729776797575
30
0
41
1
10
126.919663960176
20
6.64468919545999
30
0
41
1
10
128.390915532286
20
6.92086918561307
30
0
41
1
10
129.126617595527
20
7.030460249264
30
0
41
1
10
129.956662096789
20
7.12010935402586
30
0
41
1
10
130.048937091039
20
7.12960463132058
30
0
41
1
10
130.233379461618
20
7.14763914717904
30
0
41
1
10
130.509941273314
20
7.17326378811612
30
0
41
1
10
131.15462195277
20
7.22305626353324
30
0
41
1
10
131.706409788191
20
7.24856672731971
30
0
41
1
10
132.809682529646
20
7.27664237464816
30
0
41
1
10
133.544775063458
20
7.26476049882078
30
0
41
1
10
134.465613883909
20
7.21158081916965
30
0
41
1
10
134.649880922295
20
7.1990291807181
30
0
41
1
10
134.926478778201
20
7.17732898782302
30
0
41
1
10
135.01873043502
20
7.16961491988778
30
0
41
1
10
135.203135055912
20
7.15324546135375
30
0
41
1
10
135.663978047469
20
7.10996363114359
30
0
41
1
10
136.124071698549
20
7.05494626519959
30
0
41
1
10
137.227591390737
20
6.90081082546047
30
0
41
1
10
137.962328033396
20
6.76858653866014
30
0
41
1
10
139.066007833949
20
6.52792033048954
30
0
41
1
10
139.434166436847
20
6.44064684498986
30
0
41
1
10
139.895018326185
20
6.322959396622
30
0
41
1
10
139.987243194194
20
6.29898615707748
30
0
41
1
10
140.171602540477
20
6.25022897618908
30
0
41
1
10
140.448038629566
20
6.17586947899119
30
0
41
1
10
141.460633062634
20
5.88990980888377
30
0
41
1
10
142.3789249339
20
5.5905486961949
30
0
41
1
10
143.481724869709
20
5.19715635225779
30
0
41
1
10
143.849462001168
20
5.06032815280949
30
0
41
1
10
144.401643509055
20
4.84699837547422
30
0
41
1
10
144.585800156086
20
4.77454082103691
30
0
41
1
10
144.862226953003
20
4.6638928683594
30
0
41
1
10
144.954424213978
20
4.62667385918135
30
0
41
1
10
145.138735346396
20
4.551655683935
30
0
41
1
10
145.967822256467
20
4.21144115373974
30
0
41
1
10
146.794410324987
20
3.84803979385492
30
0
41
1
10
148.264027935056
20
3.17206799716917
30
0
41
1
10
148.998960726443
20
2.81922454175782
30
0
41
1
10
149.828103225031
20
2.40927461302016
30
0
41
1
10
149.920285746744
20
2.36353162662402
30
0
41
1
10
150.104573546509
20
2.27177000973779
30
0
41
1
10
150.38090051196
20
2.13370893777653
30
0
41
1
10
151.02500949728
20
1.80878461398777
30
0
41
1
10
151.576254455976
20
1.52602080567871
30
0
41
1
10
152.678343674459
20
0.95618873571479
30
0
41
1
10
153.412528880161
20
0.57054513937203
30
0
41
1
10
154.332292049995
20
0.0864110996201646
30
0
41
1
10
154.51634680842
20
-0.010518421590433
30
0
41
1
10
154.792633816931
20
-0.155968401910201
30
0
41
1
10
154.884787201777
20
-0.20447340852121
30
0
41
1
10
155.069025319751
20
-0.301409058924122
30
0
41
1
10
155.161112162876
20
-0.349840380002263
30
0
41
1
10
155.621403398483
20
-0.591780752989422
30
0
41
1
10
155.989172281211
20
-0.784654504699262
30
0
41
1
10
157.091593600661
20
-1.36029163140586
30
0
41
1
10
157.825380627405
20
-1.74002105316811
30
0
41
1
10
158.927869515283
20
-2.29693019999289
30
0
41
1
10
159.295646418298
20
-2.48049292912938
30
0
41
1
10
159.756006630677
20
-2.7068169093123
30
0
41
1
10
159.848134331427
20
-2.75193651469527
30
0
41
1
10
160.032316422789
20
-2.84177758001641
30
0
41
1
10
160.308484527469
20
-2.97594469153014
30
0
41
1
10
160.584372086645
20
-3.10827131188634
30
0
41
1
10
161.503530147151
20
-3.54501234597353
30
0
41
1
10
162.23735663009
20
-3.88049429031295
30
0
41
1
10
163.338936842066
20
-4.35781708307243
30
0
41
1
10
163.706272036071
20
-4.51260678244708
30
0
41
1
10
164.257870891562
20
-4.73770225359092
30
0
41
1
10
164.441835735557
20
-4.81155382405782
30
0
41
1
10
164.717976205572
20
-4.92048830037248
30
0
41
1
10
164.810078756321
20
-4.95650166452532
30
0
41
1
10
164.994207419195
20
-5.02784435121015
30
0
41
1
10
165.822472792657
20
-5.34582320553082
30
0
41
1
10
166.648235877563
20
-5.63583004116063
30
0
41
1
10
168.11633907148
20
-6.10240223589113
30
0
41
1
10
168.850425241367
20
-6.31119339865015
30
0
41
1
10
169.770655063462
20
-6.53863126791839
30
0
41
1
10
169.954819577093
20
-6.58243663772461
30
0
41
1
10
170.322836366581
20
-6.66648460099111
30
0
41
1
10
170.874632449902
20
-6.78727193315723
30
0
41
1
10
171.426021619068
20
-6.89201990520496
30
0
41
1
10
172.161310195181
20
-7.01711416416683
30
0
41
1
10
172.529006308635
20
-7.0723755244982
30
0
41
1
10
173.081001563604
20
-7.1440875775767
30
0
41
1
10
173.265124001437
20
-7.16613246430447
30
0
41
1
10
173.633087596472
20
-7.20640311824982
30
0
41
1
10
173.816978593437
20
-7.22463655461794
30
0
41
1
10
174.368481254272
20
-7.27360428974933
30
0
41
1
10
174.735929170525
20
-7.29860094785741
30
0
41
1
10
175.4710063611
20
-7.33318449051598
30
0
41
1
10
175.838629210108
20
-7.34277819599356
30
0
41
1
10
176.206531372895
20
-7.34463911873678
30
0
0
SPLINE
5
FC
100
AcDbEntity
8
1
62
256
6
ByLayer
370
18
48
1
60
0
100
AcDbSpline
70
4
71
3
72
12
73
8
40
0
40
0
40
0
40
0
40
0.5
40
0.5
40
0.75
40
0.75
40
1
40
1
40
1
40
1
41
1
10
176.153555926691
20
-7.28243888104876
30
0
41
1
10
176.162361611602
20
-7.30218297821551
30
0
41
1
10
176.1711744656
20
-7.31724953973347
30
0
41
1
10
176.184424324634
20
-7.332818951207
30
0
41
1
10
176.188848451842
20
-7.33683763792794
30
0
41
1
10
176.197695418616
20
-7.34251008413685
30
0
41
1
10
176.202115238981
20
-7.34416347532922
30
0
41
1
10
176.206531372897
20
-7.34463911873678
30
0
0
SPLINE
5
FD
100
AcDbEntity
8
1
62
256
6
ByLayer
370
18
48
1
60
0
100
AcDbSpline
70
4
71
3
72
89
73
85
40
0
40
0
40
0
40
0
40
0.0263880093843563
40
0.0263880093843563
40
0.0395820140765336
40
0.0395820140765336
40
0.0527760187687109
40
0.105552037537419
40
0.105552037537419
40
0.131940046921773
40
0.131940046921773
40
0.138537049267861
40
0.138537049267861
40
0.145134051613949
40
0.145134051613949
40
0.158328056306123
40
0.158328056306123
40
0.211104075074819
40
0.211104075074819
40
0.237492084459166
40
0.237492084459166
40
0.250686089151341
40
0.250686089151341
40
0.263880093843515
40
0.263880093843515
40
0.316656112612212
40
0.316656112612212
40
0.34304412199656
40
0.34304412199656
40
0.356238126688733
40
0.356238126688733
40
0.369432131380906
40
0.369432131380906
40
0.395820140765252
40
0.395820140765252
40
0.422208150149598
40
0.422208150149598
40
0.448596159533944
40
0.448596159533944
40
0.461790164226118
40
0.461790164226118
40
0.474984168918291
40
0.474984168918291
40
0.501372178302637
40
0.501372178302637
40
0.527760187686983
40
0.527760187686983
40
0.55414819707133
40
0.55414819707133
40
0.567342201763503
40
0.567342201763503
40
0.580536206455677
40
0.580536206455677
40
0.606924215840026
40
0.606924215840026
40
0.633312225224376
40
0.633312225224376
40
0.686088243993072
40
0.686088243993072
40
0.699282248685247
40
0.699282248685247
40
0.712476253377421
40
0.712476253377421
40
0.738864262761768
40
0.738864262761768
40
0.791640281530463
40
0.791640281530463
40
0.804834286222637
40
0.804834286222637
40
0.818028290914811
40
0.818028290914811
40
0.844416300299158
40
0.844416300299158
40
0.897192319067854
40
0.897192319067854
40
0.903789321413941
40
0.903789321413941
40
0.910386323760027
40
0.910386323760027
40
0.923580328452201
40
0.923580328452201
40
0.949968337836549
40
0.949968337836549
40
1
40
1
40
1
40
1
41
1
10
176.153555926693
20
-7.28243888104822
30
0
41
1
10
175.786405232279
20
-7.25648849250521
30
0
41
1
10
175.419260108979
20
-7.22288337848082
30
0
41
1
10
174.868209269896
20
-7.16111814202634
30
0
41
1
10
174.684413972625
20
-7.1386284448408
30
0
41
1
10
174.317125073869
20
-7.08994944483709
30
0
41
1
10
173.399455988701
20
-6.95898643577164
30
0
41
1
10
172.483790247656
20
-6.78224981978724
30
0
41
1
10
171.383988417132
20
-6.52837906569064
30
0
41
1
10
171.017221718227
20
-6.43678926160553
30
0
41
1
10
170.558216653749
20
-6.31385831972304
30
0
41
1
10
170.466388289897
20
-6.28885004437609
30
0
41
1
10
170.282668966894
20
-6.23799563125544
30
0
41
1
10
170.190756691434
20
-6.21214332023621
30
0
41
1
10
169.915127153548
20
-6.13340059020416
30
0
41
1
10
169.731494115888
20
-6.07931887893727
30
0
41
1
10
168.813769800917
20
-5.80117596584671
30
0
41
1
10
168.081034966879
20
-5.55387267730885
30
0
41
1
10
166.981151086826
20
-5.14942943604524
30
0
41
1
10
166.61438735259
20
-5.00904048712979
30
0
41
1
10
166.063632191154
20
-4.79062204551323
30
0
41
1
10
165.87994529348
20
-4.71651067240177
30
0
41
1
10
165.512305146354
20
-4.5657600466221
30
0
41
1
10
165.328535130347
20
-4.48919552713852
30
0
41
1
10
164.410349740994
20
-4.10091612932442
30
0
41
1
10
163.677351567078
20
-3.77258452920316
30
0
41
1
10
162.577253288443
20
-3.2583603673973
30
0
41
1
10
162.21045319559
20
-3.083331457361
30
0
41
1
10
161.659688238134
20
-2.81605135467231
30
0
41
1
10
161.476005783821
20
-2.72616877254754
30
0
41
1
10
161.108396391563
20
-2.54491950938399
30
0
41
1
10
160.924461720862
20
-2.45354821931477
30
0
41
1
10
160.373248770977
20
-2.1778734809547
30
0
41
1
10
160.006214951108
20
-1.99183872026964
30
0
41
1
10
159.272475851225
20
-1.61629914676291
30
0
41
1
10
158.905770768722
20
-1.42679444052905
30
0
41
1
10
158.172238092814
20
-1.04516034801864
30
0
41
1
10
157.805410471878
20
-0.853030486610038
30
0
41
1
10
157.254653719601
20
-0.563661820880526
30
0
41
1
10
157.070982366179
20
-0.467009839267092
30
0
41
1
10
156.703412699384
20
-0.273418500162592
30
0
41
1
10
156.519429484675
20
-0.176434371116215
30
0
41
1
10
155.967907761874
20
0.114344199122286
30
0
41
1
10
155.600702587903
20
0.308013298250046
30
0
41
1
10
154.866684336387
20
0.693924792228444
30
0
41
1
10
154.499871351679
20
0.886167693932066
30
0
41
1
10
153.766172938457
20
1.26835169286667
30
0
41
1
10
153.399288654944
20
1.45829475546026
30
0
41
1
10
152.848520136712
20
1.74075235666024
30
0
41
1
10
152.664856578104
20
1.83449472675596
30
0
41
1
10
152.297315969194
20
2.02103633299225
30
0
41
1
10
152.113390739538
20
2.11386110482567
30
0
41
1
10
151.561545874531
20
2.39062440817477
30
0
41
1
10
151.194164516396
20
2.57254078657303
30
0
41
1
10
150.459854316088
20
2.93018989175965
30
0
41
1
10
150.092927358387
20
3.10592732407846
30
0
41
1
10
148.992146057719
20
3.62271689260376
30
0
41
1
10
148.258256397956
20
3.95328104346834
30
0
41
1
10
147.338322101091
20
4.34478260164124
30
0
41
1
10
147.154325149096
20
4.42195119933851
30
0
41
1
10
146.786666440393
20
4.57377393223121
30
0
41
1
10
146.602941848835
20
4.64845344113871
30
0
41
1
10
146.05197275786
20
4.86864527205702
30
0
41
1
10
145.684924977283
20
5.01029925088852
30
0
41
1
10
144.583818706883
20
5.41883769183696
30
0
41
1
10
143.849915563133
20
5.66944632254271
30
0
41
1
10
142.930103223796
20
5.95206258941928
30
0
41
1
10
142.745978697811
20
6.00706606906795
30
0
41
1
10
142.378115439434
20
6.11375319734429
30
0
41
1
10
142.194296134208
20
6.16546124459754
30
0
41
1
10
141.643075363337
20
6.3155915659616
30
0
41
1
10
141.275899527521
20
6.40900771023621
30
0
41
1
10
140.174498750127
20
6.66860067494144
30
0
41
1
10
139.440521906853
20
6.81421443436363
30
0
41
1
10
138.612765970013
20
6.94528364471549
30
0
41
1
10
138.520765565869
20
6.95939275812756
30
0
41
1
10
138.336702917215
20
6.98669724397197
30
0
41
1
10
138.244634051481
20
6.99989331854911
30
0
41
1
10
137.968581310354
20
7.03806812752964
30
0
41
1
10
137.784666694575
20
7.061645811316
30
0
41
1
10
137.233178072596
20
7.12673175107565
30
0
41
1
10
136.865847922908
20
7.16258838272282
30
0
41
1
10
135.802315860021
20
7.24446462851276
30
0
41
1
10
135.106399425842
20
7.27080426151238
30
0
41
1
10
134.409079093073
20
7.26954285947198
30
0
0
SPLINE
5
FE
100
AcDbEntity
8
1
62
256
6
ByLayer
370
18
48
1
60
0
100
AcDbSpline
70
4
71
3
72
27
73
23
40
0
40
0
40
0
40
0
40
0.125000000000123
40
0.125000000000123
40
0.187500000000187
40
0.187500000000187
40
0.250000000000251
40
0.312500000000315
40
0.312500000000315
40
0.375000000000379
40
0.375000000000379
40
0.500000000000232
40
0.500000000000232
40
0.625000000000085
40
0.625000000000085
40
0.687500000000206
40
0.687500000000206
40
0.750000000000328
40
0.750000000000328
40
0.875000000000164
40
0.875000000000164
40
1
40
1
40
1
40
1
41
1
10
105.549639761433
20
-6.88777599362368
30
0
41
1
10
105.549639761433
20
-6.88519249130499
30
0
41
1
10
105.550742170382
20
-6.88265218072678
30
0
41
1
10
105.55399863908
20
-6.8789066072452
30
0
41
1
10
105.555367957087
20
-6.87766038470937
30
0
41
1
10
105.55859663476
20
-6.87524933455916
30
0
41
1
10
105.562310261838
20
-6.87291451014883
30
0
41
1
10
105.56697290815
20
-6.87073098902471
30
0
41
1
10
105.572123401429
20
-6.86862653617919
30
0
41
1
10
105.574936048676
20
-6.86761882312638
30
0
41
1
10
105.583867060325
20
-6.86480218118905
30
0
41
1
10
105.590575069964
20
-6.86316021897315
30
0
41
1
10
105.605339680713
20
-6.86042109357052
30
0
41
1
10
105.61314408033
20
-6.85936696862987
30
0
41
1
10
105.625471746108
20
-6.8582560093935
30
0
41
1
10
105.629710696771
20
-6.85796470871554
30
0
41
1
10
105.638174013742
20
-6.85755966296793
30
0
41
1
10
105.642420191138
20
-6.85744297595784
30
0
41
1
10
105.655201598518
20
-6.85734678018122
30
0
41
1
10
105.663896409616
20
-6.8576313962036
30
0
41
1
10
105.680500518778
20
-6.858858198993
30
0
41
1
10
105.688485354238
20
-6.85979040196744
30
0
41
1
10
105.696138995747
20
-6.86105177054364
30
0
0
SPLINE
5
FF
100
AcDbEntity
8
1
62
256
6
ByLayer
370
18
48
1
60
0
100
AcDbSpline
70
4
71
3
72
18
73
14
40
0
40
0
40
0
40
0
40
0.252397776127817
40
0.252397776127817
40
0.378596664191726
40
0.378596664191726
40
0.504795552255634
40
0.504795552255634
40
0.757193328383436
40
0.757193328383436
40
0.883392216447337
40
0.883392216447337
40
1
40
1
40
1
40
1
41
1
10
105.696138995747
20
-6.86105177054364
30
0
41
1
10
106.063899455922
20
-6.92166102268303
30
0
41
1
10
106.431798489939
20
-6.97466183329487
30
0
41
1
10
106.983958200254
20
-7.04289760401201
30
0
41
1
10
107.168063895339
20
-7.06376328119637
30
0
41
1
10
107.536405603193
20
-7.10173869740106
30
0
41
1
10
107.720685567913
20
-7.11885186158202
30
0
41
1
10
108.273467836804
20
-7.16452083700503
30
0
41
1
10
108.641535797514
20
-7.18738726917465
30
0
41
1
10
109.193095284929
20
-7.21032986157047
30
0
41
1
10
109.376855614425
20
-7.21608404080104
30
0
41
1
10
109.730213718643
20
-7.2234969490583
30
0
41
1
10
109.899836070198
20
-7.2254295523052
30
0
41
1
10
110.069499023894
20
-7.22573169515707
30
0
0
SPLINE
5
100
100
AcDbEntity
8
1
62
256
6
ByLayer
370
18
48
1
60
0
100
AcDbSpline
70
4
71
3
72
64
73
60
40
0
40
0
40
0
40
0
40
0.0360031684164429
40
0.0360031684164429
40
0.0779160741374678
40
0.0779160741374678
40
0.0988725269979818
40
0.0988725269979818
40
0.119828979858495
40
0.119828979858495
40
0.140785432719009
40
0.140785432719009
40
0.161741885579523
40
0.161741885579523
40
0.203654791300548
40
0.203654791300548
40
0.245567697021574
40
0.245567697021574
40
0.287480602742599
40
0.287480602742599
40
0.308437055603113
40
0.308437055603113
40
0.329393508463626
40
0.329393508463626
40
0.371306414184654
40
0.371306414184654
40
0.413219319905681
40
0.413219319905681
40
0.455132225626709
40
0.455132225626709
40
0.476088678487221
40
0.476088678487221
40
0.497045131347734
40
0.497045131347734
40
0.538958037068757
40
0.538958037068757
40
0.580870942789779
40
0.580870942789779
40
0.622783848510802
40
0.622783848510802
40
0.643740301371314
40
0.643740301371314
40
0.664696754231827
40
0.664696754231827
40
0.70660965995285
40
0.70660965995285
40
0.748522565673872
40
0.748522565673872
40
0.790435471394895
40
0.790435471394895
40
0.832348377115917
40
0.832348377115917
40
0.853304829976428
40
0.853304829976428
40
0.87426128283694
40
0.87426128283694
40
0.91617418855796
40
0.91617418855796
40
1
40
1
40
1
40
1
41
1
10
149.939823667892
20
7.0412567656949
30
0
41
1
10
150.254953799495
20
7.08538745563936
30
0
41
1
10
150.569827164448
20
7.12405946635647
30
0
41
1
10
151.251299363299
20
7.19569773267799
30
0
41
1
10
151.617886433053
20
7.22670742549286
30
0
41
1
10
152.16797251858
20
7.2618668756885
30
0
41
1
10
152.351367068171
20
7.27169402491367
30
0
41
1
10
152.718216893432
20
7.28754168494527
30
0
41
1
10
152.901683152018
20
7.29355721605816
30
0
41
1
10
153.268959218719
20
7.30173632097288
30
0
41
1
10
153.452842194786
20
7.30390382843129
30
0
41
1
10
153.820319654205
20
7.30439553195512
30
0
41
1
10
154.003939077617
20
7.302722072813
30
0
41
1
10
154.554406904109
20
7.29194577739761
30
0
41
1
10
154.92089779235
20
7.27707053515937
30
0
41
1
10
155.653981416962
20
7.2321600231281
30
0
41
1
10
156.020533642131
20
7.20214559804765
30
0
41
1
10
156.753525577397
20
7.12690189752448
30
0
41
1
10
157.120011352425
20
7.08165547916599
30
0
41
1
10
157.670663383567
20
7.00273763046434
30
0
41
1
10
157.854406550903
20
6.9745835117545
30
0
41
1
10
158.22195385024
20
6.9146139717576
30
0
41
1
10
158.405603219172
20
6.88282433938815
30
0
41
1
10
158.956173762258
20
6.78204756811053
30
0
41
1
10
159.322741272325
20
6.70765669934943
30
0
41
1
10
160.055799636538
20
6.54516884417592
30
0
41
1
10
160.422253097741
20
6.45706542946019
30
0
41
1
10
161.154827006691
20
6.26688715984011
30
0
41
1
10
161.521004371161
20
6.16482883759772
30
0
41
1
10
162.071210870587
20
6.00236867450735
30
0
41
1
10
162.254760070151
20
5.94664883379301
30
0
41
1
10
162.622166295051
20
5.83209633948786
30
0
41
1
10
162.805914739357
20
5.77329627159943
30
0
41
1
10
163.356685183502
20
5.59259340082576
30
0
41
1
10
163.723489193191
20
5.4663082166725
30
0
41
1
10
164.456568934933
20
5.20241585167383
30
0
41
1
10
164.822842992475
20
5.06480487521003
30
0
41
1
10
165.55517515324
20
4.77859561173636
30
0
41
1
10
165.921270842916
20
4.63003473510602
30
0
41
1
10
166.471215010288
20
4.40031598267782
30
0
41
1
10
166.654654633669
20
4.3225875218142
30
0
41
1
10
167.021793771007
20
4.1648349275506
30
0
41
1
10
167.205542388454
20
4.084787719031
30
0
41
1
10
167.756159157161
20
3.84170742251814
30
0
41
1
10
168.122729180277
20
3.67561353959226
30
0
41
1
10
168.855409107478
20
3.33629372872988
30
0
41
1
10
169.221509406059
20
3.1630544746304
30
0
41
1
10
169.953517826095
20
2.80989825855107
30
0
41
1
10
170.319441442673
20
2.63000295081855
30
0
41
1
10
171.051922570486
20
2.26496225295816
30
0
41
1
10
171.41846870192
20
2.07980133402631
30
0
41
1
10
171.968990185085
20
1.79851469334079
30
0
41
1
10
172.152630748075
20
1.70415380781398
30
0
41
1
10
172.519486122025
20
1.51481836097639
30
0
41
1
10
172.702795184486
20
1.41979594773272
30
0
41
1
10
173.252499614866
20
1.13391625484883
30
0
41
1
10
173.618672808763
20
0.942248187903999
30
0
41
1
10
174.716610330866
20
0.364583919899843
30
0
41
1
10
175.447780500275
20
-0.024096095199269
30
0
41
1
10
176.179952267459
20
-0.412983519359813
30
0
0
SPLINE
5
101
100
AcDbEntity
8
1
62
256
6
ByLayer
370
18
48
1
60
0
100
AcDbSpline
70
4
71
3
72
8
73
4
40
0
40
0
40
0
40
0
40
1
40
1
40
1
40
1
41
1
10
176.179952267452
20
-0.412983519357425
30
0
41
1
10
176.217412830259
20
-0.09136098485601
30
0
41
1
10
176.261836698862
20
0.228567028235204
30
0
41
1
10
176.314811641215
20
0.546579463596373
30
0
0
SPLINE
5
102
100
AcDbEntity
8
1
62
256
6
ByLayer
370
18
48
1
60
0
100
AcDbSpline
70
4
71
3
72
68
73
64
40
0
40
0
40
0
40
0
40
0.0575572689864443
40
0.0575572689864443
40
0.115114537972888
40
0.115114537972888
40
0.14389317246611
40
0.14389317246611
40
0.172671806959331
40
0.172671806959331
40
0.230229075945773
40
0.230229075945773
40
0.259007710438995
40
0.259007710438995
40
0.287786344932217
40
0.287786344932217
40
0.302175662178828
40
0.302175662178828
40
0.316564979425439
40
0.316564979425439
40
0.345343613918659
40
0.345343613918659
40
0.402900882905098
40
0.402900882905098
40
0.431679517398318
40
0.431679517398318
40
0.460458151891538
40
0.460458151891538
40
0.474847469138149
40
0.474847469138149
40
0.48923678638476
40
0.48923678638476
40
0.518015420877981
40
0.518015420877981
40
0.575572689864421
40
0.575572689864421
40
0.604351324357641
40
0.604351324357641
40
0.633129958850862
40
0.633129958850862
40
0.690687227837302
40
0.690687227837302
40
0.719465862330523
40
0.719465862330523
40
0.748244496823744
40
0.748244496823744
40
0.777023131316965
40
0.777023131316965
40
0.805801765810186
40
0.805801765810186
40
0.86335903479663
40
0.86335903479663
40
0.892137669289852
40
0.892137669289852
40
0.920916303783073
40
0.920916303783073
40
0.935305621029684
40
0.935305621029684
40
0.949694938276295
40
0.949694938276295
40
0.978473572769517
40
0.978473572769517
40
1
40
1
40
1
40
1
41
1
10
13.0876336382077
20
-4.47454496522866
30
0
41
1
10
13.5190777379713
20
-4.64405458208799
30
0
41
1
10
13.9487933798455
20
-4.80693169313994
30
0
41
1
10
14.8054406017038
20
-5.11843640394463
30
0
41
1
10
15.2322781383165
20
-5.26717510510935
30
0
41
1
10
15.871551363013
20
-5.47810365207243
30
0
41
1
10
16.0844696249427
20
-5.54640125287264
30
0
41
1
10
16.5100872546399
20
-5.67884407432209
30
0
41
1
10
16.7228663933533
20
-5.74289484055416
30
0
41
1
10
17.3609455676356
20
-5.92880099294044
30
0
41
1
10
17.7859241072791
20
-6.04447656586112
30
0
41
1
10
18.4231579701503
20
-6.20516774174783
30
0
41
1
10
18.6355376616259
20
-6.25658592789256
30
0
41
1
10
19.0603211330111
20
-6.35503199349333
30
0
41
1
10
19.2727186991764
20
-6.40206406754669
30
0
41
1
10
19.5914678445708
20
-6.46919099694847
30
0
41
1
10
19.6977415328124
20
-6.49099762328294
30
0
41
1
10
19.9104064772121
20
-6.53341951540085
30
0
41
1
10
20.0167925738452
20
-6.55403948382994
30
0
41
1
10
20.3360665510025
20
-6.61416350363879
30
0
41
1
10
20.549075285733
20
-6.65192828133925
30
0
41
1
10
21.1885423333116
20
-6.75826185779292
30
0
41
1
10
21.615475329478
20
-6.81984157749307
30
0
41
1
10
22.2573482199725
20
-6.89767802707172
30
0
41
1
10
22.4715433463636
20
-6.92120405048107
30
0
41
1
10
22.9005772170972
20
-6.96329265031068
30
0
41
1
10
23.1154239773207
20
-6.98185007002144
30
0
41
1
10
23.4384069016223
20
-7.00586733894428
30
0
41
1
10
23.5461190600282
20
-7.01323738979008
30
0
41
1
10
23.7612573237819
20
-7.0266877912353
30
0
41
1
10
23.8687385698268
20
-7.03277224898525
30
0
41
1
10
24.1909120837263
20
-7.04911334157723
30
0
41
1
10
24.40533635846
20
-7.05745674091668
30
0
41
1
10
25.0476665820813
20
-7.07485989744634
30
0
41
1
10
25.4746133329621
20
-7.07629053900547
30
0
41
1
10
26.1137375012401
20
-7.06328697548233
30
0
41
1
10
26.3265573005395
20
-7.05642363171813
30
0
41
1
10
26.7521229653151
20
-7.03773551123274
30
0
41
1
10
26.964833776132
20
-7.02591137035608
30
0
41
1
10
27.6026120736343
20
-6.98301512974339
30
0
41
1
10
28.0273142591503
20
-6.9445062431918
30
0
41
1
10
28.6641350560048
20
-6.87201391791788
30
0
41
1
10
28.8763707092515
20
-6.84539497847157
30
0
41
1
10
29.3008605957084
20
-6.7872763634256
30
0
41
1
10
29.5131119472898
20
-6.7557725449231
30
0
41
1
10
29.9378935661711
20
-6.68802998657233
30
0
41
1
10
30.1504794742963
20
-6.6518325555345
30
0
41
1
10
30.5759021847389
20
-6.57470487395682
30
0
41
1
10
30.7887397505476
20
-6.53377256228106
30
0
41
1
10
31.4276854919419
20
-6.40386497067655
30
0
41
1
10
31.8542500803247
20
-6.30779496890176
30
0
41
1
10
32.4955417993029
20
-6.14969875217079
30
0
41
1
10
32.7095439918168
20
-6.09466378164601
30
0
41
1
10
33.1382243228892
20
-5.98008396152772
30
0
41
1
10
33.3529684854365
20
-5.92061528139257
30
0
41
1
10
33.6756907993074
20
-5.82813387912518
30
0
41
1
10
33.7833939899089
20
-5.7967446175258
30
0
41
1
10
33.9984949546646
20
-5.73299876146837
30
0
41
1
10
34.1059490737329
20
-5.70062460993327
30
0
41
1
10
34.4280346035829
20
-5.6020180493627
30
0
41
1
10
34.6423912530286
20
-5.53430412778096
30
0
41
1
10
35.0165208194306
20
-5.41259941680565
30
0
41
1
10
35.1764316798973
20
-5.3594435822213
30
0
41
1
10
35.3361824818253
20
-5.30524979577504
30
0
0
SPLINE
5
103
100
AcDbEntity
8
1
62
256
6
ByLayer
370
18
48
1
60
0
100
AcDbSpline
70
4
71
3
72
148
73
144
40
0
40
0
40
0
40
0
40
0.0114473023975575
40
0.0114473023975575
40
0.0233220946075042
40
0.0233220946075042
40
0.0351968868174508
40
0.0351968868174508
40
0.0589464712373441
40
0.0589464712373441
40
0.0708212634472904
40
0.0708212634472904
40
0.0826960556572365
40
0.0826960556572365
40
0.0945708478671828
40
0.0945708478671828
40
0.106445640077129
40
0.106445640077129
40
0.112383036182102
40
0.112383036182102
40
0.118320432287075
40
0.118320432287075
40
0.130195224497022
40
0.130195224497022
40
0.142070016706969
40
0.142070016706969
40
0.153944808916916
40
0.153944808916916
40
0.17769439333681
40
0.17769439333681
40
0.201443977756704
40
0.201443977756704
40
0.213318769966651
40
0.213318769966651
40
0.225193562176598
40
0.225193562176598
40
0.248943146596491
40
0.248943146596491
40
0.260817938806438
40
0.260817938806438
40
0.272692731016385
40
0.272692731016385
40
0.284567523226332
40
0.284567523226332
40
0.296442315436279
40
0.296442315436279
40
0.308317107646226
40
0.308317107646226
40
0.320191899856173
40
0.320191899856173
40
0.33206669206612
40
0.33206669206612
40
0.343941484276067
40
0.343941484276067
40
0.367691068695962
40
0.367691068695962
40
0.379565860905909
40
0.379565860905909
40
0.391440653115857
40
0.391440653115857
40
0.415190237535751
40
0.415190237535751
40
0.438939821955644
40
0.438939821955644
40
0.462689406375538
40
0.462689406375538
40
0.474564198585485
40
0.474564198585485
40
0.486438990795432
40
0.486438990795432
40
0.498313783005379
40
0.498313783005379
40
0.504251179110352
40
0.504251179110352
40
0.510188575215326
40
0.510188575215326
40
0.522063367425271
40
0.522063367425271
40
0.533938159635217
40
0.533938159635217
40
0.557687744055107
40
0.557687744055107
40
0.569562536265053
40
0.569562536265053
40
0.581437328474998
40
0.581437328474998
40
0.593312120684944
40
0.593312120684944
40
0.605186912894889
40
0.605186912894889
40
0.62893649731478
40
0.62893649731478
40
0.640811289524724
40
0.640811289524724
40
0.65268608173467
40
0.65268608173467
40
0.676435666154558
40
0.676435666154558
40
0.688310458364502
40
0.688310458364502
40
0.694247854469474
40
0.694247854469474
40
0.700185250574445
40
0.700185250574445
40
0.712060042784388
40
0.712060042784388
40
0.72393483499433
40
0.72393483499433
40
0.747684419414214
40
0.747684419414214
40
0.759559211624157
40
0.759559211624157
40
0.7714340038341
40
0.7714340038341
40
0.783308796044042
40
0.783308796044042
40
0.795183588253985
40
0.795183588253985
40
0.81893317267387
40
0.81893317267387
40
0.830807964883813
40
0.830807964883813
40
0.842682757093757
40
0.842682757093757
40
0.866432341513643
40
0.866432341513643
40
0.878307133723585
40
0.878307133723585
40
0.884244529828556
40
0.884244529828556
40
0.890181925933527
40
0.890181925933527
40
0.913931510353408
40
0.913931510353408
40
0.937681094773288
40
0.937681094773288
40
0.961430679193168
40
0.961430679193168
40
0.973305471403108
40
0.973305471403108
40
0.985180263613047
40
0.985180263613047
40
1
40
1
40
1
40
1
41
1
10
68.7444421843381
20
7.15134613054798
30
0
41
1
10
68.9487397796636
20
7.15171288075467
30
0
41
1
10
69.1529343894823
20
7.14973492105858
30
0
41
1
10
69.5688295512933
20
7.14092586735117
30
0
41
1
10
69.78051895044
20
7.1339124009875
30
0
41
1
10
70.2041092508111
20
7.11489734160688
30
0
41
1
10
70.4159857207216
20
7.10289796071731
30
0
41
1
10
71.051727728681
20
7.05941207105457
30
0
41
1
10
71.4756933322168
20
7.02042537696801
30
0
41
1
10
72.1123425119264
20
6.94696479845143
30
0
41
1
10
72.3246774122884
20
6.91998151413483
30
0
41
1
10
72.7496771278286
20
6.8610278874776
30
0
41
1
10
72.9623403615403
20
6.82905428934257
30
0
41
1
10
73.3882361042548
20
6.76022954936641
30
0
41
1
10
73.6015273782362
20
6.72342183719149
30
0
41
1
10
74.0286890872303
20
6.64493211519351
30
0
41
1
10
74.2425576916571
20
6.60324645780645
30
0
41
1
10
74.5638217188524
20
6.53703780450633
30
0
41
1
10
74.6709883016131
20
6.51435611347449
30
0
41
1
10
74.8854899741506
20
6.46776974576821
30
0
41
1
10
74.9928742368834
20
6.44385366200811
30
0
41
1
10
75.3149496344678
20
6.37035298502155
30
0
41
1
10
75.5292614611608
20
6.31908850976055
30
0
41
1
10
75.9571658144172
20
6.21214528042665
30
0
41
1
10
76.1707552984786
20
6.15646233081927
30
0
41
1
10
76.5973994419098
20
6.04090000591663
30
0
41
1
10
76.8105145132196
20
5.98108746355106
30
0
41
1
10
77.4492867945883
20
5.79568214195587
30
0
41
1
10
77.8742200052074
20
5.66395222660813
30
0
41
1
10
78.7226946486767
20
5.38486508966398
30
0
41
1
10
79.1462418460631
20
5.23750489952019
30
0
41
1
10
79.7812199623509
20
5.00566390489388
30
0
41
1
10
79.9928476106231
20
4.92661830401423
30
0
41
1
10
80.4162910223537
20
4.76537664285448
30
0
41
1
10
80.6280522074193
20
4.68310405690715
30
0
41
1
10
81.263402408092
20
4.43125376732618
30
0
41
1
10
81.687071969775
20
4.25665988625062
30
0
41
1
10
82.3232542206852
20
3.98544351276141
30
0
41
1
10
82.5354230821702
20
3.89347530725502
30
0
41
1
10
82.9601056301772
20
3.70660268873718
30
0
41
1
10
83.1726079298496
20
3.61167647237656
30
0
41
1
10
83.5982820798926
20
3.41944041173309
30
0
41
1
10
83.8114229050672
20
3.32208023348298
30
0
41
1
10
84.2382398238339
20
3.12472932077705
30
0
41
1
10
84.4519150159268
20
3.02473528697681
30
0
41
1
10
84.8798799811921
20
2.82222144428602
30
0
41
1
10
85.0941705562969
20
2.719703023715
30
0
41
1
10
85.5234635516187
20
2.51228031037653
30
0
41
1
10
85.737741043854
20
2.40772388062183
30
0
41
1
10
86.1655284572807
20
2.19718221813554
30
0
41
1
10
86.3790554121016
20
2.09117761414595
30
0
41
1
10
86.8056460560081
20
1.87823208798523
30
0
41
1
10
87.0187540458301
20
1.77137824921766
30
0
41
1
10
87.6573491411364
20
1.44934602395935
30
0
41
1
10
88.0820862725989
20
1.23265541010125
30
0
41
1
10
88.7181490951043
20
0.905494107738264
30
0
41
1
10
88.9300010944002
20
0.796095684077955
30
0
41
1
10
89.3534532821692
20
0.576778807125521
30
0
41
1
10
89.5650518090314
20
0.4668570781607
30
0
41
1
10
90.1997467390671
20
0.136856884068834
30
0
41
1
10
90.6230200610653
20
-0.0829103569515155
30
0
41
1
10
91.4696367812218
20
-0.522404863669522
30
0
41
1
10
91.8930292397711
20
-0.742035702490512
30
0
41
1
10
92.7406866848411
20
-1.17967903881029
30
0
41
1
10
93.1648706277971
20
-1.39785128499921
30
0
41
1
10
93.8030366111343
20
-1.72146291093009
30
0
41
1
10
94.0160266235088
20
-1.82881818828375
30
0
41
1
10
94.4425160745789
20
-2.04255081193003
30
0
41
1
10
94.6560203308167
20
-2.14891867437137
30
0
41
1
10
95.083638408133
20
-2.36047943517693
30
0
41
1
10
95.2977515026184
20
-2.46567376605515
30
0
41
1
10
95.6194507721709
20
-2.62244147630497
30
0
41
1
10
95.7266956258433
20
-2.67448925959718
30
0
41
1
10
95.9408901042195
20
-2.77798983014313
30
0
41
1
10
96.0478886663067
20
-2.829467074999
30
0
41
1
10
96.3686246914764
20
-2.9830154649577
30
0
41
1
10
96.5820862354121
20
-3.08423160451093
30
0
41
1
10
97.0086294568335
20
-3.28376961840814
30
0
41
1
10
97.2216707336216
20
-3.38216974286129
30
0
41
1
10
97.8600222893263
20
-3.67346136544035
30
0
41
1
10
98.2845507014735
20
-3.86245530282665
30
0
41
1
10
98.9202994279347
20
-4.13732947609248
30
0
41
1
10
99.1320410113511
20
-4.2275189356117
30
0
41
1
10
99.5552740479395
20
-4.40486963287998
30
0
41
1
10
99.7667602715781
20
-4.49203737762576
30
0
41
1
10
100.189743637113
20
-4.66294972681226
30
0
41
1
10
100.401280205004
20
-4.74663842606589
30
0
41
1
10
100.824330070334
20
-4.91066794941477
30
0
41
1
10
101.035844689003
20
-4.99100523249749
30
0
41
1
10
101.67042847051
20
-5.22687191225302
30
0
41
1
10
102.093556012645
20
-5.37722894400048
30
0
41
1
10
102.728884717062
20
-5.59161683260922
30
0
41
1
10
102.940765415774
20
-5.66122270477351
30
0
41
1
10
103.364922391202
20
-5.79647028782634
30
0
41
1
10
103.577259959918
20
-5.86203954008602
30
0
41
1
10
104.215068699968
20
-6.05256252063529
30
0
41
1
10
104.641203473663
20
-6.17148591412365
30
0
41
1
10
105.282168099624
20
-6.33712796594259
30
0
41
1
10
105.496125375371
20
-6.39020788869169
30
0
41
1
10
105.817587288322
20
-6.46651991026573
30
0
41
1
10
105.924796651204
20
-6.49139852039599
30
0
41
1
10
106.138899116034
20
-6.53992159692049
30
0
41
1
10
106.245854219331
20
-6.56357976495912
30
0
41
1
10
106.566465868765
20
-6.63272335881643
30
0
41
1
10
106.779887956279
20
-6.67636016464274
30
0
41
1
10
107.206307927933
20
-6.75862428963495
30
0
41
1
10
107.41925895123
20
-6.79729019684322
30
0
41
1
10
108.057304800255
20
-6.90597249000308
30
0
41
1
10
108.481614263534
20
-6.9686525312828
30
0
41
1
10
109.117025797786
20
-7.04780619324595
30
0
41
1
10
109.328648192343
20
-7.07171500044362
30
0
41
1
10
109.751665312964
20
-7.1145298598079
30
0
41
1
10
109.963050862251
20
-7.13343631045939
30
0
41
1
10
110.385913309712
20
-7.16616870816105
30
0
41
1
10
110.597349130164
20
-7.1800120740842
30
0
41
1
10
111.020175163422
20
-7.20268155759965
30
0
41
1
10
111.231563772273
20
-7.21150596960911
30
0
41
1
10
111.865777145486
20
-7.23040977466746
30
0
41
1
10
112.288646359338
20
-7.23291914620327
30
0
41
1
10
112.923591088846
20
-7.22137513507508
30
0
41
1
10
113.135343129887
20
-7.21497299783289
30
0
41
1
10
113.559317286377
20
-7.19707575169869
30
0
41
1
10
113.771580759028
20
-7.18559328564356
30
0
41
1
10
114.409043263586
20
-7.14350275039516
30
0
41
1
10
114.83489282103
20
-7.10523781733383
30
0
41
1
10
115.475451414026
20
-7.03238352471831
30
0
41
1
10
115.689273308782
20
-7.00552388546987
30
0
41
1
10
116.0105296668
20
-6.96135463067998
30
0
41
1
10
116.11768483983
20
-6.94598610643757
30
0
41
1
10
116.331681510083
20
-6.91404128471589
30
0
41
1
10
116.43858558758
20
-6.8974561185068
30
0
41
1
10
116.972699576428
20
-6.81152114648501
30
0
41
1
10
117.398945000107
20
-6.73333269914176
30
0
41
1
10
118.249209563622
20
-6.55834601391226
30
0
41
1
10
118.673281487577
20
-6.46156698353153
30
0
41
1
10
119.520014930513
20
-6.25015276361057
30
0
41
1
10
119.942605795363
20
-6.13542537787345
30
0
41
1
10
120.576646348557
20
-5.95126137980671
30
0
41
1
10
120.787972435024
20
-5.88781805733151
30
0
41
1
10
121.210560197516
20
-5.75679998231675
30
0
41
1
10
121.421827384362
20
-5.68923035058964
30
0
41
1
10
121.896791743126
20
-5.53280362911116
30
0
41
1
10
122.160491360797
20
-5.44281416822881
30
0
41
1
10
122.424308327158
20
-5.34978618360225
30
0
0
SPLINE
5
104
100
AcDbEntity
8
1
62
256
6
ByLayer
370
18
48
1
60
0
100
AcDbSpline
70
4
71
3
72
60
73
56
40
0
40
0
40
0
40
0
40
0.0173197630801982
40
0.0173197630801982
40
0.032674141782068
40
0.032674141782068
40
0.048028520483937
40
0.048028520483937
40
0.0787372778876794
40
0.0787372778876794
40
0.140154792695163
40
0.140154792695163
40
0.201572307502646
40
0.201572307502646
40
0.232281064906387
40
0.232281064906387
40
0.262989822310127
40
0.262989822310127
40
0.324407337117607
40
0.324407337117607
40
0.355116094521345
40
0.355116094521345
40
0.385824851925084
40
0.385824851925084
40
0.416533609328822
40
0.416533609328822
40
0.447242366732561
40
0.447242366732561
40
0.50865988154004
40
0.50865988154004
40
0.524014260241912
40
0.524014260241912
40
0.539368638943783
40
0.539368638943783
40
0.570077396347529
40
0.570077396347529
40
0.631494911155022
40
0.631494911155022
40
0.692912425962514
40
0.692912425962514
40
0.72362118336626
40
0.72362118336626
40
0.754329940770007
40
0.754329940770007
40
0.815747455577503
40
0.815747455577503
40
0.846456212981252
40
0.846456212981252
40
0.877164970385002
40
0.877164970385002
40
0.907873727788752
40
0.907873727788752
40
0.938582485192501
40
0.938582485192501
40
1
40
1
40
1
40
1
41
1
10
155.622386898869
20
7.30772694127461
30
0
41
1
10
155.742417252273
20
7.30795544393811
30
0
41
1
10
155.862538191604
20
7.30735746800178
30
0
41
1
10
156.08933580314
20
7.30466025569106
30
0
41
1
10
156.195990476918
20
7.30273887857595
30
0
41
1
10
156.40947597269
20
7.29758203078242
30
0
41
1
10
156.516341427636
20
7.2943453012156
30
0
41
1
10
156.837008694525
20
7.28266570786627
30
0
41
1
10
157.050457962021
20
7.27228039304251
30
0
41
1
10
157.689940349738
20
7.23346821620154
30
0
41
1
10
158.11495844188
20
7.1973556626883
30
0
41
1
10
158.962868557095
20
7.10507209492934
30
0
41
1
10
159.385769004433
20
7.04889250878293
30
0
41
1
10
160.019205327482
20
6.94998411481629
30
0
41
1
10
160.23021427836
20
6.91458283491227
30
0
41
1
10
160.652222891143
20
6.83911716101207
30
0
41
1
10
160.863175227457
20
6.7990251782432
30
0
41
1
10
161.495844928469
20
6.67166920452752
30
0
41
1
10
161.917382236935
20
6.57732533089393
30
0
41
1
10
162.549846856121
20
6.42201265844804
30
0
41
1
10
162.760691418145
20
6.36793868615084
30
0
41
1
10
163.182541690558
20
6.25527137406203
30
0
41
1
10
163.393536121825
20
6.19666422435205
30
0
41
1
10
163.815976118816
20
6.07521858797787
30
0
41
1
10
164.027412648284
20
6.01237558280744
30
0
41
1
10
164.450656778643
20
5.88237205533196
30
0
41
1
10
164.66246343412
20
5.81520861917116
30
0
41
1
10
165.298547443413
20
5.60730718666312
30
0
41
1
10
165.723494576451
20
5.46016476680006
30
0
41
1
10
166.256262180543
20
5.26591272351789
30
0
41
1
10
166.362896084413
20
5.22654766188478
30
0
41
1
10
166.5763471075
20
5.14681315787911
30
0
41
1
10
166.683225936948
20
5.10641556182927
30
0
41
1
10
167.003620467165
20
4.98399890853645
30
0
41
1
10
167.216926722283
20
4.90083275371265
30
0
41
1
10
167.855903750849
20
4.64661102710389
30
0
41
1
10
168.280582737636
20
4.47075419147484
30
0
41
1
10
169.127920018106
20
4.1073135843549
30
0
41
1
10
169.550563809278
20
3.91970164968467
30
0
41
1
10
170.183727550052
20
3.63068599187193
30
0
41
1
10
170.39469884904
20
3.53316594464701
30
0
41
1
10
170.816589779985
20
3.33597351984523
30
0
41
1
10
171.027478629928
20
3.23624927481293
30
0
41
1
10
171.659973113971
20
2.93369301500403
30
0
41
1
10
172.081433890353
20
2.72752300962045
30
0
41
1
10
172.713848440783
20
2.41247147524234
30
0
41
1
10
172.92468424206
20
2.30647643827893
30
0
41
1
10
173.346560168304
20
2.09278182865492
30
0
41
1
10
173.557597699339
20
1.98507652853542
30
0
41
1
10
173.980167160545
20
1.7685015251484
30
0
41
1
10
174.191654810791
20
1.65955027114597
30
0
41
1
10
174.615012324958
20
1.44026735731669
30
0
41
1
10
174.826881797609
20
1.32993426970188
30
0
41
1
10
175.463196368709
20
0.997092830880462
30
0
41
1
10
175.888338317455
20
0.772723777695944
30
0
41
1
10
176.314811641215
20
0.546579463596373
30
0
0
SPLINE
5
105
100
AcDbEntity
8
1
62
256
6
ByLayer
370
18
48
1
60
0
100
AcDbSpline
70
4
71
3
72
53
73
49
40
0
40
0
40
0
40
0
40
0.0519102988344017
40
0.0519102988344017
40
0.103820597668803
40
0.103820597668803
40
0.155730896503205
40
0.155730896503205
40
0.207641195337607
40
0.207641195337607
40
0.259551494172008
40
0.259551494172008
40
0.31146179300641
40
0.31146179300641
40
0.363372091840811
40
0.363372091840811
40
0.376349666549413
40
0.376349666549413
40
0.389327241258015
40
0.415282390675218
40
0.415282390675218
40
0.467192689509625
40
0.467192689509625
40
0.519102988344031
40
0.519102988344031
40
0.571013287178438
40
0.571013287178438
40
0.622923586012845
40
0.622923586012845
40
0.674833884847251
40
0.674833884847251
40
0.726744183681658
40
0.726744183681658
40
0.752699333098861
40
0.752699333098861
40
0.765676907807463
40
0.765676907807463
40
0.778654482516065
40
0.778654482516065
40
0.830564781350471
40
0.830564781350471
40
0.882475080184878
40
0.882475080184878
40
0.934385379019284
40
0.934385379019284
40
0.986295677853691
40
0.986295677853691
40
1
40
1
40
1
40
1
41
1
10
105.549639761433
20
2.6144540385655
30
0
41
1
10
105.083838415161
20
2.84044878437908
30
0
41
1
10
104.619699385634
20
3.06106159585676
30
0
41
1
10
103.693847319803
20
3.490161580007
30
0
41
1
10
103.23214692529
20
3.69866567165136
30
0
41
1
10
102.310064911114
20
4.10182353281428
30
0
41
1
10
101.849698926614
20
4.29650765305135
30
0
41
1
10
100.929385933858
20
4.67070938546652
30
0
41
1
10
100.469469833304
20
4.85027326285135
30
0
41
1
10
99.5491285490253
20
5.19286114968389
30
0
41
1
10
99.0886751570737
20
5.35584617673356
30
0
41
1
10
98.166249650321
20
5.66383810228214
30
0
41
1
10
97.7042679194861
20
5.80883554574532
30
0
41
1
10
96.7779258789157
20
6.07961161632548
30
0
41
1
10
96.3135405888789
20
6.20535586871785
30
0
41
1
10
95.7308475471083
20
6.34954776094887
30
0
41
1
10
95.6141239176285
20
6.37775523759674
30
0
41
1
10
95.3808919111319
20
6.43274819742561
30
0
41
1
10
95.0313695331645
20
6.51310680846618
30
0
41
1
10
94.6827499303395
20
6.58704671431235
30
0
41
1
10
93.9865437549688
20
6.72632015527714
30
0
41
1
10
93.5238165252966
20
6.80771438916895
30
0
41
1
10
92.6000884755211
20
6.94719919284773
30
0
41
1
10
92.139080085917
20
7.00528982537216
30
0
41
1
10
91.2178273592554
20
7.09794414925307
30
0
41
1
10
90.7575836093476
20
7.13251120732488
30
0
41
1
10
89.8370205913853
20
7.17792922858598
30
0
41
1
10
89.3766521399264
20
7.18876543791339
30
0
41
1
10
88.4547424471026
20
7.18653410354929
30
0
41
1
10
87.9932046864216
20
7.17347016861999
30
0
41
1
10
87.0680639445595
20
7.12331254061911
30
0
41
1
10
86.6044957034571
20
7.0862041299267
30
0
41
1
10
85.9067878102783
20
7.01245712409477
30
0
41
1
10
85.673827163112
20
6.9848619380852
30
0
41
1
10
85.3237087006675
20
6.93894500079483
30
0
41
1
10
85.2069625910902
20
6.92289401849482
30
0
41
1
10
84.9738052305657
20
6.88937423390217
30
0
41
1
10
84.8573310407671
20
6.87189730246894
30
0
41
1
10
84.2754456966666
20
6.78096777988839
30
0
41
1
10
83.811506918086
20
6.69687057697556
30
0
41
1
10
82.8858072959221
20
6.50699517818077
30
0
41
1
10
82.4240062521074
20
6.40124808632405
30
0
41
1
10
81.501527149125
20
6.16923482111289
30
0
41
1
10
81.0408407940621
20
6.04297990359436
30
0
41
1
10
80.1197368501997
20
5.77094508474289
30
0
41
1
10
79.659323327387
20
5.62515360977378
30
0
41
1
10
79.076840618346
20
5.42934222067822
30
0
41
1
10
78.9551552525672
20
5.38780800346353
30
0
41
1
10
78.8334338164832
20
5.3456473129236
30
0
0
SPLINE
5
106
100
AcDbEntity
8
1
62
256
6
ByLayer
370
18
48
1
60
0
100
AcDbSpline
70
4
71
3
72
57
73
53
40
0
40
0
40
0
40
0
40
0.033629681175508
40
0.033629681175508
40
0.0457093101608134
40
0.0457093101608134
40
0.0577889391461188
40
0.0577889391461188
40
0.0819481971167295
40
0.0819481971167295
40
0.130266713057953
40
0.130266713057953
40
0.178585228999175
40
0.178585228999175
40
0.226903744940398
40
0.226903744940398
40
0.275222260881621
40
0.275222260881621
40
0.323540776822844
40
0.323540776822844
40
0.371859292764067
40
0.371859292764067
40
0.396018550734679
40
0.396018550734679
40
0.408098179719985
40
0.408098179719985
40
0.420177808705291
40
0.420177808705291
40
0.468496324646516
40
0.468496324646516
40
0.516814840587742
40
0.516814840587742
40
0.565133356528967
40
0.565133356528967
40
0.613451872470192
40
0.613451872470192
40
0.661770388411417
40
0.661770388411417
40
0.710088904352643
40
0.710088904352643
40
0.758407420293868
40
0.758407420293868
40
0.770487049279175
40
0.770487049279175
40
0.782566678264482
40
0.806725936235095
40
0.806725936235095
40
0.903362968117547
40
0.903362968117547
40
0.951681484058774
40
0.951681484058774
40
1
40
1
40
1
40
1
41
1
10
45.4326488573142
20
-7.10938529489201
30
0
41
1
10
45.1089022039958
20
-7.10880419957672
30
0
41
1
10
44.784484135852
20
-7.10239212809094
30
0
41
1
10
44.3424028630782
20
-7.08566528672313
30
0
41
1
10
44.2254007575408
20
-7.08048095361252
30
0
41
1
10
43.9914917866931
20
-7.06860236288526
30
0
41
1
10
43.8746471738092
20
-7.06191228339878
30
0
41
1
10
43.5244241392978
20
-7.03960581763869
30
0
41
1
10
43.2913620846899
20
-7.0217511962598
30
0
41
1
10
42.5932130117857
20
-6.95938487700141
30
0
41
1
10
42.1291471619675
20
-6.90607662262289
30
0
41
1
10
41.2027627217522
20
-6.77680670731965
30
0
41
1
10
40.7404374651465
20
-6.70085249121462
30
0
41
1
10
39.8166783489247
20
-6.52704342089427
30
0
41
1
10
39.3552557007267
20
-6.42917255330667
30
0
41
1
10
38.432227991472
20
-6.21246245708952
30
0
41
1
10
37.9706377066252
20
-6.09361535642469
30
0
41
1
10
37.0463943989403
20
-5.83579792143721
30
0
41
1
10
36.5837730267273
20
-5.69679106836182
30
0
41
1
10
35.6565383732772
20
-5.39953756381791
30
0
41
1
10
35.1918987520862
20
-5.24132549193396
30
0
41
1
10
34.4926801192278
20
-4.99038283890042
30
0
41
1
10
34.2592299377621
20
-4.90446607043825
30
0
41
1
10
33.9084035488764
20
-4.77227419848074
30
0
41
1
10
33.7912872458115
20
-4.72763180686127
30
0
41
1
10
33.5573598747152
20
-4.63746107991906
30
0
41
1
10
33.4405061119313
20
-4.59191630329249
30
0
41
1
10
32.8567502781325
20
-4.36196175490159
30
0
41
1
10
32.3913564171631
20
-4.17090834677057
30
0
41
1
10
31.4627169732353
20
-3.77657719251212
30
0
41
1
10
30.9994821581781
20
-3.57328286062361
30
0
41
1
10
30.0742743749855
20
-3.15612543639992
30
0
41
1
10
29.6123420051725
20
-2.94218809541195
30
0
41
1
10
28.6887543563089
20
-2.50557408565763
30
0
41
1
10
28.2270945702045
20
-2.2829073890673
30
0
41
1
10
27.303120610938
20
-1.83059910311806
30
0
41
1
10
26.8408117153532
20
-1.60094833321807
30
0
41
1
10
25.914702255776
20
-1.13625187560035
30
0
41
1
10
25.4508538455878
20
-0.901299755801432
30
0
41
1
10
24.5205753070543
20
-0.428104141213566
30
0
41
1
10
24.0541450192887
20
-0.189862418293387
30
0
41
1
10
23.4689290252612
20
0.108909817592377
30
0
41
1
10
23.3517673102796
20
0.168720583153345
30
0
41
1
10
23.1177121497123
20
0.288160409143075
30
0
41
1
10
22.7668438827845
20
0.46713831279132
30
0
41
1
10
22.4165261244874
20
0.645388463433363
30
0
41
1
10
21.2496926979935
20
1.2372997646778
30
0
41
1
10
20.3190668089582
20
1.70358176189049
30
0
41
1
10
18.9218814782153
20
2.38159957415266
30
0
41
1
10
18.4559071047605
20
2.60396524578036
30
0
41
1
10
17.5224729937557
20
3.03953796978664
30
0
41
1
10
17.0549967419547
20
3.25271629559407
30
0
41
1
10
16.5863443551029
20
3.46049511302556
30
0
0
SPLINE
5
107
100
AcDbEntity
8
1
62
256
6
ByLayer
370
18
48
1
60
0
100
AcDbSpline
70
4
71
3
72
51
73
47
40
0
40
0
40
0
40
0
40
0.0814067065403032
40
0.0814067065403032
40
0.162813413080606
40
0.162813413080606
40
0.203516766350758
40
0.203516766350758
40
0.24422011962091
40
0.24422011962091
40
0.325626826161213
40
0.325626826161213
40
0.345978502796287
40
0.345978502796287
40
0.366330179431362
40
0.366330179431362
40
0.407033532701513
40
0.407033532701513
40
0.488440239241814
40
0.488440239241814
40
0.529143592511963
40
0.529143592511963
40
0.5393194308295
40
0.5393194308295
40
0.549495269147037
40
0.569846945782112
40
0.651253652322411
40
0.651253652322411
40
0.69195700559256
40
0.69195700559256
40
0.712308682227635
40
0.712308682227635
40
0.722484520545173
40
0.722484520545173
40
0.732660358862711
40
0.814067065403024
40
0.814067065403024
40
0.895473771943336
40
0.895473771943336
40
0.905649610260876
40
0.905649610260876
40
0.915825448578416
40
0.936177125213497
40
0.976880478483661
40
0.976880478483661
40
1
40
1
40
1
40
1
41
1
10
105.549639761433
20
2.71707084100666
30
0
41
1
10
106.287622953004
20
2.36198068825777
30
0
41
1
10
107.023850253079
20
1.99606210000187
30
0
41
1
10
108.496666302081
20
1.2497858195737
30
0
41
1
10
109.233250124375
20
0.869417275370495
30
0
41
1
10
110.341402624156
20
0.293671727880678
30
0
41
1
10
110.710302825176
20
0.10143977689313
30
0
41
1
10
111.447380558637
20
-0.282481524538923
30
0
41
1
10
111.815605110034
20
-0.474196632376021
30
0
41
1
10
112.920028262753
20
-1.04727631579959
30
0
41
1
10
113.655967438321
20
-1.4265911824821
30
0
41
1
10
114.577948050248
20
-1.89254673255255
30
0
41
1
10
114.762447692743
20
-1.98532720037508
30
0
41
1
10
115.131718330532
20
-2.1699439015926
30
0
41
1
10
115.316311920775
20
-2.26169100615962
30
0
41
1
10
115.869604403895
20
-2.53485000493888
30
0
41
1
10
116.238010713558
20
-2.71427085828901
30
0
41
1
10
117.342579980598
20
-3.24323527867236
30
0
41
1
10
118.078074987492
20
-3.58350695217231
30
0
41
1
10
119.183030936352
20
-4.070123795277
30
0
41
1
10
119.551639269919
20
-4.22835892085277
30
0
41
1
10
120.013071876254
20
-4.42066360385164
30
0
41
1
10
120.105387358483
20
-4.45884784763183
30
0
41
1
10
120.289905757594
20
-4.53457745641393
30
0
41
1
10
120.566584514554
20
-4.64724284512874
30
0
41
1
10
121.580120888641
20
-5.04994771070349
30
0
41
1
10
122.499435316818
20
-5.38345787142146
30
0
41
1
10
123.603442745363
20
-5.74866961520192
30
0
41
1
10
123.971582698353
20
-5.86457339281398
30
0
41
1
10
124.524394003017
20
-6.0291708062197
30
0
41
1
10
124.708765172014
20
-6.08249316112952
30
0
41
1
10
124.985524686014
20
-6.16009744061705
30
0
41
1
10
125.077818965812
20
-6.18557074751791
30
0
41
1
10
125.262296701864
20
-6.23566384747843
30
0
41
1
10
126.092156928249
20
-6.45729776797572
30
0
41
1
10
126.919663960176
20
-6.64468919545999
30
0
41
1
10
128.390915532286
20
-6.92086918561304
30
0
41
1
10
129.126617595527
20
-7.030460249264
30
0
41
1
10
129.956662096789
20
-7.12010935402586
30
0
41
1
10
130.048937091039
20
-7.12960463132058
30
0
41
1
10
130.233379461618
20
-7.14763914717904
30
0
41
1
10
130.509941273314
20
-7.17326378811609
30
0
41
1
10
131.15462195277
20
-7.22305626353321
30
0
41
1
10
131.706409788191
20
-7.24856672731968
30
0
41
1
10
132.283053826712
20
-7.26324093619954
30
0
41
1
10
132.491906197283
20
-7.26608860151993
30
0
41
1
10
132.700770319433
20
-7.26646683172152
30
0
0
SPLINE
5
108
100
AcDbEntity
8
1
62
256
6
ByLayer
370
18
48
1
60
0
100
AcDbSpline
70
4
71
3
72
25
73
21
40
0
40
0
40
0
40
0
40
0.138858961519669
40
0.138858961519669
40
0.354144221139774
40
0.354144221139774
40
0.407965536044796
40
0.407965536044796
40
0.461786850949818
40
0.569429480759855
40
0.569429480759855
40
0.677072110569891
40
0.677072110569891
40
0.730893425474909
40
0.730893425474909
40
0.784714740379927
40
0.784714740379927
40
0.892357370189963
40
0.892357370189963
40
1
40
1
40
1
40
1
41
1
10
165.961406575477
20
5.3877756593557
30
0
41
1
10
166.435377752223
20
5.55798546534999
30
0
41
1
10
166.908824299963
20
5.71864663924717
30
0
41
1
10
168.11633907148
20
6.10240223589111
30
0
41
1
10
168.850425241366
20
6.31119339865012
30
0
41
1
10
169.770655063462
20
6.53863126791836
30
0
41
1
10
169.954819577093
20
6.58243663772458
30
0
41
1
10
170.322836366581
20
6.66648460099108
30
0
41
1
10
170.874632449901
20
6.7872719331572
30
0
41
1
10
171.426021619068
20
6.89201990520493
30
0
41
1
10
172.161310195181
20
7.0171141641668
30
0
41
1
10
172.529006308635
20
7.07237552449817
30
0
41
1
10
173.081001563604
20
7.1440875775767
30
0
41
1
10
173.265124001437
20
7.16613246430444
30
0
41
1
10
173.633087596472
20
7.2064031182498
30
0
41
1
10
173.816978593437
20
7.22463655461794
30
0
41
1
10
174.368481254272
20
7.27360428974933
30
0
41
1
10
174.735929170525
20
7.29860094785741
30
0
41
1
10
175.4710063611
20
7.33318449051598
30
0
41
1
10
175.838629210108
20
7.34277819599356
30
0
41
1
10
176.206531372895
20
7.34463911873678
30
0
0
SPLINE
5
109
100
AcDbEntity
8
1
62
256
6
ByLayer
370
18
48
1
60
0
100
AcDbSpline
70
4
71
3
72
116
73
112
40
0
40
0
40
0
40
0
40
0.06249999999993
40
0.06249999999993
40
0.12499999999986
40
0.12499999999986
40
0.156249999999825
40
0.156249999999825
40
0.187499999999789
40
0.187499999999789
40
0.249999999999718
40
0.249999999999718
40
0.281249999999683
40
0.281249999999683
40
0.296874999999665
40
0.296874999999665
40
0.300781249999661
40
0.300781249999661
40
0.301757812499661
40
0.301757812499661
40
0.30273437499966
40
0.30273437499966
40
0.304687499999659
40
0.304687499999659
40
0.305664062499658
40
0.305664062499658
40
0.306640624999658
40
0.306640624999658
40
0.307128906249659
40
0.307128906249659
40
0.307617187499659
40
0.307617187499659
40
0.30859374999966
40
0.30859374999966
40
0.312499999999662
40
0.312499999999662
40
0.343749999999678
40
0.343749999999678
40
0.374999999999695
40
0.374999999999695
40
0.390624999999703
40
0.390624999999703
40
0.398437499999708
40
0.398437499999708
40
0.406249999999712
40
0.406249999999712
40
0.43749999999973
40
0.43749999999973
40
0.468749999999748
40
0.468749999999748
40
0.484374999999757
40
0.484374999999757
40
0.499999999999766
40
0.499999999999766
40
0.503906249999768
40
0.503906249999768
40
0.50781249999977
40
0.515624999999774
40
0.515624999999774
40
0.531249999999781
40
0.531249999999781
40
0.546874999999788
40
0.546874999999788
40
0.554687499999792
40
0.554687499999792
40
0.562499999999795
40
0.562499999999795
40
0.593749999999809
40
0.593749999999809
40
0.597656249999811
40
0.597656249999811
40
0.601562499999812
40
0.601562499999812
40
0.609374999999816
40
0.609374999999816
40
0.624999999999823
40
0.624999999999823
40
0.64062499999983
40
0.64062499999983
40
0.644531249999832
40
0.644531249999832
40
0.648437499999833
40
0.656249999999837
40
0.656249999999837
40
0.671874999999843
40
0.671874999999843
40
0.68749999999985
40
0.68749999999985
40
0.703124999999856
40
0.703124999999856
40
0.71093749999986
40
0.71093749999986
40
0.718749999999863
40
0.718749999999863
40
0.749999999999878
40
0.749999999999878
40
0.781249999999893
40
0.781249999999893
40
0.812499999999908
40
0.812499999999908
40
0.828124999999915
40
0.828124999999915
40
0.843749999999923
40
0.843749999999923
40
0.874999999999938
40
0.874999999999938
40
0.906249999999954
40
0.906249999999954
40
0.937499999999969
40
0.937499999999969
40
1
40
1
40
1
40
1
41
1
10
16.586292917049
20
3.46049849093745
30
0
41
1
10
16.190356998809
20
3.63639122908145
30
0
41
1
10
15.7917145650627
20
3.80216328292215
30
0
41
1
10
14.9871714342352
20
4.11210101136103
30
0
41
1
10
14.5812717936598
20
4.25627235219028
30
0
41
1
10
13.9657556469083
20
4.45584895337726
30
0
41
1
10
13.7594398984327
20
4.51960676890664
30
0
41
1
10
13.3453071523078
20
4.64134594199672
30
0
41
1
10
13.137386745018
20
4.69936500725129
30
0
41
1
10
12.5108863934996
20
4.86501971845638
30
0
41
1
10
12.0895616374066
20
4.96424615049864
30
0
41
1
10
11.45153698649
20
5.09716079220385
30
0
41
1
10
11.2377941060026
20
5.13882657635924
30
0
41
1
10
10.9158594899445
20
5.19743442987593
30
0
41
1
10
10.8083398204287
20
5.21632038488326
30
0
41
1
10
10.6736918753786
20
5.2391283942338
30
0
41
1
10
10.6467499401829
20
5.24365010012303
30
0
41
1
10
10.6130572451724
20
5.24925245331619
30
0
41
1
10
10.6063206104955
20
5.25038745297968
30
0
41
1
10
10.5928384276269
20
5.25258795850127
30
0
41
1
10
10.5860829139479
20
5.25358667646327
30
0
41
1
10
10.5656993203555
20
5.25576254431627
30
0
41
1
10
10.5519810495165
20
5.25630792981977
30
0
41
1
10
10.5311371614459
20
5.25526104023552
30
0
41
1
10
10.5240925234957
20
5.25458739777818
30
0
41
1
10
10.5104597415739
20
5.25255463004862
30
0
41
1
10
10.5038216810795
20
5.25118474370834
30
0
41
1
10
10.4942172887197
20
5.24842897621284
30
0
41
1
10
10.491072956498
20
5.2473968097805
30
0
41
1
10
10.4848719546077
20
5.24515765076788
30
0
41
1
10
10.481849694627
20
5.24389437304996
30
0
41
1
10
10.4728803414646
20
5.24005901331896
30
0
41
1
10
10.466916238707
20
5.23748367954323
30
0
41
1
10
10.4370758983468
20
5.22461610037141
30
0
41
1
10
10.4132418156462
20
5.21424547909038
30
0
41
1
10
10.1990857461213
20
5.12020744247374
30
0
41
1
10
10.0111635063043
20
5.03161082686117
30
0
41
1
10
9.64222231128051
20
4.8432242293091
30
0
41
1
10
9.46111807404466
20
4.7434164776391
30
0
41
1
10
9.19540464886339
20
4.5835877325444
30
0
41
1
10
9.10782710187954
20
4.52861961808489
30
0
41
1
10
8.97809770572871
20
4.44335268810758
30
0
41
1
10
8.93509396660789
20
4.414436933117
30
0
41
1
10
8.8498961621097
20
4.35577644350911
30
0
41
1
10
8.80768978779557
20
4.32602478360758
30
0
41
1
10
8.59869846031995
20
4.17506719622085
30
0
41
1
10
8.43799822474213
20
4.04730585029756
30
0
41
1
10
8.13210911783557
20
3.77482089107761
30
0
41
1
10
7.9868931301051
20
3.63012820565913
30
0
41
1
10
7.78356253298065
20
3.39702989922327
30
0
41
1
10
7.71821368907391
20
3.3166396367096
30
0
41
1
10
7.59307153104538
20
3.14966563258861
30
0
41
1
10
7.53327510318923
20
3.06308545479945
30
0
41
1
10
7.46257996520961
20
2.95032023997251
30
0
41
1
10
7.44862741431402
20
2.92751040489861
30
0
41
1
10
7.42127479911989
20
2.88163353044806
30
0
41
1
10
7.38104555784352
20
2.81239009756567
30
0
41
1
10
7.34326086193829
20
2.74183625111976
30
0
41
1
10
7.27108606583292
20
2.59890434854827
30
0
41
1
10
7.22748908691344
20
2.50118770483147
30
0
41
1
10
7.15019471883431
20
2.30041069177059
30
0
41
1
10
7.11649467998166
20
2.19735176189749
30
0
41
1
10
7.07419284709474
20
2.03829408534745
30
0
41
1
10
7.06145606688415
20
1.98441828724697
30
0
41
1
10
7.03916194928371
20
1.87651819953521
30
0
41
1
10
7.02955748545037
20
1.82234102739943
30
0
41
1
10
6.9892570915367
20
1.55031488596566
30
0
41
1
10
6.98164684148492
20
1.32905481616106
30
0
41
1
10
7.00159205445553
20
1.07589333704868
30
0
41
1
10
7.00420538827038
20
1.04770518003733
30
0
41
1
10
7.01023146014688
20
0.99120985411102
30
0
41
1
10
7.01364671111816
20
0.962896583356269
30
0
41
1
10
7.02501088453525
20
0.878363292452917
30
0
41
1
10
7.03409655251198
20
0.822353361902799
30
0
41
1
10
7.06567962820071
20
0.655313859667302
30
0
41
1
10
7.09249646874673
20
0.545273029768452
30
0
41
1
10
7.15675629296271
20
0.327623857790456
30
0
41
1
10
7.19420102682804
20
0.220015922957543
30
0
41
1
10
7.24721050726907
20
0.0869266758514584
30
0
41
1
10
7.2581373239378
20
0.0603470070244896
30
0
41
1
10
7.28050714443941
20
0.0075496051388768
30
0
41
1
10
7.31484586043828
20
-0.0711345389661346
30
0
41
1
10
7.35144860597643
20
-0.148340334395698
30
0
41
1
10
7.42746775885854
20
-0.300915008867776
30
0
41
1
10
7.48189167680471
20
-0.400186846358679
30
0
41
1
10
7.59734067360338
20
-0.59442289678023
30
0
41
1
10
7.65836809855861
20
-0.68938557988966
30
0
41
1
10
7.78634150496634
20
-0.875451056382786
30
0
41
1
10
7.85328900762241
20
-0.966552857582514
30
0
41
1
10
7.95774349244718
20
-1.1005771075242
30
0
41
1
10
7.99329096281119
20
-1.14488002303165
30
0
41
1
10
8.06534310014951
20
-1.23224915080931
30
0
41
1
10
8.10184429462248
20
-1.27531641025862
30
0
41
1
10
8.28657160075136
20
-1.4877699473565
30
0
41
1
10
8.44140581207071
20
-1.64858123287334
30
0
41
1
10
8.76227187587989
20
-1.9557501021385
30
0
41
1
10
8.92832439919329
20
-2.10208061071404
30
0
41
1
10
9.26978586257727
20
-2.38273941493083
30
0
41
1
10
9.44520480224071
20
-2.51705460120405
30
0
41
1
10
9.71439053647924
20
-2.71081178595424
30
0
41
1
10
9.80522692596435
20
-2.77416783446674
30
0
41
1
10
9.9879557069867
20
-2.89791050843391
30
0
41
1
10
10.0799263189505
20
-2.95835736101233
30
0
41
1
10
10.3575222774818
20
-3.13576932620305
30
0
41
1
10
10.5448266020779
20
-3.2488187174161
30
0
41
1
10
10.9233535913461
20
-3.46591821684464
30
0
41
1
10
11.1145782330647
20
-3.56996338911273
30
0
41
1
10
11.5005311259088
20
-3.7701362421322
30
0
41
1
10
11.6952605717501
20
-3.86626093726977
30
0
41
1
10
12.2842254270043
20
-4.14402275726181
30
0
41
1
10
12.6832151821876
20
-4.31510326254505
30
0
41
1
10
13.0876393620053
20
-4.47454514870213
30
0
0
SPLINE
5
10A
100
AcDbEntity
8
1
62
256
6
ByLayer
370
18
48
1
60
0
100
AcDbSpline
70
4
71
3
72
74
73
70
40
0
40
0
40
0
40
0
40
0.0252353517695431
40
0.0252353517695431
40
0.0433354789462657
40
0.0433354789462657
40
0.0614356061229882
40
0.0614356061229882
40
0.0795357332997108
40
0.0795357332997108
40
0.0976358604764334
40
0.0976358604764334
40
0.115735987653156
40
0.115735987653156
40
0.117998503550246
40
0.118564132524519
40
0.118564132524519
40
0.118705539768087
40
0.118705539768087
40
0.118846947011655
40
0.118846947011655
40
0.119129761498791
40
0.119129761498791
40
0.120261019447336
40
0.120261019447336
40
0.124786051241517
40
0.124786051241517
40
0.133836114829877
40
0.133836114829877
40
0.170036369183317
40
0.170036369183317
40
0.242436877890197
40
0.242436877890197
40
0.387237895303958
40
0.387237895303958
40
0.459638404010839
40
0.459638404010839
40
0.495838658364279
40
0.495838658364279
40
0.513938785540999
40
0.513938785540999
40
0.532038912717719
40
0.532038912717719
40
0.536563944511899
40
0.536563944511899
40
0.537695202460444
40
0.537695202460444
40
0.53797801694758
40
0.53797801694758
40
0.538260831434716
40
0.538260831434716
40
0.5383315350565
40
0.5383315350565
40
0.538402238678285
40
0.538402238678285
40
0.538543645921853
40
0.53882646040899
40
0.541088976306085
40
0.550139039894465
40
0.568239167071226
40
0.604439421424747
40
0.604439421424747
40
0.676839930131789
40
0.676839930131789
40
0.749240438838831
40
0.749240438838831
40
0.821640947545873
40
0.821640947545873
40
1
40
1
40
1
40
1
41
1
10
16.5863420309157
20
3.46049467689676
30
0
41
1
10
16.519463563987
20
3.44794499375655
30
0
41
1
10
16.4472446085798
20
3.4273810137166
30
0
41
1
10
16.3171710080514
20
3.37677973491779
30
0
41
1
10
16.2609634692898
20
3.35108146552031
30
0
41
1
10
16.1455624618714
20
3.28997776630135
30
0
41
1
10
16.0858624718087
20
3.25483764497329
30
0
41
1
10
15.9596437092861
20
3.17671341948881
30
0
41
1
10
15.8936414136851
20
3.13337565559826
30
0
41
1
10
15.7582930817927
20
3.03850450469713
30
0
41
1
10
15.6886461328066
20
2.98695601106206
30
0
41
1
10
15.5454000359684
20
2.87568925042652
30
0
41
1
10
15.4719398741764
20
2.81589551806979
30
0
41
1
10
15.387669387771
20
2.74365357284964
30
0
41
1
10
15.3759355563985
20
2.73353251091447
30
0
41
1
10
15.3641713879061
20
2.72330614190773
30
0
41
1
10
15.3612289069282
20
2.72074433361175
30
0
41
1
10
15.3612201924363
20
2.71996732183823
30
0
41
1
10
15.3628199779017
20
2.71842629961944
30
0
41
1
10
15.3637844358376
20
2.71771005428869
30
0
41
1
10
15.366721272665
20
2.71558288295586
30
0
41
1
10
15.3687853731742
20
2.7142267661595
30
0
41
1
10
15.3792016305536
20
2.70750179747037
30
0
41
1
10
15.3878819399346
20
2.7023323160079
30
0
41
1
10
15.4312403274703
20
2.67653287406611
30
0
41
1
10
15.4665157975777
20
2.65630972900704
30
0
41
1
10
15.5722621320025
20
2.59556949925465
30
0
41
1
10
15.6430767380815
20
2.55526136043449
30
0
41
1
10
15.9974323538395
20
2.3536523562077
30
0
41
1
10
16.2820114016761
20
2.19226248923491
30
0
41
1
10
17.1359383123535
20
1.70529560303908
30
0
41
1
10
17.7057911611311
20
1.37757596901929
30
0
41
1
10
19.414224429517
20
0.381889031405706
30
0
41
1
10
20.5526735979928
20
-0.298424465355339
30
0
41
1
10
22.2560262042703
20
-1.34048555502815
30
0
41
1
10
22.8232360961213
20
-1.69143661567415
30
0
41
1
10
23.6729678164136
20
-2.2236069526227
30
0
41
1
10
23.9559600410014
20
-2.40193685088968
30
0
41
1
10
24.3795908179674
20
-2.67143861655464
30
0
41
1
10
24.520667165816
20
-2.76160250163625
30
0
41
1
10
24.8023268060277
20
-2.94296871600045
30
0
41
1
10
24.9430971546764
20
-3.03385667343926
30
0
41
1
10
25.1176403960362
20
-3.14998373356761
30
0
41
1
10
25.1525459032385
20
-3.17322098122847
30
0
41
1
10
25.1954980900254
20
-3.20341805594001
30
0
41
1
10
25.2040844382922
20
-3.20949298116847
30
0
41
1
10
25.2144869841576
20
-3.21754787219484
30
0
41
1
10
25.2165517438556
20
-3.21918498713919
30
0
41
1
10
25.2205597276241
20
-3.22260275706
30
0
41
1
10
25.222838441015
20
-3.22419192238064
30
0
41
1
10
25.2243319079658
20
-3.2271603974981
30
0
41
1
10
25.2241843525638
20
-3.2279290110275
30
0
41
1
10
25.2230116631195
20
-3.22840328389577
30
0
41
1
10
25.2223565049931
20
-3.22844558813171
30
0
41
1
10
25.2204540516061
20
-3.22870513118957
30
0
41
1
10
25.2166491660017
20
-3.22922418001065
30
0
41
1
10
25.1925519625317
20
-3.23251078009116
30
0
41
1
10
25.0885640147957
20
-3.24667668636806
30
0
41
1
10
24.8249072926529
20
-3.2824024166857
30
0
41
1
10
24.2576681487189
20
-3.3582675775437
30
0
41
1
10
23.7725420021408
20
-3.42141599703609
30
0
41
1
10
22.8039702815671
20
-3.5451119180226
30
0
41
1
10
22.1604099742003
20
-3.62411992178497
30
0
41
1
10
20.8774699264333
20
-3.77489508593595
30
0
41
1
10
20.237932826318
20
-3.84668045874631
30
0
41
1
10
18.9650565398654
20
-3.98243627242894
30
0
41
1
10
18.3314659860937
20
-4.04641805197284
30
0
41
1
10
16.1465932716142
20
-4.25410374047615
30
0
41
1
10
14.6092783660337
20
-4.37733446137813
30
0
41
1
10
13.0876336382145
20
-4.47454496522823
30
0
0
SPLINE
5
10B
100
AcDbEntity
8
SK1
62
256
6
ByLayer
370
18
48
1
60
0
100
AcDbSpline
70
4
71
4
72
13
73
8
40
0
40
0
40
0
40
0
40
0
40
0.588680767114614
40
0.588680767114614
40
0.588680767114614
40
1
40
1
40
1
40
1
40
1
41
0.994813590689627
10
-48.0000006222467
20
-0.384965847199074
30
0
41
0.995038782685201
10
-48.0000001435797
20
-0.538369507039232
30
0
41
1.00237833677385
10
-47.9999997594927
20
-0.652592016010135
30
0
41
1.0166117137858
10
-47.9999995340177
20
-0.707519603529708
30
0
41
1.0166117137858
10
-47.999999366079
20
-0.728097524054931
30
0
41
1.00966297008882
10
-47.9999993466674
20
-0.717244547597681
30
0
41
1.00297223262112
10
-47.9999994012192
20
-0.67978621912464
30
0
41
0.998763360706527
10
-47.9999995288359
20
-0.617265034208594
30
0
0
SPLINE
5
10C
100
AcDbEntity
8
SK1
62
256
6
ByLayer
370
18
48
1
60
0
100
AcDbSpline
70
4
71
3
72
54
73
50
40
0
40
0
40
0
40
0
40
0.124999999999998
40
0.124999999999998
40
0.187499999999996
40
0.187499999999996
40
0.218749999999996
40
0.218749999999996
40
0.249999999999995
40
0.249999999999995
40
0.312499999999993
40
0.312499999999993
40
0.343749999999992
40
0.343749999999992
40
0.374999999999991
40
0.374999999999991
40
0.406249999999989
40
0.406249999999989
40
0.421874999999989
40
0.421874999999989
40
0.437499999999988
40
0.437499999999988
40
0.468749999999986
40
0.468749999999986
40
0.484374999999986
40
0.484374999999986
40
0.499999999999986
40
0.499999999999986
40
0.531249999999984
40
0.531249999999984
40
0.546874999999984
40
0.546874999999984
40
0.562499999999984
40
0.562499999999984
40
0.593749999999985
40
0.593749999999985
40
0.609374999999986
40
0.609374999999986
40
0.624999999999986
40
0.624999999999986
40
0.687499999999989
40
0.687499999999989
40
0.749999999999991
40
0.749999999999991
40
0.812499999999993
40
0.812499999999993
40
0.874999999999995
40
0.874999999999995
40
1
40
1
40
1
40
1
41
1
10
-48.0000000000012
20
-0.610800535366849
30
0
41
1
10
-47.9229299555545
20
-0.605107148473508
30
0
41
1
10
-47.8468926924853
20
-0.598953537730239
30
0
41
1
10
-47.735216402727
20
-0.588662731751924
30
0
41
1
10
-47.6983923616074
20
-0.585053597842716
30
0
41
1
10
-47.6439525874426
20
-0.579285058565517
30
0
41
1
10
-47.6259395742938
20
-0.577302687546421
30
0
41
1
10
-47.5902284860936
20
-0.573197604069861
30
0
41
1
10
-47.5724947741244
20
-0.571070229474458
30
0
41
1
10
-47.5202994047976
20
-0.564491520143321
30
0
41
1
10
-47.4867328078495
20
-0.559839391995837
30
0
41
1
10
-47.4390250814611
20
-0.552289259245356
30
0
41
1
10
-47.4235670761572
20
-0.549676313874699
30
0
41
1
10
-47.3937613969805
20
-0.54421007380887
30
0
41
1
10
-47.3793896145839
20
-0.541352428572679
30
0
41
1
10
-47.3521806942724
20
-0.535345089103942
30
0
41
1
10
-47.3394979719084
20
-0.532229962020324
30
0
41
1
10
-47.32219922778
20
-0.527348641844242
30
0
41
1
10
-47.3167218188255
20
-0.525686608447899
30
0
41
1
10
-47.3064227178742
20
-0.522283251773558
30
0
41
1
10
-47.3015864446765
20
-0.520536053775174
30
0
41
1
10
-47.28830855539
20
-0.515198580116504
30
0
41
1
10
-47.2811924463295
20
-0.511556857737929
30
0
41
1
10
-47.2735181279334
20
-0.505950130589952
30
0
41
1
10
-47.2714611654739
20
-0.5040571414184
30
0
41
1
10
-47.2684331099094
20
-0.5002189866793
30
0
41
1
10
-47.2674605919708
20
-0.498264917820791
30
0
41
1
10
-47.2663295190546
20
-0.492376943237872
30
0
41
1
10
-47.2679513789829
20
-0.48851295762708
30
0
41
1
10
-47.2736883428182
20
-0.482802271870412
30
0
41
1
10
-47.2761521618307
20
-0.480912946099266
30
0
41
1
10
-47.2821482207387
20
-0.47716187435762
30
0
41
1
10
-47.2856888497779
20
-0.475299891925204
30
0
41
1
10
-47.2975554405323
20
-0.469875881083965
30
0
41
1
10
-47.3071807504936
20
-0.46642940833766
30
0
41
1
10
-47.3236694302543
20
-0.461462509183235
30
0
41
1
10
-47.3295098432825
20
-0.459840915209014
30
0
41
1
10
-47.3418152257603
20
-0.456659494145413
30
0
41
1
10
-47.3482865558906
20
-0.45509896434109
30
0
41
1
10
-47.3816212347007
20
-0.447532901647037
30
0
41
1
10
-47.4116570253629
20
-0.442130201202502
30
0
41
1
10
-47.4759432539697
20
-0.432138373049128
30
0
41
1
10
-47.5104104520651
20
-0.427541276027029
30
0
41
1
10
-47.5808549142383
20
-0.4191174520966
30
0
41
1
10
-47.6170091599764
20
-0.415263619951105
30
0
41
1
10
-47.6906613643664
20
-0.40807220985954
30
0
41
1
10
-47.7281649141551
20
-0.404736780027037
30
0
41
1
10
-47.8422570622201
20
-0.395338101974232
30
0
41
1
10
-47.9204047056618
20
-0.389873838556127
30
0
41
1
10
-48.0000000000013
20
-0.384965762287663
30
0
0
SPLINE
5
10D
100
AcDbEntity
8
SK1
62
256
6
ByLayer
370
18
48
1
60
0
100
AcDbSpline
70
4
71
3
72
8
73
4
40
0
40
0
40
0
40
0
40
1
40
1
40
1
40
1
41
1
10
-46.5
20
-0.0474417781082366
30
0
41
1
10
-47.0011330209377
20
0.0462123006130923
30
0
41
1
10
-47.5014463094019
20
0.140012518841871
30
0
41
1
10
-48
20
0.234126433030951
30
0
0
SPLINE
5
10E
100
AcDbEntity
8
SK1
62
256
6
ByLayer
370
18
48
1
60
0
100
AcDbSpline
70
4
71
3
72
20
73
16
40
0
40
0
40
0
40
0
40
0.0625000000000013
40
0.0625000000000013
40
0.125000000000003
40
0.125000000000003
40
0.250000000000003
40
0.250000000000003
40
0.375000000000003
40
0.375000000000003
40
0.500000000000003
40
0.500000000000003
40
0.750000000000001
40
0.750000000000001
40
1
40
1
40
1
40
1
41
1
10
-46.4
20
-0.167551384816136
30
0
41
1
10
-46.4
20
-0.163362908102385
30
0
41
1
10
-46.400255320285
20
-0.159197126414057
30
0
41
1
10
-46.401238720026
20
-0.150907594554866
30
0
41
1
10
-46.4019736794311
20
-0.146772297502679
30
0
41
1
10
-46.4047525178022
20
-0.134814973619143
30
0
41
1
10
-46.407386820202
20
-0.127259577598551
30
0
41
1
10
-46.4138324199078
20
-0.113021477074284
30
0
41
1
10
-46.4175513092506
20
-0.106525487430702
30
0
41
1
10
-46.4257576562686
20
-0.094496303963723
30
0
41
1
10
-46.4302902765821
20
-0.0889297105169078
30
0
41
1
10
-46.444519757331
20
-0.0739288628154497
30
0
41
1
10
-46.4548628465278
20
-0.066028457906441
30
0
41
1
10
-46.4769795344452
20
-0.0537532085796784
30
0
41
1
10
-46.4883400853171
20
-0.0496208374037792
30
0
41
1
10
-46.5
20
-0.0474417781082082
30
0
0
SPLINE
5
10F
100
AcDbEntity
8
SK1
62
256
6
ByLayer
370
18
48
1
60
0
100
AcDbSpline
70
4
71
3
72
20
73
16
40
0
40
0
40
0
40
0
40
0.250000000000002
40
0.250000000000002
40
0.375000000000001
40
0.375000000000001
40
0.500000000000001
40
0.500000000000001
40
0.625000000000001
40
0.625000000000001
40
0.750000000000001
40
0.750000000000001
40
0.875
40
0.875
40
1
40
1
40
1
40
1
41
1
10
-46.5
20
-2.50479310517827
30
0
41
1
10
-46.4883382808638
20
-2.5069725016985
30
0
41
1
10
-46.4769899849393
20
-2.50721428264143
30
0
41
1
10
-46.4604389640724
20
-2.50461270389508
30
0
41
1
10
-46.4550533753258
20
-2.50324150981743
30
0
41
1
10
-46.4447632897779
20
-2.49950327938791
30
0
41
1
10
-46.4398264111653
20
-2.4971330841579
30
0
41
1
10
-46.4304188308979
20
-2.49126411252107
30
0
41
1
10
-46.4259311640916
20
-2.48775447320673
30
0
41
1
10
-46.4176087338257
20
-2.47936574840833
30
0
41
1
10
-46.4138727961238
20
-2.4745936702237
30
0
41
1
10
-46.4074449634846
20
-2.46362688701231
30
0
41
1
10
-46.4047607228177
20
-2.45739015310494
30
0
41
1
10
-46.40105390221
20
-2.44376314857371
30
0
41
1
10
-46.4
20
-2.43617731267639
30
0
41
1
10
-46.4
20
-2.42831460572057
30
0
0
SPLINE
5
110
100
AcDbEntity
8
SK1
62
256
6
ByLayer
370
18
48
1
60
0
100
AcDbSpline
70
4
71
3
72
8
73
4
40
0
40
0
40
0
40
0
40
1
40
1
40
1
40
1
41
1
10
-48
20
-2.22322489403908
30
0
41
1
10
-47.5014591378084
20
-2.3173363865601
30
0
41
1
10
-47.0011270766744
20
-2.41114013734861
30
0
41
1
10
-46.5
20
-2.50479310517824
30
0
0
SPLINE
5
111
100
AcDbEntity
8
SK1
62
256
6
ByLayer
370
18
48
1
60
0
100
AcDbSpline
70
4
71
3
72
8
73
4
40
0
40
0
40
0
40
0
40
1
40
1
40
1
40
1
41
1
10
-46.7532488176039
20
8.63182873445E-05
30
0
41
1
10
-47.1696889024959
20
-0.0778319299217856
30
0
41
1
10
-47.5854527370281
20
-0.155870738066852
30
0
41
1
10
-48
20
-0.234126433030951
30
0
0
SPLINE
5
112
100
AcDbEntity
8
1
62
256
6
ByLayer
370
18
48
1
60
0
100
AcDbSpline
70
4
71
2
72
6
73
3
40
0
40
0
40
0
40
1
40
1
40
1
41
1
10
156.184510802613
20
-0.0001467278389953
30
0
41
1
10
156.184591477783
20
-0.0001040061608251
30
0
41
1
10
156.184672152712
20
-6.28635340547E-05
30
0
0
SPLINE
5
113
100
AcDbEntity
8
1
62
256
6
ByLayer
370
18
48
1
60
0
100
AcDbSpline
70
4
71
3
72
32
73
28
40
0
40
0
40
0
40
0
40
1.03874988997E-05
40
3.81203581043E-05
40
0.0001730752890621
40
0.0002809962245464
40
0.0004785912016385
40
0.0011284953374906
40
0.0018828747581861
40
0.0062894693726943
40
0.0266926776299186
40
0.10621775162628
40
0.171239430947911
40
0.236362116198692
40
0.309039638989297
40
0.370837760026469
40
0.435797105220966
40
0.502152189449904
40
0.55665899445918
40
0.608321561414591
40
0.672861913577727
40
0.735042519360148
40
0.790558480173255
40
0.83418214708931
40
0.891563073099814
40
0.963506764086328
40
1
40
1
40
1
40
1
41
1
10
93.1551053421134
20
0.452093403803218
30
0
41
1
10
93.1551187617576
20
0.452090533065871
30
0
41
1
10
93.1551574838318
20
0.452082709032226
30
0
41
1
10
93.1550899913337
20
0.45211002578506
30
0
41
1
10
93.1547379322233
20
0.452220037548187
30
0
41
1
10
93.1542131297206
20
0.452379939596511
30
0
41
1
10
93.15273831494
20
0.452806772221862
30
0
41
1
10
93.1492662445229
20
0.453743212739511
30
0
41
1
10
93.1329828230823
20
0.457944962050334
30
0
41
1
10
93.0381270582168
20
0.481381399044267
30
0
41
1
10
92.6350041235461
20
0.581006573953346
30
0
41
1
10
91.9942423762339
20
0.745090580301081
30
0
41
1
10
91.1846177044035
20
0.962443575524787
30
0
41
1
10
90.4031138495268
20
1.18106318684929
30
0
41
1
10
89.6366531351737
20
1.4046261217523
30
0
41
1
10
88.8732127558871
20
1.63621654314463
30
0
41
1
10
88.1362313349137
20
1.86789215119401
30
0
41
1
10
87.4293922687115
20
2.09817448934731
30
0
41
1
10
86.7751524714539
20
2.3182073281248
30
0
41
1
10
86.1297081293474
20
2.54126009387647
30
0
41
1
10
85.4575540617671
20
2.78035824274687
30
0
41
1
10
84.7733799838877
20
3.03129981840218
30
0
41
1
10
84.1699074838324
20
3.25888166953416
30
0
41
1
10
83.586217301936
20
3.48400069063388
30
0
41
1
10
82.943406245448
20
3.73797374670463
30
0
41
1
10
82.3290484714074
20
3.98624166867529
30
0
41
1
10
81.9296636250383
20
4.15411673226049
30
0
41
1
10
81.7954651949688
20
4.21110707293491
30
0
0
SPLINE
5
114
100
AcDbEntity
8
1
62
256
6
ByLayer
370
18
48
1
60
0
100
AcDbSpline
70
4
71
3
72
19
73
15
40
0
40
0
40
0
40
0
40
0.0474688482789328
40
0.17093599916933
40
0.322541191493872
40
0.447415974324394
40
0.561321450604893
40
0.661481692946063
40
0.696264444578464
40
0.728307302637687
40
0.771238883392983
40
0.835589200914718
40
0.921368522427064
40
1
40
1
40
1
40
1
41
1
10
175.940319792284
20
1.64930641534752
30
0
41
1
10
175.821026699644
20
1.68542802605199
30
0
41
1
10
175.391938084562
20
1.81696311811879
30
0
41
1
10
174.586536342422
20
2.07821054990168
30
0
41
1
10
173.591866122372
20
2.41331858538214
30
0
41
1
10
172.626149446293
20
2.75484790449244
30
0
41
1
10
171.79149856641
20
3.06124308513549
30
0
41
1
10
171.181322328339
20
3.29277011030615
30
0
41
1
10
170.773038228448
20
3.450847379885
30
0
41
1
10
170.505103224606
20
3.55561712516965
30
0
41
1
10
170.165418600404
20
3.68989801413551
30
0
41
1
10
169.69566771755
20
3.87856900511318
30
0
41
1
10
169.140577699045
20
4.10596338557727
30
0
41
1
10
168.743312168033
20
4.27340159385639
30
0
41
1
10
168.553661421377
20
4.35432040091064
30
0
0
SPLINE
5
115
100
AcDbEntity
8
1
62
256
6
ByLayer
370
18
48
1
60
0
100
AcDbSpline
70
4
71
3
72
30
73
26
40
0
40
0
40
0
40
0
40
1.03310731407E-05
40
2.13410449749E-05
40
0.0001403963056119
40
0.0002324630588961
40
0.0003994301684486
40
0.0007058756188593
40
0.0027025254511872
40
0.0086212811357872
40
0.0298091645274118
40
0.0602113201550926
40
0.16460084372885
40
0.265579347727584
40
0.346220729945411
40
0.445705085610988
40
0.538822012375531
40
0.619774992975997
40
0.679552840288868
40
0.746975852168043
40
0.823440987976531
40
0.871703216185106
40
0.923540301896114
40
0.988311294989104
40
1
40
1
40
1
40
1
41
1
10
49.5290834971173
20
0.470678405527025
30
0
41
1
10
49.5290923885002
20
0.470676840233921
30
0
41
1
10
49.5291040301917
20
0.47067530489997
30
0
41
1
10
49.5290154488369
20
0.470706738269541
30
0
41
1
10
49.5284572953425
20
0.470863213308405
30
0
41
1
10
49.5277822409419
20
0.471058254276102
30
0
41
1
10
49.5266469143214
20
0.471380589897478
30
0
41
1
10
49.521684253404
20
0.472778869490384
30
0
41
1
10
49.5008132279039
20
0.478324250634643
30
0
41
1
10
49.3975286788971
20
0.504012083141618
30
0
41
1
10
49.1810111672979
20
0.557783898294076
30
0
41
1
10
48.5882107624295
20
0.707875174850983
30
0
41
1
10
47.6972716263006
20
0.943497472625069
30
0
41
1
10
46.6197014602284
20
1.24725714189992
30
0
41
1
10
45.5656182597255
20
1.56062480693575
30
0
41
1
10
44.5455338621447
20
1.87948978310021
30
0
41
1
10
43.529363027684
20
2.21378934028243
30
0
41
1
10
42.664773936778
20
2.51104531195486
30
0
41
1
10
41.8982170056935
20
2.7837941735585
30
0
41
1
10
41.151010030812
20
3.05776126448288
30
0
41
1
10
40.4488824024027
20
3.32390827210438
30
0
41
1
10
39.8057881392742
20
3.57438508804321
30
0
41
1
10
39.207156051712
20
3.81329691562757
30
0
41
1
10
38.7424920819528
20
4.00139657706728
30
0
41
1
10
38.4673298078446
20
4.1172490788243
30
0
41
1
10
38.4252917932911
20
4.13501655873728
30
0
0
SPLINE
5
116
100
AcDbEntity
8
1
62
256
6
ByLayer
370
18
48
1
60
0
100
AcDbSpline
70
4
71
3
72
34
73
30
40
0
40
0
40
0
40
0
40
1.67351909225E-05
40
4.41581163716E-05
40
0.0001578245930241
40
0.0002478886960924
40
0.0004105606178399
40
0.0038113321967675
40
0.0051623561340244
40
0.0132268246027607
40
0.0554353413118804
40
0.0924947494543539
40
0.120955146353763
40
0.148495329526092
40
0.176491208648341
40
0.289594657259661
40
0.389930390797744
40
0.481551506824615
40
0.524113134110866
40
0.563367789495201
40
0.606119129371575
40
0.659189457628913
40
0.716703864691382
40
0.753361850960917
40
0.78961224219611
40
0.833693271568479
40
0.888941873069656
40
0.955366379733854
40
1
40
1
40
1
40
1
41
1
10
136.639103133057
20
0.467529609505334
30
0
41
1
10
136.639130628362
20
0.46752379973654
30
0
41
1
10
136.639193890188
20
0.467510853692147
30
0
41
1
10
136.639128625252
20
0.467540073440802
30
0
41
1
10
136.638816160743
20
0.467642898121113
30
0
41
1
10
136.638463128758
20
0.467765727656484
30
0
41
1
10
136.63445552668
20
0.469112201849185
30
0
41
1
10
136.631620260686
20
0.470184954151676
30
0
41
1
10
136.590721498071
20
0.480504999602459
30
0
41
1
10
136.386973307622
20
0.530700951677971
30
0
41
1
10
136.045998496971
20
0.616465681838349
30
0
41
1
10
135.622474405284
20
0.725760142100995
30
0
41
1
10
135.258018896303
20
0.821943810615437
30
0
41
1
10
134.929311597813
20
0.910295709774772
30
0
41
1
10
134.270284029644
20
1.09064533696363
30
0
41
1
10
133.329790073516
20
1.35967616751679
30
0
41
1
10
132.147781424158
20
1.71995077139943
30
0
41
1
10
131.243622954894
20
2.01080501400671
30
0
41
1
10
130.577398839281
20
2.23299242726699
30
0
41
1
10
130.100113643809
20
2.39561237809613
30
0
41
1
10
129.583763101869
20
2.57527930652657
30
0
41
1
10
128.999064377225
20
2.78367270455135
30
0
41
1
10
128.439321011654
20
2.98864761335895
30
0
41
1
10
127.944828080766
20
3.17384917028434
30
0
41
1
10
127.502156431193
20
3.34251367645027
30
0
41
1
10
126.990478852095
20
3.54108166285886
30
0
41
1
10
126.366999995478
20
3.78874909037174
30
0
41
1
10
125.743563411658
20
4.04229789006146
30
0
41
1
10
125.329410341303
20
4.21661314817339
30
0
41
1
10
125.16326230231
20
4.2873608366792
30
0
0
SPLINE
5
117
100
AcDbEntity
8
1
62
256
6
ByLayer
370
18
48
1
60
0
100
AcDbSpline
70
4
71
2
72
6
73
3
40
0
40
0
40
0
40
1
40
1
40
1
41
1
10
156.184672152711
20
6.28635343389E-05
30
0
41
1
10
156.184591477782
20
0.0001040061609956
30
0
41
1
10
156.184510802613
20
0.0001467278389953
30
0
0
SPLINE
5
118
100
AcDbEntity
8
1
62
256
6
ByLayer
370
18
48
1
60
0
100
AcDbSpline
70
4
71
3
72
40
73
36
40
0
40
0
40
0
40
0
40
0.0484921654112363
40
0.0821430777406852
40
0.107379471436406
40
0.1370011120352
40
0.183279663965126
40
0.218671780714177
40
0.239710831409536
40
0.258427295331441
40
0.279720085312644
40
0.310977716600385
40
0.341513814108863
40
0.363637481957158
40
0.38281938086504
40
0.400445926891452
40
0.421775304874091
40
0.451676261352751
40
0.483344972247784
40
0.506481667510817
40
0.536205706881086
40
0.572338447828607
40
0.608575742440054
40
0.639120712804269
40
0.668944697826635
40
0.710605054488895
40
0.747709240973432
40
0.775640734800189
40
0.808469168384195
40
0.849896888666994
40
0.895496911298337
40
0.934660477706024
40
0.967272765058913
40
0.990001854252832
40
1
40
1
40
1
40
1
41
1
10
134.40822708275
20
-6.99034456877988
30
0
41
1
10
134.659247872996
20
-6.99081881754196
30
0
41
1
10
135.084464657724
20
-6.99162762541454
30
0
41
1
10
135.640720016663
20
-6.99264095402472
30
0
41
1
10
136.098647619424
20
-6.99356418704491
30
0
41
1
10
136.622451952228
20
-6.9945602190908
30
0
41
1
10
137.198765840214
20
-6.99553813460307
30
0
41
1
10
137.730634593914
20
-6.99658170864822
30
0
41
1
10
138.119830263709
20
-6.99738338372853
30
0
41
1
10
138.435550342017
20
-6.99795959785388
30
0
41
1
10
138.804607966081
20
-6.9985483151959
30
0
41
1
10
139.23471808469
20
-6.99925950015654
30
0
41
1
10
139.669110294076
20
-7.00013057194093
30
0
41
1
10
140.04116668353
20
-7.00094902337901
30
0
41
1
10
140.346344090025
20
-7.00157777818711
30
0
41
1
10
140.647414394472
20
-7.00208400047944
30
0
41
1
10
141.003991512549
20
-7.00257883737851
30
0
41
1
10
141.433288323124
20
-7.00317865047049
30
0
41
1
10
141.871943071953
20
-7.00410909968932
30
0
41
1
10
142.309681417829
20
-7.00510396307965
30
0
41
1
10
142.770538333956
20
-7.00597117131073
30
0
41
1
10
143.299234325808
20
-7.00662619595403
30
0
41
1
10
143.832193746179
20
-7.00761169165565
30
0
41
1
10
144.332441132382
20
-7.00882671143361
30
0
41
1
10
144.860928122451
20
-7.00978625522038
30
0
41
1
10
145.422344354255
20
-7.01021642054749
30
0
41
1
10
145.975619166815
20
-7.01109657951446
30
0
41
1
10
146.480734397095
20
-7.01246667291025
30
0
41
1
10
147.010366515631
20
-7.0134103168499
30
0
41
1
10
147.630932710448
20
-7.01402548983447
30
0
41
1
10
148.284267480904
20
-7.01537781716706
30
0
41
1
10
148.892718101767
20
-7.01644252838653
30
0
41
1
10
149.380397296364
20
-7.01697897292871
30
0
41
1
10
149.717891395802
20
-7.01720202766651
30
0
41
1
10
149.887202992806
20
-7.01752820314636
30
0
41
1
10
149.93893621807
20
-7.01764038371525
30
0
0
SPLINE
5
119
100
AcDbEntity
8
1
62
256
6
ByLayer
370
18
48
1
60
0
100
AcDbSpline
70
4
71
3
72
17
73
13
40
0
40
0
40
0
40
0
40
0.164862321424513
40
0.287812458021071
40
0.390661751118819
40
0.491051436036645
40
0.551527264998126
40
0.602650677850668
40
0.651870623912474
40
0.735710503201472
40
0.859233506229051
40
1
40
1
40
1
40
1
41
1
10
110.067618767917
20
6.94899759695707
30
0
41
1
10
109.825328530308
20
6.94809020322197
30
0
41
1
10
109.402182758766
20
6.94685034365665
30
0
41
1
10
108.826141400113
20
6.94620987129863
30
0
41
1
10
108.346912613605
20
6.94586180047412
30
0
41
1
10
107.958187635142
20
6.94545995536231
30
0
41
1
10
107.645913105922
20
6.94507912848238
30
0
41
1
10
107.408995595062
20
6.94472957692611
30
0
41
1
10
107.13767790535
20
6.94425357546265
30
0
41
1
10
106.759661142065
20
6.94342314616603
30
0
41
1
10
106.246795640504
20
6.94189315886413
30
0
41
1
10
105.857440854336
20
6.94007838017296
30
0
41
1
10
105.650063439447
20
6.93895023774584
30
0
0
SPLINE
5
11A
100
AcDbEntity
8
1
62
256
6
ByLayer
370
18
48
1
60
0
100
AcDbSpline
70
4
71
3
72
36
73
32
40
0
40
0
40
0
40
0
40
0.0500333675469255
40
0.0984820220003085
40
0.133795080559017
40
0.16685331840101
40
0.212787652608089
40
0.262692065722176
40
0.299111599748704
40
0.343082810644852
40
0.38981531882529
40
0.432667498556109
40
0.46592848591459
40
0.494160148575712
40
0.531592538109882
40
0.57372637417419
40
0.603885575448627
40
0.625323015914823
40
0.651232023304387
40
0.677947537278478
40
0.704560790876672
40
0.727700797419219
40
0.748246612126264
40
0.775938061934343
40
0.819806185119911
40
0.848915285562891
40
0.874302727215989
40
0.904056089000649
40
0.944309792046328
40
0.97932934813699
40
1
40
1
40
1
40
1
41
1
10
153.625184782391
20
7.024502613274
30
0
41
1
10
153.368700117308
20
7.02395185665696
30
0
41
1
10
152.864034700403
20
7.02294374387256
30
0
41
1
10
152.18427348401
20
7.02162041437464
30
0
41
1
10
151.582990119107
20
7.02085258783777
30
0
41
1
10
150.996941990618
20
7.02012305244128
30
0
41
1
10
150.336247716788
20
7.0186592655545
30
0
41
1
10
149.655918448776
20
7.01696514417108
30
0
41
1
10
148.991398815268
20
7.01666848504718
30
0
41
1
10
148.337444880585
20
7.01547094105374
30
0
41
1
10
147.652054588766
20
7.01405755306047
30
0
41
1
10
147.021404197621
20
7.01342482531692
30
0
41
1
10
146.48521775258
20
7.01247765198679
30
0
41
1
10
145.978980994944
20
7.0111052140015
30
0
41
1
10
145.424768665377
20
7.01021712277202
30
0
41
1
10
144.862321909914
20
7.00978970978696
30
0
41
1
10
144.380962767018
20
7.00891257555435
30
0
41
1
10
143.983045478878
20
7.00799291290411
30
0
41
1
10
143.602782991442
20
7.0071523161472
30
0
41
1
10
143.195953230618
20
7.00651121298037
30
0
41
1
10
142.803338167236
20
7.00599170907623
30
0
41
1
10
142.442400994982
20
7.00536728624508
30
0
41
1
10
142.075928224735
20
7.00458494381482
30
0
41
1
10
141.603031383951
20
7.00348313000265
30
0
41
1
10
141.08616835741
20
7.00267582933839
30
0
41
1
10
140.581129124393
20
7.0020043772233
30
0
41
1
10
140.148580608535
20
7.00119335074513
30
0
41
1
10
139.658715955205
20
7.00009445755558
30
0
41
1
10
139.11990892346
20
6.99905406962017
30
0
41
1
10
138.626999928015
20
6.9982667565298
30
0
41
1
10
138.341495366419
20
6.99778536954585
30
0
41
1
10
138.235468372417
20
6.99759122735023
30
0
0
SPLINE
5
11B
100
AcDbEntity
8
1
62
256
6
ByLayer
370
18
48
1
60
0
100
AcDbSpline
70
4
71
3
72
9
73
5
40
0
40
0
40
0
40
0
40
0.750421386165999
40
1
40
1
40
1
40
1
41
1
10
105.650061895162
20
-6.93896364667722
30
0
41
1
10
105.8235039942
20
-6.93991279818661
30
0
41
1
10
106.054631299943
20
-6.94101917145559
30
0
41
1
10
106.285759088815
20
-6.9418862466716
30
0
41
1
10
106.343443736027
20
-6.94208976351271
30
0
0
LINE
5
82
100
AcDbEntity
8
4
62
256
6
ByLayer
370
18
48
0.05
60
0
100
AcDbLine
10
0
20
0
30
0
11
179
21
0
31
0
39
0
210
0
220
0
230
1
0
LINE
5
84
100
AcDbEntity
8
81
62
256
6
ByLayer
370
18
48
1
60
0
100
AcDbLine
10
179
20
0
30
0
11
182
21
0
31
0
39
0
210
0
220
0
230
1
0
LINE
5
85
100
AcDbEntity
8
80
62
256
6
ByLayer
370
18
48
1
60
0
100
AcDbLine
10
0
20
0
30
0
11
-3
21
0
31
0
39
0
210
0
220
0
230
1
0
LINE
5
86
100
AcDbEntity
8
SK4
62
256
6
ByLayer
370
18
48
0.05
60
0
100
AcDbLine
10
-51
20
0
30
0
11
182
21
0
31
0
39
0
210
0
220
0
230
1
0
LINE
5
88
100
AcDbEntity
8
1
62
256
6
ByLayer
370
18
48
1
60
0
100
AcDbLine
10
0
20
8
30
0
11
0
21
-8
31
0
39
0
210
0
220
0
230
1
0
LINE
5
89
100
AcDbEntity
8
1
62
256
6
ByLayer
370
13
48
1
60
0
100
AcDbLine
10
178.837716
20
0.753334
30
0
11
177.345541
21
2.251151
31
0
39
0
210
0
220
0
230
1
0
LINE
5
8A
100
AcDbEntity
8
1
62
256
6
ByLayer
370
13
48
1
60
0
100
AcDbLine
10
0.735319
20
-7.515128
30
0
11
0.735319
21
7.515128
31
0
39
0
210
0
220
0
230
1
0
LINE
5
8B
100
AcDbEntity
8
1
62
256
6
ByLayer
370
18
48
1
60
0
100
AcDbLine
10
105.54964
20
7.217596
30
0
11
105.54964
21
3.583046
31
0
39
0
210
0
220
0
230
1
0
LINE
5
8C
100
AcDbEntity
8
1
62
256
6
ByLayer
370
18
48
1
60
0
100
AcDbLine
10
105.54964
20
-6.887776
30
0
11
105.54964
21
-7.217596
31
0
39
0
210
0
220
0
230
1
0
LINE
5
8D
100
AcDbEntity
8
1
62
256
6
ByLayer
370
18
48
1
60
0
100
AcDbLine
10
105.54964
20
2.717071
30
0
11
105.54964
21
2.614454
31
0
39
0
210
0
220
0
230
1
0
LINE
5
8E
100
AcDbEntity
8
1
62
256
6
ByLayer
370
13
48
1
60
0
100
AcDbLine
10
1.472079
20
-7.030256
30
0
11
1.472079
21
7.030256
31
0
39
0
210
0
220
0
230
1
0
LINE
5
8F
100
AcDbEntity
8
SK1
62
256
6
ByLayer
370
18
48
1
60
0
100
AcDbLine
10
-48
20
-0.610801
30
0
11
-48
21
-2.223225
31
0
39
0
210
0
220
0
230
1
0
LINE
5
91
100
AcDbEntity
8
SK1
62
256
6
ByLayer
370
18
48
1
60
0
100
AcDbLine
10
-48
20
-0.234126
30
0
11
-48
21
-0.384966
31
0
39
0
210
0
220
0
230
1
0
LINE
5
92
100
AcDbEntity
8
SK1
62
256
6
ByLayer
370
13
48
1
60
0
100
AcDbLine
10
-46.5
20
-2.504793
30
0
11
-46.5
21
-0.047469
31
0
39
0
210
0
220
0
230
1
0
LINE
5
93
100
AcDbEntity
8
SK1
62
256
6
ByLayer
370
18
48
1
60
0
100
AcDbLine
10
-46.4
20
-2.428315
30
0
11
-46.4
21
-0.167551
31
0
39
0
210
0
220
0
230
1
0
LINE
5
94
100
AcDbEntity
8
SK1
62
256
6
ByLayer
370
18
48
1
60
0
100
AcDbLine
10
-48
20
-5.55
30
0
11
-48
21
-2.223225
31
0
39
0
210
0
220
0
230
1
0
LINE
5
95
100
AcDbEntity
8
SK1
62
256
6
ByLayer
370
18
48
1
60
0
100
AcDbLine
10
-48
20
5.55
30
0
11
-48
21
0.234126
31
0
39
0
210
0
220
0
230
1
0
LINE
5
96
100
AcDbEntity
8
SK1
62
256
6
ByLayer
370
18
48
1
60
0
100
AcDbLine
10
-45.55
20
-8
30
0
11
-45.55
21
8
31
0
39
0
210
0
220
0
230
1
0
LINE
5
97
100
AcDbEntity
8
SK1
62
256
6
ByLayer
370
18
48
1
60
0
100
AcDbLine
10
0
20
8
30
0
11
0
21
-8
31
0
39
0
210
0
220
0
230
1
0
LINE
5
98
100
AcDbEntity
8
1
62
256
6
ByLayer
370
18
48
1
60
0
100
AcDbLine
10
1.472079
20
-7.030256
30
0
11
25.303172
21
-7.073152
31
0
39
0
210
0
220
0
230
1
0
LINE
5
99
100
AcDbEntity
8
1
62
256
6
ByLayer
370
18
48
1
60
0
100
AcDbLine
10
45.432513
20
-7.109385
30
0
11
68.743692
21
-7.151345
31
0
39
0
210
0
220
0
230
1
0
LINE
5
9A
100
AcDbEntity
8
1
62
256
6
ByLayer
370
18
48
1
60
0
100
AcDbLine
10
88.932209
20
-7.187685
30
0
11
105.54964
21
-7.217596
31
0
39
0
210
0
220
0
230
1
0
LINE
5
9B
100
AcDbEntity
8
1
62
256
6
ByLayer
370
18
48
1
60
0
100
AcDbLine
10
110.068925
20
-7.225731
30
0
11
112.184153
21
-7.229538
31
0
39
0
210
0
220
0
230
1
0
LINE
5
9C
100
AcDbEntity
8
1
62
256
6
ByLayer
370
18
48
1
60
0
100
AcDbLine
10
132.700525
20
-7.266468
30
0
11
134.408585
21
-7.269542
31
0
39
0
210
0
220
0
230
1
0
LINE
5
9D
100
AcDbEntity
8
1
62
256
6
ByLayer
370
18
48
1
60
0
100
AcDbLine
10
153.623787
20
-7.304129
30
0
11
155.624713
21
-7.307731
31
0
39
0
210
0
220
0
230
1
0
LINE
5
9E
100
AcDbEntity
8
1
62
256
6
ByLayer
370
18
48
1
60
0
100
AcDbLine
10
155.624713
20
7.307731
30
0
11
153.623787
21
7.304129
31
0
39
0
210
0
220
0
230
1
0
LINE
5
9F
100
AcDbEntity
8
1
62
256
6
ByLayer
370
18
48
1
60
0
100
AcDbLine
10
134.408585
20
7.269542
30
0
11
132.700525
21
7.266468
31
0
39
0
210
0
220
0
230
1
0
LINE
5
A0
100
AcDbEntity
8
1
62
256
6
ByLayer
370
18
48
1
60
0
100
AcDbLine
10
112.184153
20
7.229538
30
0
11
110.068925
21
7.225731
31
0
39
0
210
0
220
0
230
1
0
LINE
5
A1
100
AcDbEntity
8
1
62
256
6
ByLayer
370
18
48
1
60
0
100
AcDbLine
10
105.54964
20
7.217596
30
0
11
88.932209
21
7.187685
31
0
39
0
210
0
220
0
230
1
0
LINE
5
A2
100
AcDbEntity
8
1
62
256
6
ByLayer
370
18
48
1
60
0
100
AcDbLine
10
68.743692
20
7.151345
30
0
11
45.432513
21
7.109385
31
0
39
0
210
0
220
0
230
1
0
LINE
5
A3
100
AcDbEntity
8
1
62
256
6
ByLayer
370
18
48
1
60
0
100
AcDbLine
10
25.303172
20
7.073152
30
0
11
1.472079
21
7.030256
31
0
39
0
210
0
220
0
230
1
0
LINE
5
A4
100
AcDbEntity
8
SK1
62
256
6
ByLayer
370
18
48
1
60
0
100
AcDbLine
10
-48
20
-5.55
30
0
11
-45.55
21
-8
31
0
39
0
210
0
220
0
230
1
0
LINE
5
A5
100
AcDbEntity
8
SK1
62
256
6
ByLayer
370
18
48
1
60
0
100
AcDbLine
10
-45.55
20
8
30
0
11
-48
21
5.55
31
0
39
0
210
0
220
0
230
1
0
LINE
5
A6
100
AcDbEntity
8
SK1
62
256
6
ByLayer
370
18
48
1
60
0
100
AcDbLine
10
-45.55
20
-8
30
0
11
0
21
-8
31
0
39
0
210
0
220
0
230
1
0
LINE
5
A7
100
AcDbEntity
8
SK1
62
256
6
ByLayer
370
18
48
1
60
0
100
AcDbLine
10
0
20
8
30
0
11
-45.55
21
8
31
0
39
0
210
0
220
0
230
1
0
LINE
5
A8
100
AcDbEntity
8
2
62
256
6
ByLayer
370
13
48
1
60
0
100
AcDbLine
10
186.5
20
-7.345
30
0
11
186.5
21
35.693741
31
0
39
0
210
0
220
0
230
1
0
LINE
5
AA
100
AcDbEntity
8
2
62
256
6
ByLayer
370
13
48
1
60
0
100
AcDbLine
10
180.5875
20
7.345
30
0
11
188.5
21
7.345
31
0
39
0
210
0
220
0
230
1
0
LINE
5
AB
100
AcDbEntity
8
2
62
256
6
ByLayer
370
13
48
1
60
0
100
AcDbLine
10
180.5875
20
-7.345
30
0
11
188.5
21
-7.345
31
0
39
0
210
0
220
0
230
1
0
LINE
5
AC
100
AcDbEntity
8
1
62
256
6
ByLayer
370
18
48
1
60
1
100
AcDbLine
10
186.5
20
7.345
30
0
11
186.960784
21
3.845002
31
0
39
0
210
0
220
0
230
1
0
LINE
5
AD
100
AcDbEntity
8
1
62
256
6
ByLayer
370
18
48
1
60
1
100
AcDbLine
10
186.960784
20
3.845002
30
0
11
186.039216
21
3.844998
31
0
39
0
210
0
220
0
230
1
0
LINE
5
AE
100
AcDbEntity
8
1
62
256
6
ByLayer
370
18
48
1
60
1
100
AcDbLine
10
186.039216
20
3.844998
30
0
11
186.5
21
7.345
31
0
39
0
210
0
220
0
230
1
0
LINE
5
AF
100
AcDbEntity
8
1
62
256
6
ByLayer
370
18
48
1
60
1
100
AcDbLine
10
186.5
20
-7.345
30
0
11
186.039216
21
-3.845002
31
0
39
0
210
0
220
0
230
1
0
LINE
5
B0
100
AcDbEntity
8
1
62
256
6
ByLayer
370
18
48
1
60
1
100
AcDbLine
10
186.039216
20
-3.845002
30
0
11
186.960784
21
-3.844998
31
0
39
0
210
0
220
0
230
1
0
LINE
5
B1
100
AcDbEntity
8
1
62
256
6
ByLayer
370
18
48
1
60
1
100
AcDbLine
10
186.960784
20
-3.844998
30
0
11
186.5
21
-7.345
31
0
39
0
210
0
220
0
230
1
0
LINE
5
B2
100
AcDbEntity
8
SK2
62
256
6
ByLayer
370
13
48
1
60
0
100
AcDbLine
10
-56.5
20
-8
30
0
11
-56.5
21
15.333771
31
0
39
0
210
0
220
0
230
1
0
LINE
5
B4
100
AcDbEntity
8
SK2
62
256
6
ByLayer
370
13
48
1
60
0
100
AcDbLine
10
-49.5875
20
8
30
0
11
-58.5
21
8
31
0
39
0
210
0
220
0
230
1
0
LINE
5
B5
100
AcDbEntity
8
SK2
62
256
6
ByLayer
370
13
48
1
60
0
100
AcDbLine
10
-49.5875
20
-8
30
0
11
-58.5
21
-8
31
0
39
0
210
0
220
0
230
1
0
LINE
5
B6
100
AcDbEntity
8
1
62
256
6
ByLayer
370
18
48
1
60
1
100
AcDbLine
10
-56.5
20
8
30
0
11
-56.039216
21
4.500002
31
0
39
0
210
0
220
0
230
1
0
LINE
5
B7
100
AcDbEntity
8
1
62
256
6
ByLayer
370
18
48
1
60
1
100
AcDbLine
10
-56.039216
20
4.500002
30
0
11
-56.960784
21
4.499998
31
0
39
0
210
0
220
0
230
1
0
LINE
5
B8
100
AcDbEntity
8
1
62
256
6
ByLayer
370
18
48
1
60
1
100
AcDbLine
10
-56.960784
20
4.499998
30
0
11
-56.5
21
8
31
0
39
0
210
0
220
0
230
1
0
LINE
5
B9
100
AcDbEntity
8
1
62
256
6
ByLayer
370
18
48
1
60
1
100
AcDbLine
10
-56.5
20
-8
30
0
11
-56.960784
21
-4.500002
31
0
39
0
210
0
220
0
230
1
0
LINE
5
BA
100
AcDbEntity
8
1
62
256
6
ByLayer
370
18
48
1
60
1
100
AcDbLine
10
-56.960784
20
-4.500002
30
0
11
-56.039216
21
-4.499998
31
0
39
0
210
0
220
0
230
1
0
LINE
5
BB
100
AcDbEntity
8
1
62
256
6
ByLayer
370
18
48
1
60
1
100
AcDbLine
10
-56.039216
20
-4.499998
30
0
11
-56.5
21
-8
31
0
39
0
210
0
220
0
230
1
0
LINE
5
BC
100
AcDbEntity
8
SK2
62
256
6
ByLayer
370
13
48
1
60
0
100
AcDbLine
10
179.542892
20
1.491786
30
0
11
188.075156
21
24.937158
31
0
39
0
210
0
220
0
230
1
0
LINE
5
BD
100
AcDbEntity
8
SK2
62
256
6
ByLayer
370
13
48
1
60
0
100
AcDbLine
10
179.542892
20
-1.491786
30
0
11
188.075156
21
-24.937158
31
0
39
0
210
0
220
0
230
1
0
LINE
5
BE
100
AcDbEntity
8
1
62
256
6
ByLayer
370
18
48
1
60
1
100
AcDbLine
10
187.391198
20
23.057743
30
0
11
190.808377
21
22.17163
31
0
39
0
210
0
220
0
230
1
0
LINE
5
BF
100
AcDbEntity
8
1
62
256
6
ByLayer
370
18
48
1
60
1
100
AcDbLine
10
190.808377
20
22.17163
30
0
11
190.4626
21
21.317391
31
0
39
0
210
0
220
0
230
1
0
LINE
5
C0
100
AcDbEntity
8
1
62
256
6
ByLayer
370
18
48
1
60
1
100
AcDbLine
10
190.4626
20
21.317391
30
0
11
187.391198
21
23.057743
31
0
39
0
210
0
220
0
230
1
0
LINE
5
C1
100
AcDbEntity
8
1
62
256
6
ByLayer
370
18
48
1
60
1
100
AcDbLine
10
187.391198
20
-23.057743
30
0
11
190.462596
21
-21.317392
31
0
39
0
210
0
220
0
230
1
0
LINE
5
C2
100
AcDbEntity
8
1
62
256
6
ByLayer
370
18
48
1
60
1
100
AcDbLine
10
190.462596
20
-21.317392
30
0
11
190.80838
21
-22.171629
31
0
39
0
210
0
220
0
230
1
0
LINE
5
C3
100
AcDbEntity
8
1
62
256
6
ByLayer
370
18
48
1
60
1
100
AcDbLine
10
190.80838
20
-22.171629
30
0
11
187.391198
21
-23.057743
31
0
39
0
210
0
220
0
230
1
0
LINE
5
11C
100
AcDbEntity
8
1
62
256
6
ByLayer
370
13
48
0.05
60
0
100
AcDbLine
10
-54.5
20
0
30
0
11
182.814837
21
0
31
0
39
0
210
0
220
0
230
1
0
LINE
5
121
100
AcDbEntity
8
1
62
256
6
ByLayer
370
18
48
1
60
1
100
AcDbLine
10
186.5
20
7.345
30
0
11
186.960784
21
3.845002
31
0
39
0
210
0
220
0
230
1
0
LINE
5
122
100
AcDbEntity
8
1
62
256
6
ByLayer
370
18
48
1
60
1
100
AcDbLine
10
186.960784
20
3.845002
30
0
11
186.039216
21
3.844998
31
0
39
0
210
0
220
0
230
1
0
LINE
5
123
100
AcDbEntity
8
1
62
256
6
ByLayer
370
18
48
1
60
1
100
AcDbLine
10
186.039216
20
3.844998
30
0
11
186.5
21
7.345
31
0
39
0
210
0
220
0
230
1
0
LINE
5
125
100
AcDbEntity
8
1
62
256
6
ByLayer
370
18
48
1
60
1
100
AcDbLine
10
186.5
20
-7.345
30
0
11
186.039216
21
-3.845002
31
0
39
0
210
0
220
0
230
1
0
LINE
5
126
100
AcDbEntity
8
1
62
256
6
ByLayer
370
18
48
1
60
1
100
AcDbLine
10
186.039216
20
-3.845002
30
0
11
186.960784
21
-3.844998
31
0
39
0
210
0
220
0
230
1
0
LINE
5
127
100
AcDbEntity
8
1
62
256
6
ByLayer
370
18
48
1
60
1
100
AcDbLine
10
186.960784
20
-3.844998
30
0
11
186.5
21
-7.345
31
0
39
0
210
0
220
0
230
1
0
LINE
5
12B
100
AcDbEntity
8
1
62
256
6
ByLayer
370
18
48
1
60
1
100
AcDbLine
10
-56.5
20
8
30
0
11
-56.039216
21
4.500002
31
0
39
0
210
0
220
0
230
1
0
LINE
5
12C
100
AcDbEntity
8
1
62
256
6
ByLayer
370
18
48
1
60
1
100
AcDbLine
10
-56.039216
20
4.500002
30
0
11
-56.960784
21
4.499998
31
0
39
0
210
0
220
0
230
1
0
LINE
5
12D
100
AcDbEntity
8
1
62
256
6
ByLayer
370
18
48
1
60
1
100
AcDbLine
10
-56.960784
20
4.499998
30
0
11
-56.5
21
8
31
0
39
0
210
0
220
0
230
1
0
LINE
5
12F
100
AcDbEntity
8
1
62
256
6
ByLayer
370
18
48
1
60
1
100
AcDbLine
10
-56.5
20
-8
30
0
11
-56.960784
21
-4.500002
31
0
39
0
210
0
220
0
230
1
0
LINE
5
130
100
AcDbEntity
8
1
62
256
6
ByLayer
370
18
48
1
60
1
100
AcDbLine
10
-56.960784
20
-4.500002
30
0
11
-56.039216
21
-4.499998
31
0
39
0
210
0
220
0
230
1
0
LINE
5
131
100
AcDbEntity
8
1
62
256
6
ByLayer
370
18
48
1
60
1
100
AcDbLine
10
-56.039216
20
-4.499998
30
0
11
-56.5
21
-8
31
0
39
0
210
0
220
0
230
1
0
LINE
5
134
100
AcDbEntity
8
1
62
256
6
ByLayer
370
18
48
1
60
1
100
AcDbLine
10
187.391198
20
23.057743
30
0
11
190.808377
21
22.17163
31
0
39
0
210
0
220
0
230
1
0
LINE
5
135
100
AcDbEntity
8
1
62
256
6
ByLayer
370
18
48
1
60
1
100
AcDbLine
10
190.808377
20
22.17163
30
0
11
190.4626
21
21.317391
31
0
39
0
210
0
220
0
230
1
0
LINE
5
136
100
AcDbEntity
8
1
62
256
6
ByLayer
370
18
48
1
60
1
100
AcDbLine
10
190.4626
20
21.317391
30
0
11
187.391198
21
23.057743
31
0
39
0
210
0
220
0
230
1
0
LINE
5
138
100
AcDbEntity
8
1
62
256
6
ByLayer
370
18
48
1
60
1
100
AcDbLine
10
187.391198
20
-23.057743
30
0
11
190.462596
21
-21.317392
31
0
39
0
210
0
220
0
230
1
0
LINE
5
139
100
AcDbEntity
8
1
62
256
6
ByLayer
370
18
48
1
60
1
100
AcDbLine
10
190.462596
20
-21.317392
30
0
11
190.80838
21
-22.171629
31
0
39
0
210
0
220
0
230
1
0
LINE
5
13A
100
AcDbEntity
8
1
62
256
6
ByLayer
370
18
48
1
60
1
100
AcDbLine
10
190.80838
20
-22.171629
30
0
11
187.391198
21
-23.057743
31
0
39
0
210
0
220
0
230
1
0
MTEXT
5
11D
100
AcDbEntity
8
2
62
256
6
ByLayer
370
18
48
1
60
0
100
AcDbMText
10
185.158886
20
21.003438
30
0
210
0
220
0
230
1
1
%%c
40
3
41
0
44
1.084337
50
90
71
7
72
5
7
iso_b_vert
0
MTEXT
5
120
100
AcDbEntity
8
2
62
256
6
ByLayer
370
18
48
1
60
0
100
AcDbMText
10
185.158886
20
26.98
30
0
210
0
220
0
230
1
1
\W0.7173;14.69
40
3
41
0
44
1.084337
50
90
71
7
72
5
7
iso_b_vert
0
MTEXT
5
129
100
AcDbEntity
8
SK2
62
256
6
ByLayer
370
18
48
1
60
0
100
AcDbMText
10
-57.841114
20
6.658437
30
0
210
0
220
0
230
1
1
%%c
40
3
41
0
44
1.084337
50
90
71
7
72
5
7
iso_b_vert
0
MTEXT
5
12A
100
AcDbEntity
8
SK2
62
256
6
ByLayer
370
18
48
1
60
0
100
AcDbMText
10
-57.841114
20
12.635
30
0
210
0
220
0
230
1
1
\W0.5321;16
40
3
41
0
44
1.084337
50
90
71
7
72
5
7
iso_b_vert
0
MTEXT
5
133
100
AcDbEntity
8
SK2
62
256
6
ByLayer
370
18
48
1
60
0
100
AcDbMText
10
200.096493
20
-2.114886
30
0
210
0
220
0
230
1
1
\W0.7071;140%%d
40
3
41
0
44
1.084337
50
0
71
7
72
5
7
iso_b_vert
0
MTEXT
5
13C
100
AcDbEntity
8
SK6
62
256
6
ByLayer
370
18
48
1
60
0
100
AcDbMText
10
44.06975
20
-77.114886
30
0
210
0
220
0
230
1
1
\W0.7348;860.1-1469-120A1-SD S2BM
40
3
41
0
44
1.084337
50
0
71
7
72
5
7
iso_b_vert
0
HATCH
5
124
100
AcDbEntity
8
2
62
256
6
ByLayer
370
13
48
1
60
0
100
AcDbHatch
10
0
20
0
30
0
210
0
220
0
230
1
2
ANSI31
70
0
71
0
91
1
92
5
93
3
72
1
10
186.5
20
7.345
11
186.960783741553
21
3.84500169255318
72
1
10
186.960783741553
20
3.84500169255318
11
186.039216258447
21
3.84499830744682
72
1
10
186.039216258447
20
3.84499830744682
11
186.5
21
7.345
97
0
75
0
76
1
52
0
41
0.0062
77
0
78
1
53
45
43
0
44
0
45
-0.0139193969876572
46
0.0139193969876572
79
0
47
0
98
1
10
0
20
0
0
HATCH
5
128
100
AcDbEntity
8
2
62
256
6
ByLayer
370
13
48
1
60
0
100
AcDbHatch
10
0
20
0
30
0
210
0
220
0
230
1
2
ANSI31
70
0
71
0
91
1
92
5
93
3
72
1
10
186.5
20
-7.345
11
186.039216258447
21
-3.84500169255318
72
1
10
186.039216258447
20
-3.84500169255318
11
186.960783741553
21
-3.84499830744682
72
1
10
186.960783741553
20
-3.84499830744682
11
186.5
21
-7.345
97
0
75
0
76
1
52
0
41
0.0062
77
0
78
1
53
45
43
0
44
0
45
-0.0139193969876572
46
0.0139193969876572
79
0
47
0
98
1
10
0
20
0
0
HATCH
5
12E
100
AcDbEntity
8
SK2
62
256
6
ByLayer
370
13
48
1
60
0
100
AcDbHatch
10
0
20
0
30
0
210
0
220
0
230
1
2
ANSI31
70
0
71
0
91
1
92
5
93
3
72
1
10
-56.5
20
8
11
-56.0392162584472
21
4.50000169255318
72
1
10
-56.0392162584472
20
4.50000169255318
11
-56.9607837415528
21
4.49999830744682
72
1
10
-56.9607837415528
20
4.49999830744682
11
-56.5
21
8
97
0
75
0
76
1
52
0
41
0.0062
77
0
78
1
53
45
43
0
44
0
45
-0.0139193969876572
46
0.0139193969876572
79
0
47
0
98
1
10
0
20
0
0
HATCH
5
132
100
AcDbEntity
8
SK2
62
256
6
ByLayer
370
13
48
1
60
0
100
AcDbHatch
10
0
20
0
30
0
210
0
220
0
230
1
2
ANSI31
70
0
71
0
91
1
92
5
93
3
72
1
10
-56.5
20
-8
11
-56.9607837415528
21
-4.50000169255318
72
1
10
-56.9607837415528
20
-4.50000169255318
11
-56.0392162584472
21
-4.49999830744682
72
1
10
-56.0392162584472
20
-4.49999830744682
11
-56.5
21
-8
97
0
75
0
76
1
52
0
41
0.0062
77
0
78
1
53
45
43
0
44
0
45
-0.0139193969876572
46
0.0139193969876572
79
0
47
0
98
1
10
0
20
0
0
HATCH
5
137
100
AcDbEntity
8
SK2
62
256
6
ByLayer
370
13
48
1
60
0
100
AcDbHatch
10
0
20
0
30
0
210
0
220
0
230
1
2
ANSI31
70
0
71
0
91
1
92
5
93
3
72
1
10
187.391197539707
20
23.0577425847935
11
190.808376921949
21
22.1716303581567
72
1
10
190.808376921949
20
22.1716303581567
11
190.462599557694
21
21.3173911409006
72
1
10
190.462599557694
20
21.3173911409006
11
187.391197539707
21
23.0577425847935
97
0
75
0
76
1
52
0
41
0.0062
77
0
78
1
53
45
43
0
44
0
45
-0.0139193969876572
46
0.0139193969876572
79
0
47
0
98
1
10
0
20
0
0
HATCH
5
13B
100
AcDbEntity
8
SK2
62
256
6
ByLayer
370
13
48
1
60
0
100
AcDbHatch
10
0
20
0
30
0
210
0
220
0
230
1
2
ANSI31
70
0
71
0
91
1
92
5
93
3
72
1
10
187.391197539708
20
-23.0577425847934
11
190.462596419903
21
-21.3173924110231
72
1
10
190.462596419903
20
-21.3173924110231
11
190.80838005974
21
-22.1716290880338
72
1
10
190.80838005974
20
-22.1716290880338
11
187.391197539708
21
-23.0577425847934
97
0
75
0
76
1
52
0
41
0.0062
77
0
78
1
53
45
43
0
44
0
45
-0.0139193969876572
46
0.0139193969876572
79
0
47
0
98
1
10
0
20
0
0
DIMENSION
5
13F
100
AcDbEntity
8
SK2
62
256
6
ByLayer
370
18
48
1
60
0
100
AcDbDimension
2
_U0
10
58.9
20
-26.760482
30
0
11
118.95
21
-26.760482
31
0
70
32
71
1
72
1
41
1
210
0
220
0
230
1
3
Standard
100
AcDbAlignedDimension
13
179
23
-7.345
33
0
14
58.9
24
-7.345
34
0
50
0
100
AcDbRotatedDimension
1001
ACAD
1000
DSTYLE
1002
{
1070
   371
1070
    13
1070
   372
1070
    13
1070
   170
1070
     0
1070
   144
1040
1.0
1070
   277
1070
     2
1070
   284
1070
     8
1070
   278
1070
    46
1070
   146
1040
1.166667
1070
   345
1005
16
1070
   347
1005
16
1070
   346
1005
16
1070
   344
1005
0
1070
   343
1005
0
1070
   172
1070
     1
1070
    76
1070
     0
1070
    75
1070
     0
1070
   282
1070
     0
1070
   281
1070
     0
1070
     3
1000

1070
    71
1070
     0
1070
    74
1070
     0
1070
   279
1070
     0
1070
   173
1070
     1
1070
   340
1005
11E
1070
   271
1070
     2
1070
   272
1070
     2
1070
    77
1070
     1
1070
    73
1070
     1
1070
   171
1070
     3
1070
   274
1070
     4
1070
   177
1070
     2
1070
   176
1070
     2
1070
   178
1070
     2
1070
    78
1070
     8
1070
    48
1040
-0.1
1070
    41
1040
3.5
1070
   147
1040
1.5
1070
    42
1040
1.5875
1070
    44
1040
2.0
1070
   140
1040
3.0
1002
}
1001
ACAD_DSTYLE_DIM_LINETYPE
1070
   380
1005
16
1001
ACAD_DSTYLE_DIM_EXT1_LINETYPE
1070
   381
1005
16
1001
ACAD_DSTYLE_DIM_EXT2_LINETYPE
1070
   382
1005
16
0
DIMENSION
5
15A
100
AcDbEntity
8
SK2
62
256
6
ByLayer
370
18
48
1
60
0
100
AcDbDimension
2
_U1
10
7
20
-36.760482
30
0
11
93
21
-36.760482
31
0
70
32
71
1
72
1
41
1
210
0
220
0
230
1
3
Standard
100
AcDbAlignedDimension
13
179
23
-7.345
33
0
14
7
24
-7.345
34
0
50
0
100
AcDbRotatedDimension
1001
ACAD
1000
DSTYLE
1002
{
1070
   371
1070
    13
1070
   372
1070
    13
1070
     3
1000

1070
   170
1070
     0
1070
   144
1040
1.0
1070
   277
1070
     2
1070
   284
1070
     8
1070
   278
1070
    46
1070
   146
1040
1.166667
1070
   345
1005
16
1070
   347
1005
16
1070
   346
1005
16
1070
   344
1005
0
1070
   343
1005
0
1070
   172
1070
     1
1070
    76
1070
     0
1070
    75
1070
     0
1070
   282
1070
     0
1070
   281
1070
     0
1070
    71
1070
     0
1070
    74
1070
     0
1070
   279
1070
     0
1070
   173
1070
     1
1070
   340
1005
11E
1070
   271
1070
     2
1070
   272
1070
     2
1070
    77
1070
     1
1070
    73
1070
     1
1070
   171
1070
     3
1070
   274
1070
     4
1070
   177
1070
     2
1070
   176
1070
     2
1070
   178
1070
     2
1070
    78
1070
     8
1070
    48
1040
-0.1
1070
    41
1040
3.5
1070
   147
1040
1.5
1070
    42
1040
1.5875
1070
    44
1040
2.0
1070
   140
1040
3.0
1002
}
1001
ACAD_DSTYLE_DIM_LINETYPE
1070
   380
1005
16
1001
ACAD_DSTYLE_DIM_EXT1_LINETYPE
1070
   381
1005
16
1001
ACAD_DSTYLE_DIM_EXT2_LINETYPE
1070
   382
1005
16
0
DIMENSION
5
172
100
AcDbEntity
8
SK2
62
256
6
ByLayer
370
18
48
1
60
0
100
AcDbDimension
2
_U2
10
0
20
-44.760482
30
0
11
-24
21
-44.760482
31
0
70
32
71
1
72
1
41
1
210
0
220
0
230
1
3
Standard
100
AcDbAlignedDimension
13
-48
23
-8
33
0
14
0
24
-8
34
0
50
0
100
AcDbRotatedDimension
1001
ACAD
1000
DSTYLE
1002
{
1070
   371
1070
    13
1070
   372
1070
    13
1070
     3
1000

1070
   170
1070
     0
1070
   144
1040
1.0
1070
   277
1070
     2
1070
   284
1070
     8
1070
   278
1070
    46
1070
   146
1040
1.166667
1070
   345
1005
16
1070
   347
1005
16
1070
   346
1005
16
1070
   344
1005
0
1070
   343
1005
0
1070
   172
1070
     1
1070
    76
1070
     0
1070
    75
1070
     0
1070
   282
1070
     0
1070
   281
1070
     0
1070
    71
1070
     0
1070
    74
1070
     0
1070
   279
1070
     0
1070
   173
1070
     1
1070
   340
1005
11E
1070
   271
1070
     2
1070
   272
1070
     2
1070
    77
1070
     1
1070
    73
1070
     1
1070
   171
1070
     3
1070
   274
1070
     4
1070
   177
1070
     2
1070
   176
1070
     2
1070
   178
1070
     2
1070
    78
1070
     8
1070
    48
1040
-0.1
1070
    41
1040
3.5
1070
   147
1040
1.5
1070
    42
1040
1.5875
1070
    44
1040
2.0
1070
   140
1040
3.0
1002
}
1001
ACAD_DSTYLE_DIM_LINETYPE
1070
   380
1005
16
1001
ACAD_DSTYLE_DIM_EXT1_LINETYPE
1070
   381
1005
16
1001
ACAD_DSTYLE_DIM_EXT2_LINETYPE
1070
   382
1005
16
0
DIMENSION
5
18A
100
AcDbEntity
8
SK2
62
256
6
ByLayer
370
18
48
1
60
0
100
AcDbDimension
2
_U3
10
179
20
-52.760482
30
0
11
65.5
21
-52.760482
31
0
70
32
71
1
72
1
41
1
210
0
220
0
230
1
3
Standard
100
AcDbAlignedDimension
13
-48
23
-8
33
0
14
179
24
-7.345
34
0
50
0
100
AcDbRotatedDimension
1001
ACAD
1000
DSTYLE
1002
{
1070
   371
1070
    13
1070
   372
1070
    13
1070
     3
1000

1070
   170
1070
     0
1070
   144
1040
1.0
1070
   277
1070
     2
1070
   284
1070
     8
1070
   278
1070
    46
1070
   146
1040
1.166667
1070
   345
1005
16
1070
   347
1005
16
1070
   346
1005
16
1070
   344
1005
0
1070
   343
1005
0
1070
   172
1070
     1
1070
    76
1070
     0
1070
    75
1070
     0
1070
   282
1070
     0
1070
   281
1070
     0
1070
    71
1070
     0
1070
    74
1070
     0
1070
   279
1070
     0
1070
   173
1070
     1
1070
   340
1005
11E
1070
   271
1070
     2
1070
   272
1070
     2
1070
    77
1070
     1
1070
    73
1070
     1
1070
   171
1070
     3
1070
   274
1070
     4
1070
   177
1070
     2
1070
   176
1070
     2
1070
   178
1070
     2
1070
    78
1070
     8
1070
    48
1040
-0.1
1070
    41
1040
3.5
1070
   147
1040
1.5
1070
    42
1040
1.5875
1070
    44
1040
2.0
1070
   140
1040
3.0
1002
}
1001
ACAD_DSTYLE_DIM_LINETYPE
1070
   380
1005
16
1001
ACAD_DSTYLE_DIM_EXT1_LINETYPE
1070
   381
1005
16
1001
ACAD_DSTYLE_DIM_EXT2_LINETYPE
1070
   382
1005
16
0
DIMENSION
5
1A2
100
AcDbEntity
8
2
62
256
6
ByLayer
370
18
48
1
60
0
100
AcDbDimension
2
_U4
10
0
20
-44.760482
30
0
11
89.5
21
-44.760482
31
0
70
32
71
1
72
1
41
1
210
0
220
0
230
1
3
Standard
100
AcDbAlignedDimension
13
179
23
-7.345
33
0
14
0
24
-7.345
34
0
50
0
100
AcDbRotatedDimension
1001
ACAD
1000
DSTYLE
1002
{
1070
   371
1070
    13
1070
   372
1070
    13
1070
     3
1000

1070
   170
1070
     0
1070
   144
1040
1.0
1070
   277
1070
     2
1070
   284
1070
     8
1070
   278
1070
    46
1070
   146
1040
1.166667
1070
   345
1005
16
1070
   347
1005
16
1070
   346
1005
16
1070
   344
1005
0
1070
   343
1005
0
1070
   172
1070
     1
1070
    76
1070
     0
1070
    75
1070
     0
1070
   282
1070
     0
1070
   281
1070
     0
1070
    71
1070
     0
1070
    74
1070
     0
1070
   279
1070
     0
1070
   173
1070
     1
1070
   340
1005
11E
1070
   271
1070
     2
1070
   272
1070
     2
1070
    77
1070
     1
1070
    73
1070
     1
1070
   171
1070
     3
1070
   274
1070
     4
1070
   177
1070
     2
1070
   176
1070
     2
1070
   178
1070
     2
1070
    78
1070
     8
1070
    48
1040
-0.1
1070
    41
1040
3.5
1070
   147
1040
1.5
1070
    42
1040
1.5875
1070
    44
1040
2.0
1070
   140
1040
3.0
1002
}
1001
ACAD_DSTYLE_DIM_LINETYPE
1070
   380
1005
16
1001
ACAD_DSTYLE_DIM_EXT1_LINETYPE
1070
   381
1005
16
1001
ACAD_DSTYLE_DIM_EXT2_LINETYPE
1070
   382
1005
16
0
ENDSEC
0
SECTION
2
OBJECTS
0
DICTIONARY
5
22a
330
0
100
AcDbDictionary
280
0
281
1
3
ACAD_GROUP
350
22b
3
ACAD_MLINESTYLE
350
22c
0
DICTIONARY
5
22b
330
0
100
AcDbDictionary
280
0
281
1
0
DICTIONARY
5
22c
330
0
100
AcDbDictionary
280
0
281
1
3
Standard
350
18
0
MLINESTYLE
5
18
330
22c
100
AcDbMlineStyle
2
Standard
70
0
3

62
256
51
90
52
90
71
2
49
-0.5
62
256
6
ByLayer
49
0.5
62
256
6
ByLayer
0
RASTERVARIABLES
5
218
330

100
AcDbRasterVariables
90
0
70
1
71
1
72
1
0
ENDSEC
0
EOF
