0
SECTION
2
HEADER
9
$ACADVER
1
AC1015
9
$DWGCODEPAGE
3
ANSI_1252
9
$HANDSEED
5
22a
9
$ANGBASE
50
0
9
$ANGDIR
70
0
9
$ATTMODE
70
1
9
$AUNITS
70
0
9
$AUPREC
70
0
9
$CECOLOR
62
256
9
$CELTSCALE
40
1
9
$CELTYPE
6
ByLayer
9
$CELWEIGHT
370
18
9
$CLAYER
8
0
9
$CMLJUST
70
0
9
$CMLSCALE
40
1
9
$CMLSTYLE
2
Standard
9
$DIMSTYLE
2
Standard
9
$TEXTSIZE
40
0.2
9
$TEXTSTYLE
7
Standard
9
$LUNITS
70
2
9
$LUPREC
70
4
9
$EXTNAMES
290
1
9
$INSUNITS
70
4
9
$LTSCALE
40
1
9
$LWDISPLAY
290
1
9
$PDMODE
70
0
9
$PDSIZE
40
0
9
$PLINEGEN
70
0
0
ENDSEC
0
SECTION
2
CLASSES
0
CLASS
1
RASTERVARIABLES
2
AcDbRasterVariables
3
ISM
90
0
280
0
281
0
0
ENDSEC
0
SECTION
2
TABLES
0
TABLE
2
VPORT
5
220
100
AcDbSymbolTable
0
VPORT
5
1
100
AcDbSymbolTableRecord
100
AcDbViewportTableRecord
2
*Active
70
0
10
0
20
0
11
1
21
1
12
-1
22
1
13
0
23
0
14
0.5
24
0.5
15
10
25
10
16
0
26
0
36
1
17
0
27
0
37
0
0
ENDTAB
0
TABLE
2
LTYPE
5
221
100
AcDbSymbolTable
0
LTYPE
5
14
100
AcDbSymbolTableRecord
100
AcDbLinetypeTableRecord
70
0
2
ByBlock
3

72
65
73
0
40
0
0
LTYPE
5
15
100
AcDbSymbolTableRecord
100
AcDbLinetypeTableRecord
70
0
2
ByLayer
3

72
65
73
0
40
0
0
LTYPE
5
16
100
AcDbSymbolTableRecord
100
AcDbLinetypeTableRecord
70
0
2
Continuous
3
Solid line
72
65
73
0
40
0
0
LTYPE
5
6E
100
AcDbSymbolTableRecord
100
AcDbLinetypeTableRecord
70
0
2
CENTER
3
____ _ ____ _ ____ _ ____
72
65
73
4
40
47.5
49
22
74
0
49
-8.5
74
0
49
8.5
74
0
49
-8.5
74
0
0
LTYPE
5
6F
100
AcDbSymbolTableRecord
100
AcDbLinetypeTableRecord
70
0
2
DASHED
3
__ __ __ __ __ __ __ __ __
72
65
73
2
40
25.72
49
12.86
74
0
49
-12.86
74
0
0
ENDTAB
0
TABLE
2
LAYER
5
222
100
AcDbSymbolTable
0
LAYER
5
10
100
AcDbSymbolTableRecord
100
AcDbLayerTableRecord
2
0
70
0
62
7
6
Continuous
290
1
370
-3
390
0
0
LAYER
5
71
100
AcDbSymbolTableRecord
100
AcDbLayerTableRecord
2
80
70
0
62
-6
6
Continuous
290
1
370
-3
390
0
0
LAYER
5
73
100
AcDbSymbolTableRecord
100
AcDbLayerTableRecord
2
81
70
0
62
-3
6
Continuous
290
1
370
-3
390
0
0
LAYER
5
75
100
AcDbSymbolTableRecord
100
AcDbLayerTableRecord
2
1
70
0
62
4
6
Continuous
290
1
370
-3
390
0
0
LAYER
5
83
100
AcDbSymbolTableRecord
100
AcDbLayerTableRecord
2
4
70
0
62
-2
6
CENTER
290
1
370
-3
390
0
0
LAYER
5
A1
100
AcDbSymbolTableRecord
100
AcDbLayerTableRecord
2
2
70
0
62
7
6
Continuous
290
1
370
-3
390
0
0
LAYER
5
135
100
AcDbSymbolTableRecord
100
AcDbLayerTableRecord
2
Defpoints
70
0
62
7
6
Continuous
290
0
370
-3
390
0
0
LAYER
5
20c
100
AcDbSymbolTableRecord
100
AcDbLayerTableRecord
2
SK4
70
0
62
2
6
CENTER
290
1
370
-3
390
0
0
LAYER
5
20d
100
AcDbSymbolTableRecord
100
AcDbLayerTableRecord
2
SK1
70
0
62
4
6
Continuous
290
1
370
-3
390
0
0
LAYER
5
20e
100
AcDbSymbolTableRecord
100
AcDbLayerTableRecord
2
SK2
70
0
62
7
6
Continuous
290
1
370
-3
390
0
0
LAYER
5
20f
100
AcDbSymbolTableRecord
100
AcDbLayerTableRecord
2
SK6
70
0
62
5
6
Continuous
290
1
370
-3
390
0
0
ENDTAB
0
TABLE
2
STYLE
5
223
100
AcDbSymbolTable
0
STYLE
5
11
100
AcDbSymbolTableRecord
100
AcDbTextStyleTableRecord
2
Standard
3
txt
70
0
71
0
40
0
41
1
42
0
50
0
0
STYLE
5
111
100
AcDbSymbolTableRecord
100
AcDbTextStyleTableRecord
2
iso_b_vert
3
simplex.shx
70
0
71
0
40
0
41
1
42
0
50
0
0
STYLE
5
112
100
AcDbSymbolTableRecord
100
AcDbTextStyleTableRecord
2
DWGDirectTextStyle
3
simplex
70
0
71
0
40
0
41
1
42
0
50
0
0
ENDTAB
0
TABLE
2
DIMSTYLE
5
224
100
AcDbSymbolTable
100
AcDbDimStyleTable
0
DIMSTYLE
105
27
100
AcDbSymbolTableRecord
100
AcDbDimStyleTableRecord
2
Standard
70
0
3
<>
41
0.18
42
0.0625
44
0.18
140
0.18
147
0.09
73
0
74
0
77
1
271
2
275
0
278
52
280
0
340
11
0
ENDTAB
0
TABLE
2
VIEW
5
225
100
AcDbSymbolTable
0
ENDTAB
0
TABLE
2
UCS
5
226
100
AcDbSymbolTable
0
ENDTAB
0
TABLE
2
APPID
5
227
100
AcDbSymbolTable
0
APPID
5
12
100
AcDbSymbolTableRecord
100
AcDbRegAppTableRecord
2
ACAD
70
0
0
APPID
5
131
100
AcDbSymbolTableRecord
100
AcDbRegAppTableRecord
2
ACAD_DSTYLE_DIMBREAK
70
0
0
APPID
5
1CB
100
AcDbSymbolTableRecord
100
AcDbRegAppTableRecord
2
ACAD_DSTYLE_DIM_LINETYPE
70
0
0
APPID
5
1CC
100
AcDbSymbolTableRecord
100
AcDbRegAppTableRecord
2
ACAD_DSTYLE_DIM_EXT1_LINETYPE
70
0
0
APPID
5
1CD
100
AcDbSymbolTableRecord
100
AcDbRegAppTableRecord
2
ACAD_DSTYLE_DIM_EXT2_LINETYPE
70
0
0
APPID
5
208
100
AcDbSymbolTableRecord
100
AcDbRegAppTableRecord
2
ACAD_MLEADERVER
70
0
0
ENDTAB
0
TABLE
2
BLOCK_RECORD
5
228
100
AcDbSymbolTable
0
BLOCK_RECORD
5
1F
100
AcDbSymbolTableRecord
100
AcDbBlockTableRecord
2
*Model_Space
340
0
70
0
0
BLOCK_RECORD
5
1B
100
AcDbSymbolTableRecord
100
AcDbBlockTableRecord
2
*Paper_Space
340
0
70
0
0
BLOCK_RECORD
5
23
100
AcDbSymbolTableRecord
100
AcDbBlockTableRecord
2
*Paper_Space0
340
0
70
0
0
BLOCK_RECORD
5
136
100
AcDbSymbolTableRecord
100
AcDbBlockTableRecord
2
*D1
340
0
70
0
0
BLOCK_RECORD
5
142
100
AcDbSymbolTableRecord
100
AcDbBlockTableRecord
2
_U0
340
0
70
0
0
BLOCK_RECORD
5
150
100
AcDbSymbolTableRecord
100
AcDbBlockTableRecord
2
*D3
340
0
70
0
0
BLOCK_RECORD
5
15C
100
AcDbSymbolTableRecord
100
AcDbBlockTableRecord
2
_U1
340
0
70
0
0
BLOCK_RECORD
5
168
100
AcDbSymbolTableRecord
100
AcDbBlockTableRecord
2
*D5
340
0
70
0
0
BLOCK_RECORD
5
174
100
AcDbSymbolTableRecord
100
AcDbBlockTableRecord
2
_U2
340
0
70
0
0
BLOCK_RECORD
5
180
100
AcDbSymbolTableRecord
100
AcDbBlockTableRecord
2
*D7
340
0
70
0
0
BLOCK_RECORD
5
18C
100
AcDbSymbolTableRecord
100
AcDbBlockTableRecord
2
_U3
340
0
70
0
0
BLOCK_RECORD
5
198
100
AcDbSymbolTableRecord
100
AcDbBlockTableRecord
2
*D9
340
0
70
0
0
BLOCK_RECORD
5
1A4
100
AcDbSymbolTableRecord
100
AcDbBlockTableRecord
2
_U4
340
0
70
0
0
ENDTAB
0
ENDSEC
0
SECTION
2
BLOCKS
0
BLOCK
5
20
100
AcDbEntity
8
0
100
AcDbBlockBegin
2
*Model_Space
70
0
10
0
20
0
30
0
3
*Model_Space
0
ENDBLK
5
21
100
AcDbEntity
8
0
100
AcDbBlockEnd
0
BLOCK
5
1C
100
AcDbEntity
8
0
100
AcDbBlockBegin
2
*Paper_Space
70
0
10
0
20
0
30
0
3
*Paper_Space
0
ENDBLK
5
1D
100
AcDbEntity
8
0
100
AcDbBlockEnd
0
BLOCK
5
24
100
AcDbEntity
8
0
100
AcDbBlockBegin
2
*Paper_Space0
70
0
10
0
20
0
30
0
3
*Paper_Space0
0
ENDBLK
5
25
100
AcDbEntity
8
0
100
AcDbBlockEnd
0
BLOCK
5
137
100
AcDbEntity
8
0
100
AcDbBlockBegin
2
*D1
70
1
10
0
20
0
30
0
3
*D1
0
LINE
5
139
100
AcDbEntity
8
0
62
256
6
ByLayer
370
-2
48
1
60
0
100
AcDbLine
10
85
20
-8.9325
30
0
11
85
21
-27.182954
31
0
39
0
210
0
220
0
230
1
0
LINE
5
13A
100
AcDbEntity
8
0
62
256
6
ByLayer
370
-2
48
1
60
0
100
AcDbLine
10
22
20
-8.9325
30
0
11
22
21
-27.182954
31
0
39
0
210
0
220
0
230
1
0
LINE
5
13B
100
AcDbEntity
8
0
62
256
6
ByLayer
370
-2
48
1
60
0
100
AcDbLine
10
81.5
20
-25.182954
30
0
11
25.5
21
-25.182954
31
0
39
0
210
0
220
0
230
1
0
SOLID
5
13C
100
AcDbEntity
8
0
62
256
6
ByLayer
370
-1
48
1
60
0
100
AcDbTrace
10
81.5
20
-25.766287
30
0
11
81.5
21
-24.59962
31
0
12
85
22
-25.182954
32
0
13
85
23
-25.182954
33
0
39
0
210
0
220
0
230
1
0
SOLID
5
13D
100
AcDbEntity
8
0
62
256
6
ByLayer
370
-1
48
1
60
0
100
AcDbTrace
10
25.5
20
-24.59962
30
0
11
25.5
21
-25.766287
31
0
12
22
22
-25.182954
32
0
13
22
23
-25.182954
33
0
39
0
210
0
220
0
230
1
0
MTEXT
5
13E
100
AcDbEntity
8
0
62
256
6
ByLayer
370
18
48
1
60
0
100
AcDbMText
10
53.5
20
-19.182954
30
0
210
0
220
0
230
1
1
\A1;63
40
3
41
0
44
1
50
0
71
5
72
5
7
iso_b_vert
0
POINT
5
13F
100
AcDbEntity
8
Defpoints
62
0
6
ByLayer
370
-1
48
1
60
0
100
AcDbPoint
10
85
20
-7.345
30
0
39
0
210
0
220
0
230
1
50
360
0
POINT
5
140
100
AcDbEntity
8
Defpoints
62
0
6
ByLayer
370
-1
48
1
60
0
100
AcDbPoint
10
22
20
-7.345
30
0
39
0
210
0
220
0
230
1
50
360
0
POINT
5
141
100
AcDbEntity
8
Defpoints
62
0
6
ByLayer
370
-1
48
1
60
0
100
AcDbPoint
10
22
20
-25.182954
30
0
39
0
210
0
220
0
230
1
50
360
0
ENDBLK
5
138
100
AcDbEntity
8
0
100
AcDbBlockEnd
0
BLOCK
5
14B
100
AcDbEntity
8
0
100
AcDbBlockBegin
2
_U0
70
0
10
0
20
0
30
0
3
_U0
0
MTEXT
5
143
100
AcDbEntity
8
SK2
62
256
6
ByLayer
370
18
48
1
60
0
100
AcDbMText
10
51.867172
20
-22.985339
30
0
210
0
220
0
230
1
1
\W0.6740;63
40
3
41
0
44
1.084337
50
0
71
7
72
5
7
iso_b_vert
0
MTEXT
5
144
100
AcDbEntity
8
SK2
62
256
6
ByLayer
370
18
48
1
60
0
100
AcDbMText
10
49.767172
20
-22.985339
30
0
210
0
220
0
230
1
1
\W1.1313;{\H1.88x;(}
40
3
41
0
44
1.084337
50
0
71
7
72
5
7
iso_b_vert
0
MTEXT
5
145
100
AcDbEntity
8
SK2
62
256
6
ByLayer
370
18
48
1
60
0
100
AcDbMText
10
55.450828
20
-22.985339
30
0
210
0
220
0
230
1
1
\W1.1313;{\H1.88x;)}
40
3
41
0
44
1.084337
50
0
71
7
72
5
7
iso_b_vert
0
LINE
5
146
100
AcDbEntity
8
SK2
62
256
6
ByLayer
370
13
48
1
60
0
100
AcDbLine
10
85
20
-8.9325
30
0
11
85
21
-27.182954
31
0
39
0
210
0
220
0
230
1
0
LINE
5
147
100
AcDbEntity
8
SK2
62
256
6
ByLayer
370
13
48
1
60
0
100
AcDbLine
10
22
20
-8.9325
30
0
11
22
21
-27.182954
31
0
39
0
210
0
220
0
230
1
0
LINE
5
148
100
AcDbEntity
8
SK2
62
256
6
ByLayer
370
13
48
1
60
0
100
AcDbLine
10
85
20
-25.182954
30
0
11
22
21
-25.182954
31
0
39
0
210
0
220
0
230
1
0
SOLID
5
149
100
AcDbEntity
8
SK2
62
256
6
ByLayer
370
18
48
1
60
0
100
AcDbTrace
10
85
20
-25.182954
30
0
11
81.500002
21
-25.643737
31
0
12
81.499998
22
-24.72217
32
0
13
81.499998
23
-24.72217
33
0
39
0
210
0
220
0
230
1
0
SOLID
5
14A
100
AcDbEntity
8
SK2
62
256
6
ByLayer
370
18
48
1
60
0
100
AcDbTrace
10
22
20
-25.182954
30
0
11
25.499998
21
-24.72217
31
0
12
25.500002
22
-25.643737
32
0
13
25.500002
23
-25.643737
33
0
39
0
210
0
220
0
230
1
0
ENDBLK
5
14C
100
AcDbEntity
8
0
100
AcDbBlockEnd
0
BLOCK
5
151
100
AcDbEntity
8
0
100
AcDbBlockBegin
2
*D3
70
1
10
0
20
0
30
0
3
*D3
0
LINE
5
153
100
AcDbEntity
8
0
62
256
6
ByLayer
370
-2
48
1
60
0
100
AcDbLine
10
85
20
-8.9325
30
0
11
85
21
-37.182954
31
0
39
0
210
0
220
0
230
1
0
LINE
5
154
100
AcDbEntity
8
0
62
256
6
ByLayer
370
-2
48
1
60
0
100
AcDbLine
10
2
20
-8.9325
30
0
11
2
21
-37.182954
31
0
39
0
210
0
220
0
230
1
0
LINE
5
155
100
AcDbEntity
8
0
62
256
6
ByLayer
370
-2
48
1
60
0
100
AcDbLine
10
81.5
20
-35.182954
30
0
11
5.5
21
-35.182954
31
0
39
0
210
0
220
0
230
1
0
SOLID
5
156
100
AcDbEntity
8
0
62
256
6
ByLayer
370
-1
48
1
60
0
100
AcDbTrace
10
81.5
20
-35.766287
30
0
11
81.5
21
-34.59962
31
0
12
85
22
-35.182954
32
0
13
85
23
-35.182954
33
0
39
0
210
0
220
0
230
1
0
SOLID
5
157
100
AcDbEntity
8
0
62
256
6
ByLayer
370
-1
48
1
60
0
100
AcDbTrace
10
5.5
20
-34.59962
30
0
11
5.5
21
-35.766287
31
0
12
2
22
-35.182954
32
0
13
2
23
-35.182954
33
0
39
0
210
0
220
0
230
1
0
MTEXT
5
158
100
AcDbEntity
8
0
62
256
6
ByLayer
370
18
48
1
60
0
100
AcDbMText
10
43.5
20
-29.182954
30
0
210
0
220
0
230
1
1
\A1;83
40
3
41
0
44
1
50
0
71
5
72
5
7
iso_b_vert
0
POINT
5
159
100
AcDbEntity
8
Defpoints
62
0
6
ByLayer
370
-1
48
1
60
0
100
AcDbPoint
10
85
20
-7.345
30
0
39
0
210
0
220
0
230
1
50
360
0
POINT
5
15A
100
AcDbEntity
8
Defpoints
62
0
6
ByLayer
370
-1
48
1
60
0
100
AcDbPoint
10
2
20
-7.345
30
0
39
0
210
0
220
0
230
1
50
360
0
POINT
5
15B
100
AcDbEntity
8
Defpoints
62
0
6
ByLayer
370
-1
48
1
60
0
100
AcDbPoint
10
2
20
-35.182954
30
0
39
0
210
0
220
0
230
1
50
360
0
ENDBLK
5
152
100
AcDbEntity
8
0
100
AcDbBlockEnd
0
BLOCK
5
163
100
AcDbEntity
8
0
100
AcDbBlockBegin
2
_U1
70
0
10
0
20
0
30
0
3
_U1
0
MTEXT
5
15D
100
AcDbEntity
8
SK2
62
256
6
ByLayer
370
18
48
1
60
0
100
AcDbMText
10
41.867172
20
-34.297839
30
0
210
0
220
0
230
1
1
\W0.6740;83
40
3
41
0
44
1.084337
50
0
71
7
72
5
7
iso_b_vert
0
LINE
5
15E
100
AcDbEntity
8
SK2
62
256
6
ByLayer
370
13
48
1
60
0
100
AcDbLine
10
85
20
-8.9325
30
0
11
85
21
-37.182954
31
0
39
0
210
0
220
0
230
1
0
LINE
5
15F
100
AcDbEntity
8
SK2
62
256
6
ByLayer
370
13
48
1
60
0
100
AcDbLine
10
2
20
-8.9325
30
0
11
2
21
-37.182954
31
0
39
0
210
0
220
0
230
1
0
LINE
5
160
100
AcDbEntity
8
SK2
62
256
6
ByLayer
370
13
48
1
60
0
100
AcDbLine
10
85
20
-35.182954
30
0
11
2
21
-35.182954
31
0
39
0
210
0
220
0
230
1
0
SOLID
5
161
100
AcDbEntity
8
SK2
62
256
6
ByLayer
370
18
48
1
60
0
100
AcDbTrace
10
85
20
-35.182954
30
0
11
81.500002
21
-35.643737
31
0
12
81.499998
22
-34.72217
32
0
13
81.499998
23
-34.72217
33
0
39
0
210
0
220
0
230
1
0
SOLID
5
162
100
AcDbEntity
8
SK2
62
256
6
ByLayer
370
18
48
1
60
0
100
AcDbTrace
10
2
20
-35.182954
30
0
11
5.499998
21
-34.72217
31
0
12
5.500002
22
-35.643737
32
0
13
5.500002
23
-35.643737
33
0
39
0
210
0
220
0
230
1
0
ENDBLK
5
164
100
AcDbEntity
8
0
100
AcDbBlockEnd
0
BLOCK
5
169
100
AcDbEntity
8
0
100
AcDbBlockBegin
2
*D5
70
1
10
0
20
0
30
0
3
*D5
0
LINE
5
16B
100
AcDbEntity
8
0
62
256
6
ByLayer
370
-2
48
1
60
0
100
AcDbLine
10
-48
20
-9.5875
30
0
11
-48
21
-45.182954
31
0
39
0
210
0
220
0
230
1
0
LINE
5
16C
100
AcDbEntity
8
0
62
256
6
ByLayer
370
-2
48
1
60
0
100
AcDbLine
10
0
20
-9.5875
30
0
11
0
21
-45.182954
31
0
39
0
210
0
220
0
230
1
0
LINE
5
16D
100
AcDbEntity
8
0
62
256
6
ByLayer
370
-2
48
1
60
0
100
AcDbLine
10
-44.5
20
-43.182954
30
0
11
-3.5
21
-43.182954
31
0
39
0
210
0
220
0
230
1
0
SOLID
5
16E
100
AcDbEntity
8
0
62
256
6
ByLayer
370
-1
48
1
60
0
100
AcDbTrace
10
-44.5
20
-42.59962
30
0
11
-44.5
21
-43.766287
31
0
12
-48
22
-43.182954
32
0
13
-48
23
-43.182954
33
0
39
0
210
0
220
0
230
1
0
SOLID
5
16F
100
AcDbEntity
8
0
62
256
6
ByLayer
370
-1
48
1
60
0
100
AcDbTrace
10
-3.5
20
-43.766287
30
0
11
-3.5
21
-42.59962
31
0
12
0
22
-43.182954
32
0
13
0
23
-43.182954
33
0
39
0
210
0
220
0
230
1
0
MTEXT
5
170
100
AcDbEntity
8
0
62
256
6
ByLayer
370
18
48
1
60
0
100
AcDbMText
10
-24
20
-37.182954
30
0
210
0
220
0
230
1
1
\A1;48
40
3
41
0
44
1
50
0
71
5
72
5
7
iso_b_vert
0
POINT
5
171
100
AcDbEntity
8
Defpoints
62
0
6
ByLayer
370
-1
48
1
60
0
100
AcDbPoint
10
-48
20
-8
30
0
39
0
210
0
220
0
230
1
50
360
0
POINT
5
172
100
AcDbEntity
8
Defpoints
62
0
6
ByLayer
370
-1
48
1
60
0
100
AcDbPoint
10
0
20
-8
30
0
39
0
210
0
220
0
230
1
50
360
0
POINT
5
173
100
AcDbEntity
8
Defpoints
62
0
6
ByLayer
370
-1
48
1
60
0
100
AcDbPoint
10
0
20
-43.182954
30
0
39
0
210
0
220
0
230
1
50
360
0
ENDBLK
5
16A
100
AcDbEntity
8
0
100
AcDbBlockEnd
0
BLOCK
5
17B
100
AcDbEntity
8
0
100
AcDbBlockBegin
2
_U2
70
0
10
0
20
0
30
0
3
_U2
0
MTEXT
5
175
100
AcDbEntity
8
SK2
62
256
6
ByLayer
370
18
48
1
60
0
100
AcDbMText
10
-25.790771
20
-42.297839
30
0
210
0
220
0
230
1
1
\W0.7361;48
40
3
41
0
44
1.084337
50
0
71
7
72
5
7
iso_b_vert
0
LINE
5
176
100
AcDbEntity
8
SK2
62
256
6
ByLayer
370
13
48
1
60
0
100
AcDbLine
10
-48
20
-9.5875
30
0
11
-48
21
-45.182954
31
0
39
0
210
0
220
0
230
1
0
LINE
5
177
100
AcDbEntity
8
SK2
62
256
6
ByLayer
370
13
48
1
60
0
100
AcDbLine
10
0
20
-9.5875
30
0
11
0
21
-45.182954
31
0
39
0
210
0
220
0
230
1
0
LINE
5
178
100
AcDbEntity
8
SK2
62
256
6
ByLayer
370
13
48
1
60
0
100
AcDbLine
10
-48
20
-43.182954
30
0
11
0
21
-43.182954
31
0
39
0
210
0
220
0
230
1
0
SOLID
5
179
100
AcDbEntity
8
SK2
62
256
6
ByLayer
370
18
48
1
60
0
100
AcDbTrace
10
-48
20
-43.182954
30
0
11
-44.500002
21
-42.72217
31
0
12
-44.499998
22
-43.643737
32
0
13
-44.499998
23
-43.643737
33
0
39
0
210
0
220
0
230
1
0
SOLID
5
17A
100
AcDbEntity
8
SK2
62
256
6
ByLayer
370
18
48
1
60
0
100
AcDbTrace
10
0
20
-43.182954
30
0
11
-3.499998
21
-43.643737
31
0
12
-3.500002
22
-42.72217
32
0
13
-3.500002
23
-42.72217
33
0
39
0
210
0
220
0
230
1
0
ENDBLK
5
17C
100
AcDbEntity
8
0
100
AcDbBlockEnd
0
BLOCK
5
181
100
AcDbEntity
8
0
100
AcDbBlockBegin
2
*D7
70
1
10
0
20
0
30
0
3
*D7
0
LINE
5
183
100
AcDbEntity
8
0
62
256
6
ByLayer
370
-2
48
1
60
0
100
AcDbLine
10
-48
20
-9.5875
30
0
11
-48
21
-53.182954
31
0
39
0
210
0
220
0
230
1
0
LINE
5
184
100
AcDbEntity
8
0
62
256
6
ByLayer
370
-2
48
1
60
0
100
AcDbLine
10
85
20
-8.9325
30
0
11
85
21
-53.182954
31
0
39
0
210
0
220
0
230
1
0
LINE
5
185
100
AcDbEntity
8
0
62
256
6
ByLayer
370
-2
48
1
60
0
100
AcDbLine
10
-44.5
20
-51.182954
30
0
11
81.5
21
-51.182954
31
0
39
0
210
0
220
0
230
1
0
SOLID
5
186
100
AcDbEntity
8
0
62
256
6
ByLayer
370
-1
48
1
60
0
100
AcDbTrace
10
-44.5
20
-50.59962
30
0
11
-44.5
21
-51.766287
31
0
12
-48
22
-51.182954
32
0
13
-48
23
-51.182954
33
0
39
0
210
0
220
0
230
1
0
SOLID
5
187
100
AcDbEntity
8
0
62
256
6
ByLayer
370
-1
48
1
60
0
100
AcDbTrace
10
81.5
20
-51.766287
30
0
11
81.5
21
-50.59962
31
0
12
85
22
-51.182954
32
0
13
85
23
-51.182954
33
0
39
0
210
0
220
0
230
1
0
MTEXT
5
188
100
AcDbEntity
8
0
62
256
6
ByLayer
370
18
48
1
60
0
100
AcDbMText
10
18.5
20
-45.182954
30
0
210
0
220
0
230
1
1
\A1;133
40
3
41
0
44
1
50
0
71
5
72
5
7
iso_b_vert
0
POINT
5
189
100
AcDbEntity
8
Defpoints
62
0
6
ByLayer
370
-1
48
1
60
0
100
AcDbPoint
10
-48
20
-8
30
0
39
0
210
0
220
0
230
1
50
360
0
POINT
5
18A
100
AcDbEntity
8
Defpoints
62
0
6
ByLayer
370
-1
48
1
60
0
100
AcDbPoint
10
85
20
-7.345
30
0
39
0
210
0
220
0
230
1
50
360
0
POINT
5
18B
100
AcDbEntity
8
Defpoints
62
0
6
ByLayer
370
-1
48
1
60
0
100
AcDbPoint
10
85
20
-51.182954
30
0
39
0
210
0
220
0
230
1
50
360
0
ENDBLK
5
182
100
AcDbEntity
8
0
100
AcDbBlockEnd
0
BLOCK
5
193
100
AcDbEntity
8
0
100
AcDbBlockBegin
2
_U3
70
0
10
0
20
0
30
0
3
_U3
0
MTEXT
5
18D
100
AcDbEntity
8
SK2
62
256
6
ByLayer
370
18
48
1
60
0
100
AcDbMText
10
16.121201
20
-50.297839
30
0
210
0
220
0
230
1
1
\W0.6217;133
40
3
41
0
44
1.084337
50
0
71
7
72
5
7
iso_b_vert
0
LINE
5
18E
100
AcDbEntity
8
SK2
62
256
6
ByLayer
370
13
48
1
60
0
100
AcDbLine
10
-48
20
-9.5875
30
0
11
-48
21
-53.182954
31
0
39
0
210
0
220
0
230
1
0
LINE
5
18F
100
AcDbEntity
8
SK2
62
256
6
ByLayer
370
13
48
1
60
0
100
AcDbLine
10
85
20
-8.9325
30
0
11
85
21
-53.182954
31
0
39
0
210
0
220
0
230
1
0
LINE
5
190
100
AcDbEntity
8
SK2
62
256
6
ByLayer
370
13
48
1
60
0
100
AcDbLine
10
-48
20
-51.182954
30
0
11
85
21
-51.182954
31
0
39
0
210
0
220
0
230
1
0
SOLID
5
191
100
AcDbEntity
8
SK2
62
256
6
ByLayer
370
18
48
1
60
0
100
AcDbTrace
10
-48
20
-51.182954
30
0
11
-44.500002
21
-50.72217
31
0
12
-44.499998
22
-51.643737
32
0
13
-44.499998
23
-51.643737
33
0
39
0
210
0
220
0
230
1
0
SOLID
5
192
100
AcDbEntity
8
SK2
62
256
6
ByLayer
370
18
48
1
60
0
100
AcDbTrace
10
85
20
-51.182954
30
0
11
81.500002
21
-51.643737
31
0
12
81.499998
22
-50.72217
32
0
13
81.499998
23
-50.72217
33
0
39
0
210
0
220
0
230
1
0
ENDBLK
5
194
100
AcDbEntity
8
0
100
AcDbBlockEnd
0
BLOCK
5
199
100
AcDbEntity
8
0
100
AcDbBlockBegin
2
*D9
70
1
10
0
20
0
30
0
3
*D9
0
LINE
5
19B
100
AcDbEntity
8
0
62
256
6
ByLayer
370
-2
48
1
60
0
100
AcDbLine
10
85
20
-8.9325
30
0
11
85
21
-45.182954
31
0
39
0
210
0
220
0
230
1
0
LINE
5
19C
100
AcDbEntity
8
0
62
256
6
ByLayer
370
-2
48
1
60
0
100
AcDbLine
10
0
20
-8.9325
30
0
11
0
21
-45.182954
31
0
39
0
210
0
220
0
230
1
0
LINE
5
19D
100
AcDbEntity
8
0
62
256
6
ByLayer
370
-2
48
1
60
0
100
AcDbLine
10
81.5
20
-43.182954
30
0
11
3.5
21
-43.182954
31
0
39
0
210
0
220
0
230
1
0
SOLID
5
19E
100
AcDbEntity
8
0
62
256
6
ByLayer
370
-1
48
1
60
0
100
AcDbTrace
10
81.5
20
-43.766287
30
0
11
81.5
21
-42.59962
31
0
12
85
22
-43.182954
32
0
13
85
23
-43.182954
33
0
39
0
210
0
220
0
230
1
0
SOLID
5
19F
100
AcDbEntity
8
0
62
256
6
ByLayer
370
-1
48
1
60
0
100
AcDbTrace
10
3.5
20
-42.59962
30
0
11
3.5
21
-43.766287
31
0
12
0
22
-43.182954
32
0
13
0
23
-43.182954
33
0
39
0
210
0
220
0
230
1
0
MTEXT
5
1A0
100
AcDbEntity
8
0
62
256
6
ByLayer
370
18
48
1
60
0
100
AcDbMText
10
42.5
20
-37.182954
30
0
210
0
220
0
230
1
1
\A1;85
40
3
41
0
44
1
50
0
71
5
72
5
7
iso_b_vert
0
POINT
5
1A1
100
AcDbEntity
8
Defpoints
62
0
6
ByLayer
370
-1
48
1
60
0
100
AcDbPoint
10
85
20
-7.345
30
0
39
0
210
0
220
0
230
1
50
360
0
POINT
5
1A2
100
AcDbEntity
8
Defpoints
62
0
6
ByLayer
370
-1
48
1
60
0
100
AcDbPoint
10
0
20
-7.345
30
0
39
0
210
0
220
0
230
1
50
360
0
POINT
5
1A3
100
AcDbEntity
8
Defpoints
62
0
6
ByLayer
370
-1
48
1
60
0
100
AcDbPoint
10
0
20
-43.182954
30
0
39
0
210
0
220
0
230
1
50
360
0
ENDBLK
5
19A
100
AcDbEntity
8
0
100
AcDbBlockEnd
0
BLOCK
5
1AB
100
AcDbEntity
8
0
100
AcDbBlockBegin
2
_U4
70
0
10
0
20
0
30
0
3
_U4
0
MTEXT
5
1A5
100
AcDbEntity
8
2
62
256
6
ByLayer
370
18
48
1
60
0
100
AcDbMText
10
40.867172
20
-42.297839
30
0
210
0
220
0
230
1
1
\W0.6740;85
40
3
41
0
44
1.084337
50
0
71
7
72
5
7
iso_b_vert
0
LINE
5
1A6
100
AcDbEntity
8
2
62
256
6
ByLayer
370
13
48
1
60
0
100
AcDbLine
10
85
20
-8.9325
30
0
11
85
21
-45.182954
31
0
39
0
210
0
220
0
230
1
0
LINE
5
1A7
100
AcDbEntity
8
2
62
256
6
ByLayer
370
13
48
1
60
0
100
AcDbLine
10
0
20
-8.9325
30
0
11
0
21
-45.182954
31
0
39
0
210
0
220
0
230
1
0
LINE
5
1A8
100
AcDbEntity
8
2
62
256
6
ByLayer
370
13
48
1
60
0
100
AcDbLine
10
85
20
-43.182954
30
0
11
0
21
-43.182954
31
0
39
0
210
0
220
0
230
1
0
SOLID
5
1A9
100
AcDbEntity
8
2
62
256
6
ByLayer
370
18
48
1
60
0
100
AcDbTrace
10
85
20
-43.182954
30
0
11
81.500002
21
-43.643737
31
0
12
81.499998
22
-42.72217
32
0
13
81.499998
23
-42.72217
33
0
39
0
210
0
220
0
230
1
0
SOLID
5
1AA
100
AcDbEntity
8
2
62
256
6
ByLayer
370
18
48
1
60
0
100
AcDbTrace
10
0
20
-43.182954
30
0
11
3.499998
21
-42.72217
31
0
12
3.500002
22
-43.643737
32
0
13
3.500002
23
-43.643737
33
0
39
0
210
0
220
0
230
1
0
ENDBLK
5
1AC
100
AcDbEntity
8
0
100
AcDbBlockEnd
0
ENDSEC
0
SECTION
2
ENTITIES
0
ARC
5
BC
100
AcDbEntity
8
1
62
256
6
ByLayer
370
18
48
1
60
0
100
AcDbCircle
39
0
10
1.386043
20
-7.999303
30
0
40
0.800000000000006
210
0
220
0
230
1
100
AcDbArc
50
89.896868
51
150.028824
0
ARC
5
BD
100
AcDbEntity
8
1
62
256
6
ByLayer
370
18
48
1
60
0
100
AcDbCircle
39
0
10
1.386043
20
7.999303
30
0
40
0.800000000000006
210
0
220
0
230
1
100
AcDbArc
50
209.971176
51
270.103132
0
ARC
5
BE
100
AcDbEntity
8
1
62
256
6
ByLayer
370
18
48
1
60
0
100
AcDbCircle
39
0
10
0
20
-7.2
30
0
40
0.799999999999996
210
0
220
0
230
1
100
AcDbArc
50
270
51
330.028824
0
ARC
5
BF
100
AcDbEntity
8
1
62
256
6
ByLayer
370
18
48
1
60
0
100
AcDbCircle
39
0
10
0
20
7.2
30
0
40
0.799999999999996
210
0
220
0
230
1
100
AcDbArc
50
29.971176
51
90
0
ARC
5
C0
100
AcDbEntity
8
SK2
62
256
6
ByLayer
370
13
48
1
60
0
100
AcDbCircle
39
0
10
85
20
0
30
0
40
24.0018152762144
210
0
220
0
230
1
100
AcDbArc
50
7.18021
51
70.002489
0
ARC
5
C1
100
AcDbEntity
8
SK2
62
256
6
ByLayer
370
13
48
1
60
0
100
AcDbCircle
39
0
10
85
20
0
30
0
40
24.0018152762144
210
0
220
0
230
1
100
AcDbArc
50
289.997511
51
352.81979
0
ELLIPSE
5
C2
100
AcDbEntity
8
1
62
256
6
ByLayer
370
13
48
1
60
0
100
AcDbEllipse
10
22.100037
20
6.310766
30
0
11
-2.12575675323785E-05
21
0.00999997740576561
31
0
210
0
220
0
230
1
40
0.005867
41
-2.70382364139099
42
-1.1329675116161
0
ELLIPSE
5
C3
100
AcDbEntity
8
1
62
256
6
ByLayer
370
13
48
1
60
0
100
AcDbEllipse
10
22.059188
20
-1.695391
30
0
11
0.00343006016173048
21
0.00939333206518909
31
0
210
0
220
0
230
1
40
0.49727
41
1.52102536216062
42
2.88735735119395
0
ELLIPSE
5
C4
100
AcDbEntity
8
1
62
256
6
ByLayer
370
13
48
1
60
0
100
AcDbEllipse
10
22.099834
20
-1.712848
30
0
11
-0.00438243295541801
21
-0.00898856392263337
31
0
210
0
220
0
230
1
40
0.108516
41
-1.79459399930883
42
-0.224006800700897
0
ELLIPSE
5
C5
100
AcDbEntity
8
1
62
256
6
ByLayer
370
18
48
1
60
0
100
AcDbEllipse
10
22.14022
20
6.30682
30
0
11
-0.00206356391730112
21
-0.00978476897832611
31
0
210
0
220
0
230
1
40
0.409731
41
0.484873768455026
42
2.05255939168699
0
POINT
5
70
100
AcDbEntity
8
80
62
256
6
ByLayer
370
18
48
1
60
0
100
AcDbPoint
10
0
20
0
30
0
39
0
210
0
220
0
230
1
50
360
0
POINT
5
72
100
AcDbEntity
8
81
62
256
6
ByLayer
370
18
48
1
60
0
100
AcDbPoint
10
85
20
0
30
0
39
0
210
0
220
0
230
1
50
360
0
POINT
5
74
100
AcDbEntity
8
1
62
256
6
ByLayer
370
18
48
1
60
0
100
AcDbPoint
10
-197.674092
20
-200
30
0
39
0
210
0
220
0
230
1
50
360
0
POINT
5
76
100
AcDbEntity
8
1
62
256
6
ByLayer
370
13
48
1
60
1
100
AcDbPoint
10
-49.5
20
0
30
0
39
0
210
0
220
0
230
1
50
360
0
POINT
5
77
100
AcDbEntity
8
1
62
256
6
ByLayer
370
13
48
1
60
1
100
AcDbPoint
10
83.814781
20
0
30
0
39
0
210
0
220
0
230
1
50
360
0
POINT
5
78
100
AcDbEntity
8
1
62
256
6
ByLayer
370
18
48
1
60
1
100
AcDbPoint
10
85
20
-7.345
30
0
39
0
210
0
220
0
230
1
50
360
0
POINT
5
79
100
AcDbEntity
8
1
62
256
6
ByLayer
370
18
48
1
60
1
100
AcDbPoint
10
22
20
-7.345
30
0
39
0
210
0
220
0
230
1
50
360
0
POINT
5
7A
100
AcDbEntity
8
1
62
256
6
ByLayer
370
18
48
1
60
1
100
AcDbPoint
10
85
20
-7.345
30
0
39
0
210
0
220
0
230
1
50
360
0
POINT
5
7B
100
AcDbEntity
8
1
62
256
6
ByLayer
370
18
48
1
60
1
100
AcDbPoint
10
2
20
-7.345
30
0
39
0
210
0
220
0
230
1
50
360
0
POINT
5
7C
100
AcDbEntity
8
1
62
256
6
ByLayer
370
18
48
1
60
1
100
AcDbPoint
10
-48
20
-8
30
0
39
0
210
0
220
0
230
1
50
360
0
POINT
5
7D
100
AcDbEntity
8
1
62
256
6
ByLayer
370
18
48
1
60
1
100
AcDbPoint
10
0
20
-8
30
0
39
0
210
0
220
0
230
1
50
360
0
POINT
5
7E
100
AcDbEntity
8
1
62
256
6
ByLayer
370
18
48
1
60
1
100
AcDbPoint
10
-48
20
-8
30
0
39
0
210
0
220
0
230
1
50
360
0
POINT
5
7F
100
AcDbEntity
8
1
62
256
6
ByLayer
370
18
48
1
60
1
100
AcDbPoint
10
85
20
-7.345
30
0
39
0
210
0
220
0
230
1
50
360
0
POINT
5
80
100
AcDbEntity
8
1
62
256
6
ByLayer
370
18
48
1
60
1
100
AcDbPoint
10
85
20
-7.345
30
0
39
0
210
0
220
0
230
1
50
360
0
POINT
5
81
100
AcDbEntity
8
1
62
256
6
ByLayer
370
18
48
1
60
1
100
AcDbPoint
10
0
20
-7.345
30
0
39
0
210
0
220
0
230
1
50
360
0
SPLINE
5
C6
100
AcDbEntity
8
1
62
256
6
ByLayer
370
18
48
1
60
0
100
AcDbSpline
70
4
71
3
72
8
73
4
40
0
40
0
40
0
40
0
40
1
40
1
40
1
40
1
41
1
10
84.2761752622419
20
2.33995850155534
30
0
41
1
10
84.4649005524352
20
1.81162656108802
30
0
41
1
10
84.6520908541736
20
1.28275513902656
30
0
41
1
10
84.8377159218886
20
0.753333605370898
30
0
0
SPLINE
5
C7
100
AcDbEntity
8
1
62
256
6
ByLayer
370
18
48
1
60
0
100
AcDbSpline
70
4
71
3
72
8
73
4
40
0
40
0
40
0
40
0
40
1
40
1
40
1
40
1
41
1
10
84.8377159218886
20
0.753333605370869
30
0
41
1
10
84.889832577177
20
0.604691614763254
30
0
41
1
10
84.9429761969116
20
0.456620315168209
30
0
41
1
10
84.9971445296286
20
0.309099396028927
30
0
0
SPLINE
5
C8
100
AcDbEntity
8
1
62
256
6
ByLayer
370
18
48
1
60
0
100
AcDbSpline
70
4
71
3
72
24
73
20
40
0
40
0
40
0
40
0
40
0.12500000000014
40
0.12500000000014
40
0.18750000000021
40
0.18750000000021
40
0.25000000000028
40
0.25000000000028
40
0.31250000000035
40
0.31250000000035
40
0.37500000000042
40
0.37500000000042
40
0.500000000000396
40
0.500000000000396
40
0.750000000000229
40
0.750000000000229
40
0.875000000000114
40
0.875000000000114
40
1
40
1
40
1
40
1
41
1
10
22.100081014636
20
6.31500561607839
30
0
41
1
10
22.0922621043027
20
6.3149921197726
30
0
41
1
10
22.0846536717413
20
6.31533277352281
30
0
41
1
10
22.0735317234897
20
6.31633208563241
30
0
41
1
10
22.0698823196949
20
6.31674827414142
30
0
41
1
10
22.0628963792414
20
6.31771027140755
30
0
41
1
10
22.0595296693392
20
6.31825853184498
30
0
41
1
10
22.0530293254674
20
6.31947884783725
30
0
41
1
10
22.0498802649663
20
6.32015534338564
30
0
41
1
10
22.0439352213936
20
6.3215928118972
30
0
41
1
10
22.0411250581433
20
6.32235556527689
30
0
41
1
10
22.0331293592937
20
6.32476111189527
30
0
41
1
10
22.0283455476626
20
6.32653342069071
30
0
41
1
10
22.0157229756494
20
6.3321665366999
30
0
41
1
10
22.0097314628409
20
6.33622747057703
30
0
41
1
10
22.0036319014654
20
6.34267130343787
30
0
41
1
10
22.0021371931864
20
6.34483690360216
30
0
41
1
10
22.0001405161303
20
6.34919887922905
30
0
41
1
10
21.999639761433
20
6.3514110818866
30
0
41
1
10
21.999639761433
20
6.35360244942495
30
0
0
SPLINE
5
C9
100
AcDbEntity
8
1
62
256
6
ByLayer
370
13
48
1
60
0
100
AcDbSpline
70
4
71
3
72
10
73
6
40
0
40
0
40
0
40
0
40
0.5
40
0.5
40
1
40
1
40
1
40
1
41
1
10
22.1447291776527
20
6.31060443604193
30
0
41
1
10
22.1377855325325
20
6.3120711015961
30
0
41
1
10
22.1305742345217
20
6.313165842422
30
0
41
1
10
22.115635807368
20
6.31464260840508
30
0
41
1
10
22.1078602288087
20
6.31501904386423
30
0
41
1
10
22.100081014636
20
6.31500561607839
30
0
0
SPLINE
5
CA
100
AcDbEntity
8
1
62
256
6
ByLayer
370
18
48
1
60
0
100
AcDbSpline
70
4
71
3
72
22
73
18
40
0
40
0
40
0
40
0
40
0.500000000000001
40
0.500000000000001
40
0.750000000000052
40
0.750000000000052
40
0.875000000000077
40
0.875000000000077
40
0.937500000000042
40
0.937500000000042
40
0.968749999999975
40
0.984374999999942
40
0.984374999999942
40
0.992187499999974
40
0.996093749999987
40
0.996093749999987
40
1
40
1
40
1
40
1
41
1
10
82.2065444985461
20
7.34464052898366
30
0
41
1
10
82.2376521081875
20
7.29399338265324
30
0
41
1
10
82.2687765902302
20
7.24315615767202
30
0
41
1
10
82.3154423558678
20
7.16671706993969
30
0
41
1
10
82.330987797845
20
7.14122023067841
30
0
41
1
10
82.354339153035
20
7.10284555380042
30
0
41
1
10
82.362129070695
20
7.09003118978015
30
0
41
1
10
82.3738301067707
20
7.0707608070108
30
0
41
1
10
82.3777361822423
20
7.0643226768056
30
0
41
1
10
82.3835849380004
20
7.05468432546726
30
0
41
1
10
82.3865058957488
20
7.04987164909974
30
0
41
1
10
82.3894149593796
20
7.04508303024093
30
0
41
1
10
82.3908668336927
20
7.04269413415469
30
0
41
1
10
82.3915911156938
20
7.04150318694241
30
0
41
1
10
82.3923267955404
20
7.04028774771186
30
0
41
1
10
82.3928206163507
20
7.03947007161065
30
0
41
1
10
82.3930820043254
20
7.03903330304786
30
0
41
1
10
82.3932887391721
20
7.03870585389905
30
0
0
SPLINE
5
CB
100
AcDbEntity
8
1
62
256
6
ByLayer
370
18
48
1
60
0
100
AcDbSpline
70
4
71
3
72
18
73
14
40
0
40
0
40
0
40
0
40
0.25000000000022
40
0.25000000000022
40
0.375000000000238
40
0.375000000000238
40
0.500000000000255
40
0.500000000000255
40
0.750000000000157
40
0.750000000000157
40
0.875000000000078
40
0.875000000000078
40
1
40
1
40
1
40
1
41
1
10
22.054693849972
20
-1.70405317129712
30
0
41
1
10
22.0451179188788
20
-1.7004388984785
30
0
41
1
10
22.0370252543981
20
-1.69598468641368
30
0
41
1
10
22.0265442981257
20
-1.68835829709076
30
0
41
1
10
22.0233629435269
20
-1.68566880560607
30
0
41
1
10
22.0176844131042
20
-1.68015262376389
30
0
41
1
10
22.0151624343764
20
-1.67730768060909
30
0
41
1
10
22.0084560536558
20
-1.66853638457664
30
0
41
1
10
22.0051132963521
20
-1.6623186906798
30
0
41
1
10
22.0018246257086
20
-1.65290431545148
30
0
41
1
10
22.0010074026549
20
-1.649741094219
30
0
41
1
10
21.9999145804554
20
-1.64336567462274
30
0
41
1
10
21.999639761433
20
-1.64012626539497
30
0
41
1
10
21.999639761433
20
-1.63692949088525
30
0
0
SPLINE
5
CC
100
AcDbEntity
8
1
62
256
6
ByLayer
370
18
48
1
60
0
100
AcDbSpline
70
4
71
3
72
10
73
6
40
0
40
0
40
0
40
0
40
0.5
40
0.5
40
1
40
1
40
1
40
1
41
1
10
84.2761752622419
20
2.33995850155534
30
0
41
1
10
84.1215245753763
20
2.32208426961475
30
0
41
1
10
83.9666294114342
20
2.30605086578015
30
0
41
1
10
83.6564848723126
20
2.27665114662108
30
0
41
1
10
83.5012365236761
20
2.26327710178194
30
0
41
1
10
83.3458656725853
20
2.25082545819316
30
0
0
SPLINE
5
CD
100
AcDbEntity
8
1
62
256
6
ByLayer
370
18
48
1
60
0
100
AcDbSpline
70
4
71
3
72
32
73
28
40
0
40
0
40
0
40
0
40
0.125000000000012
40
0.125000000000012
40
0.250000000000025
40
0.250000000000025
40
0.281250000000031
40
0.281250000000031
40
0.312500000000038
40
0.312500000000038
40
0.375000000000051
40
0.375000000000051
40
0.406250000000058
40
0.406250000000058
40
0.421875000000058
40
0.421875000000058
40
0.437500000000059
40
0.437500000000059
40
0.50000000000005
40
0.50000000000005
40
0.625000000000037
40
0.625000000000037
40
0.750000000000025
40
0.750000000000025
40
0.875000000000012
40
0.875000000000012
40
1
40
1
40
1
40
1
41
1
10
84.276175262242
20
2.33995850155537
30
0
41
1
10
84.190236931175
20
2.49643380977284
30
0
41
1
10
84.1070588608084
20
2.65897630632281
30
0
41
1
10
83.9454566713362
20
2.9957048309887
30
0
41
1
10
83.8670306039594
20
3.16987659129774
30
0
41
1
10
83.7714917051622
20
3.39486025999366
30
0
41
1
10
83.7525087116262
20
3.44022239520549
30
0
41
1
10
83.7147800171357
20
3.53168323912294
30
0
41
1
10
83.6961118564161
20
3.57759505101131
30
0
41
1
10
83.6407148408308
20
3.7157510376762
30
0
41
1
10
83.6045739477125
20
3.80846590717618
30
0
41
1
10
83.5514182751198
20
3.94839643692927
30
0
41
1
10
83.5338752641981
20
3.99518265000239
30
0
41
1
10
83.507808344639
20
4.06556921639708
30
0
41
1
10
83.4991602931457
20
4.08906565306108
30
0
41
1
10
83.4819431140477
20
4.13612562276472
30
0
41
1
10
83.4733786726308
20
4.15969600026784
30
0
41
1
10
83.4307169031049
20
4.2775531412064
30
0
41
1
10
83.396713344777
20
4.37186650121583
30
0
41
1
10
83.2950686361447
20
4.65488146449795
30
0
41
1
10
83.2277923021516
20
4.84365792051881
30
0
41
1
10
83.0941380042483
20
5.22135991349336
30
0
41
1
10
83.027743696485
20
5.41033087894732
30
0
41
1
10
82.8958236698689
20
5.78813268983868
30
0
41
1
10
82.8303124609045
20
5.97693463052408
30
0
41
1
10
82.7000812911637
20
6.35411381948919
30
0
41
1
10
82.6354219480766
20
6.54230135989195
30
0
41
1
10
82.5711270349458
20
6.72999454106073
30
0
0
SPLINE
5
CE
100
AcDbEntity
8
1
62
256
6
ByLayer
370
18
48
1
60
0
100
AcDbSpline
70
4
71
3
72
8
73
4
40
0
40
0
40
0
40
0
40
1
40
1
40
1
40
1
41
1
10
82.5711270349458
20
6.72999454106073
30
0
41
1
10
82.5118152091948
20
6.832906273432
30
0
41
1
10
82.4525335505615
20
6.93581472252987
30
0
41
1
10
82.3932887391721
20
7.03870585389907
30
0
0
SPLINE
5
CF
100
AcDbEntity
8
1
62
256
6
ByLayer
370
18
48
1
60
0
100
AcDbSpline
70
4
71
3
72
22
73
18
40
0
40
0
40
0
40
0
40
0.183958793091023
40
0.183958793091023
40
0.367917586182046
40
0.367917586182046
40
0.459896982727555
40
0.459896982727555
40
0.551876379273064
40
0.551876379273064
40
0.735835172364088
40
0.735835172364088
40
0.827814568909599
40
0.827814568909599
40
0.919793965455112
40
0.919793965455112
40
1
40
1
40
1
40
1
41
1
10
82.3932887391723
20
7.03870585389853
30
0
41
1
10
81.7638152705825
20
7.04479087429738
30
0
41
1
10
81.1356751326681
20
7.02895402641107
30
0
41
1
10
79.8796838715061
20
6.95467302831642
30
0
41
1
10
79.2518992920627
20
6.89632083281447
30
0
41
1
10
78.3086696961287
20
6.77693929419286
30
0
41
1
10
77.9940051714176
20
6.73184082765189
30
0
41
1
10
77.363875866827
20
6.63099378399846
30
0
41
1
10
77.0493450822818
20
6.57537514512853
30
0
41
1
10
76.1071229274966
20
6.39367639906209
30
0
41
1
10
75.4806420651195
20
6.25279646493138
30
0
41
1
10
74.5415783319439
20
6.01360480520685
30
0
41
1
10
74.2286672416877
20
5.92924227673589
30
0
41
1
10
73.6027867936278
20
5.75169260283189
30
0
41
1
10
73.2898284520741
20
5.65851310213134
30
0
41
1
10
72.7036471088446
20
5.47607817782372
30
0
41
1
10
72.4304601972394
20
5.38785267765479
30
0
41
1
10
72.1570419325951
20
5.29647466045409
30
0
0
SPLINE
5
D0
100
AcDbEntity
8
1
62
256
6
ByLayer
370
18
48
1
60
0
100
AcDbSpline
70
4
71
3
72
24
73
20
40
0
40
0
40
0
40
0
40
0.0555178188371296
40
0.0555178188371296
40
0.173578091482519
40
0.173578091482519
40
0.232608227805199
40
0.232608227805199
40
0.291638364127879
40
0.291638364127879
40
0.409698636773238
40
0.409698636773238
40
0.527758909418598
40
0.527758909418598
40
0.645819182063957
40
0.645819182063957
40
0.763879454709316
40
0.763879454709316
40
1
40
1
40
1
40
1
41
1
10
81.924329069716
20
1.65252324865392
30
0
41
1
10
81.9452238111211
20
1.6460382915906
30
0
41
1
10
81.9663333356292
20
1.6391861347166
30
0
41
1
10
82.0329707824031
20
1.6166720943942
30
0
41
1
10
82.0792089509333
20
1.59979595204777
30
0
41
1
10
82.1497329398768
20
1.57248705045919
30
0
41
1
10
82.173437093465
20
1.5630487267436
30
0
41
1
10
82.2212110246808
20
1.54354699718908
30
0
41
1
10
82.2453008548546
20
1.53347834899054
30
0
41
1
10
82.3177476251557
20
1.50260344936226
30
0
41
1
10
82.3663510112858
20
1.48110643047306
30
0
41
1
10
82.4640109150199
20
1.43675724769793
30
0
41
1
10
82.5130783834808
20
1.41387233393704
30
0
41
1
10
82.6117771227241
20
1.36641638673566
30
0
41
1
10
82.6614126898453
20
1.34183250456982
30
0
41
1
10
82.7612674239649
20
1.29091941355091
30
0
41
1
10
82.8114800223835
20
1.26460984883781
30
0
41
1
10
82.9629149838731
20
1.18329713174677
30
0
41
1
10
83.0649360668798
20
1.12590530988175
30
0
41
1
10
83.1678319666245
20
1.06589724175191
30
0
0
SPLINE
5
D1
100
AcDbEntity
8
1
62
256
6
ByLayer
370
18
48
1
60
0
100
AcDbSpline
70
4
71
3
72
26
73
22
40
0
40
0
40
0
40
0
40
0.149936308549341
40
0.149936308549341
40
0.299872617098681
40
0.299872617098681
40
0.337356694235993
40
0.337356694235993
40
0.374840771373306
40
0.374840771373306
40
0.449808925647974
40
0.449808925647974
40
0.599745234197312
40
0.599745234197312
40
0.674713388471981
40
0.674713388471981
40
0.749681542746649
40
0.749681542746649
40
0.899617851296024
40
0.899617851296024
40
1
40
1
40
1
40
1
41
1
10
83.3458656725852
20
2.25082545819313
30
0
41
1
10
83.2590156490467
20
2.2438651723275
30
0
41
1
10
83.1731347627315
20
2.2323773207095
30
0
41
1
10
83.0033322073045
20
2.20030526881445
30
0
41
1
10
82.9194121236048
20
2.1797133617755
30
0
41
1
10
82.8156974971371
20
2.14852231953242
30
0
41
1
10
82.7950135222281
20
2.14201314817467
30
0
41
1
10
82.753760972308
20
2.12846622561176
30
0
41
1
10
82.7331712109697
20
2.12141973364919
30
0
41
1
10
82.6720956492778
20
2.09970672572643
30
0
41
1
10
82.6321348109466
20
2.08441389171478
30
0
41
1
10
82.5143570067134
20
2.03652563492108
30
0
41
1
10
82.4386400358827
20
2.00192807098131
30
0
41
1
10
82.328620667219
20
1.94779981804817
30
0
41
1
10
82.2925414768263
20
1.92938292770506
30
0
41
1
10
82.2214743503204
20
1.89208399435933
30
0
41
1
10
82.1864246553475
20
1.87316547168578
30
0
41
1
10
82.084250643337
20
1.81694519151281
30
0
41
1
10
82.0195802401377
20
1.779943118989
30
0
41
1
10
81.9164506106278
20
1.72037645657639
30
0
41
1
10
81.8763958817574
20
1.69707527682735
30
0
41
1
10
81.8375483810939
20
1.67457278596061
30
0
0
SPLINE
5
D2
100
AcDbEntity
8
1
62
256
6
ByLayer
370
18
48
1
60
0
100
AcDbSpline
70
4
71
3
72
8
73
4
40
0
40
0
40
0
40
0
40
1
40
1
40
1
40
1
41
1
10
82.5711270349459
20
-6.72999454106071
30
0
41
1
10
82.511815209195
20
-6.83290627343177
30
0
41
1
10
82.4525335505618
20
-6.9358147225295
30
0
41
1
10
82.3932887391725
20
-7.03870585389853
30
0
0
SPLINE
5
D3
100
AcDbEntity
8
1
62
256
6
ByLayer
370
18
48
1
60
0
100
AcDbSpline
70
4
71
3
72
22
73
18
40
0
40
0
40
0
40
0
40
0.499999999999954
40
0.499999999999954
40
0.749999999999934
40
0.749999999999934
40
0.874999999999923
40
0.874999999999923
40
0.937499999999916
40
0.937499999999916
40
0.96874999999996
40
0.98437499999998
40
0.98437499999998
40
0.99218749999999
40
0.996093749999995
40
0.996093749999995
40
1
40
1
40
1
40
1
41
1
10
82.2065444985416
20
-7.34464052899108
30
0
41
1
10
82.2376521081837
20
-7.29399338265938
30
0
41
1
10
82.2687765902272
20
-7.24315615767685
30
0
41
1
10
82.315442355866
20
-7.16671706994259
30
0
41
1
10
82.3309877978436
20
-7.14122023068063
30
0
41
1
10
82.3543391530342
20
-7.10284555380167
30
0
41
1
10
82.3621290706945
20
-7.09003118978106
30
0
41
1
10
82.3738301067705
20
-7.07076080701123
30
0
41
1
10
82.3777361822421
20
-7.06432267680586
30
0
41
1
10
82.3835849380005
20
-7.05468432546726
30
0
41
1
10
82.3865058957489
20
-7.04987164909966
30
0
41
1
10
82.3894149593796
20
-7.04508303024073
30
0
41
1
10
82.3908668336929
20
-7.0426941341544
30
0
41
1
10
82.3915911156942
20
-7.04150318694212
30
0
41
1
10
82.3923267955407
20
-7.04028774771152
30
0
41
1
10
82.3928206163509
20
-7.03947007161031
30
0
41
1
10
82.3930820043256
20
-7.03903330304746
30
0
41
1
10
82.3932887391724
20
-7.03870585389876
30
0
0
SPLINE
5
D4
100
AcDbEntity
8
1
62
256
6
ByLayer
370
18
48
1
60
0
100
AcDbSpline
70
4
71
3
72
88
73
84
40
0
40
0
40
0
40
0
40
0.0152123490710196
40
0.0152123490710196
40
0.0285098676029936
40
0.0285098676029936
40
0.0418073861349676
40
0.0418073861349676
40
0.0684024231989157
40
0.0684024231989157
40
0.0949974602628637
40
0.0949974602628637
40
0.121592497326812
40
0.121592497326812
40
0.134890015858786
40
0.134890015858786
40
0.14818753439076
40
0.14818753439076
40
0.174782571454709
40
0.174782571454709
40
0.227972645582608
40
0.227972645582608
40
0.254567682646557
40
0.254567682646557
40
0.267865201178532
40
0.267865201178532
40
0.281162719710507
40
0.281162719710507
40
0.334352793838408
40
0.334352793838408
40
0.360947830902358
40
0.360947830902358
40
0.374245349434333
40
0.374245349434333
40
0.387542867966307
40
0.387542867966307
40
0.440732942094207
40
0.440732942094207
40
0.467327979158157
40
0.467327979158157
40
0.493923016222106
40
0.493923016222106
40
0.507220534754082
40
0.507220534754082
40
0.520518053286057
40
0.520518053286057
40
0.547113090350008
40
0.547113090350008
40
0.600303164477907
40
0.600303164477907
40
0.626898201541857
40
0.626898201541857
40
0.653493238605806
40
0.653493238605806
40
0.706683312733706
40
0.706683312733706
40
0.719980831265682
40
0.719980831265682
40
0.733278349797657
40
0.733278349797657
40
0.759873386861607
40
0.759873386861607
40
0.786468423925558
40
0.786468423925558
40
0.813063460989508
40
0.813063460989508
40
0.839658498053458
40
0.839658498053458
40
0.852956016585434
40
0.852956016585434
40
0.86625353511741
40
0.86625353511741
40
0.919443609245313
40
0.919443609245313
40
0.946038646309264
40
0.946038646309264
40
0.95933616484124
40
0.95933616484124
40
0.972633683373216
40
0.972633683373216
40
0.999228720437169
40
0.999228720437169
40
1
40
1
40
1
40
1
41
1
10
64.0802903360993
20
-1.87102633643806
30
0
41
1
10
63.9003791004814
20
-1.78297219857402
30
0
41
1
10
63.7204198323572
20
-1.69440724760156
30
0
41
1
10
63.3830171276335
20
-1.52754983317817
30
0
41
1
10
63.2255868421553
20
-1.44937561848889
30
0
41
1
10
62.9105629156574
20
-1.29241427007983
30
0
41
1
10
62.7530800367505
20
-1.21368149260502
30
0
41
1
10
62.2808988275389
20
-0.976967149084658
30
0
41
1
10
61.9663665788952
20
-0.818417700303456
30
0
41
1
10
61.3375066967441
20
-0.500445833168129
30
0
41
1
10
61.0231765237813
20
-0.34102858871006
30
0
41
1
10
60.3944579131193
20
-0.0218441290823819
30
0
41
1
10
60.0800751228869
20
0.137934264776305
30
0
41
1
10
59.6082098329958
20
0.377379845367074
30
0
41
1
10
59.4508735501121
20
0.457159310855985
30
0
41
1
10
59.1360669210811
20
0.616571544857152
30
0
41
1
10
58.9785637213503
20
0.696220977430698
30
0
41
1
10
58.506017770235
20
0.934729199631875
30
0
41
1
10
58.1912996313271
20
1.09295667779307
30
0
41
1
10
57.2476503229673
20
1.56449958857863
30
0
41
1
10
56.6192778060042
20
1.87479840293525
30
0
41
1
10
55.6759095175213
20
2.33039419105737
30
0
41
1
10
55.3613214486822
20
2.48062208089962
30
0
41
1
10
54.8890140801934
20
2.70309083048576
30
0
41
1
10
54.7314532797785
20
2.77679409509346
30
0
41
1
10
54.4164834699887
20
2.92303188887073
30
0
41
1
10
54.2590743239844
20
2.99556779936165
30
0
41
1
10
53.4723267625473
20
3.35521503418425
30
0
41
1
10
52.8438464506777
20
3.63312737705124
30
0
41
1
10
51.9006617658313
20
4.03194921081328
30
0
41
1
10
51.5861931388074
20
4.16188578040948
30
0
41
1
10
51.1141692471441
20
4.35196492547973
30
0
41
1
10
50.9567754453988
20
4.41452259083658
30
0
41
1
10
50.6418502588097
20
4.53798180534116
30
0
41
1
10
50.4842857632799
20
4.59889405590317
30
0
41
1
10
49.697055882008
20
4.89870381933909
30
0
41
1
10
49.068407002511
20
5.12359215384862
30
0
41
1
10
48.1253322550686
20
5.43616879964455
30
0
41
1
10
47.8109585715824
20
5.53625132051812
30
0
41
1
10
47.1819200350273
20
5.72794385806233
30
0
41
1
10
46.867246816117
20
5.81953326893097
30
0
41
1
10
46.3947582745523
20
5.9501632205116
30
0
41
1
10
46.2372166062322
20
5.99257169381661
30
0
41
1
10
45.922367241027
20
6.07498549355992
30
0
41
1
10
45.7650092424217
20
6.11500637824656
30
0
41
1
10
45.2930801780017
20
6.23145757125025
30
0
41
1
10
44.9786528871042
20
6.30427021675817
30
0
41
1
10
44.0355470200971
20
6.50793772737211
30
0
41
1
10
43.4070670786435
20
6.62410499696284
30
0
41
1
10
42.4627729343428
20
6.76708479761135
30
0
41
1
10
42.1475777552473
20
6.80956102836902
30
0
41
1
10
41.5179970612541
20
6.8838087405741
30
0
41
1
10
41.2034605830328
20
6.91561804315472
30
0
41
1
10
40.2601997132456
20
6.9951189569887
30
0
41
1
10
39.6317601379737
20
7.02675662102197
30
0
41
1
10
38.8452176978933
20
7.03911503693413
30
0
41
1
10
38.6878603123624
20
7.04022673368405
30
0
41
1
10
38.3730138935656
20
7.03972833776626
30
0
41
1
10
38.2154923202551
20
7.03811768686961
30
0
41
1
10
37.7429124733214
20
7.02921723551154
30
0
41
1
10
37.4280261737671
20
7.01787618533473
30
0
41
1
10
36.7982430632176
20
6.98434276599312
30
0
41
1
10
36.4833476332985
20
6.96214523017386
30
0
41
1
10
35.8532533177093
20
6.9068926371109
30
0
41
1
10
35.5382650396004
20
6.8738429251361
30
0
41
1
10
34.9084696420643
20
6.79710383448557
30
0
41
1
10
34.5936117948032
20
6.75342950865337
30
0
41
1
10
34.1211605654329
20
6.68010294654371
30
0
41
1
10
33.9636086423283
20
6.65434849205275
30
0
41
1
10
33.6486872427942
20
6.60030161640742
30
0
41
1
10
33.4912988544463
20
6.57200701820611
30
0
41
1
10
32.7046187244205
20
6.42427522095741
30
0
41
1
10
32.0760903906327
20
6.28611685519664
30
0
41
1
10
31.1328968010603
20
6.05050267832851
30
0
41
1
10
30.8184377267183
20
5.96722448544739
30
0
41
1
10
30.3463939591308
20
5.83544097722009
30
0
41
1
10
30.1889877419646
20
5.79036790916911
30
0
41
1
10
29.8740211018551
20
5.69796336272893
30
0
41
1
10
29.7164533621957
20
5.65062879061711
30
0
41
1
10
29.2439556176589
20
5.50543889959391
30
0
41
1
10
28.9290667131462
20
5.40434916940458
30
0
41
1
10
28.6050189478823
20
5.29607623727676
30
0
41
1
10
28.5958860865561
20
5.29302123763424
30
0
41
1
10
28.5867531752104
20
5.28996275771388
30
0
0
SPLINE
5
D5
100
AcDbEntity
8
1
62
256
6
ByLayer
370
18
48
1
60
0
100
AcDbSpline
70
4
71
3
72
18
73
14
40
0
40
0
40
0
40
0
40
0.25000000000001
40
0.25000000000001
40
0.375000000000009
40
0.375000000000009
40
0.500000000000008
40
0.500000000000008
40
0.750000000000005
40
0.750000000000005
40
0.875000000000003
40
0.875000000000003
40
1
40
1
40
1
40
1
41
1
10
22.054693849972
20
-1.69321988747438
30
0
41
1
10
22.0451181509015
20
-1.6901953628269
30
0
41
1
10
22.0370249335358
20
-1.68646664919538
30
0
41
1
10
22.0265432064319
20
-1.68007859238011
30
0
41
1
10
22.0233616335821
20
-1.67782526478976
30
0
41
1
10
22.0176828511808
20
-1.67320247174436
30
0
41
1
10
22.0151608216358
20
-1.67081771025437
30
0
41
1
10
22.0084544837384
20
-1.66346326489477
30
0
41
1
10
22.0051120438162
20
-1.65824730955919
30
0
41
1
10
22.001823981902
20
-1.65034563133432
30
0
41
1
10
22.0010069683338
20
-1.64769001075058
30
0
41
1
10
21.9999144677804
20
-1.64233628696883
30
0
41
1
10
21.999639761433
20
-1.63961524183796
30
0
41
1
10
21.999639761433
20
-1.63692949088528
30
0
0
SPLINE
5
D6
100
AcDbEntity
8
1
62
256
6
ByLayer
370
13
48
1
60
0
100
AcDbSpline
70
4
71
3
72
10
73
6
40
0
40
0
40
0
40
0
40
0.5
40
0.5
40
1
40
1
40
1
40
1
41
1
10
22.0998551310756
20
-1.71038905207504
30
0
41
1
10
22.0920356536288
20
-1.70696236383628
30
0
41
1
10
22.0843550057942
20
-1.70381934824786
30
0
41
1
10
22.0692668641796
20
-1.69807905958035
30
0
41
1
10
22.0618038831579
20
-1.69546562122608
30
0
41
1
10
22.0546938499725
20
-1.69321988747296
30
0
0
SPLINE
5
D7
100
AcDbEntity
8
1
62
256
6
ByLayer
370
18
48
1
60
0
100
AcDbSpline
70
4
71
3
72
24
73
20
40
0
40
0
40
0
40
0
40
0.125000000000009
40
0.125000000000009
40
0.250000000000019
40
0.250000000000019
40
0.500000000000096
40
0.500000000000096
40
0.625000000000132
40
0.625000000000132
40
0.687500000000074
40
0.687500000000074
40
0.750000000000016
40
0.750000000000016
40
0.812499999999958
40
0.812499999999958
40
0.8749999999999
40
0.8749999999999
40
1
40
1
40
1
40
1
41
1
10
21.9996397614331
20
6.35360244942495
30
0
41
1
10
21.9996397614331
20
6.35064964806568
30
0
41
1
10
22.0001403478938
20
6.34766972871228
30
0
41
1
10
22.0021366539559
20
6.34179619433357
30
0
41
1
10
22.0036311469716
20
6.33888120674996
30
0
41
1
10
22.0097304994708
20
6.33021046634505
30
0
41
1
10
22.0157222927328
20
6.32475039148016
30
0
41
1
10
22.0283465860618
20
6.31718126251366
30
0
41
1
10
22.0331311122271
20
6.31480076404262
30
0
41
1
10
22.0411277940101
20
6.31157075780862
30
0
41
1
10
22.0439382749269
20
6.31054676791064
30
0
41
1
10
22.0498838773086
20
6.30861727645711
30
0
41
1
10
22.0530331472556
20
6.30770939766407
30
0
41
1
10
22.0595337005674
20
6.30607193015456
30
0
41
1
10
22.0629004315465
20
6.30533637614542
30
0
41
1
10
22.0698861738348
20
6.30404589710437
30
0
41
1
10
22.0735353319228
20
6.3034876879376
30
0
41
1
10
22.0846561111627
20
6.30214748130328
30
0
41
1
10
22.092263495745
20
6.30169074896781
30
0
41
1
10
22.100081014636
20
6.30170884847243
30
0
0
SPLINE
5
D8
100
AcDbEntity
8
1
62
256
6
ByLayer
370
18
48
1
60
0
100
AcDbSpline
70
2053
71
3
72
125
73
121
40
0
40
0
40
0
40
0
40
0.0312499999999974
40
0.0312499999999974
40
0.0624999999999949
40
0.0624999999999949
40
0.0781249999999936
40
0.0781249999999936
40
0.0937499999999923
40
0.0937499999999923
40
0.124999999999993
40
0.124999999999993
40
0.132812499999994
40
0.132812499999994
40
0.140624999999994
40
0.156249999999997
40
0.156249999999997
40
0.1875
40
0.1875
40
0.1953125
40
0.1953125
40
0.203125000000001
40
0.21875
40
0.234374999999999
40
0.234374999999999
40
0.242187499999999
40
0.242187499999999
40
0.249999999999998
40
0.249999999999998
40
0.281249999999997
40
0.281249999999997
40
0.296874999999996
40
0.296874999999996
40
0.304687499999995
40
0.304687499999995
40
0.312499999999994
40
0.312499999999994
40
0.343749999999992
40
0.343749999999992
40
0.351562499999993
40
0.351562499999993
40
0.359374999999994
40
0.359374999999994
40
0.374999999999992
40
0.390624999999991
40
0.390624999999991
40
0.406249999999989
40
0.406249999999989
40
0.421874999999988
40
0.421874999999988
40
0.437499999999986
40
0.437499999999986
40
0.468749999999983
40
0.468749999999983
40
0.484374999999984
40
0.484374999999984
40
0.492187499999985
40
0.492187499999985
40
0.499999999999986
40
0.499999999999986
40
0.531249999999984
40
0.531249999999984
40
0.539062499999984
40
0.539062499999984
40
0.546874999999985
40
0.546874999999985
40
0.562499999999991
40
0.562499999999991
40
0.593750000000003
40
0.593750000000003
40
0.601562500000005
40
0.601562500000005
40
0.609375000000007
40
0.609375000000007
40
0.625000000000011
40
0.625000000000011
40
0.656250000000016
40
0.656250000000016
40
0.671875000000018
40
0.671875000000018
40
0.687500000000021
40
0.687500000000021
40
0.718750000000025
40
0.718750000000025
40
0.726562500000026
40
0.726562500000026
40
0.734375000000028
40
0.75000000000003
40
0.765625000000033
40
0.765625000000033
40
0.773437500000034
40
0.773437500000034
40
0.781250000000035
40
0.781250000000035
40
0.812500000000034
40
0.812500000000034
40
0.820312500000034
40
0.820312500000034
40
0.828125000000034
40
0.828125000000034
40
0.843750000000034
40
0.859375000000034
40
0.859375000000034
40
0.875000000000033
40
0.875000000000033
40
0.906250000000029
40
0.906250000000029
40
0.914062500000026
40
0.914062500000026
40
0.921875000000024
40
0.937500000000019
40
0.953125000000014
40
0.953125000000014
40
0.968750000000009
40
0.968750000000009
40
0.984375000000005
40
0.984375000000005
40
0.992187500000002
40
0.992187500000002
40
1
40
1
40
1
40
1
41
1
10
83.1073941767128
20
-3.08505946229844
30
0
41
1
10
83.083153680334
20
-3.11513032613053
30
0
41
1
10
83.0599806746749
20
-3.13978912496566
30
0
41
1
10
83.0155297963555
20
-3.17893995145283
30
0
41
1
10
82.9942531909959
20
-3.19342896252397
30
0
41
1
10
82.9637019689018
20
-3.20721486581388
30
0
41
1
10
82.9538731378669
20
-3.21041761654158
30
0
41
1
10
82.934940503927
20
-3.21408536866048
30
0
41
1
10
82.9258274295203
20
-3.21455444837628
30
0
41
1
10
82.8995121758005
20
-3.21187283968823
30
0
41
1
10
82.8833251140688
20
-3.20467172569491
30
0
41
1
10
82.8647960139566
20
-3.18839000402343
30
0
41
1
10
82.8611911678673
20
-3.1847781149942
30
0
41
1
10
82.8542183848765
20
-3.17688642779845
30
0
41
1
10
82.8440970755365
20
-3.16402764117976
30
0
41
1
10
82.8349680646348
20
-3.14813211414338
30
0
41
1
10
82.8180171379217
20
-3.11225152891086
30
0
41
1
10
82.8084437626881
20
-3.08292393917103
30
0
41
1
10
82.7987909164152
20
-3.03877627394061
30
0
41
1
10
82.7969857723307
20
-3.02960300885084
30
0
41
1
10
82.7936498543871
20
-3.01069918742252
30
0
41
1
10
82.78904671645
20
-2.98144791798032
30
0
41
1
10
82.783356468209
20
-2.92824859281745
30
0
41
1
10
82.7809475917369
20
-2.88086456338493
30
0
41
1
10
82.7799858183584
20
-2.8434293117524
30
0
41
1
10
82.7798063681902
20
-2.83063406031937
30
0
41
1
10
82.7797410851929
20
-2.80438656982992
30
0
41
1
10
82.7798565604211
20
-2.79088634218041
30
0
41
1
10
82.7811865902476
20
-2.72242543485385
30
0
41
1
10
82.7846109248762
20
-2.66454207179132
30
0
41
1
10
82.7934480243869
20
-2.57298940307447
30
0
41
1
10
82.7970157601221
20
-2.54167797614099
30
0
41
1
10
82.803375921688
20
-2.4934518404925
30
0
41
1
10
82.8056666155582
20
-2.4771610343854
30
0
41
1
10
82.8105258666063
20
-2.4446254782566
30
0
41
1
10
82.8131017515166
20
-2.42832243274785
30
0
41
1
10
82.8267116065979
20
-2.346635274058
30
0
41
1
10
82.8399110415759
20
-2.2807407675167
30
0
41
1
10
82.8595422127634
20
-2.19770666002239
30
0
41
1
10
82.8636310232444
20
-2.18105415783015
30
0
41
1
10
82.8720178088139
20
-2.14813417531292
30
0
41
1
10
82.876328811407
20
-2.13180979857495
30
0
41
1
10
82.8896115567561
20
-2.08323489563392
30
0
41
1
10
82.908252894287
20
-2.01952822471205
30
0
41
1
10
82.9287647312701
20
-1.95790234918806
30
0
41
1
10
82.9502420452299
20
-1.89732934991326
30
0
41
1
10
82.9613038362446
20
-1.86802452335857
30
0
41
1
10
82.9839549794935
20
-1.81151689206416
30
0
41
1
10
82.9955604692611
20
-1.78426928726486
30
0
41
1
10
83.0193241934653
20
-1.73171469547586
30
0
41
1
10
83.0314948807196
20
-1.70638366076287
30
0
41
1
10
83.068765763689
20
-1.63342903231776
30
0
41
1
10
83.0939655952096
20
-1.59007684930427
30
0
41
1
10
83.132247021217
20
-1.53213967396843
30
0
41
1
10
83.145087868065
20
-1.51401929619823
30
0
41
1
10
83.1644642859173
20
-1.48860178201761
30
0
41
1
10
83.1709393304243
20
-1.48042923069613
30
0
41
1
10
83.1838135813384
20
-1.46480391881082
30
0
41
1
10
83.1902270381449
20
-1.4573320995886
30
0
41
1
10
83.2221763725518
20
-1.42162780347473
30
0
41
1
10
83.2473631664307
20
-1.39831610691837
30
0
41
1
10
83.2783376404955
20
-1.3754197121514
30
0
41
1
10
83.284506788063
20
-1.37115524661024
30
0
41
1
10
83.2967913011033
20
-1.36325832952284
30
0
41
1
10
83.3029160832612
20
-1.35962168767634
30
0
41
1
10
83.3210639916952
20
-1.34974107637512
30
0
41
1
10
83.3329003299952
20
-1.34449516894512
30
0
41
1
10
83.3676204680495
20
-1.33264672904002
30
0
41
1
10
83.3897228466204
20
-1.32990036574841
30
0
41
1
10
83.4159278449465
20
-1.33298000628011
30
0
41
1
10
83.421097098287
20
-1.3339242326754
30
0
41
1
10
83.4312866208527
20
-1.33648221516714
30
0
41
1
10
83.4363174405778
20
-1.33810101448569
30
0
41
1
10
83.4510603400088
20
-1.3439374964955
30
0
41
1
10
83.4604452852391
20
-1.34913175198145
30
0
41
1
10
83.4872506197275
20
-1.3685868293272
30
0
41
1
10
83.5033344594914
20
-1.38668207565962
30
0
41
1
10
83.5244927504078
20
-1.42200894993451
30
0
41
1
10
83.5310479786861
20
-1.43515736621453
30
0
41
1
10
83.5430694691822
20
-1.46441487579412
30
0
41
1
10
83.548455476191
20
-1.48034000379769
30
0
41
1
10
83.5626161659425
20
-1.53182463363251
30
0
41
1
10
83.5694527234585
20
-1.57113988362741
30
0
41
1
10
83.5743495356534
20
-1.62722460125144
30
0
41
1
10
83.5751462446298
20
-1.63882459446535
30
0
41
1
10
83.5763468817079
20
-1.66260301360273
30
0
41
1
10
83.577554141747
20
-1.69901741978225
30
0
41
1
10
83.5766247064671
20
-1.7634114266757
30
0
41
1
10
83.572712858378
20
-1.81894002320573
30
0
41
1
10
83.5685453905414
20
-1.86216499315978
30
0
41
1
10
83.5669502701885
20
-1.87683694363253
30
0
41
1
10
83.5633355181542
20
-1.90672772576031
30
0
41
1
10
83.5613073328378
20
-1.92200044092132
30
0
41
1
10
83.5502236679121
20
-1.99874217851206
30
0
41
1
10
83.5383323450804
20
-2.06179691950291
30
0
41
1
10
83.5198690559637
20
-2.14269766130545
30
0
41
1
10
83.5159947051374
20
-2.15898300802797
30
0
41
1
10
83.5078801343925
20
-2.19176870067304
30
0
41
1
10
83.5036275444525
20
-2.20831245870738
30
0
41
1
10
83.490490937755
20
-2.25762532777793
30
0
41
1
10
83.4718887576587
20
-2.32287475792626
30
0
41
1
10
83.4512729516874
20
-2.3871861486513
30
0
41
1
10
83.4296932952089
20
-2.4510437057618
30
0
41
1
10
83.4183601087166
20
-2.48289879133142
30
0
41
1
10
83.3836959439576
20
-2.57579519312489
30
0
41
1
10
83.3595598933399
20
-2.63470522870148
30
0
41
1
10
83.3282986731223
20
-2.70486662234458
30
0
41
1
10
83.3219801651496
20
-2.71874651201793
30
0
41
1
10
83.3092837262966
20
-2.74604938514938
30
0
41
1
10
83.2902226043823
20
-2.78616163381528
30
0
41
1
10
83.2583884952532
20
-2.84897965833375
30
0
41
1
10
83.2328724402456
20
-2.89513650462598
30
0
41
1
10
83.2073368337564
20
-2.93928245327547
30
0
41
1
10
83.194511892221
20
-2.96042049597304
30
0
41
1
10
83.1691689539221
20
-3.00016582983378
30
0
41
1
10
83.1566333797881
20
-3.018811974058
30
0
41
1
10
83.1380245056271
20
-3.04499450530591
30
0
41
1
10
83.1318539915719
20
-3.05342367060504
30
0
41
1
10
83.1195766112558
20
-3.06968771209259
30
0
41
1
10
83.1134543008075
20
-3.07754174634041
30
0
41
1
10
83.1073941767128
20
-3.08505946229844
30
0
0
SPLINE
5
D9
100
AcDbEntity
8
1
62
256
6
ByLayer
370
18
48
1
60
0
100
AcDbSpline
70
4
71
3
72
14
73
10
40
0
40
0
40
0
40
0
40
0.49999999999999
40
0.49999999999999
40
0.624999999999993
40
0.624999999999993
40
0.749999999999995
40
0.749999999999995
40
1
40
1
40
1
40
1
41
1
10
82.5711270349456
20
-6.7299945410615
30
0
41
1
10
82.5165377976684
20
-6.81092408298923
30
0
41
1
10
82.4666385899973
20
-6.87871880423702
30
0
41
1
10
82.409989935259
20
-6.94559672131291
30
0
41
1
10
82.3989462024111
20
-6.95807702506426
30
0
41
1
10
82.3774262716922
20
-6.98120182950004
30
0
41
1
10
82.3669427463714
20
-6.99184918299073
30
0
41
1
10
82.3366632918062
20
-7.02067617506486
30
0
41
1
10
82.3179165493957
20
-7.03587984100537
30
0
41
1
10
82.3004695244998
20
-7.04723168940734
30
0
0
SPLINE
5
DA
100
AcDbEntity
8
1
62
256
6
ByLayer
370
18
48
1
60
0
100
AcDbSpline
70
4
71
3
72
32
73
28
40
0
40
0
40
0
40
0
40
0.124999999999996
40
0.124999999999996
40
0.249999999999991
40
0.249999999999991
40
0.281249999999988
40
0.281249999999988
40
0.312499999999986
40
0.312499999999986
40
0.37499999999998
40
0.37499999999998
40
0.406249999999977
40
0.406249999999977
40
0.421874999999979
40
0.421874999999979
40
0.43749999999998
40
0.43749999999998
40
0.499999999999985
40
0.499999999999985
40
0.624999999999989
40
0.624999999999989
40
0.749999999999992
40
0.749999999999992
40
0.874999999999996
40
0.874999999999996
40
1
40
1
40
1
40
1
41
1
10
84.276175262242
20
-2.33995850155537
30
0
41
1
10
84.1902369311751
20
-2.49643380977284
30
0
41
1
10
84.1070588608083
20
-2.65897630632281
30
0
41
1
10
83.9454566713362
20
-2.99570483098867
30
0
41
1
10
83.8670306039594
20
-3.16987659129765
30
0
41
1
10
83.7714917051624
20
-3.39486025999355
30
0
41
1
10
83.7525087116262
20
-3.44022239520535
30
0
41
1
10
83.7147800171359
20
-3.5316832391228
30
0
41
1
10
83.6961118564161
20
-3.57759505101112
30
0
41
1
10
83.6407148408307
20
-3.715751037676
30
0
41
1
10
83.6045739477127
20
-3.80846590717599
30
0
41
1
10
83.5514182751198
20
-3.94839643692905
30
0
41
1
10
83.5338752641982
20
-3.99518265000216
30
0
41
1
10
83.507808344639
20
-4.06556921639685
30
0
41
1
10
83.4991602931458
20
-4.08906565306083
30
0
41
1
10
83.4819431140477
20
-4.13612562276447
30
0
41
1
10
83.4733786726309
20
-4.15969600026759
30
0
41
1
10
83.430716903105
20
-4.27755314120614
30
0
41
1
10
83.3967133447771
20
-4.37186650121561
30
0
41
1
10
83.2950686361447
20
-4.65488146449772
30
0
41
1
10
83.2277923021516
20
-4.84365792051861
30
0
41
1
10
83.0941380042483
20
-5.22135991349322
30
0
41
1
10
83.0277436964849
20
-5.41033087894718
30
0
41
1
10
82.8958236698688
20
-5.78813268983853
30
0
41
1
10
82.8303124609045
20
-5.97693463052397
30
0
41
1
10
82.7000812911637
20
-6.3541138194891
30
0
41
1
10
82.6354219480765
20
-6.54230135989187
30
0
41
1
10
82.5711270349459
20
-6.72999454106068
30
0
0
SPLINE
5
DB
100
AcDbEntity
8
1
62
256
6
ByLayer
370
18
48
1
60
0
100
AcDbSpline
70
4
71
3
72
8
73
4
40
0
40
0
40
0
40
0
40
1
40
1
40
1
40
1
41
1
10
84.2761752622419
20
-2.33995850155534
30
0
41
1
10
84.4649005524352
20
-1.81162656108799
30
0
41
1
10
84.6520908541736
20
-1.28275513902651
30
0
41
1
10
84.8377159218886
20
-0.753333605370784
30
0
0
SPLINE
5
DC
100
AcDbEntity
8
1
62
256
6
ByLayer
370
18
48
1
60
0
100
AcDbSpline
70
4
71
3
72
8
73
4
40
0
40
0
40
0
40
0
40
1
40
1
40
1
40
1
41
1
10
84.8377159218886
20
-0.753333605370813
30
0
41
1
10
84.8898325771771
20
-0.604691614763226
30
0
41
1
10
84.9429761969117
20
-0.456620315168209
30
0
41
1
10
84.9971445296286
20
-0.309099396028984
30
0
0
SPLINE
5
DD
100
AcDbEntity
8
1
62
256
6
ByLayer
370
18
48
1
60
0
100
AcDbSpline
70
4
71
3
72
8
73
4
40
0
40
0
40
0
40
0
40
1
40
1
40
1
40
1
41
1
10
84.9971445296286
20
0.309099396028955
30
0
41
1
10
85.0009430911512
20
0.103505760065815
30
0
41
1
10
85.0009605960061
20
-0.102558325948593
30
0
41
1
10
84.9971445296286
20
-0.309099396028955
30
0
0
SPLINE
5
DE
100
AcDbEntity
8
1
62
256
6
ByLayer
370
18
48
1
60
0
100
AcDbSpline
70
4
71
3
72
60
73
56
40
0
40
0
40
0
40
0
40
0.0625000000000483
40
0.0625000000000483
40
0.0937500000000687
40
0.0937500000000687
40
0.109375000000075
40
0.109375000000075
40
0.125000000000081
40
0.125000000000081
40
0.187500000000114
40
0.187500000000114
40
0.250000000000147
40
0.250000000000147
40
0.281250000000164
40
0.281250000000164
40
0.296875000000167
40
0.296875000000167
40
0.312500000000171
40
0.312500000000171
40
0.375000000000195
40
0.375000000000195
40
0.437500000000219
40
0.437500000000219
40
0.453125000000221
40
0.453125000000221
40
0.468750000000222
40
0.468750000000222
40
0.500000000000217
40
0.500000000000217
40
0.562500000000206
40
0.562500000000206
40
0.593750000000201
40
0.593750000000201
40
0.609375000000198
40
0.609375000000198
40
0.625000000000195
40
0.625000000000195
40
0.68750000000017
40
0.68750000000017
40
0.718750000000157
40
0.718750000000157
40
0.734375000000148
40
0.734375000000148
40
0.750000000000138
40
0.750000000000138
40
0.812500000000106
40
0.812500000000106
40
0.875000000000075
40
0.875000000000075
40
0.906250000000057
40
0.906250000000057
40
0.937500000000039
40
0.937500000000039
40
1
40
1
40
1
40
1
41
1
10
84.9971445296286
20
0.309099396028927
30
0
41
1
10
84.9703636710113
20
0.23148527570936
30
0
41
1
10
84.9421514080947
20
0.15454760792079
30
0
41
1
10
84.8976910779795
20
0.0401667099015981
30
0
41
1
10
84.8825130979113
20
0.0022110999981351
30
0
41
1
10
84.8592010214448
20
-0.0544595893220503
30
0
41
1
10
84.8513394104568
20
-0.0733059985655586
30
0
41
1
10
84.8354320813117
20
-0.110909795477568
30
0
41
1
10
84.8273725972433
20
-0.129698680360377
30
0
41
1
10
84.7867821692503
20
-0.223016453597125
30
0
41
1
10
84.7535476542229
20
-0.295295316515052
30
0
41
1
10
84.6856715973393
20
-0.435120790901721
30
0
41
1
10
84.6510302725655
20
-0.502668638039069
30
0
41
1
10
84.5980307828738
20
-0.600280820707354
30
0
41
1
10
84.5801906259026
20
-0.632198033407519
30
0
41
1
10
84.5531644965583
20
-0.679103041532613
30
0
41
1
10
84.5441114135315
20
-0.69457608524155
30
0
41
1
10
84.5259148422316
20
-0.725189404097819
30
0
41
1
10
84.5167795170473
20
-0.7403146127713
30
0
41
1
10
84.4712884754929
20
-0.814420812492244
30
0
41
1
10
84.4351696807752
20
-0.869404132538563
30
0
41
1
10
84.3634863023701
20
-0.970816183098265
30
0
41
1
10
84.327921818153
20
-1.01724669911792
30
0
41
1
10
84.2838009042495
20
-1.06966792317357
30
0
41
1
10
84.2749933889545
20
-1.07987003135187
30
0
41
1
10
84.2574111115197
20
-1.09969767256612
30
0
41
1
10
84.248619479169
20
-1.10934032880638
30
0
41
1
10
84.2225153968612
20
-1.13714900411551
30
0
41
1
10
84.2054192632816
20
-1.15426254378258
30
0
41
1
10
84.1550072824536
20
-1.20142199945775
30
0
41
1
10
84.1225655120188
20
-1.22730493363929
30
0
41
1
10
84.0755279626018
20
-1.25782642885724
30
0
41
1
10
84.0601202496489
20
-1.26661183316509
30
0
41
1
10
84.0374055049845
20
-1.27766942214183
30
0
41
1
10
84.0298851863637
20
-1.281007238347
30
0
41
1
10
84.0150547941645
20
-1.2869349646235
30
0
41
1
10
84.0077514810316
20
-1.28952380774035
30
0
41
1
10
83.9717746347269
20
-1.30063110365458
30
0
41
1
10
83.9447131754969
20
-1.30366267851287
30
0
41
1
10
83.9064158999007
20
-1.29985323396983
30
0
41
1
10
83.8940340380809
20
-1.29718587245822
30
0
41
1
10
83.8760125440858
20
-1.29110274567625
30
0
41
1
10
83.870097331298
20
-1.28872777258744
30
0
41
1
10
83.8584475064075
20
-1.28328272886182
30
0
41
1
10
83.852703005222
20
-1.28020619650289
30
0
41
1
10
83.8245737094944
20
-1.26317433616683
30
0
41
1
10
83.8039509214948
20
-1.2443190918267
30
0
41
1
10
83.7659642780224
20
-1.19698563512793
30
0
41
1
10
83.7486027670273
20
-1.16850252848064
30
0
41
1
10
83.7247774268394
20
-1.11884114688505
30
0
41
1
10
83.7171930916795
20
-1.10108683544365
30
0
41
1
10
83.7028619885394
20
-1.06361427101177
30
0
41
1
10
83.6961012336571
20
-1.04387466889787
30
0
41
1
10
83.676960827797
20
-0.98176059380728
30
0
41
1
10
83.6657184008787
20
-0.936499541643286
30
0
41
1
10
83.6558649670725
20
-0.887572590251978
30
0
0
SPLINE
5
DF
100
AcDbEntity
8
1
62
256
6
ByLayer
370
18
48
1
60
0
100
AcDbSpline
70
4
71
3
72
8
73
4
40
0
40
0
40
0
40
0
40
1
40
1
40
1
40
1
41
1
10
83.6558649670725
20
-0.887572590252063
30
0
41
1
10
83.5290818734447
20
-0.258034666604374
30
0
41
1
10
83.3665515795361
20
0.393033183884114
30
0
41
1
10
83.1678319666245
20
1.06589724175188
30
0
0
SPLINE
5
E0
100
AcDbEntity
8
1
62
256
6
ByLayer
370
18
48
1
60
0
100
AcDbSpline
70
4
71
3
72
18
73
14
40
0
40
0
40
0
40
0
40
0.25
40
0.25
40
0.5
40
0.5
40
0.625
40
0.625
40
0.75
40
0.75
40
0.875
40
0.875
40
1
40
1
40
1
40
1
41
1
10
82.3147557341917
20
0.546243829777239
30
0
41
1
10
82.3843810490814
20
0.609207581878565
30
0
41
1
10
82.4546099778961
20
0.667529599593081
30
0
41
1
10
82.5959322533632
20
0.774465813521516
30
0
41
1
10
82.6670254817486
20
0.823065943571748
30
0
41
1
10
82.7740237477715
20
0.888165584754404
30
0
41
1
10
82.8097493885889
20
0.908567645661122
30
0
41
1
10
82.8812695806566
20
0.946717160511298
30
0
41
1
10
82.9170628425569
20
0.964449515869376
30
0
41
1
10
82.9886873620287
20
0.99748982845793
30
0
41
1
10
83.0245221601359
20
1.01284504637039
30
0
41
1
10
83.0961981429832
20
1.04127097873547
30
0
41
1
10
83.1320370779305
20
1.05430463481545
30
0
41
1
10
83.1678319666245
20
1.06589724175191
30
0
0
SPLINE
5
E1
100
AcDbEntity
8
1
62
256
6
ByLayer
370
18
48
1
60
0
100
AcDbSpline
70
4
71
3
72
16
73
12
40
0
40
0
40
0
40
0
40
0.250000000000097
40
0.250000000000097
40
0.375000000000147
40
0.375000000000147
40
0.500000000000197
40
0.500000000000197
40
0.750000000000099
40
0.750000000000099
40
1
40
1
40
1
40
1
41
1
10
22.0533643884071
20
-1.76674165210679
30
0
41
1
10
22.0452421771349
20
-1.76262652006457
30
0
41
1
10
22.037878495806
20
-1.75754282140113
30
0
41
1
10
22.027940621795
20
-1.74850058365422
30
0
41
1
10
22.024802535528
20
-1.74522600751391
30
0
41
1
10
22.0190890670407
20
-1.73837992891527
30
0
41
1
10
22.0164900876375
20
-1.7347911724633
30
0
41
1
10
22.0094571514789
20
-1.72353312974226
30
0
41
1
10
22.0057726286182
20
-1.71527523325111
30
0
41
1
10
22.0009037311465
20
-1.69836165398885
30
0
41
1
10
21.999639761433
20
-1.68953107293953
30
0
41
1
10
21.999639761433
20
-1.68061933919654
30
0
0
SPLINE
5
E2
100
AcDbEntity
8
1
62
256
6
ByLayer
370
18
48
1
60
0
100
AcDbSpline
70
4
71
3
72
27
73
23
40
0
40
0
40
0
40
0
40
0.124999999999837
40
0.124999999999837
40
0.187499999999758
40
0.187499999999758
40
0.249999999999679
40
0.312499999999599
40
0.312499999999599
40
0.37499999999952
40
0.37499999999952
40
0.4999999999995
40
0.4999999999995
40
0.624999999999479
40
0.624999999999479
40
0.687499999999566
40
0.687499999999566
40
0.749999999999653
40
0.749999999999653
40
0.874999999999827
40
0.874999999999827
40
1
40
1
40
1
40
1
41
1
10
21.999639761433
20
6.51541167399145
30
0
41
1
10
21.9996397614331
20
6.51917257507566
30
0
41
1
10
22.000741662702
20
6.52283967332392
30
0
41
1
10
22.0039966054287
20
6.52820590888302
30
0
41
1
10
22.0053652748805
20
6.5299843242648
30
0
41
1
10
22.0085925119407
20
6.53341285371164
30
0
41
1
10
22.0123044759659
20
6.53672063852787
30
0
41
1
10
22.0169650371568
20
6.53979415714397
30
0
41
1
10
22.0221131758348
20
6.54274847543303
30
0
41
1
10
22.024924706409
20
6.54415909741479
30
0
41
1
10
22.0338520857445
20
6.54809395206232
30
0
41
1
10
22.0405568485402
20
6.55037660386461
30
0
41
1
10
22.055316391045
20
6.55418476929026
30
0
41
1
10
22.0631181085839
20
6.55565037074447
30
0
41
1
10
22.0754414055672
20
6.55720949978493
30
0
41
1
10
22.0796790418164
20
6.55762182044114
30
0
41
1
10
22.0881402252615
20
6.55820544406342
30
0
41
1
10
22.0923853305471
20
6.55838081470199
30
0
41
1
10
22.1051635002465
20
6.55856347285385
30
0
41
1
10
22.1138563675512
20
6.55821432617785
30
0
41
1
10
22.1304591358228
20
6.55661837850735
30
0
41
1
10
22.1384436472942
20
6.55538549941244
30
0
41
1
10
22.1460973830538
20
6.55369512360667
30
0
0
SPLINE
5
E3
100
AcDbEntity
8
1
62
256
6
ByLayer
370
18
48
1
60
0
100
AcDbSpline
70
4
71
3
72
145
73
141
40
0
40
0
40
0
40
0
40
0.0053364990373614
40
0.0053364990373614
40
0.026941770548058
40
0.026941770548058
40
0.0485470420587546
40
0.0485470420587546
40
0.0701523135694512
40
0.0701523135694512
40
0.0809549493247992
40
0.0809549493247992
40
0.0863562672024729
40
0.0863562672024729
40
0.0917575850801466
40
0.0917575850801466
40
0.11336285659084
40
0.11336285659084
40
0.134968128101534
40
0.134968128101534
40
0.156573399612227
40
0.156573399612227
40
0.167376035367574
40
0.167376035367574
40
0.178178671122921
40
0.178178671122921
40
0.183579989000595
40
0.183579989000595
40
0.188981306878268
40
0.199783942633614
40
0.199783942633614
40
0.221389214144307
40
0.221389214144307
40
0.232191849899654
40
0.232191849899654
40
0.242994485655
40
0.242994485655
40
0.264599757165692
40
0.264599757165692
40
0.270001075043365
40
0.270001075043365
40
0.275402392921038
40
0.275402392921038
40
0.286205028676384
40
0.286205028676384
40
0.297007664431729
40
0.297007664431729
40
0.307810300187075
40
0.307810300187075
40
0.329415571697766
40
0.329415571697766
40
0.351020843208457
40
0.351020843208457
40
0.361823478963803
40
0.361823478963803
40
0.367224796841475
40
0.367224796841475
40
0.372626114719148
40
0.372626114719148
40
0.39423138622984
40
0.39423138622984
40
0.415836657740531
40
0.415836657740531
40
0.437441929251223
40
0.437441929251223
40
0.448244565006569
40
0.448244565006569
40
0.453645882884242
40
0.453645882884242
40
0.459047200761915
40
0.459047200761915
40
0.469849836517262
40
0.469849836517262
40
0.480652472272608
40
0.480652472272608
40
0.502257743783302
40
0.502257743783302
40
0.523863015293995
40
0.523863015293995
40
0.534665651049342
40
0.534665651049342
40
0.54546828680469
40
0.54546828680469
40
0.556270922560037
40
0.556270922560037
40
0.567073558315384
40
0.567073558315384
40
0.588678829826077
40
0.588678829826077
40
0.610284101336771
40
0.610284101336771
40
0.631889372847464
40
0.631889372847464
40
0.642692008602811
40
0.642692008602811
40
0.653494644358158
40
0.653494644358158
40
0.675099915868851
40
0.675099915868851
40
0.696705187379545
40
0.696705187379545
40
0.718310458890238
40
0.718310458890238
40
0.729113094645584
40
0.729113094645584
40
0.739915730400931
40
0.739915730400931
40
0.761521001911624
40
0.761521001911624
40
0.772323637666971
40
0.772323637666971
40
0.783126273422318
40
0.783126273422318
40
0.804731544933011
40
0.804731544933011
40
0.815534180688358
40
0.815534180688358
40
0.826336816443705
40
0.826336816443705
40
0.837139452199051
40
0.837139452199051
40
0.847942087954398
40
0.847942087954398
40
0.869547359465092
40
0.869547359465092
40
0.891152630975785
40
0.891152630975785
40
0.912757902486478
40
0.912757902486478
40
0.923560538241825
40
0.923560538241825
40
0.934363173997172
40
0.934363173997172
40
0.955968445507866
40
0.955968445507866
40
0.977573717018559
40
0.977573717018559
40
0.999178988529253
40
0.999178988529253
40
1
40
1
40
1
40
1
41
1
10
18.1835028480903
20
7.22953695323153
30
0
41
1
10
18.2794356595778
20
7.22971013520265
30
0
41
1
10
18.3753371857128
20
7.22936259371221
30
0
41
1
10
18.8593365858617
20
7.22498465183784
30
0
41
1
10
19.2469105392466
20
7.21295706414588
30
0
41
1
10
20.0214176033826
20
7.17193870889338
30
0
41
1
10
20.4083275565637
20
7.14292870268497
30
0
41
1
10
21.1824811741396
20
7.06818781675372
30
0
41
1
10
21.5698511370743
20
7.02252992039752
30
0
41
1
10
22.1513445109285
20
6.94161189499607
30
0
41
1
10
22.345253222476
20
6.91256622886601
30
0
41
1
10
22.6362722963461
20
6.86589160854126
30
0
41
1
10
22.733304803872
20
6.84981572770874
30
0
41
1
10
22.9274332093367
20
6.8166317181597
30
0
41
1
10
23.0245402631395
20
6.79952128806096
30
0
41
1
10
23.5097428530387
20
6.71149248137058
30
0
41
1
10
23.8971935014266
20
6.6330350538903
30
0
41
1
10
24.6718863828236
20
6.46109282813896
30
0
41
1
10
25.0590897418566
20
6.36760347664034
30
0
41
1
10
25.8332471926789
20
6.1656622864179
30
0
41
1
10
26.2202271535758
20
6.05722171219443
30
0
41
1
10
26.8010189287798
20
5.88375862713517
30
0
41
1
10
26.994673181222
20
5.82414033446094
30
0
41
1
10
27.3822483346909
20
5.70147362851424
30
0
41
1
10
27.5761851060621
20
5.63844490540276
30
0
41
1
10
27.867361606472
20
5.54141663949511
30
0
41
1
10
27.9644839707369
20
5.5086496947176
30
0
41
1
10
28.158616423438
20
5.44234207275412
30
0
41
1
10
28.4496993202
20
5.34169783568257
30
0
41
1
10
28.7404565716447
20
5.23753811740167
30
0
41
1
10
29.321616018294
20
5.02464101301217
30
0
41
1
10
29.7085671788727
20
4.87658179472481
30
0
41
1
10
30.2888230515908
20
4.64608331470382
30
0
41
1
10
30.4822204436134
20
4.56785936829192
30
0
41
1
10
30.869145153324
20
4.40889184990826
30
0
41
1
10
31.0626705139921
20
4.32814689211784
30
0
41
1
10
31.6434191725147
20
4.08211016803497
30
0
41
1
10
32.0307681625766
20
3.91294319162097
30
0
41
1
10
32.5154468167533
20
3.69541359181201
30
0
41
1
10
32.6124085662161
20
3.65160628534585
30
0
41
1
10
32.8063946425015
20
3.56340421945612
30
0
41
1
10
32.9034442693093
20
3.51899774776558
30
0
41
1
10
33.1944379375238
20
3.38504037681599
30
0
41
1
10
33.3882628730562
20
3.29473459297049
30
0
41
1
10
33.7757207143868
20
3.11238396836634
30
0
41
1
10
33.9693669706372
20
3.0203625079443
30
0
41
1
10
34.3565872731573
20
2.83479948005854
30
0
41
1
10
34.550149950106
20
2.74123841620309
30
0
41
1
10
35.1306627507433
20
2.45816324199038
30
0
41
1
10
35.5174463348773
20
2.26627143196137
30
0
41
1
10
36.2910797658751
20
1.87704659758208
30
0
41
1
10
36.6778975501734
20
1.67964926173971
30
0
41
1
10
37.2589773147494
20
1.38094455352191
30
0
41
1
10
37.4528250357215
20
1.28096631775685
30
0
41
1
10
37.7438293937206
20
1.13038534977335
30
0
41
1
10
37.8408944736496
20
1.08007320075956
30
0
41
1
10
38.0349445448359
20
0.979315472791484
30
0
41
1
10
38.1319285242872
20
0.928872298158126
30
0
41
1
10
38.6166598483167
20
0.676366853156878
30
0
41
1
10
39.0038236280583
20
0.473401647255173
30
0
41
1
10
39.7775032145169
20
0.066689028733947
30
0
41
1
10
40.1640151449617
20
-0.137065396163251
30
0
41
1
10
40.9375525244791
20
-0.543135947898236
30
0
41
1
10
41.3244765262919
20
-0.74564664446018
30
0
41
1
10
41.9051980580298
20
-1.04842869872934
30
0
41
1
10
42.0988347051992
20
-1.14917885299056
30
0
41
1
10
42.389443785899
20
-1.29992363532503
30
0
41
1
10
42.4863393937514
20
-1.35010805186747
30
0
41
1
10
42.6801924522602
20
-1.45033003838896
30
0
41
1
10
42.7771741859542
20
-1.50038189241943
30
0
41
1
10
43.0680359211136
20
-1.65017335267123
30
0
41
1
10
43.2617803938847
20
-1.74952356951331
30
0
41
1
10
43.6491070071805
20
-1.94690290078222
30
0
41
1
10
43.8427012639676
20
-2.04491020794612
30
0
41
1
10
44.4233025584629
20
-2.33685370933495
30
0
41
1
10
44.8100614609457
20
-2.52883472898495
30
0
41
1
10
45.5832977325815
20
-2.90689155677205
30
0
41
1
10
45.9697770407636
20
-3.09295918466509
30
0
41
1
10
46.549896912856
20
-3.36653214226629
30
0
41
1
10
46.7433501184256
20
-3.45677954703368
30
0
41
1
10
47.1305616948797
20
-3.63514169169642
30
0
41
1
10
47.3243127850463
20
-3.72326953199169
30
0
41
1
10
47.7120815611129
20
-3.89745530360247
30
0
41
1
10
47.9061330781346
20
-3.9835296941981
30
0
41
1
10
48.2937214646923
20
-4.15315397912383
30
0
41
1
10
48.4873571616571
20
-4.23675360860915
30
0
41
1
10
49.0679000381233
20
-4.48374424686796
30
0
41
1
10
49.454408080797
20
-4.64337319038012
30
0
41
1
10
50.2273811660818
20
-4.95110795805479
30
0
41
1
10
50.613971110037
20
-5.09905188661122
30
0
41
1
10
51.3873936136287
20
-5.3830742450165
30
0
41
1
10
51.7742248404955
20
-5.51914514908538
30
0
41
1
10
52.3550712865697
20
-5.71371819417558
30
0
41
1
10
52.5488324373254
20
-5.77700396983366
30
0
41
1
10
52.9364726159047
20
-5.90016787724844
30
0
41
1
10
53.1301407078306
20
-5.95997600864189
30
0
41
1
10
53.7109353487124
20
-6.1338437682914
30
0
41
1
10
54.0978084974607
20
-6.24241076971924
30
0
41
1
10
54.8709714670326
20
-6.44487765814014
30
0
41
1
10
55.2572855455348
20
-6.53874144055376
30
0
41
1
10
56.0299974491848
20
-6.71112321584977
30
0
41
1
10
56.4164283864849
20
-6.78960420713247
30
0
41
1
10
56.9969833116565
20
-6.89518008784634
30
0
41
1
10
57.1906283016093
20
-6.92836792872635
30
0
41
1
10
57.578161751543
20
-6.99072737107673
30
0
41
1
10
57.772106814488
20
-7.0198996365782
30
0
41
1
10
58.3531708280801
20
-7.1011333788536
30
0
41
1
10
58.7398912479198
20
-7.1469807712611
30
0
41
1
10
59.3195375938161
20
-7.20308221257844
30
0
41
1
10
59.5126866505881
20
-7.21966882472816
30
0
41
1
10
59.8990229592216
20
-7.24857808029776
30
0
41
1
10
60.0922102563069
20
-7.26090299777709
30
0
41
1
10
60.671825956142
20
-7.29150864712835
30
0
41
1
10
61.0582592248317
20
-7.30342935280231
30
0
41
1
10
61.6382547279154
20
-7.30846654958532
30
0
41
1
10
61.8316498367794
20
-7.30800370501453
30
0
41
1
10
62.2186472072989
20
-7.30277156661845
30
0
41
1
10
62.412286347091
20
-7.29799988797436
30
0
41
1
10
62.7997488922884
20
-7.28414730783896
30
0
41
1
10
62.9933495757045
20
-7.27507780237667
30
0
41
1
10
63.380396021014
20
-7.25270465708104
30
0
41
1
10
63.5738316266928
20
-7.23940043268487
30
0
41
1
10
64.1538456999809
20
-7.193150969301
30
0
41
1
10
64.5401384791428
20
-7.15386765858187
30
0
41
1
10
65.3124686342811
20
-7.05856150145061
30
0
41
1
10
65.6984763300014
20
-7.0025105762976
30
0
41
1
10
66.4712596740276
20
-6.87414735910318
30
0
41
1
10
66.8581020865705
20
-6.80190286524734
30
0
41
1
10
67.4390649683121
20
-6.68140588774719
30
0
41
1
10
67.6328974519519
20
-6.63920668313673
30
0
41
1
10
68.0200468736861
20
-6.55098150323943
30
0
41
1
10
68.2134620553923
20
-6.50493889940751
30
0
41
1
10
68.7933512057989
20
-6.36113397078194
30
0
41
1
10
69.1794463294503
20
-6.25766167091425
30
0
41
1
10
69.9518067272394
20
-6.03672805273942
30
0
41
1
10
70.3379937258534
20
-5.91920839195163
30
0
41
1
10
71.1105147470898
20
-5.67019413070872
30
0
41
1
10
71.4968708898857
20
-5.53871397525577
30
0
41
1
10
71.8983493844537
20
-5.39534550067955
30
0
41
1
10
71.9130481275694
20
-5.39008722950152
30
0
41
1
10
71.9277477273579
20
-5.38481937651585
30
0
0
SPLINE
5
E4
100
AcDbEntity
8
1
62
256
6
ByLayer
370
18
48
1
60
0
100
AcDbSpline
70
4
71
3
72
98
73
94
40
0
40
0
40
0
40
0
40
0.0207907125749233
40
0.0207907125749233
40
0.029533652641217
40
0.029533652641217
40
0.0382765927075108
40
0.0557624728400989
40
0.0557624728400989
40
0.0907342331052757
40
0.0907342331052757
40
0.0994771731715702
40
0.0994771731715702
40
0.108220113237865
40
0.125705993370454
40
0.125705993370454
40
0.160677753635634
40
0.160677753635634
40
0.195649513900813
40
0.195649513900813
40
0.213135394033402
40
0.213135394033402
40
0.221878334099697
40
0.221878334099697
40
0.230621274165993
40
0.230621274165993
40
0.265593034431174
40
0.265593034431174
40
0.283078914563765
40
0.29182185463006
40
0.29182185463006
40
0.300564794696356
40
0.300564794696356
40
0.335536554961538
40
0.335536554961538
40
0.37050831522672
40
0.37050831522672
40
0.387994195359312
40
0.387994195359312
40
0.396737135425607
40
0.396737135425607
40
0.405480075491903
40
0.440451835757087
40
0.440451835757087
40
0.47542359602227
40
0.47542359602227
40
0.484166536088566
40
0.484166536088566
40
0.492909476154861
40
0.510395356287452
40
0.510395356287452
40
0.545367116552634
40
0.545367116552634
40
0.562852996685225
40
0.57159593675152
40
0.57159593675152
40
0.580338876817815
40
0.580338876817815
40
0.615310637082997
40
0.615310637082997
40
0.650282397348179
40
0.650282397348179
40
0.66776827748077
40
0.66776827748077
40
0.685254157613361
40
0.685254157613361
40
0.720225917878542
40
0.720225917878542
40
0.755197678143724
40
0.755197678143724
40
0.763940618210019
40
0.763940618210019
40
0.772683558276315
40
0.772683558276315
40
0.790169438408906
40
0.790169438408906
40
0.825141198674088
40
0.825141198674088
40
0.842627078806679
40
0.851370018872974
40
0.851370018872974
40
0.86011295893927
40
0.86011295893927
40
0.895084719204451
40
0.895084719204451
40
0.912570599337041
40
0.921313539403337
40
0.921313539403337
40
0.930056479469633
40
0.930056479469633
40
0.965028239734817
40
0.965028239734817
40
1
40
1
40
1
40
1
41
1
10
28.4197794643537
20
5.34799656629372
30
0
41
1
10
28.7931726641006
20
5.48008738502446
30
0
41
1
10
29.1667054487387
20
5.60643070767276
30
0
41
1
10
29.6978568663077
20
5.77728164821866
30
0
41
1
10
29.855156412527
20
5.82678294910409
30
0
41
1
10
30.1695222228725
20
5.9234686144037
30
0
41
1
10
30.6408724106835
20
6.06507090537386
30
0
41
1
10
31.1117942024926
20
6.19622572009519
30
0
41
1
10
32.0535254083147
20
6.4441465372004
30
0
41
1
10
32.6811923761372
20
6.590239807665
30
0
41
1
10
33.4671793466149
20
6.74733993778565
30
0
41
1
10
33.6243714580392
20
6.7774685326834
30
0
41
1
10
33.9385658541922
20
6.83507629488881
30
0
41
1
10
34.4096737479205
20
6.91753439352945
30
0
41
1
10
34.88041457011
20
6.98803406294269
30
0
41
1
10
35.8218941550004
20
7.11285035544967
30
0
41
1
10
36.4496001059122
20
7.17448124590479
30
0
41
1
10
37.7072517319221
20
7.25348689753389
30
0
41
1
10
38.334844508803
20
7.27071354614046
30
0
41
1
10
39.2762246012845
20
7.26311416125742
30
0
41
1
10
39.5900153023868
20
7.25500847239903
30
0
41
1
10
40.0609258713541
20
7.23449291889108
30
0
41
1
10
40.2179335920408
20
7.22626160426944
30
0
41
1
10
40.5320633507959
20
7.20701443709925
30
0
41
1
10
40.6892289206847
20
7.19599502970183
30
0
41
1
10
41.4749086626779
20
7.1339843206558
30
0
41
1
10
42.1022509861809
20
7.06231763188586
30
0
41
1
10
43.0433748748456
20
6.92266816153338
30
0
41
1
10
43.5139632883436
20
6.84480779609513
30
0
41
1
10
43.984938272234
20
6.75507815518279
30
0
41
1
10
44.2990474881467
20
6.69264298435712
30
0
41
1
10
44.4562234998433
20
6.66010461325817
30
0
41
1
10
45.2415426804502
20
6.49114559347339
30
0
41
1
10
45.8682721911852
20
6.33590197219448
30
0
41
1
10
47.1210651801122
20
5.98773564783252
30
0
41
1
10
47.7471262385262
20
5.79480636318618
30
0
41
1
10
48.6875826909702
20
5.47912502026193
30
0
41
1
10
49.0012964367631
20
5.36951847189698
30
0
41
1
10
49.4724457882878
20
5.19879878413573
30
0
41
1
10
49.6295488222454
20
5.14085541122196
30
0
41
1
10
49.9434477578146
20
5.02311615728811
30
0
41
1
10
50.7277444896722
20
4.72402429331063
30
0
41
1
10
51.5102696266528
20
4.40193366398748
30
0
41
1
10
52.7625936539281
20
3.86108099461194
30
0
41
1
10
53.3888776354257
20
3.57787272956392
30
0
41
1
10
54.1734011176245
20
3.21025207720831
30
0
41
1
10
54.330443823108
20
3.13602278081319
30
0
41
1
10
54.6444817216269
20
2.98639086218279
30
0
41
1
10
55.1152338425304
20
2.76029571495778
30
0
41
1
10
55.5852536607218
20
2.52959063296979
30
0
41
1
10
56.5247985844197
20
2.06291732801768
30
0
41
1
10
57.150497934838
20
1.7447767006577
30
0
41
1
10
58.0898456602853
20
1.26033314785178
30
0
41
1
10
58.5597220886103
20
1.01630858640502
30
0
41
1
10
59.0302598589719
20
0.770241436248597
30
0
41
1
10
59.3441393274262
20
0.605818382684902
30
0
41
1
10
59.5011953530393
20
0.523406304269059
30
0
41
1
10
60.2856780389263
20
0.111291175999213
30
0
41
1
10
60.9117658049418
20
-0.219148900163845
30
0
41
1
10
62.1634303303248
20
-0.876789672266852
30
0
41
1
10
62.7890118360365
20
-1.2039808157657
30
0
41
1
10
63.7289635481372
20
-1.68861145015637
30
0
41
1
10
64.0425811048662
20
-1.84913865264883
30
0
41
1
10
64.6705003882569
20
-2.16751892080541
30
0
41
1
10
64.984045191651
20
-2.32499173830925
30
0
41
1
10
65.923873871876
20
-2.79149523682878
30
0
41
1
10
66.5493464482322
20
-3.09461846296182
30
0
41
1
10
67.8006299655966
20
-3.68076885567871
30
0
41
1
10
68.4264449467752
20
-3.96378707950098
30
0
41
1
10
69.2105700407701
20
-4.30219697929076
30
0
41
1
10
69.3675425066461
20
-4.3691332830619
30
0
41
1
10
69.6812062669906
20
-4.50118864228759
30
0
41
1
10
69.8379457705806
20
-4.56632906219983
30
0
41
1
10
70.3079481372257
20
-4.75900692257531
30
0
41
1
10
70.6209980032881
20
-4.88379664103482
30
0
41
1
10
71.5597171819846
20
-5.24662126733571
30
0
41
1
10
72.1849420245482
20
-5.47312996923293
30
0
41
1
10
73.1236869148308
20
-5.7874461343502
30
0
41
1
10
73.5932893787768
20
-5.93823836060454
30
0
41
1
10
74.0635961766266
20
-6.07901150207852
30
0
41
1
10
74.3773317283336
20
-6.17058103500159
30
0
41
1
10
74.5341553802692
20
-6.21518413234117
30
0
41
1
10
75.3178119453619
20
-6.43210251582957
30
0
41
1
10
75.9436171561824
20
-6.58621979837434
30
0
41
1
10
76.8825904257996
20
-6.78669052760321
30
0
41
1
10
77.3521424634449
20
-6.87925283036569
30
0
41
1
10
77.8221429034082
20
-6.96003610499986
30
0
41
1
10
78.1356115139228
20
-7.01124672808285
30
0
41
1
10
78.2924443784297
20
-7.03553406318301
30
0
41
1
10
79.0766972031079
20
-7.15023693992961
30
0
41
1
10
79.7026699258947
20
-7.22021081999307
30
0
41
1
10
80.9542372131014
20
-7.31583486163763
30
0
41
1
10
81.5798363201392
20
-7.3414793232632
30
0
41
1
10
82.2065444985408
20
-7.3446405289784
30
0
0
SPLINE
5
E5
100
AcDbEntity
8
1
62
256
6
ByLayer
370
18
48
1
60
0
100
AcDbSpline
70
4
71
3
72
12
73
8
40
0
40
0
40
0
40
0
40
0.499999999999997
40
0.499999999999997
40
0.749999999999999
40
0.749999999999999
40
1
40
1
40
1
40
1
41
1
10
82.1535549241731
20
-7.28243663318409
30
0
41
1
10
82.1623629567193
20
-7.3021863507434
30
0
41
1
10
82.1711781619436
20
-7.31725603944446
30
0
41
1
10
82.1844315675556
20
-7.33282638284467
30
0
41
1
10
82.18885688649
20
-7.33684475448709
30
0
41
1
10
82.1977062016086
20
-7.34251528571758
30
0
41
1
10
82.2021271944517
20
-7.34416709359732
30
0
41
1
10
82.2065444985493
20
-7.34464052897846
30
0
0
SPLINE
5
E6
100
AcDbEntity
8
1
62
256
6
ByLayer
370
18
48
1
60
0
100
AcDbSpline
70
4
71
3
72
8
73
4
40
0
40
0
40
0
40
0
40
1
40
1
40
1
40
1
41
1
10
82.1800688107169
20
-0.41198312092834
30
0
41
1
10
82.2174918151018
20
-0.090810722388369
30
0
41
1
10
82.2618603769639
20
0.228671647274751
30
0
41
1
10
82.3147557341916
20
0.546243829777268
30
0
0
SPLINE
5
E7
100
AcDbEntity
8
1
62
256
6
ByLayer
370
18
48
1
60
0
100
AcDbSpline
70
4
71
3
72
61
73
57
40
0
40
0
40
0
40
0
40
0.0569540941672565
40
0.0569540941672565
40
0.0854311412508848
40
0.0854311412508848
40
0.113908188334513
40
0.113908188334513
40
0.17086228250177
40
0.17086228250177
40
0.227816376669026
40
0.227816376669026
40
0.256293423752655
40
0.256293423752655
40
0.284770470836283
40
0.284770470836283
40
0.313247517919912
40
0.313247517919912
40
0.341724565003541
40
0.341724565003541
40
0.398678659170796
40
0.398678659170796
40
0.455632753338052
40
0.455632753338052
40
0.484109800421679
40
0.484109800421679
40
0.498348323963493
40
0.498348323963493
40
0.512586847505308
40
0.512586847505308
40
0.56954094167257
40
0.56954094167257
40
0.626495035839832
40
0.626495035839832
40
0.683449130007094
40
0.683449130007094
40
0.711926177090724
40
0.711926177090724
40
0.726164700632539
40
0.726164700632539
40
0.740403224174353
40
0.740403224174353
40
0.797357318341607
40
0.797357318341607
40
0.854311412508861
40
0.854311412508861
40
0.911265506676115
40
0.911265506676115
40
0.939742553759742
40
0.939742553759742
40
0.968219600843368
40
0.968219600843368
40
0.982458124385182
40
0.982458124385182
40
0.996696647926996
40
1
40
1
40
1
40
1
41
1
10
8.00185555513201
20
-5.34320475515921
30
0
41
1
10
8.39096724682716
20
-5.47934732610798
30
0
41
1
10
8.77928738063773
20
-5.60922408214813
30
0
41
1
10
9.36096096297194
20
-5.79413194040748
30
0
41
1
10
9.55471437069804
20
-5.85412025875809
30
0
41
1
10
9.94202525308515
20
-5.97069660209559
30
0
41
1
10
10.135593984101
20
-6.02727099685663
30
0
41
1
10
10.7163173310111
20
-6.1915540045978
30
0
41
1
10
11.1034713206062
20
-6.29384030606823
30
0
41
1
10
11.8785998517682
20
-6.48322158460059
30
0
41
1
10
12.2665164909408
20
-6.57038481638091
30
0
41
1
10
12.8490020544427
20
-6.68969464939812
30
0
41
1
10
13.043372235467
20
-6.72756759917363
30
0
41
1
10
13.4316948562675
20
-6.79927085708741
30
0
41
1
10
13.6256895950716
20
-6.83311283016769
30
0
41
1
10
14.0134406769848
20
-6.89672360099971
30
0
41
1
10
14.2072005748152
20
-6.92648931679236
30
0
41
1
10
14.5946556871938
20
-6.98186560164288
30
0
41
1
10
14.7883638614819
20
-7.00747147964779
30
0
41
1
10
15.369449791269
20
-7.07806680930963
30
0
41
1
10
15.7567188444948
20
-7.11686803487299
30
0
41
1
10
16.5313324528444
20
-7.1777680634307
30
0
41
1
10
16.9186794785116
20
-7.19985285201977
30
0
41
1
10
17.5003810867082
20
-7.22019958379781
30
0
41
1
10
17.6944090807857
20
-7.22485078026796
30
0
41
1
10
17.985751966038
20
-7.22862034654344
30
0
41
1
10
18.0829083302015
20
-7.2293423231267
30
0
41
1
10
18.2771059528785
20
-7.2297185012437
30
0
41
1
10
18.3741727381212
20
-7.22937312654315
30
0
41
1
10
18.8593365858617
20
-7.22498465183784
30
0
41
1
10
19.2469105392466
20
-7.21295706414588
30
0
41
1
10
20.0214176033826
20
-7.17193870889338
30
0
41
1
10
20.4083275565637
20
-7.142928702685
30
0
41
1
10
21.1824811741396
20
-7.06818781675372
30
0
41
1
10
21.5698511370743
20
-7.02252992039752
30
0
41
1
10
22.1513445109284
20
-6.94161189499607
30
0
41
1
10
22.345253222476
20
-6.91256622886601
30
0
41
1
10
22.6362722963461
20
-6.86589160854126
30
0
41
1
10
22.733304803872
20
-6.84981572770874
30
0
41
1
10
22.9274332093367
20
-6.8166317181597
30
0
41
1
10
23.0245402631395
20
-6.79952128806096
30
0
41
1
10
23.5097428530387
20
-6.71149248137058
30
0
41
1
10
23.8971935014265
20
-6.6330350538903
30
0
41
1
10
24.6718863828236
20
-6.46109282813899
30
0
41
1
10
25.0590897418566
20
-6.36760347664037
30
0
41
1
10
25.8332471926789
20
-6.1656622864179
30
0
41
1
10
26.2202271535758
20
-6.05722171219446
30
0
41
1
10
26.8010189287798
20
-5.88375862713517
30
0
41
1
10
26.9946731812219
20
-5.82414033446096
30
0
41
1
10
27.3822483346908
20
-5.70147362851424
30
0
41
1
10
27.5761851060621
20
-5.63844490540279
30
0
41
1
10
27.867361606472
20
-5.54141663949514
30
0
41
1
10
27.964483970737
20
-5.5086496947176
30
0
41
1
10
28.158616423438
20
-5.44234207275412
30
0
41
1
10
28.2781545659428
20
-5.40101080497035
30
0
41
1
10
28.3976377892142
20
-5.35908666044881
30
0
41
1
10
28.4201360511491
20
-5.35117085838905
30
0
0
SPLINE
5
E8
100
AcDbEntity
8
1
62
256
6
ByLayer
370
18
48
1
60
0
100
AcDbSpline
70
4
71
3
72
54
73
50
40
0
40
0
40
0
40
0
40
0.0193880982151069
40
0.0193880982151069
40
0.0474055811232478
40
0.0474055811232478
40
0.0754230640313884
40
0.0754230640313884
40
0.103440546939529
40
0.103440546939529
40
0.159475512755811
40
0.159475512755811
40
0.215510478572092
40
0.215510478572092
40
0.271545444388374
40
0.271545444388374
40
0.299562927296514
40
0.299562927296514
40
0.327580410204655
40
0.327580410204655
40
0.383615376020934
40
0.383615376020934
40
0.439650341837214
40
0.439650341837214
40
0.495685307653494
40
0.495685307653494
40
0.523702790561634
40
0.523702790561634
40
0.551720273469774
40
0.551720273469774
40
0.607755239286053
40
0.607755239286053
40
0.66379020510233
40
0.66379020510233
40
0.69180768801047
40
0.69180768801047
40
0.719825170918609
40
0.719825170918609
40
0.747842653826748
40
0.747842653826748
40
0.775860136734887
40
0.775860136734887
40
0.831895102551165
40
0.831895102551165
40
0.887930068367443
40
0.887930068367443
40
0.943965034183722
40
0.943965034183722
40
1
40
1
40
1
40
1
41
1
10
61.6235806925828
20
7.30772903951359
30
0
41
1
10
61.7573959400576
20
7.30797717383211
30
0
41
1
10
61.8912474315447
20
7.3071979557055
30
0
41
1
10
62.2186472072989
20
7.30277156661845
30
0
41
1
10
62.412286347091
20
7.29799988797436
30
0
41
1
10
62.7997488922885
20
7.28414730783899
30
0
41
1
10
62.9933495757046
20
7.27507780237667
30
0
41
1
10
63.380396021014
20
7.25270465708104
30
0
41
1
10
63.5738316266929
20
7.2394004326849
30
0
41
1
10
64.1538456999809
20
7.193150969301
30
0
41
1
10
64.5401384791428
20
7.15386765858187
30
0
41
1
10
65.312468634281
20
7.05856150145061
30
0
41
1
10
65.6984763300013
20
7.0025105762976
30
0
41
1
10
66.4712596740275
20
6.87414735910318
30
0
41
1
10
66.8581020865704
20
6.80190286524734
30
0
41
1
10
67.439064968312
20
6.68140588774722
30
0
41
1
10
67.632897451952
20
6.63920668313673
30
0
41
1
10
68.0200468736861
20
6.55098150323943
30
0
41
1
10
68.2134620553923
20
6.50493889940751
30
0
41
1
10
68.7933512057988
20
6.36113397078196
30
0
41
1
10
69.1794463294504
20
6.2576616709143
30
0
41
1
10
69.9518067272393
20
6.03672805273942
30
0
41
1
10
70.3379937258534
20
5.91920839195166
30
0
41
1
10
71.1105147470898
20
5.67019413070875
30
0
41
1
10
71.4968708898858
20
5.5387139752558
30
0
41
1
10
72.077041836272
20
5.33153420173801
30
0
41
1
10
72.2705844107354
20
5.26080437564204
30
0
41
1
10
72.6578702077521
20
5.1162956124827
30
0
41
1
10
72.8513963206808
20
5.04262431385703
30
0
41
1
10
73.43167837921
20
4.81746428489305
30
0
41
1
10
73.8180675798475
20
4.6617328074459
30
0
41
1
10
74.5902385023133
20
4.33951501687005
30
0
41
1
10
74.9760250371422
20
4.17302906703645
30
0
41
1
10
75.5548364365275
20
3.91610844162597
30
0
41
1
10
75.7478051335763
20
3.82928507338147
30
0
41
1
10
76.133961620346
20
3.6535271174323
30
0
41
1
10
76.3271442694353
20
3.56458541550182
30
0
41
1
10
76.7137040786996
20
3.38455151204565
30
0
41
1
10
76.9070766155665
20
3.29345102627804
30
0
41
1
10
77.2940594779424
20
3.10915945246185
30
0
41
1
10
77.4877736349089
20
3.01591352768256
30
0
41
1
10
78.0682813244822
20
2.73372607600618
30
0
41
1
10
78.4545596500135
20
2.54221892095995
30
0
41
1
10
79.2265985034059
20
2.15412903563455
30
0
41
1
10
79.6124965822981
20
1.95779932541902
30
0
41
1
10
80.3841648829531
20
1.56080473587463
30
0
41
1
10
80.7699201796058
20
1.36010970417848
30
0
41
1
10
81.5418135176106
20
0.955301413929817
30
0
41
1
10
81.9279201306769
20
0.751125322448246
30
0
41
1
10
82.3147557341917
20
0.546243829777239
30
0
0
SPLINE
5
E9
100
AcDbEntity
8
1
62
256
6
ByLayer
370
18
48
1
60
0
100
AcDbSpline
70
4
71
3
72
26
73
22
40
0
40
0
40
0
40
0
40
0.124999999999993
40
0.124999999999993
40
0.249999999999986
40
0.249999999999986
40
0.312499999999985
40
0.312499999999985
40
0.343749999999985
40
0.343749999999985
40
0.374999999999986
40
0.374999999999986
40
0.499999999999989
40
0.499999999999989
40
0.624999999999992
40
0.624999999999992
40
0.749999999999994
40
0.749999999999994
40
0.874999999999997
40
0.874999999999997
40
1
40
1
40
1
40
1
41
1
10
21.9996397614331
20
-2.71142041377044
30
0
41
1
10
21.5813271112833
20
-2.50845887650573
30
0
41
1
10
21.1633511037208
20
-2.30192496749026
30
0
41
1
10
20.3272195970064
20
-1.88327338068768
30
0
41
1
10
19.9090696219436
20
-1.67114672723659
30
0
41
1
10
19.2811820458794
20
-1.34974792817707
30
0
41
1
10
19.0717756100292
20
-1.24208052454614
30
0
41
1
10
18.7574393954528
20
-1.07988964076864
30
0
41
1
10
18.6526231583717
20
-1.02571054346833
30
0
41
1
10
18.4429061291697
20
-0.917138879501351
30
0
41
1
10
18.3380154913227
20
-0.862751666928887
30
0
41
1
10
17.8140094850111
20
-0.590708117132294
30
0
41
1
10
17.3956717045459
20
-0.372480219197257
30
0
41
1
10
16.559951490934
20
0.0636597332349425
30
0
41
1
10
16.1425747615288
20
0.281583174676314
30
0
41
1
10
15.3080992198537
20
0.715812345779739
30
0
41
1
10
14.8910291549472
20
0.932173240940358
30
0
41
1
10
14.0564259834705
20
1.36185203070093
30
0
41
1
10
13.6388877203324
20
1.57516028119574
30
0
41
1
10
12.8026050056558
20
1.997310675145
30
0
41
1
10
12.3838485724118
20
2.20613055140819
30
0
41
1
10
11.9641686318455
20
2.41210271640654
30
0
0
SPLINE
5
EA
100
AcDbEntity
8
1
62
256
6
ByLayer
370
18
48
1
60
0
100
AcDbSpline
70
4
71
3
72
37
73
33
40
0
40
0
40
0
40
0
40
0.028211928391497
40
0.028211928391497
40
0.0564238567829939
40
0.0564238567829939
40
0.112847713565986
40
0.112847713565986
40
0.225695427131972
40
0.225695427131972
40
0.253907355523469
40
0.253907355523469
40
0.282119283914967
40
0.338543140697962
40
0.338543140697962
40
0.451390854263952
40
0.451390854263952
40
0.479602782655449
40
0.479602782655449
40
0.507814711046947
40
0.564238567829942
40
0.564238567829942
40
0.677086281395934
40
0.677086281395934
40
0.705298209787431
40
0.705298209787431
40
0.733510138178929
40
0.789933994961926
40
0.789933994961926
40
0.902781708527921
40
0.902781708527921
40
1
40
1
40
1
40
1
41
1
10
21.9996397614331
20
-2.597666413811
30
0
41
1
10
22.1569199192474
20
-2.67439799004848
30
0
41
1
10
22.3142369493573
20
-2.75065214568204
30
0
41
1
10
22.6287372279896
20
-2.90199862545234
30
0
41
1
10
22.785922296373
20
-2.97709002244056
30
0
41
1
10
23.2573454525273
20
-3.20051346201237
30
0
41
1
10
23.571446711158
20
-3.3470034885577
30
0
41
1
10
24.5136139841966
20
-3.7784245249434
30
0
41
1
10
25.1415335555993
20
-4.05532222192872
30
0
41
1
10
25.9276670852732
20
-4.38558420962278
30
0
41
1
10
26.0849923176739
20
-4.45085673945604
30
0
41
1
10
26.3994247514964
20
-4.57959210738832
30
0
41
1
10
26.8708656627564
20
-4.77003167007464
30
0
41
1
10
27.3418657607027
20
-4.95222306616543
30
0
41
1
10
28.2837868126582
20
-5.30490946171665
30
0
41
1
10
28.9116647439942
20
-5.52439394218214
30
0
41
1
10
29.6978568663075
20
-5.7772816482186
30
0
41
1
10
29.8551564125268
20
-5.82678294910403
30
0
41
1
10
30.1695222228724
20
-5.92346861440365
30
0
41
1
10
30.6408724106834
20
-6.0650709053738
30
0
41
1
10
31.1117942024924
20
-6.19622572009513
30
0
41
1
10
32.0535254083144
20
-6.44414653720034
30
0
41
1
10
32.6811923761369
20
-6.59023980766494
30
0
41
1
10
33.4671793466147
20
-6.74733993778563
30
0
41
1
10
33.624371458039
20
-6.77746853268337
30
0
41
1
10
33.938565854192
20
-6.83507629488878
30
0
41
1
10
34.4096737479202
20
-6.91753439352942
30
0
41
1
10
34.8804145701097
20
-6.98803406294266
30
0
41
1
10
35.8218941550002
20
-7.11285035544964
30
0
41
1
10
36.449600105912
20
-7.17448124590476
30
0
41
1
10
37.6201592801173
20
-7.24801575134006
30
0
41
1
10
38.1609775040518
20
-7.26551445232093
30
0
41
1
10
38.7016651139763
20
-7.26646947895861
30
0
0
SPLINE
5
EB
100
AcDbEntity
8
1
62
256
6
ByLayer
370
18
48
1
60
0
100
AcDbSpline
70
4
71
3
72
24
73
20
40
0
40
0
40
0
40
0
40
0.0860902764688398
40
0.0860902764688398
40
0.177481248821946
40
0.223176734998501
40
0.223176734998501
40
0.268872221175056
40
0.268872221175056
40
0.451654165881282
40
0.451654165881282
40
0.543045138234396
40
0.588740624410957
40
0.588740624410957
40
0.634436110587517
40
0.634436110587517
40
0.817218055293758
40
0.817218055293758
40
1
40
1
40
1
40
1
41
1
10
71.9267525063453
20
5.3754641541492
30
0
41
1
10
72.2213745261973
20
5.48152013198938
30
0
41
1
10
72.516006122578
20
5.58397882580505
30
0
41
1
10
73.1236869148298
20
5.78744613434986
30
0
41
1
10
73.5932893787758
20
5.93823836060417
30
0
41
1
10
74.0635961766255
20
6.07901150207817
30
0
41
1
10
74.3773317283325
20
6.17058103500128
30
0
41
1
10
74.5341553802682
20
6.21518413234085
30
0
41
1
10
75.3178119453608
20
6.43210251582928
30
0
41
1
10
75.9436171561812
20
6.58621979837406
30
0
41
1
10
76.8825904257984
20
6.78669052760299
30
0
41
1
10
77.3521424634438
20
6.87925283036546
30
0
41
1
10
77.8221429034072
20
6.96003610499969
30
0
41
1
10
78.1356115139218
20
7.01124672808265
30
0
41
1
10
78.2924443784285
20
7.03553406318281
30
0
41
1
10
79.0766972031067
20
7.15023693992944
30
0
41
1
10
79.7026699258934
20
7.22021081999296
30
0
41
1
10
80.9542372131001
20
7.31583486163757
30
0
41
1
10
81.5798363201379
20
7.34147932326317
30
0
41
1
10
82.2065444985395
20
7.3446405289784
30
0
0
SPLINE
5
EC
100
AcDbEntity
8
1
62
256
6
ByLayer
370
13
48
1
60
0
100
AcDbSpline
70
4
71
3
72
10
73
6
40
0
40
0
40
0
40
0
40
0.5
40
0.5
40
1
40
1
40
1
40
1
41
1
10
22.0953439819083
20
-1.72150597036767
30
0
41
1
10
22.0883151193403
20
-1.71808013101003
30
0
41
1
10
22.0814063058504
20
-1.71491290800171
30
0
41
1
10
22.0678259810679
20
-1.70907803437817
30
0
41
1
10
22.0611059011874
20
-1.7063937775556
30
0
41
1
10
22.054693849972
20
-1.70405317129712
30
0
0
SPLINE
5
ED
100
AcDbEntity
8
1
62
256
6
ByLayer
370
13
48
1
60
0
100
AcDbSpline
70
4
71
3
72
8
73
4
40
0
40
0
40
0
40
0
40
1
40
1
40
1
40
1
41
1
10
22.0533643884071
20
-1.76674165210679
30
0
41
1
10
22.0538024650772
20
-1.74585102069057
30
0
41
1
10
22.0542456167282
20
-1.7249549519469
30
0
41
1
10
22.054693849972
20
-1.70405317129712
30
0
0
SPLINE
5
EE
100
AcDbEntity
8
1
62
256
6
ByLayer
370
18
48
1
60
0
100
AcDbSpline
70
4
71
3
72
55
73
51
40
0
40
0
40
0
40
0
40
0.0035194681798539
40
0.0035194681798539
40
0.0247211816228353
40
0.0247211816228353
40
0.0671246085087997
40
0.0671246085087997
40
0.151931462280728
40
0.151931462280728
40
0.194334889166692
40
0.194334889166692
40
0.215536602609675
40
0.215536602609675
40
0.236738316052658
40
0.236738316052658
40
0.321545169824589
40
0.321545169824589
40
0.406352023596519
40
0.406352023596519
40
0.427553737039501
40
0.427553737039501
40
0.448755450482484
40
0.491158877368449
40
0.491158877368449
40
0.533562304254414
40
0.533562304254414
40
0.57596573114038
40
0.57596573114038
40
0.618369158026345
40
0.618369158026345
40
0.639570871469327
40
0.639570871469327
40
0.660772584912308
40
0.660772584912308
40
0.70317601179827
40
0.70317601179827
40
0.745579438684233
40
0.745579438684233
40
0.787982865570195
40
0.787982865570195
40
0.809184579013176
40
0.809184579013176
40
0.830386292456157
40
0.830386292456157
40
0.872789719342118
40
0.872789719342118
40
0.915193146228078
40
0.915193146228078
40
1
40
1
40
1
40
1
41
1
10
44.2228417694791
20
-7.00280576256171
30
0
41
1
10
44.1968097900465
20
-7.00647168169371
30
0
41
1
10
44.1707756890128
20
-7.01010104242511
30
0
41
1
10
43.9878939037189
20
-7.03533710156159
30
0
41
1
10
43.8310607391533
20
-7.05563665773823
30
0
41
1
10
43.3609095476258
20
-7.11240999227294
30
0
41
1
10
43.0477773891769
20
-7.14478499269032
30
0
41
1
10
42.1088029417384
20
-7.22538721947521
30
0
41
1
10
41.4833449636716
20
-7.25708363705118
30
0
41
1
10
40.5442086313479
20
-7.2712962356789
30
0
41
1
10
40.2310095673627
20
-7.27047741661897
30
0
41
1
10
39.7607289434292
20
-7.26088098265595
30
0
41
1
10
39.6038451645681
20
-7.25628590628352
30
0
41
1
10
39.2900747721823
20
-7.24431048122534
30
0
41
1
10
39.1332769619197
20
-7.2369343978778
30
0
41
1
10
38.3496257721311
20
-7.19315356663265
30
0
41
1
10
37.7239014770914
20
-7.13601083446108
30
0
41
1
10
36.4721462693052
20
-6.97859358960014
30
0
41
1
10
35.8460794222769
20
-6.87835108685269
30
0
41
1
10
35.061805585769
20
-6.72684772834052
30
0
41
1
10
34.9048109352793
20
-6.69522384379749
30
0
41
1
10
34.5910675056825
20
-6.6294605745278
30
0
41
1
10
34.1207205282519
20
-6.52702731302537
30
0
41
1
10
33.6509803903578
20
-6.41340906562743
30
0
41
1
10
33.0248227575329
20
-6.25234871654351
30
0
41
1
10
32.7118293268547
20
-6.16703239217429
30
0
41
1
10
32.0857671626315
20
-5.98708270176138
30
0
41
1
10
31.772695098201
20
-5.89245077205533
30
0
41
1
10
31.1461108807207
20
-5.69425104282385
30
0
41
1
10
30.8326002787769
20
-5.59068249453915
30
0
41
1
10
30.3617797081811
20
-5.42887308084133
30
0
41
1
10
30.2047709421345
20
-5.37386783748687
30
0
41
1
10
29.8910047997425
20
-5.26192055769306
30
0
41
1
10
29.7341896383755
20
-5.20495889402639
30
0
41
1
10
29.2638924478366
20
-5.03119130835543
30
0
41
1
10
28.9505617779243
20
-4.91149924715722
30
0
41
1
10
28.3240517677453
20
-4.66478495090388
30
0
41
1
10
28.0108667492167
20
-4.53776880449465
30
0
41
1
10
27.3842360008845
20
-4.27701234650527
30
0
41
1
10
27.0707932604499
20
-4.14326939517909
30
0
41
1
10
26.6002405194988
20
-3.93790466928826
30
0
41
1
10
26.4433245624435
20
-3.86865833496393
30
0
41
1
10
26.1293204874536
20
-3.7286467957359
30
0
41
1
10
25.972337234358
20
-3.65792811977707
30
0
41
1
10
25.5016767020605
20
-3.44387441285696
30
0
41
1
10
25.1881659944102
20
-3.2985859777508
30
0
41
1
10
24.56141187046
20
-3.003296191217
30
0
41
1
10
24.2481677021819
20
-2.85329526614106
30
0
41
1
10
23.308289640519
20
-2.39718891890894
30
0
41
1
10
22.6815058413155
20
-2.08499057882111
30
0
41
1
10
22.0533643884071
20
-1.76674165210682
30
0
0
SPLINE
5
EF
100
AcDbEntity
8
1
62
256
6
ByLayer
370
18
48
1
60
0
100
AcDbSpline
70
4
71
3
72
46
73
42
40
0
40
0
40
0
40
0
40
0.0058891810997621
40
0.0058891810997621
40
0.0184728623516658
40
0.0184728623516658
40
0.0436402248554713
40
0.0436402248554713
40
0.0939749498630806
40
0.0939749498630806
40
0.144309674870689
40
0.144309674870689
40
0.194644399878299
40
0.194644399878299
40
0.295313849893516
40
0.295313849893516
40
0.345648574901125
40
0.345648574901125
40
0.395983299908734
40
0.395983299908734
40
0.446318024916343
40
0.446318024916343
40
0.496652749923952
40
0.496652749923952
40
0.521820112427756
40
0.521820112427756
40
0.54698747493156
40
0.54698747493156
40
0.597322199939165
40
0.597322199939165
40
0.647656924946771
40
0.647656924946771
40
0.697991649954376
40
0.697991649954376
40
0.798661099969585
40
0.798661099969585
40
0.848995824977189
40
0.848995824977189
40
0.899330549984792
40
0.899330549984792
40
1
40
1
40
1
40
1
41
1
10
40.7846220763641
20
-6.99863397468803
30
0
41
1
10
40.747714792668
20
-6.9990720791981
30
0
41
1
10
40.7107981940342
20
-6.99943636100664
30
0
41
1
10
40.5949701319136
20
-7.00034682083225
30
0
41
1
10
40.5160112452194
20
-7.00062877160423
30
0
41
1
10
40.2793477356135
20
-7.00045621009585
30
0
41
1
10
40.1217445920764
20
-6.9989847820606
30
0
41
1
10
39.6493939186107
20
-6.99050329529757
30
0
41
1
10
39.3351048650048
20
-6.97942709689258
30
0
41
1
10
38.7074353657351
20
-6.94654377638031
30
0
41
1
10
38.3940659515994
20
-6.92478118382198
30
0
41
1
10
37.7680257031037
20
-6.87082969701163
30
0
41
1
10
37.4553448723976
20
-6.8385966500424
30
0
41
1
10
36.5178090290884
20
-6.72647115502824
30
0
41
1
10
35.8934490576534
20
-6.63114825146914
30
0
41
1
10
34.9562176103927
20
-6.45829502379374
30
0
41
1
10
34.6437039970558
20
-6.39570726123546
30
0
41
1
10
34.0182315893507
20
-6.26079460424737
30
0
41
1
10
33.7052638101743
20
-6.18846082451111
30
0
41
1
10
33.0785007666866
20
-6.03425798062455
30
0
41
1
10
32.7647050562671
20
-5.95238761185496
30
0
41
1
10
32.1360766426939
20
-5.77934807946579
30
0
41
1
10
31.8212444044885
20
-5.68817970123027
30
0
41
1
10
31.347944950318
20
-5.54464082734762
30
0
41
1
10
31.1899131758732
20
-5.49563351696565
30
0
41
1
10
30.8743571344079
20
-5.39567812186411
30
0
41
1
10
30.7167436489426
20
-5.34470420774178
30
0
41
1
10
30.2443414514419
20
-5.1888842848625
30
0
41
1
10
29.9299906787326
20
-5.08114101239593
30
0
41
1
10
29.3021703478269
20
-4.85838705562378
30
0
41
1
10
28.9887056525075
20
-4.74334813401254
30
0
41
1
10
28.3624499156422
20
-4.50639438055461
30
0
41
1
10
28.0496541035039
20
-4.38450842150951
30
0
41
1
10
27.1116956401489
20
-4.00944551794322
30
0
41
1
10
26.4869874919172
20
-3.74683613502432
30
0
41
1
10
25.5491609748551
20
-3.33692333685778
30
0
41
1
10
25.2364167891994
20
-3.19762619716548
30
0
41
1
10
24.61043578892
20
-2.91412769092855
30
0
41
1
10
24.2972021089791
20
-2.76992231895227
30
0
41
1
10
23.3562323610033
20
-2.33082969287005
30
0
41
1
10
22.7272197114572
20
-2.02947966063368
30
0
41
1
10
22.0953439819083
20
-1.72150597036767
30
0
0
SPLINE
5
F0
100
AcDbEntity
8
1
62
256
6
ByLayer
370
13
48
1
60
0
100
AcDbSpline
70
4
71
3
72
10
73
6
40
0
40
0
40
0
40
0
40
0.255816881391632
40
0.255816881391632
40
1
40
1
40
1
40
1
41
1
10
22.1460973830538
20
6.55369512360664
30
0
41
1
10
22.1459820950193
20
6.53296688101926
30
0
41
1
10
22.1458664537033
20
6.51223847295822
30
0
41
1
10
22.1454130245993
20
6.43120951352944
30
0
41
1
10
22.1450725984921
20
6.3709077110577
30
0
41
1
10
22.1447291776526
20
6.31060443604193
30
0
0
SPLINE
5
F1
100
AcDbEntity
8
1
62
256
6
ByLayer
370
18
48
1
60
0
100
AcDbSpline
70
4
71
3
72
40
73
36
40
0
40
0
40
0
40
0
40
0.11916110580362
40
0.11916110580362
40
0.178741658705428
40
0.178741658705428
40
0.238322211607237
40
0.238322211607237
40
0.297902764509045
40
0.297902764509045
40
0.357483317410854
40
0.357483317410854
40
0.417063870312663
40
0.446854146763567
40
0.446854146763567
40
0.476644423214472
40
0.476644423214472
40
0.53622497611628
40
0.566015252567186
40
0.566015252567186
40
0.595805529018091
40
0.595805529018091
40
0.655386081919902
40
0.655386081919902
40
0.714966634821713
40
0.714966634821713
40
0.774547187723523
40
0.774547187723523
40
0.834127740625334
40
0.834127740625334
40
0.893708293527145
40
0.893708293527145
40
0.953288846428956
40
0.953288846428956
40
1
40
1
40
1
40
1
41
1
10
22.1447291776527
20
6.31060443604193
30
0
41
1
10
22.7746456381076
20
6.17812689109812
30
0
41
1
10
23.4022102973427
20
6.02544756332244
30
0
41
1
10
24.3413119400634
20
5.77015707147444
30
0
41
1
10
24.6539568142633
20
5.68067907535519
30
0
41
1
10
25.2784713605155
20
5.49361042062588
30
0
41
1
10
25.590368479283
20
5.39599624948946
30
0
41
1
10
26.2141044776861
20
5.19256199358577
30
0
41
1
10
26.5259308390767
20
5.08675778828072
30
0
41
1
10
27.1497750386232
20
4.86747183719851
30
0
41
1
10
27.4617874508698
20
4.75398945794913
30
0
41
1
10
28.0860609301034
20
4.51986893532413
30
0
41
1
10
28.5544519947824
20
4.33890772594947
30
0
41
1
10
29.0231814194748
20
4.15034282310941
30
0
41
1
10
29.3357564390948
20
4.02297447319739
30
0
41
1
10
29.4920953489298
20
3.9584638244298
30
0
41
1
10
29.9616445551021
20
3.7625252407073
30
0
41
1
10
30.4322221542709
20
3.56176431016664
30
0
41
1
10
30.9043940653615
20
3.35430958658506
30
0
41
1
10
31.2195355719051
20
3.21458079951842
30
0
41
1
10
31.3773488431287
20
3.1439745626657
30
0
41
1
10
31.8499577381435
20
2.93073839617728
30
0
41
1
10
32.1643540171999
20
2.78649716276135
30
0
41
1
10
32.7918903333745
20
2.49413990488785
30
0
41
1
10
33.1050382737838
20
2.34603602172521
30
0
41
1
10
33.7306210923294
20
2.0468546996799
30
0
41
1
10
34.0430476308592
20
1.89576455315969
30
0
41
1
10
34.6672196897879
20
1.59080957025097
30
0
41
1
10
34.978976540608
20
1.43695897470576
30
0
41
1
10
35.6026473767877
20
1.12789965478336
30
0
41
1
10
35.9145516378544
20
0.972678141423984
30
0
41
1
10
36.538512077972
20
0.661010894009024
30
0
41
1
10
36.8505688657854
20
0.504566099463972
30
0
41
1
10
37.4074797163615
20
0.224590484245823
30
0
41
1
10
37.6522889604142
20
0.101246696989079
30
0
41
1
10
37.8971282952584
20
-0.0224505098694578
30
0
0
SPLINE
5
F2
100
AcDbEntity
8
1
62
256
6
ByLayer
370
18
48
1
60
0
100
AcDbSpline
70
4
71
3
72
102
73
98
40
0
40
0
40
0
40
0
40
0.0500838907292462
40
0.0500838907292462
40
0.0626048634115577
40
0.0626048634115577
40
0.0751258360938692
40
0.0751258360938692
40
0.100167781458491
40
0.100167781458491
40
0.125209726823114
40
0.125209726823114
40
0.150251672187736
40
0.150251672187736
40
0.175293617552358
40
0.175293617552358
40
0.187814590234669
40
0.187814590234669
40
0.200335562916981
40
0.200335562916981
40
0.25041945364623
40
0.25041945364623
40
0.275461399010854
40
0.275461399010854
40
0.300503344375478
40
0.300503344375478
40
0.325545289740103
40
0.325545289740103
40
0.350587235104727
40
0.350587235104727
40
0.375629180469351
40
0.375629180469351
40
0.400671125833976
40
0.400671125833976
40
0.413192098516287
40
0.413192098516287
40
0.425713071198599
40
0.425713071198599
40
0.438234043880911
40
0.438234043880911
40
0.450755016563223
40
0.450755016563223
40
0.475796961927846
40
0.475796961927846
40
0.500838907292469
40
0.500838907292469
40
0.525880852657093
40
0.525880852657093
40
0.538401825339405
40
0.538401825339405
40
0.550922798021717
40
0.550922798021717
40
0.575964743386343
40
0.575964743386343
40
0.588485716068656
40
0.588485716068656
40
0.601006688750969
40
0.601006688750969
40
0.651090579480221
40
0.651090579480221
40
0.663611552162534
40
0.663611552162534
40
0.676132524844846
40
0.676132524844846
40
0.688653497527159
40
0.688653497527159
40
0.701174470209472
40
0.701174470209472
40
0.726216415574098
40
0.726216415574098
40
0.751258360938723
40
0.751258360938723
40
0.763779333621036
40
0.763779333621036
40
0.776300306303349
40
0.776300306303349
40
0.788821278985662
40
0.788821278985662
40
0.801342251667974
40
0.801342251667974
40
0.8263841970326
40
0.8263841970326
40
0.851426142397226
40
0.851426142397226
40
0.876468087761851
40
0.876468087761851
40
0.901510033126477
40
0.901510033126477
40
0.91403100580879
40
0.91403100580879
40
0.926551978491104
40
0.926551978491104
40
0.951593923855729
40
0.951593923855729
40
0.976635869220355
40
0.976635869220355
40
1
40
1
40
1
40
1
41
1
10
22.1460973830538
20
6.55369512360664
30
0
41
1
10
22.7728365326304
20
6.41527583030444
30
0
41
1
10
23.3996986780037
20
6.2573632838359
30
0
41
1
10
24.1840502168881
20
6.03653568383001
30
0
41
1
10
24.3409961066492
20
5.99118203413488
30
0
41
1
10
24.6546122180432
20
5.89820831517159
30
0
41
1
10
24.8113118039212
20
5.85057819902849
30
0
41
1
10
25.2810968283552
20
5.70426619569764
30
0
41
1
10
25.5939024401422
20
5.60219344126526
30
0
41
1
10
26.2195141693502
20
5.38993715855699
30
0
41
1
10
26.5322988167379
20
5.27973478684001
30
0
41
1
10
27.1580849608183
20
5.05156545116679
30
0
41
1
10
27.4710774585627
20
4.93358924716756
30
0
41
1
10
28.0973364890336
20
4.68993679964009
30
0
41
1
10
28.4106033188802
20
4.56426009484338
30
0
41
1
10
28.8808152167647
20
4.37004902173948
30
0
41
1
10
29.0375668343696
20
4.30437593144663
30
0
41
1
10
29.3507077696489
20
4.17136635667808
30
0
41
1
10
29.5071661417814
20
4.10402204642455
30
0
41
1
10
30.2894690336885
20
3.76402641107208
30
0
41
1
10
30.9151545232236
20
3.48129758323373
30
0
41
1
10
31.8538575040647
20
3.042014296453
30
0
41
1
10
32.1667936245979
20
2.8930584791224
30
0
41
1
10
32.7927963444248
20
2.59014720316489
30
0
41
1
10
33.1059078990333
20
2.43620640711148
30
0
41
1
10
33.7328803311874
20
2.12463351674165
30
0
41
1
10
34.0460238868416
20
1.9673167309893
30
0
41
1
10
34.6716395386181
20
1.64965267803714
30
0
41
1
10
34.9841412912734
20
1.48935763880726
30
0
41
1
10
35.6094458842012
20
1.16756789935391
30
0
41
1
10
35.9222220960755
20
1.00602624711277
30
0
41
1
10
36.5479754117333
20
0.681572028624913
30
0
41
1
10
36.8609544151803
20
0.518662572121343
30
0
41
1
10
37.3306551838824
20
0.273418134268212
30
0
41
1
10
37.4872604780857
20
0.19152254216317
30
0
41
1
10
37.8005393916057
20
0.0274168243973349
30
0
41
1
10
37.9572751927095
20
-0.0548271453970699
30
0
41
1
10
38.2704528392185
20
-0.219440546805373
30
0
41
1
10
38.42689667479
20
-0.301789347211354
30
0
41
1
10
38.7397281832941
20
-0.466120530483863
30
0
41
1
10
38.8961098104352
20
-0.548114917142726
30
0
41
1
10
39.3652108488738
20
-0.793477081420292
30
0
41
1
10
39.6778789559852
20
-0.956239129763617
30
0
41
1
10
40.3031128307837
20
-1.28009372040629
30
0
41
1
10
40.6156870608185
20
-1.44116893112434
30
0
41
1
10
41.2411390473813
20
-1.7608846122325
30
0
41
1
10
41.5540073550211
20
-1.91954406875553
30
0
41
1
10
42.0235475129084
20
-2.15568173575136
30
0
41
1
10
42.1801032062515
20
-2.23408042506793
30
0
41
1
10
42.4933703998995
20
-2.39011639309371
30
0
41
1
10
42.6501052766255
20
-2.46776448652344
30
0
41
1
10
43.1198987355001
20
-2.69902077627484
30
0
41
1
10
43.4327710201717
20
-2.85109237609473
30
0
41
1
10
43.9015224879092
20
-3.07617121946399
30
0
41
1
10
44.0576898535907
20
-3.15067365682259
30
0
41
1
10
44.3701108766521
20
-3.29819786317381
30
0
41
1
10
44.52635679283
20
-3.37123434414829
30
0
41
1
10
45.3077053567867
20
-3.73290971048891
30
0
41
1
10
45.9331296844965
20
-4.0111190545704
30
0
41
1
10
46.715685633085
20
-4.34431699300384
30
0
41
1
10
46.8722388728447
20
-4.41022101021267
30
0
41
1
10
47.1854532560839
20
-4.54051047519255
30
0
41
1
10
47.3420089175994
20
-4.60485217759538
30
0
41
1
10
47.6548026584623
20
-4.73178376356961
30
0
41
1
10
47.811086030247
20
-4.79437564746226
30
0
41
1
10
48.1236996861598
20
-4.91742543403291
30
0
41
1
10
48.2800211605285
20
-4.97789845584805
30
0
41
1
10
48.7489681962119
20
-5.15627625323938
30
0
41
1
10
49.0615779193333
20
-5.27114008820033
30
0
41
1
10
49.6867344304599
20
-5.49282422346599
30
0
41
1
10
49.9992806412702
20
-5.59964390225798
30
0
41
1
10
50.4681027819271
20
-5.7537277565711
30
0
41
1
10
50.6243772516047
20
-5.80406429206698
30
0
41
1
10
50.9369179419635
20
-5.9026801238152
30
0
41
1
10
51.0931888106456
20
-5.95095273236376
30
0
41
1
10
51.4058932646292
20
-6.04523305944812
30
0
41
1
10
51.5623731257222
20
-6.09125322036127
30
0
41
1
10
51.8754439534224
20
-6.18079985611871
30
0
41
1
10
52.031947844935
20
-6.22430958146833
30
0
41
1
10
52.5013489314181
20
-6.35110180073534
30
0
41
1
10
52.8141347916544
20
-6.43065080825446
30
0
41
1
10
53.4394715201788
20
-6.57982802311963
30
0
41
1
10
53.7520178650222
20
-6.64946298112778
30
0
41
1
10
54.3767769085672
20
-6.7788442113247
30
0
41
1
10
54.6890060622134
20
-6.83856359490954
30
0
41
1
10
55.31382120946
20
-6.94752850121372
30
0
41
1
10
55.6263997885965
20
-6.99678573796254
30
0
41
1
10
56.0957497805136
20
-7.06266340108255
30
0
41
1
10
56.2523360614815
20
-7.08329480270697
30
0
41
1
10
56.5652341236261
20
-7.12181854280342
30
0
41
1
10
56.7215820311444
20
-7.1397142716576
30
0
41
1
10
57.1905281176068
20
-7.18923663860153
30
0
41
1
10
57.5030569836058
20
-7.21669494204389
30
0
41
1
10
58.1280834780505
20
-7.26058365472889
30
0
41
1
10
58.4405482965807
20
-7.27702504144065
30
0
41
1
10
59.0444782416076
20
-7.29816405385674
30
0
41
1
10
59.3359472438587
20
-7.3035733670587
30
0
41
1
10
59.6274315694034
20
-7.30413584707946
30
0
0
SPLINE
5
F3
100
AcDbEntity
8
1
62
256
6
ByLayer
370
18
48
1
60
0
100
AcDbSpline
70
4
71
3
72
14
73
10
40
0
40
0
40
0
40
0
40
0.25
40
0.25
40
0.5
40
0.5
40
0.75
40
0.75
40
1
40
1
40
1
40
1
41
1
10
82.3111776379731
20
-7.01463833311635
30
0
41
1
10
82.3113415195061
20
-7.01480554943368
30
0
41
1
10
82.3114337173163
20
-7.01516613673576
30
0
41
1
10
82.3114313166646
20
-7.01636692426712
30
0
41
1
10
82.3113314100113
20
-7.01720576437651
30
0
41
1
10
82.3109108731195
20
-7.01928518145107
30
0
41
1
10
82.3105841489934
20
-7.02054346144016
30
0
41
1
10
82.3097791341687
20
-7.0231591025624
30
0
41
1
10
82.3093053116119
20
-7.02450773991194
30
0
41
1
10
82.308817508924
20
-7.02576190230877
30
0
0
SPLINE
5
F4
100
AcDbEntity
8
1
62
256
6
ByLayer
370
18
48
1
60
0
100
AcDbSpline
70
4
71
3
72
8
73
4
40
0
40
0
40
0
40
0
40
1
40
1
40
1
40
1
41
1
10
82.1535549241736
20
-7.28243663318213
30
0
41
1
10
82.2024719913539
20
-7.20436904567993
30
0
41
1
10
82.2514413942794
20
-7.1259669726854
30
0
41
1
10
82.3004695244997
20
-7.04723168940762
30
0
0
SPLINE
5
F5
100
AcDbEntity
8
1
62
256
6
ByLayer
370
18
48
1
60
0
100
AcDbSpline
70
4
71
3
72
8
73
4
40
0
40
0
40
0
40
0
40
1
40
1
40
1
40
1
41
1
10
82.308817508924
20
-7.02576190230883
30
0
41
1
10
82.3060336712747
20
-7.03291927266719
30
0
41
1
10
82.3032510075697
20
-7.04007586652327
30
0
41
1
10
82.3004695244998
20
-7.04723168940765
30
0
0
SPLINE
5
F6
100
AcDbEntity
8
1
62
256
6
ByLayer
370
18
48
1
60
0
100
AcDbSpline
70
4
71
3
72
45
73
41
40
0
40
0
40
0
40
0
40
0.0466700891620922
40
0.0466700891620922
40
0.0700051337431398
40
0.0700051337431398
40
0.0933401783241874
40
0.0933401783241874
40
0.186680356648381
40
0.186680356648381
40
0.233350445810478
40
0.233350445810478
40
0.256685490391526
40
0.256685490391526
40
0.280020534972575
40
0.280020534972575
40
0.373360713296768
40
0.373360713296768
40
0.466700891620962
40
0.466700891620962
40
0.513370980783058
40
0.513370980783058
40
0.525038503073582
40
0.525038503073582
40
0.536706025364107
40
0.560041069945157
40
0.560041069945157
40
0.653381248269361
40
0.653381248269361
40
0.746721426593564
40
0.746721426593564
40
0.840061604917768
40
0.840061604917768
40
0.886731694079869
40
0.886731694079869
40
0.93340178324197
40
0.93340178324197
40
0.980071872404071
40
0.980071872404071
40
1
40
1
40
1
40
1
41
1
10
82.308817508924
20
-7.0257619023088
30
0
41
1
10
81.9938174655518
20
-7.00622432219535
30
0
41
1
10
81.6788567824224
20
-6.98120210046636
30
0
41
1
10
81.2062630309033
20
-6.93554164316123
30
0
41
1
10
81.0486782318038
20
-6.91896238078053
30
0
41
1
10
80.7339764549333
20
-6.88317755261542
30
0
41
1
10
80.5767926927791
20
-6.86396613681785
30
0
41
1
10
79.7916179103683
20
-6.76140139490664
30
0
41
1
10
79.1658581849244
20
-6.65853677539371
30
0
41
1
10
78.229078640392
20
-6.47489898228409
30
0
41
1
10
77.9171308098847
20
-6.40879401791608
30
0
41
1
10
77.4493991412175
20
-6.30250290396455
30
0
41
1
10
77.2935175080722
20
-6.26588035662544
30
0
41
1
10
76.9818201278212
20
-6.1903350737424
30
0
41
1
10
76.8260089130569
20
-6.15141978298982
30
0
41
1
10
76.0469732329697
20
-5.95105661674973
30
0
41
1
10
75.4237613358723
20
-5.77213409897047
30
0
41
1
10
74.1751736827135
20
-5.37979077958033
30
0
41
1
10
73.5497854567436
20
-5.16639917031381
30
0
41
1
10
72.6083025074066
20
-4.82255928624295
30
0
41
1
10
72.293914440605
20
-4.70397200308528
30
0
41
1
10
71.9000300356945
20
-4.55101598657362
30
0
41
1
10
71.8211958689635
20
-4.52018384628664
30
0
41
1
10
71.6636705691583
20
-4.45814680638276
30
0
41
1
10
71.4275116975402
20
-4.36449889629171
30
0
41
1
10
71.1917208383068
20
-4.26910667797159
30
0
41
1
10
70.4064847970599
20
-3.94739918493721
30
0
41
1
10
69.7806444323177
20
-3.67808024250459
30
0
41
1
10
68.5312659726717
20
-3.12001591373544
30
0
41
1
10
67.9077042915806
20
-2.83132274647414
30
0
41
1
10
66.6605690884205
20
-2.23884718556795
30
0
41
1
10
66.0370356307512
20
-1.93500168879171
30
0
41
1
10
65.100018033175
20
-1.47113228080136
30
0
41
1
10
64.7873908135102
20
-1.3151527951571
30
0
41
1
10
64.1612475946915
20
-1.00112624212267
30
0
41
1
10
63.8477290170519
20
-0.843081928625111
30
0
41
1
10
63.2195472062865
20
-0.52537561611291
30
0
41
1
10
62.9048870182657
20
-0.365718925431395
30
0
41
1
10
62.4548266193386
20
-0.137180688889998
30
0
41
1
10
62.3202278012412
20
-0.0688094256954628
30
0
41
1
10
62.1856894727274
20
-0.0004767913270598
30
0
0
SPLINE
5
F7
100
AcDbEntity
8
1
62
256
6
ByLayer
370
18
48
1
60
0
100
AcDbSpline
70
4
71
3
72
79
73
75
40
0
40
0
40
0
40
0
40
0.0224835309295176
40
0.0337252963942772
40
0.0337252963942772
40
0.0449670618590368
40
0.0449670618590368
40
0.089934123718072
40
0.089934123718072
40
0.134901185577107
40
0.134901185577107
40
0.146142951041865
40
0.146142951041865
40
0.157384716506624
40
0.157384716506624
40
0.17986824743614
40
0.17986824743614
40
0.224835309295174
40
0.224835309295174
40
0.24731884022469
40
0.24731884022469
40
0.258560605689449
40
0.258560605689449
40
0.269802371154207
40
0.269802371154207
40
0.359736494872275
40
0.359736494872275
40
0.370978260337034
40
0.370978260337034
40
0.382220025801792
40
0.404703556731309
40
0.404703556731309
40
0.449670618590344
40
0.449670618590344
40
0.472154149519861
40
0.472154149519861
40
0.483395914984619
40
0.483395914984619
40
0.494637680449378
40
0.494637680449378
40
0.539604742308411
40
0.539604742308411
40
0.584571804167445
40
0.584571804167445
40
0.629538866026479
40
0.629538866026479
40
0.674505927885512
40
0.674505927885512
40
0.685747693350271
40
0.685747693350271
40
0.696989458815029
40
0.696989458815029
40
0.719472989744546
40
0.719472989744546
40
0.764440051603579
40
0.764440051603579
40
0.786923582533096
40
0.798165347997854
40
0.798165347997854
40
0.809407113462613
40
0.809407113462613
40
0.854374175321647
40
0.854374175321647
40
0.89934123718068
40
0.89934123718068
40
0.910583002645439
40
0.910583002645439
40
0.921824768110198
40
0.921824768110198
40
0.944308299039714
40
0.944308299039714
40
0.989275360898748
40
0.989275360898748
40
1
40
1
40
1
40
1
41
1
10
82.1535549241754
20
-7.28243663318352
30
0
41
1
10
81.840712766644
20
-7.2603208177388
30
0
41
1
10
81.3715039961556
20
-7.21881345466659
30
0
41
1
10
80.9020622628591
20
-7.16493402251405
30
0
41
1
10
80.5890130680789
20
-7.12627860432769
30
0
41
1
10
80.4324159227465
20
-7.10557830959991
30
0
41
1
10
79.6500365772545
20
-6.99540796775088
30
0
41
1
10
79.0254249053177
20
-6.8858560230459
30
0
41
1
10
77.7764310662541
20
-6.62569156878811
30
0
41
1
10
77.1519558575765
20
-6.47515026214904
30
0
41
1
10
76.3699591559391
20
-6.2625170139151
30
0
41
1
10
76.2134826467558
20
-6.21877414423616
30
0
41
1
10
75.9003394304646
20
-6.12888546942153
30
0
41
1
10
75.7437515121576
20
-6.08276151238911
30
0
41
1
10
75.2743586850293
20
-5.94105691402774
30
0
41
1
10
74.9617350060411
20
-5.84208907253185
30
0
41
1
10
74.0243299297823
20
-5.53226152693341
30
0
41
1
10
73.3999947114599
20
-5.30849771205681
30
0
41
1
10
72.4625232873091
20
-4.94945221617553
30
0
41
1
10
72.1498742036492
20
-4.82586685105216
30
0
41
1
10
71.6804115777933
20
-4.63496719691435
30
0
41
1
10
71.5238049047028
20
-4.57039778219678
30
0
41
1
10
71.2105590528251
20
-4.43953931937244
30
0
41
1
10
71.0540252079633
20
-4.37329475425565
30
0
41
1
10
69.6458542226345
20
-3.77003526675529
30
0
41
1
10
68.3987177972566
20
-3.18346743301063
30
0
41
1
10
66.989520033906
20
-2.48591833338432
30
0
41
1
10
66.832798306074
20
-2.40785845274155
30
0
41
1
10
66.519578072028
20
-2.25097115928361
30
0
41
1
10
66.0500045829658
20
-2.01445080998266
30
0
41
1
10
65.5810272024663
20
-1.77468829556312
30
0
41
1
10
64.6434030315569
20
-1.29170924589334
30
0
41
1
10
64.0187232658922
20
-0.965187442507187
30
0
41
1
10
63.0804423916796
20
-0.47211067302365
30
0
41
1
10
62.7674770406054
20
-0.307193099979031
30
0
41
1
10
62.2974869242528
20
-0.0594207293576687
30
0
41
1
10
62.1407467176141
20
0.0232288720618499
30
0
41
1
10
61.8275494729084
20
0.188321421435461
30
0
41
1
10
61.6710300710789
20
0.27079723201436
30
0
41
1
10
60.888733714968
20
0.682643811124279
30
0
41
1
10
60.263868560403
20
1.01043441469511
30
0
41
1
10
59.0134653232879
20
1.65771612159264
30
0
41
1
10
58.3879743193562
20
1.97729608611107
30
0
41
1
10
57.1338763266476
20
2.60357848696663
30
0
41
1
10
56.5083512853946
20
2.90894849740289
30
0
41
1
10
55.2577258033678
20
3.49946922329642
30
0
41
1
10
54.6326760088527
20
3.78474174253776
30
0
41
1
10
53.8500627774631
20
4.12612203014132
30
0
41
1
10
53.6934742469953
20
4.19363654824326
30
0
41
1
10
53.3801308227441
20
4.3270850437799
30
0
41
1
10
53.2233147097219
20
4.39304430802798
30
0
41
1
10
52.7530638078789
20
4.58825607567914
30
0
41
1
10
52.4399124499332
20
4.71480646347717
30
0
41
1
10
51.5010255083878
20
5.08304396589531
30
0
41
1
10
50.8759510981934
20
5.31344314606358
30
0
41
1
10
49.9375826648659
20
5.63372186210413
30
0
41
1
10
49.4682087849718
20
5.78753416178961
30
0
41
1
10
48.998192692892
20
5.93140526689649
30
0
41
1
10
48.6846666379006
20
6.02506155212421
30
0
41
1
10
48.5277810510408
20
6.07076856392831
30
0
41
1
10
47.7440313319553
20
6.29320086765682
30
0
41
1
10
47.118494059364
20
6.4520991499902
30
0
41
1
10
45.8673829873024
20
6.72929232148687
30
0
41
1
10
45.2418235639866
20
6.84761979455911
30
0
41
1
10
44.4583529065036
20
6.96907933386072
30
0
41
1
10
44.301584993805
20
6.99205052227057
30
0
41
1
10
43.9878939037189
20
7.03533710156157
30
0
41
1
10
43.8310607391534
20
7.05563665773821
30
0
41
1
10
43.3609095476259
20
7.11240999227294
30
0
41
1
10
43.0477773891768
20
7.14478499269032
30
0
41
1
10
42.1088029417385
20
7.22538721947521
30
0
41
1
10
41.4833449636716
20
7.25708363705118
30
0
41
1
10
40.707931470351
20
7.26881850489917
30
0
41
1
10
40.5585739123028
20
7.26981407701044
30
0
41
1
10
40.4091631971497
20
7.26954298243317
30
0
0
SPLINE
5
F8
100
AcDbEntity
8
1
62
256
6
ByLayer
370
18
48
1
60
0
100
AcDbSpline
70
4
71
3
72
8
73
4
40
0
40
0
40
0
40
0
40
1
40
1
40
1
40
1
41
1
10
82.1800688107244
20
-0.411983120930074
30
0
41
1
10
82.2114276200541
20
-0.423670225530486
30
0
41
1
10
82.2427979074394
20
-0.434747343460629
30
0
41
1
10
82.274192461938
20
-0.445218383129571
30
0
0
SPLINE
5
F9
100
AcDbEntity
8
1
62
256
6
ByLayer
370
18
48
1
60
0
100
AcDbSpline
70
4
71
3
72
75
73
71
40
0
40
0
40
0
40
0
40
0.003203989690468
40
0.003203989690468
40
0.0210039184459949
40
0.0210039184459949
40
0.0388038472015215
40
0.0388038472015215
40
0.0744037047125754
40
0.0744037047125754
40
0.110003562223629
40
0.110003562223629
40
0.145603419734683
40
0.145603419734683
40
0.16340334849021
40
0.16340334849021
40
0.181203277245738
40
0.181203277245738
40
0.199003206001266
40
0.199003206001266
40
0.216803134756793
40
0.216803134756793
40
0.252402992267849
40
0.252402992267849
40
0.288002849778904
40
0.288002849778904
40
0.30580277853443
40
0.30580277853443
40
0.323602707289957
40
0.323602707289957
40
0.359202564801011
40
0.359202564801011
40
0.394802422312065
40
0.394802422312065
40
0.430402279823119
40
0.430402279823119
40
0.466002137334173
40
0.466002137334173
40
0.501601994845226
40
0.501601994845226
40
0.519401923600753
40
0.519401923600753
40
0.53720185235628
40
0.53720185235628
40
0.572801709867334
40
0.572801709867334
40
0.608401567378388
40
0.608401567378388
40
0.644001424889442
40
0.644001424889442
40
0.679601282400496
40
0.679601282400496
40
0.697401211156023
40
0.697401211156023
40
0.71520113991155
40
0.71520113991155
40
0.786400854933655
40
0.786400854933655
40
0.804200783689182
40
0.804200783689182
40
0.822000712444709
40
0.822000712444709
40
0.857600569955767
40
0.857600569955767
40
0.875400498711296
40
0.875400498711296
40
0.893200427466825
40
0.928800284977882
40
0.928800284977882
40
1
40
1
40
1
40
1
41
1
10
55.8548244191201
20
7.02871654125951
30
0
41
1
10
55.882980343446
20
7.03275560995939
30
0
41
1
10
55.9111387615922
20
7.03675151715331
30
0
41
1
10
56.0957497805136
20
7.06266340108255
30
0
41
1
10
56.2523360614815
20
7.08329480270697
30
0
41
1
10
56.5652341236261
20
7.12181854280345
30
0
41
1
10
56.7215820311444
20
7.1397142716576
30
0
41
1
10
57.1905281176068
20
7.18923663860153
30
0
41
1
10
57.5030569836058
20
7.21669494204389
30
0
41
1
10
58.1280834780505
20
7.26058365472886
30
0
41
1
10
58.4405482965807
20
7.27702504144065
30
0
41
1
10
59.0654112019049
20
7.29889675822298
30
0
41
1
10
59.3778087769138
20
7.30432554809843
30
0
41
1
10
59.8464370894357
20
7.30411025783434
30
0
41
1
10
60.0026523828353
20
7.30264508582795
30
0
41
1
10
60.3150704587306
20
7.29689708778082
30
0
41
1
10
60.4712747666555
20
7.29261037127992
30
0
41
1
10
60.7840144031283
20
7.28124001789325
30
0
41
1
10
60.9405264462572
20
7.27415963133586
30
0
41
1
10
61.2533638352532
20
7.25725441030943
30
0
41
1
10
61.409750592211
20
7.24742749679572
30
0
41
1
10
61.878805018625
20
7.21385345644129
30
0
41
1
10
62.1913651515264
20
7.18601710390178
30
0
41
1
10
62.8161892454168
20
7.11948233518845
30
0
41
1
10
63.1284525854321
20
7.08078185340804
30
0
41
1
10
63.5966811984116
20
7.01454234836081
30
0
41
1
10
63.7527304440982
20
6.99109702614058
30
0
41
1
10
64.064807518993
20
6.94147358809715
30
0
41
1
10
64.2208329760579
20
6.91529174119577
30
0
41
1
10
64.6892537048017
20
6.83286680044273
30
0
41
1
10
65.0020026424976
20
6.77276729433677
30
0
41
1
10
65.6283057657328
20
6.64222465170135
30
0
41
1
10
65.9411121349858
20
6.57193344826595
30
0
41
1
10
66.5661972811979
20
6.42149581093943
30
0
41
1
10
66.8784757774305
20
6.34135091692508
30
0
41
1
10
67.5025639342342
20
6.1712216544895
30
0
41
1
10
67.8143458234345
20
6.08119315053409
30
0
41
1
10
68.4383699084048
20
5.8922163379782
30
0
41
1
10
68.7506456797962
20
5.79332183778774
30
0
41
1
10
69.219487700033
20
5.63843959932771
30
0
41
1
10
69.3758405088229
20
5.58572208681176
30
0
41
1
10
69.6887030808633
20
5.47811776165793
30
0
41
1
10
69.8452741681464
20
5.42320878385974
30
0
41
1
10
70.3147438306373
20
5.25542415765452
30
0
41
1
10
70.6273145128169
20
5.13952344052973
30
0
41
1
10
71.2518024723494
20
4.89984906833854
30
0
41
1
10
71.5637215765754
20
4.77607052335375
30
0
41
1
10
72.1876318717118
20
4.52166889279155
30
0
41
1
10
72.4996206729608
20
4.39105098565619
30
0
41
1
10
73.1237347794621
20
4.12308983369883
30
0
41
1
10
73.4358613193683
20
3.98574170731826
30
0
41
1
10
73.9045889356336
20
3.77534836694699
30
0
41
1
10
74.0609213224997
20
3.7044902125073
30
0
41
1
10
74.3737745867475
20
3.56133314168059
30
0
41
1
10
74.5303269384236
20
3.48901884401687
30
0
41
1
10
75.3124205664253
20
3.12443955335951
30
0
41
1
10
75.936797815663
20
2.82272425485362
30
0
41
1
10
76.7164715452404
20
2.43437143437365
30
0
41
1
10
76.872362364473
20
2.35613152042484
30
0
41
1
10
77.1842880139725
20
2.1989287647466
30
0
41
1
10
77.3403305764697
20
2.11998078515055
30
0
41
1
10
77.8086839624959
20
1.88207993925167
30
0
41
1
10
78.1212119176733
20
1.72205511795317
30
0
41
1
10
78.5905346716345
20
1.48005471505235
30
0
41
1
10
78.7470497874278
20
1.39906965915836
30
0
41
1
10
79.0598123431541
20
1.23671631246648
30
0
41
1
10
79.5287267883544
20
0.992524404245899
30
0
41
1
10
79.9970301694975
20
0.74649287816024
30
0
41
1
10
80.93309767465
20
0.252492940838465
30
0
41
1
10
81.5564137691446
20
-0.0794413833975796
30
0
41
1
10
82.1800688107235
20
-0.411983120930756
30
0
0
SPLINE
5
FA
100
AcDbEntity
8
1
62
256
6
ByLayer
370
18
48
1
60
0
100
AcDbSpline
70
4
71
3
72
61
73
57
40
0
40
0
40
0
40
0
40
0.0272792582898019
40
0.0272792582898019
40
0.0483932317338828
40
0.0483932317338828
40
0.0695072051779643
40
0.0695072051779643
40
0.111735152066127
40
0.111735152066127
40
0.153963098954289
40
0.153963098954289
40
0.196191045842452
40
0.196191045842452
40
0.217305019286534
40
0.217305019286534
40
0.238418992730616
40
0.238418992730616
40
0.28064693961878
40
0.28064693961878
40
0.322874886506944
40
0.322874886506944
40
0.365102833395108
40
0.365102833395108
40
0.407330780283272
40
0.407330780283272
40
0.449558727171436
40
0.449558727171436
40
0.534014620947766
40
0.534014620947766
40
0.555128594391847
40
0.565685581113888
40
0.565685581113888
40
0.576242567835929
40
0.576242567835929
40
0.618470514724095
40
0.618470514724095
40
0.660698461612261
40
0.660698461612261
40
0.702926408500427
40
0.702926408500427
40
0.787382302276759
40
0.787382302276759
40
0.808496275720841
40
0.808496275720841
40
0.829610249164922
40
0.829610249164922
40
0.871838196053084
40
0.871838196053084
40
0.956294089829404
40
0.956294089829404
40
0.977408063273486
40
0.977408063273486
40
0.998522036717567
40
0.998522036717567
40
1
40
1
40
1
40
1
41
1
10
59.1371163487013
20
7.02623849872796
30
0
41
1
10
59.3401079738952
20
7.03001639889064
30
0
41
1
10
59.5430011173017
20
7.03166807577321
30
0
41
1
10
59.9027724549752
20
7.03100232521498
30
0
41
1
10
60.0596824269041
20
7.02950325871404
30
0
41
1
10
60.3733680306266
20
7.02418335794886
30
0
41
1
10
60.5301618704056
20
7.02031958764061
30
0
41
1
10
61.0008662192779
20
7.00395827246763
30
0
41
1
10
61.3150402913007
20
6.98685103092294
30
0
41
1
10
61.9441184835685
20
6.94140469739619
30
0
41
1
10
62.2590537123698
20
6.91305003788736
30
0
41
1
10
62.8894843981639
20
6.8458095708294
30
0
41
1
10
63.2039486019684
20
6.80703868919792
30
0
41
1
10
63.6746212698184
20
6.74182173849144
30
0
41
1
10
63.8313405124739
20
6.71890194381149
30
0
41
1
10
64.1444656878509
20
6.67068411312283
30
0
41
1
10
64.3008814930029
20
6.64536553128858
30
0
41
1
10
64.7699496691123
20
6.56524470546668
30
0
41
1
10
65.0823862351834
20
6.50637758401243
30
0
41
1
10
65.7067526363642
20
6.37890126057977
30
0
41
1
10
66.0186861916856
20
6.31027446092847
30
0
41
1
10
66.6422142672353
20
6.16371754220756
30
0
41
1
10
66.9538041862511
20
6.08579131751119
30
0
41
1
10
67.5766714385069
20
5.92124637734355
30
0
41
1
10
67.8879339321014
20
5.83464246573965
30
0
41
1
10
68.5110803756852
20
5.65214020553668
30
0
41
1
10
68.8229646896615
20
5.55624317316247
30
0
41
1
10
69.7596545290834
20
5.25571972172963
30
0
41
1
10
70.3854955526368
20
5.03822612272407
30
0
41
1
10
71.1699427149522
20
4.74710610304035
30
0
41
1
10
71.4054448022443
20
4.65832452201258
30
0
41
1
10
71.6413119071244
20
4.56738405439052
30
0
41
1
10
71.798650516098
20
4.50627789393968
30
0
41
1
10
71.8773949500953
20
4.47547403716257
30
0
41
1
10
72.270820137425
20
4.32048091739182
30
0
41
1
10
72.5848795288763
20
4.19327013465798
30
0
41
1
10
73.2118192595879
20
3.93302124117841
30
0
41
1
10
73.5247103931803
20
3.79998584611675
30
0
41
1
10
74.149809365809
20
3.52865990864407
30
0
41
1
10
74.4620071515089
20
3.39036749027832
30
0
41
1
10
75.3977779960895
20
2.96843903992737
30
0
41
1
10
76.0205232112822
20
2.67772957000568
30
0
41
1
10
76.7982164442957
20
2.3044704956379
30
0
41
1
10
76.9537276612546
20
2.22933382411313
30
0
41
1
10
77.2649066814017
20
2.07828805518534
30
0
41
1
10
77.4205673103215
20
2.00237301546886
30
0
41
1
10
77.8877651176733
20
1.77353401717116
30
0
41
1
10
78.199519890649
20
1.61951691084027
30
0
41
1
10
79.1358500954423
20
1.15378022177575
30
0
41
1
10
79.7614914529528
20
0.838370445779077
30
0
41
1
10
80.5458277016951
20
0.439639924339957
30
0
41
1
10
80.7028089645955
20
0.359670447140729
30
0
41
1
10
81.017020194258
20
0.199327627485417
30
0
41
1
10
81.1743097010565
20
0.118923764197319
30
0
41
1
10
81.3425217315684
20
0.032817223903379
30
0
41
1
10
81.35352588474
20
0.0271837312692185
30
0
41
1
10
81.364529772881
20
0.0215498385038302
30
0
0
SPLINE
5
FB
100
AcDbEntity
8
1
62
256
6
ByLayer
370
18
48
1
60
0
100
AcDbSpline
70
4
71
3
72
8
73
4
40
0
40
0
40
0
40
0
40
1
40
1
40
1
40
1
41
1
10
82.274192461938
20
-0.445218383129543
30
0
41
1
10
82.2760959262783
20
-0.445853246434183
30
0
41
1
10
82.2770861602592
20
-0.451083743003267
30
0
41
1
10
82.2763793053691
20
-0.456880708552518
30
0
0
SPLINE
5
FC
100
AcDbEntity
8
1
62
256
6
ByLayer
370
18
48
1
60
0
100
AcDbSpline
70
4
71
3
72
43
73
39
40
0
40
0
40
0
40
0
40
0.021357446280531
40
0.021357446280531
40
0.0789246553228527
40
0.0789246553228527
40
0.136491864365174
40
0.136491864365174
40
0.194059073407496
40
0.194059073407496
40
0.251626282449818
40
0.251626282449818
40
0.30919349149214
40
0.30919349149214
40
0.366760700534461
40
0.366760700534461
40
0.424327909576783
40
0.424327909576783
40
0.453111514097944
40
0.453111514097944
40
0.481895118619105
40
0.539462327661426
40
0.539462327661426
40
0.568245932182586
40
0.568245932182586
40
0.597029536703746
40
0.597029536703746
40
0.654596745746068
40
0.654596745746068
40
0.712163954788389
40
0.712163954788389
40
0.769731163830711
40
0.769731163830711
40
0.827298372873033
40
0.827298372873033
40
0.884865581915354
40
0.884865581915354
40
1
40
1
40
1
40
1
41
1
10
38.444634998586
20
-0.31025603729384
30
0
41
1
10
38.3286894482549
20
-0.251637325964396
30
0
41
1
10
38.2128007757916
20
-0.193009439134215
30
0
41
1
10
37.7845660653576
20
0.0233553839516958
30
0
41
1
10
37.4722468454836
20
0.180583009833327
30
0
41
1
10
36.8478318889312
20
0.494064325361052
30
0
41
1
10
36.5357381882545
20
0.65032215481537
30
0
41
1
10
35.9117048886014
20
0.961633397448026
30
0
41
1
10
35.599764894439
20
1.11668632703538
30
0
41
1
10
34.9760233632176
20
1.42542712855217
30
0
41
1
10
34.6642299328038
20
1.57912441959434
30
0
41
1
10
34.0399836950351
20
1.88378284656827
30
0
41
1
10
33.7275216839782
20
2.0347340946108
30
0
41
1
10
33.1018712761257
20
2.3336575696492
30
0
41
1
10
32.7886895281748
20
2.48163906809108
30
0
41
1
10
32.1610874141707
20
2.77376514227129
30
0
41
1
10
31.8466605588451
20
2.91790040795297
30
0
41
1
10
31.3740090430129
20
3.13099198771118
30
0
41
1
10
31.2161818330598
20
3.20155253958703
30
0
41
1
10
30.9010091665337
20
3.34119702565678
30
0
41
1
10
30.4287895702785
20
3.54853402137701
30
0
41
1
10
29.9581613405733
20
3.74920307102619
30
0
41
1
10
29.4885593874901
20
3.94506669364162
30
0
41
1
10
29.3322017168055
20
4.00955341238466
30
0
41
1
10
29.0195870970073
20
4.13687495570574
30
0
41
1
10
28.8633240858366
20
4.1997091000575
30
0
41
1
10
28.394647325392
20
4.38568374550263
30
0
41
1
10
28.0823469208534
20
4.50629900183938
30
0
41
1
10
27.4579941379035
20
4.74038918847205
30
0
41
1
10
27.1459422261304
20
4.85386694320266
30
0
41
1
10
26.5220189351019
20
5.07316426043781
30
0
41
1
10
26.2101526148621
20
5.17898388710475
30
0
41
1
10
25.5863362443304
20
5.38246793961392
30
0
41
1
10
25.2743975903627
20
5.48011488662337
30
0
41
1
10
24.6497987178775
20
5.6672636805377
30
0
41
1
10
24.3371127661894
20
5.7567912389687
30
0
41
1
10
23.3978925330657
20
6.01226115637303
30
0
41
1
10
22.7702523595753
20
6.16509779458562
30
0
41
1
10
22.1402631718014
20
6.29776900582999
30
0
0
SPLINE
5
FD
100
AcDbEntity
8
1
62
256
6
ByLayer
370
13
48
1
60
0
100
AcDbSpline
70
4
71
3
72
10
73
6
40
0
40
0
40
0
40
0
40
0.5
40
0.5
40
1
40
1
40
1
40
1
41
1
10
22.1402631718014
20
6.29776900582999
30
0
41
1
10
22.1340129805411
20
6.29908525134834
30
0
41
1
10
22.1275224159885
20
6.30006661968741
30
0
41
1
10
22.114078282868
20
6.30138838881552
30
0
41
1
10
22.1070812626763
20
6.30172375377131
30
0
41
1
10
22.100081014636
20
6.30170884847243
30
0
0
SPLINE
5
FE
100
AcDbEntity
8
1
62
256
6
ByLayer
370
13
48
1
60
0
100
AcDbSpline
70
4
71
3
72
47
73
43
40
0
40
0
40
0
40
0
40
0.0624999999999998
40
0.125
40
0.125
40
0.15625
40
0.171875
40
0.171875
40
0.1875
40
0.1875
40
0.25
40
0.25
40
0.3125
40
0.3125
40
0.375
40
0.4375
40
0.4375
40
0.46875
40
0.484375
40
0.484375
40
0.5
40
0.5
40
0.5625
40
0.625
40
0.625
40
0.640625
40
0.640625
40
0.65625
40
0.6875
40
0.6875
40
0.75
40
0.75
40
0.765625
40
0.765625
40
0.78125
40
0.78125
40
0.8125
40
0.8125
40
0.875
40
0.9375
40
0.9375
40
1
40
1
40
1
40
1
41
1
10
22.1000810146361
20
6.30170884847243
30
0
41
1
10
22.1000769172194
20
6.21631608057453
30
0
41
1
10
22.1000681182423
20
6.03064668753859
30
0
41
1
10
22.1000584084703
20
5.81583780727826
30
0
41
1
10
22.100050876424
20
5.6437905901285
30
0
41
1
10
22.1000470477335
20
5.55502816664665
30
0
41
1
10
22.1000431400174
20
5.46212038589297
30
0
41
1
10
22.1000405188284
20
5.39925405268755
30
0
41
1
10
22.1000391993799
20
5.36733650657644
30
0
41
1
10
22.1000325782796
20
5.20571840061274
30
0
41
1
10
22.1000272054072
20
5.06992939303794
30
0
41
1
10
22.1000164016486
20
4.78548246632957
30
0
41
1
10
22.1000110201048
20
4.63812030786863
30
0
41
1
10
22.1000003604933
20
4.33344742044656
30
0
41
1
10
22.0999898041225
20
4.01882436591481
30
0
41
1
10
22.0999795318802
20
3.68449865377872
30
0
41
1
10
22.0999719469982
20
3.42627596528195
30
0
41
1
10
22.0999681841389
20
3.2952924566242
30
0
41
1
10
22.0999644657492
20
3.1614596697554
30
0
41
1
10
22.0999619965501
20
3.07159830085035
30
0
41
1
10
22.0999607656437
20
3.02630376037786
30
0
41
1
10
22.0999546532597
20
2.79890062207292
30
0
41
1
10
22.0999451403636
20
2.42899364129681
30
0
41
1
10
22.0999360826929
20
2.04710691932954
30
0
41
1
10
22.0999305270523
20
1.80464431861444
30
0
41
1
10
22.0999294204131
20
1.75592973046011
30
0
41
1
10
22.0999272215142
20
1.65834575384506
30
0
41
1
10
22.099923943881
20
1.51170279247938
30
0
41
1
10
22.0999207224492
20
1.3642631265991
30
0
41
1
10
22.099914337361
20
1.06832726865952
30
0
41
1
10
22.099910158239
20
0.869629974113678
30
0
41
1
10
22.099904966318
20
0.61948919101971
30
0
41
1
10
22.0999039294883
20
0.56937242058217
30
0
41
1
10
22.0999018571251
20
0.468960753081262
30
0
41
1
10
22.0999008222708
20
0.418698637935762
30
0
41
1
10
22.0998977279103
20
0.26818500515779
30
0
41
1
10
22.0998956751612
20
0.168038762746789
30
0
41
1
10
22.0998895236178
20
-0.131820609129449
30
0
41
1
10
22.0998813399997
20
-0.530090279996188
30
0
41
1
10
22.099872929194
20
-0.925318693554999
30
0
41
1
10
22.099864262097
20
-1.31901472166277
30
0
41
1
10
22.0998598005393
20
-1.51509666196614
30
0
41
1
10
22.0998551310755
20
-1.71038905207507
30
0
0
SPLINE
5
FF
100
AcDbEntity
8
1
62
256
6
ByLayer
370
18
48
1
60
0
100
AcDbSpline
70
4
71
3
72
40
73
36
40
0
40
0
40
0
40
0
40
0.102643058572797
40
0.102643058572797
40
0.153964587859196
40
0.153964587859196
40
0.205286117145595
40
0.205286117145595
40
0.307929175718392
40
0.307929175718392
40
0.35925070500479
40
0.35925070500479
40
0.410572234291187
40
0.410572234291187
40
0.461893763577584
40
0.487554528220783
40
0.487554528220783
40
0.513215292863982
40
0.513215292863982
40
0.56453682215038
40
0.56453682215038
40
0.615858351436777
40
0.615858351436777
40
0.667179880723175
40
0.667179880723175
40
0.718501410009572
40
0.718501410009572
40
0.82114446858237
40
0.82114446858237
40
0.872465997868769
40
0.872465997868769
40
0.923787527155168
40
0.923787527155168
40
0.975109056441567
40
1
40
1
40
1
40
1
41
1
10
22.0998551310756
20
-1.71038905207507
30
0
41
1
10
22.7316866665616
20
-2.018000420974
30
0
41
1
10
23.3606622702484
20
-2.31903000690272
30
0
41
1
10
24.3015845665914
20
-2.75770222915458
30
0
41
1
10
24.6148038908388
20
-2.90177732190259
30
0
41
1
10
25.2407585780684
20
-3.18503517989282
30
0
41
1
10
25.5534906764112
20
-3.32422219221323
30
0
41
1
10
26.4912820261171
20
-3.73383654576657
30
0
41
1
10
27.1159683839412
20
-3.99628869356391
30
0
41
1
10
28.053893967829
20
-4.37117692137935
30
0
41
1
10
28.366679101852
20
-4.49301442735214
30
0
41
1
10
28.9929127274039
20
-4.72989224469612
30
0
41
1
10
29.3063656185619
20
-4.84490436446956
30
0
41
1
10
29.9341612841902
20
-5.06762433399052
30
0
41
1
10
30.4056672333978
20
-5.22922977737929
30
0
41
1
10
30.8784845433467
20
-5.38216597236982
30
0
41
1
10
31.1940246062125
20
-5.48213588402308
30
0
41
1
10
31.3520481855272
20
-5.53115310029048
30
0
41
1
10
31.8253257923789
20
-5.6747304055676
30
0
41
1
10
32.1401452421896
20
-5.76593521812714
30
0
41
1
10
32.7687509996707
20
-5.93906968361188
30
0
41
1
10
33.082536717607
20
-6.02099874758801
30
0
41
1
10
33.7092811693838
20
-6.17534031120741
30
0
41
1
10
34.0222405334174
20
-6.24775385974255
30
0
41
1
10
34.6476975184989
20
-6.38284637948124
30
0
41
1
10
34.9602041616524
20
-6.44553435112067
30
0
41
1
10
35.8974129956101
20
-6.61871832233516
30
0
41
1
10
36.5217572826258
20
-6.7142992403125
30
0
41
1
10
37.459267977033
20
-6.82686848686043
30
0
41
1
10
37.7719400562955
20
-6.85925906117589
30
0
41
1
10
38.3979620605027
20
-6.91354445493099
30
0
41
1
10
38.7113221495108
20
-6.93548349751131
30
0
41
1
10
39.338968060703
20
-6.96873814311488
30
0
41
1
10
39.8056678916102
20
-6.9854744138139
30
0
41
1
10
40.2737128687972
20
-6.99027274262343
30
0
41
1
10
40.4267374858072
20
-6.99056554495633
30
0
0
SPLINE
5
100
100
AcDbEntity
8
1
62
256
6
ByLayer
370
18
48
1
60
0
100
AcDbSpline
70
4
71
3
72
8
73
4
40
0
40
0
40
0
40
0
40
1
40
1
40
1
40
1
41
1
10
82.2763793053691
20
-0.456880708552546
30
0
41
1
10
82.2534503897085
20
-0.445112113109275
30
0
41
1
10
82.2305207799529
20
-0.433344338394505
30
0
41
1
10
82.2075904419693
20
-0.421577450492748
30
0
0
SPLINE
5
101
100
AcDbEntity
8
1
62
256
6
ByLayer
370
18
48
1
60
0
100
AcDbSpline
70
4
71
3
72
61
73
57
40
0
40
0
40
0
40
0
40
0.0274450491684174
40
0.0274450491684174
40
0.0484596336689093
40
0.0484596336689093
40
0.0694742181694012
40
0.0694742181694012
40
0.153532556171369
40
0.153532556171369
40
0.195561725172353
40
0.195561725172353
40
0.216576309672845
40
0.216576309672845
40
0.237590894173335
40
0.237590894173335
40
0.3216492321753
40
0.3216492321753
40
0.363678401176282
40
0.363678401176282
40
0.405707570177264
40
0.405707570177264
40
0.447736739178245
40
0.447736739178245
40
0.45824403142849
40
0.45824403142849
40
0.468751323678734
40
0.489765908179225
40
0.489765908179225
40
0.573824246181189
40
0.573824246181189
40
0.615853415182171
40
0.615853415182171
40
0.657882584183154
40
0.657882584183154
40
0.699911753184136
40
0.699911753184136
40
0.741940922185119
40
0.741940922185119
40
0.783970091186101
40
0.783970091186101
40
0.804984675686593
40
0.804984675686593
40
0.825999260187084
40
0.825999260187084
40
0.868028429188068
40
0.868028429188068
40
0.910057598189052
40
0.910057598189052
40
0.952086767190036
40
0.952086767190036
40
0.973101351690527
40
0.973101351690527
40
0.994115936191019
40
0.994115936191019
40
1
40
1
40
1
40
1
41
1
10
81.9493539166588
20
-0.289118991029028
30
0
41
1
10
81.744182801442
20
-0.183928958730235
30
0
41
1
10
81.5389431634611
20
-0.0788297352091263
30
0
41
1
10
81.1763880756569
20
0.106499758824384
30
0
41
1
10
81.0190801907868
20
0.186802672746552
30
0
41
1
10
80.7048290831915
20
0.346950194130244
30
0
41
1
10
80.5478278357716
20
0.42682449547766
30
0
41
1
10
79.7633915177219
20
0.825091488629511
30
0
41
1
10
79.1376701849924
20
1.14017267487074
30
0
41
1
10
78.2012199417685
20
1.60547834200585
30
0
41
1
10
77.8894254185506
20
1.75936285112942
30
0
41
1
10
77.422168189211
20
1.98801915501048
30
0
41
1
10
77.266487819153
20
2.06387618012891
30
0
41
1
10
76.955269867516
20
2.21481290711117
30
0
41
1
10
76.7997392650655
20
2.28989699400171
30
0
41
1
10
76.0219500837967
20
2.66289697795975
30
0
41
1
10
75.3991332411264
20
2.95343843987555
30
0
41
1
10
74.4632633491377
20
3.37517916085667
30
0
41
1
10
74.1510342976056
20
3.51342040402898
30
0
41
1
10
73.5258764615929
20
3.78466764071646
30
0
41
1
10
73.2129570636927
20
3.9176731051586
30
0
41
1
10
72.5859644636478
20
4.17787977565439
30
0
41
1
10
72.2718810739749
20
4.30508059666266
30
0
41
1
10
71.8784291685468
20
4.4600765304549
30
0
41
1
10
71.7996767900205
20
4.49088271931797
30
0
41
1
10
71.6423188208795
20
4.55199572638378
30
0
41
1
10
71.4064225818639
20
4.64294802165131
30
0
41
1
10
71.1708912288663
20
4.73174613851162
30
0
41
1
10
70.3863468939137
20
5.02293185636964
30
0
41
1
10
69.7604283255299
20
5.24052490598316
30
0
41
1
10
68.8236207956113
20
5.54126407456047
30
0
41
1
10
68.5116973367331
20
5.63724505752748
30
0
41
1
10
67.8884731233673
20
5.81994023308349
30
0
41
1
10
67.5771713987004
20
5.90664510344635
30
0
41
1
10
66.9542280640964
20
6.07140486589037
30
0
41
1
10
66.642601569798
20
6.14944893244385
30
0
41
1
10
66.0190028583023
20
6.29626449834839
30
0
41
1
10
65.7070351995162
20
6.3650311016126
30
0
41
1
10
65.0826027547766
20
6.49280660380242
30
0
41
1
10
64.770134732125
20
6.55183500168164
30
0
41
1
10
64.3010219054087
20
6.63221702382242
30
0
41
1
10
64.1445911873212
20
6.65762382649075
30
0
41
1
10
63.8314359895433
20
6.7060153062813
30
0
41
1
10
63.6747020150895
20
6.72902264022548
30
0
41
1
10
63.2039870257021
20
6.79450997023866
30
0
41
1
10
62.8894976419947
20
6.83347152847381
30
0
41
1
10
62.2590224527431
20
6.90111537533807
30
0
41
1
10
61.9440448653993
20
6.92968388510792
30
0
41
1
10
61.3149006764826
20
6.97557397239902
30
0
41
1
10
61.0006935406015
20
6.992913089528
30
0
41
1
10
60.5299401492661
20
7.00963837847684
30
0
41
1
10
60.373129577152
20
7.0136233860211
30
0
41
1
10
60.0594098937148
20
7.01917958669944
30
0
41
1
10
59.902483029539
20
7.02079708121474
30
0
41
1
10
59.7015427604571
20
7.0213243463385
30
0
41
1
10
59.6575830004305
20
7.02134465308359
30
0
41
1
10
59.6136189616691
20
7.02126891551762
30
0
0
SPLINE
5
102
100
AcDbEntity
8
1
62
256
6
ByLayer
370
18
48
1
60
0
100
AcDbSpline
70
4
71
3
72
45
73
41
40
0
40
0
40
0
40
0
40
0.004119313289244
40
0.004119313289244
40
0.0493866172306393
40
0.0493866172306393
40
0.0946539211720346
40
0.0946539211720346
40
0.13992122511343
40
0.13992122511343
40
0.185188529054825
40
0.185188529054825
40
0.275723136937617
40
0.275723136937617
40
0.36625774482041
40
0.36625774482041
40
0.456792352703202
40
0.4794260046739
40
0.490742830659249
40
0.490742830659249
40
0.502059656644599
40
0.502059656644599
40
0.547326960585995
40
0.547326960585995
40
0.63786156846879
40
0.63786156846879
40
0.728396176351583
40
0.728396176351583
40
0.751029828322283
40
0.751029828322283
40
0.773663480292982
40
0.773663480292982
40
0.818930784234384
40
0.818930784234384
40
0.909465392117187
40
0.932099044087889
40
0.932099044087889
40
0.954732696058592
40
0.954732696058592
40
1
40
1
40
1
40
1
41
1
10
61.5614588105094
20
0.327146264012839
30
0
41
1
10
61.5900955596541
20
0.312644019039595
30
0
41
1
10
61.6187342018195
20
0.298138245746998
30
0
41
1
10
61.962108044342
20
0.12418797426281
30
0
41
1
10
62.2770836135847
20
-0.0356519220336793
30
0
41
1
10
62.907831476103
20
-0.355501355738454
30
0
41
1
10
63.2224830673146
20
-0.51494107105691
30
0
41
1
10
63.8506453914633
20
-0.832228513842836
30
0
41
1
10
64.1641559801035
20
-0.990071514250332
30
0
41
1
10
64.7902842144289
20
-1.3037146838108
30
0
41
1
10
65.1029039385239
20
-1.45951320898553
30
0
41
1
10
66.0399000771558
20
-1.92286783506719
30
0
41
1
10
66.6634209748958
20
-2.22640656134919
30
0
41
1
10
67.9105301809765
20
-2.8183444843113
30
0
41
1
10
68.534078323955
20
-3.10680672856213
30
0
41
1
10
69.7834191158331
20
-3.66449223101597
30
0
41
1
10
70.5656912807655
20
-4.00095267921873
30
0
41
1
10
71.4302172668736
20
-4.35058354958227
30
0
41
1
10
71.6663640566574
20
-4.44419915578692
30
0
41
1
10
71.8238810571327
20
-4.50621595478017
30
0
41
1
10
71.9027111957587
20
-4.53703871316034
30
0
41
1
10
72.2965815353026
20
-4.68995383686101
30
0
41
1
10
72.6109595157945
20
-4.80852045679643
30
0
41
1
10
73.5524154803035
20
-5.15233247128782
30
0
41
1
10
74.1777894387989
20
-5.36575128516881
30
0
41
1
10
75.4263494456065
20
-5.75823728498222
30
0
41
1
10
76.0495485782819
20
-5.93727484985283
30
0
41
1
10
76.82856983878
20
-6.13783087906307
30
0
41
1
10
76.9843784217326
20
-6.17678675633331
30
0
41
1
10
77.2960695308778
20
-6.25241961522494
30
0
41
1
10
77.4519474263672
20
-6.28908942646714
30
0
41
1
10
77.919667220681
20
-6.39552990210964
30
0
41
1
10
78.2316064167804
20
-6.46174407000521
30
0
41
1
10
79.1683566552667
20
-6.6457393231766
30
0
41
1
10
79.9505263601016
20
-6.77466771856598
30
0
41
1
10
80.7364061076482
20
-6.87113802975065
30
0
41
1
10
81.0510915624594
20
-6.90709206367612
30
0
41
1
10
81.2086680317454
20
-6.92375855775271
30
0
41
1
10
81.6812419495586
20
-6.96968868676632
30
0
41
1
10
81.9961899887169
20
-6.9949007141453
30
0
41
1
10
82.3111776379732
20
-7.01463833311638
30
0
0
SPLINE
5
103
100
AcDbEntity
8
1
62
256
6
ByLayer
370
18
48
1
60
0
100
AcDbSpline
70
4
71
3
72
45
73
41
40
0
40
0
40
0
40
0
40
0.0624999999999996
40
0.0624999999999996
40
0.124999999999999
40
0.187499999999999
40
0.187499999999999
40
0.218749999999999
40
0.234374999999999
40
0.234374999999999
40
0.249999999999999
40
0.249999999999999
40
0.312499999999998
40
0.312499999999998
40
0.374999999999998
40
0.437499999999997
40
0.437499999999997
40
0.468749999999997
40
0.468749999999997
40
0.484374999999997
40
0.484374999999997
40
0.499999999999997
40
0.562499999999997
40
0.624999999999998
40
0.687499999999998
40
0.687499999999998
40
0.718749999999998
40
0.718749999999998
40
0.749999999999998
40
0.749999999999998
40
0.812499999999998
40
0.874999999999999
40
0.874999999999999
40
0.937499999999999
40
0.937499999999999
40
0.953125
40
0.953125
40
0.96875
40
0.96875
40
1
40
1
40
1
40
1
41
1
10
82.2763793053692
20
-0.456880708552575
30
0
41
1
10
82.2514801710064
20
-0.661080221281509
30
0
41
1
10
82.2297576781408
20
-0.86348608332375
30
0
41
1
10
82.1915610080024
20
-1.26472449772845
30
0
41
1
10
82.1586146293715
20
-1.66238927989869
30
0
41
1
10
82.1343385048929
20
-2.05279566542109
30
0
41
1
10
82.1188120392198
20
-2.3427828189954
30
0
41
1
10
82.1117206720992
20
-2.48707112569195
30
0
41
1
10
82.1055449711856
20
-2.63027517247397
30
0
41
1
10
82.1016220849734
20
-2.7255000242744
30
0
41
1
10
82.099759648308
20
-2.77294899333606
30
0
41
1
10
82.0909496316515
20
-3.00842667330866
30
0
41
1
10
82.0854626878886
20
-3.19203444254075
30
0
41
1
10
82.0769176124805
20
-3.54994439841209
30
0
41
1
10
82.0708031974931
20
-3.89854749058051
30
0
41
1
10
82.0686008058748
20
-4.22860465624387
30
0
41
1
10
82.0682076382267
20
-4.46906307821394
30
0
41
1
10
82.0682878593839
20
-4.5480335159354
30
0
41
1
10
82.068712893828
20
-4.66468383883478
30
0
41
1
10
82.0689057820577
20
-4.70330412353087
30
0
41
1
10
82.0693899513207
20
-4.77959119162625
30
0
41
1
10
82.0708484831802
20
-4.96808851261122
30
0
41
1
10
82.0756171362556
20
-5.28765809372021
30
0
41
1
10
82.0865304936729
20
-5.67267612667968
30
0
41
1
10
82.0972373619001
20
-5.90201595505127
30
0
41
1
10
82.1068600851455
20
-6.06355211555507
30
0
41
1
10
82.1103351443217
20
-6.11565518353817
30
0
41
1
10
82.1178909216566
20
-6.21627948021316
30
0
41
1
10
82.1219441610121
20
-6.26443282425746
30
0
41
1
10
82.1350193958069
20
-6.40254283315855
30
0
41
1
10
82.1548849990523
20
-6.56978020073038
30
0
41
1
10
82.1808040420978
20
-6.7039427983776
30
0
41
1
10
82.2105123123989
20
-6.8215769539286
30
0
41
1
10
82.2272598873279
20
-6.87213031234018
30
0
41
1
10
82.2511579965469
20
-6.92477326168847
30
0
41
1
10
82.2560863239024
20
-6.93477350421745
30
0
41
1
10
82.2662575123621
20
-6.95370808293717
30
0
41
1
10
82.2715035811684
20
-6.96264649134031
30
0
41
1
10
82.2876935733078
20
-6.98777889308275
30
0
41
1
10
82.2990999680936
20
-7.00231489775513
30
0
41
1
10
82.311177637973
20
-7.01463833311638
30
0
0
SPLINE
5
104
100
AcDbEntity
8
1
62
256
6
ByLayer
370
18
48
1
60
0
100
AcDbSpline
70
4
71
3
72
123
73
119
40
0
40
0
40
0
40
0
40
0.0625000000000402
40
0.0625000000000402
40
0.12500000000008
40
0.12500000000008
40
0.140625000000091
40
0.140625000000091
40
0.156250000000101
40
0.187500000000121
40
0.187500000000121
40
0.250000000000161
40
0.250000000000161
40
0.281250000000181
40
0.281250000000181
40
0.296875000000192
40
0.296875000000192
40
0.304687500000197
40
0.304687500000197
40
0.306640625000198
40
0.307617187500198
40
0.307617187500198
40
0.308593750000199
40
0.308593750000199
40
0.3095703125002
40
0.3095703125002
40
0.3105468750002
40
0.3105468750002
40
0.311523437500201
40
0.311523437500201
40
0.312500000000202
40
0.312500000000202
40
0.312988281250201
40
0.312988281250201
40
0.313476562500201
40
0.313476562500201
40
0.314453125000201
40
0.314453125000201
40
0.3164062500002
40
0.320312500000199
40
0.320312500000199
40
0.328125000000196
40
0.328125000000196
40
0.343750000000192
40
0.343750000000192
40
0.359375000000188
40
0.359375000000188
40
0.375000000000184
40
0.375000000000184
40
0.406250000000175
40
0.406250000000175
40
0.437500000000166
40
0.437500000000166
40
0.453125000000162
40
0.453125000000162
40
0.468750000000157
40
0.468750000000157
40
0.500000000000149
40
0.500000000000149
40
0.515625000000144
40
0.515625000000144
40
0.523437500000142
40
0.523437500000142
40
0.527343750000141
40
0.527343750000141
40
0.53125000000014
40
0.53125000000014
40
0.562500000000132
40
0.562500000000132
40
0.578125000000127
40
0.578125000000127
40
0.585937500000125
40
0.585937500000125
40
0.593750000000123
40
0.593750000000123
40
0.625000000000114
40
0.625000000000114
40
0.628906250000113
40
0.628906250000113
40
0.632812500000112
40
0.632812500000112
40
0.64062500000011
40
0.64062500000011
40
0.656250000000106
40
0.656250000000106
40
0.671875000000102
40
0.671875000000102
40
0.6796875000001
40
0.6796875000001
40
0.687500000000098
40
0.687500000000098
40
0.703125000000093
40
0.703125000000093
40
0.718750000000089
40
0.718750000000089
40
0.75000000000008
40
0.75000000000008
40
0.765625000000076
40
0.765625000000076
40
0.773437500000074
40
0.773437500000074
40
0.781250000000072
40
0.781250000000072
40
0.812500000000062
40
0.812500000000062
40
0.843750000000051
40
0.843750000000051
40
0.875000000000041
40
0.875000000000041
40
0.906250000000031
40
0.906250000000031
40
0.937500000000021
40
0.937500000000021
40
0.953125000000016
40
0.953125000000016
40
0.96875000000001
40
0.96875000000001
40
1
40
1
40
1
40
1
41
1
10
11.9641560128172
20
2.4121004884725
30
0
41
1
10
11.5582518535503
20
2.61167638059246
30
0
41
1
10
11.1495249022797
20
2.80165652001079
30
0
41
1
10
10.324314823908
20
3.15987291971769
30
0
41
1
10
9.90783744065268
20
3.32812383546471
30
0
41
1
10
9.38125458756369
20
3.52378753876846
30
0
41
1
10
9.27561544725813
20
3.56219770227176
30
0
41
1
10
9.06392457812564
20
3.63746406078977
30
0
41
1
10
8.74571419678341
20
3.74805507617529
30
0
41
1
10
8.4253983024231
20
3.85169590052243
30
0
41
1
10
7.78176273852139
20
4.04970868590996
30
0
41
1
10
7.34865465642625
20
4.16933334826604
30
0
41
1
10
6.69234764284775
20
4.33054849172726
30
0
41
1
10
6.47239886888678
20
4.38126290537707
30
0
41
1
10
6.14122907834903
20
4.45275829576104
30
0
41
1
10
6.03061769146399
20
4.4758309541125
30
0
41
1
10
5.86436339234058
20
4.50931478542194
30
0
41
1
10
5.80888867880958
20
4.52028860355577
30
0
41
1
10
5.73948118805981
20
4.53377150258896
30
0
41
1
10
5.71865388297894
20
4.53779883056333
30
0
41
1
10
5.69781993775803
20
4.54179999102448
30
0
41
1
10
5.6839291894438
20
4.54446128426483
30
0
41
1
10
5.67699192863231
20
4.54582044736529
30
0
41
1
10
5.66307789640891
20
4.54839719331949
30
0
41
1
10
5.65607455862866
20
4.54952010623
30
0
41
1
10
5.64188006111368
20
4.55109661881602
30
0
41
1
10
5.63467179514331
20
4.55159013784163
30
0
41
1
10
5.62035101647854
20
4.55188375318562
30
0
41
1
10
5.61321241642406
20
4.55167731694524
30
0
41
1
10
5.59898316941633
20
4.5504868342814
30
0
41
1
10
5.59184122708842
20
4.54950304255985
30
0
41
1
10
5.58142307557333
20
4.54730607230056
30
0
41
1
10
5.57799900764803
20
4.54644746894431
30
0
41
1
10
5.57123788037794
20
4.54450412887851
30
0
41
1
10
5.56792480114234
20
4.54336655544827
30
0
41
1
10
5.55820345541238
20
4.53965114660696
30
0
41
1
10
5.55214693085316
20
4.53654405791673
30
0
41
1
10
5.53391247789466
20
4.52740282042552
30
0
41
1
10
5.4974724338355
20
4.50906135253084
30
0
41
1
10
5.46112118123037
20
4.49054195539009
30
0
41
1
10
5.38854013358025
20
4.45326182291012
30
0
41
1
10
5.34031090857778
20
4.42808465242172
30
0
41
1
10
5.19616136411472
20
4.35156776897944
30
0
41
1
10
5.10077295113592
20
4.29924110597116
30
0
41
1
10
4.91152427492494
20
4.19173461501404
30
0
41
1
10
4.81761801962426
20
4.13652674886336
30
0
41
1
10
4.63166147430326
20
4.0231227106263
30
0
41
1
10
4.53974367776709
20
3.96500934061561
30
0
41
1
10
4.26740751794969
20
3.78608774147523
30
0
41
1
10
4.09038820187894
20
3.6607244526507
30
0
41
1
10
3.74704925826163
20
3.39545272378533
30
0
41
1
10
3.58071580279457
20
3.25556427126628
30
0
41
1
10
3.34101442838406
20
3.03223699810681
30
0
41
1
10
3.26275417255559
20
2.95553530722421
30
0
41
1
10
3.10993095335695
20
2.79700802621144
30
0
41
1
10
3.03535792839281
20
2.71517448944445
30
0
41
1
10
2.81803942483762
20
2.46088575828239
30
0
41
1
10
2.68433094431777
20
2.28284227956894
30
0
41
1
10
2.50428604154223
20
2.00000050784268
30
0
41
1
10
2.44770661201977
20
1.90307803348259
30
0
41
1
10
2.36866542376058
20
1.75319643624664
30
0
41
1
10
2.34329143826034
20
1.70248488519641
30
0
41
1
10
2.30679338747555
20
1.62520929273921
30
0
41
1
10
2.29488566936036
20
1.59924135101321
30
0
41
1
10
2.27173386957938
20
1.54717495682732
30
0
41
1
10
2.26047321203123
20
1.52104224375788
30
0
41
1
10
2.16199955107001
20
1.28494044300069
30
0
41
1
10
2.09479411944039
20
1.06865046226855
30
0
41
1
10
2.02841306481531
20
0.733285532059114
30
0
41
1
10
2.01204150554025
20
0.619670017022173
30
0
41
1
10
1.99682166787926
20
0.446277087336711
30
0
41
1
10
1.99331024509277
20
0.387803787901447
30
0
41
1
10
1.98956392696238
20
0.271566200344779
30
0
41
1
10
1.9893044325984
20
0.213633999309962
30
0
41
1
10
1.99588212662948
20
-0.0751162276619652
30
0
41
1
10
2.0262577074684
20
-0.303211851550884
30
0
41
1
10
2.08674512309139
20
-0.55677504947738
30
0
41
1
10
2.09383279377039
20
-0.584906299785047
30
0
41
1
10
2.10873734194351
20
-0.641084443326918
30
0
41
1
10
2.11656141503624
20
-0.669151999271122
30
0
41
1
10
2.14096395820525
20
-0.752713626220498
30
0
41
1
10
2.15851356865977
20
-0.807733349500751
30
0
41
1
10
2.21476692052619
20
-0.970857198044001
30
0
41
1
10
2.25706704194687
20
-1.07703033898142
30
0
41
1
10
2.35022069606845
20
-1.28478679643712
30
0
41
1
10
2.40107682009585
20
-1.38636873323577
30
0
41
1
10
2.48317219593486
20
-1.53562625503739
30
0
41
1
10
2.51150741771752
20
-1.58485869789925
30
0
41
1
10
2.57003323711072
20
-1.68232951821776
30
0
41
1
10
2.60024413172778
20
-1.73059891709346
30
0
41
1
10
2.69341879594862
20
-1.87378236338489
30
0
41
1
10
2.75834161487188
20
-1.96620668734425
30
0
41
1
10
2.89305977169175
20
-2.14580362540801
30
0
41
1
10
2.96285727834643
20
-2.23297389114373
30
0
41
1
10
3.17871587665206
20
-2.48753317319176
30
0
41
1
10
3.33120350416732
20
-2.64801362690142
30
0
41
1
10
3.570415079859
20
-2.87753810763337
30
0
41
1
10
3.65191038209087
20
-2.95216783195588
30
0
41
1
10
3.77657274474018
20
-3.06153671747217
30
0
41
1
10
3.81853055460547
20
-3.09756323572296
30
0
41
1
10
3.90322212788919
20
-3.1687917533485
30
0
41
1
10
3.94592921075733
20
-3.20396981008526
30
0
41
1
10
4.16049621349288
20
-3.37722711145756
30
0
41
1
10
4.3360616108256
20
-3.5079901315564
30
0
41
1
10
4.69365785264128
20
-3.7567213178076
30
0
41
1
10
4.87569611498736
20
-3.87467404565925
30
0
41
1
10
5.2453194452246
20
-4.09975860964462
30
0
41
1
10
5.43290844992472
20
-4.20688224182959
30
0
41
1
10
5.81296717666919
20
-4.41175500062664
30
0
41
1
10
6.0054391622586
20
-4.5094994044961
30
0
41
1
10
6.39476310319904
20
-4.69671438889785
30
0
41
1
10
6.59161644367333
20
-4.78618207629401
30
0
41
1
10
6.88989078386371
20
-4.91482608939248
30
0
41
1
10
6.98985947786849
20
-4.95679721010612
30
0
41
1
10
7.19046801205255
20
-5.03885963381012
30
0
41
1
10
7.29111812917034
20
-5.07895652787366
30
0
41
1
10
7.59406219247882
20
-5.19659630858646
30
0
41
1
10
7.79734854033202
20
-5.2714925073293
30
0
41
1
10
8.00185998147242
20
-5.34320486311719
30
0
0
SPLINE
5
105
100
AcDbEntity
8
1
62
256
6
ByLayer
370
18
48
1
60
0
100
AcDbSpline
70
4
71
3
72
77
73
73
40
0
40
0
40
0
40
0
40
0.0047216476780657
40
0.0047216476780657
40
0.0229031239835115
40
0.0229031239835115
40
0.0410846002889572
40
0.0410846002889572
40
0.059266076594403
40
0.059266076594403
40
0.0774475528998487
40
0.0774475528998487
40
0.0956290292052945
40
0.0956290292052945
40
0.0979017137434751
40
0.0981857993107478
40
0.0983278420943841
40
0.0983278420943841
40
0.0984698848780203
40
0.0984698848780203
40
0.0986119276616567
40
0.0986119276616567
40
0.098753970445293
40
0.098753970445293
40
0.0990380560125655
40
0.0990380560125655
40
0.100174398281656
40
0.100174398281656
40
0.104719767358017
40
0.104719767358017
40
0.11381050551074
40
0.11381050551074
40
0.150173458121633
40
0.150173458121633
40
0.222899363343417
40
0.222899363343417
40
0.368351173786986
40
0.368351173786986
40
0.44107707900877
40
0.44107707900877
40
0.477440031619662
40
0.477440031619662
40
0.495621507925108
40
0.495621507925108
40
0.513802984230554
40
0.513802984230554
40
0.518348353306916
40
0.518348353306916
40
0.519484695576006
40
0.519484695576006
40
0.519768781143279
40
0.519768781143279
40
0.519839802535097
40
0.519839802535097
40
0.519910823926915
40
0.519910823926915
40
0.520052866710551
40
0.520052866710551
40
0.520621037845098
40
0.522893722383282
40
0.531984460536017
40
0.550165936841488
40
0.550165936841488
40
0.586528889452431
40
0.586528889452431
40
0.659254794674315
40
0.659254794674315
40
0.731980699896199
40
0.731980699896199
40
0.804706605118084
40
0.804706605118084
40
1
40
1
40
1
40
1
41
1
10
11.7390722047627
20
2.47332988115733
30
0
41
1
10
11.7252120330847
20
2.47510348454992
30
0
41
1
10
11.7112177316742
20
2.476565141252
30
0
41
1
10
11.6427423877226
20
2.48211693613663
30
0
41
1
10
11.5865038012787
20
2.4818353376962
30
0
41
1
10
11.47103950972
20
2.47135040530279
30
0
41
1
10
11.4112958366698
20
2.46139314573188
30
0
41
1
10
11.2849923548737
20
2.43322864639825
30
0
41
1
10
11.2189490164195
20
2.41470800038289
30
0
41
1
10
11.0835193960298
20
2.36866613352814
30
0
41
1
10
11.0138275284232
20
2.34118858358229
30
0
41
1
10
10.8704934500426
20
2.27737289725346
30
0
41
1
10
10.7969892079976
20
2.24096707372857
30
0
41
1
10
10.7126692613074
20
2.19467666355609
30
0
41
1
10
10.7021025998619
20
2.18880632830394
30
0
41
1
10
10.6909232460184
20
2.18251226140484
30
0
41
1
10
10.6891574258769
20
2.18151589945265
30
0
41
1
10
10.6879800654839
20
2.18085108807739
30
0
41
1
10
10.6869284338197
20
2.18067071734774
30
0
41
1
10
10.6871968688017
20
2.17949040943805
30
0
41
1
10
10.6883163846
20
2.1787911031615
30
0
41
1
10
10.6901710138717
20
2.17754160683685
30
0
41
1
10
10.6911645426879
20
2.1769275741801
30
0
41
1
10
10.6941800166546
20
2.17510899583209
30
0
41
1
10
10.6962595511421
20
2.17392082732548
30
0
41
1
10
10.7067520682228
20
2.16801285944112
30
0
41
1
10
10.7154316756852
20
2.1633946581934
30
0
41
1
10
10.7588449192
20
2.14035105505192
30
0
41
1
10
10.7941305230023
20
2.12215316959683
30
0
41
1
10
10.8999323372398
20
2.06749801666899
30
0
41
1
10
10.9707791999413
20
2.03113518710919
30
0
41
1
10
11.3252970475763
20
1.84907130221154
30
0
41
1
10
11.6100005977042
20
1.70268532456453
30
0
41
1
10
12.4643016037778
20
1.2597391143849
30
0
41
1
10
13.0344019566528
20
0.959872465457153
30
0
41
1
10
14.7435762275194
20
0.0438911632049042
30
0
41
1
10
15.8825167915236
20
-0.588564568507252
30
0
41
1
10
17.5866008498826
20
-1.56709810761132
30
0
41
1
10
18.1540547479883
20
-1.89823779960574
30
0
41
1
10
19.0041483681473
20
-2.40273262630572
30
0
41
1
10
19.2872580898172
20
-2.57217491208971
30
0
41
1
10
19.7110618572778
20
-2.82887313342275
30
0
41
1
10
19.8521951912631
20
-2.91485708302918
30
0
41
1
10
20.133963165468
20
-3.0880626153153
30
0
41
1
10
20.2747997227841
20
-3.17493062071355
30
0
41
1
10
20.449358769355
20
-3.28634665172942
30
0
41
1
10
20.4842972036034
20
-3.30859462202076
30
0
41
1
10
20.5271368546726
20
-3.33787817594416
30
0
41
1
10
20.5357624009135
20
-3.34370118731223
30
0
41
1
10
20.545853185625
20
-3.35193044192715
30
0
41
1
10
20.5479556535892
20
-3.35352875317972
30
0
41
1
10
20.5498853884573
20
-3.35620289784129
30
0
41
1
10
20.5503533036109
20
-3.35689462493212
30
0
41
1
10
20.5497783531602
20
-3.35808191534178
30
0
41
1
10
20.5490003271859
20
-3.35817667636269
30
0
41
1
10
20.547102731708
20
-3.35853881534422
30
0
41
1
10
20.5458324245062
20
-3.35875193912139
30
0
41
1
10
20.5394933237245
20
-3.35988434346507
30
0
41
1
10
20.5141374897912
20
-3.36441338824704
30
0
41
1
10
20.4076549754295
20
-3.3834233359014
30
0
41
1
10
20.14410168719
20
-3.43037612638725
30
0
41
1
10
19.9010936519637
20
-3.47344710045931
30
0
41
1
10
19.4154378057306
20
-3.55922022768007
30
0
41
1
10
19.0921525926871
20
-3.61590960898741
30
0
41
1
10
18.1239613164544
20
-3.78439028488234
30
0
41
1
10
17.4806376523394
20
-3.89460884049754
30
0
41
1
10
16.1981379043588
20
-4.11047269890065
30
0
41
1
10
15.5589508188411
20
-4.21612182969156
30
0
41
1
10
14.2868138252211
20
-4.42210322044534
30
0
41
1
10
13.6535780132194
20
-4.52246394950598
30
0
41
1
10
11.3300241119131
20
-4.88208620709227
30
0
41
1
10
9.65673349396039
20
-5.12394805932414
30
0
41
1
10
8.00185555513153
20
-5.34320475515926
30
0
0
SPLINE
5
106
100
AcDbEntity
8
SK1
62
256
6
ByLayer
370
18
48
1
60
0
100
AcDbSpline
70
4
71
3
72
8
73
4
40
0
40
0
40
0
40
0
40
1
40
1
40
1
40
1
41
1
10
-46.5
20
-3.40818010261486
30
0
41
1
10
-47.0011286643684
20
-3.08688731403501
30
0
41
1
10
-47.5014407767236
20
-2.76509116679909
30
0
41
1
10
-48
20
-2.44221446146426
30
0
0
SPLINE
5
107
100
AcDbEntity
8
SK1
62
256
6
ByLayer
370
18
48
1
60
0
100
AcDbSpline
70
4
71
3
72
20
73
16
40
0
40
0
40
0
40
0
40
0.0625000000000036
40
0.0625000000000036
40
0.125000000000007
40
0.125000000000007
40
0.250000000000005
40
0.250000000000005
40
0.375000000000002
40
0.375000000000002
40
0.5
40
0.5
40
0.75
40
0.75
40
1
40
1
40
1
40
1
41
1
10
-46.4
20
-3.5606018170842
30
0
41
1
10
-46.4
20
-3.55696863555966
30
0
41
1
10
-46.400255320285
20
-3.55323142601358
30
0
41
1
10
-46.401238720026
20
-3.54556426674921
30
0
41
1
10
-46.4019736794312
20
-3.54162096706455
30
0
41
1
10
-46.4047525178022
20
-3.52990192475002
30
0
41
1
10
-46.407386820202
20
-3.52207121746582
30
0
41
1
10
-46.4138324199078
20
-3.50659742715109
30
0
41
1
10
-46.4175513092506
20
-3.49916111203211
30
0
41
1
10
-46.4257576562687
20
-3.48475392559078
30
0
41
1
10
-46.4302902765822
20
-3.47773225590149
30
0
41
1
10
-46.444519757331
20
-3.45784131991314
30
0
41
1
10
-46.454862846528
20
-3.4459956646626
30
0
41
1
10
-46.4769795344452
20
-3.42469826962901
30
0
41
1
10
-46.4883400853171
20
-3.41565572069345
30
0
41
1
10
-46.5
20
-3.40818010261484
30
0
0
SPLINE
5
108
100
AcDbEntity
8
SK1
62
256
6
ByLayer
370
18
48
1
60
0
100
AcDbSpline
70
4
71
3
72
20
73
16
40
0
40
0
40
0
40
0
40
0.250000000000005
40
0.250000000000005
40
0.375000000000004
40
0.375000000000004
40
0.500000000000003
40
0.500000000000003
40
0.625000000000003
40
0.625000000000003
40
0.750000000000002
40
0.750000000000002
40
0.875000000000001
40
0.875000000000001
40
1
40
1
40
1
40
1
41
1
10
-46.5
20
-5.34767765357947
30
0
41
1
10
-46.4883382808638
20
-5.35515442856226
30
0
41
1
10
-46.4769899849393
20
-5.36112029349079
30
0
41
1
10
-46.4604389640724
20
-5.36775396027522
30
0
41
1
10
-46.4550533753258
20
-5.36954529984419
30
0
41
1
10
-46.4447632897779
20
-5.37218323676078
30
0
41
1
10
-46.4398264111653
20
-5.37304418102542
30
0
41
1
10
-46.4304188308979
20
-5.37373344971758
30
0
41
1
10
-46.4259311640916
20
-5.37356283959855
30
0
41
1
10
-46.4176087338257
20
-5.37192120910049
30
0
41
1
10
-46.4138727961238
20
-5.37047487688014
30
0
41
1
10
-46.4074449634846
20
-5.36604091229631
30
0
41
1
10
-46.4047607228177
20
-5.3630196433671
30
0
41
1
10
-46.40105390221
20
-5.35530625387534
30
0
41
1
10
-46.4
20
-5.35049210749173
30
0
41
1
10
-46.4
20
-5.34493956397165
30
0
0
SPLINE
5
109
100
AcDbEntity
8
SK1
62
256
6
ByLayer
370
18
48
1
60
0
100
AcDbSpline
70
4
71
3
72
8
73
4
40
0
40
0
40
0
40
0
40
1
40
1
40
1
40
1
41
1
10
-48
20
-4.38171201242889
30
0
41
1
10
-47.5014345713053
20
-4.70459273651403
30
0
41
1
10
-47.0011237782718
20
-5.02638799766336
30
0
41
1
10
-46.5
20
-5.34767765357947
30
0
0
SPLINE
5
10A
100
AcDbEntity
8
1
62
256
6
ByLayer
370
18
48
1
60
0
100
AcDbSpline
70
4
71
3
72
20
73
16
40
0
40
0
40
0
40
0
40
0.0798206903918857
40
0.168609596672077
40
0.244847694896342
40
0.33824678358566
40
0.443444918812891
40
0.555074988775777
40
0.616143741121887
40
0.664907220315229
40
0.701883467533745
40
0.749807119547255
40
0.820125742750688
40
0.912851251685127
40
1
40
1
40
1
40
1
41
1
10
81.9284477238808
20
1.65208553981213
30
0
41
1
10
81.7281962290699
20
1.71366920963089
30
0
41
1
10
81.3058359298433
20
1.84569185602581
30
0
41
1
10
80.6946038048106
20
2.04386121645069
30
0
41
1
10
80.0512484583689
20
2.25814960943009
30
0
41
1
10
79.369123388521
20
2.49206938468436
30
0
41
1
10
78.6018845804755
20
2.76386513498451
30
0
41
1
10
77.9173259512899
20
3.0148896331647
30
0
41
1
10
77.3735663524551
20
3.21967517535955
30
0
41
1
10
77.0138790624773
20
3.3574094511585
30
0
41
1
10
76.6869348367285
20
3.48422220273724
30
0
41
1
10
76.3080382812801
20
3.63302892249112
30
0
41
1
10
75.7943771561112
20
3.83833974992274
30
0
41
1
10
75.1871504212015
20
4.08638808108813
30
0
41
1
10
74.7526278927494
20
4.26939235292176
30
0
41
1
10
74.5425410697763
20
4.35907026862813
30
0
0
SPLINE
5
10B
100
AcDbEntity
8
1
62
256
6
ByLayer
370
18
48
1
60
0
100
AcDbSpline
70
4
71
3
72
42
73
38
40
0
40
0
40
0
40
0
40
7.6618139791E-06
40
2.1774024102E-05
40
3.53934411384E-05
40
5.90836034455E-05
40
8.10266208828E-05
40
0.0002008623150405
40
0.0002931180187492
40
0.00046034617768
40
0.0007669475326051
40
0.0013397843114939
40
0.0024435669562609
40
0.0046727833199585
40
0.0226438021867356
40
0.0469736069039825
40
0.0705598848343271
40
0.108830444383355
40
0.143203887709996
40
0.174776650799144
40
0.212566464301805
40
0.258202270318259
40
0.304709899364966
40
0.342088929873554
40
0.3813152674051
40
0.430933931665364
40
0.484028262079405
40
0.528646165392772
40
0.564653073586775
40
0.624457855363003
40
0.693335724723793
40
0.764233050178588
40
0.798193047494742
40
0.840085660917803
40
0.893737468833358
40
0.959157235041577
40
1
40
1
40
1
40
1
41
1
10
42.6622601839993
20
0.461452557491469
30
0
41
1
10
42.6622684731914
20
0.461450756558946
30
0
41
1
10
42.6622883606974
20
0.461446539472519
30
0
41
1
10
42.6623009299445
20
0.461444527912818
30
0
41
1
10
42.6622718892374
20
0.46145311430476
30
0
41
1
10
42.6621757816917
20
0.46147814511761
30
0
41
1
10
42.661672425061
20
0.46160381817586
30
0
41
1
10
42.6606981873105
20
0.461841499642731
30
0
41
1
10
42.6592643093197
20
0.462193098875133
30
0
41
1
10
42.6570723057207
20
0.462729967060198
30
0
41
1
10
42.6530506770843
20
0.463715641341338
30
0
41
1
10
42.6453955966699
20
0.465592150955615
30
0
41
1
10
42.6302986196922
20
0.469295537870465
30
0
41
1
10
42.5476304240619
20
0.489600115528418
30
0
41
1
10
42.3732540578559
20
0.532756793132137
30
0
41
1
10
42.1151245296528
20
0.597606785572452
30
0
41
1
10
41.7782106265649
20
0.683653422794038
30
0
41
1
10
41.4030909002737
20
0.781487841934535
30
0
41
1
10
40.9976687078964
20
0.889803606500351
30
0
41
1
10
40.5948921823941
20
0.999740022331252
30
0
41
1
10
40.1493562600621
20
1.12405663226912
30
0
41
1
10
39.6471765130985
20
1.26785225508311
30
0
41
1
10
39.1478094203575
20
1.41487633990005
30
0
41
1
10
38.6737608970276
20
1.55793923860318
30
0
41
1
10
38.18825162354
20
1.70772998794675
30
0
41
1
10
37.643667750121
20
1.88000235026632
30
0
41
1
10
37.0798780418254
20
2.06344880784317
30
0
41
1
10
36.5693970502903
20
2.23393466501034
30
0
41
1
10
36.0341199355959
20
2.41649860449476
30
0
41
1
10
35.4078604297587
20
2.63537814950703
30
0
41
1
10
34.6519044882336
20
2.90814583991937
30
0
41
1
10
33.9960316741956
20
3.15287445015292
30
0
41
1
10
33.4434600367997
20
3.36418229149851
30
0
41
1
10
32.9569092446783
20
3.55346451623106
30
0
41
1
10
32.3540390120364
20
3.79331930147274
30
0
41
1
10
31.7569700881957
20
4.03622740962052
30
0
41
1
10
31.3622455321694
20
4.20241102919056
30
0
41
1
10
31.2107779467789
20
4.26687538550627
30
0
0
SPLINE
5
10C
100
AcDbEntity
8
1
62
256
6
ByLayer
370
18
48
1
60
0
100
AcDbSpline
70
4
71
2
72
6
73
3
40
0
40
0
40
0
40
1
40
1
40
1
41
1
10
62.1859254280574
20
-0.0005965522683482
30
0
41
1
10
62.1858898720891
20
-0.0005788204148303
30
0
41
1
10
62.1858543160399
20
-0.0005603840035917
30
0
0
SPLINE
5
10D
100
AcDbEntity
8
1
62
256
6
ByLayer
370
18
48
1
60
0
100
AcDbSpline
70
4
71
3
72
34
73
30
40
0
40
0
40
0
40
0
40
0.0433630498928921
40
0.0774733441508983
40
0.102913950483331
40
0.124548326416219
40
0.145774256791368
40
0.166641011268626
40
0.187202372921874
40
0.211683432540978
40
0.241554637473602
40
0.276865691329475
40
0.314618366469739
40
0.345783598052568
40
0.379374019363662
40
0.41880553624669
40
0.463457601524891
40
0.511136531708721
40
0.553670564370269
40
0.589997273423616
40
0.631285825402756
40
0.701866404619371
40
0.759696597427254
40
0.815593876690719
40
0.869192504200748
40
0.912210717388024
40
0.956299865108958
40
0.999704735857722
40
1
40
1
40
1
40
1
41
1
10
40.4102531049254
20
-6.99053804197078
30
0
41
1
10
40.6278219892245
20
-6.99055790335893
30
0
41
1
10
41.0195597752292
20
-6.99074792802048
30
0
41
1
10
41.5481957146416
20
-6.98953556242003
30
0
41
1
10
41.9680817856807
20
-6.99132404639312
30
0
41
1
10
42.3112181899825
20
-6.99332605416768
30
0
41
1
10
42.6372273905608
20
-6.99419337877109
30
0
41
1
10
42.9588666657025
20
-6.99483407176797
30
0
41
1
10
43.2987356057965
20
-6.99538963782408
30
0
41
1
10
43.6851094277496
20
-6.99608258480683
30
0
41
1
10
44.147541471888
20
-6.99723893953816
30
0
41
1
10
44.6784302494252
20
-6.99822075695806
30
0
41
1
10
45.2159818315843
20
-6.99890024141919
30
0
41
1
10
45.7446705753295
20
-6.9994596833773
30
0
41
1
10
46.282009451232
20
-7.00003388799934
30
0
41
1
10
46.8889142440774
20
-7.00076500690747
30
0
41
1
10
47.5684729533528
20
-7.00253429153335
30
0
41
1
10
48.2640371528212
20
-7.0047201581956
30
0
41
1
10
48.9166651840409
20
-7.00508554847409
30
0
41
1
10
49.5363348285223
20
-7.00560846413975
30
0
41
1
10
50.3006538483569
20
-7.00608295785386
30
0
41
1
10
51.1758730847847
20
-7.00867710317425
30
0
41
1
10
52.1264375515993
20
-7.01189619487494
30
0
41
1
10
52.9894201510672
20
-7.01215809805802
30
0
41
1
10
53.7760135908803
20
-7.01197012752357
30
0
41
1
10
54.5016975387879
20
-7.01309846954857
30
0
41
1
10
55.1748204772727
20
-7.01492741048006
30
0
41
1
10
55.627564612488
20
-7.01601315075249
30
0
41
1
10
55.8526965243589
20
-7.0165059699838
30
0
41
1
10
55.8542176390854
20
-7.01650929769281
30
0
0
SPLINE
5
10E
100
AcDbEntity
8
1
62
256
6
ByLayer
370
18
48
1
60
0
100
AcDbSpline
70
4
71
3
72
33
73
29
40
0
40
0
40
0
40
0
40
0.0501095456026331
40
0.0899603051067355
40
0.12073272674266
40
0.148869633076534
40
0.176628020316764
40
0.204293988883962
40
0.232623954485654
40
0.272796626239737
40
0.312720202512316
40
0.351436926704999
40
0.383834477759436
40
0.418591891823445
40
0.466800801167135
40
0.525477088457591
40
0.576244686997303
40
0.624530132681789
40
0.67097222105051
40
0.713349607473516
40
0.754858419181053
40
0.802197265444105
40
0.841672421597222
40
0.875998578057861
40
0.92125510761316
40
0.953122304858273
40
0.983244750995169
40
1
40
1
40
1
40
1
41
1
10
59.6313633993721
20
7.02130305631178
30
0
41
1
10
59.3789405092016
20
7.02049747563029
30
0
41
1
10
58.9236184643134
20
7.01960754313004
30
0
41
1
10
58.3000014745118
20
7.01812226558468
30
0
41
1
10
57.7972076326654
20
7.02013283616512
30
0
41
1
10
57.3584589715302
20
7.0204860345959
30
0
41
1
10
56.9289946837745
20
7.01961778525632
30
0
41
1
10
56.4980947754632
20
7.01821703227472
30
0
41
1
10
56.003436177403
20
7.01686997074373
30
0
41
1
10
55.445701003221
20
7.01557058452025
30
0
41
1
10
54.834539668508
20
7.01403793112468
30
0
41
1
10
54.2633701937822
20
7.01259935395413
30
0
41
1
10
53.7187741238781
20
7.01208716882104
30
0
41
1
10
53.1253459388113
20
7.01214037010047
30
0
41
1
10
52.3967687389999
20
7.01193108813624
30
0
41
1
10
51.5858268869219
20
7.01065048429365
30
0
41
1
10
50.7744927992946
20
7.00687665833823
30
0
41
1
10
50.0261419678238
20
7.00597950698187
30
0
41
1
10
49.3208693293904
20
7.00542615276134
30
0
41
1
10
48.6504730974602
20
7.00489038986495
30
0
41
1
10
47.9754581736577
20
7.00423388422581
30
0
41
1
10
47.315381858353
20
7.00159020414512
30
0
41
1
10
46.6922471210627
20
7.00055004228872
30
0
41
1
10
46.0798201538578
20
6.99979082340246
30
0
41
1
10
45.5065360073186
20
6.99922772219642
30
0
41
1
10
44.9548557091735
20
6.99857562985113
30
0
41
1
10
44.5498439456589
20
6.99799962367447
30
0
41
1
10
44.3087012439124
20
6.99751273089322
30
0
41
1
10
44.2225122505901
20
6.99732981626406
30
0
0
LINE
5
82
100
AcDbEntity
8
4
62
256
6
ByLayer
370
18
48
0.05
60
0
100
AcDbLine
10
0
20
0
30
0
11
85
21
0
31
0
39
0
210
0
220
0
230
1
0
LINE
5
84
100
AcDbEntity
8
81
62
256
6
ByLayer
370
18
48
1
60
0
100
AcDbLine
10
85
20
0
30
0
11
88
21
0
31
0
39
0
210
0
220
0
230
1
0
LINE
5
85
100
AcDbEntity
8
80
62
256
6
ByLayer
370
18
48
1
60
0
100
AcDbLine
10
0
20
0
30
0
11
-3
21
0
31
0
39
0
210
0
220
0
230
1
0
LINE
5
86
100
AcDbEntity
8
SK4
62
256
6
ByLayer
370
18
48
0.05
60
0
100
AcDbLine
10
-51
20
0
30
0
11
88
21
0
31
0
39
0
210
0
220
0
230
1
0
LINE
5
88
100
AcDbEntity
8
1
62
256
6
ByLayer
370
18
48
1
60
0
100
AcDbLine
10
0
20
8
30
0
11
0
21
-8
31
0
39
0
210
0
220
0
230
1
0
LINE
5
89
100
AcDbEntity
8
1
62
256
6
ByLayer
370
13
48
1
60
0
100
AcDbLine
10
84.837716
20
0.753334
30
0
11
83.345866
21
2.250825
31
0
39
0
210
0
220
0
230
1
0
LINE
5
8A
100
AcDbEntity
8
1
62
256
6
ByLayer
370
18
48
1
60
0
100
AcDbLine
10
21.99964
20
-1.680619
30
0
11
21.99964
21
6.515412
31
0
39
0
210
0
220
0
230
1
0
LINE
5
8B
100
AcDbEntity
8
1
62
256
6
ByLayer
370
18
48
1
60
0
100
AcDbLine
10
21.99964
20
-2.597666
30
0
11
21.99964
21
-2.71142
31
0
39
0
210
0
220
0
230
1
0
LINE
5
8C
100
AcDbEntity
8
1
62
256
6
ByLayer
370
13
48
1
60
0
100
AcDbLine
10
1.387483
20
-7.199304
30
0
11
1.387483
21
7.199304
31
0
39
0
210
0
220
0
230
1
0
LINE
5
8D
100
AcDbEntity
8
1
62
256
6
ByLayer
370
13
48
1
60
0
100
AcDbLine
10
0.693021
20
-7.599651
30
0
11
0.693021
21
7.599651
31
0
39
0
210
0
220
0
230
1
0
LINE
5
8E
100
AcDbEntity
8
SK1
62
256
6
ByLayer
370
18
48
1
60
0
100
AcDbLine
10
-48
20
-2.44215
30
0
11
-48
21
-4.381712
31
0
39
0
210
0
220
0
230
1
0
LINE
5
90
100
AcDbEntity
8
SK1
62
256
6
ByLayer
370
13
48
1
60
0
100
AcDbLine
10
-46.5
20
-5.347678
30
0
11
-46.5
21
-3.408118
31
0
39
0
210
0
220
0
230
1
0
LINE
5
91
100
AcDbEntity
8
SK1
62
256
6
ByLayer
370
18
48
1
60
0
100
AcDbLine
10
-46.4
20
-5.34494
30
0
11
-46.4
21
-3.560602
31
0
39
0
210
0
220
0
230
1
0
LINE
5
92
100
AcDbEntity
8
SK1
62
256
6
ByLayer
370
18
48
1
60
0
100
AcDbLine
10
-48
20
-5.55
30
0
11
-48
21
-4.381712
31
0
39
0
210
0
220
0
230
1
0
LINE
5
93
100
AcDbEntity
8
SK1
62
256
6
ByLayer
370
18
48
1
60
0
100
AcDbLine
10
-48
20
5.55
30
0
11
-48
21
-2.442214
31
0
39
0
210
0
220
0
230
1
0
LINE
5
94
100
AcDbEntity
8
SK1
62
256
6
ByLayer
370
18
48
1
60
0
100
AcDbLine
10
-45.55
20
-8
30
0
11
-45.55
21
8
31
0
39
0
210
0
220
0
230
1
0
LINE
5
95
100
AcDbEntity
8
SK1
62
256
6
ByLayer
370
18
48
1
60
0
100
AcDbLine
10
0
20
8
30
0
11
0
21
-8
31
0
39
0
210
0
220
0
230
1
0
LINE
5
96
100
AcDbEntity
8
1
62
256
6
ByLayer
370
18
48
1
60
0
100
AcDbLine
10
1.387483
20
-7.199304
30
0
11
18.182917
21
-7.229536
31
0
39
0
210
0
220
0
230
1
0
LINE
5
97
100
AcDbEntity
8
1
62
256
6
ByLayer
370
18
48
1
60
0
100
AcDbLine
10
38.700851
20
-7.266468
30
0
11
40.408969
21
-7.269543
31
0
39
0
210
0
220
0
230
1
0
LINE
5
98
100
AcDbEntity
8
1
62
256
6
ByLayer
370
18
48
1
60
0
100
AcDbLine
10
59.627558
20
-7.304136
30
0
11
61.624029
21
-7.30773
31
0
39
0
210
0
220
0
230
1
0
LINE
5
99
100
AcDbEntity
8
1
62
256
6
ByLayer
370
18
48
1
60
0
100
AcDbLine
10
61.624029
20
7.30773
30
0
11
59.627558
21
7.304136
31
0
39
0
210
0
220
0
230
1
0
LINE
5
9A
100
AcDbEntity
8
1
62
256
6
ByLayer
370
18
48
1
60
0
100
AcDbLine
10
40.408969
20
7.269543
30
0
11
38.700851
21
7.266468
31
0
39
0
210
0
220
0
230
1
0
LINE
5
9B
100
AcDbEntity
8
1
62
256
6
ByLayer
370
18
48
1
60
0
100
AcDbLine
10
18.182917
20
7.229536
30
0
11
1.387483
21
7.199304
31
0
39
0
210
0
220
0
230
1
0
LINE
5
9C
100
AcDbEntity
8
SK1
62
256
6
ByLayer
370
18
48
1
60
0
100
AcDbLine
10
-48
20
-5.55
30
0
11
-45.55
21
-8
31
0
39
0
210
0
220
0
230
1
0
LINE
5
9D
100
AcDbEntity
8
SK1
62
256
6
ByLayer
370
18
48
1
60
0
100
AcDbLine
10
-45.55
20
8
30
0
11
-48
21
5.55
31
0
39
0
210
0
220
0
230
1
0
LINE
5
9E
100
AcDbEntity
8
SK1
62
256
6
ByLayer
370
18
48
1
60
0
100
AcDbLine
10
-45.55
20
-8
30
0
11
0
21
-8
31
0
39
0
210
0
220
0
230
1
0
LINE
5
9F
100
AcDbEntity
8
SK1
62
256
6
ByLayer
370
18
48
1
60
0
100
AcDbLine
10
0
20
8
30
0
11
-45.55
21
8
31
0
39
0
210
0
220
0
230
1
0
LINE
5
A0
100
AcDbEntity
8
2
62
256
6
ByLayer
370
13
48
1
60
0
100
AcDbLine
10
92.5
20
-7.345
30
0
11
92.5
21
35.693741
31
0
39
0
210
0
220
0
230
1
0
LINE
5
A2
100
AcDbEntity
8
2
62
256
6
ByLayer
370
13
48
1
60
0
100
AcDbLine
10
86.5875
20
7.345
30
0
11
94.5
21
7.345
31
0
39
0
210
0
220
0
230
1
0
LINE
5
A3
100
AcDbEntity
8
2
62
256
6
ByLayer
370
13
48
1
60
0
100
AcDbLine
10
86.5875
20
-7.345
30
0
11
94.5
21
-7.345
31
0
39
0
210
0
220
0
230
1
0
LINE
5
A4
100
AcDbEntity
8
1
62
256
6
ByLayer
370
18
48
1
60
1
100
AcDbLine
10
92.5
20
7.345
30
0
11
92.960784
21
3.845002
31
0
39
0
210
0
220
0
230
1
0
LINE
5
A5
100
AcDbEntity
8
1
62
256
6
ByLayer
370
18
48
1
60
1
100
AcDbLine
10
92.960784
20
3.845002
30
0
11
92.039216
21
3.844998
31
0
39
0
210
0
220
0
230
1
0
LINE
5
A6
100
AcDbEntity
8
1
62
256
6
ByLayer
370
18
48
1
60
1
100
AcDbLine
10
92.039216
20
3.844998
30
0
11
92.5
21
7.345
31
0
39
0
210
0
220
0
230
1
0
LINE
5
A7
100
AcDbEntity
8
1
62
256
6
ByLayer
370
18
48
1
60
1
100
AcDbLine
10
92.5
20
-7.345
30
0
11
92.039216
21
-3.845002
31
0
39
0
210
0
220
0
230
1
0
LINE
5
A8
100
AcDbEntity
8
1
62
256
6
ByLayer
370
18
48
1
60
1
100
AcDbLine
10
92.039216
20
-3.845002
30
0
11
92.960784
21
-3.844998
31
0
39
0
210
0
220
0
230
1
0
LINE
5
A9
100
AcDbEntity
8
1
62
256
6
ByLayer
370
18
48
1
60
1
100
AcDbLine
10
92.960784
20
-3.844998
30
0
11
92.5
21
-7.345
31
0
39
0
210
0
220
0
230
1
0
LINE
5
AA
100
AcDbEntity
8
SK2
62
256
6
ByLayer
370
13
48
1
60
0
100
AcDbLine
10
-56.5
20
-8
30
0
11
-56.5
21
15.333771
31
0
39
0
210
0
220
0
230
1
0
LINE
5
AC
100
AcDbEntity
8
SK2
62
256
6
ByLayer
370
13
48
1
60
0
100
AcDbLine
10
-49.5875
20
8
30
0
11
-58.5
21
8
31
0
39
0
210
0
220
0
230
1
0
LINE
5
AD
100
AcDbEntity
8
SK2
62
256
6
ByLayer
370
13
48
1
60
0
100
AcDbLine
10
-49.5875
20
-8
30
0
11
-58.5
21
-8
31
0
39
0
210
0
220
0
230
1
0
LINE
5
AE
100
AcDbEntity
8
1
62
256
6
ByLayer
370
18
48
1
60
1
100
AcDbLine
10
-56.5
20
8
30
0
11
-56.039216
21
4.500002
31
0
39
0
210
0
220
0
230
1
0
LINE
5
AF
100
AcDbEntity
8
1
62
256
6
ByLayer
370
18
48
1
60
1
100
AcDbLine
10
-56.039216
20
4.500002
30
0
11
-56.960784
21
4.499998
31
0
39
0
210
0
220
0
230
1
0
LINE
5
B0
100
AcDbEntity
8
1
62
256
6
ByLayer
370
18
48
1
60
1
100
AcDbLine
10
-56.960784
20
4.499998
30
0
11
-56.5
21
8
31
0
39
0
210
0
220
0
230
1
0
LINE
5
B1
100
AcDbEntity
8
1
62
256
6
ByLayer
370
18
48
1
60
1
100
AcDbLine
10
-56.5
20
-8
30
0
11
-56.960784
21
-4.500002
31
0
39
0
210
0
220
0
230
1
0
LINE
5
B2
100
AcDbEntity
8
1
62
256
6
ByLayer
370
18
48
1
60
1
100
AcDbLine
10
-56.960784
20
-4.500002
30
0
11
-56.039216
21
-4.499998
31
0
39
0
210
0
220
0
230
1
0
LINE
5
B3
100
AcDbEntity
8
1
62
256
6
ByLayer
370
18
48
1
60
1
100
AcDbLine
10
-56.039216
20
-4.499998
30
0
11
-56.5
21
-8
31
0
39
0
210
0
220
0
230
1
0
LINE
5
B4
100
AcDbEntity
8
SK2
62
256
6
ByLayer
370
13
48
1
60
0
100
AcDbLine
10
85.542892
20
1.491786
30
0
11
93.892083
21
24.4341
31
0
39
0
210
0
220
0
230
1
0
LINE
5
B5
100
AcDbEntity
8
SK2
62
256
6
ByLayer
370
13
48
1
60
0
100
AcDbLine
10
85.542892
20
-1.491786
30
0
11
93.892083
21
-24.4341
31
0
39
0
210
0
220
0
230
1
0
LINE
5
B6
100
AcDbEntity
8
1
62
256
6
ByLayer
370
18
48
1
60
1
100
AcDbLine
10
93.208124
20
22.554685
30
0
11
96.624602
21
21.66587
31
0
39
0
210
0
220
0
230
1
0
LINE
5
B7
100
AcDbEntity
8
1
62
256
6
ByLayer
370
18
48
1
60
1
100
AcDbLine
10
96.624602
20
21.66587
30
0
11
96.278148
21
20.811904
31
0
39
0
210
0
220
0
230
1
0
LINE
5
B8
100
AcDbEntity
8
1
62
256
6
ByLayer
370
18
48
1
60
1
100
AcDbLine
10
96.278148
20
20.811904
30
0
11
93.208124
21
22.554685
31
0
39
0
210
0
220
0
230
1
0
LINE
5
B9
100
AcDbEntity
8
1
62
256
6
ByLayer
370
18
48
1
60
1
100
AcDbLine
10
93.208124
20
-22.554685
30
0
11
96.278145
21
-20.811905
31
0
39
0
210
0
220
0
230
1
0
LINE
5
BA
100
AcDbEntity
8
1
62
256
6
ByLayer
370
18
48
1
60
1
100
AcDbLine
10
96.278145
20
-20.811905
30
0
11
96.624605
21
-21.665868
31
0
39
0
210
0
220
0
230
1
0
LINE
5
BB
100
AcDbEntity
8
1
62
256
6
ByLayer
370
18
48
1
60
1
100
AcDbLine
10
96.624605
20
-21.665868
30
0
11
93.208124
21
-22.554685
31
0
39
0
210
0
220
0
230
1
0
LINE
5
10F
100
AcDbEntity
8
1
62
256
6
ByLayer
370
13
48
0.05
60
0
100
AcDbLine
10
-54.5
20
0
30
0
11
88.814781
21
0
31
0
39
0
210
0
220
0
230
1
0
LINE
5
114
100
AcDbEntity
8
1
62
256
6
ByLayer
370
18
48
1
60
1
100
AcDbLine
10
92.5
20
7.345
30
0
11
92.960784
21
3.845002
31
0
39
0
210
0
220
0
230
1
0
LINE
5
115
100
AcDbEntity
8
1
62
256
6
ByLayer
370
18
48
1
60
1
100
AcDbLine
10
92.960784
20
3.845002
30
0
11
92.039216
21
3.844998
31
0
39
0
210
0
220
0
230
1
0
LINE
5
116
100
AcDbEntity
8
1
62
256
6
ByLayer
370
18
48
1
60
1
100
AcDbLine
10
92.039216
20
3.844998
30
0
11
92.5
21
7.345
31
0
39
0
210
0
220
0
230
1
0
LINE
5
118
100
AcDbEntity
8
1
62
256
6
ByLayer
370
18
48
1
60
1
100
AcDbLine
10
92.5
20
-7.345
30
0
11
92.039216
21
-3.845002
31
0
39
0
210
0
220
0
230
1
0
LINE
5
119
100
AcDbEntity
8
1
62
256
6
ByLayer
370
18
48
1
60
1
100
AcDbLine
10
92.039216
20
-3.845002
30
0
11
92.960784
21
-3.844998
31
0
39
0
210
0
220
0
230
1
0
LINE
5
11A
100
AcDbEntity
8
1
62
256
6
ByLayer
370
18
48
1
60
1
100
AcDbLine
10
92.960784
20
-3.844998
30
0
11
92.5
21
-7.345
31
0
39
0
210
0
220
0
230
1
0
LINE
5
11E
100
AcDbEntity
8
1
62
256
6
ByLayer
370
18
48
1
60
1
100
AcDbLine
10
-56.5
20
8
30
0
11
-56.039216
21
4.500002
31
0
39
0
210
0
220
0
230
1
0
LINE
5
11F
100
AcDbEntity
8
1
62
256
6
ByLayer
370
18
48
1
60
1
100
AcDbLine
10
-56.039216
20
4.500002
30
0
11
-56.960784
21
4.499998
31
0
39
0
210
0
220
0
230
1
0
LINE
5
120
100
AcDbEntity
8
1
62
256
6
ByLayer
370
18
48
1
60
1
100
AcDbLine
10
-56.960784
20
4.499998
30
0
11
-56.5
21
8
31
0
39
0
210
0
220
0
230
1
0
LINE
5
122
100
AcDbEntity
8
1
62
256
6
ByLayer
370
18
48
1
60
1
100
AcDbLine
10
-56.5
20
-8
30
0
11
-56.960784
21
-4.500002
31
0
39
0
210
0
220
0
230
1
0
LINE
5
123
100
AcDbEntity
8
1
62
256
6
ByLayer
370
18
48
1
60
1
100
AcDbLine
10
-56.960784
20
-4.500002
30
0
11
-56.039216
21
-4.499998
31
0
39
0
210
0
220
0
230
1
0
LINE
5
124
100
AcDbEntity
8
1
62
256
6
ByLayer
370
18
48
1
60
1
100
AcDbLine
10
-56.039216
20
-4.499998
30
0
11
-56.5
21
-8
31
0
39
0
210
0
220
0
230
1
0
LINE
5
127
100
AcDbEntity
8
1
62
256
6
ByLayer
370
18
48
1
60
1
100
AcDbLine
10
93.208124
20
22.554685
30
0
11
96.624602
21
21.66587
31
0
39
0
210
0
220
0
230
1
0
LINE
5
128
100
AcDbEntity
8
1
62
256
6
ByLayer
370
18
48
1
60
1
100
AcDbLine
10
96.624602
20
21.66587
30
0
11
96.278148
21
20.811904
31
0
39
0
210
0
220
0
230
1
0
LINE
5
129
100
AcDbEntity
8
1
62
256
6
ByLayer
370
18
48
1
60
1
100
AcDbLine
10
96.278148
20
20.811904
30
0
11
93.208124
21
22.554685
31
0
39
0
210
0
220
0
230
1
0
LINE
5
12B
100
AcDbEntity
8
1
62
256
6
ByLayer
370
18
48
1
60
1
100
AcDbLine
10
93.208124
20
-22.554685
30
0
11
96.278145
21
-20.811905
31
0
39
0
210
0
220
0
230
1
0
LINE
5
12C
100
AcDbEntity
8
1
62
256
6
ByLayer
370
18
48
1
60
1
100
AcDbLine
10
96.278145
20
-20.811905
30
0
11
96.624605
21
-21.665868
31
0
39
0
210
0
220
0
230
1
0
LINE
5
12D
100
AcDbEntity
8
1
62
256
6
ByLayer
370
18
48
1
60
1
100
AcDbLine
10
96.624605
20
-21.665868
30
0
11
93.208124
21
-22.554685
31
0
39
0
210
0
220
0
230
1
0
MTEXT
5
110
100
AcDbEntity
8
2
62
256
6
ByLayer
370
18
48
1
60
0
100
AcDbMText
10
91.158886
20
21.003438
30
0
210
0
220
0
230
1
1
%%c
40
3
41
0
44
1.084337
50
90
71
7
72
5
7
iso_b_vert
0
MTEXT
5
113
100
AcDbEntity
8
2
62
256
6
ByLayer
370
18
48
1
60
0
100
AcDbMText
10
91.158886
20
26.98
30
0
210
0
220
0
230
1
1
\W0.7173;14.69
40
3
41
0
44
1.084337
50
90
71
7
72
5
7
iso_b_vert
0
MTEXT
5
11C
100
AcDbEntity
8
SK2
62
256
6
ByLayer
370
18
48
1
60
0
100
AcDbMText
10
-57.841114
20
6.658437
30
0
210
0
220
0
230
1
1
%%c
40
3
41
0
44
1.084337
50
90
71
7
72
5
7
iso_b_vert
0
MTEXT
5
11D
100
AcDbEntity
8
SK2
62
256
6
ByLayer
370
18
48
1
60
0
100
AcDbMText
10
-57.841114
20
12.635
30
0
210
0
220
0
230
1
1
\W0.5321;16
40
3
41
0
44
1.084337
50
90
71
7
72
5
7
iso_b_vert
0
MTEXT
5
126
100
AcDbEntity
8
SK2
62
256
6
ByLayer
370
18
48
1
60
0
100
AcDbMText
10
105.561159
20
-2.114886
30
0
210
0
220
0
230
1
1
\W0.7071;140%%d
40
3
41
0
44
1.084337
50
0
71
7
72
5
7
iso_b_vert
0
MTEXT
5
12F
100
AcDbEntity
8
SK6
62
256
6
ByLayer
370
18
48
1
60
0
100
AcDbMText
10
-3.57286
20
-77.114886
30
0
210
0
220
0
230
1
1
\W0.7455;860.1-1469-063A1-SD S2BM
40
3
41
0
44
1.084337
50
0
71
7
72
5
7
iso_b_vert
0
HATCH
5
117
100
AcDbEntity
8
2
62
256
6
ByLayer
370
13
48
1
60
0
100
AcDbHatch
10
0
20
0
30
0
210
0
220
0
230
1
2
ANSI31
70
0
71
0
91
1
92
5
93
3
72
1
10
92.5
20
7.345
11
92.9607837415528
21
3.84500169255318
72
1
10
92.9607837415528
20
3.84500169255318
11
92.0392162584472
21
3.84499830744682
72
1
10
92.0392162584472
20
3.84499830744682
11
92.5
21
7.345
97
0
75
0
76
1
52
0
41
0.0062
77
0
78
1
53
45
43
0
44
0
45
-0.0139193969876572
46
0.0139193969876572
79
0
47
0
98
1
10
0
20
0
0
HATCH
5
11B
100
AcDbEntity
8
2
62
256
6
ByLayer
370
13
48
1
60
0
100
AcDbHatch
10
0
20
0
30
0
210
0
220
0
230
1
2
ANSI31
70
0
71
0
91
1
92
5
93
3
72
1
10
92.5
20
-7.34500000000003
11
92.0392162584472
21
-3.84500169255321
72
1
10
92.0392162584472
20
-3.84500169255321
11
92.9607837415528
21
-3.84499830744684
72
1
10
92.9607837415528
20
-3.84499830744684
11
92.5
21
-7.34500000000003
97
0
75
0
76
1
52
0
41
0.0062
77
0
78
1
53
45
43
0
44
0
45
-0.0139193969876572
46
0.0139193969876572
79
0
47
0
98
1
10
0
20
0
0
HATCH
5
121
100
AcDbEntity
8
SK2
62
256
6
ByLayer
370
13
48
1
60
0
100
AcDbHatch
10
0
20
0
30
0
210
0
220
0
230
1
2
ANSI31
70
0
71
0
91
1
92
5
93
3
72
1
10
-56.5
20
8
11
-56.0392162584472
21
4.50000169255318
72
1
10
-56.0392162584472
20
4.50000169255318
11
-56.9607837415528
21
4.49999830744682
72
1
10
-56.9607837415528
20
4.49999830744682
11
-56.5
21
8
97
0
75
0
76
1
52
0
41
0.0062
77
0
78
1
53
45
43
0
44
0
45
-0.0139193969876572
46
0.0139193969876572
79
0
47
0
98
1
10
0
20
0
0
HATCH
5
125
100
AcDbEntity
8
SK2
62
256
6
ByLayer
370
13
48
1
60
0
100
AcDbHatch
10
0
20
0
30
0
210
0
220
0
230
1
2
ANSI31
70
0
71
0
91
1
92
5
93
3
72
1
10
-56.5
20
-8
11
-56.9607837415528
21
-4.50000169255318
72
1
10
-56.9607837415528
20
-4.50000169255318
11
-56.0392162584472
21
-4.49999830744682
72
1
10
-56.0392162584472
20
-4.49999830744682
11
-56.5
21
-8
97
0
75
0
76
1
52
0
41
0.0062
77
0
78
1
53
45
43
0
44
0
45
-0.0139193969876572
46
0.0139193969876572
79
0
47
0
98
1
10
0
20
0
0
HATCH
5
12A
100
AcDbEntity
8
SK2
62
256
6
ByLayer
370
13
48
1
60
0
100
AcDbHatch
10
0
20
0
30
0
210
0
220
0
230
1
2
ANSI31
70
0
71
0
91
1
92
5
93
3
72
1
10
93.2081244207017
20
22.5546853236262
11
96.6246016002304
21
21.6658695438558
72
1
10
96.6246016002304
20
21.6658695438558
11
96.2781484306029
21
20.8119041890644
72
1
10
96.2781484306029
20
20.8119041890644
11
93.2081244207017
21
22.5546853236262
97
0
75
0
76
1
52
0
41
0.0062
77
0
78
1
53
45
43
0
44
0
45
-0.0139193969876572
46
0.0139193969876572
79
0
47
0
98
1
10
0
20
0
0
HATCH
5
12E
100
AcDbEntity
8
SK2
62
256
6
ByLayer
370
13
48
1
60
0
100
AcDbHatch
10
0
20
0
30
0
210
0
220
0
230
1
2
ANSI31
70
0
71
0
91
1
92
5
93
3
72
1
10
93.2081244207014
20
-22.5546853236263
11
96.2781452938175
21
-20.8119054616696
72
1
10
96.2781452938175
20
-20.8119054616696
11
96.6246047370155
21
-21.6658682712508
72
1
10
96.6246047370155
20
-21.6658682712508
11
93.2081244207014
21
-22.5546853236263
97
0
75
0
76
1
52
0
41
0.0062
77
0
78
1
53
45
43
0
44
0
45
-0.0139193969876572
46
0.0139193969876572
79
0
47
0
98
1
10
0
20
0
0
DIMENSION
5
132
100
AcDbEntity
8
SK2
62
256
6
ByLayer
370
18
48
1
60
0
100
AcDbDimension
2
_U0
10
22
20
-25.182954
30
0
11
53.5
21
-25.182954
31
0
70
32
71
1
72
1
41
1
210
0
220
0
230
1
3
Standard
100
AcDbAlignedDimension
13
85
23
-7.345
33
0
14
22
24
-7.345
34
0
50
0
100
AcDbRotatedDimension
1001
ACAD
1000
DSTYLE
1002
{
1070
   371
1070
    13
1070
   372
1070
    13
1070
   170
1070
     0
1070
   144
1040
1.0
1070
   277
1070
     2
1070
   284
1070
     8
1070
   278
1070
    46
1070
   146
1040
1.166667
1070
   345
1005
16
1070
   347
1005
16
1070
   346
1005
16
1070
   344
1005
0
1070
   343
1005
0
1070
   172
1070
     1
1070
    76
1070
     0
1070
    75
1070
     0
1070
   282
1070
     0
1070
   281
1070
     0
1070
     3
1000

1070
    71
1070
     0
1070
    74
1070
     0
1070
   279
1070
     0
1070
   173
1070
     1
1070
   340
1005
111
1070
   271
1070
     2
1070
   272
1070
     2
1070
    77
1070
     1
1070
    73
1070
     1
1070
   171
1070
     3
1070
   274
1070
     4
1070
   177
1070
     2
1070
   176
1070
     2
1070
   178
1070
     2
1070
    78
1070
     8
1070
    48
1040
-0.1
1070
    41
1040
3.5
1070
   147
1040
1.5
1070
    42
1040
1.5875
1070
    44
1040
2.0
1070
   140
1040
3.0
1002
}
1001
ACAD_DSTYLE_DIM_LINETYPE
1070
   380
1005
16
1001
ACAD_DSTYLE_DIM_EXT1_LINETYPE
1070
   381
1005
16
1001
ACAD_DSTYLE_DIM_EXT2_LINETYPE
1070
   382
1005
16
0
DIMENSION
5
14D
100
AcDbEntity
8
SK2
62
256
6
ByLayer
370
18
48
1
60
0
100
AcDbDimension
2
_U1
10
2
20
-35.182954
30
0
11
43.5
21
-35.182954
31
0
70
32
71
1
72
1
41
1
210
0
220
0
230
1
3
Standard
100
AcDbAlignedDimension
13
85
23
-7.345
33
0
14
2
24
-7.345
34
0
50
0
100
AcDbRotatedDimension
1001
ACAD
1000
DSTYLE
1002
{
1070
   371
1070
    13
1070
   372
1070
    13
1070
     3
1000

1070
   170
1070
     0
1070
   144
1040
1.0
1070
   277
1070
     2
1070
   284
1070
     8
1070
   278
1070
    46
1070
   146
1040
1.166667
1070
   345
1005
16
1070
   347
1005
16
1070
   346
1005
16
1070
   344
1005
0
1070
   343
1005
0
1070
   172
1070
     1
1070
    76
1070
     0
1070
    75
1070
     0
1070
   282
1070
     0
1070
   281
1070
     0
1070
    71
1070
     0
1070
    74
1070
     0
1070
   279
1070
     0
1070
   173
1070
     1
1070
   340
1005
111
1070
   271
1070
     2
1070
   272
1070
     2
1070
    77
1070
     1
1070
    73
1070
     1
1070
   171
1070
     3
1070
   274
1070
     4
1070
   177
1070
     2
1070
   176
1070
     2
1070
   178
1070
     2
1070
    78
1070
     8
1070
    48
1040
-0.1
1070
    41
1040
3.5
1070
   147
1040
1.5
1070
    42
1040
1.5875
1070
    44
1040
2.0
1070
   140
1040
3.0
1002
}
1001
ACAD_DSTYLE_DIM_LINETYPE
1070
   380
1005
16
1001
ACAD_DSTYLE_DIM_EXT1_LINETYPE
1070
   381
1005
16
1001
ACAD_DSTYLE_DIM_EXT2_LINETYPE
1070
   382
1005
16
0
DIMENSION
5
165
100
AcDbEntity
8
SK2
62
256
6
ByLayer
370
18
48
1
60
0
100
AcDbDimension
2
_U2
10
0
20
-43.182954
30
0
11
-24
21
-43.182954
31
0
70
32
71
1
72
1
41
1
210
0
220
0
230
1
3
Standard
100
AcDbAlignedDimension
13
-48
23
-8
33
0
14
0
24
-8
34
0
50
0
100
AcDbRotatedDimension
1001
ACAD
1000
DSTYLE
1002
{
1070
   371
1070
    13
1070
   372
1070
    13
1070
     3
1000

1070
   170
1070
     0
1070
   144
1040
1.0
1070
   277
1070
     2
1070
   284
1070
     8
1070
   278
1070
    46
1070
   146
1040
1.166667
1070
   345
1005
16
1070
   347
1005
16
1070
   346
1005
16
1070
   344
1005
0
1070
   343
1005
0
1070
   172
1070
     1
1070
    76
1070
     0
1070
    75
1070
     0
1070
   282
1070
     0
1070
   281
1070
     0
1070
    71
1070
     0
1070
    74
1070
     0
1070
   279
1070
     0
1070
   173
1070
     1
1070
   340
1005
111
1070
   271
1070
     2
1070
   272
1070
     2
1070
    77
1070
     1
1070
    73
1070
     1
1070
   171
1070
     3
1070
   274
1070
     4
1070
   177
1070
     2
1070
   176
1070
     2
1070
   178
1070
     2
1070
    78
1070
     8
1070
    48
1040
-0.1
1070
    41
1040
3.5
1070
   147
1040
1.5
1070
    42
1040
1.5875
1070
    44
1040
2.0
1070
   140
1040
3.0
1002
}
1001
ACAD_DSTYLE_DIM_LINETYPE
1070
   380
1005
16
1001
ACAD_DSTYLE_DIM_EXT1_LINETYPE
1070
   381
1005
16
1001
ACAD_DSTYLE_DIM_EXT2_LINETYPE
1070
   382
1005
16
0
DIMENSION
5
17D
100
AcDbEntity
8
SK2
62
256
6
ByLayer
370
18
48
1
60
0
100
AcDbDimension
2
_U3
10
85
20
-51.182954
30
0
11
18.5
21
-51.182954
31
0
70
32
71
1
72
1
41
1
210
0
220
0
230
1
3
Standard
100
AcDbAlignedDimension
13
-48
23
-8
33
0
14
85
24
-7.345
34
0
50
0
100
AcDbRotatedDimension
1001
ACAD
1000
DSTYLE
1002
{
1070
   371
1070
    13
1070
   372
1070
    13
1070
     3
1000

1070
   170
1070
     0
1070
   144
1040
1.0
1070
   277
1070
     2
1070
   284
1070
     8
1070
   278
1070
    46
1070
   146
1040
1.166667
1070
   345
1005
16
1070
   347
1005
16
1070
   346
1005
16
1070
   344
1005
0
1070
   343
1005
0
1070
   172
1070
     1
1070
    76
1070
     0
1070
    75
1070
     0
1070
   282
1070
     0
1070
   281
1070
     0
1070
    71
1070
     0
1070
    74
1070
     0
1070
   279
1070
     0
1070
   173
1070
     1
1070
   340
1005
111
1070
   271
1070
     2
1070
   272
1070
     2
1070
    77
1070
     1
1070
    73
1070
     1
1070
   171
1070
     3
1070
   274
1070
     4
1070
   177
1070
     2
1070
   176
1070
     2
1070
   178
1070
     2
1070
    78
1070
     8
1070
    48
1040
-0.1
1070
    41
1040
3.5
1070
   147
1040
1.5
1070
    42
1040
1.5875
1070
    44
1040
2.0
1070
   140
1040
3.0
1002
}
1001
ACAD_DSTYLE_DIM_LINETYPE
1070
   380
1005
16
1001
ACAD_DSTYLE_DIM_EXT1_LINETYPE
1070
   381
1005
16
1001
ACAD_DSTYLE_DIM_EXT2_LINETYPE
1070
   382
1005
16
0
DIMENSION
5
195
100
AcDbEntity
8
2
62
256
6
ByLayer
370
18
48
1
60
0
100
AcDbDimension
2
_U4
10
0
20
-43.182954
30
0
11
42.5
21
-43.182954
31
0
70
32
71
1
72
1
41
1
210
0
220
0
230
1
3
Standard
100
AcDbAlignedDimension
13
85
23
-7.345
33
0
14
0
24
-7.345
34
0
50
0
100
AcDbRotatedDimension
1001
ACAD
1000
DSTYLE
1002
{
1070
   371
1070
    13
1070
   372
1070
    13
1070
     3
1000

1070
   170
1070
     0
1070
   144
1040
1.0
1070
   277
1070
     2
1070
   284
1070
     8
1070
   278
1070
    46
1070
   146
1040
1.166667
1070
   345
1005
16
1070
   347
1005
16
1070
   346
1005
16
1070
   344
1005
0
1070
   343
1005
0
1070
   172
1070
     1
1070
    76
1070
     0
1070
    75
1070
     0
1070
   282
1070
     0
1070
   281
1070
     0
1070
    71
1070
     0
1070
    74
1070
     0
1070
   279
1070
     0
1070
   173
1070
     1
1070
   340
1005
111
1070
   271
1070
     2
1070
   272
1070
     2
1070
    77
1070
     1
1070
    73
1070
     1
1070
   171
1070
     3
1070
   274
1070
     4
1070
   177
1070
     2
1070
   176
1070
     2
1070
   178
1070
     2
1070
    78
1070
     8
1070
    48
1040
-0.1
1070
    41
1040
3.5
1070
   147
1040
1.5
1070
    42
1040
1.5875
1070
    44
1040
2.0
1070
   140
1040
3.0
1002
}
1001
ACAD_DSTYLE_DIM_LINETYPE
1070
   380
1005
16
1001
ACAD_DSTYLE_DIM_EXT1_LINETYPE
1070
   381
1005
16
1001
ACAD_DSTYLE_DIM_EXT2_LINETYPE
1070
   382
1005
16
0
ENDSEC
0
SECTION
2
OBJECTS
0
DICTIONARY
5
21d
330
0
100
AcDbDictionary
280
0
281
1
3
ACAD_GROUP
350
21e
3
ACAD_MLINESTYLE
350
21f
0
DICTIONARY
5
21e
330
0
100
AcDbDictionary
280
0
281
1
0
DICTIONARY
5
21f
330
0
100
AcDbDictionary
280
0
281
1
3
Standard
350
18
0
MLINESTYLE
5
18
330
21f
100
AcDbMlineStyle
2
Standard
70
0
3

62
256
51
90
52
90
71
2
49
-0.5
62
256
6
ByLayer
49
0.5
62
256
6
ByLayer
0
RASTERVARIABLES
5
20b
330

100
AcDbRasterVariables
90
0
70
1
71
1
72
1
0
ENDSEC
0
EOF
