0
SECTION
2
HEADER
9
$ACADVER
1
AC1015
9
$DWGCODEPAGE
3
ANSI_1252
9
$HANDSEED
5
22c
9
$ANGBASE
50
0
9
$ANGDIR
70
0
9
$ATTMODE
70
1
9
$AUNITS
70
0
9
$AUPREC
70
0
9
$CECOLOR
62
256
9
$CELTSCALE
40
1
9
$CELTYPE
6
ByLayer
9
$CELWEIGHT
370
18
9
$CLAYER
8
0
9
$CMLJUST
70
0
9
$CMLSCALE
40
1
9
$CMLSTYLE
2
Standard
9
$DIMSTYLE
2
Standard
9
$TEXTSIZE
40
0.2
9
$TEXTSTYLE
7
Standard
9
$LUNITS
70
2
9
$LUPREC
70
4
9
$EXTNAMES
290
1
9
$INSUNITS
70
4
9
$LTSCALE
40
1
9
$LWDISPLAY
290
1
9
$PDMODE
70
0
9
$PDSIZE
40
0
9
$PLINEGEN
70
0
0
ENDSEC
0
SECTION
2
CLASSES
0
CLASS
1
RASTERVARIABLES
2
AcDbRasterVariables
3
ISM
90
0
280
0
281
0
0
ENDSEC
0
SECTION
2
TABLES
0
TABLE
2
VPORT
5
222
100
AcDbSymbolTable
0
VPORT
5
1
100
AcDbSymbolTableRecord
100
AcDbViewportTableRecord
2
*Active
70
0
10
0
20
0
11
1
21
1
12
-1
22
1
13
0
23
0
14
0.5
24
0.5
15
10
25
10
16
0
26
0
36
1
17
0
27
0
37
0
0
ENDTAB
0
TABLE
2
LTYPE
5
223
100
AcDbSymbolTable
0
LTYPE
5
14
100
AcDbSymbolTableRecord
100
AcDbLinetypeTableRecord
70
0
2
ByBlock
3

72
65
73
0
40
0
0
LTYPE
5
15
100
AcDbSymbolTableRecord
100
AcDbLinetypeTableRecord
70
0
2
ByLayer
3

72
65
73
0
40
0
0
LTYPE
5
16
100
AcDbSymbolTableRecord
100
AcDbLinetypeTableRecord
70
0
2
Continuous
3
Solid line
72
65
73
0
40
0
0
LTYPE
5
6E
100
AcDbSymbolTableRecord
100
AcDbLinetypeTableRecord
70
0
2
CENTER
3
____ _ ____ _ ____ _ ____
72
65
73
4
40
47.5
49
22
74
0
49
-8.5
74
0
49
8.5
74
0
49
-8.5
74
0
0
LTYPE
5
6F
100
AcDbSymbolTableRecord
100
AcDbLinetypeTableRecord
70
0
2
DASHED
3
__ __ __ __ __ __ __ __ __
72
65
73
2
40
25.72
49
12.86
74
0
49
-12.86
74
0
0
ENDTAB
0
TABLE
2
LAYER
5
224
100
AcDbSymbolTable
0
LAYER
5
10
100
AcDbSymbolTableRecord
100
AcDbLayerTableRecord
2
0
70
0
62
7
6
Continuous
290
1
370
-3
390
0
0
LAYER
5
71
100
AcDbSymbolTableRecord
100
AcDbLayerTableRecord
2
81
70
0
62
-3
6
Continuous
290
1
370
-3
390
0
0
LAYER
5
73
100
AcDbSymbolTableRecord
100
AcDbLayerTableRecord
2
80
70
0
62
-6
6
Continuous
290
1
370
-3
390
0
0
LAYER
5
75
100
AcDbSymbolTableRecord
100
AcDbLayerTableRecord
2
1
70
0
62
4
6
Continuous
290
1
370
-3
390
0
0
LAYER
5
83
100
AcDbSymbolTableRecord
100
AcDbLayerTableRecord
2
4
70
0
62
-2
6
CENTER
290
1
370
-3
390
0
0
LAYER
5
A3
100
AcDbSymbolTableRecord
100
AcDbLayerTableRecord
2
2
70
0
62
7
6
Continuous
290
1
370
-3
390
0
0
LAYER
5
137
100
AcDbSymbolTableRecord
100
AcDbLayerTableRecord
2
Defpoints
70
0
62
7
6
Continuous
290
0
370
-3
390
0
0
LAYER
5
20e
100
AcDbSymbolTableRecord
100
AcDbLayerTableRecord
2
SK4
70
0
62
2
6
CENTER
290
1
370
-3
390
0
0
LAYER
5
20f
100
AcDbSymbolTableRecord
100
AcDbLayerTableRecord
2
SK1
70
0
62
4
6
Continuous
290
1
370
-3
390
0
0
LAYER
5
210
100
AcDbSymbolTableRecord
100
AcDbLayerTableRecord
2
SK2
70
0
62
7
6
Continuous
290
1
370
-3
390
0
0
LAYER
5
211
100
AcDbSymbolTableRecord
100
AcDbLayerTableRecord
2
SK6
70
0
62
5
6
Continuous
290
1
370
-3
390
0
0
ENDTAB
0
TABLE
2
STYLE
5
225
100
AcDbSymbolTable
0
STYLE
5
11
100
AcDbSymbolTableRecord
100
AcDbTextStyleTableRecord
2
Standard
3
txt
70
0
71
0
40
0
41
1
42
0
50
0
0
STYLE
5
113
100
AcDbSymbolTableRecord
100
AcDbTextStyleTableRecord
2
iso_b_vert
3
simplex.shx
70
0
71
0
40
0
41
1
42
0
50
0
0
STYLE
5
114
100
AcDbSymbolTableRecord
100
AcDbTextStyleTableRecord
2
DWGDirectTextStyle
3
simplex
70
0
71
0
40
0
41
1
42
0
50
0
0
ENDTAB
0
TABLE
2
DIMSTYLE
5
226
100
AcDbSymbolTable
100
AcDbDimStyleTable
0
DIMSTYLE
105
27
100
AcDbSymbolTableRecord
100
AcDbDimStyleTableRecord
2
Standard
70
0
3
<>
41
0.18
42
0.0625
44
0.18
140
0.18
147
0.09
73
0
74
0
77
1
271
2
275
0
278
52
280
0
340
11
0
ENDTAB
0
TABLE
2
VIEW
5
227
100
AcDbSymbolTable
0
ENDTAB
0
TABLE
2
UCS
5
228
100
AcDbSymbolTable
0
ENDTAB
0
TABLE
2
APPID
5
229
100
AcDbSymbolTable
0
APPID
5
12
100
AcDbSymbolTableRecord
100
AcDbRegAppTableRecord
2
ACAD
70
0
0
APPID
5
133
100
AcDbSymbolTableRecord
100
AcDbRegAppTableRecord
2
ACAD_DSTYLE_DIMBREAK
70
0
0
APPID
5
1CD
100
AcDbSymbolTableRecord
100
AcDbRegAppTableRecord
2
ACAD_DSTYLE_DIM_LINETYPE
70
0
0
APPID
5
1CE
100
AcDbSymbolTableRecord
100
AcDbRegAppTableRecord
2
ACAD_DSTYLE_DIM_EXT1_LINETYPE
70
0
0
APPID
5
1CF
100
AcDbSymbolTableRecord
100
AcDbRegAppTableRecord
2
ACAD_DSTYLE_DIM_EXT2_LINETYPE
70
0
0
APPID
5
20A
100
AcDbSymbolTableRecord
100
AcDbRegAppTableRecord
2
ACAD_MLEADERVER
70
0
0
ENDTAB
0
TABLE
2
BLOCK_RECORD
5
22a
100
AcDbSymbolTable
0
BLOCK_RECORD
5
1F
100
AcDbSymbolTableRecord
100
AcDbBlockTableRecord
2
*Model_Space
340
0
70
0
0
BLOCK_RECORD
5
1B
100
AcDbSymbolTableRecord
100
AcDbBlockTableRecord
2
*Paper_Space
340
0
70
0
0
BLOCK_RECORD
5
23
100
AcDbSymbolTableRecord
100
AcDbBlockTableRecord
2
*Paper_Space0
340
0
70
0
0
BLOCK_RECORD
5
138
100
AcDbSymbolTableRecord
100
AcDbBlockTableRecord
2
*D1
340
0
70
0
0
BLOCK_RECORD
5
144
100
AcDbSymbolTableRecord
100
AcDbBlockTableRecord
2
_U0
340
0
70
0
0
BLOCK_RECORD
5
152
100
AcDbSymbolTableRecord
100
AcDbBlockTableRecord
2
*D3
340
0
70
0
0
BLOCK_RECORD
5
15E
100
AcDbSymbolTableRecord
100
AcDbBlockTableRecord
2
_U1
340
0
70
0
0
BLOCK_RECORD
5
16A
100
AcDbSymbolTableRecord
100
AcDbBlockTableRecord
2
*D5
340
0
70
0
0
BLOCK_RECORD
5
176
100
AcDbSymbolTableRecord
100
AcDbBlockTableRecord
2
_U2
340
0
70
0
0
BLOCK_RECORD
5
182
100
AcDbSymbolTableRecord
100
AcDbBlockTableRecord
2
*D7
340
0
70
0
0
BLOCK_RECORD
5
18E
100
AcDbSymbolTableRecord
100
AcDbBlockTableRecord
2
_U3
340
0
70
0
0
BLOCK_RECORD
5
19A
100
AcDbSymbolTableRecord
100
AcDbBlockTableRecord
2
*D9
340
0
70
0
0
BLOCK_RECORD
5
1A6
100
AcDbSymbolTableRecord
100
AcDbBlockTableRecord
2
_U4
340
0
70
0
0
ENDTAB
0
ENDSEC
0
SECTION
2
BLOCKS
0
BLOCK
5
20
100
AcDbEntity
8
0
100
AcDbBlockBegin
2
*Model_Space
70
0
10
0
20
0
30
0
3
*Model_Space
0
ENDBLK
5
21
100
AcDbEntity
8
0
100
AcDbBlockEnd
0
BLOCK
5
1C
100
AcDbEntity
8
0
100
AcDbBlockBegin
2
*Paper_Space
70
0
10
0
20
0
30
0
3
*Paper_Space
0
ENDBLK
5
1D
100
AcDbEntity
8
0
100
AcDbBlockEnd
0
BLOCK
5
24
100
AcDbEntity
8
0
100
AcDbBlockBegin
2
*Paper_Space0
70
0
10
0
20
0
30
0
3
*Paper_Space0
0
ENDBLK
5
25
100
AcDbEntity
8
0
100
AcDbBlockEnd
0
BLOCK
5
139
100
AcDbEntity
8
0
100
AcDbBlockBegin
2
*D1
70
1
10
0
20
0
30
0
3
*D1
0
LINE
5
13B
100
AcDbEntity
8
0
62
256
6
ByLayer
370
-2
48
1
60
0
100
AcDbLine
10
67
20
-8.6875
30
0
11
67
21
-28.763776
31
0
39
0
210
0
220
0
230
1
0
LINE
5
13C
100
AcDbEntity
8
0
62
256
6
ByLayer
370
-2
48
1
60
0
100
AcDbLine
10
21.9
20
-8.6875
30
0
11
21.9
21
-28.763776
31
0
39
0
210
0
220
0
230
1
0
LINE
5
13D
100
AcDbEntity
8
0
62
256
6
ByLayer
370
-2
48
1
60
0
100
AcDbLine
10
63.5
20
-26.763776
30
0
11
25.4
21
-26.763776
31
0
39
0
210
0
220
0
230
1
0
SOLID
5
13E
100
AcDbEntity
8
0
62
256
6
ByLayer
370
-1
48
1
60
0
100
AcDbTrace
10
63.5
20
-27.347109
30
0
11
63.5
21
-26.180442
31
0
12
67
22
-26.763776
32
0
13
67
23
-26.763776
33
0
39
0
210
0
220
0
230
1
0
SOLID
5
13F
100
AcDbEntity
8
0
62
256
6
ByLayer
370
-1
48
1
60
0
100
AcDbTrace
10
25.4
20
-26.180442
30
0
11
25.4
21
-27.347109
31
0
12
21.9
22
-26.763776
32
0
13
21.9
23
-26.763776
33
0
39
0
210
0
220
0
230
1
0
MTEXT
5
140
100
AcDbEntity
8
0
62
256
6
ByLayer
370
18
48
1
60
0
100
AcDbMText
10
44.45
20
-20.763776
30
0
210
0
220
0
230
1
1
\A1;45.1
40
3
41
0
44
1
50
0
71
5
72
5
7
iso_b_vert
0
POINT
5
141
100
AcDbEntity
8
Defpoints
62
0
6
ByLayer
370
-1
48
1
60
0
100
AcDbPoint
10
67
20
-7.1
30
0
39
0
210
0
220
0
230
1
50
360
0
POINT
5
142
100
AcDbEntity
8
Defpoints
62
0
6
ByLayer
370
-1
48
1
60
0
100
AcDbPoint
10
21.9
20
-7.1
30
0
39
0
210
0
220
0
230
1
50
360
0
POINT
5
143
100
AcDbEntity
8
Defpoints
62
0
6
ByLayer
370
-1
48
1
60
0
100
AcDbPoint
10
21.9
20
-26.763776
30
0
39
0
210
0
220
0
230
1
50
360
0
ENDBLK
5
13A
100
AcDbEntity
8
0
100
AcDbBlockEnd
0
BLOCK
5
14D
100
AcDbEntity
8
0
100
AcDbBlockBegin
2
_U0
70
0
10
0
20
0
30
0
3
_U0
0
MTEXT
5
145
100
AcDbEntity
8
SK2
62
256
6
ByLayer
370
18
48
1
60
0
100
AcDbMText
10
41.305544
20
-24.566161
30
0
210
0
220
0
230
1
1
\W0.7531;45.1
40
3
41
0
44
1.084337
50
0
71
7
72
5
7
iso_b_vert
0
MTEXT
5
146
100
AcDbEntity
8
SK2
62
256
6
ByLayer
370
18
48
1
60
0
100
AcDbMText
10
39.205544
20
-24.566161
30
0
210
0
220
0
230
1
1
\W1.1313;{\H1.88x;(}
40
3
41
0
44
1.084337
50
0
71
7
72
5
7
iso_b_vert
0
MTEXT
5
147
100
AcDbEntity
8
SK2
62
256
6
ByLayer
370
18
48
1
60
0
100
AcDbMText
10
47.912456
20
-24.566161
30
0
210
0
220
0
230
1
1
\W1.1313;{\H1.88x;)}
40
3
41
0
44
1.084337
50
0
71
7
72
5
7
iso_b_vert
0
LINE
5
148
100
AcDbEntity
8
SK2
62
256
6
ByLayer
370
13
48
1
60
0
100
AcDbLine
10
67
20
-8.6875
30
0
11
67
21
-28.763776
31
0
39
0
210
0
220
0
230
1
0
LINE
5
149
100
AcDbEntity
8
SK2
62
256
6
ByLayer
370
13
48
1
60
0
100
AcDbLine
10
21.9
20
-8.6875
30
0
11
21.9
21
-28.763776
31
0
39
0
210
0
220
0
230
1
0
LINE
5
14A
100
AcDbEntity
8
SK2
62
256
6
ByLayer
370
13
48
1
60
0
100
AcDbLine
10
67
20
-26.763776
30
0
11
21.9
21
-26.763776
31
0
39
0
210
0
220
0
230
1
0
SOLID
5
14B
100
AcDbEntity
8
SK2
62
256
6
ByLayer
370
18
48
1
60
0
100
AcDbTrace
10
67
20
-26.763776
30
0
11
63.500002
21
-27.224559
31
0
12
63.499998
22
-26.302992
32
0
13
63.499998
23
-26.302992
33
0
39
0
210
0
220
0
230
1
0
SOLID
5
14C
100
AcDbEntity
8
SK2
62
256
6
ByLayer
370
18
48
1
60
0
100
AcDbTrace
10
21.9
20
-26.763776
30
0
11
25.399998
21
-26.302992
31
0
12
25.400002
22
-27.224559
32
0
13
25.400002
23
-27.224559
33
0
39
0
210
0
220
0
230
1
0
ENDBLK
5
14E
100
AcDbEntity
8
0
100
AcDbBlockEnd
0
BLOCK
5
153
100
AcDbEntity
8
0
100
AcDbBlockBegin
2
*D3
70
1
10
0
20
0
30
0
3
*D3
0
LINE
5
155
100
AcDbEntity
8
0
62
256
6
ByLayer
370
-2
48
1
60
0
100
AcDbLine
10
67
20
-8.6875
30
0
11
67
21
-38.763776
31
0
39
0
210
0
220
0
230
1
0
LINE
5
156
100
AcDbEntity
8
0
62
256
6
ByLayer
370
-2
48
1
60
0
100
AcDbLine
10
2
20
-8.6875
30
0
11
2
21
-38.763776
31
0
39
0
210
0
220
0
230
1
0
LINE
5
157
100
AcDbEntity
8
0
62
256
6
ByLayer
370
-2
48
1
60
0
100
AcDbLine
10
63.5
20
-36.763776
30
0
11
5.5
21
-36.763776
31
0
39
0
210
0
220
0
230
1
0
SOLID
5
158
100
AcDbEntity
8
0
62
256
6
ByLayer
370
-1
48
1
60
0
100
AcDbTrace
10
63.5
20
-37.347109
30
0
11
63.5
21
-36.180442
31
0
12
67
22
-36.763776
32
0
13
67
23
-36.763776
33
0
39
0
210
0
220
0
230
1
0
SOLID
5
159
100
AcDbEntity
8
0
62
256
6
ByLayer
370
-1
48
1
60
0
100
AcDbTrace
10
5.5
20
-36.180442
30
0
11
5.5
21
-37.347109
31
0
12
2
22
-36.763776
32
0
13
2
23
-36.763776
33
0
39
0
210
0
220
0
230
1
0
MTEXT
5
15A
100
AcDbEntity
8
0
62
256
6
ByLayer
370
18
48
1
60
0
100
AcDbMText
10
34.5
20
-30.763776
30
0
210
0
220
0
230
1
1
\A1;65
40
3
41
0
44
1
50
0
71
5
72
5
7
iso_b_vert
0
POINT
5
15B
100
AcDbEntity
8
Defpoints
62
0
6
ByLayer
370
-1
48
1
60
0
100
AcDbPoint
10
67
20
-7.1
30
0
39
0
210
0
220
0
230
1
50
360
0
POINT
5
15C
100
AcDbEntity
8
Defpoints
62
0
6
ByLayer
370
-1
48
1
60
0
100
AcDbPoint
10
2
20
-7.1
30
0
39
0
210
0
220
0
230
1
50
360
0
POINT
5
15D
100
AcDbEntity
8
Defpoints
62
0
6
ByLayer
370
-1
48
1
60
0
100
AcDbPoint
10
2
20
-36.763776
30
0
39
0
210
0
220
0
230
1
50
360
0
ENDBLK
5
154
100
AcDbEntity
8
0
100
AcDbBlockEnd
0
BLOCK
5
165
100
AcDbEntity
8
0
100
AcDbBlockBegin
2
_U1
70
0
10
0
20
0
30
0
3
_U1
0
MTEXT
5
15F
100
AcDbEntity
8
SK2
62
256
6
ByLayer
370
18
48
1
60
0
100
AcDbMText
10
32.867172
20
-35.878661
30
0
210
0
220
0
230
1
1
\W0.6740;65
40
3
41
0
44
1.084337
50
0
71
7
72
5
7
iso_b_vert
0
LINE
5
160
100
AcDbEntity
8
SK2
62
256
6
ByLayer
370
13
48
1
60
0
100
AcDbLine
10
67
20
-8.6875
30
0
11
67
21
-38.763776
31
0
39
0
210
0
220
0
230
1
0
LINE
5
161
100
AcDbEntity
8
SK2
62
256
6
ByLayer
370
13
48
1
60
0
100
AcDbLine
10
2
20
-8.6875
30
0
11
2
21
-38.763776
31
0
39
0
210
0
220
0
230
1
0
LINE
5
162
100
AcDbEntity
8
SK2
62
256
6
ByLayer
370
13
48
1
60
0
100
AcDbLine
10
67
20
-36.763776
30
0
11
2
21
-36.763776
31
0
39
0
210
0
220
0
230
1
0
SOLID
5
163
100
AcDbEntity
8
SK2
62
256
6
ByLayer
370
18
48
1
60
0
100
AcDbTrace
10
67
20
-36.763776
30
0
11
63.500002
21
-37.224559
31
0
12
63.499998
22
-36.302992
32
0
13
63.499998
23
-36.302992
33
0
39
0
210
0
220
0
230
1
0
SOLID
5
164
100
AcDbEntity
8
SK2
62
256
6
ByLayer
370
18
48
1
60
0
100
AcDbTrace
10
2
20
-36.763776
30
0
11
5.499998
21
-36.302992
31
0
12
5.500002
22
-37.224559
32
0
13
5.500002
23
-37.224559
33
0
39
0
210
0
220
0
230
1
0
ENDBLK
5
166
100
AcDbEntity
8
0
100
AcDbBlockEnd
0
BLOCK
5
16B
100
AcDbEntity
8
0
100
AcDbBlockBegin
2
*D5
70
1
10
0
20
0
30
0
3
*D5
0
LINE
5
16D
100
AcDbEntity
8
0
62
256
6
ByLayer
370
-2
48
1
60
0
100
AcDbLine
10
-48
20
-9.5875
30
0
11
-48
21
-46.763776
31
0
39
0
210
0
220
0
230
1
0
LINE
5
16E
100
AcDbEntity
8
0
62
256
6
ByLayer
370
-2
48
1
60
0
100
AcDbLine
10
0
20
-9.5875
30
0
11
0
21
-46.763776
31
0
39
0
210
0
220
0
230
1
0
LINE
5
16F
100
AcDbEntity
8
0
62
256
6
ByLayer
370
-2
48
1
60
0
100
AcDbLine
10
-44.5
20
-44.763776
30
0
11
-3.5
21
-44.763776
31
0
39
0
210
0
220
0
230
1
0
SOLID
5
170
100
AcDbEntity
8
0
62
256
6
ByLayer
370
-1
48
1
60
0
100
AcDbTrace
10
-44.5
20
-44.180442
30
0
11
-44.5
21
-45.347109
31
0
12
-48
22
-44.763776
32
0
13
-48
23
-44.763776
33
0
39
0
210
0
220
0
230
1
0
SOLID
5
171
100
AcDbEntity
8
0
62
256
6
ByLayer
370
-1
48
1
60
0
100
AcDbTrace
10
-3.5
20
-45.347109
30
0
11
-3.5
21
-44.180442
31
0
12
0
22
-44.763776
32
0
13
0
23
-44.763776
33
0
39
0
210
0
220
0
230
1
0
MTEXT
5
172
100
AcDbEntity
8
0
62
256
6
ByLayer
370
18
48
1
60
0
100
AcDbMText
10
-24
20
-38.763776
30
0
210
0
220
0
230
1
1
\A1;48
40
3
41
0
44
1
50
0
71
5
72
5
7
iso_b_vert
0
POINT
5
173
100
AcDbEntity
8
Defpoints
62
0
6
ByLayer
370
-1
48
1
60
0
100
AcDbPoint
10
-48
20
-8
30
0
39
0
210
0
220
0
230
1
50
360
0
POINT
5
174
100
AcDbEntity
8
Defpoints
62
0
6
ByLayer
370
-1
48
1
60
0
100
AcDbPoint
10
0
20
-8
30
0
39
0
210
0
220
0
230
1
50
360
0
POINT
5
175
100
AcDbEntity
8
Defpoints
62
0
6
ByLayer
370
-1
48
1
60
0
100
AcDbPoint
10
0
20
-44.763776
30
0
39
0
210
0
220
0
230
1
50
360
0
ENDBLK
5
16C
100
AcDbEntity
8
0
100
AcDbBlockEnd
0
BLOCK
5
17D
100
AcDbEntity
8
0
100
AcDbBlockBegin
2
_U2
70
0
10
0
20
0
30
0
3
_U2
0
MTEXT
5
177
100
AcDbEntity
8
SK2
62
256
6
ByLayer
370
18
48
1
60
0
100
AcDbMText
10
-25.790771
20
-43.878661
30
0
210
0
220
0
230
1
1
\W0.7361;48
40
3
41
0
44
1.084337
50
0
71
7
72
5
7
iso_b_vert
0
LINE
5
178
100
AcDbEntity
8
SK2
62
256
6
ByLayer
370
13
48
1
60
0
100
AcDbLine
10
-48
20
-9.5875
30
0
11
-48
21
-46.763776
31
0
39
0
210
0
220
0
230
1
0
LINE
5
179
100
AcDbEntity
8
SK2
62
256
6
ByLayer
370
13
48
1
60
0
100
AcDbLine
10
0
20
-9.5875
30
0
11
0
21
-46.763776
31
0
39
0
210
0
220
0
230
1
0
LINE
5
17A
100
AcDbEntity
8
SK2
62
256
6
ByLayer
370
13
48
1
60
0
100
AcDbLine
10
-48
20
-44.763776
30
0
11
0
21
-44.763776
31
0
39
0
210
0
220
0
230
1
0
SOLID
5
17B
100
AcDbEntity
8
SK2
62
256
6
ByLayer
370
18
48
1
60
0
100
AcDbTrace
10
-48
20
-44.763776
30
0
11
-44.500002
21
-44.302992
31
0
12
-44.499998
22
-45.224559
32
0
13
-44.499998
23
-45.224559
33
0
39
0
210
0
220
0
230
1
0
SOLID
5
17C
100
AcDbEntity
8
SK2
62
256
6
ByLayer
370
18
48
1
60
0
100
AcDbTrace
10
0
20
-44.763776
30
0
11
-3.499998
21
-45.224559
31
0
12
-3.500002
22
-44.302992
32
0
13
-3.500002
23
-44.302992
33
0
39
0
210
0
220
0
230
1
0
ENDBLK
5
17E
100
AcDbEntity
8
0
100
AcDbBlockEnd
0
BLOCK
5
183
100
AcDbEntity
8
0
100
AcDbBlockBegin
2
*D7
70
1
10
0
20
0
30
0
3
*D7
0
LINE
5
185
100
AcDbEntity
8
0
62
256
6
ByLayer
370
-2
48
1
60
0
100
AcDbLine
10
-48
20
-9.5875
30
0
11
-48
21
-54.763776
31
0
39
0
210
0
220
0
230
1
0
LINE
5
186
100
AcDbEntity
8
0
62
256
6
ByLayer
370
-2
48
1
60
0
100
AcDbLine
10
67
20
-8.6875
30
0
11
67
21
-54.763776
31
0
39
0
210
0
220
0
230
1
0
LINE
5
187
100
AcDbEntity
8
0
62
256
6
ByLayer
370
-2
48
1
60
0
100
AcDbLine
10
-44.5
20
-52.763776
30
0
11
63.5
21
-52.763776
31
0
39
0
210
0
220
0
230
1
0
SOLID
5
188
100
AcDbEntity
8
0
62
256
6
ByLayer
370
-1
48
1
60
0
100
AcDbTrace
10
-44.5
20
-52.180442
30
0
11
-44.5
21
-53.347109
31
0
12
-48
22
-52.763776
32
0
13
-48
23
-52.763776
33
0
39
0
210
0
220
0
230
1
0
SOLID
5
189
100
AcDbEntity
8
0
62
256
6
ByLayer
370
-1
48
1
60
0
100
AcDbTrace
10
63.5
20
-53.347109
30
0
11
63.5
21
-52.180442
31
0
12
67
22
-52.763776
32
0
13
67
23
-52.763776
33
0
39
0
210
0
220
0
230
1
0
MTEXT
5
18A
100
AcDbEntity
8
0
62
256
6
ByLayer
370
18
48
1
60
0
100
AcDbMText
10
9.5
20
-46.763776
30
0
210
0
220
0
230
1
1
\A1;115
40
3
41
0
44
1
50
0
71
5
72
5
7
iso_b_vert
0
POINT
5
18B
100
AcDbEntity
8
Defpoints
62
0
6
ByLayer
370
-1
48
1
60
0
100
AcDbPoint
10
-48
20
-8
30
0
39
0
210
0
220
0
230
1
50
360
0
POINT
5
18C
100
AcDbEntity
8
Defpoints
62
0
6
ByLayer
370
-1
48
1
60
0
100
AcDbPoint
10
67
20
-7.1
30
0
39
0
210
0
220
0
230
1
50
360
0
POINT
5
18D
100
AcDbEntity
8
Defpoints
62
0
6
ByLayer
370
-1
48
1
60
0
100
AcDbPoint
10
67
20
-52.763776
30
0
39
0
210
0
220
0
230
1
50
360
0
ENDBLK
5
184
100
AcDbEntity
8
0
100
AcDbBlockEnd
0
BLOCK
5
195
100
AcDbEntity
8
0
100
AcDbBlockBegin
2
_U3
70
0
10
0
20
0
30
0
3
_U3
0
MTEXT
5
18F
100
AcDbEntity
8
SK2
62
256
6
ByLayer
370
18
48
1
60
0
100
AcDbMText
10
7.496143
20
-51.878661
30
0
210
0
220
0
230
1
1
\W0.5296;115
40
3
41
0
44
1.084337
50
0
71
7
72
5
7
iso_b_vert
0
LINE
5
190
100
AcDbEntity
8
SK2
62
256
6
ByLayer
370
13
48
1
60
0
100
AcDbLine
10
-48
20
-9.5875
30
0
11
-48
21
-54.763776
31
0
39
0
210
0
220
0
230
1
0
LINE
5
191
100
AcDbEntity
8
SK2
62
256
6
ByLayer
370
13
48
1
60
0
100
AcDbLine
10
67
20
-8.6875
30
0
11
67
21
-54.763776
31
0
39
0
210
0
220
0
230
1
0
LINE
5
192
100
AcDbEntity
8
SK2
62
256
6
ByLayer
370
13
48
1
60
0
100
AcDbLine
10
-48
20
-52.763776
30
0
11
67
21
-52.763776
31
0
39
0
210
0
220
0
230
1
0
SOLID
5
193
100
AcDbEntity
8
SK2
62
256
6
ByLayer
370
18
48
1
60
0
100
AcDbTrace
10
-48
20
-52.763776
30
0
11
-44.500002
21
-52.302992
31
0
12
-44.499998
22
-53.224559
32
0
13
-44.499998
23
-53.224559
33
0
39
0
210
0
220
0
230
1
0
SOLID
5
194
100
AcDbEntity
8
SK2
62
256
6
ByLayer
370
18
48
1
60
0
100
AcDbTrace
10
67
20
-52.763776
30
0
11
63.500002
21
-53.224559
31
0
12
63.499998
22
-52.302992
32
0
13
63.499998
23
-52.302992
33
0
39
0
210
0
220
0
230
1
0
ENDBLK
5
196
100
AcDbEntity
8
0
100
AcDbBlockEnd
0
BLOCK
5
19B
100
AcDbEntity
8
0
100
AcDbBlockBegin
2
*D9
70
1
10
0
20
0
30
0
3
*D9
0
LINE
5
19D
100
AcDbEntity
8
0
62
256
6
ByLayer
370
-2
48
1
60
0
100
AcDbLine
10
67
20
-8.6875
30
0
11
67
21
-46.763776
31
0
39
0
210
0
220
0
230
1
0
LINE
5
19E
100
AcDbEntity
8
0
62
256
6
ByLayer
370
-2
48
1
60
0
100
AcDbLine
10
0
20
-8.6875
30
0
11
0
21
-46.763776
31
0
39
0
210
0
220
0
230
1
0
LINE
5
19F
100
AcDbEntity
8
0
62
256
6
ByLayer
370
-2
48
1
60
0
100
AcDbLine
10
63.5
20
-44.763776
30
0
11
3.5
21
-44.763776
31
0
39
0
210
0
220
0
230
1
0
SOLID
5
1A0
100
AcDbEntity
8
0
62
256
6
ByLayer
370
-1
48
1
60
0
100
AcDbTrace
10
63.5
20
-45.347109
30
0
11
63.5
21
-44.180442
31
0
12
67
22
-44.763776
32
0
13
67
23
-44.763776
33
0
39
0
210
0
220
0
230
1
0
SOLID
5
1A1
100
AcDbEntity
8
0
62
256
6
ByLayer
370
-1
48
1
60
0
100
AcDbTrace
10
3.5
20
-44.180442
30
0
11
3.5
21
-45.347109
31
0
12
0
22
-44.763776
32
0
13
0
23
-44.763776
33
0
39
0
210
0
220
0
230
1
0
MTEXT
5
1A2
100
AcDbEntity
8
0
62
256
6
ByLayer
370
18
48
1
60
0
100
AcDbMText
10
33.5
20
-38.763776
30
0
210
0
220
0
230
1
1
\A1;67
40
3
41
0
44
1
50
0
71
5
72
5
7
iso_b_vert
0
POINT
5
1A3
100
AcDbEntity
8
Defpoints
62
0
6
ByLayer
370
-1
48
1
60
0
100
AcDbPoint
10
67
20
-7.1
30
0
39
0
210
0
220
0
230
1
50
360
0
POINT
5
1A4
100
AcDbEntity
8
Defpoints
62
0
6
ByLayer
370
-1
48
1
60
0
100
AcDbPoint
10
0
20
-7.1
30
0
39
0
210
0
220
0
230
1
50
360
0
POINT
5
1A5
100
AcDbEntity
8
Defpoints
62
0
6
ByLayer
370
-1
48
1
60
0
100
AcDbPoint
10
0
20
-44.763776
30
0
39
0
210
0
220
0
230
1
50
360
0
ENDBLK
5
19C
100
AcDbEntity
8
0
100
AcDbBlockEnd
0
BLOCK
5
1AD
100
AcDbEntity
8
0
100
AcDbBlockBegin
2
_U4
70
0
10
0
20
0
30
0
3
_U4
0
MTEXT
5
1A7
100
AcDbEntity
8
2
62
256
6
ByLayer
370
18
48
1
60
0
100
AcDbMText
10
31.867172
20
-43.878661
30
0
210
0
220
0
230
1
1
\W0.6740;67
40
3
41
0
44
1.084337
50
0
71
7
72
5
7
iso_b_vert
0
LINE
5
1A8
100
AcDbEntity
8
2
62
256
6
ByLayer
370
13
48
1
60
0
100
AcDbLine
10
67
20
-8.6875
30
0
11
67
21
-46.763776
31
0
39
0
210
0
220
0
230
1
0
LINE
5
1A9
100
AcDbEntity
8
2
62
256
6
ByLayer
370
13
48
1
60
0
100
AcDbLine
10
0
20
-8.6875
30
0
11
0
21
-46.763776
31
0
39
0
210
0
220
0
230
1
0
LINE
5
1AA
100
AcDbEntity
8
2
62
256
6
ByLayer
370
13
48
1
60
0
100
AcDbLine
10
67
20
-44.763776
30
0
11
0
21
-44.763776
31
0
39
0
210
0
220
0
230
1
0
SOLID
5
1AB
100
AcDbEntity
8
2
62
256
6
ByLayer
370
18
48
1
60
0
100
AcDbTrace
10
67
20
-44.763776
30
0
11
63.500002
21
-45.224559
31
0
12
63.499998
22
-44.302992
32
0
13
63.499998
23
-44.302992
33
0
39
0
210
0
220
0
230
1
0
SOLID
5
1AC
100
AcDbEntity
8
2
62
256
6
ByLayer
370
18
48
1
60
0
100
AcDbTrace
10
0
20
-44.763776
30
0
11
3.499998
21
-44.302992
31
0
12
3.500002
22
-45.224559
32
0
13
3.500002
23
-45.224559
33
0
39
0
210
0
220
0
230
1
0
ENDBLK
5
1AE
100
AcDbEntity
8
0
100
AcDbBlockEnd
0
ENDSEC
0
SECTION
2
ENTITIES
0
ARC
5
BE
100
AcDbEntity
8
1
62
256
6
ByLayer
370
18
48
1
60
0
100
AcDbCircle
39
0
10
1.48854
20
-7.786727
30
0
40
0.800000000000006
210
0
220
0
230
1
100
AcDbArc
50
89.896868
51
158.487497
0
ARC
5
BF
100
AcDbEntity
8
1
62
256
6
ByLayer
370
18
48
1
60
0
100
AcDbCircle
39
0
10
1.48854
20
7.786727
30
0
40
0.800000000000006
210
0
220
0
230
1
100
AcDbArc
50
201.512503
51
270.103132
0
ARC
5
C0
100
AcDbEntity
8
1
62
256
6
ByLayer
370
18
48
1
60
0
100
AcDbCircle
39
0
10
0
20
-7.2
30
0
40
0.799999999999994
210
0
220
0
230
1
100
AcDbArc
50
270
51
338.487497
0
ARC
5
C1
100
AcDbEntity
8
1
62
256
6
ByLayer
370
18
48
1
60
0
100
AcDbCircle
39
0
10
0
20
7.2
30
0
40
0.799999999999994
210
0
220
0
230
1
100
AcDbArc
50
21.512503
51
90
0
ARC
5
C2
100
AcDbEntity
8
SK2
62
256
6
ByLayer
370
13
48
1
60
0
100
AcDbCircle
39
0
10
67
20
0
30
0
40
23.4807226856617
210
0
220
0
230
1
100
AcDbArc
50
7.340423
51
70.001344
0
ARC
5
C3
100
AcDbEntity
8
SK2
62
256
6
ByLayer
370
13
48
1
60
0
100
AcDbCircle
39
0
10
67
20
0
30
0
40
23.4807226856617
210
0
220
0
230
1
100
AcDbArc
50
289.998656
51
352.659577
0
ELLIPSE
5
C4
100
AcDbEntity
8
1
62
256
6
ByLayer
370
13
48
1
60
0
100
AcDbEllipse
10
21.960315
20
-6.767521
30
0
11
-0.00424151785793341
21
0.00905591112262217
31
0
210
0
220
0
230
1
40
0.417289
41
0.0398354103199706
42
1.41573588385554
0
ELLIPSE
5
C5
100
AcDbEntity
8
1
62
256
6
ByLayer
370
13
48
1
60
0
100
AcDbEllipse
10
22.000033
20
-6.75915
30
0
11
-0.000206856005434348
21
-0.00999786030073514
31
0
210
0
220
0
230
1
40
0.437986
41
-3.09995839816913
42
-1.52932458973056
0
POINT
5
70
100
AcDbEntity
8
81
62
256
6
ByLayer
370
18
48
1
60
0
100
AcDbPoint
10
67
20
0
30
0
39
0
210
0
220
0
230
1
50
360
0
POINT
5
72
100
AcDbEntity
8
80
62
256
6
ByLayer
370
18
48
1
60
0
100
AcDbPoint
10
0
20
0
30
0
39
0
210
0
220
0
230
1
50
360
0
POINT
5
74
100
AcDbEntity
8
1
62
256
6
ByLayer
370
18
48
1
60
0
100
AcDbPoint
10
-206.934639
20
-200
30
0
39
0
210
0
220
0
230
1
50
360
0
POINT
5
76
100
AcDbEntity
8
1
62
256
6
ByLayer
370
13
48
1
60
1
100
AcDbPoint
10
-49.5
20
0
30
0
39
0
210
0
220
0
230
1
50
360
0
POINT
5
77
100
AcDbEntity
8
1
62
256
6
ByLayer
370
13
48
1
60
1
100
AcDbPoint
10
65.90439
20
0
30
0
39
0
210
0
220
0
230
1
50
360
0
POINT
5
78
100
AcDbEntity
8
1
62
256
6
ByLayer
370
18
48
1
60
1
100
AcDbPoint
10
67
20
-7.1
30
0
39
0
210
0
220
0
230
1
50
360
0
POINT
5
79
100
AcDbEntity
8
1
62
256
6
ByLayer
370
18
48
1
60
1
100
AcDbPoint
10
21.9
20
-7.1
30
0
39
0
210
0
220
0
230
1
50
360
0
POINT
5
7A
100
AcDbEntity
8
1
62
256
6
ByLayer
370
18
48
1
60
1
100
AcDbPoint
10
67
20
-7.1
30
0
39
0
210
0
220
0
230
1
50
360
0
POINT
5
7B
100
AcDbEntity
8
1
62
256
6
ByLayer
370
18
48
1
60
1
100
AcDbPoint
10
2
20
-7.1
30
0
39
0
210
0
220
0
230
1
50
360
0
POINT
5
7C
100
AcDbEntity
8
1
62
256
6
ByLayer
370
18
48
1
60
1
100
AcDbPoint
10
-48
20
-8
30
0
39
0
210
0
220
0
230
1
50
360
0
POINT
5
7D
100
AcDbEntity
8
1
62
256
6
ByLayer
370
18
48
1
60
1
100
AcDbPoint
10
0
20
-8
30
0
39
0
210
0
220
0
230
1
50
360
0
POINT
5
7E
100
AcDbEntity
8
1
62
256
6
ByLayer
370
18
48
1
60
1
100
AcDbPoint
10
-48
20
-8
30
0
39
0
210
0
220
0
230
1
50
360
0
POINT
5
7F
100
AcDbEntity
8
1
62
256
6
ByLayer
370
18
48
1
60
1
100
AcDbPoint
10
67
20
-7.1
30
0
39
0
210
0
220
0
230
1
50
360
0
POINT
5
80
100
AcDbEntity
8
1
62
256
6
ByLayer
370
18
48
1
60
1
100
AcDbPoint
10
67
20
-7.1
30
0
39
0
210
0
220
0
230
1
50
360
0
POINT
5
81
100
AcDbEntity
8
1
62
256
6
ByLayer
370
18
48
1
60
1
100
AcDbPoint
10
0
20
-7.1
30
0
39
0
210
0
220
0
230
1
50
360
0
SPLINE
5
C6
100
AcDbEntity
8
1
62
256
6
ByLayer
370
18
48
1
60
0
100
AcDbSpline
70
4
71
3
72
8
73
4
40
0
40
0
40
0
40
0
40
1
40
1
40
1
40
1
41
1
10
-2.84E-14
20
-7.46623108240925
30
0
41
1
10
-2.84E-14
20
-7.54126335474851
30
0
41
1
10
0
20
-7.61779073164169
30
0
41
1
10
0
20
-7.69581758258326
30
0
0
SPLINE
5
C7
100
AcDbEntity
8
1
62
256
6
ByLayer
370
18
48
1
60
0
100
AcDbSpline
70
4
71
3
72
20
73
16
40
0
40
0
40
0
40
0
40
0.500000000000051
40
0.750000000000048
40
0.875000000000047
40
0.937500000000021
40
0.968750000000033
40
0.968750000000033
40
0.984375000000042
40
0.984375000000042
40
0.992187500000046
40
0.992187500000046
40
0.996093750000023
40
0.996093750000023
40
1
40
1
40
1
40
1
41
1
10
64.2999360802332
20
7.09966819095172
30
0
41
1
10
64.3299999263483
20
7.05065871987961
30
0
41
1
10
64.375115448245
20
6.97688683024666
30
0
41
1
10
64.4277839311185
20
6.89037468038262
30
0
41
1
10
64.4541262002851
20
6.84700857172191
30
0
41
1
10
64.4672993236626
20
6.82529810821339
30
0
41
1
10
64.4729453697952
20
6.81598776490736
30
0
41
1
10
64.4757684627129
20
6.81133161811721
30
0
41
1
10
64.4767089209457
20
6.80978066936947
30
0
41
1
10
64.478124254212
20
6.80744401935087
30
0
41
1
10
64.4785968494378
20
6.80666333803634
30
0
41
1
10
64.4793076220895
20
6.8054881844867
30
0
41
1
10
64.4795480648541
20
6.80508908446328
30
0
41
1
10
64.4800122459203
20
6.80432580773262
30
0
41
1
10
64.4802488052931
20
6.80394543991741
30
0
41
1
10
64.4803210836656
20
6.80386292997903
30
0
0
SPLINE
5
C8
100
AcDbEntity
8
1
62
256
6
ByLayer
370
18
48
1
60
0
100
AcDbSpline
70
4
71
3
72
18
73
14
40
0
40
0
40
0
40
0
40
0.249999999999943
40
0.249999999999943
40
0.374999999999911
40
0.374999999999911
40
0.499999999999878
40
0.499999999999878
40
0.749999999999933
40
0.749999999999933
40
0.874999999999967
40
0.874999999999967
40
1
40
1
40
1
40
1
41
1
10
21.9559263296387
20
-6.76787063268006
30
0
41
1
10
21.9461709364397
20
-6.77196430383384
30
0
41
1
10
21.9379205964678
20
-6.77705497636506
30
0
41
1
10
21.9272259918062
20
-6.78579841186033
30
0
41
1
10
21.9239871109861
20
-6.7888779077154
30
0
41
1
10
21.9181998491842
20
-6.79520004850102
30
0
41
1
10
21.9156286540452
20
-6.79846191837314
30
0
41
1
10
21.9087894311259
20
-6.80851970025626
30
0
41
1
10
21.9053839374422
20
-6.81564249712076
30
0
41
1
10
21.9020375913516
20
-6.82639009798626
30
0
41
1
10
21.9012057007649
20
-6.82999878483534
30
0
41
1
10
21.9000929206996
20
-6.83726672231882
30
0
41
1
10
21.8998128125205
20
-6.84095672409214
30
0
41
1
10
21.8998128125205
20
-6.84459611454554
30
0
0
SPLINE
5
C9
100
AcDbEntity
8
1
62
256
6
ByLayer
370
18
48
1
60
0
100
AcDbSpline
70
4
71
3
72
8
73
4
40
0
40
0
40
0
40
0
40
1
40
1
40
1
40
1
41
1
10
66.294780416666
20
2.27741098196211
30
0
41
1
10
66.4790870149487
20
1.76154464034511
30
0
41
1
10
66.6618799435331
20
1.24514630642915
30
0
41
1
10
66.8431290735728
20
0.728205391170746
30
0
0
SPLINE
5
CA
100
AcDbEntity
8
1
62
256
6
ByLayer
370
18
48
1
60
0
100
AcDbSpline
70
4
71
3
72
10
73
6
40
0
40
0
40
0
40
0
40
0.5
40
0.5
40
1
40
1
40
1
40
1
41
1
10
21.9956488249471
20
-6.7594740542641
30
0
41
1
10
21.9887877144417
20
-6.75933662455216
30
0
41
1
10
21.9820416065391
20
-6.75997309355819
30
0
41
1
10
21.9687761712832
20
-6.7627542228453
30
0
41
1
10
21.9622098671378
20
-6.76492426636764
30
0
41
1
10
21.9559263296387
20
-6.76787063268006
30
0
0
SPLINE
5
CB
100
AcDbEntity
8
1
62
256
6
ByLayer
370
13
48
1
60
0
100
AcDbSpline
70
4
71
3
72
8
73
4
40
0
40
0
40
0
40
0
40
1
40
1
40
1
40
1
41
1
10
21.9546049943795
20
-7.01818385467692
30
0
41
1
10
21.9550406012804
20
-6.9347463242209
30
0
41
1
10
21.955481047218
20
-6.85130858660997
30
0
41
1
10
21.9559263296387
20
-6.76787063268006
30
0
0
SPLINE
5
CC
100
AcDbEntity
8
1
62
256
6
ByLayer
370
18
48
1
60
0
100
AcDbSpline
70
4
71
3
72
8
73
4
40
0
40
0
40
0
40
0
40
1
40
1
40
1
40
1
41
1
10
22.5596554266937
20
-6.76507850355057
30
0
41
1
10
22.3718076433478
20
-6.76510426619998
30
0
41
1
10
22.1837081254609
20
-6.76324092778671
30
0
41
1
10
21.9956488249471
20
-6.7594740542641
30
0
0
SPLINE
5
CD
100
AcDbEntity
8
1
62
256
6
ByLayer
370
18
48
1
60
0
100
AcDbSpline
70
4
71
3
72
8
73
4
40
0
40
0
40
0
40
0
40
1
40
1
40
1
40
1
41
1
10
66.8431290735729
20
0.728205391170746
30
0
41
1
10
66.8935072654152
20
0.584521674761561
30
0
41
1
10
66.9448782251363
20
0.441389437825364
30
0
41
1
10
66.9972397767667
20
0.298789069000264
30
0
0
SPLINE
5
CE
100
AcDbEntity
8
1
62
256
6
ByLayer
370
18
48
1
60
0
100
AcDbSpline
70
4
71
3
72
8
73
4
40
0
40
0
40
0
40
0
40
1
40
1
40
1
40
1
41
1
10
22.0000569748511
20
-6.74915709927649
30
0
41
1
10
22.1800618413944
20
-6.75287649940643
30
0
41
1
10
22.3598367003002
20
-6.75485451046976
30
0
41
1
10
22.5394068168167
20
-6.7551083544634
30
0
0
SPLINE
5
CF
100
AcDbEntity
8
1
62
256
6
ByLayer
370
18
48
1
60
0
100
AcDbSpline
70
4
71
3
72
18
73
14
40
0
40
0
40
0
40
0
40
0.249999999999936
40
0.249999999999936
40
0.374999999999909
40
0.374999999999909
40
0.499999999999882
40
0.499999999999882
40
0.749999999999947
40
0.749999999999947
40
0.874999999999974
40
0.874999999999974
40
1
40
1
40
1
40
1
41
1
10
21.9559263296387
20
-6.7585422851931
30
0
41
1
10
21.9461712416376
20
-6.76313067063253
30
0
41
1
10
21.9379203318783
20
-6.76883742602385
30
0
41
1
10
21.9272249093548
20
-6.77864117261686
30
0
41
1
10
21.9239857994245
20
-6.78209438344368
30
0
41
1
10
21.9181982606924
20
-6.78918424176379
30
0
41
1
10
21.9156270036841
20
-6.79284245569443
30
0
41
1
10
21.9087877999232
20
-6.80412310078964
30
0
41
1
10
21.9053826322199
20
-6.81211293795869
30
0
41
1
10
21.9020369187331
20
-6.8241698628365
30
0
41
1
10
21.9012052466277
20
-6.82821836821861
30
0
41
1
10
21.9000928026143
20
-6.83637248622341
30
0
41
1
10
21.8998128125205
20
-6.84051262160776
30
0
41
1
10
21.8998128125205
20
-6.84459611454562
30
0
0
SPLINE
5
D0
100
AcDbEntity
8
1
62
256
6
ByLayer
370
18
48
1
60
0
100
AcDbSpline
70
4
71
3
72
10
73
6
40
0
40
0
40
0
40
0
40
0.5
40
0.5
40
1
40
1
40
1
40
1
41
1
10
22.000056974851
20
-6.74915709927649
30
0
41
1
10
21.9924249525785
20
-6.74901330638386
30
0
41
1
10
21.9849256360012
20
-6.74973150135722
30
0
41
1
10
21.9701875589883
20
-6.75284240663117
30
0
41
1
10
21.9628951423855
20
-6.75526444711107
30
0
41
1
10
21.9559263296392
20
-6.75854228519276
30
0
0
SPLINE
5
D1
100
AcDbEntity
8
1
62
256
6
ByLayer
370
13
48
1
60
0
100
AcDbSpline
70
4
71
3
72
47
73
43
40
0
40
0
40
0
40
0
40
0.0577889209994599
40
0.12060299293283
40
0.12060299293283
40
0.152010028899514
40
0.167713546882857
40
0.167713546882857
40
0.183417064866199
40
0.183417064866199
40
0.246231136799568
40
0.246231136799568
40
0.309045208732938
40
0.309045208732938
40
0.371859280666307
40
0.434673352599676
40
0.434673352599676
40
0.466080388566361
40
0.481783906549703
40
0.481783906549703
40
0.497487424533045
40
0.497487424533045
40
0.560301496466415
40
0.623115568399784
40
0.623115568399784
40
0.638819086383127
40
0.638819086383127
40
0.654522604366469
40
0.685929640333154
40
0.685929640333154
40
0.748743712266524
40
0.748743712266524
40
0.764447230249866
40
0.764447230249866
40
0.780150748233208
40
0.780150748233208
40
0.811557784199893
40
0.811557784199893
40
0.874371856133262
40
0.937185928066631
40
0.937185928066631
40
1
40
1
40
1
40
1
41
1
10
22.0007127926767
20
-1.06836117960989
30
0
41
1
10
22.0007061547661
20
-1.24584104082155
30
0
41
1
10
22.0006907704591
20
-1.6121301188621
30
0
41
1
10
22.0006725677715
20
-1.97001893903374
30
0
41
1
10
22.0006573254063
20
-2.24619634259622
30
0
41
1
10
22.0006494483037
20
-2.38342806932084
30
0
41
1
10
22.0006412057084
20
-2.51936250237259
30
0
41
1
10
22.0006356311184
20
-2.6096950734327
30
0
41
1
10
22.0006328024611
20
-2.65474090597922
30
0
41
1
10
22.0006184969503
20
-2.87873428528491
30
0
41
1
10
22.0006065178979
20
-3.05427460442112
30
0
41
1
10
22.0005816262319
20
-3.39786657768789
30
0
41
1
10
22.0005688277517
20
-3.56435183813261
30
0
41
1
10
22.0005426395417
20
-3.88704064791781
30
0
41
1
10
22.0005158596355
20
-4.19944609723666
30
0
41
1
10
22.0004880260535
20
-4.49148898472134
30
0
41
1
10
22.00046677043
20
-4.70279222933766
30
0
41
1
10
22.0004560469973
20
-4.80650897231962
30
0
41
1
10
22.0004451780655
20
-4.90728098357465
30
0
41
1
10
22.0004378991978
20
-4.97380138853114
30
0
41
1
10
22.000434239765
20
-5.0067624361152
30
0
41
1
10
22.000415913983
20
-5.1694098801589
30
0
41
1
10
22.000386401656
20
-5.41599778345957
30
0
41
1
10
22.0003564247853
20
-5.63561701456436
30
0
41
1
10
22.0003374938768
20
-5.76436276748672
30
0
41
1
10
22.0003336951986
20
-5.78970225637096
30
0
41
1
10
22.0003260931047
20
-5.83941488375228
30
0
41
1
10
22.0003146816316
20
-5.91254462903342
30
0
41
1
10
22.0003032380458
20
-5.98138021737489
30
0
41
1
10
22.0002802864863
20
-6.11335770190223
30
0
41
1
10
22.0002649006471
20
-6.19376175875161
30
0
41
1
10
22.0002454755838
20
-6.28473561982935
30
0
41
1
10
22.0002415808507
20
-6.30245299374891
30
0
41
1
10
22.0002337694318
20
-6.3369281775885
30
0
41
1
10
22.0002298534059
20
-6.35368183458888
30
0
41
1
10
22.0002181115993
20
-6.40232379771524
30
0
41
1
10
22.0002102778777
20
-6.43265777206656
30
0
41
1
10
22.0001867285033
20
-6.51747636661847
30
0
41
1
10
22.0001552017996
20
-6.61410161583908
30
0
41
1
10
22.0001230721693
20
-6.67827479236331
30
0
41
1
10
22.0000904486055
20
-6.72609966620098
30
0
41
1
10
22.0000738900541
20
-6.74183921468116
30
0
41
1
10
22.0000569748511
20
-6.74915709927649
30
0
0
SPLINE
5
D2
100
AcDbEntity
8
1
62
256
6
ByLayer
370
18
48
1
60
0
100
AcDbSpline
70
4
71
3
72
10
73
6
40
0
40
0
40
0
40
0
40
0.5
40
0.5
40
1
40
1
40
1
40
1
41
1
10
66.294780416673
20
2.27741098196452
30
0
41
1
10
66.1429061354833
20
2.26094132137257
30
0
41
1
10
65.9909015648489
20
2.24614668329517
30
0
41
1
10
65.6867135506296
20
2.2188570271903
30
0
41
1
10
65.5345315032455
20
2.20634405937631
30
0
41
1
10
65.3822922501768
20
2.19456653724421
30
0
0
SPLINE
5
D3
100
AcDbEntity
8
1
62
256
6
ByLayer
370
18
48
1
60
0
100
AcDbSpline
70
4
71
3
72
34
73
30
40
0
40
0
40
0
40
0
40
0.12500000000001
40
0.12500000000001
40
0.187500000000016
40
0.187500000000016
40
0.250000000000023
40
0.250000000000023
40
0.31250000000003
40
0.31250000000003
40
0.343750000000033
40
0.343750000000033
40
0.375000000000037
40
0.375000000000037
40
0.437500000000047
40
0.437500000000047
40
0.453125000000046
40
0.453125000000046
40
0.468750000000046
40
0.468750000000046
40
0.500000000000044
40
0.500000000000044
40
0.625000000000033
40
0.625000000000033
40
0.750000000000022
40
0.750000000000022
40
0.875000000000011
40
0.875000000000011
40
1
40
1
40
1
40
1
41
1
10
66.2947804166666
20
2.27741098196168
30
0
41
1
10
66.2115230026836
20
2.42933596953736
30
0
41
1
10
66.1311046447006
20
2.58656593771488
30
0
41
1
10
66.0141095950665
20
2.82985425776514
30
0
41
1
10
65.9756991294906
20
2.91214109488536
30
0
41
1
10
65.9000074092397
20
3.07919804931635
30
0
41
1
10
65.8627269633891
20
3.16397115827141
30
0
41
1
10
65.7892025201742
20
3.33599944150464
30
0
41
1
10
65.7529583170626
20
3.42325383917788
30
0
41
1
10
65.6992939723336
20
3.55599856494541
30
0
41
1
10
65.6815073103442
20
3.6005992182854
30
0
41
1
10
65.6463224757269
20
3.68999699269239
30
0
41
1
10
65.6289064453018
20
3.73483721250818
30
0
41
1
10
65.5771567898413
20
3.86976784962951
30
0
41
1
10
65.5433077673608
20
3.96030659577912
30
0
41
1
10
65.5018270912059
20
4.0738250987153
30
0
41
1
10
65.4935714824387
20
4.0965487904385
30
0
41
1
10
65.4771454700291
20
4.14201021675549
30
0
41
1
10
65.4689825638007
20
4.16475322737881
30
0
41
1
10
65.4445551758863
20
4.23299700868756
30
0
41
1
10
65.4282968784841
20
4.27849905881951
30
0
41
1
10
65.3471354644593
20
4.50603866131417
30
0
41
1
10
65.2826104123455
20
4.68819961651832
30
0
41
1
10
65.1543881373359
20
5.05248826957515
30
0
41
1
10
65.0906883295223
20
5.23458911620878
30
0
41
1
10
64.9640293883404
20
5.59861617138353
30
0
41
1
10
64.9010767226372
20
5.78054221597168
30
0
41
1
10
64.7757867868698
20
6.14411448211027
30
0
41
1
10
64.7135272418646
20
6.32553625038855
30
0
41
1
10
64.65156331451
20
6.50649629619207
30
0
0
SPLINE
5
D4
100
AcDbEntity
8
1
62
256
6
ByLayer
370
18
48
1
60
0
100
AcDbSpline
70
4
71
3
72
8
73
4
40
0
40
0
40
0
40
0
40
1
40
1
40
1
40
1
41
1
10
64.6515633145102
20
6.5064962961921
30
0
41
1
10
64.5944556712524
20
6.60562799809372
30
0
41
1
10
64.5373729632256
20
6.70475401021844
30
0
41
1
10
64.4803210836663
20
6.80386292997778
30
0
0
SPLINE
5
D5
100
AcDbEntity
8
1
62
256
6
ByLayer
370
18
48
1
60
0
100
AcDbSpline
70
4
71
3
72
29
73
25
40
0
40
0
40
0
40
0
40
0.0649814824347685
40
0.0649814824347685
40
0.129962964869537
40
0.129962964869537
40
0.259925929739073
40
0.259925929739073
40
0.38988889460861
40
0.38988889460861
40
0.519851859478146
40
0.519851859478146
40
0.552342600695531
40
0.552342600695531
40
0.584833341912916
40
0.649814824347683
40
0.649814824347683
40
0.779777789217219
40
0.779777789217219
40
0.909740754086755
40
0.909740754086755
40
0.974722236521521
40
0.974722236521521
40
1
40
1
40
1
40
1
41
1
10
64.4803210836662
20
6.80386292997756
30
0
41
1
10
64.2583938972048
20
6.80600141877954
30
0
41
1
10
64.0364357333642
20
6.80550852172806
30
0
41
1
10
63.5923485643563
20
6.79920322201318
30
0
41
1
10
63.3703680766071
20
6.7933953807061
30
0
41
1
10
62.7049833528794
20
6.76812661871728
30
0
41
1
10
62.2619276910057
20
6.74082910380562
30
0
41
1
10
61.3761097205283
20
6.6658842690141
30
0
41
1
10
60.933333957598
20
6.61820338131437
30
0
41
1
10
60.0472129001025
20
6.50275037053208
30
0
41
1
10
59.6038870623561
20
6.43504368485736
30
0
41
1
10
59.0489627612033
20
6.33810697044231
30
0
41
1
10
58.9379095440607
20
6.31809701046973
30
0
41
1
10
58.7159129643799
20
6.27688366600935
30
0
41
1
10
58.3830410924556
20
6.21326685821126
30
0
41
1
10
58.0504839330196
20
6.14429936687387
30
0
41
1
10
57.3856607195395
20
5.99931134406276
30
0
41
1
10
56.9428473170263
20
5.89324970807004
30
0
41
1
10
56.057181862806
20
5.66342439274155
30
0
41
1
10
55.6143098630751
20
5.53965458361324
30
0
41
1
10
54.9493331299653
20
5.34148595952155
30
0
41
1
10
54.7275610519114
20
5.27334988748754
30
0
41
1
10
54.4193334587856
20
5.1758556528896
30
0
41
1
10
54.3329835273124
20
5.14823949511876
30
0
41
1
10
54.2466204807595
20
5.12032154781807
30
0
0
SPLINE
5
D6
100
AcDbEntity
8
1
62
256
6
ByLayer
370
18
48
1
60
0
100
AcDbSpline
70
4
71
3
72
25
73
21
40
0
40
0
40
0
40
0
40
0.0028915308271504
40
0.0028915308271504
40
0.0693654287719988
40
0.202313224661713
40
0.202313224661713
40
0.335261020551427
40
0.335261020551427
40
0.468208816441141
40
0.468208816441141
40
0.534682714385998
40
0.534682714385998
40
0.601156612330855
40
0.601156612330855
40
0.73410440822057
40
0.73410440822057
40
0.867052204110285
40
0.867052204110285
40
1
40
1
40
1
40
1
41
1
10
64.2181363243043
20
1.46879089834422
30
0
41
1
10
64.2190321029865
20
1.46851736085659
30
0
41
1
10
64.2199283637417
20
1.46824291233841
30
0
41
1
10
64.2414411585549
20
1.46163598482735
30
0
41
1
10
64.3039056208956
20
1.44147657373148
30
0
41
1
10
64.3681020326557
20
1.41804409258197
30
0
41
1
10
64.4550764468347
20
1.38419434954375
30
0
41
1
10
64.4992746179801
20
1.36592588499903
30
0
41
1
10
64.5886817917329
20
1.32747866791266
30
0
41
1
10
64.6338673445393
20
1.30734423123835
30
0
41
1
10
64.7022795851393
20
1.27594459875442
30
0
41
1
10
64.7252158778983
20
1.26525823377264
30
0
41
1
10
64.7711842810228
20
1.2435219024124
30
0
41
1
10
64.7942171916633
20
1.23247098913663
30
0
41
1
10
64.8634566924993
20
1.19879010996812
30
0
41
1
10
64.9098015637436
20
1.17564133875078
30
0
41
1
10
65.0028134936262
20
1.12813500786194
30
0
41
1
10
65.04947670827
20
1.10379187015795
30
0
41
1
10
65.143162074101
20
1.05375893017671
30
0
41
1
10
65.1901881729274
20
1.02805431707529
30
0
41
1
10
65.2373964604839
20
1.00166616502312
30
0
0
SPLINE
5
D7
100
AcDbEntity
8
1
62
256
6
ByLayer
370
18
48
1
60
0
100
AcDbSpline
70
4
71
3
72
34
73
30
40
0
40
0
40
0
40
0
40
0.139203075084811
40
0.139203075084811
40
0.278406150169621
40
0.278406150169621
40
0.313206918940818
40
0.313206918940818
40
0.348007687712016
40
0.348007687712016
40
0.417609225254432
40
0.417609225254432
40
0.556812300339285
40
0.556812300339285
40
0.626413837881702
40
0.626413837881702
40
0.66121460665292
40
0.66121460665292
40
0.696015375424137
40
0.696015375424137
40
0.835218450509026
40
0.835218450509026
40
0.904819988051471
40
0.904819988051471
40
0.939620756822693
40
0.939620756822693
40
0.974421525593915
40
0.974421525593915
40
1
40
1
40
1
40
1
41
1
10
65.3822922501768
20
2.19456653724421
30
0
41
1
10
65.298935972889
20
2.18811793492375
30
0
41
1
10
65.2165052395843
20
2.17725857912481
30
0
41
1
10
65.05352229622
20
2.14662594123703
30
0
41
1
10
64.9729697741779
20
2.12685412958948
30
0
41
1
10
64.8734131712546
20
2.09679462147201
30
0
41
1
10
64.8535584547956
20
2.09051598910617
30
0
41
1
10
64.8139606565646
20
2.07743383310756
30
0
41
1
10
64.7942273346494
20
2.07063200503953
30
0
41
1
10
64.7357119191213
20
2.0496524061638
30
0
41
1
10
64.6974384893013
20
2.03484352613489
30
0
41
1
10
64.5846980879943
20
1.98831638792029
30
0
41
1
10
64.5123104515286
20
1.95449613514589
30
0
41
1
10
64.4073148148328
20
1.9011749995484
30
0
41
1
10
64.3729146944659
20
1.88296838818027
30
0
41
1
10
64.3221550082844
20
1.85519002546641
30
0
41
1
10
64.3053435650133
20
1.84583419343949
30
0
41
1
10
64.2721994874913
20
1.82711298629579
30
0
41
1
10
64.2558589606081
20
1.8177440108999
30
0
41
1
10
64.1752606021395
20
1.77092996762656
30
0
41
1
10
64.1142950131095
20
1.73359294702277
30
0
41
1
10
64.0273514864309
20
1.67894415046078
30
0
41
1
10
63.9991275092125
20
1.66094770526667
30
0
41
1
10
63.9578557074357
20
1.63442424120103
30
0
41
1
10
63.9442743504878
20
1.62566384726733
30
0
41
1
10
63.9174363067673
20
1.60835120562885
30
0
41
1
10
63.9041564240152
20
1.59978450559314
30
0
41
1
10
63.8815009187997
20
1.58519501113784
30
0
41
1
10
63.8720253505427
20
1.57910060117399
30
0
41
1
10
63.8626692997125
20
1.57309408620461
30
0
0
SPLINE
5
D8
100
AcDbEntity
8
1
62
256
6
ByLayer
370
18
48
1
60
0
100
AcDbSpline
70
4
71
3
72
8
73
4
40
0
40
0
40
0
40
0
40
1
40
1
40
1
40
1
41
1
10
64.65156331451
20
-6.50649629619227
30
0
41
1
10
64.5944556712519
20
-6.60562799809466
30
0
41
1
10
64.5373729632245
20
-6.70475401022014
30
0
41
1
10
64.4803210836649
20
-6.80386292998026
30
0
0
SPLINE
5
D9
100
AcDbEntity
8
1
62
256
6
ByLayer
370
18
48
1
60
0
100
AcDbSpline
70
4
71
3
72
8
73
4
40
0
40
0
40
0
40
0
40
1
40
1
40
1
40
1
41
1
10
21.8998128125205
20
6.98882413012211
30
0
41
1
10
21.8998128125205
20
6.91903926609169
30
0
41
1
10
21.8998128125205
20
6.84878876985704
30
0
41
1
10
21.8998128125205
20
6.77807739676698
30
0
0
SPLINE
5
DA
100
AcDbEntity
8
1
62
256
6
ByLayer
370
18
48
1
60
0
100
AcDbSpline
70
4
71
3
72
12
73
8
40
0
40
0
40
0
40
0
40
0.220514406777861
40
0.220514406777861
40
0.933357242019935
40
0.933357242019935
40
1
40
1
40
1
40
1
41
1
10
11.4672060584168
20
5.55887441146345
30
0
41
1
10
11.4530358321229
20
5.50886617381119
30
0
41
1
10
11.4385849375893
20
5.45906909110934
30
0
41
1
10
11.376404106387
20
5.24937070472933
30
0
41
1
10
11.3262840361164
20
5.09140263571962
30
0
41
1
10
11.2693261473781
20
4.92091110294282
30
0
41
1
10
11.26443923697
20
4.90635274039832
30
0
41
1
10
11.2595354552118
20
4.89181226647258
30
0
0
SPLINE
5
DB
100
AcDbEntity
8
1
62
256
6
ByLayer
370
18
48
1
60
0
100
AcDbSpline
70
2053
71
3
72
120
73
116
40
0
40
0
40
0
40
0
40
0.0312499999999971
40
0.0312499999999971
40
0.0624999999999943
40
0.0624999999999943
40
0.0937499999999915
40
0.0937499999999915
40
0.124999999999989
40
0.124999999999989
40
0.140624999999988
40
0.140624999999988
40
0.156249999999987
40
0.156249999999987
40
0.187499999999986
40
0.187499999999986
40
0.203124999999985
40
0.203124999999985
40
0.218749999999985
40
0.234374999999984
40
0.234374999999984
40
0.242187499999983
40
0.242187499999983
40
0.249999999999983
40
0.249999999999983
40
0.281249999999981
40
0.281249999999981
40
0.29687499999998
40
0.29687499999998
40
0.30468749999998
40
0.30468749999998
40
0.31249999999998
40
0.31249999999998
40
0.343749999999979
40
0.343749999999979
40
0.351562499999978
40
0.351562499999978
40
0.359374999999977
40
0.359374999999977
40
0.374999999999976
40
0.390624999999974
40
0.390624999999974
40
0.398437499999974
40
0.398437499999974
40
0.406249999999973
40
0.406249999999973
40
0.43749999999997
40
0.43749999999997
40
0.468749999999967
40
0.468749999999967
40
0.484374999999966
40
0.484374999999966
40
0.492187499999965
40
0.492187499999965
40
0.499999999999964
40
0.499999999999964
40
0.531249999999963
40
0.531249999999963
40
0.539062499999963
40
0.539062499999963
40
0.546874999999963
40
0.546874999999963
40
0.562499999999961
40
0.562499999999961
40
0.593749999999956
40
0.593749999999956
40
0.601562499999955
40
0.601562499999955
40
0.609374999999955
40
0.609374999999955
40
0.624999999999956
40
0.624999999999956
40
0.656249999999955
40
0.656249999999955
40
0.671874999999956
40
0.671874999999956
40
0.687499999999957
40
0.687499999999957
40
0.718749999999958
40
0.718749999999958
40
0.734374999999959
40
0.734374999999959
40
0.74999999999996
40
0.74999999999996
40
0.781249999999962
40
0.781249999999962
40
0.789062499999962
40
0.789062499999962
40
0.796874999999963
40
0.796874999999963
40
0.812499999999965
40
0.828124999999967
40
0.828124999999967
40
0.835937499999967
40
0.835937499999967
40
0.843749999999967
40
0.843749999999967
40
0.87499999999997
40
0.87499999999997
40
0.882812499999971
40
0.882812499999971
40
0.890624999999971
40
0.906249999999975
40
0.921874999999978
40
0.921874999999978
40
0.937499999999982
40
0.937499999999982
40
0.968749999999991
40
0.968749999999991
40
0.976562499999993
40
0.976562499999993
40
0.984374999999995
40
0.992187499999998
40
0.992187499999998
40
1
40
1
40
1
40
1
41
1
10
65.1175083361471
20
-3.11353173738567
30
0
41
1
10
65.0934572885183
20
-3.1442677784045
30
0
41
1
10
65.0704623190637
20
-3.16959778887872
30
0
41
1
10
65.0263443087075
20
-3.21010461150513
30
0
41
1
10
65.0052225523075
20
-3.22527834823598
30
0
41
1
10
64.9647689642565
20
-3.24504215143517
30
0
41
1
10
64.9459830443743
20
-3.24935718246371
30
0
41
1
10
64.9111104965701
20
-3.24711895238815
30
0
41
1
10
64.8950099468959
20
-3.24057633953552
30
0
41
1
10
64.8728650089768
20
-3.22201029931745
30
0
41
1
10
64.8659129429965
20
-3.21442581763503
30
0
41
1
10
64.8528953645396
20
-3.19656264706779
30
0
41
1
10
64.8468193845882
20
-3.1862752538276
30
0
41
1
10
64.8298720547402
20
-3.15130503022866
30
0
41
1
10
64.8202661275576
20
-3.12255973713994
30
0
41
1
10
64.8085687342048
20
-3.07041741250433
30
0
41
1
10
64.8051825096148
20
-3.05176161463228
30
0
41
1
10
64.7994571934095
20
-3.01211824481058
30
0
41
1
10
64.7947658238265
20
-2.97007994631437
30
0
41
1
10
64.7921686797604
20
-2.92317203671064
30
0
41
1
10
64.7910461105253
20
-2.88607580812663
30
0
41
1
10
64.7908097900013
20
-2.87339054848778
30
0
41
1
10
64.7906239287802
20
-2.84735677795382
30
0
41
1
10
64.7906755157856
20
-2.83396223074641
30
0
41
1
10
64.7916704176396
20
-2.76605033415959
30
0
41
1
10
64.7947781144692
20
-2.70853040054905
30
0
41
1
10
64.8030706882541
20
-2.61740106165959
30
0
41
1
10
64.806445250912
20
-2.58621030789385
30
0
41
1
10
64.8124980010606
20
-2.53813190840182
30
0
41
1
10
64.814682699655
20
-2.52188874849838
30
0
41
1
10
64.8193272440021
20
-2.48943465461042
30
0
41
1
10
64.821794059251
20
-2.47316574241705
30
0
41
1
10
64.8348506932325
20
-2.39161661860516
30
0
41
1
10
64.8475823767271
20
-2.32572918820526
30
0
41
1
10
64.8666078902979
20
-2.24256977880748
30
0
41
1
10
64.87057561015
20
-2.22588031509974
30
0
41
1
10
64.8787221145871
20
-2.19287334167987
30
0
41
1
10
64.8829133175166
20
-2.17649954759949
30
0
41
1
10
64.8958380534447
20
-2.12775924741936
30
0
41
1
10
64.9140057462033
20
-2.06378642007246
30
0
41
1
10
64.9340553616242
20
-2.00180735156789
30
0
41
1
10
64.9498226399669
20
-1.95608065741746
30
0
41
1
10
64.9551736908409
20
-1.94104385021902
30
0
41
1
10
64.9660028790542
20
-1.91153779231928
30
0
41
1
10
64.9714904218318
20
-1.89704117678818
30
0
41
1
10
64.9992878550852
20
-1.82580306989436
30
0
41
1
10
65.0226854207998
20
-1.77272939894417
30
0
41
1
10
65.0716997307513
20
-1.67427095977808
30
0
41
1
10
65.0965980034192
20
-1.63031526605175
30
0
41
1
10
65.1344818564043
20
-1.5714542449096
30
0
41
1
10
65.1471993513165
20
-1.55302282520432
30
0
41
1
10
65.1664044759711
20
-1.52713373345668
30
0
41
1
10
65.1728249996393
20
-1.51880290923577
30
0
41
1
10
65.1855950680628
20
-1.50286285965132
30
0
41
1
10
65.1919588291702
20
-1.49523409230554
30
0
41
1
10
65.2236713551141
20
-1.45874659700405
30
0
41
1
10
65.2487058437098
20
-1.43481314237459
30
0
41
1
10
65.2795336088681
20
-1.41113839801358
30
0
41
1
10
65.2856756106149
20
-1.40671821151622
30
0
41
1
10
65.2979102034818
20
-1.3985095887752
30
0
41
1
10
65.3040108106176
20
-1.39471763219512
30
0
41
1
10
65.3220899185282
20
-1.38437519290926
30
0
41
1
10
65.3338896972102
20
-1.37882333353997
30
0
41
1
10
65.3685267020227
20
-1.36606083241134
30
0
41
1
10
65.3906088850129
20
-1.36271011161782
30
0
41
1
10
65.416830780366
20
-1.36503526853542
30
0
41
1
10
65.4220055337038
20
-1.36582865028646
30
0
41
1
10
65.4322103057531
20
-1.36808492523153
30
0
41
1
10
65.4372492696452
20
-1.36955222809289
30
0
41
1
10
65.4520149927341
20
-1.37493303010152
30
0
41
1
10
65.4614246800767
20
-1.37982534073535
30
0
41
1
10
65.4883312158307
20
-1.39838031457785
30
0
41
1
10
65.504518285974
20
-1.41588302683888
30
0
41
1
10
65.5258825479365
20
-1.45033468447679
30
0
41
1
10
65.5325150043396
20
-1.46319364805123
30
0
41
1
10
65.5447083452343
20
-1.49187761107444
30
0
41
1
10
65.5501675990763
20
-1.50746904520634
30
0
41
1
10
65.5645813807514
20
-1.55791700036323
30
0
41
1
10
65.5716053091039
20
-1.59643915190048
30
0
41
1
10
65.57787036072
20
-1.6622282835483
30
0
41
1
10
65.579242566952
20
-1.68550153589607
30
0
41
1
10
65.5804189386194
20
-1.73499445358712
30
0
41
1
10
65.5802087899922
20
-1.7607152436903
30
0
41
1
10
65.5772102436208
20
-1.8405635275744
30
0
41
1
10
65.5720795297679
20
-1.89743983946985
30
0
41
1
10
65.5615287151576
20
-1.97347043152391
30
0
41
1
10
65.5592025020707
20
-1.98897048483465
30
0
41
1
10
65.5541523877421
20
-2.02028353500373
30
0
41
1
10
65.551442390017
20
-2.03601700101729
30
0
41
1
10
65.5427737950382
20
-2.08344480250435
30
0
41
1
10
65.5297821361622
20
-2.14728704402276
30
0
41
1
10
65.5140264439864
20
-2.2123347458961
30
0
41
1
10
65.501179547496
20
-2.26158618471692
30
0
41
1
10
65.4967092100142
20
-2.27813731655908
30
0
41
1
10
65.4875154358908
20
-2.31106732715458
30
0
41
1
10
65.4827940343594
20
-2.32744384042684
30
0
41
1
10
65.4585935373266
20
-2.40890062751691
30
0
41
1
10
65.4373546866636
20
-2.47271793133501
30
0
41
1
10
65.4086965022541
20
-2.55091554812267
30
0
41
1
10
65.402866795859
20
-2.56644953060902
30
0
41
1
10
65.3911322166281
20
-2.5970147885015
30
0
41
1
10
65.3733698140911
20
-2.64223531169893
30
0
41
1
10
65.343015679756
20
-2.71458903460621
30
0
41
1
10
65.3180023497791
20
-2.76939487583076
30
0
41
1
10
65.292642301279
20
-2.82267961425441
30
0
41
1
10
65.2799375929906
20
-2.84824603475576
30
0
41
1
10
65.2419506710632
20
-2.92154853781904
30
0
41
1
10
65.2167155481267
20
-2.96608985556784
30
0
41
1
10
65.1852926393444
20
-3.01658241809943
30
0
41
1
10
65.1790039651621
20
-3.02643411904827
30
0
41
1
10
65.1665091145324
20
-3.04550348438113
30
0
41
1
10
65.1540884759693
20
-3.0639539331153
30
0
41
1
10
65.1418126473584
20
-3.08118521315677
30
0
41
1
10
65.1296076761091
20
-3.0978118183219
30
0
41
1
10
65.1235210980543
20
-3.10584772713096
30
0
41
1
10
65.1175083361471
20
-3.11353173738567
30
0
0
SPLINE
5
DC
100
AcDbEntity
8
1
62
256
6
ByLayer
370
18
48
1
60
0
100
AcDbSpline
70
4
71
3
72
15
73
11
40
0
40
0
40
0
40
0
40
0.500000000000004
40
0.500000000000004
40
0.625
40
0.625
40
0.687499999999999
40
0.687499999999999
40
0.749999999999997
40
1
40
1
40
1
40
1
41
1
10
64.6515633145096
20
-6.50649629619326
30
0
41
1
10
64.5989812448298
20
-6.58441451682961
30
0
41
1
10
64.5508859502903
20
-6.64973831060084
30
0
41
1
10
64.4962548112893
20
-6.71422550437146
30
0
41
1
10
64.4856027248373
20
-6.72626260741043
30
0
41
1
10
64.4700328079635
20
-6.74299440621277
30
0
41
1
10
64.4649039881808
20
-6.7483578012118
30
0
41
1
10
64.4548273555902
20
-6.7585918040773
30
0
41
1
10
64.430078660618
20
-6.78295715354784
30
0
41
1
10
64.4074856751538
20
-6.80130230538197
30
0
41
1
10
64.3906583423143
20
-6.81227755329547
30
0
0
SPLINE
5
DD
100
AcDbEntity
8
1
62
256
6
ByLayer
370
18
48
1
60
0
100
AcDbSpline
70
4
71
3
72
34
73
30
40
0
40
0
40
0
40
0
40
0.124999999999981
40
0.124999999999981
40
0.187499999999971
40
0.187499999999971
40
0.249999999999962
40
0.249999999999962
40
0.312499999999952
40
0.312499999999952
40
0.343749999999949
40
0.343749999999949
40
0.374999999999946
40
0.374999999999946
40
0.437499999999943
40
0.437499999999943
40
0.453124999999944
40
0.453124999999944
40
0.468749999999944
40
0.468749999999944
40
0.499999999999947
40
0.499999999999947
40
0.62499999999996
40
0.62499999999996
40
0.749999999999974
40
0.749999999999974
40
0.874999999999987
40
0.874999999999987
40
1
40
1
40
1
40
1
41
1
10
66.2947804166667
20
-2.27741098196151
30
0
41
1
10
66.2115230026837
20
-2.42933596953716
30
0
41
1
10
66.1311046447007
20
-2.58656593771471
30
0
41
1
10
66.0141095950667
20
-2.82985425776496
30
0
41
1
10
65.9756991294907
20
-2.91214109488519
30
0
41
1
10
65.9000074092397
20
-3.0791980493162
30
0
41
1
10
65.8627269633892
20
-3.16397115827127
30
0
41
1
10
65.7892025201741
20
-3.33599944150453
30
0
41
1
10
65.7529583170626
20
-3.42325383917773
30
0
41
1
10
65.6992939723336
20
-3.55599856494527
30
0
41
1
10
65.6815073103442
20
-3.60059921828531
30
0
41
1
10
65.6463224757269
20
-3.6899969926923
30
0
41
1
10
65.6289064453018
20
-3.7348372125081
30
0
41
1
10
65.5771567898414
20
-3.86976784962948
30
0
41
1
10
65.5433077673608
20
-3.96030659577909
30
0
41
1
10
65.5018270912059
20
-4.07382509871528
30
0
41
1
10
65.4935714824387
20
-4.0965487904385
30
0
41
1
10
65.4771454700291
20
-4.14201021675549
30
0
41
1
10
65.4689825638007
20
-4.16475322737878
30
0
41
1
10
65.4445551758863
20
-4.23299700868753
30
0
41
1
10
65.4282968784842
20
-4.27849905881951
30
0
41
1
10
65.3471354644594
20
-4.50603866131419
30
0
41
1
10
65.2826104123455
20
-4.68819961651835
30
0
41
1
10
65.1543881373358
20
-5.05248826957521
30
0
41
1
10
65.0906883295223
20
-5.23458911620887
30
0
41
1
10
64.9640293883404
20
-5.59861617138364
30
0
41
1
10
64.9010767226372
20
-5.78054221597179
30
0
41
1
10
64.7757867868698
20
-6.14411448211041
30
0
41
1
10
64.7135272418646
20
-6.32553625038872
30
0
41
1
10
64.65156331451
20
-6.50649629619227
30
0
0
SPLINE
5
DE
100
AcDbEntity
8
1
62
256
6
ByLayer
370
18
48
1
60
0
100
AcDbSpline
70
4
71
3
72
8
73
4
40
0
40
0
40
0
40
0
40
1
40
1
40
1
40
1
41
1
10
66.2947804166661
20
-2.27741098196194
30
0
41
1
10
66.4790870149488
20
-1.76154464034499
30
0
41
1
10
66.6618799435332
20
-1.24514630642909
30
0
41
1
10
66.8431290735729
20
-0.728205391170746
30
0
0
SPLINE
5
DF
100
AcDbEntity
8
1
62
256
6
ByLayer
370
18
48
1
60
0
100
AcDbSpline
70
4
71
3
72
8
73
4
40
0
40
0
40
0
40
0
40
1
40
1
40
1
40
1
41
1
10
66.8431290735729
20
-0.728205391170775
30
0
41
1
10
66.8935072654152
20
-0.584521674761561
30
0
41
1
10
66.9448782251363
20
-0.441389437825336
30
0
41
1
10
66.9972397767667
20
-0.298789069000236
30
0
0
SPLINE
5
E0
100
AcDbEntity
8
1
62
256
6
ByLayer
370
18
48
1
60
0
100
AcDbSpline
70
4
71
3
72
8
73
4
40
0
40
0
40
0
40
0
40
1
40
1
40
1
40
1
41
1
10
66.9972397767667
20
0.298789069000264
30
0
41
1
10
67.0009116319125
20
0.100053298713533
30
0
41
1
10
67.0009285558196
20
-0.0991373078652487
30
0
41
1
10
66.9972397767667
20
-0.298789069000264
30
0
0
SPLINE
5
E1
100
AcDbEntity
8
1
62
256
6
ByLayer
370
18
48
1
60
0
100
AcDbSpline
70
4
71
3
72
60
73
56
40
0
40
0
40
0
40
0
40
0.0624999999999867
40
0.0624999999999867
40
0.0937499999999801
40
0.0937499999999801
40
0.109374999999977
40
0.109374999999977
40
0.124999999999973
40
0.124999999999973
40
0.187499999999973
40
0.187499999999973
40
0.249999999999972
40
0.249999999999972
40
0.28124999999997
40
0.28124999999997
40
0.296874999999968
40
0.296874999999968
40
0.312499999999967
40
0.312499999999967
40
0.374999999999971
40
0.374999999999971
40
0.437499999999975
40
0.437499999999975
40
0.453124999999975
40
0.453124999999975
40
0.468749999999975
40
0.468749999999975
40
0.499999999999975
40
0.499999999999975
40
0.562499999999974
40
0.562499999999974
40
0.593749999999975
40
0.593749999999975
40
0.609374999999976
40
0.609374999999976
40
0.624999999999977
40
0.624999999999977
40
0.687499999999972
40
0.687499999999972
40
0.71874999999997
40
0.71874999999997
40
0.73437499999997
40
0.73437499999997
40
0.749999999999971
40
0.749999999999971
40
0.812499999999978
40
0.812499999999978
40
0.874999999999986
40
0.874999999999986
40
0.906249999999989
40
0.906249999999989
40
0.937499999999993
40
0.937499999999993
40
1
40
1
40
1
40
1
41
1
10
66.9972397767667
20
0.298789069000264
30
0
41
1
10
66.9713522211258
20
0.223763847180123
30
0
41
1
10
66.9440810071424
20
0.149392514123804
30
0
41
1
10
66.9011036968881
20
0.0388269081420276
30
0
41
1
10
66.8864319938951
20
0.0021373464926739
30
0
41
1
10
66.8638975156225
20
-0.0526430339257331
30
0
41
1
10
66.8562981367232
20
-0.0708608018806558
30
0
41
1
10
66.8409214128389
20
-0.107210285621335
30
0
41
1
10
66.8331307611187
20
-0.125372447999524
30
0
41
1
10
66.7938942684365
20
-0.21557751130527
30
0
41
1
10
66.7617683247068
20
-0.285445438700378
30
0
41
1
10
66.6961563432401
20
-0.420606891136742
30
0
41
1
10
66.6626705153444
20
-0.485901610629583
30
0
41
1
10
66.6114388779297
20
-0.580257838940611
30
0
41
1
10
66.5941937976717
20
-0.611110420311746
30
0
41
1
10
66.56806915256
20
-0.656450863836312
30
0
41
1
10
66.5593180443925
20
-0.671407788320124
30
0
41
1
10
66.5417284383709
20
-0.7009999685624
30
0
41
1
10
66.5328978313174
20
-0.715620660404653
30
0
41
1
10
66.4889241900599
20
-0.78725497191158
30
0
41
1
10
66.4540101747439
20
-0.84040426698698
30
0
41
1
10
66.3847178688657
20
-0.938433614702916
30
0
41
1
10
66.3503396744555
20
-0.983315393292344
30
0
41
1
10
66.3076904588375
20
-1.0339880537137
30
0
41
1
10
66.2991767272386
20
-1.04384986012161
30
0
41
1
10
66.2821809246807
20
-1.06301613004959
30
0
41
1
10
66.2736825462342
20
-1.07233714561195
30
0
41
1
10
66.2484491923356
20
-1.09921823406597
30
0
41
1
10
66.2319233178066
20
-1.11576093408448
30
0
41
1
10
66.1831928802466
20
-1.16134733780041
30
0
41
1
10
66.1518332383016
20
-1.18636692019501
30
0
41
1
10
66.1063646745356
20
-1.21587033967043
30
0
41
1
10
66.0914709016334
20
-1.22436269781693
30
0
41
1
10
66.0695138305488
20
-1.23505144958477
30
0
41
1
10
66.0622443598602
20
-1.23827792951082
30
0
41
1
10
66.0479086505866
20
-1.24400793040436
30
0
41
1
10
66.0408489469456
20
-1.2465104200067
30
0
41
1
10
66.0060721452079
20
-1.2572472206862
30
0
41
1
10
65.9799133486752
20
-1.26017767425924
30
0
41
1
10
65.9428935179423
20
-1.25649529764169
30
0
41
1
10
65.9309246658087
20
-1.25391690870595
30
0
41
1
10
65.9135042972089
20
-1.24803669085
30
0
41
1
10
65.907786392404
20
-1.24574093742171
30
0
41
1
10
65.8965251593581
20
-1.24047751870805
30
0
41
1
10
65.8909722718949
20
-1.2375036072379
30
0
41
1
10
65.8637812576449
20
-1.22103986205258
30
0
41
1
10
65.8438463638672
20
-1.20281355370474
30
0
41
1
10
65.8071268038053
20
-1.15705895294755
30
0
41
1
10
65.7903444037964
20
-1.12952592950364
30
0
41
1
10
65.7673137822398
20
-1.08152105416957
30
0
41
1
10
65.7599824303493
20
-1.06435895597568
30
0
41
1
10
65.7461293558368
20
-1.02813632732133
30
0
41
1
10
65.7395941128601
20
-1.00905515985923
30
0
41
1
10
65.7210921548468
20
-0.949012963379573
30
0
41
1
10
65.7102247305964
20
-0.905261639980807
30
0
41
1
10
65.7006999681697
20
-0.857966697179137
30
0
0
SPLINE
5
E2
100
AcDbEntity
8
1
62
256
6
ByLayer
370
18
48
1
60
0
100
AcDbSpline
70
4
71
3
72
8
73
4
40
0
40
0
40
0
40
0
40
1
40
1
40
1
40
1
41
1
10
65.7006999681697
20
-0.857966697179194
30
0
41
1
10
65.579948485308
20
-0.25837856896041
30
0
41
1
10
65.4256515472715
20
0.361416187635257
30
0
41
1
10
65.2373964604839
20
1.00166616502312
30
0
0
SPLINE
5
E3
100
AcDbEntity
8
1
62
256
6
ByLayer
370
18
48
1
60
0
100
AcDbSpline
70
4
71
3
72
23
73
19
40
0
40
0
40
0
40
0
40
0.250000000000002
40
0.250000000000002
40
0.375000000000003
40
0.375000000000003
40
0.500000000000004
40
0.500000000000004
40
0.625000000000005
40
0.687500000000005
40
0.687500000000005
40
0.750000000000005
40
0.750000000000005
40
0.812500000000006
40
0.812500000000006
40
0.875000000000006
40
0.875000000000006
40
1
40
1
40
1
40
1
41
1
10
64.4043652469641
20
0.528265656550133
30
0
41
1
10
64.472574646841
20
0.587206186281321
30
0
41
1
10
64.5413244462928
20
0.641426717167434
30
0
41
1
10
64.6450048854003
20
0.71559463496115
30
0
41
1
10
64.6796587106438
20
0.739145467073513
30
0
41
1
10
64.7491130577853
20
0.783921666868423
30
0
41
1
10
64.7839131534495
20
0.80513343159717
30
0
41
1
10
64.8535913772925
20
0.844845471616566
30
0
41
1
10
64.905908839337
20
0.872605804071327
30
0
41
1
10
64.9582505085023
20
0.897217907161149
30
0
41
1
10
64.9931426066349
20
0.912910502196695
30
0
41
1
10
65.0105840671515
20
0.920355025757203
30
0
41
1
10
65.0454762498504
20
0.93476370588138
30
0
41
1
10
65.0629404710261
20
0.941899286074687
30
0
41
1
10
65.0978821892857
20
0.955772318749581
30
0
41
1
10
65.1153500222111
20
0.962390121810074
30
0
41
1
10
65.1677227017529
20
0.981139094324931
30
0
41
1
10
65.2026010363812
20
0.992214636286235
30
0
41
1
10
65.2373964604839
20
1.00166616502312
30
0
0
SPLINE
5
E4
100
AcDbEntity
8
1
62
256
6
ByLayer
370
18
48
1
60
0
100
AcDbSpline
70
4
71
3
72
20
73
16
40
0
40
0
40
0
40
0
40
0.500000000000036
40
0.750000000000028
40
0.875000000000047
40
0.937500000000057
40
0.968750000000034
40
0.968750000000034
40
0.984375000000019
40
0.984375000000019
40
0.992187500000012
40
0.992187500000012
40
0.996093750000006
40
0.996093750000006
40
1
40
1
40
1
40
1
41
1
10
64.2999360802331
20
-7.09966819095189
30
0
41
1
10
64.3299999263476
20
-7.0506587198808
30
0
41
1
10
64.3751154482433
20
-6.97688683024938
30
0
41
1
10
64.4277839311158
20
-6.8903746803872
30
0
41
1
10
64.4541262002818
20
-6.84700857172743
30
0
41
1
10
64.467299323659
20
-6.82529810821939
30
0
41
1
10
64.4729453697914
20
-6.81598776491353
30
0
41
1
10
64.4757684627091
20
-6.81133161812346
30
0
41
1
10
64.4767089209419
20
-6.80978066937578
30
0
41
1
10
64.4781242542081
20
-6.80744401935726
30
0
41
1
10
64.478596849434
20
-6.80666333804274
30
0
41
1
10
64.4793076220856
20
-6.80548818449313
30
0
41
1
10
64.4795480648501
20
-6.8050890844699
30
0
41
1
10
64.4800122459166
20
-6.80432580773862
30
0
41
1
10
64.48024880529
20
-6.80394543992196
30
0
41
1
10
64.4803210836644
20
-6.8038629299804
30
0
0
SPLINE
5
E5
100
AcDbEntity
8
1
62
256
6
ByLayer
370
18
48
1
60
0
100
AcDbSpline
70
4
71
3
72
58
73
54
40
0
40
0
40
0
40
0
40
0.0162052847049878
40
0.0162052847049878
40
0.0708605466658209
40
0.0708605466658209
40
0.0981881776462374
40
0.0981881776462374
40
0.125515808626654
40
0.125515808626654
40
0.152843439607071
40
0.152843439607071
40
0.180171070587487
40
0.180171070587487
40
0.23482633254832
40
0.23482633254832
40
0.289481594509153
40
0.289481594509153
40
0.316809225489569
40
0.316809225489569
40
0.330473040979778
40
0.330473040979778
40
0.344136856469987
40
0.344136856469987
40
0.398792118430822
40
0.398792118430822
40
0.453447380391656
40
0.453447380391656
40
0.508102642352491
40
0.508102642352491
40
0.535430273332908
40
0.535430273332908
40
0.562757904313325
40
0.562757904313325
40
0.61741316627416
40
0.61741316627416
40
0.672068428234994
40
0.672068428234994
40
0.699396059215411
40
0.699396059215411
40
0.726723690195828
40
0.726723690195828
40
0.754051321176246
40
0.754051321176246
40
0.781378952156663
40
0.781378952156663
40
0.836034214117497
40
0.836034214117497
40
0.890689476078331
40
0.890689476078331
40
0.945344738039166
40
0.945344738039166
40
1
40
1
40
1
40
1
41
1
10
46.2438187601446
20
-1.84438929499495
30
0
41
1
10
46.1123351853534
20
-1.7822533160402
30
0
41
1
10
45.9808626556112
20
-1.7198708648819
30
0
41
1
10
45.4059725717768
20
-1.44611400839216
30
0
41
1
10
44.9625303970857
20
-1.2324584668153
30
0
41
1
10
44.2967971049616
20
-0.909319451364667
30
0
41
1
10
44.0747538874269
20
-0.801107590913745
30
0
41
1
10
43.630697952799
20
-0.584209347137374
30
0
41
1
10
43.408674921371
20
-0.475508608783144
30
0
41
1
10
42.9645652062965
20
-0.257821833797465
30
0
41
1
10
42.7424623519972
20
-0.148828474027965
30
0
41
1
10
42.2986643210612
20
0.0689900028850161
30
0
41
1
10
42.0769229980846
20
0.177843912348976
30
0
41
1
10
41.412037172087
20
0.503959640329242
30
0
41
1
10
40.9692332244268
20
0.720777064373323
30
0
41
1
10
40.0836233969076
20
1.15139359205719
30
0
41
1
10
39.6408007435115
20
1.36515901352195
30
0
41
1
10
38.9761012401075
20
1.68263181780603
30
0
41
1
10
38.754446032626
20
1.78790279614015
30
0
41
1
10
38.4217420907441
20
1.94479964586969
30
0
41
1
10
38.310804328247
20
1.99693118005416
30
0
41
1
10
38.0888436479084
20
2.10083455310866
30
0
41
1
10
37.9777943859737
20
2.15261872653403
30
0
41
1
10
37.4228384318128
20
2.41033457244197
30
0
41
1
10
36.9795386990478
20
2.61279623567486
30
0
41
1
10
36.093575020932
20
3.00893747003735
30
0
41
1
10
35.6508956195839
20
3.20257663296411
30
0
41
1
10
34.765242515541
20
3.57942682250319
30
0
41
1
10
34.3222787005947
20
3.76266603279896
30
0
41
1
10
33.6571230187507
20
4.02894065128748
30
0
41
1
10
33.4352733807048
20
4.11623748329842
30
0
41
1
10
32.9912070468113
20
4.28772060027541
30
0
41
1
10
32.76929450478
20
4.37179011632998
30
0
41
1
10
32.1040188241033
20
4.61869976663155
30
0
41
1
10
31.6610285659465
20
4.77632112238922
30
0
41
1
10
30.7753701221481
20
5.0764130909302
30
0
41
1
10
30.332685869344
20
5.21880714758009
30
0
41
1
10
29.6682374851812
20
5.42007819932121
30
0
41
1
10
29.4466826345523
20
5.48512054505059
30
0
41
1
10
29.0033670199583
20
5.61105790791714
30
0
41
1
10
28.7816120981206
20
5.67195979025036
30
0
41
1
10
28.3377514804764
20
5.78941908756249
30
0
41
1
10
28.1156660427315
20
5.84597877812712
30
0
41
1
10
27.6716492806295
20
5.95451488436802
30
0
41
1
10
27.4496435229057
20
6.0065110158979
30
0
41
1
10
26.7835069821222
20
6.1555719106133
30
0
41
1
10
26.3393242145078
20
6.2457027661639
30
0
41
1
10
25.4516349092322
20
6.40644645657414
30
0
41
1
10
25.0079783047011
20
6.477066595776
30
0
41
1
10
24.1202811277433
20
6.59812904055164
30
0
41
1
10
23.6761771782194
20
6.64865148382776
30
0
41
1
10
22.7880193419893
20
6.72892155162307
30
0
41
1
10
22.343912084171
20
6.75868551610606
30
0
41
1
10
21.8998128125205
20
6.77807739676698
30
0
0
SPLINE
5
E6
100
AcDbEntity
8
1
62
256
6
ByLayer
370
18
48
1
60
0
100
AcDbSpline
70
4
71
3
72
130
73
126
40
0
40
0
40
0
40
0
40
0.0312500000000127
40
0.0312500000000127
40
0.0625000000000253
40
0.0625000000000253
40
0.093750000000038
40
0.093750000000038
40
0.109375000000044
40
0.109375000000044
40
0.125000000000051
40
0.125000000000051
40
0.140625000000057
40
0.140625000000057
40
0.156250000000063
40
0.156250000000063
40
0.17187500000007
40
0.17187500000007
40
0.179687500000073
40
0.179687500000073
40
0.183593750000073
40
0.183593750000073
40
0.187500000000073
40
0.187500000000073
40
0.195312500000071
40
0.195312500000071
40
0.203125000000068
40
0.203125000000068
40
0.207031250000067
40
0.207031250000067
40
0.210937500000065
40
0.210937500000065
40
0.218750000000066
40
0.218750000000066
40
0.222656250000064
40
0.222656250000064
40
0.226562500000062
40
0.226562500000062
40
0.230468750000061
40
0.230468750000061
40
0.234375000000059
40
0.234375000000059
40
0.242187500000056
40
0.242187500000056
40
0.250000000000053
40
0.250000000000053
40
0.265625000000048
40
0.265625000000048
40
0.273437500000047
40
0.273437500000047
40
0.281250000000046
40
0.281250000000046
40
0.296875000000041
40
0.296875000000041
40
0.312500000000037
40
0.312500000000037
40
0.343750000000029
40
0.343750000000029
40
0.359375000000025
40
0.359375000000025
40
0.375000000000021
40
0.375000000000021
40
0.437500000000007
40
0.437500000000007
40
0.499999999999992
40
0.499999999999992
40
0.562499999999978
40
0.562499999999978
40
0.593749999999971
40
0.593749999999971
40
0.624999999999964
40
0.624999999999964
40
0.656249999999957
40
0.656249999999957
40
0.68749999999995
40
0.68749999999995
40
0.703124999999946
40
0.703124999999946
40
0.718749999999942
40
0.718749999999942
40
0.734374999999939
40
0.734374999999939
40
0.742187499999938
40
0.742187499999938
40
0.749999999999937
40
0.749999999999937
40
0.757812499999936
40
0.757812499999936
40
0.765624999999935
40
0.765624999999935
40
0.773437499999934
40
0.773437499999934
40
0.781249999999933
40
0.781249999999933
40
0.785156249999935
40
0.785156249999935
40
0.789062499999936
40
0.789062499999936
40
0.792968749999937
40
0.792968749999937
40
0.796874999999939
40
0.796874999999939
40
0.804687499999941
40
0.804687499999941
40
0.812499999999944
40
0.812499999999944
40
0.820312499999946
40
0.820312499999946
40
0.828124999999949
40
0.828124999999949
40
0.843749999999954
40
0.843749999999954
40
0.859374999999959
40
0.859374999999959
40
0.874999999999964
40
0.874999999999964
40
0.890624999999969
40
0.890624999999969
40
0.906249999999974
40
0.906249999999974
40
0.937499999999982
40
0.937499999999982
40
0.968749999999991
40
0.968749999999991
40
1
40
1
40
1
40
1
41
1
10
0
20
-7.46623108240857
30
0
41
1
10
0.0048834916807436
20
-7.44869980925583
30
0
41
1
10
0.0108150872900694
20
-7.43078809650521
30
0
41
1
10
0.0250159006041031
20
-7.39410224311064
30
0
41
1
10
0.0332814988063888
20
-7.37532961404494
30
0
41
1
10
0.0525777732592871
20
-7.33674274960245
30
0
41
1
10
0.0635988456120629
20
-7.31693252389246
30
0
41
1
10
0.0827998289339007
20
-7.28618682024131
30
0
41
1
10
0.0896530383248546
20
-7.27576028264767
30
0
41
1
10
0.104345258884933
20
-7.25460425017482
30
0
41
1
10
0.112190067725464
20
-7.24386320786539
30
0
41
1
10
0.129093059081867
20
-7.22197778830798
30
0
41
1
10
0.138172082552615
20
-7.21080719464814
30
0
41
1
10
0.157774780033662
20
-7.18807037886796
30
0
41
1
10
0.168261886267714
20
-7.1765406557638
30
0
41
1
10
0.191052792918043
20
-7.15304318406632
30
0
41
1
10
0.203342813404618
20
-7.14107897845125
30
0
41
1
10
0.223781593080275
20
-7.12263887195977
30
0
41
1
10
0.23093233663684
20
-7.11640887962412
30
0
41
1
10
0.242323809168255
20
-7.10689819907071
30
0
41
1
10
0.246232589153294
20
-7.10370017014299
30
0
41
1
10
0.254313140244506
20
-7.09723831117876
30
0
41
1
10
0.258496438469251
20
-7.09396613921245
30
0
41
1
10
0.271315271249932
20
-7.0841846148025
30
0
41
1
10
0.280263670119496
20
-7.07766971310656
30
0
41
1
10
0.299239011432235
20
-7.06465365709852
30
0
41
1
10
0.309386979835551
20
-7.05808177372228
30
0
41
1
10
0.325087866024404
20
-7.04864425170476
30
0
41
1
10
0.33041111439502
20
-7.04556033010613
30
0
41
1
10
0.341259773830302
20
-7.03953199228911
30
0
41
1
10
0.34683439062195
20
-7.03656322368019
30
0
41
1
10
0.363473950903483
20
-7.02811255071632
30
0
41
1
10
0.374433904271854
20
-7.02308438669496
30
0
41
1
10
0.390674242177909
20
-7.0164490456207
30
0
41
1
10
0.39602924597034
20
-7.01440134590231
30
0
41
1
10
0.406351385325081
20
-7.01071226261848
30
0
41
1
10
0.41136173606489
20
-7.0090528604517
30
0
41
1
10
0.42111427112917
20
-7.00606369370226
30
0
41
1
10
0.425876523077932
20
-7.00472969310687
30
0
41
1
10
0.434981998491509
20
-7.00240153641812
30
0
41
1
10
0.439345612159144
20
-7.00140004661992
30
0
41
1
10
0.451961349405707
20
-6.99880445787093
30
0
41
1
10
0.459742922361329
20
-6.99761533628143
30
0
41
1
10
0.474367909699055
20
-6.99604682789013
30
0
41
1
10
0.481142765576578
20
-6.99567810630526
30
0
41
1
10
0.500041516205386
20
-6.99549869711257
30
0
41
1
10
0.510899921154135
20
-6.99658267817381
30
0
41
1
10
0.525591325623196
20
-6.999322090053
30
0
41
1
10
0.530222000582569
20
-7.00042993168961
30
0
41
1
10
0.538982794503738
20
-7.00295235223322
30
0
41
1
10
0.543104876211032
20
-7.00436353015914
30
0
41
1
10
0.554837361960807
20
-7.00896701402857
30
0
41
1
10
0.56182109149816
20
-7.01252525215747
30
0
41
1
10
0.574584698955391
20
-7.02035325257017
30
0
41
1
10
0.580359944658937
20
-7.02462563607497
30
0
41
1
10
0.596287754190683
20
-7.03827974954001
30
0
41
1
10
0.605063572145866
20
-7.04848648093278
30
0
41
1
10
0.616387757781212
20
-7.06493198134982
30
0
41
1
10
0.619848616915078
20
-7.07060716998384
30
0
41
1
10
0.62623490358709
20
-7.08229245859582
30
0
41
1
10
0.629161725895983
20
-7.08830746703947
30
0
41
1
10
0.642584615817725
20
-7.11901684231032
30
0
41
1
10
0.649610158641053
20
-7.14561938725771
30
0
41
1
10
0.658810380405896
20
-7.20165453157475
30
0
41
1
10
0.660936449532926
20
-7.23111065364998
30
0
41
1
10
0.66087002568446
20
-7.29260413446727
30
0
41
1
10
0.658678618199417
20
-7.32464079811726
30
0
41
1
10
0.651636946780059
20
-7.37489163029665
30
0
41
1
10
0.648654293193147
20
-7.39201261080129
30
0
41
1
10
0.641167334710929
20
-7.42712030335409
30
0
41
1
10
0.636658391794271
20
-7.44513184895919
30
0
41
1
10
0.625722549410114
20
-7.48210532804663
30
0
41
1
10
0.619312108854587
20
-7.50103679404137
30
0
41
1
10
0.603911411076751
20
-7.54007255312754
30
0
41
1
10
0.594941842111183
20
-7.56016836856799
30
0
41
1
10
0.578551456129702
20
-7.59160078599919
30
0
41
1
10
0.572592637631146
20
-7.60229550455489
30
0
41
1
10
0.559358777227203
20
-7.62425260870529
30
0
41
1
10
0.552068757641393
20
-7.63553679900818
30
0
41
1
10
0.535856792478938
20
-7.65858187870575
30
0
41
1
10
0.5269310344583
20
-7.67036637777605
30
0
41
1
10
0.511706440292727
20
-7.68861842696259
30
0
41
1
10
0.506322206328122
20
-7.6947993458929
30
0
41
1
10
0.494754534751792
20
-7.70740937792616
30
0
41
1
10
0.488543131758433
20
-7.7138671049737
30
0
41
1
10
0.475188840024259
20
-7.72696511435856
30
0
41
1
10
0.468069938709533
20
-7.73358626049045
30
0
41
1
10
0.45263685500521
20
-7.74702097456017
30
0
41
1
10
0.44429473436395
20
-7.75385003795483
30
0
41
1
10
0.426532692423933
20
-7.76731440035007
30
0
41
1
10
0.417064502306403
20
-7.77399825470226
30
0
41
1
10
0.396518553809841
20
-7.78721939016231
30
0
41
1
10
0.385906649683193
20
-7.79345053235102
30
0
41
1
10
0.369421058290044
20
-7.80216118527184
30
0
41
1
10
0.363830685437676
20
-7.80495498483651
30
0
41
1
10
0.35283272949107
20
-7.81014654896754
30
0
41
1
10
0.347377515109912
20
-7.81257034851674
30
0
41
1
10
0.336548537358198
20
-7.81709790624447
30
0
41
1
10
0.331138472998646
20
-7.8192143060331
30
0
41
1
10
0.32061277591157
20
-7.82306874079933
30
0
41
1
10
0.315493982820101
20
-7.82481077689238
30
0
41
1
10
0.300504356616244
20
-7.82956576578607
30
0
41
1
10
0.290958692759972
20
-7.83212029837017
30
0
41
1
10
0.272779152665379
20
-7.83623745456632
30
0
41
1
10
0.264278575164781
20
-7.83777447490368
30
0
41
1
10
0.248125070466472
20
-7.84010013950237
30
0
41
1
10
0.240475703122996
20
-7.84088562248965
30
0
41
1
10
0.225840668852158
20
-7.84187249376512
30
0
41
1
10
0.21883517504051
20
-7.84207136629752
30
0
41
1
10
0.198903111894168
20
-7.8419599107124
30
0
41
1
10
0.186953060726694
20
-7.84096770736977
30
0
41
1
10
0.164825650828561
20
-7.83777720520411
30
0
41
1
10
0.154662690360141
20
-7.83556890404336
30
0
41
1
10
0.135685205226025
20
-7.83024288997692
30
0
41
1
10
0.126875375697978
20
-7.82712191334497
30
0
41
1
10
0.11034936004117
20
-7.82014930391981
30
0
41
1
10
0.102639665507894
20
-7.81629536959562
30
0
41
1
10
0.0882660829470296
20
-7.8080546979624
30
0
41
1
10
0.0815816828043978
20
-7.80365875601831
30
0
41
1
10
0.0628052900115676
20
-7.78977765292487
30
0
41
1
10
0.0519778485340794
20
-7.77960627817978
30
0
41
1
10
0.0329749953835119
20
-7.75785284527382
30
0
41
1
10
0.0248077097299415
20
-7.74626610213045
30
0
41
1
10
0.0107476680520051
20
-7.72190374797526
30
0
41
1
10
0.0048580478193117
20
-7.70912632492511
30
0
41
1
10
0
20
-7.69581758258329
30
0
0
SPLINE
5
E7
100
AcDbEntity
8
1
62
256
6
ByLayer
370
18
48
1
60
0
100
AcDbSpline
70
4
71
3
72
8
73
4
40
0
40
0
40
0
40
0
40
1
40
1
40
1
40
1
41
1
10
64.2487824809446
20
-7.0400148218703
30
0
41
1
10
64.2960253916886
20
-6.96440636849289
30
0
41
1
10
64.3433154473294
20
-6.88849350695079
30
0
41
1
10
64.3906583423142
20
-6.81227755329556
30
0
0
SPLINE
5
E8
100
AcDbEntity
8
1
62
256
6
ByLayer
370
18
48
1
60
0
100
AcDbSpline
70
4
71
3
72
8
73
4
40
0
40
0
40
0
40
0
40
1
40
1
40
1
40
1
41
1
10
64.3985769339085
20
-6.79185155852826
30
0
41
1
10
64.3959363327743
20
-6.79866089381832
30
0
41
1
10
64.393296800253
20
-6.80546955715781
30
0
41
1
10
64.3906583423142
20
-6.81227755329556
30
0
0
SPLINE
5
E9
100
AcDbEntity
8
1
62
256
6
ByLayer
370
18
48
1
60
0
100
AcDbSpline
70
4
71
3
72
51
73
47
40
0
40
0
40
0
40
0
40
0.0329185592906598
40
0.0329185592906598
40
0.0493778389359899
40
0.0493778389359899
40
0.0658371185813199
40
0.0658371185813199
40
0.13167423716264
40
0.13167423716264
40
0.164592796453301
40
0.197511355743961
40
0.197511355743961
40
0.263348474325283
40
0.263348474325283
40
0.296267033615943
40
0.296267033615943
40
0.329185592906604
40
0.329185592906604
40
0.395022711487926
40
0.395022711487926
40
0.460859830069247
40
0.460859830069247
40
0.493778389359908
40
0.493778389359908
40
0.510237669005238
40
0.510237669005238
40
0.526696948650569
40
0.526696948650569
40
0.658371185813206
40
0.658371185813206
40
0.724208304394525
40
0.724208304394525
40
0.757126863685185
40
0.757126863685185
40
0.790045422975844
40
0.790045422975844
40
0.855882541557165
40
0.855882541557165
40
0.888801100847824
40
0.888801100847824
40
0.921719660138483
40
0.921719660138483
40
0.987556778719802
40
0.987556778719802
40
1
40
1
40
1
40
1
41
1
10
64.3985769339085
20
-6.79185155852826
30
0
41
1
10
64.1768194507262
20
-6.77855757414295
30
0
41
1
10
63.9550734949079
20
-6.76262580047992
30
0
41
1
10
63.6223987092981
20
-6.73481448136016
30
0
41
1
10
63.5114657603714
20
-6.72488852129257
30
0
41
1
10
63.2897688290288
20
-6.70375812349013
30
0
41
1
10
63.1790012968987
20
-6.69255386488874
30
0
41
1
10
62.6255367989199
20
-6.63336933647966
30
0
41
1
10
62.183958457884
20
-6.57590394513238
30
0
41
1
10
61.5227873716188
20
-6.47508856413901
30
0
41
1
10
61.0824062471
20
-6.40300305067669
30
0
41
1
10
60.6427003963383
20
-6.32145936185185
30
0
41
1
10
59.9834718112684
20
-6.19212977563021
30
0
41
1
10
59.5444194733324
20
-6.09654042262977
30
0
41
1
10
58.8858734439587
20
-5.93963875741431
30
0
41
1
10
58.6663648440219
20
-5.88508855618014
30
0
41
1
10
58.2273025819929
20
-5.77165503561662
30
0
41
1
10
58.0077499396118
20
-5.71277467442391
30
0
41
1
10
57.3488409018084
20
-5.52967615171829
30
0
41
1
10
56.9092315094891
20
-5.39899135298268
30
0
41
1
10
56.0285748150458
20
-5.12137744338082
30
0
41
1
10
55.5875285564036
20
-4.97444950875743
30
0
41
1
10
54.9242568478161
20
-4.742552608719
30
0
41
1
10
54.7028810019901
20
-4.66333499850765
30
0
41
1
10
54.3703477801008
20
-4.5417180692549
30
0
41
1
10
54.2593820828646
20
-4.50069805994306
30
0
41
1
10
54.0375119427346
20
-4.41782450621986
30
0
41
1
10
53.9266267932507
20
-4.37597855461743
30
0
41
1
10
52.9290517249017
20
-3.99575148270463
30
0
41
1
10
52.0449997193559
20
-3.63231350024657
30
0
41
1
10
50.7181677104244
20
-3.05761182040251
30
0
41
1
10
50.2757581880551
20
-2.86114206223999
30
0
41
1
10
49.611340931255
20
-2.56010137941459
30
0
41
1
10
49.3897332159743
20
-2.45869818007662
30
0
41
1
10
48.9462087476617
20
-2.25391629142487
30
0
41
1
10
48.7241673117532
20
-2.15047600057383
30
0
41
1
10
48.0587754416916
20
-1.83819994491924
30
0
41
1
10
47.6159019485241
20
-1.6273008436421
30
0
41
1
10
46.9520590932859
20
-1.30813620121924
30
0
41
1
10
46.7308553497882
20
-1.20127962012955
30
0
41
1
10
46.2885483420979
20
-0.986752875728996
30
0
41
1
10
46.0674467791329
20
-0.879079852915908
30
0
41
1
10
45.4040833290686
20
-0.555248606894281
30
0
41
1
10
44.9617585432289
20
-0.338285131724035
30
0
41
1
10
44.4353053000411
20
-0.07993268048358
30
0
41
1
10
44.3516060109724
20
-0.0388539545884328
30
0
41
1
10
44.2678883126082
20
0.0022311681436236
30
0
0
SPLINE
5
EA
100
AcDbEntity
8
1
62
256
6
ByLayer
370
18
48
1
60
0
100
AcDbSpline
70
4
71
3
72
14
73
10
40
0
40
0
40
0
40
0
40
0.25
40
0.25
40
0.5
40
0.5
40
0.75
40
0.75
40
1
40
1
40
1
40
1
41
1
10
64.4009412666387
20
-6.7807340795878
30
0
41
1
10
64.4011046763407
20
-6.78090064336186
30
0
41
1
10
64.4011955269584
20
-6.78126362561298
30
0
41
1
10
64.4011890686134
20
-6.78246952647783
30
0
41
1
10
64.4010865529422
20
-6.78331214823561
30
0
41
1
10
64.4006630178904
20
-6.78539251219988
30
0
41
1
10
64.4003361710714
20
-6.78664787148051
30
0
41
1
10
64.3995337566082
20
-6.78925549868384
30
0
41
1
10
64.3990627165757
20
-6.79059886761044
30
0
41
1
10
64.3985769339085
20
-6.79185155852829
30
0
0
SPLINE
5
EB
100
AcDbEntity
8
1
62
256
6
ByLayer
370
18
48
1
60
0
100
AcDbSpline
70
4
71
3
72
8
73
4
40
0
40
0
40
0
40
0
40
1
40
1
40
1
40
1
41
1
10
64.3648551381791
20
-0.431235609733477
30
0
41
1
10
64.3667569549149
20
-0.431836219285117
30
0
41
1
10
64.3677634947143
20
-0.43701711624999
30
0
41
1
10
64.3670590167819
20
-0.442794188356061
30
0
0
SPLINE
5
EC
100
AcDbEntity
8
1
62
256
6
ByLayer
370
18
48
1
60
0
100
AcDbSpline
70
4
71
3
72
65
73
61
40
0
40
0
40
0
40
0
40
0.0103939626006938
40
0.0103939626006938
40
0.0398386359317445
40
0.0398386359317445
40
0.0692833092627955
40
0.0692833092627955
40
0.0987279825938462
40
0.0987279825938462
40
0.128172655924897
40
0.128172655924897
40
0.157617329255948
40
0.157617329255948
40
0.21650667591805
40
0.21650667591805
40
0.2459513492491
40
0.2459513492491
40
0.275396022580151
40
0.275396022580151
40
0.334285369242253
40
0.334285369242253
40
0.363730042573303
40
0.363730042573303
40
0.393174715904353
40
0.393174715904353
40
0.452064062566455
40
0.452064062566455
40
0.510953409228557
40
0.510953409228557
40
0.540398082559608
40
0.540398082559608
40
0.569842755890658
40
0.569842755890658
40
0.584565092556184
40
0.584565092556184
40
0.599287429221709
40
0.599287429221709
40
0.628732102552759
40
0.628732102552759
40
0.687621449214857
40
0.687621449214857
40
0.746510795876956
40
0.746510795876956
40
0.775955469208006
40
0.775955469208006
40
0.805400142539055
40
0.805400142539055
40
0.834844815870105
40
0.834844815870105
40
0.864289489201154
40
0.864289489201154
40
0.893734162532204
40
0.893734162532204
40
0.923178835863253
40
0.923178835863253
40
0.982068182525352
40
0.996790519190877
40
0.996790519190877
40
1
40
1
40
1
40
1
41
1
10
40.9679695205525
20
6.78778736057225
30
0
41
1
10
41.046192532077
20
6.79007872487242
30
0
41
1
10
41.124413763807
20
6.79206707942836
30
0
41
1
10
41.4241325583167
20
6.79849734863549
30
0
41
1
10
41.645553939669
20
6.80076271509921
30
0
41
1
10
42.0883353125664
20
6.80001741416058
30
0
41
1
10
42.3096963840119
20
6.79701019691097
30
0
41
1
10
42.7525552869634
20
6.78560225351075
30
0
41
1
10
42.9740847580949
20
6.77719578790538
30
0
41
1
10
43.4174186900946
20
6.75463609672516
30
0
41
1
10
43.6389483878108
20
6.74051130709154
30
0
41
1
10
44.0817529713738
20
6.70699795354568
30
0
41
1
10
44.3030287782498
20
6.68760592321843
30
0
41
1
10
44.9665570939574
20
6.62189595076609
30
0
41
1
10
45.408503334776
20
6.56804568686945
30
0
41
1
10
46.0707421521817
20
6.47386789946719
30
0
41
1
10
46.291383316064
20
6.44022630097422
30
0
41
1
10
46.7327914257143
20
6.36785938349115
30
0
41
1
10
46.9535547793508
20
6.32914452480929
30
0
41
1
10
47.6162562172884
20
6.20545135393812
30
0
41
1
10
48.0585891489554
20
6.11293387536969
30
0
41
1
10
48.722563714461
20
5.96087166950144
30
0
41
1
10
48.9440552874939
20
5.90793862296619
30
0
41
1
10
49.3865940081155
20
5.79742167252314
30
0
41
1
10
49.6077524912783
20
5.73982229004059
30
0
41
1
10
50.2710279168344
20
5.56038736438003
30
0
41
1
10
50.7129403471375
20
5.43191504574224
30
0
41
1
10
51.5964509589787
20
5.15923618058139
30
0
41
1
10
52.0380447259564
20
5.01501990314287
30
0
41
1
10
52.7000660762558
20
4.78789787531318
30
0
41
1
10
52.9206867615429
20
4.71039054906439
30
0
41
1
10
53.3623141689599
20
4.551576480568
30
0
41
1
10
53.5833128926978
20
4.47027106435922
30
0
41
1
10
53.9150372623004
20
4.3456563101029
30
0
41
1
10
54.0256510985709
20
4.30367542195586
30
0
41
1
10
54.2469968865437
20
4.21884566684886
30
0
41
1
10
54.3577215516763
20
4.17599919877418
30
0
41
1
10
54.6895466945119
20
4.04641462106301
30
0
41
1
10
54.9104844875515
20
3.95855865741311
30
0
41
1
10
55.5725544158088
20
3.69093011741131
30
0
41
1
10
56.0129430616212
20
3.50709568288616
30
0
41
1
10
56.8921615115302
20
3.12996621869669
30
0
41
1
10
57.330990540117
20
2.93666778108266
30
0
41
1
10
57.9883103315483
20
2.64033700005714
30
0
41
1
10
58.2072651404501
20
2.54049991506292
30
0
41
1
10
58.6452568130403
20
2.33911255098914
30
0
41
1
10
58.8642931806571
20
2.23755952966775
30
0
41
1
10
59.3024302029015
20
2.03285240750267
30
0
41
1
10
59.5215306887544
20
1.92969866159098
30
0
41
1
10
59.9598185504941
20
1.72189986194456
30
0
41
1
10
60.1790050177335
20
1.61725415350671
30
0
41
1
10
60.6175844513825
20
1.40668634807616
30
0
41
1
10
60.8369768175468
20
1.30076346495153
30
0
41
1
10
61.2761309140723
20
1.08791647941499
30
0
41
1
10
61.4958947083856
20
0.980994241157418
30
0
41
1
10
62.1558319509066
20
0.658970884200414
30
0
41
1
10
62.7068605469761
20
0.388532486228201
30
0
41
1
10
63.2593469974374
20
0.115952534037518
30
0
41
1
10
63.3940050439943
20
0.0494534745369322
30
0
41
1
10
63.4181100157833
20
0.0375471045630604
30
0
41
1
10
63.4422172201487
20
0.0256372334380615
30
0
0
SPLINE
5
ED
100
AcDbEntity
8
1
62
256
6
ByLayer
370
18
48
1
60
0
100
AcDbSpline
70
4
71
3
72
8
73
4
40
0
40
0
40
0
40
0
40
1
40
1
40
1
40
1
41
1
10
64.2738354196542
20
-0.400775370044158
30
0
41
1
10
64.3041604062566
20
-0.411495783888086
30
0
41
1
10
64.3344963315197
20
-0.421648045951542
30
0
41
1
10
64.3648551381791
20
-0.431235609733506
30
0
0
SPLINE
5
EE
100
AcDbEntity
8
1
62
256
6
ByLayer
370
18
48
1
60
0
100
AcDbSpline
70
4
71
3
72
8
73
4
40
0
40
0
40
0
40
0
40
1
40
1
40
1
40
1
41
1
10
64.3670590167819
20
-0.442794188356061
30
0
41
1
10
64.3443005563778
20
-0.431519129367842
30
0
41
1
10
64.321541205447
20
-0.420245079858802
30
0
41
1
10
64.2987809440103
20
-0.408972077402723
30
0
0
SPLINE
5
EF
100
AcDbEntity
8
1
62
256
6
ByLayer
370
18
48
1
60
0
100
AcDbSpline
70
4
71
3
72
66
73
62
40
0
40
0
40
0
40
0
40
0.015247516444586
40
0.015247516444586
40
0.0300509269181645
40
0.0300509269181645
40
0.0448543373917433
40
0.0448543373917433
40
0.104067979286059
40
0.104067979286059
40
0.133674800233217
40
0.133674800233217
40
0.163281621180374
40
0.163281621180374
40
0.192888442127531
40
0.192888442127531
40
0.222495263074688
40
0.222495263074688
40
0.252102084021846
40
0.252102084021846
40
0.281708904969003
40
0.281708904969003
40
0.340922546863318
40
0.340922546863318
40
0.400136188757632
40
0.400136188757632
40
0.429743009704789
40
0.429743009704789
40
0.444546420178368
40
0.444546420178368
40
0.459349830651947
40
0.459349830651947
40
0.488956651599105
40
0.488956651599105
40
0.518563472546263
40
0.518563472546263
40
0.577777114440579
40
0.577777114440579
40
0.636990756334895
40
0.636990756334895
40
0.666597577282052
40
0.666597577282052
40
0.69620439822921
40
0.69620439822921
40
0.755418040123524
40
0.755418040123524
40
0.785024861070682
40
0.785024861070682
40
0.81463168201784
40
0.81463168201784
40
0.873845323912157
40
0.873845323912157
40
0.903452144859315
40
0.903452144859315
40
0.933058965806473
40
0.933058965806473
40
0.962665786753631
40
0.962665786753631
40
0.992272607700789
40
0.992272607700789
40
1
40
1
40
1
40
1
41
1
10
64.0455060278558
20
-0.283590973218026
30
0
41
1
10
63.9316692403684
20
-0.227267210450322
30
0
41
1
10
63.8178078376235
20
-0.17097310797601
30
0
41
1
10
63.5933479744792
20
-0.0600922636041616
30
0
41
1
10
63.4827239479527
20
-0.0054901984157141
30
0
41
1
10
63.2616198401881
20
0.103542043723451
30
0
41
1
10
63.1511270701837
20
0.157978512412655
30
0
41
1
10
62.5989544089627
20
0.429738960104373
30
0
41
1
10
62.1581483022607
20
0.645796769643454
30
0
41
1
10
61.4982344138617
20
0.967410106118081
30
0
41
1
10
61.2784783044575
20
1.0742010420887
30
0
41
1
10
60.8393398631112
20
1.28679707173066
30
0
41
1
10
60.6199555508579
20
1.39259998402338
30
0
41
1
10
60.1813929228136
20
1.60293846521341
30
0
41
1
10
59.9622151028565
20
1.7074746974819
30
0
41
1
10
59.5239452396802
20
1.91506487524211
30
0
41
1
10
59.3048539878525
20
2.01811966049661
30
0
41
1
10
58.8667359282578
20
2.22263985918585
30
0
41
1
10
58.6477094654027
20
2.32410570765981
30
0
41
1
10
58.2097385574778
20
2.52533219445198
30
0
41
1
10
57.9907944902264
20
2.62509280117959
30
0
41
1
10
57.3335100425776
20
2.92120585338543
30
0
41
1
10
56.8947079417423
20
3.11438061397985
30
0
41
1
10
56.015551062282
20
3.49130823713963
30
0
41
1
10
55.5751977746107
20
3.67506631403299
30
0
41
1
10
54.9131870943397
20
3.9426164421578
30
0
41
1
10
54.6922702283637
20
4.03045269237924
30
0
41
1
10
54.3604785661111
20
4.16001832970534
30
0
41
1
10
54.2497661411159
20
4.20285959638619
30
0
41
1
10
54.0284312384784
20
4.28768677825806
30
0
41
1
10
53.9178229427696
20
4.32966768075474
30
0
41
1
10
53.586115622524
20
4.45428621226733
30
0
41
1
10
53.3651282154646
20
4.53560161041034
30
0
41
1
10
52.9235228796271
20
4.69445182034355
30
0
41
1
10
52.7029134357533
20
4.7719794989444
30
0
41
1
10
52.0409301469742
20
4.99916792716621
30
0
41
1
10
51.599364902865
20
5.14345557593089
30
0
41
1
10
50.7159143844896
20
5.41633179132097
30
0
41
1
10
50.2740347294076
20
5.54493111534362
30
0
41
1
10
49.6108109715104
20
5.72459790153155
30
0
41
1
10
49.3896702574089
20
5.78228128653646
30
0
41
1
10
48.9471692941447
20
5.89298150527361
30
0
41
1
10
48.7256950287904
20
5.94600969935326
30
0
41
1
10
48.06175597734
20
6.09836390182178
30
0
41
1
10
47.6194477949394
20
6.19110381170074
30
0
41
1
10
46.9567813464102
20
6.31517494705699
30
0
41
1
10
46.7360297664957
20
6.35402116742102
30
0
41
1
10
46.294646826432
20
6.42666159857055
30
0
41
1
10
46.0740189005222
20
6.46044180593586
30
0
41
1
10
45.4118234413709
20
6.55503653122142
30
0
41
1
10
44.9699097100292
20
6.60918902068042
30
0
41
1
10
44.3064336004652
20
6.67539313747054
30
0
41
1
10
44.0851760231144
20
6.69495624934817
30
0
41
1
10
43.6424096942124
20
6.72882450275046
30
0
41
1
10
43.4209000479979
20
6.74313401052905
30
0
41
1
10
42.9776077914372
20
6.76607848239001
30
0
41
1
10
42.7560850528953
20
6.77468147701742
30
0
41
1
10
42.3132541340873
20
6.78648551651943
30
0
41
1
10
42.0919077473265
20
6.7896941742533
30
0
41
1
10
41.8127538482446
20
6.7904226155259
30
0
41
1
10
41.7549728442466
20
6.79039385276431
30
0
41
1
10
41.6971885527621
20
6.79018823022741
30
0
0
SPLINE
5
F0
100
AcDbEntity
8
1
62
256
6
ByLayer
370
18
48
1
60
0
100
AcDbSpline
70
4
71
3
72
50
73
46
40
0
40
0
40
0
40
0
40
0.0422373388860994
40
0.0422373388860994
40
0.106088182960358
40
0.106088182960358
40
0.138013604997487
40
0.138013604997487
40
0.169939027034617
40
0.169939027034617
40
0.233789871108876
40
0.233789871108876
40
0.265715293146006
40
0.265715293146006
40
0.297640715183136
40
0.297640715183136
40
0.361491559257398
40
0.361491559257398
40
0.48919324740592
40
0.48919324740592
40
0.505155958424485
40
0.505155958424485
40
0.52111866944305
40
0.52111866944305
40
0.553044091480181
40
0.553044091480181
40
0.61689493555444
40
0.61689493555444
40
0.6807457796287
40
0.6807457796287
40
0.712671201665829
40
0.712671201665829
40
0.744596623702959
40
0.744596623702959
40
0.808447467777219
40
0.808447467777219
40
0.840372889814348
40
0.872298311851478
40
0.872298311851478
40
0.936149155925737
40
0.952111866944303
40
0.952111866944303
40
0.968074577962869
40
0.968074577962869
40
1
40
1
40
1
40
1
41
1
10
43.638799595793
20
0.321474602346711
30
0
41
1
10
43.9322370422828
20
0.177881595210778
30
0
41
1
10
44.2253679086518
20
0.0341948400625824
30
0
41
1
10
44.9611435116057
20
-0.326362946279403
30
0
41
1
10
45.4035361077802
20
-0.543066058680125
30
0
41
1
10
46.0670010083065
20
-0.866530657279128
30
0
41
1
10
46.2881363421589
20
-0.974085374958975
30
0
41
1
10
46.7305094282447
20
-1.18838562619249
30
0
41
1
10
46.9517455311751
20
-1.29513399824248
30
0
41
1
10
47.6156837566564
20
-1.61398807188485
30
0
41
1
10
48.058618502078
20
-1.82469881751345
30
0
41
1
10
48.7240993651795
20
-2.136717614129
30
0
41
1
10
48.9461739056668
20
-2.24007773734397
30
0
41
1
10
49.3897673631652
20
-2.44471293024537
30
0
41
1
10
49.6114091730369
20
-2.54604909163629
30
0
41
1
10
50.2759283004837
20
-2.84690422303441
30
0
41
1
10
50.7184053545614
20
-3.04326976691851
30
0
41
1
10
52.045437991414
20
-3.61771746033676
30
0
41
1
10
52.9296231522032
20
-3.98106352003839
30
0
41
1
10
53.9273342384315
20
-4.36128047043539
30
0
41
1
10
54.0382343974176
20
-4.40312637897009
30
0
41
1
10
54.2601342138589
20
-4.48600221003542
30
0
41
1
10
54.3711181293817
20
-4.52702583582192
30
0
41
1
10
54.7037047684226
20
-4.64865729017461
30
0
41
1
10
54.9251163494931
20
-4.72789043032105
30
0
41
1
10
55.5884961298323
20
-4.95984896303926
30
0
41
1
10
56.0296155368252
20
-5.10683743946598
30
0
41
1
10
56.9104198930815
20
-5.38461124771669
30
0
41
1
10
57.3501037706559
20
-5.51539556072888
30
0
41
1
10
58.0091256931271
20
-5.69866943361731
30
0
41
1
10
58.2287162897138
20
-5.75761211717421
30
0
41
1
10
58.6678534508634
20
-5.87118006868317
30
0
41
1
10
58.8873988545087
20
-5.92580292238736
30
0
41
1
10
59.546054255564
20
-6.08293615757799
30
0
41
1
10
59.9851786023858
20
-6.1786968003928
30
0
41
1
10
60.6445133852456
20
-6.30830704676063
30
0
41
1
10
61.0842893542074
20
-6.39004582385064
30
0
41
1
10
61.5247376199596
20
-6.46234420722777
30
0
41
1
10
62.1860075081293
20
-6.56349143509195
30
0
41
1
10
62.7380601921915
20
-6.63561878619274
30
0
41
1
10
63.2919733129196
20
-6.69196176306517
30
0
41
1
10
63.5137001645494
20
-6.71322241374082
30
0
41
1
10
63.624649080051
20
-6.72321462991826
30
0
41
1
10
63.9573724307426
20
-6.75122762788053
30
0
41
1
10
64.1791509957308
20
-6.76729776260802
30
0
41
1
10
64.400941266876
20
-6.78073407960218
30
0
0
SPLINE
5
F1
100
AcDbEntity
8
1
62
256
6
ByLayer
370
18
48
1
60
0
100
AcDbSpline
70
4
71
3
72
45
73
41
40
0
40
0
40
0
40
0
40
0.0624999999999994
40
0.0624999999999994
40
0.124999999999999
40
0.187499999999998
40
0.187499999999998
40
0.218749999999998
40
0.234374999999998
40
0.234374999999998
40
0.249999999999998
40
0.249999999999998
40
0.312499999999998
40
0.312499999999998
40
0.374999999999998
40
0.437499999999998
40
0.437499999999998
40
0.468749999999998
40
0.468749999999998
40
0.484374999999998
40
0.484374999999998
40
0.499999999999998
40
0.562499999999998
40
0.624999999999998
40
0.687499999999998
40
0.687499999999998
40
0.718749999999998
40
0.718749999999998
40
0.749999999999998
40
0.749999999999998
40
0.812499999999998
40
0.874999999999998
40
0.874999999999998
40
0.937499999999998
40
0.937499999999998
40
0.953124999999999
40
0.953124999999999
40
0.968749999999999
40
0.968749999999999
40
1
40
1
40
1
40
1
41
1
10
64.3670590167819
20
-0.442794188356089
30
0
41
1
10
64.3429895899782
20
-0.64017555091354
30
0
41
1
10
64.3219925323831
20
-0.83582230425489
30
0
41
1
10
64.2850738988354
20
-1.22366043777544
30
0
41
1
10
64.253232660163
20
-1.6080428858761
30
0
41
1
10
64.2297752694948
20
-1.98540702061251
30
0
41
1
10
64.2147740462547
20
-2.26570583679077
30
0
41
1
10
64.2079230440004
20
-2.40517334034405
30
0
41
1
10
64.2019573356433
20
-2.54359252716611
30
0
41
1
10
64.1981679977072
20
-2.63563557982803
30
0
41
1
10
64.1963691616347
20
-2.68149620345028
30
0
41
1
10
64.1878602483521
20
-2.9090942908698
30
0
41
1
10
64.1825621254897
20
-3.08655714232847
30
0
41
1
10
64.1743135132486
20
-3.43248705023299
30
0
41
1
10
64.1684146199004
20
-3.76942017743701
30
0
41
1
10
64.1662963229575
20
-4.08842457778749
30
0
41
1
10
64.165924419631
20
-4.32082956567581
30
0
41
1
10
64.166004674797
20
-4.39715490299713
30
0
41
1
10
64.166419604797
20
-4.5098976869898
30
0
41
1
10
64.1666074146653
20
-4.54722283968266
30
0
41
1
10
64.1670781036983
20
-4.62094832784203
30
0
41
1
10
64.168494612554
20
-4.80311618643896
30
0
41
1
10
64.1731158196881
20
-5.11195431355651
30
0
41
1
10
64.1836802683156
20
-5.48404017791862
30
0
41
1
10
64.1940417359806
20
-5.70567250797214
30
0
41
1
10
64.203352340634
20
-5.86177821860858
30
0
41
1
10
64.2067148692323
20
-5.91213400819257
30
0
41
1
10
64.2140241579789
20
-6.00936450500802
30
0
41
1
10
64.2179449968661
20
-6.05589361695357
30
0
41
1
10
64.2305925993025
20
-6.18934451777764
30
0
41
1
10
64.2498071962279
20
-6.35093847943904
30
0
41
1
10
64.2748739943256
20
-6.48056889247462
30
0
41
1
10
64.3036039187896
20
-6.59422585670904
30
0
41
1
10
64.3197993107427
20
-6.64306809857888
30
0
41
1
10
64.3429084151223
20
-6.69392635947173
30
0
41
1
10
64.3476739848888
20
-6.70358740604706
30
0
41
1
10
64.3575091696067
20
-6.72187938911117
30
0
41
1
10
64.3625817366806
20
-6.73051398185638
30
0
41
1
10
64.3782356403489
20
-6.75479098916304
30
0
41
1
10
64.3892640856208
20
-6.76883151005492
30
0
41
1
10
64.4009412666554
20
-6.78073407960483
30
0
0
SPLINE
5
F2
100
AcDbEntity
8
1
62
256
6
ByLayer
370
18
48
1
60
0
100
AcDbSpline
70
4
71
3
72
12
73
8
40
0
40
0
40
0
40
0
40
0.0944762550517614
40
0.0944762550517614
40
0.396317503367841
40
0.396317503367841
40
1
40
1
40
1
40
1
41
1
10
26.3378502322199
20
-6.76328349718969
30
0
41
1
10
26.1996186563912
20
-6.78222315885066
30
0
41
1
10
26.0613736519323
20
-6.80015531977926
30
0
41
1
10
25.4818589996602
20
-6.87106095714003
30
0
41
1
10
25.0410688015899
20
-6.91461742326845
30
0
41
1
10
23.7190290501617
20
-7.0135763806669
30
0
41
1
10
22.8380928518753
20
-7.0372966692845
30
0
41
1
10
21.9546049943795
20
-7.01818385467692
30
0
0
SPLINE
5
F3
100
AcDbEntity
8
1
62
256
6
ByLayer
370
18
48
1
60
0
100
AcDbSpline
70
4
71
3
72
16
73
12
40
0
40
0
40
0
40
0
40
0.250000000000109
40
0.250000000000109
40
0.375000000000024
40
0.375000000000024
40
0.49999999999994
40
0.49999999999994
40
0.74999999999997
40
0.74999999999997
40
1
40
1
40
1
40
1
41
1
10
21.9546049943795
20
-7.01818385467692
30
0
41
1
10
21.9463430608215
20
-7.01800512125908
30
0
41
1
10
21.9388437338748
20
-7.01778394934112
30
0
41
1
10
21.9287093931093
20
-7.01737991102851
30
0
41
1
10
21.9255091868905
20
-7.01723211443027
30
0
41
1
10
21.9196821295784
20
-7.01691866253091
30
0
41
1
10
21.9170295607932
20
-7.01675216949303
30
0
41
1
10
21.9098469150441
20
-7.0162210939246
30
0
41
1
10
21.9060834417144
20
-7.01582027825529
30
0
41
1
10
21.9011075727694
20
-7.01496869339888
30
0
41
1
10
21.8998128125205
20
-7.01450853876347
30
0
41
1
10
21.8998128125205
20
-7.01402853550684
30
0
0
SPLINE
5
F4
100
AcDbEntity
8
1
62
256
6
ByLayer
370
18
48
1
60
0
100
AcDbSpline
70
4
71
3
72
27
73
23
40
0
40
0
40
0
40
0
40
0.124999999999968
40
0.124999999999968
40
0.187499999999928
40
0.187499999999928
40
0.249999999999889
40
0.312499999999849
40
0.312499999999849
40
0.37499999999981
40
0.37499999999981
40
0.499999999999731
40
0.499999999999731
40
0.624999999999652
40
0.624999999999652
40
0.68749999999971
40
0.68749999999971
40
0.749999999999768
40
0.749999999999768
40
0.874999999999884
40
0.874999999999884
40
1
40
1
40
1
40
1
41
1
10
21.8998128125205
20
-1.15159776794366
30
0
41
1
10
21.8998128125205
20
-1.14310917233729
30
0
41
1
10
21.9009051823735
20
-1.13480183229282
30
0
41
1
10
21.9041315105331
20
-1.12260463805217
30
0
41
1
10
21.9054880088356
20
-1.1185551815326
30
0
41
1
10
21.9086882305056
20
-1.11073160859115
30
0
41
1
10
21.9123692361935
20
-1.10317016221072
30
0
41
1
10
21.9169905019878
20
-1.09612171196133
30
0
41
1
10
21.9220945345982
20
-1.08933686957553
30
0
41
1
10
21.924885022773
20
-1.08608804741252
30
0
41
1
10
21.9337443137401
20
-1.07701545488155
30
0
41
1
10
21.9403880118258
20
-1.07174119805484
30
0
41
1
10
21.9550524889797
20
-1.06289987578845
30
0
41
1
10
21.9628039188207
20
-1.059486524736
30
0
41
1
10
21.9750453626462
20
-1.05584366645101
30
0
41
1
10
21.9792577327349
20
-1.05487627399697
30
0
41
1
10
21.9876788688824
20
-1.0534992177123
30
0
41
1
10
21.9919038535137
20
-1.05308101508462
30
0
41
1
10
22.0046212717487
20
-1.05262273837721
30
0
41
1
10
22.0132765419388
20
-1.05340748624408
30
0
41
1
10
22.029853387314
20
-1.05706435497842
30
0
41
1
10
22.0378314251863
20
-1.05990188971381
30
0
41
1
10
22.0454864938292
20
-1.06378888029315
30
0
0
SPLINE
5
F5
100
AcDbEntity
8
1
62
256
6
ByLayer
370
18
48
1
60
0
100
AcDbSpline
70
4
71
3
72
53
73
49
40
0
40
0
40
0
40
0
40
0.0671388755809539
40
0.0671388755809539
40
0.100708313371431
40
0.100708313371431
40
0.11749303226667
40
0.11749303226667
40
0.134277751161909
40
0.134277751161909
40
0.201416626742862
40
0.201416626742862
40
0.234986064533337
40
0.234986064533337
40
0.268555502323812
40
0.268555502323812
40
0.335694377904764
40
0.335694377904764
40
0.352479096800004
40
0.352479096800004
40
0.369263815695243
40
0.402833253485723
40
0.402833253485723
40
0.436402691276203
40
0.436402691276203
40
0.469972129066684
40
0.469972129066684
40
0.537111004647644
40
0.537111004647644
40
0.570680442438123
40
0.570680442438123
40
0.604249880228602
40
0.604249880228602
40
0.637819318019082
40
0.637819318019082
40
0.671388755809561
40
0.671388755809561
40
0.73852763139052
40
0.73852763139052
40
0.772097069181
40
0.772097069181
40
0.80566650697148
40
0.80566650697148
40
0.872805382552439
40
0.872805382552439
40
0.939944258133398
40
0.939944258133398
40
1
40
1
40
1
40
1
41
1
10
22.0454864938292
20
-1.06378888029315
30
0
41
1
10
22.4853479321865
20
-1.28713596532535
30
0
41
1
10
22.9256212114933
20
-1.50730175279935
30
0
41
1
10
23.5866740460983
20
-1.83283210680995
30
0
41
1
10
23.8071337852756
20
-1.94055163625782
30
0
41
1
10
24.138006684077
20
-2.10091159247321
30
0
41
1
10
24.2483398395216
20
-2.15416684510563
30
0
41
1
10
24.4689005116993
20
-2.26017890158451
30
0
41
1
10
24.5791481273445
20
-2.31294512586695
30
0
41
1
10
25.1302353010469
20
-2.5755580655013
30
0
41
1
10
25.5706130261666
20
-2.78177411353909
30
0
41
1
10
26.2306362128258
20
-3.08492847800747
30
0
41
1
10
26.4505393437966
20
-3.18497584676075
30
0
41
1
10
26.8901202965786
20
-3.38306615433652
30
0
41
1
10
27.1098401419499
20
-3.4810319746116
30
0
41
1
10
27.7695018574845
20
-3.77045386749006
30
0
41
1
10
28.2098726125644
20
-3.95757774223344
30
0
41
1
10
28.7612377026909
20
-4.18396309507384
30
0
41
1
10
28.871538093028
20
-4.22885838487508
30
0
41
1
10
29.09200009674
20
-4.31780084382845
30
0
41
1
10
29.422567017126
20
-4.44997609060383
30
0
41
1
10
29.7527754100813
20
-4.57841036623933
30
0
41
1
10
30.1927757853298
20
-4.74626155927641
30
0
41
1
10
30.4126283068385
20
-4.82850360987325
30
0
41
1
10
30.8520390199555
20
-4.98958740487862
30
0
41
1
10
31.0716355146658
20
-5.06836863523375
30
0
41
1
10
31.7309304236133
20
-5.29830001427615
30
0
41
1
10
32.171003335871
20
-5.44325325098759
30
0
41
1
10
32.8318951551402
20
-5.64832544605247
30
0
41
1
10
33.0523258928828
20
-5.71461586312339
30
0
41
1
10
33.4934758682607
20
-5.84301794272213
30
0
41
1
10
33.7138862507628
20
-5.9050389718538
30
0
41
1
10
34.1542875297684
20
-6.02464115463383
30
0
41
1
10
34.374296040004
20
-6.08223167387737
30
0
41
1
10
34.8139570652277
20
-6.19293335879132
30
0
41
1
10
35.033632004656
20
-6.24601686152326
30
0
41
1
10
35.6928587382674
20
-6.39785970574152
30
0
41
1
10
36.1325189368352
20
-6.48933928565779
30
0
41
1
10
36.7921777003108
20
-6.61202059867821
30
0
41
1
10
37.0120964287607
20
-6.65048239700383
30
0
41
1
10
37.4520603054133
20
-6.72245868634585
30
0
41
1
10
37.6721872481148
20
-6.75594734917701
30
0
41
1
10
38.3332538646377
20
-6.84850829611091
30
0
41
1
10
38.7736853081852
20
-6.89964102894922
30
0
41
1
10
39.6538558404745
20
-6.981154754003
30
0
41
1
10
40.0935956185173
20
-7.01152222212383
30
0
41
1
10
40.9262834686585
20
-7.04911710057644
30
0
41
1
10
41.3193026638531
20
-7.05841711850374
30
0
41
1
10
41.7126556297537
20
-7.0591284659221
30
0
0
SPLINE
5
F6
100
AcDbEntity
8
1
62
256
6
ByLayer
370
18
48
1
60
0
100
AcDbSpline
70
4
71
3
72
157
73
153
40
0
40
0
40
0
40
0
40
0.0191548864076731
40
0.0191548864076731
40
0.0383097728153463
40
0.0383097728153463
40
0.0478872160191831
40
0.0478872160191831
40
0.0574646592230198
40
0.0574646592230198
40
0.0670421024268566
40
0.0670421024268566
40
0.0766195456306933
40
0.0766195456306933
40
0.0957744320383672
40
0.0957744320383672
40
0.114929318446041
40
0.114929318446041
40
0.134084204853715
40
0.134084204853715
40
0.153239091261389
40
0.153239091261389
40
0.162816534465226
40
0.162816534465226
40
0.172393977669063
40
0.172393977669063
40
0.191548864076739
40
0.191548864076739
40
0.210703750484414
40
0.210703750484414
40
0.220281193688252
40
0.220281193688252
40
0.229858636892089
40
0.229858636892089
40
0.249013523299765
40
0.249013523299765
40
0.268168409707441
40
0.268168409707441
40
0.27295713130936
40
0.27295713130936
40
0.277745852911279
40
0.277745852911279
40
0.287323296115117
40
0.287323296115117
40
0.306478182522793
40
0.306478182522793
40
0.325633068930469
40
0.325633068930469
40
0.344787955338145
40
0.344787955338145
40
0.363942841745821
40
0.363942841745821
40
0.37352028494966
40
0.37352028494966
40
0.383097728153498
40
0.383097728153498
40
0.392675171357336
40
0.392675171357336
40
0.402252614561175
40
0.402252614561175
40
0.421407500968851
40
0.421407500968851
40
0.440562387376527
40
0.440562387376527
40
0.450139830580365
40
0.450139830580365
40
0.454928552182284
40
0.454928552182284
40
0.459717273784203
40
0.459717273784203
40
0.478872160191882
40
0.478872160191882
40
0.488449603395721
40
0.488449603395721
40
0.493238324997641
40
0.493238324997641
40
0.49802704659956
40
0.49802704659956
40
0.5076044898034
40
0.5076044898034
40
0.51718193300724
40
0.51718193300724
40
0.536336819414919
40
0.536336819414919
40
0.555491705822599
40
0.555491705822599
40
0.574646592230278
40
0.574646592230278
40
0.593801478637958
40
0.593801478637958
40
0.603378921841798
40
0.603378921841798
40
0.612956365045638
40
0.612956365045638
40
0.632111251453317
40
0.632111251453317
40
0.651266137860997
40
0.651266137860997
40
0.670421024268676
40
0.670421024268676
40
0.675209745870596
40
0.675209745870596
40
0.679998467472515
40
0.679998467472515
40
0.689575910676356
40
0.689575910676356
40
0.708730797084037
40
0.708730797084037
40
0.718308240287877
40
0.718308240287877
40
0.727885683491717
40
0.727885683491717
40
0.747040569899396
40
0.747040569899396
40
0.766195456307076
40
0.766195456307076
40
0.785350342714756
40
0.785350342714756
40
0.804505229122435
40
0.804505229122435
40
0.814082672326275
40
0.814082672326275
40
0.823660115530115
40
0.823660115530115
40
0.833237558733955
40
0.833237558733955
40
0.842815001937794
40
0.842815001937794
40
0.861969888345473
40
0.861969888345473
40
0.881124774753152
40
0.881124774753152
40
0.900279661160831
40
0.900279661160831
40
0.90506838276275
40
0.90506838276275
40
0.90985710436467
40
0.90985710436467
40
0.919434547568508
40
0.929011990772347
40
0.929011990772347
40
0.938589433976185
40
0.938589433976185
40
0.948166877180023
40
0.948166877180023
40
0.957744320383862
40
0.957744320383862
40
0.976899206791539
40
0.976899206791539
40
0.996054093199216
40
0.996054093199216
40
1
40
1
40
1
40
1
41
1
10
8.1460678893252
20
5.89388944754651
30
0
41
1
10
8.44239517560885
20
5.81384862778503
30
0
41
1
10
8.73798856722547
20
5.72993435471884
30
0
41
1
10
9.32772438469067
20
5.55441221289922
30
0
41
1
10
9.62182450695647
20
5.46274577068956
30
0
41
1
10
10.0621229452039
20
5.31977050030903
30
0
41
1
10
10.2087547022732
20
5.2712099540455
30
0
41
1
10
10.5018188134924
20
5.17238316151787
30
0
41
1
10
10.6482520367106
20
5.12211637402302
30
0
41
1
10
10.9412584643435
20
5.02037199378785
30
0
41
1
10
11.0877014085802
20
4.96871250329713
30
0
41
1
10
11.380378422542
20
4.86369539671978
30
0
41
1
10
11.5266286584323
20
4.81036063095644
30
0
41
1
10
11.9651423747484
20
4.64791707454046
30
0
41
1
10
12.2571313689619
20
4.53630860387477
30
0
41
1
10
12.8409496444096
20
4.30729987398126
30
0
41
1
10
13.1327870803087
20
4.1899170592896
30
0
41
1
10
13.7164996104634
20
3.9497003163626
30
0
41
1
10
14.0084387979028
20
3.82697377286669
30
0
41
1
10
14.5925130095563
20
3.57633592323563
30
0
41
1
10
14.8845777737425
20
3.44830075757451
30
0
41
1
10
15.3229166099831
20
3.25247753183442
30
0
41
1
10
15.469051859434
20
3.18654161399809
30
0
41
1
10
15.7615357747622
20
3.05364833331191
30
0
41
1
10
15.9080153816376
20
2.98693475795912
30
0
41
1
10
16.3476498923828
20
2.78504964219997
30
0
41
1
10
16.6410447273936
20
2.64820798810405
30
0
41
1
10
17.228604789281
20
2.37023985162688
30
0
41
1
10
17.5227694612979
20
2.22910659157196
30
0
41
1
10
17.9650250774207
20
2.0149881802316
30
0
41
1
10
18.1126026504059
20
1.94319506670777
30
0
41
1
10
18.4080951736619
20
1.79879919494377
30
0
41
1
10
18.5561219628315
20
1.72614207619458
30
0
41
1
10
18.9995754945209
20
1.50770625805691
30
0
41
1
10
19.2946141246885
20
1.36145021278966
30
0
41
1
10
19.8833411130648
20
1.06733484122626
30
0
41
1
10
20.1770408675023
20
0.919500481597737
30
0
41
1
10
20.5435263312457
20
0.734127836681495
30
0
41
1
10
20.6167851250109
20
0.697011315794782
30
0
41
1
10
20.7632919602015
20
0.622829315056691
30
0
41
1
10
20.8365548254391
20
0.585794208853343
30
0
41
1
10
21.0563467271148
20
0.474803930344109
30
0
41
1
10
21.202801353857
20
0.400804496730387
30
0
41
1
10
21.6418309363712
20
0.178553450356219
30
0
41
1
10
21.9341209946386
20
0.0301504207924665
30
0
41
1
10
22.5181131713254
20
-0.266708724594338
30
0
41
1
10
22.8098823381163
20
-0.415028611338243
30
0
41
1
10
23.3933479512467
20
-0.710684237817048
30
0
41
1
10
23.6849968578698
20
-0.858115563062768
30
0
41
1
10
24.2684903733894
20
-1.15146074546104
30
0
41
1
10
24.5603050344803
20
-1.29743553083631
30
0
41
1
10
24.9980501955591
20
-1.51550199299365
30
0
41
1
10
25.1439797407211
20
-1.58802026798131
30
0
41
1
10
25.4359059300588
20
-1.73263888340304
30
0
41
1
10
25.5818822540953
20
-1.80477910253026
30
0
41
1
10
25.8740354150792
20
-1.94837802754071
30
0
41
1
10
26.0203399572721
20
-2.01958667460104
30
0
41
1
10
26.3130586033127
20
-2.16150325871357
30
0
41
1
10
26.4594858102494
20
-2.23218509250049
30
0
41
1
10
26.899001740874
20
-2.44333854601771
30
0
41
1
10
27.1922967106389
20
-2.58297236916479
30
0
41
1
10
27.7798242089662
20
-2.85923602209044
30
0
41
1
10
28.0741242487484
20
-2.99573584325921
30
0
41
1
10
28.516551008211
20
-3.19769716768536
30
0
41
1
10
28.6641869782252
20
-3.26455743334361
30
0
41
1
10
28.8859201805337
20
-3.36408239987463
30
0
41
1
10
28.9598818071868
20
-3.39713118162661
30
0
41
1
10
29.1076667698681
20
-3.46285773680418
30
0
41
1
10
29.1815190392481
20
-3.49555002314742
30
0
41
1
10
29.5505701109096
20
-3.65817843131168
30
0
41
1
10
29.8450996099081
20
-3.78568804769134
30
0
41
1
10
30.2859138327767
20
-3.97293846909216
30
0
41
1
10
30.4326953456226
20
-4.03467392592583
30
0
41
1
10
30.6526601847686
20
-4.1262109067379
30
0
41
1
10
30.7259410780421
20
-4.15655565282799
30
0
41
1
10
30.8724864005968
20
-4.21680310382084
30
0
41
1
10
30.9457654191548
20
-4.2466819417952
30
0
41
1
10
31.1655968214475
20
-4.33563287934018
30
0
41
1
10
31.312067273796
20
-4.39414459021521
30
0
41
1
10
31.6047665712538
20
-4.50971484694023
30
0
41
1
10
31.7510096151408
20
-4.56675011676649
30
0
41
1
10
32.1894473017989
20
-4.73556238228539
30
0
41
1
10
32.4813143088249
20
-4.84509572943918
30
0
41
1
10
33.0647408334939
20
-5.05734786422127
30
0
41
1
10
33.3563058805609
20
-5.16006457534746
30
0
41
1
10
33.9393270912537
20
-5.35844878445656
30
0
41
1
10
34.230846255077
20
-5.45403458638845
30
0
41
1
10
34.8139336329294
20
-5.6379641280962
30
0
41
1
10
35.105434241955
20
-5.72638789558872
30
0
41
1
10
35.5428201631989
20
-5.85342113239909
30
0
41
1
10
35.6886200134184
20
-5.89485132223754
30
0
41
1
10
35.9803963893858
20
-5.97569089397436
30
0
41
1
10
36.1265000322401
20
-6.0149656422885
30
0
41
1
10
36.5649533155766
20
-6.12991455295929
30
0
41
1
10
36.8574900522427
20
-6.20265593057698
30
0
41
1
10
37.4431919598772
20
-6.34009750761589
30
0
41
1
10
37.7363554070697
20
-6.40479229595263
30
0
41
1
10
38.3238736900338
20
-6.52554063775344
30
0
41
1
10
38.6181777857572
20
-6.58164151320793
30
0
41
1
10
38.9869176920478
20
-6.64623551584043
30
0
41
1
10
39.0607097153378
20
-6.65887699650187
30
0
41
1
10
39.2083875997059
20
-6.68360009586996
30
0
41
1
10
39.2822968772582
20
-6.69568593238054
30
0
41
1
10
39.5039870357126
20
-6.73107907852534
30
0
41
1
10
39.651600480399
20
-6.75350315696937
30
0
41
1
10
40.0938669196528
20
-6.81729873956144
30
0
41
1
10
40.3879623589793
20
-6.85517957890588
30
0
41
1
10
40.8282111138868
20
-6.90494357967941
30
0
41
1
10
40.9748075419912
20
-6.92035371338628
30
0
41
1
10
41.2680739129006
20
-6.94869915468598
30
0
41
1
10
41.4146157779437
20
-6.9616886475992
30
0
41
1
10
41.8538435211009
20
-6.99716431055714
30
0
41
1
10
42.1461854335402
20
-7.01613611474886
30
0
41
1
10
42.7301188513446
20
-7.04467318671382
30
0
41
1
10
43.0217742418072
20
-7.05422284369754
30
0
41
1
10
43.6048463142151
20
-7.06388758206415
30
0
41
1
10
43.8962161543564
20
-7.06400575140518
30
0
41
1
10
44.4789860183186
20
-7.05485817426793
30
0
41
1
10
44.7703604302775
20
-7.04560042260064
30
0
41
1
10
45.2073288091278
20
-7.02464676009529
30
0
41
1
10
45.3529797076582
20
-7.01648457839221
30
0
41
1
10
45.644308739296
20
-6.99780286799043
30
0
41
1
10
45.7899695322525
20
-6.98727760666196
30
0
41
1
10
46.0814353981274
20
-6.96389621029201
30
0
41
1
10
46.2273688291823
20
-6.95108669967561
30
0
41
1
10
46.5193219581128
20
-6.92313805763735
30
0
41
1
10
46.6653469402635
20
-6.9079974086566
30
0
41
1
10
47.1035977610104
20
-6.85906942431265
30
0
41
1
10
47.3959733945172
20
-6.82176131808006
30
0
41
1
10
47.9814916887719
20
-6.73781484375397
30
0
41
1
10
48.2747014421724
20
-6.69121812920395
30
0
41
1
10
48.8622614933341
20
-6.5888488241695
30
0
41
1
10
49.1566158910948
20
-6.53307801538975
30
0
41
1
10
49.5254585795445
20
-6.45771323896108
30
0
41
1
10
49.5992692432429
20
-6.44235537566456
30
0
41
1
10
49.7469716436463
20
-6.41106430560279
30
0
41
1
10
49.820839106468
20
-6.39513582453981
30
0
41
1
10
50.0422118615524
20
-6.34655799782152
30
0
41
1
10
50.3369784370273
20
-6.27963411470216
30
0
41
1
10
50.6310303798045
20
-6.20848911601075
30
0
41
1
10
50.9247617833765
20
-6.13527538653386
30
0
41
1
10
51.0714548153341
20
-6.09761860909825
30
0
41
1
10
51.3648950112448
20
-6.02065062195254
30
0
41
1
10
51.5115202466706
20
-5.98121275818781
30
0
41
1
10
51.8044801800266
20
-5.90032678393166
30
0
41
1
10
51.9508327754166
20
-5.85889773401419
30
0
41
1
10
52.3895376629177
20
-5.73168855633949
30
0
41
1
10
52.6815013910463
20
-5.64294014954564
30
0
41
1
10
53.2649384064608
20
-5.45820623956968
30
0
41
1
10
53.5564239574729
20
-5.36224113838352
30
0
41
1
10
53.9077877995151
20
-5.24233745214695
30
0
41
1
10
53.9678017980914
20
-5.22171313496008
30
0
41
1
10
54.0278126806985
20
-5.20094602176849
30
0
0
SPLINE
5
F7
100
AcDbEntity
8
1
62
256
6
ByLayer
370
18
48
1
60
0
100
AcDbSpline
70
4
71
3
72
8
73
4
40
0
40
0
40
0
40
0
40
1
40
1
40
1
40
1
41
1
10
11.4672718607098
20
5.55887134495225
30
0
41
1
10
11.0990765426477
20
5.44476752270435
30
0
41
1
10
10.7284860635162
20
5.32834986836923
30
0
41
1
10
10.3547800505373
20
5.21173046032268
30
0
0
SPLINE
5
F8
100
AcDbEntity
8
1
62
256
6
ByLayer
370
18
48
1
60
0
100
AcDbSpline
70
4
71
3
72
31
73
27
40
0
40
0
40
0
40
0
40
0.0012983973753868
40
0.0012983973753868
40
0.0512334775066174
40
0.0512334775066174
40
0.101168557637848
40
0.101168557637848
40
0.201038717900307
40
0.201038717900307
40
0.300908878162767
40
0.300908878162767
40
0.325876418228382
40
0.325876418228382
40
0.350843958293998
40
0.400779038425229
40
0.400779038425229
40
0.500649198687691
40
0.500649198687691
40
0.600519358950153
40
0.600519358950153
40
0.700389519212615
40
0.700389519212615
40
0.800259679475077
40
0.800259679475077
40
1
40
1
40
1
40
1
41
1
10
2.78892457733721
20
6.98906608032956
30
0
41
1
10
2.790644119624
20
6.98906874747377
30
0
41
1
10
2.79236521806499
20
6.98907017839392
30
0
41
1
10
2.86033634222844
20
6.98907799922995
30
0
41
1
10
2.92889970934513
20
6.98727263946626
30
0
41
1
10
3.07006104041756
20
6.98053644028664
30
0
41
1
10
3.14266066007679
20
6.97560427266768
30
0
41
1
10
3.36582853391707
20
6.95670088312482
30
0
41
1
10
3.52173417842494
20
6.93864847758138
30
0
41
1
10
3.84519193788719
20
6.89390523418095
30
0
41
1
10
4.0127599353205
20
6.86720156128135
30
0
41
1
10
4.22842617165489
20
6.82938377638845
30
0
41
1
10
4.2718717279902
20
6.82159661634904
30
0
41
1
10
4.35905775557717
20
6.80565352750489
30
0
41
1
10
4.49039552569684
20
6.78116526057326
30
0
41
1
10
4.62332941240095
20
6.75505945889256
30
0
41
1
10
4.89114606154453
20
6.7009251246717
30
0
41
1
10
5.07228176485606
20
6.66228076380872
30
0
41
1
10
5.43900431095076
20
6.58085629018461
30
0
41
1
10
5.6245941438608
20
6.53807254934895
30
0
41
1
10
5.99969985816699
20
6.44909087404832
30
0
41
1
10
6.18921747327929
20
6.40289082834431
30
0
41
1
10
6.57178223088044
20
6.3076402477837
30
0
41
1
10
6.76483044125013
20
6.25858840830108
30
0
41
1
10
7.34880731292225
20
6.1078392847046
30
0
41
1
10
7.74454715553452
20
6.00257447744039
30
0
41
1
10
8.14581978967348
20
5.89393961355822
30
0
0
SPLINE
5
F9
100
AcDbEntity
8
1
62
256
6
ByLayer
370
18
48
1
60
0
100
AcDbSpline
70
4
71
3
72
24
73
20
40
0
40
0
40
0
40
0
40
0.125000000000002
40
0.125000000000002
40
0.250000000000004
40
0.250000000000004
40
0.312500000000005
40
0.312500000000005
40
0.375000000000006
40
0.375000000000006
40
0.500000000000005
40
0.500000000000005
40
0.625000000000004
40
0.625000000000004
40
0.750000000000002
40
0.750000000000002
40
0.875000000000001
40
0.875000000000001
40
1
40
1
40
1
40
1
41
1
10
21.8998128125119
20
6.98882413014425
30
0
41
1
10
21.4682243770192
20
7.00976650574881
30
0
41
1
10
21.0360812637146
20
7.02054760065417
30
0
41
1
10
20.1698277391003
20
7.02148798809102
30
0
41
1
10
19.7357059484084
20
7.01165224599362
30
0
41
1
10
19.0824976761093
20
6.98125786518824
30
0
41
1
10
18.8644407088439
20
6.96851542379952
30
0
41
1
10
18.4275425165808
20
6.93778580253246
30
0
41
1
10
18.209296276523
20
6.91984066277834
30
0
41
1
10
17.5552807212118
20
6.85839214544504
30
0
41
1
10
17.1201100864392
20
6.80727139254196
30
0
41
1
10
16.2507647641868
20
6.68523546931706
30
0
41
1
10
15.8165937519758
20
6.61431221134362
30
0
41
1
10
14.9483728847742
20
6.45330735662944
30
0
41
1
10
14.5143108155882
20
6.36324134142944
30
0
41
1
10
13.6456369953339
20
6.16449951220403
30
0
41
1
10
13.2110521302346
20
6.05578961726155
30
0
41
1
10
12.3403920420821
20
5.82055430247064
30
0
41
1
10
11.9043290224873
20
5.69402596330499
30
0
41
1
10
11.4672027979167
20
5.55886290483255
30
0
0
SPLINE
5
FA
100
AcDbEntity
8
1
62
256
6
ByLayer
370
18
48
1
60
0
100
AcDbSpline
70
4
71
3
72
83
73
79
40
0
40
0
40
0
40
0
40
0.0156249999999994
40
0.0156249999999994
40
0.0312499999999988
40
0.0312499999999988
40
0.0624999999999969
40
0.0624999999999969
40
0.0937499999999949
40
0.0937499999999949
40
0.101562499999995
40
0.101562499999995
40
0.109374999999995
40
0.124999999999995
40
0.156249999999994
40
0.156249999999994
40
0.171874999999994
40
0.171874999999994
40
0.187499999999994
40
0.187499999999994
40
0.249999999999992
40
0.249999999999992
40
0.265624999999991
40
0.265624999999991
40
0.28124999999999
40
0.28124999999999
40
0.31249999999999
40
0.31249999999999
40
0.343749999999989
40
0.343749999999989
40
0.359374999999988
40
0.359374999999988
40
0.374999999999988
40
0.374999999999988
40
0.437499999999988
40
0.437499999999988
40
0.453124999999988
40
0.453124999999988
40
0.468749999999988
40
0.468749999999988
40
0.499999999999988
40
0.499999999999988
40
0.531249999999987
40
0.531249999999987
40
0.539062499999987
40
0.539062499999987
40
0.546874999999987
40
0.562499999999987
40
0.562499999999987
40
0.593749999999986
40
0.593749999999986
40
0.609374999999985
40
0.617187499999985
40
0.617187499999985
40
0.624999999999985
40
0.624999999999985
40
0.687499999999985
40
0.687499999999985
40
0.703124999999985
40
0.703124999999985
40
0.718749999999985
40
0.718749999999985
40
0.749999999999986
40
0.749999999999986
40
0.781249999999987
40
0.781249999999987
40
0.796874999999988
40
0.796874999999988
40
0.812499999999988
40
0.812499999999988
40
0.874999999999992
40
0.874999999999992
40
0.890624999999993
40
0.890624999999993
40
0.906249999999994
40
0.937499999999996
40
0.937499999999996
40
1
40
1
40
1
40
1
41
1
10
21.8998128125205
20
7.00089423504488
30
0
41
1
10
22.1211624439632
20
6.99231464784069
30
0
41
1
10
22.3425627111801
20
6.98105595307865
30
0
41
1
10
22.7851379980369
20
6.95322517932448
30
0
41
1
10
23.0062918696734
20
6.93665612495897
30
0
41
1
10
23.6695179726776
20
6.87905793002659
30
0
41
1
10
24.1113613660662
20
6.83013816800596
30
0
41
1
10
24.9952975003793
20
6.71168265135736
30
0
41
1
10
25.4373724779463
20
6.64214105830467
30
0
41
1
10
25.9905665950257
20
6.54255116543604
30
0
41
1
10
26.1012587319105
20
6.52199554729759
30
0
41
1
10
26.3225558779881
20
6.47965529662227
30
0
41
1
10
26.6543950953046
20
6.41429800767918
30
0
41
1
10
27.4280721138169
20
6.24898645144111
30
0
41
1
10
28.0906260432615
20
6.08573358407818
30
0
41
1
10
28.7534168578465
20
5.90870186813706
30
0
41
1
10
28.9743869273186
20
5.84739548449332
30
0
41
1
10
29.4165158675524
20
5.72029847764466
30
0
41
1
10
29.6377300211861
20
5.65449080710843
30
0
41
1
10
30.7439388382211
20
5.3147135232301
30
0
41
1
10
31.6267724868472
20
5.00945688878545
30
0
41
1
10
32.7315585517899
20
4.59149623635338
30
0
41
1
10
32.9525772781662
20
4.50608366939016
30
0
41
1
10
33.3948399085662
20
4.33175998427714
30
0
41
1
10
33.6161448198489
20
4.24282271372294
30
0
41
1
10
34.2794478435629
20
3.97144718911363
30
0
41
1
10
34.7211580041511
20
3.78431969974338
30
0
41
1
10
35.6044528597708
20
3.39908949159306
30
0
41
1
10
36.0460383467884
20
3.20098807434479
30
0
41
1
10
36.7089689628525
20
2.89671709181405
30
0
41
1
10
36.930037280772
20
2.79410620259716
30
0
41
1
10
37.3724506374295
20
2.5866718547737
30
0
41
1
10
37.5935592844582
20
2.48195913107404
30
0
41
1
10
38.6984733472432
20
1.95406120497449
30
0
41
1
10
39.5807695164087
20
1.51763869254734
30
0
41
1
10
40.6857711388638
20
0.962419287571038
30
0
41
1
10
40.9069741216637
20
0.850845343235363
30
0
41
1
10
41.3490833942071
20
0.62725396886816
30
0
41
1
10
41.5700109164312
20
0.515226679976792
30
0
41
1
10
42.2325705214056
20
0.178762194888719
30
0
41
1
10
42.6739751664936
20
-0.0460664438900551
30
0
41
1
10
43.556980716043
20
-0.495185359015039
30
0
41
1
10
43.9985821916816
20
-0.719474502039503
30
0
41
1
10
44.5512312345202
20
-0.998465750824806
30
0
41
1
10
44.6618042378387
20
-1.05420072945844
30
0
41
1
10
44.8828389295789
20
-1.16541197096706
30
0
41
1
10
45.2142914792592
20
-1.3318749383285
30
0
41
1
10
45.5455055208895
20
-1.49716150520069
30
0
41
1
10
46.2077741555444
20
-1.82586390906252
30
0
41
1
10
46.6490770498779
20
-2.04249851377921
30
0
41
1
10
47.3113258531363
20
-2.36254565196728
30
0
41
1
10
47.64252218314
20
-2.52134626856588
30
0
41
1
10
47.9739388043284
20
-2.67809967040333
30
0
41
1
10
48.1949450575711
20
-2.78212265822003
30
0
41
1
10
48.3055016169941
20
-2.83390498094914
30
0
41
1
10
49.3001000480797
20
-3.29733213985546
30
0
41
1
10
50.1819502015297
20
-3.69100222791073
30
0
41
1
10
51.2856847360574
20
-4.15308169647849
30
0
41
1
10
51.506502714389
20
-4.2439981686652
30
0
41
1
10
51.9483849227952
20
-4.42265861224814
30
0
41
1
10
52.1694704305566
20
-4.51040905473866
30
0
41
1
10
52.8320960116104
20
-4.76820812421215
30
0
41
1
10
53.2733853149877
20
-4.93296154483289
30
0
41
1
10
54.1558357770692
20
-5.24713879796019
30
0
41
1
10
54.5969968158174
20
-5.39656169702445
30
0
41
1
10
55.259274576751
20
-5.60833333270412
30
0
41
1
10
55.4801484953211
20
-5.67687069466035
30
0
41
1
10
55.9220806561601
20
-5.80964884838235
30
0
41
1
10
56.1429008607453
20
-5.8738184741519
30
0
41
1
10
57.2465434928113
20
-6.18330178673963
30
0
41
1
10
58.1280341730797
20
-6.39446650476614
30
0
41
1
10
59.2321509257996
20
-6.60913283392398
30
0
41
1
10
59.4531849638616
20
-6.64961883843719
30
0
41
1
10
59.894719762734
20
-6.72543130749065
30
0
41
1
10
60.5564464628193
20
-6.83146183153215
30
0
41
1
10
61.2169177220569
20
-6.91421971916026
30
0
41
1
10
62.5374591859719
20
-7.0482089750908
30
0
41
1
10
63.4173076583022
20
-7.0954781046112
30
0
41
1
10
64.2999360802333
20
-7.09966819095203
30
0
0
SPLINE
5
FB
100
AcDbEntity
8
1
62
256
6
ByLayer
370
18
48
1
60
0
100
AcDbSpline
70
4
71
3
72
12
73
8
40
0
40
0
40
0
40
0
40
0.5
40
0.5
40
0.75
40
0.75
40
1
40
1
40
1
40
1
41
1
10
64.2487824809439
20
-7.04001482187326
30
0
41
1
10
64.257285332965
20
-7.0590023995203
30
0
41
1
10
64.2657951980106
20
-7.07347820692402
30
0
41
1
10
64.278589539591
20
-7.08841026137429
30
0
41
1
10
64.282861627055
20
-7.09225794007421
30
0
41
1
10
64.2914041634585
20
-7.09767191140418
30
0
41
1
10
64.2956719009154
20
-7.09923804168446
30
0
41
1
10
64.2999360802331
20
-7.09966819095203
30
0
0
SPLINE
5
FC
100
AcDbEntity
8
1
62
256
6
ByLayer
370
18
48
1
60
0
100
AcDbSpline
70
4
71
3
72
77
73
73
40
0
40
0
40
0
40
0
40
0.0316550862768222
40
0.0316550862768222
40
0.0474826294152333
40
0.0474826294152333
40
0.0633101725536444
40
0.0633101725536444
40
0.126620345107288
40
0.126620345107288
40
0.142447888245698
40
0.142447888245698
40
0.158275431384109
40
0.158275431384109
40
0.189930517660929
40
0.189930517660929
40
0.253240690214569
40
0.253240690214569
40
0.26906823335298
40
0.26906823335298
40
0.284895776491389
40
0.31655086276821
40
0.31655086276821
40
0.34820594904503
40
0.34820594904503
40
0.36403349218344
40
0.36403349218344
40
0.371947263752645
40
0.371947263752645
40
0.379861035321849
40
0.379861035321849
40
0.411516121598669
40
0.411516121598669
40
0.443171207875488
40
0.443171207875488
40
0.474826294152307
40
0.474826294152307
40
0.482740065721512
40
0.482740065721512
40
0.490653837290716
40
0.506481380429125
40
0.506481380429125
40
0.569791552982762
40
0.569791552982762
40
0.58561909612117
40
0.58561909612117
40
0.593532867690375
40
0.593532867690375
40
0.60144663925958
40
0.633101725536398
40
0.633101725536398
40
0.664756811813217
40
0.664756811813217
40
0.696411898090036
40
0.696411898090036
40
0.759722070643674
40
0.759722070643674
40
0.791377156920493
40
0.791377156920493
40
0.807204700058902
40
0.807204700058902
40
0.823032243197312
40
0.823032243197312
40
0.886342415750949
40
0.886342415750949
40
0.902169958889358
40
0.902169958889358
40
0.917997502027768
40
0.917997502027768
40
0.949652588304586
40
0.949652588304586
40
1
40
1
40
1
40
1
41
1
10
64.2487824809473
20
-7.04001482187243
30
0
41
1
10
63.8082359121802
20
-7.01000770400904
30
0
41
1
10
63.3678059142831
20
-6.96935188089941
30
0
41
1
10
62.7067545354273
20
-6.89263880901163
30
0
41
1
10
62.486248084298
20
-6.86443307985561
30
0
41
1
10
62.0455741881316
20
-6.80290391281798
30
0
41
1
10
61.8253863313327
20
-6.7695810555542
30
0
41
1
10
60.7249516958721
20
-6.59036908218252
30
0
41
1
10
59.8464044253108
20
-6.40652306706167
30
0
41
1
10
58.7460467650116
20
-6.12968156308884
30
0
41
1
10
58.5258729302659
20
-6.07195868360924
30
0
41
1
10
58.0852388709612
20
-5.9518680353784
30
0
41
1
10
57.8646774827268
20
-5.88947377507301
30
0
41
1
10
57.2036716666263
20
-5.69589899311066
30
0
41
1
10
56.7635930910474
20
-5.55823989038629
30
0
41
1
10
55.4438719140379
20
-5.12110965456159
30
0
41
1
10
54.5646733543775
20
-4.79759046481703
30
0
41
1
10
53.4626918337553
20
-4.35815688549141
30
0
41
1
10
53.2420871154093
20
-4.2685009331847
30
0
41
1
10
52.8013743228682
20
-4.08627599226065
30
0
41
1
10
52.1407233456076
20
-3.80843341082254
30
0
41
1
10
51.4808840936402
20
-3.51783907394545
30
0
41
1
10
50.6009797678481
20
-3.12050660067717
30
0
41
1
10
50.1609677490174
20
-2.91690553077217
30
0
41
1
10
49.5002777595993
20
-2.60512338037535
30
0
41
1
10
49.279938639343
20
-2.50012750417741
30
0
41
1
10
48.9492100913689
20
-2.34112622075935
30
0
41
1
10
48.8389001221237
20
-2.28786222923054
30
0
41
1
10
48.6183736176118
20
-2.18096218925439
30
0
41
1
10
48.5081516884206
20
-2.12732401319448
30
0
41
1
10
47.9572039597729
20
-1.85827852084228
30
0
41
1
10
47.516971163628
20
-1.64029368648426
30
0
41
1
10
46.6367719943268
20
-1.20035324208365
30
0
41
1
10
46.1968525207294
20
-0.978306301825455
30
0
41
1
10
45.3164439670337
20
-0.531867293858113
30
0
41
1
10
44.8759346598573
20
-0.307515836803759
30
0
41
1
10
44.3244492329635
20
-0.0265759375944015
30
0
41
1
10
44.2140950476392
20
0.0296442524757197
30
0
41
1
10
43.9935212496146
20
0.141992487229913
30
0
41
1
10
43.6627810728652
20
0.310418329083774
30
0
41
1
10
43.3323476213819
20
0.478447492063736
30
0
41
1
10
42.2313355503578
20
1.03717702792531
30
0
41
1
10
41.3519370481669
20
1.47982816071808
30
0
41
1
10
40.250105440099
20
2.01928212987792
30
0
41
1
10
40.0296088057901
20
2.12647823957937
30
0
41
1
10
39.698593959599
20
2.28608681520745
30
0
41
1
10
39.5882336585976
20
2.33908083634046
30
0
41
1
10
39.367640375561
20
2.44454044350894
30
0
41
1
10
38.8163440032955
20
2.70693152164816
30
0
41
1
10
38.2658264677853
20
2.96276243831332
30
0
41
1
10
37.385242828157
20
3.36238079021459
30
0
41
1
10
36.945099054721
20
3.5573768713493
30
0
41
1
10
36.0641429835684
20
3.93607075168109
30
0
41
1
10
35.6233468974814
20
4.11979850244927
30
0
41
1
10
34.2988278211714
20
4.6521099614335
30
0
41
1
10
33.4185115420685
20
4.97940544160787
30
0
41
1
10
32.0972892394973
20
5.42233433919375
30
0
41
1
10
31.6567484684567
20
5.56197573801583
30
0
41
1
10
30.9951264901662
20
5.7586390363856
30
0
41
1
10
30.7743946027467
20
5.82207700558632
30
0
41
1
10
30.3328385870543
20
5.94452540665986
30
0
41
1
10
30.1122361601274
20
6.00347390290958
30
0
41
1
10
29.0097163071648
20
6.28647550277282
30
0
41
1
10
28.1293058871726
20
6.47534432069665
30
0
41
1
10
27.026878259214
20
6.66138939318159
30
0
41
1
10
26.806298159722
20
6.69609734618626
30
0
41
1
10
26.3648409498895
20
6.76042879854461
30
0
41
1
10
26.1439093427796
20
6.79005679036058
30
0
41
1
10
25.4818589996602
20
6.87106095714003
30
0
41
1
10
25.0410688015899
20
6.91461742326845
30
0
41
1
10
23.8994875183835
20
7.00006847982681
30
0
41
1
10
23.1988540692517
20
7.02581188123034
30
0
41
1
10
22.496992160074
20
7.02454186592007
30
0
0
SPLINE
5
FD
100
AcDbEntity
8
1
62
256
6
ByLayer
370
18
48
1
60
0
100
AcDbSpline
70
4
71
3
72
74
73
70
40
0
40
0
40
0
40
0
40
0.0499287289484147
40
0.0499287289484147
40
0.0999324800563892
40
0.0999324800563892
40
0.149936231164364
40
0.149936231164364
40
0.162437168941358
40
0.162437168941358
40
0.174938106718352
40
0.174938106718352
40
0.199939982272341
40
0.199939982272341
40
0.249943733380319
40
0.249943733380319
40
0.299947484488298
40
0.299947484488298
40
0.324949360042287
40
0.324949360042287
40
0.337450297819281
40
0.337450297819281
40
0.349951235596276
40
0.349951235596276
40
0.399954986704256
40
0.399954986704256
40
0.424956862258245
40
0.424956862258245
40
0.449958737812235
40
0.449958737812235
40
0.499962488920215
40
0.499962488920215
40
0.512463426697209
40
0.512463426697209
40
0.524964364474203
40
0.524964364474203
40
0.549966240028192
40
0.549966240028192
40
0.574968115582181
40
0.574968115582181
40
0.599969991136169
40
0.599969991136169
40
0.624971866690158
40
0.624971866690158
40
0.649973742244147
40
0.649973742244147
40
0.674975617798135
40
0.674975617798135
40
0.699977493352124
40
0.699977493352124
40
0.749981244460101
40
0.749981244460101
40
0.774983120014091
40
0.774983120014091
40
0.79998499556808
40
0.79998499556808
40
0.824986871122069
40
0.824986871122069
40
0.849988746676058
40
0.849988746676058
40
0.862489684453053
40
0.862489684453053
40
0.874990622230047
40
0.874990622230047
40
0.899992497784038
40
0.899992497784038
40
0.949996248892019
40
0.949996248892019
40
1
40
1
40
1
40
1
41
1
10
37.8945264220578
20
6.78707867079405
30
0
41
1
10
38.3345754494316
20
6.84866170476576
30
0
41
1
10
38.7743455815912
20
6.89970217771861
30
0
41
1
10
39.6538558404745
20
6.981154754003
30
0
41
1
10
40.0935956185172
20
7.01152222212383
30
0
41
1
10
40.9726536650019
20
7.05121066048014
30
0
41
1
10
41.4120081771291
20
7.06049330374321
30
0
41
1
10
41.9618099757139
20
7.05865356999431
30
0
41
1
10
42.0718000669176
20
7.05761441099193
30
0
41
1
10
42.2918646213021
20
7.05419190827163
30
0
41
1
10
42.4019685350981
20
7.05180764581937
30
0
41
1
10
42.7321886539698
20
7.0426471403874
30
0
41
1
10
42.9521996243731
20
7.03386383216818
30
0
41
1
10
43.6121888498049
20
6.99963285818106
30
0
41
1
10
44.0520713409007
20
6.9663252686853
30
0
41
1
10
44.9316349862397
20
6.87899119790654
30
0
41
1
10
45.3713359641218
20
6.82497412961359
30
0
41
1
10
46.0307401891708
20
6.72818919711906
30
0
41
1
10
46.2505222711448
20
6.69329355968935
30
0
41
1
10
46.5804458636997
20
6.63714527228532
30
0
41
1
10
46.690461816949
20
6.61779584045581
30
0
41
1
10
46.9105944811915
20
6.57784229048781
30
0
41
1
10
47.0207333616033
20
6.55723364827074
30
0
41
1
10
47.5711709911601
20
6.45119472851152
30
0
41
1
10
48.0110439042514
20
6.35673960052665
30
0
41
1
10
48.6699314826574
20
6.20046290947047
30
0
41
1
10
48.8894065946803
20
6.14592584894848
30
0
41
1
10
49.3285187785194
20
6.03241920459902
30
0
41
1
10
49.5481599869104
20
5.9734594799065
30
0
41
1
10
50.2074057529754
20
5.79008647875006
30
0
41
1
10
50.647326509008
20
5.6591879934218
30
0
41
1
10
51.1978200029913
20
5.48481917660231
30
0
41
1
10
51.3079493995078
20
5.44940842981086
30
0
41
1
10
51.5282683678524
20
5.37750691266274
30
0
41
1
10
51.6384543952459
20
5.34101684656923
30
0
41
1
10
51.9687492614535
20
5.23003753504392
30
0
41
1
10
52.188711424404
20
5.1540008513405
30
0
41
1
10
52.6281794825935
20
4.99782031875887
30
0
41
1
10
52.847674074071
20
4.91765613917403
30
0
41
1
10
53.2866664642362
20
4.75385363195258
30
0
41
1
10
53.5061782042292
20
4.67024082166049
30
0
41
1
10
53.9451768216001
20
4.49952473824069
30
0
41
1
10
54.1646519301388
20
4.41240030091052
30
0
41
1
10
54.6038459399302
20
4.23507411695385
30
0
41
1
10
54.8235750277007
20
4.14489116914601
30
0
41
1
10
55.2633003293513
20
3.96150597164632
30
0
41
1
10
55.4832951572021
20
3.86830123586248
30
0
41
1
10
55.9235768009166
20
3.67890779994659
30
0
41
1
10
56.1439674732984
20
3.58267211783718
30
0
41
1
10
56.8044296989713
20
3.29010975606695
30
0
41
1
10
57.2440281941858
20
3.08982740912987
30
0
41
1
10
57.9026769253933
20
2.78205669900907
30
0
41
1
10
58.1220869672065
20
2.67821249956222
30
0
41
1
10
58.5610723989898
20
2.46882040303416
30
0
41
1
10
58.7806687266995
20
2.36331359405889
30
0
41
1
10
59.2200376080989
20
2.15063221502123
30
0
41
1
10
59.4398053766615
20
2.04344842867022
30
0
41
1
10
59.8795271238249
20
1.82742737672044
30
0
41
1
10
60.0994768541766
20
1.71858139597904
30
0
41
1
10
60.4296322442956
20
1.55423811569651
30
0
41
1
10
60.5396952787478
20
1.49929088899651
30
0
41
1
10
60.7597008479973
20
1.38918634673445
30
0
41
1
10
60.8696674492537
20
1.33401751728675
30
0
41
1
10
61.1994905914087
20
1.16822353090672
30
0
41
1
10
61.4192761799351
20
1.05732200808851
30
0
41
1
10
62.0784377607951
20
0.723686729939999
30
0
41
1
10
62.517618279754
20
0.500022552897519
30
0
41
1
10
63.395763938707
20
0.0508044167796982
30
0
41
1
10
63.8347260993741
20
-0.174755773727696
30
0
41
1
10
64.2738354196533
20
-0.40077537004467
30
0
0
SPLINE
5
FE
100
AcDbEntity
8
1
62
256
6
ByLayer
370
18
48
1
60
0
100
AcDbSpline
70
4
71
3
72
8
73
4
40
0
40
0
40
0
40
0
40
1
40
1
40
1
40
1
41
1
10
64.2738354196482
20
-0.400775370042879
30
0
41
1
10
64.310064750687
20
-0.0895232773031012
30
0
41
1
10
64.3530538013075
20
0.220230120900538
30
0
41
1
10
64.4043652469641
20
0.528265656550104
30
0
0
SPLINE
5
FF
100
AcDbEntity
8
1
62
256
6
ByLayer
370
18
48
1
60
0
100
AcDbSpline
70
4
71
3
72
12
73
8
40
0
40
0
40
0
40
0
40
0.40015999439548
40
0.40015999439548
40
0.800319988790961
40
0.800319988790961
40
1
40
1
40
1
40
1
41
1
10
8.1460678893252
20
-5.89388944754654
30
0
41
1
10
8.44239517560885
20
-5.81384862778503
30
0
41
1
10
8.73798856722547
20
-5.72993435471884
30
0
41
1
10
9.32772438469067
20
-5.55441221289922
30
0
41
1
10
9.62182450695647
20
-5.46274577068956
30
0
41
1
10
10.0618295405514
20
-5.31986577570837
30
0
41
1
10
10.2081684297534
20
-5.27140410816088
30
0
41
1
10
10.3544079466617
20
-5.22209289901195
30
0
0
SPLINE
5
100
100
AcDbEntity
8
1
62
256
6
ByLayer
370
18
48
1
60
0
100
AcDbSpline
70
4
71
3
72
72
73
68
40
0
40
0
40
0
40
0
40
0.0230641860614102
40
0.0230641860614102
40
0.0655396562326555
40
0.0655396562326555
40
0.0867773913182779
40
0.0867773913182779
40
0.108015126403901
40
0.108015126403901
40
0.129252861489523
40
0.129252861489523
40
0.150490596575146
40
0.150490596575146
40
0.192966066746392
40
0.192966066746392
40
0.235441536917639
40
0.235441536917639
40
0.277917007088886
40
0.277917007088886
40
0.288535874631697
40
0.288535874631697
40
0.299154742174508
40
0.299154742174508
40
0.320392477260129
40
0.341630212345751
40
0.341630212345751
40
0.362867947431372
40
0.362867947431372
40
0.384105682516993
40
0.384105682516993
40
0.405343417602614
40
0.405343417602614
40
0.447818887773856
40
0.447818887773856
40
0.490294357945098
40
0.490294357945098
40
0.53276982811634
40
0.53276982811634
40
0.575245298287582
40
0.575245298287582
40
0.596483033373204
40
0.596483033373204
40
0.617720768458825
40
0.617720768458825
40
0.660196238630068
40
0.660196238630068
40
0.702671708801312
40
0.702671708801312
40
0.745147178972556
40
0.745147178972556
40
0.7876226491438
40
0.7876226491438
40
0.79824151668661
40
0.79824151668661
40
0.80886038422942
40
0.83009811931504
40
0.83009811931504
40
0.851335854400659
40
0.851335854400659
40
0.872573589486279
40
0.872573589486279
40
0.915049059657519
40
0.915049059657519
40
0.95752452982876
40
0.95752452982876
40
1
40
1
40
1
40
1
41
1
10
43.7129192383188
20
7.06272884590663
30
0
41
1
10
43.8711614210156
20
7.06301567867376
30
0
41
1
10
44.0293790287685
20
7.0619155306494
30
0
41
1
10
44.4789860183186
20
7.05485817426793
30
0
41
1
10
44.7703604302776
20
7.04560042260064
30
0
41
1
10
45.2073288091278
20
7.02464676009529
30
0
41
1
10
45.3529797076582
20
7.01648457839221
30
0
41
1
10
45.644308739296
20
6.99780286799043
30
0
41
1
10
45.7899695322526
20
6.98727760666196
30
0
41
1
10
46.0814353981275
20
6.96389621029201
30
0
41
1
10
46.2273688291823
20
6.95108669967561
30
0
41
1
10
46.5193219581128
20
6.92313805763737
30
0
41
1
10
46.6653469402636
20
6.9079974086566
30
0
41
1
10
47.1035977610104
20
6.85906942431265
30
0
41
1
10
47.3959733945173
20
6.82176131808009
30
0
41
1
10
47.9814916887719
20
6.73781484375397
30
0
41
1
10
48.2747014421723
20
6.69121812920395
30
0
41
1
10
48.8622614933341
20
6.5888488241695
30
0
41
1
10
49.1566158910947
20
6.53307801538975
30
0
41
1
10
49.5254585795446
20
6.45771323896108
30
0
41
1
10
49.599269243243
20
6.44235537566459
30
0
41
1
10
49.7469716436464
20
6.41106430560282
30
0
41
1
10
49.820839106468
20
6.39513582453984
30
0
41
1
10
50.0422118615525
20
6.34655799782152
30
0
41
1
10
50.3369784370273
20
6.27963411470219
30
0
41
1
10
50.6310303798046
20
6.20848911601075
30
0
41
1
10
50.9247617833766
20
6.13527538653386
30
0
41
1
10
51.0714548153342
20
6.09761860909825
30
0
41
1
10
51.3648950112449
20
6.02065062195251
30
0
41
1
10
51.5115202466706
20
5.98121275818784
30
0
41
1
10
51.8044801800265
20
5.90032678393169
30
0
41
1
10
51.9508327754167
20
5.85889773401419
30
0
41
1
10
52.3895376629178
20
5.73168855633949
30
0
41
1
10
52.6815013910463
20
5.64294014954564
30
0
41
1
10
53.2649384064608
20
5.45820623956968
30
0
41
1
10
53.5564239574729
20
5.36224113838355
30
0
41
1
10
54.139116891118
20
5.16339588930501
30
0
41
1
10
54.4303837876953
20
5.06059746414934
30
0
41
1
10
55.0128180787569
20
4.84835413601803
30
0
41
1
10
55.3039153105344
20
4.73880609832554
30
0
41
1
10
55.7405716968409
20
4.56958654714802
30
0
41
1
10
55.8861133648722
20
4.51234461804677
30
0
41
1
10
56.1773039524392
20
4.396382778039
30
0
41
1
10
56.3230823893468
20
4.33786805945053
30
0
41
1
10
56.7605483970044
20
4.1600819760437
30
0
41
1
10
57.0523482407844
20
4.03853113183132
30
0
41
1
10
57.6364190455086
20
3.78956208563389
30
0
41
1
10
57.9286810715719
20
3.66212259783953
30
0
41
1
10
58.5142234349818
20
3.40224994745557
30
0
41
1
10
58.8074582565269
20
3.2697399431969
30
0
41
1
10
59.3951280592117
20
3.00001110530113
30
0
41
1
10
59.6896208451848
20
2.86290741327892
30
0
41
1
10
60.0584901845876
20
2.6885355570042
30
0
41
1
10
60.1323207091905
20
2.65350167399086
30
0
41
1
10
60.2799049980668
20
2.58321628688972
30
0
41
1
10
60.5012045550809
20
2.47744379266757
30
0
41
1
10
60.7222963981498
20
2.37068012163672
30
0
41
1
10
61.0169386892894
20
2.22751733839033
30
0
41
1
10
61.164163317664
20
2.15548637039268
30
0
41
1
10
61.4588578161791
20
2.01135090157624
30
0
41
1
10
61.6062094042375
20
1.93902569905612
30
0
41
1
10
62.0480776549604
20
1.72090304912493
30
0
41
1
10
62.3424904874809
20
1.57411356053089
30
0
41
1
10
62.931185535634
20
1.27815665529263
30
0
41
1
10
63.2255298626375
20
1.12910742902739
30
0
41
1
10
63.8146231962247
20
0.829658493660361
30
0
41
1
10
64.109323192127
20
0.679163560787629
30
0
41
1
10
64.4043652469641
20
0.528265656550133
30
0
0
SPLINE
5
101
100
AcDbEntity
8
1
62
256
6
ByLayer
370
18
48
1
60
0
100
AcDbSpline
70
4
71
3
72
22
73
18
40
0
40
0
40
0
40
0
40
0.135322070680579
40
0.135322070680579
40
0.20737856479053
40
0.20737856479053
40
0.279435058900482
40
0.279435058900482
40
0.423548047120386
40
0.423548047120386
40
0.567661035340289
40
0.567661035340289
40
0.711774023560193
40
0.711774023560193
40
0.855887011780096
40
0.855887011780096
40
1
40
1
40
1
40
1
41
1
10
20.5236808879386
20
-7.02098876672773
30
0
41
1
10
20.1168597036241
20
-7.02024922435345
30
0
41
1
10
19.7091420690037
20
-7.01041620428927
30
0
41
1
10
19.0824976760972
20
-6.98125786518759
30
0
41
1
10
18.8644407088304
20
-6.96851542379869
30
0
41
1
10
18.4275425165642
20
-6.93778580253118
30
0
41
1
10
18.2092962765098
20
-6.9198406627772
30
0
41
1
10
17.5552807212012
20
-6.85839214544384
30
0
41
1
10
17.1201100864302
20
-6.80727139254083
30
0
41
1
10
16.2507647641806
20
-6.68523546931607
30
0
41
1
10
15.8165937519707
20
-6.61431221134274
30
0
41
1
10
14.9483728847712
20
-6.45330735662881
30
0
41
1
10
14.514310815586
20
-6.36324134142893
30
0
41
1
10
13.6456369953329
20
-6.16449951220375
30
0
41
1
10
13.211052130234
20
-6.05578961726141
30
0
41
1
10
12.3403920420822
20
-5.82055430247064
30
0
41
1
10
11.9043290224874
20
-5.69402596330502
30
0
41
1
10
11.4672027979167
20
-5.55886290483252
30
0
0
SPLINE
5
102
100
AcDbEntity
8
1
62
256
6
ByLayer
370
18
48
1
60
0
100
AcDbSpline
70
4
71
3
72
21
73
17
40
0
40
0
40
0
40
0
40
0.0983448007890424
40
0.0983448007890424
40
0.162748743589824
40
0.162748743589824
40
0.227152686390606
40
0.227152686390606
40
0.484768457593739
40
0.484768457593739
40
0.549172400394522
40
0.549172400394522
40
0.613576343195304
40
0.742384228796869
40
0.742384228796869
40
1
40
1
40
1
40
1
41
1
10
54.0276548580786
20
5.20021071839182
30
0
41
1
10
54.3645250785352
20
5.31735489181156
30
0
41
1
10
54.7014160108925
20
5.42995104669282
30
0
41
1
10
55.2592745767511
20
5.60833333270412
30
0
41
1
10
55.4801484953211
20
5.67687069466035
30
0
41
1
10
55.9220806561601
20
5.80964884838235
30
0
41
1
10
56.1429008607452
20
5.87381847415188
30
0
41
1
10
57.2465434928112
20
6.18330178673963
30
0
41
1
10
58.1280341730796
20
6.39446650476614
30
0
41
1
10
59.2321509257995
20
6.60913283392398
30
0
41
1
10
59.4531849638616
20
6.64961883843716
30
0
41
1
10
59.8947197627339
20
6.72543130749062
30
0
41
1
10
60.5564464628193
20
6.83146183153215
30
0
41
1
10
61.2169177220569
20
6.91421971916026
30
0
41
1
10
62.5374591859719
20
7.0482089750908
30
0
41
1
10
63.4173076583022
20
7.0954781046112
30
0
41
1
10
64.2999360802332
20
7.09966819095203
30
0
0
SPLINE
5
103
100
AcDbEntity
8
1
62
256
6
ByLayer
370
18
48
1
60
0
100
AcDbSpline
70
4
71
3
72
124
73
120
40
0
40
0
40
0
40
0
40
0.0624999999999878
40
0.0624999999999878
40
0.124999999999976
40
0.124999999999976
40
0.140624999999973
40
0.140624999999973
40
0.156249999999971
40
0.187499999999966
40
0.187499999999966
40
0.249999999999957
40
0.249999999999957
40
0.281249999999952
40
0.281249999999952
40
0.289062499999951
40
0.289062499999951
40
0.291015624999951
40
0.291992187499951
40
0.291992187499951
40
0.292968749999951
40
0.292968749999951
40
0.294921874999951
40
0.294921874999951
40
0.295898437499951
40
0.295898437499951
40
0.296874999999951
40
0.296874999999951
40
0.29736328124995
40
0.29736328124995
40
0.29785156249995
40
0.29785156249995
40
0.298339843749949
40
0.298339843749949
40
0.298828124999949
40
0.298828124999949
40
0.300781249999948
40
0.304687499999949
40
0.31249999999995
40
0.31249999999995
40
0.328124999999952
40
0.328124999999952
40
0.343749999999954
40
0.343749999999954
40
0.374999999999958
40
0.374999999999958
40
0.39062499999996
40
0.39062499999996
40
0.406249999999962
40
0.406249999999962
40
0.437499999999965
40
0.437499999999965
40
0.453124999999967
40
0.453124999999967
40
0.468749999999968
40
0.468749999999968
40
0.472656249999968
40
0.472656249999968
40
0.476562499999969
40
0.476562499999969
40
0.484374999999969
40
0.484374999999969
40
0.499999999999971
40
0.499999999999971
40
0.515624999999972
40
0.515624999999972
40
0.523437499999972
40
0.523437499999972
40
0.527343749999973
40
0.527343749999973
40
0.531249999999973
40
0.531249999999973
40
0.562499999999977
40
0.562499999999977
40
0.578124999999979
40
0.578124999999979
40
0.582031249999979
40
0.582031249999979
40
0.585937499999979
40
0.59374999999998
40
0.59374999999998
40
0.624999999999984
40
0.624999999999984
40
0.628906249999984
40
0.628906249999984
40
0.632812499999985
40
0.640624999999985
40
0.640624999999985
40
0.656249999999986
40
0.656249999999986
40
0.671874999999987
40
0.671874999999987
40
0.679687499999987
40
0.683593749999988
40
0.683593749999988
40
0.687499999999988
40
0.687499999999988
40
0.703124999999989
40
0.703124999999989
40
0.718749999999989
40
0.718749999999989
40
0.749999999999991
40
0.749999999999991
40
0.781249999999993
40
0.781249999999993
40
0.789062499999993
40
0.789062499999993
40
0.796874999999994
40
0.812499999999994
40
0.812499999999994
40
0.843749999999995
40
0.843749999999995
40
0.874999999999996
40
0.874999999999996
40
0.906249999999997
40
0.906249999999997
40
0.937499999999998
40
0.937499999999998
40
1
40
1
40
1
40
1
41
1
10
11.4672718607098
20
-5.55887134495225
30
0
41
1
10
11.0699746431596
20
-5.43574883668802
30
0
41
1
10
10.6698886777649
20
-5.30993227401214
30
0
41
1
10
9.86232916585104
20
-5.05821807311727
30
0
41
1
10
9.45484865861755
20
-4.93233520230891
30
0
41
1
10
8.93985884170417
20
-4.77835789576764
30
0
41
1
10
8.83655354737274
20
-4.74772277248658
30
0
41
1
10
8.62949930312652
20
-4.68690946352041
30
0
41
1
10
8.3182965768886
20
-4.59638672517568
30
0
41
1
10
8.00516111283727
20
-4.50829755105144
30
0
41
1
10
7.37614087905007
20
-4.33625036890444
30
0
41
1
10
6.95312303117885
20
-4.22707858890991
30
0
41
1
10
6.31256357575501
20
-4.07472354425894
30
0
41
1
10
6.09797121524426
20
-4.02581801305553
30
0
41
1
10
5.82866014649593
20
-3.96738624553294
30
0
41
1
10
5.77474662338057
20
-3.95583520316831
30
0
41
1
10
5.70729118221837
20
-3.94156978652157
30
0
41
1
10
5.68704991527324
20
-3.9373031109404
30
0
41
1
10
5.66680152894867
20
-3.93305616447901
30
0
41
1
10
5.65330142101234
20
-3.93022935091756
30
0
41
1
10
5.64656109261995
20
-3.92876131953074
30
0
41
1
10
5.62620956223677
20
-3.92508467443457
30
0
41
1
10
5.61244407372271
20
-3.92373634930536
30
0
41
1
10
5.59141508296503
20
-3.92383949732158
30
0
41
1
10
5.58437084521341
20
-3.92425299462798
30
0
41
1
10
5.57056353703786
20
-3.92589728202319
30
0
41
1
10
5.56374901169684
20
-3.92711098401284
30
0
41
1
10
5.55370493190054
20
-3.9297113068732
30
0
41
1
10
5.55035922313314
20
-3.93069403724473
30
0
41
1
10
5.54386240067194
20
-3.93295298498759
30
0
41
1
10
5.54071488126357
20
-3.93425361216211
30
0
41
1
10
5.53452096856742
20
-3.93702587066329
30
0
41
1
10
5.53150574033864
20
-3.93855309089665
30
0
41
1
10
5.52552925603374
20
-3.9416674102975
30
0
41
1
10
5.5225468084063
20
-3.94323169862878
30
0
41
1
10
5.50762505931988
20
-3.95103852997187
30
0
41
1
10
5.47184068409109
20
-3.96978977846064
30
0
41
1
10
5.38853829605023
20
-4.01364806868926
30
0
41
1
10
5.31748836590322
20
-4.05141598077898
30
0
41
1
10
5.1758743909148
20
-4.12718880838219
30
0
41
1
10
5.08209945304836
20
-4.17802749741429
30
0
41
1
10
4.89617892160047
20
-4.28022658695232
30
0
41
1
10
4.80400560782181
20
-4.33160157338085
30
0
41
1
10
4.53002917456379
20
-4.4865732153105
30
0
41
1
10
4.35075403327244
20
-4.59101350223528
30
0
41
1
10
4.08785377601745
20
-4.7494782878438
30
0
41
1
10
4.00118051396953
20
-4.80263193522563
30
0
41
1
10
3.83093470049926
20
-4.90900783091587
30
0
41
1
10
3.74725678568299
20
-4.96229222910975
30
0
41
1
10
3.50094654061564
20
-5.1223994595949
30
0
41
1
10
3.34299919739075
20
-5.22947824871537
30
0
41
1
10
3.11757252335423
20
-5.39043827408906
30
0
41
1
10
3.04435434218428
20
-5.44414813860166
30
0
41
1
10
2.90225751955933
20
-5.55164600025776
30
0
41
1
10
2.83337716271336
20
-5.60543409801508
30
0
41
1
10
2.75038447260511
20
-5.67269219273837
30
0
41
1
10
2.73394175478549
20
-5.68614494012184
30
0
41
1
10
2.70137978462418
20
-5.71305195466789
30
0
41
1
10
2.68526417282547
20
-5.7265035469797
30
0
41
1
10
2.63760129973753
20
-5.76670549598418
30
0
41
1
10
2.6066767382348
20
-5.79335320810759
30
0
41
1
10
2.51657396056743
20
-5.87280326715049
30
0
41
1
10
2.46006095895217
20
-5.92511379251349
30
0
41
1
10
2.35489949730058
20
-6.02822371556766
30
0
41
1
10
2.30624864839325
20
-6.07902363484089
30
0
41
1
10
2.23989087310861
20
-6.15390694962747
30
0
41
1
10
2.21887655405371
20
-6.17864821857452
30
0
41
1
10
2.18912295546232
20
-6.2154029728938
30
0
41
1
10
2.17948889261197
20
-6.22760940955297
30
0
41
1
10
2.16088247466379
20
-6.25183058074154
30
0
41
1
10
2.15192705825623
20
-6.26382242587871
30
0
41
1
10
2.07448020336386
20
-6.37066891398061
30
0
41
1
10
2.02796929196302
20
-6.45798698349009
30
0
41
1
10
1.99436890289144
20
-6.57626703814646
30
0
41
1
10
1.98921125100142
20
-6.61357302464293
30
0
41
1
10
1.99073975193406
20
-6.65738613792072
30
0
41
1
10
1.99144748196008
20
-6.66602221395038
30
0
41
1
10
1.99365548736009
20
-6.68289494495929
30
0
41
1
10
1.99815288224764
20
-6.70763194863301
30
0
41
1
10
2.00614018116465
20
-6.73068301733187
30
0
41
1
10
2.04025738424721
20
-6.80389511406301
30
0
41
1
10
2.09142700491512
20
-6.85090679253105
30
0
41
1
10
2.17308643538257
20
-6.89213061078871
30
0
41
1
10
2.18248539297386
20
-6.89654218105272
30
0
41
1
10
2.20183464485274
20
-6.90500039355487
30
0
41
1
10
2.23171985904151
20
-6.9171576896656
30
0
41
1
10
2.26409797669288
20
-6.9277820054985
30
0
41
1
10
2.33196486386942
20
-6.94712113079768
30
0
41
1
10
2.38134975116549
20
-6.95747221017757
30
0
41
1
10
2.48747229084691
20
-6.97368292020224
30
0
41
1
10
2.54421227736518
20
-6.97954115867191
30
0
41
1
10
2.63429901746406
20
-6.98530912360764
30
0
41
1
10
2.68058865772076
20
-6.98743701009522
30
0
41
1
10
2.72866267066996
20
-6.98848673857347
30
0
41
1
10
2.76110005651509
20
-6.98895260848573
30
0
41
1
10
2.77752565630109
20
-6.98906847093681
30
0
41
1
10
2.86033634222599
20
-6.98907799923001
30
0
41
1
10
2.92889970934266
20
-6.98727263946634
30
0
41
1
10
3.07006104041511
20
-6.98053644028681
30
0
41
1
10
3.14266066007434
20
-6.97560427266785
30
0
41
1
10
3.36582853391462
20
-6.95670088312508
30
0
41
1
10
3.52173417842249
20
-6.93864847758172
30
0
41
1
10
3.84519193788464
20
-6.89390523418135
30
0
41
1
10
4.01275993531786
20
-6.8672015612818
30
0
41
1
10
4.2284261716521
20
-6.82938377638897
30
0
41
1
10
4.27187172798753
20
-6.82159661634952
30
0
41
1
10
4.35905775557453
20
-6.80565352750537
30
0
41
1
10
4.49039552569431
20
-6.78116526057374
30
0
41
1
10
4.62332941239853
20
-6.75505945889307
30
0
41
1
10
4.89114606154234
20
-6.70092512467218
30
0
41
1
10
5.07228176485401
20
-6.66228076380918
30
0
41
1
10
5.43900431094897
20
-6.58085629018504
30
0
41
1
10
5.62459414385916
20
-6.53807254934935
30
0
41
1
10
5.99969985816563
20
-6.44909087404869
30
0
41
1
10
6.18921747327806
20
-6.40289082834462
30
0
41
1
10
6.57178223087948
20
-6.30764024778392
30
0
41
1
10
6.76483044124927
20
-6.25858840830131
30
0
41
1
10
7.34880731292176
20
-6.10783928470474
30
0
41
1
10
7.74454715553424
20
-6.00257447744048
30
0
41
1
10
8.14581978967348
20
-5.89393961355825
30
0
0
SPLINE
5
104
100
AcDbEntity
8
1
62
256
6
ByLayer
370
18
48
1
60
0
100
AcDbSpline
70
4
71
3
72
10
73
6
40
0
40
0
40
0
40
0
40
0.589344203880872
40
0.589344203880872
40
1
40
1
40
1
40
1
41
1
10
9.97642428185804
20
-5.09125159457787
30
0
41
1
10
9.61521385628666
20
-5.24527173337523
30
0
41
1
10
9.25496646105537
20
-5.40147306145664
30
0
41
1
10
8.64530505724028
20
-5.67015657953741
30
0
41
1
10
8.39540315318237
20
-5.78153333713672
30
0
41
1
10
8.14595565044772
20
-5.89394002484048
30
0
0
SPLINE
5
105
100
AcDbEntity
8
SK1
62
256
6
ByLayer
370
18
48
1
60
0
100
AcDbSpline
70
4
71
4
72
10
73
5
40
0
40
0
40
0
40
0
40
0
40
1
40
1
40
1
40
1
40
1
41
0.994813965202456
10
-47.9999996687498
20
4.69823810274228
30
0
41
0.994912827684654
10
-47.9999999211573
20
4.65751858200559
30
0
41
0.996282664698597
10
-48.000000131587
20
4.60810408367319
30
0
41
0.998906178873111
10
-48.0000002938723
20
4.55113809461712
30
0
41
1.00209879173101
10
-48.0000004082357
20
4.48884610274376
30
0
0
SPLINE
5
106
100
AcDbEntity
8
SK1
62
256
6
ByLayer
370
18
48
1
60
0
100
AcDbSpline
70
4
71
3
72
8
73
4
40
0
40
0
40
0
40
0
40
1
40
1
40
1
40
1
41
1
10
-47.7887151133735
20
4.62471324240812
30
0
41
1
10
-47.8576549432577
20
4.65206060558162
30
0
41
1
10
-47.9282391821718
20
4.67627147054731
30
0
41
1
10
-48.0000000000012
20
4.69823816293066
30
0
0
SPLINE
5
107
100
AcDbEntity
8
SK1
62
256
6
ByLayer
370
18
48
1
60
0
100
AcDbSpline
70
4
71
3
72
8
73
4
40
0
40
0
40
0
40
0
40
1
40
1
40
1
40
1
41
1
10
0
20
-7.46623108240922
30
0
41
1
10
0
20
-7.54126335474851
30
0
41
1
10
2.84E-14
20
-7.61779073164172
30
0
41
1
10
2.84E-14
20
-7.69581758258329
30
0
0
SPLINE
5
108
100
AcDbEntity
8
SK1
62
256
6
ByLayer
370
18
48
1
60
0
100
AcDbSpline
70
4
71
3
72
8
73
4
40
0
40
0
40
0
40
0
40
1
40
1
40
1
40
1
41
1
10
-46.5
20
6.84458924871365
30
0
41
1
10
-47.0011304165273
20
6.37969471534925
30
0
41
1
10
-47.5014430019255
20
5.91407301558644
30
0
41
1
10
-48
20
5.44689035284992
30
0
0
SPLINE
5
109
100
AcDbEntity
8
SK1
62
256
6
ByLayer
370
18
48
1
60
0
100
AcDbSpline
70
4
71
3
72
20
73
16
40
0
40
0
40
0
40
0
40
0.0625000000000001
40
0.0625000000000001
40
0.125
40
0.125
40
0.25
40
0.25
40
0.374999999999999
40
0.374999999999999
40
0.499999999999999
40
0.499999999999999
40
0.749999999999999
40
0.749999999999999
40
1
40
1
40
1
40
1
41
1
10
-46.4
20
6.91208376527274
30
0
41
1
10
-46.4
20
6.91315554668299
30
0
41
1
10
-46.400255320285
20
6.91396958492692
30
0
41
1
10
-46.401238720026
20
6.91512015692527
30
0
41
1
10
-46.4019736794312
20
6.91545285605281
30
0
41
1
10
-46.4047525178022
20
6.91576955131382
30
0
41
1
10
-46.407386820202
20
6.91510239803367
30
0
41
1
10
-46.4138324199078
20
6.91238529884478
30
0
41
1
10
-46.4175513092506
20
6.91037882156024
30
0
41
1
10
-46.4257576562687
20
6.90536661409035
30
0
41
1
10
-46.4302902765822
20
6.90232498172079
30
0
41
1
10
-46.444519757331
20
6.89215519095714
30
0
41
1
10
-46.454862846528
20
6.88400958713987
30
0
41
1
10
-46.4769795344452
20
6.86546355550811
30
0
41
1
10
-46.4883400853171
20
6.85540605491178
30
0
41
1
10
-46.5
20
6.84458924871365
30
0
0
SPLINE
5
10A
100
AcDbEntity
8
SK1
62
256
6
ByLayer
370
18
48
1
60
0
100
AcDbSpline
70
4
71
3
72
20
73
16
40
0
40
0
40
0
40
0
40
0.250000000000006
40
0.250000000000006
40
0.375000000000005
40
0.375000000000005
40
0.500000000000004
40
0.500000000000004
40
0.625000000000003
40
0.625000000000003
40
0.750000000000002
40
0.750000000000002
40
0.875000000000001
40
0.875000000000001
40
1
40
1
40
1
40
1
41
1
10
-46.5
20
5.8246530067311
30
0
41
1
10
-46.4883382808638
20
5.83547148690562
30
0
41
1
10
-46.4769899849393
20
5.84713161210243
30
0
41
1
10
-46.4604389640724
20
5.8659019049804
30
0
41
1
10
-46.4550533753258
20
5.87232286659889
30
0
41
1
10
-46.4447632897779
20
5.88525481440038
30
0
41
1
10
-46.4398264111653
20
5.89180140544599
30
0
41
1
10
-46.4304188308979
20
5.9050740980592
30
0
41
1
10
-46.4259311640916
20
5.91182433781958
30
0
41
1
10
-46.4176087338257
20
5.92544610080071
30
0
41
1
10
-46.4138727961238
20
5.93215149492067
30
0
41
1
10
-46.4074449634846
20
5.94530055964353
30
0
41
1
10
-46.4047607228177
20
5.9517607282034
30
0
41
1
10
-46.40105390221
20
5.96361132768658
30
0
41
1
10
-46.4
20
5.96914876015319
30
0
41
1
10
-46.4
20
5.9737424226488
30
0
0
SPLINE
5
10B
100
AcDbEntity
8
SK1
62
256
6
ByLayer
370
18
48
1
60
0
100
AcDbSpline
70
4
71
3
72
8
73
4
40
0
40
0
40
0
40
0
40
1
40
1
40
1
40
1
41
1
10
-48
20
4.42695411086737
30
0
41
1
10
-47.5014318953473
20
4.894147181242
30
0
41
1
10
-47.0011216713109
20
5.3597665862315
30
0
41
1
10
-46.5
20
5.8246530067311
30
0
0
SPLINE
5
10C
100
AcDbEntity
8
SK1
62
256
6
ByLayer
370
18
48
1
60
0
100
AcDbSpline
70
4
71
3
72
8
73
4
40
0
40
0
40
0
40
0
40
1
40
1
40
1
40
1
41
1
10
0
20
-7.69581758258326
30
0
41
1
10
-0.0241344767545684
20
-7.62970058566816
30
0
41
1
10
-0.0242180949620661
20
-7.55317175227682
30
0
41
1
10
-1.99E-13
20
-7.46623108240934
30
0
0
SPLINE
5
10D
100
AcDbEntity
8
1
62
256
6
ByLayer
370
18
48
1
60
0
100
AcDbSpline
70
4
71
3
72
35
73
31
40
0
40
0
40
0
40
0
40
1.66646655755E-05
40
3.52902469357E-05
40
5.08042569339E-05
40
7.97718805554E-05
40
0.0004750389053751
40
0.0007898407383563
40
0.0013616604577243
40
0.0024140275654923
40
0.0045767922803614
40
0.0098726249050881
40
0.0240363718304752
40
0.0681991411283387
40
0.110707518964746
40
0.148364737917071
40
0.184381510391675
40
0.220699254234876
40
0.329029433670585
40
0.416477135661614
40
0.507681619010163
40
0.602854612446827
40
0.648313551541587
40
0.695318147537731
40
0.743892415120365
40
0.791785060221281
40
0.838562081321319
40
0.89067317854028
40
0.956295367155193
40
1
40
1
40
1
40
1
41
1
10
24.2431852124332
20
0.480855432374625
30
0
41
1
10
24.2431814408004
20
0.480858305835938
30
0
41
1
10
24.2431647962504
20
0.480866437977056
30
0
41
1
10
24.2431001737926
20
0.480887718129338
30
0
41
1
10
24.2429477844254
20
0.48093034337785
30
0
41
1
10
24.2413797727079
20
0.481327203764892
30
0
41
1
10
24.2393568367187
20
0.481874755169855
30
0
41
1
10
24.2353994244212
20
0.482910631652146
30
0
41
1
10
24.2295006347376
20
0.484459390292727
30
0
41
1
10
24.2177423449979
20
0.487525438258643
30
0
41
1
10
24.1900557330478
20
0.494657979050601
30
0
41
1
10
24.1153663583641
20
0.513628646760822
30
0
41
1
10
23.8890132796266
20
0.570935381931861
30
0
41
1
10
23.523884925971
20
0.664682208614664
30
0
41
1
10
23.0736409469841
20
0.783470199538584
30
0
41
1
10
22.6507520913692
20
0.897786489680186
30
0
41
1
10
22.2515740331508
20
1.008111743623
30
0
41
1
10
21.5965625204021
20
1.19301753443241
30
0
41
1
10
20.7578590334792
20
1.43973368473868
30
0
41
1
10
19.7250983528381
20
1.76010970568348
30
0
41
1
10
18.7441198361304
20
2.07881983954661
30
0
41
1
10
17.9171710431949
20
2.36015507787937
30
0
41
1
10
17.2496409515125
20
2.5949837615216
30
0
41
1
10
16.7492525754316
20
2.7748305062612
30
0
41
1
10
16.2416164259848
20
2.96127891294566
30
0
41
1
10
15.7361722204233
20
3.15096160340931
30
0
41
1
10
15.2196699573475
20
3.34879273320198
30
0
41
1
10
14.6424800270268
20
3.57477550263718
30
0
41
1
10
14.0776442570012
20
3.8006525521227
30
0
41
1
10
13.6969474892285
20
3.95798479554625
30
0
41
1
10
13.5450001371597
20
4.02147134088182
30
0
0
SPLINE
5
10E
100
AcDbEntity
8
1
62
256
6
ByLayer
370
18
48
1
60
0
100
AcDbSpline
70
4
71
3
72
28
73
24
40
0
40
0
40
0
40
0
40
0.0660374656929582
40
0.121519441165628
40
0.167260138955825
40
0.201751133042559
40
0.224999454179478
40
0.25097259422632
40
0.28836304376378
40
0.330969686849284
40
0.36627054183812
40
0.400458790962691
40
0.441618584707511
40
0.491385301212349
40
0.534807724972935
40
0.569088088556914
40
0.608718604059056
40
0.675766319608145
40
0.73360074765625
40
0.796303471256137
40
0.871822218358446
40
0.930339425637837
40
1
40
1
40
1
40
1
41
1
10
22.521145516288
20
-6.75505599690626
30
0
41
1
10
22.8561785068923
20
-6.75546872376844
30
0
41
1
10
23.4738114289223
20
-6.75647586937444
30
0
41
1
10
24.3367561110792
20
-6.75730227112558
30
0
41
1
10
25.0240602017491
20
-6.76015409321269
30
0
41
1
10
25.5509217363932
20
-6.7605647673974
30
0
41
1
10
25.9811975460569
20
-6.7613577388301
30
0
41
1
10
26.4247341298584
20
-6.76220681323983
30
0
41
1
10
26.9687703700543
20
-6.76363873054018
30
0
41
1
10
27.5601860385278
20
-6.7653831774727
30
0
41
1
10
28.1353669020364
20
-6.76652226020829
30
0
41
1
10
28.7029605252798
20
-6.76738544211759
30
0
41
1
10
29.3449225592002
20
-6.76822356409971
30
0
41
1
10
30.0341865253523
20
-6.76917842397063
30
0
41
1
10
30.68821648061
20
-6.77086545553988
30
0
41
1
10
31.290157368385
20
-6.77319212873229
30
0
41
1
10
32.013370158313
20
-6.77455969330944
30
0
41
1
10
32.857432002599
20
-6.77506300849944
30
0
41
1
10
33.819874139613
20
-6.77549722405988
30
0
41
1
10
34.825764213483
20
-6.77734800830851
30
0
41
1
10
35.8351621693622
20
-6.78099799217037
30
0
41
1
10
36.8802721377072
20
-6.78195654180033
30
0
41
1
10
37.5378872184604
20
-6.78468927507018
30
0
41
1
10
37.8953026315107
20
-6.78552370760764
30
0
0
SPLINE
5
10F
100
AcDbEntity
8
1
62
256
6
ByLayer
370
18
48
1
60
0
100
AcDbSpline
70
4
71
3
72
21
73
17
40
0
40
0
40
0
40
0
40
0.083585191450683
40
0.208054642387017
40
0.322625065015359
40
0.382389186336261
40
0.445147470717766
40
0.514891658505554
40
0.586168666199988
40
0.642747131666161
40
0.671248176584158
40
0.704581531114455
40
0.756760202891371
40
0.827808129013323
40
0.917720620364233
40
1
40
1
40
1
40
1
41
1
10
64.222765902043
20
1.46881730260833
30
0
41
1
10
64.0158490976029
20
1.53096096111838
30
0
41
1
10
63.5014640862586
20
1.68821029256506
30
0
41
1
10
62.7063879973993
20
1.94327393760824
30
0
41
1
10
61.9726736582334
20
2.18769667345376
30
0
41
1
10
61.3926372537611
20
2.38677340718132
30
0
41
1
10
60.9233777559356
20
2.55104370617994
30
0
41
1
10
60.4272495188367
20
2.72843114126749
30
0
41
1
10
59.9474426535315
20
2.90379249445453
30
0
41
1
10
59.5687009976862
20
3.04494933794922
30
0
41
1
10
59.2823990079945
20
3.15302865570266
30
0
41
1
10
59.0070973502864
20
3.25791831220968
30
0
41
1
10
58.629634266584
20
3.40354402833722
30
0
41
1
10
58.1169969382166
20
3.60496504662652
30
0
41
1
10
57.5336510153172
20
3.8391425026773
30
0
41
1
10
57.1224110696668
20
4.00911302206205
30
0
41
1
10
56.9262636959574
20
4.09121575239283
30
0
0
SPLINE
5
110
100
AcDbEntity
8
1
62
256
6
ByLayer
370
18
48
1
60
0
100
AcDbSpline
70
4
71
3
72
33
73
29
40
0
40
0
40
0
40
0
40
0.0472160981615415
40
0.0793735524445425
40
0.109836384044581
40
0.140078671053796
40
0.170273821616774
40
0.200571387534242
40
0.231190181571876
40
0.279934894339273
40
0.326262587054883
40
0.370550530875264
40
0.418796341133044
40
0.472395113427176
40
0.513368598744041
40
0.550897805244285
40
0.59517706980567
40
0.641118824593329
40
0.679086456385303
40
0.711436089229894
40
0.751698147983767
40
0.799311370931531
40
0.840489659675185
40
0.873257851268739
40
0.911061330336772
40
0.958545011272355
40
0.996448718791378
40
1
40
1
40
1
40
1
41
1
10
41.7109447415445
20
6.7902428541336
30
0
41
1
10
41.4855095790946
20
6.78761044242225
30
0
41
1
10
41.0987679985991
20
6.78464658416814
30
0
41
1
10
40.5245197741739
20
6.78154350032085
30
0
41
1
10
40.0615417025801
20
6.78514100848983
30
0
41
1
10
39.5993616596996
20
6.78581356291718
30
0
41
1
10
39.1348319949146
20
6.78626622277355
30
0
41
1
10
38.6662835628743
20
6.78635588658781
30
0
41
1
10
38.1025724144234
20
6.78614523159996
30
0
41
1
10
37.4562728246887
20
6.78437014554436
30
0
41
1
10
36.7397589883437
20
6.78192385490826
30
0
41
1
10
36.0257883683075
20
6.7809698091107
30
0
41
1
10
35.2744358227803
20
6.77955446454183
30
0
41
1
10
34.5401328687219
20
6.77642586534981
30
0
41
1
10
33.8609276773228
20
6.77570763592038
30
0
41
1
10
33.2296326579662
20
6.77525589880759
30
0
41
1
10
32.5727940157621
20
6.77486861002683
30
0
41
1
10
31.9137015611345
20
6.77437302438932
30
0
41
1
10
31.3159440772722
20
6.77324739505903
30
0
41
1
10
30.7474524544017
20
6.77110738970273
30
0
41
1
10
30.1292820395118
20
6.76934945536752
30
0
41
1
10
29.4657802141979
20
6.76838644481597
30
0
41
1
10
28.8407330125624
20
6.76756686902968
30
0
41
1
10
28.2662564478054
20
6.76673965881145
30
0
41
1
10
27.6592321149018
20
6.76563250065425
30
0
41
1
10
27.0259570591803
20
6.76382016477092
30
0
41
1
10
26.5684494973956
20
6.76257213379952
30
0
41
1
10
26.3554746126805
20
6.76210798688254
30
0
41
1
10
26.3372312072446
20
6.76206896029652
30
0
0
LINE
5
82
100
AcDbEntity
8
4
62
256
6
ByLayer
370
18
48
0.05
60
0
100
AcDbLine
10
0
20
0
30
0
11
67
21
0
31
0
39
0
210
0
220
0
230
1
0
LINE
5
84
100
AcDbEntity
8
81
62
256
6
ByLayer
370
18
48
1
60
0
100
AcDbLine
10
67
20
0
30
0
11
70
21
0
31
0
39
0
210
0
220
0
230
1
0
LINE
5
85
100
AcDbEntity
8
80
62
256
6
ByLayer
370
18
48
1
60
0
100
AcDbLine
10
0
20
0
30
0
11
-3
21
0
31
0
39
0
210
0
220
0
230
1
0
LINE
5
86
100
AcDbEntity
8
SK4
62
256
6
ByLayer
370
18
48
0.05
60
0
100
AcDbLine
10
-51
20
0
30
0
11
70
21
0
31
0
39
0
210
0
220
0
230
1
0
LINE
5
88
100
AcDbEntity
8
1
62
256
6
ByLayer
370
18
48
1
60
0
100
AcDbLine
10
0
20
8
30
0
11
0
21
-7.466231
31
0
39
0
210
0
220
0
230
1
0
LINE
5
89
100
AcDbEntity
8
1
62
256
6
ByLayer
370
18
48
1
60
0
100
AcDbLine
10
0
20
-8
30
0
11
0
21
-7.695818
31
0
39
0
210
0
220
0
230
1
0
LINE
5
8A
100
AcDbEntity
8
1
62
256
6
ByLayer
370
13
48
1
60
0
100
AcDbLine
10
66.843129
20
0.728205
30
0
11
65.382292
21
2.194567
31
0
39
0
210
0
220
0
230
1
0
LINE
5
8B
100
AcDbEntity
8
1
62
256
6
ByLayer
370
13
48
1
60
0
100
AcDbLine
10
0.74427
20
-7.493363
30
0
11
0.74427
21
7.493363
31
0
39
0
210
0
220
0
230
1
0
LINE
5
8C
100
AcDbEntity
8
1
62
256
6
ByLayer
370
18
48
1
60
0
100
AcDbLine
10
21.899813
20
-7.014029
30
0
11
21.899813
21
-1.151598
31
0
39
0
210
0
220
0
230
1
0
LINE
5
8D
100
AcDbEntity
8
1
62
256
6
ByLayer
370
18
48
1
60
0
100
AcDbLine
10
21.899813
20
7.000894
30
0
11
21.899813
21
6.988824
31
0
39
0
210
0
220
0
230
1
0
LINE
5
8E
100
AcDbEntity
8
1
62
256
6
ByLayer
370
13
48
1
60
0
100
AcDbLine
10
1.48998
20
-6.986728
30
0
11
1.48998
21
6.986728
31
0
39
0
210
0
220
0
230
1
0
LINE
5
8F
100
AcDbEntity
8
SK1
62
256
6
ByLayer
370
18
48
1
60
0
100
AcDbLine
10
-48
20
5.44689
30
0
11
-48
21
4.698238
31
0
39
0
210
0
220
0
230
1
0
LINE
5
91
100
AcDbEntity
8
SK1
62
256
6
ByLayer
370
13
48
1
60
0
100
AcDbLine
10
-46.5
20
5.824517
30
0
11
-46.5
21
6.844589
31
0
39
0
210
0
220
0
230
1
0
LINE
5
92
100
AcDbEntity
8
SK1
62
256
6
ByLayer
370
18
48
1
60
0
100
AcDbLine
10
-48
20
5.44689
30
0
11
-48
21
5.55
31
0
39
0
210
0
220
0
230
1
0
LINE
5
93
100
AcDbEntity
8
SK1
62
256
6
ByLayer
370
18
48
1
60
0
100
AcDbLine
10
-46.4
20
5.973742
30
0
11
-46.4
21
6.912084
31
0
39
0
210
0
220
0
230
1
0
LINE
5
94
100
AcDbEntity
8
SK1
62
256
6
ByLayer
370
18
48
1
60
0
100
AcDbLine
10
-48
20
-5.55
30
0
11
-48
21
4.426954
31
0
39
0
210
0
220
0
230
1
0
LINE
5
95
100
AcDbEntity
8
SK1
62
256
6
ByLayer
370
18
48
1
60
0
100
AcDbLine
10
0
20
8
30
0
11
0
21
-7.466231
31
0
39
0
210
0
220
0
230
1
0
LINE
5
96
100
AcDbEntity
8
SK1
62
256
6
ByLayer
370
18
48
1
60
0
100
AcDbLine
10
0
20
-8
30
0
11
0
21
-7.695818
31
0
39
0
210
0
220
0
230
1
0
LINE
5
97
100
AcDbEntity
8
SK1
62
256
6
ByLayer
370
18
48
1
60
0
100
AcDbLine
10
-45.55
20
-8
30
0
11
-45.55
21
8
31
0
39
0
210
0
220
0
230
1
0
LINE
5
98
100
AcDbEntity
8
1
62
256
6
ByLayer
370
18
48
1
60
0
100
AcDbLine
10
1.48998
20
-6.986728
30
0
11
2.790853
21
-6.98907
31
0
39
0
210
0
220
0
230
1
0
LINE
5
99
100
AcDbEntity
8
1
62
256
6
ByLayer
370
18
48
1
60
0
100
AcDbLine
10
20.523882
20
-7.020989
30
0
11
22.496608
21
-7.02454
31
0
39
0
210
0
220
0
230
1
0
LINE
5
9A
100
AcDbEntity
8
1
62
256
6
ByLayer
370
18
48
1
60
0
100
AcDbLine
10
41.711792
20
-7.059127
30
0
11
43.7134
21
-7.06273
31
0
39
0
210
0
220
0
230
1
0
LINE
5
9B
100
AcDbEntity
8
1
62
256
6
ByLayer
370
18
48
1
60
0
100
AcDbLine
10
43.7134
20
7.06273
30
0
11
41.711792
21
7.059127
31
0
39
0
210
0
220
0
230
1
0
LINE
5
9C
100
AcDbEntity
8
1
62
256
6
ByLayer
370
18
48
1
60
0
100
AcDbLine
10
22.496608
20
7.02454
30
0
11
20.523882
21
7.020989
31
0
39
0
210
0
220
0
230
1
0
LINE
5
9D
100
AcDbEntity
8
1
62
256
6
ByLayer
370
18
48
1
60
0
100
AcDbLine
10
2.790853
20
6.98907
30
0
11
1.48998
21
6.986728
31
0
39
0
210
0
220
0
230
1
0
LINE
5
9E
100
AcDbEntity
8
SK1
62
256
6
ByLayer
370
18
48
1
60
0
100
AcDbLine
10
-48
20
-5.55
30
0
11
-45.55
21
-8
31
0
39
0
210
0
220
0
230
1
0
LINE
5
9F
100
AcDbEntity
8
SK1
62
256
6
ByLayer
370
18
48
1
60
0
100
AcDbLine
10
-45.55
20
8
30
0
11
-48
21
5.55
31
0
39
0
210
0
220
0
230
1
0
LINE
5
A0
100
AcDbEntity
8
SK1
62
256
6
ByLayer
370
18
48
1
60
0
100
AcDbLine
10
-45.55
20
-8
30
0
11
0
21
-8
31
0
39
0
210
0
220
0
230
1
0
LINE
5
A1
100
AcDbEntity
8
SK1
62
256
6
ByLayer
370
18
48
1
60
0
100
AcDbLine
10
0
20
8
30
0
11
-45.55
21
8
31
0
39
0
210
0
220
0
230
1
0
LINE
5
A2
100
AcDbEntity
8
2
62
256
6
ByLayer
370
13
48
1
60
0
100
AcDbLine
10
74.5
20
-7.1
30
0
11
74.5
21
33.206913
31
0
39
0
210
0
220
0
230
1
0
LINE
5
A4
100
AcDbEntity
8
2
62
256
6
ByLayer
370
13
48
1
60
0
100
AcDbLine
10
68.5875
20
7.1
30
0
11
76.5
21
7.1
31
0
39
0
210
0
220
0
230
1
0
LINE
5
A5
100
AcDbEntity
8
2
62
256
6
ByLayer
370
13
48
1
60
0
100
AcDbLine
10
68.5875
20
-7.1
30
0
11
76.5
21
-7.1
31
0
39
0
210
0
220
0
230
1
0
LINE
5
A6
100
AcDbEntity
8
1
62
256
6
ByLayer
370
18
48
1
60
1
100
AcDbLine
10
74.5
20
7.1
30
0
11
74.960784
21
3.600002
31
0
39
0
210
0
220
0
230
1
0
LINE
5
A7
100
AcDbEntity
8
1
62
256
6
ByLayer
370
18
48
1
60
1
100
AcDbLine
10
74.960784
20
3.600002
30
0
11
74.039216
21
3.599998
31
0
39
0
210
0
220
0
230
1
0
LINE
5
A8
100
AcDbEntity
8
1
62
256
6
ByLayer
370
18
48
1
60
1
100
AcDbLine
10
74.039216
20
3.599998
30
0
11
74.5
21
7.1
31
0
39
0
210
0
220
0
230
1
0
LINE
5
A9
100
AcDbEntity
8
1
62
256
6
ByLayer
370
18
48
1
60
1
100
AcDbLine
10
74.5
20
-7.1
30
0
11
74.039216
21
-3.600002
31
0
39
0
210
0
220
0
230
1
0
LINE
5
AA
100
AcDbEntity
8
1
62
256
6
ByLayer
370
18
48
1
60
1
100
AcDbLine
10
74.039216
20
-3.600002
30
0
11
74.960784
21
-3.599998
31
0
39
0
210
0
220
0
230
1
0
LINE
5
AB
100
AcDbEntity
8
1
62
256
6
ByLayer
370
18
48
1
60
1
100
AcDbLine
10
74.960784
20
-3.599998
30
0
11
74.5
21
-7.1
31
0
39
0
210
0
220
0
230
1
0
LINE
5
AC
100
AcDbEntity
8
SK2
62
256
6
ByLayer
370
13
48
1
60
0
100
AcDbLine
10
-56.5
20
-8
30
0
11
-56.5
21
15.333771
31
0
39
0
210
0
220
0
230
1
0
LINE
5
AE
100
AcDbEntity
8
SK2
62
256
6
ByLayer
370
13
48
1
60
0
100
AcDbLine
10
-49.5875
20
8
30
0
11
-58.5
21
8
31
0
39
0
210
0
220
0
230
1
0
LINE
5
AF
100
AcDbEntity
8
SK2
62
256
6
ByLayer
370
13
48
1
60
0
100
AcDbLine
10
-49.5875
20
-8
30
0
11
-58.5
21
-8
31
0
39
0
210
0
220
0
230
1
0
LINE
5
B0
100
AcDbEntity
8
1
62
256
6
ByLayer
370
18
48
1
60
1
100
AcDbLine
10
-56.5
20
8
30
0
11
-56.039216
21
4.500002
31
0
39
0
210
0
220
0
230
1
0
LINE
5
B1
100
AcDbEntity
8
1
62
256
6
ByLayer
370
18
48
1
60
1
100
AcDbLine
10
-56.039216
20
4.500002
30
0
11
-56.960784
21
4.499998
31
0
39
0
210
0
220
0
230
1
0
LINE
5
B2
100
AcDbEntity
8
1
62
256
6
ByLayer
370
18
48
1
60
1
100
AcDbLine
10
-56.960784
20
4.499998
30
0
11
-56.5
21
8
31
0
39
0
210
0
220
0
230
1
0
LINE
5
B3
100
AcDbEntity
8
1
62
256
6
ByLayer
370
18
48
1
60
1
100
AcDbLine
10
-56.5
20
-8
30
0
11
-56.960784
21
-4.500002
31
0
39
0
210
0
220
0
230
1
0
LINE
5
B4
100
AcDbEntity
8
1
62
256
6
ByLayer
370
18
48
1
60
1
100
AcDbLine
10
-56.960784
20
-4.500002
30
0
11
-56.039216
21
-4.499998
31
0
39
0
210
0
220
0
230
1
0
LINE
5
B5
100
AcDbEntity
8
1
62
256
6
ByLayer
370
18
48
1
60
1
100
AcDbLine
10
-56.039216
20
-4.499998
30
0
11
-56.5
21
-8
31
0
39
0
210
0
220
0
230
1
0
LINE
5
B6
100
AcDbEntity
8
SK2
62
256
6
ByLayer
370
13
48
1
60
0
100
AcDbLine
10
67.542922
20
1.491775
30
0
11
75.714359
21
23.944252
31
0
39
0
210
0
220
0
230
1
0
LINE
5
B7
100
AcDbEntity
8
SK2
62
256
6
ByLayer
370
13
48
1
60
0
100
AcDbLine
10
67.542922
20
-1.491775
30
0
11
75.714359
21
-23.944252
31
0
39
0
210
0
220
0
230
1
0
LINE
5
B8
100
AcDbEntity
8
1
62
256
6
ByLayer
370
18
48
1
60
1
100
AcDbLine
10
75.030362
20
22.06485
30
0
11
78.446105
21
21.173217
31
0
39
0
210
0
220
0
230
1
0
LINE
5
B9
100
AcDbEntity
8
1
62
256
6
ByLayer
370
18
48
1
60
1
100
AcDbLine
10
78.446105
20
21.173217
30
0
11
78.098948
21
20.319538
31
0
39
0
210
0
220
0
230
1
0
LINE
5
BA
100
AcDbEntity
8
1
62
256
6
ByLayer
370
18
48
1
60
1
100
AcDbLine
10
78.098948
20
20.319538
30
0
11
75.030362
21
22.06485
31
0
39
0
210
0
220
0
230
1
0
LINE
5
BB
100
AcDbEntity
8
1
62
256
6
ByLayer
370
18
48
1
60
1
100
AcDbLine
10
75.030362
20
-22.06485
30
0
11
78.098945
21
-20.319539
31
0
39
0
210
0
220
0
230
1
0
LINE
5
BC
100
AcDbEntity
8
1
62
256
6
ByLayer
370
18
48
1
60
1
100
AcDbLine
10
78.098945
20
-20.319539
30
0
11
78.446109
21
-21.173216
31
0
39
0
210
0
220
0
230
1
0
LINE
5
BD
100
AcDbEntity
8
1
62
256
6
ByLayer
370
18
48
1
60
1
100
AcDbLine
10
78.446109
20
-21.173216
30
0
11
75.030362
21
-22.06485
31
0
39
0
210
0
220
0
230
1
0
LINE
5
111
100
AcDbEntity
8
1
62
256
6
ByLayer
370
13
48
0.05
60
0
100
AcDbLine
10
-54.5
20
0
30
0
11
70.90439
21
0
31
0
39
0
210
0
220
0
230
1
0
LINE
5
116
100
AcDbEntity
8
1
62
256
6
ByLayer
370
18
48
1
60
1
100
AcDbLine
10
74.5
20
7.1
30
0
11
74.960784
21
3.600002
31
0
39
0
210
0
220
0
230
1
0
LINE
5
117
100
AcDbEntity
8
1
62
256
6
ByLayer
370
18
48
1
60
1
100
AcDbLine
10
74.960784
20
3.600002
30
0
11
74.039216
21
3.599998
31
0
39
0
210
0
220
0
230
1
0
LINE
5
118
100
AcDbEntity
8
1
62
256
6
ByLayer
370
18
48
1
60
1
100
AcDbLine
10
74.039216
20
3.599998
30
0
11
74.5
21
7.1
31
0
39
0
210
0
220
0
230
1
0
LINE
5
11A
100
AcDbEntity
8
1
62
256
6
ByLayer
370
18
48
1
60
1
100
AcDbLine
10
74.5
20
-7.1
30
0
11
74.039216
21
-3.600002
31
0
39
0
210
0
220
0
230
1
0
LINE
5
11B
100
AcDbEntity
8
1
62
256
6
ByLayer
370
18
48
1
60
1
100
AcDbLine
10
74.039216
20
-3.600002
30
0
11
74.960784
21
-3.599998
31
0
39
0
210
0
220
0
230
1
0
LINE
5
11C
100
AcDbEntity
8
1
62
256
6
ByLayer
370
18
48
1
60
1
100
AcDbLine
10
74.960784
20
-3.599998
30
0
11
74.5
21
-7.1
31
0
39
0
210
0
220
0
230
1
0
LINE
5
120
100
AcDbEntity
8
1
62
256
6
ByLayer
370
18
48
1
60
1
100
AcDbLine
10
-56.5
20
8
30
0
11
-56.039216
21
4.500002
31
0
39
0
210
0
220
0
230
1
0
LINE
5
121
100
AcDbEntity
8
1
62
256
6
ByLayer
370
18
48
1
60
1
100
AcDbLine
10
-56.039216
20
4.500002
30
0
11
-56.960784
21
4.499998
31
0
39
0
210
0
220
0
230
1
0
LINE
5
122
100
AcDbEntity
8
1
62
256
6
ByLayer
370
18
48
1
60
1
100
AcDbLine
10
-56.960784
20
4.499998
30
0
11
-56.5
21
8
31
0
39
0
210
0
220
0
230
1
0
LINE
5
124
100
AcDbEntity
8
1
62
256
6
ByLayer
370
18
48
1
60
1
100
AcDbLine
10
-56.5
20
-8
30
0
11
-56.960784
21
-4.500002
31
0
39
0
210
0
220
0
230
1
0
LINE
5
125
100
AcDbEntity
8
1
62
256
6
ByLayer
370
18
48
1
60
1
100
AcDbLine
10
-56.960784
20
-4.500002
30
0
11
-56.039216
21
-4.499998
31
0
39
0
210
0
220
0
230
1
0
LINE
5
126
100
AcDbEntity
8
1
62
256
6
ByLayer
370
18
48
1
60
1
100
AcDbLine
10
-56.039216
20
-4.499998
30
0
11
-56.5
21
-8
31
0
39
0
210
0
220
0
230
1
0
LINE
5
129
100
AcDbEntity
8
1
62
256
6
ByLayer
370
18
48
1
60
1
100
AcDbLine
10
75.030362
20
22.06485
30
0
11
78.446105
21
21.173217
31
0
39
0
210
0
220
0
230
1
0
LINE
5
12A
100
AcDbEntity
8
1
62
256
6
ByLayer
370
18
48
1
60
1
100
AcDbLine
10
78.446105
20
21.173217
30
0
11
78.098948
21
20.319538
31
0
39
0
210
0
220
0
230
1
0
LINE
5
12B
100
AcDbEntity
8
1
62
256
6
ByLayer
370
18
48
1
60
1
100
AcDbLine
10
78.098948
20
20.319538
30
0
11
75.030362
21
22.06485
31
0
39
0
210
0
220
0
230
1
0
LINE
5
12D
100
AcDbEntity
8
1
62
256
6
ByLayer
370
18
48
1
60
1
100
AcDbLine
10
75.030362
20
-22.06485
30
0
11
78.098945
21
-20.319539
31
0
39
0
210
0
220
0
230
1
0
LINE
5
12E
100
AcDbEntity
8
1
62
256
6
ByLayer
370
18
48
1
60
1
100
AcDbLine
10
78.098945
20
-20.319539
30
0
11
78.446109
21
-21.173216
31
0
39
0
210
0
220
0
230
1
0
LINE
5
12F
100
AcDbEntity
8
1
62
256
6
ByLayer
370
18
48
1
60
1
100
AcDbLine
10
78.446109
20
-21.173216
30
0
11
75.030362
21
-22.06485
31
0
39
0
210
0
220
0
230
1
0
MTEXT
5
112
100
AcDbEntity
8
2
62
256
6
ByLayer
370
18
48
1
60
0
100
AcDbMText
10
73.158886
20
20.758437
30
0
210
0
220
0
230
1
1
%%c
40
3
41
0
44
1.084337
50
90
71
7
72
5
7
iso_b_vert
0
MTEXT
5
115
100
AcDbEntity
8
2
62
256
6
ByLayer
370
18
48
1
60
0
100
AcDbMText
10
73.158886
20
26.735
30
0
210
0
220
0
230
1
1
\W0.6856;14.2
40
3
41
0
44
1.084337
50
90
71
7
72
5
7
iso_b_vert
0
MTEXT
5
11E
100
AcDbEntity
8
SK2
62
256
6
ByLayer
370
18
48
1
60
0
100
AcDbMText
10
-57.841114
20
6.658437
30
0
210
0
220
0
230
1
1
%%c
40
3
41
0
44
1.084337
50
90
71
7
72
5
7
iso_b_vert
0
MTEXT
5
11F
100
AcDbEntity
8
SK2
62
256
6
ByLayer
370
18
48
1
60
0
100
AcDbMText
10
-57.841114
20
12.635
30
0
210
0
220
0
230
1
1
\W0.5321;16
40
3
41
0
44
1.084337
50
90
71
7
72
5
7
iso_b_vert
0
MTEXT
5
128
100
AcDbEntity
8
SK2
62
256
6
ByLayer
370
18
48
1
60
0
100
AcDbMText
10
87.040066
20
-2.114886
30
0
210
0
220
0
230
1
1
\W0.7071;140%%d
40
3
41
0
44
1.084337
50
0
71
7
72
5
7
iso_b_vert
0
MTEXT
5
131
100
AcDbEntity
8
SK6
62
256
6
ByLayer
370
18
48
1
60
0
100
AcDbMText
10
-12.991349
20
-77.114886
30
0
210
0
220
0
230
1
1
\W0.7502;860.1-1420-045A1-SD S2BM
40
3
41
0
44
1.084337
50
0
71
7
72
5
7
iso_b_vert
0
HATCH
5
119
100
AcDbEntity
8
2
62
256
6
ByLayer
370
13
48
1
60
0
100
AcDbHatch
10
0
20
0
30
0
210
0
220
0
230
1
2
ANSI31
70
0
71
0
91
1
92
5
93
3
72
1
10
74.5
20
7.09999999999999
11
74.9607837415528
21
3.60000169255318
72
1
10
74.9607837415528
20
3.60000169255318
11
74.0392162584472
21
3.59999830744681
72
1
10
74.0392162584472
20
3.59999830744681
11
74.5
21
7.09999999999999
97
0
75
0
76
1
52
0
41
0.0062
77
0
78
1
53
45
43
0
44
0
45
-0.0139193969876572
46
0.0139193969876572
79
0
47
0
98
1
10
0
20
0
0
HATCH
5
11D
100
AcDbEntity
8
2
62
256
6
ByLayer
370
13
48
1
60
0
100
AcDbHatch
10
0
20
0
30
0
210
0
220
0
230
1
2
ANSI31
70
0
71
0
91
1
92
5
93
3
72
1
10
74.5
20
-7.09999999999999
11
74.0392162584472
21
-3.60000169255318
72
1
10
74.0392162584472
20
-3.60000169255318
11
74.9607837415528
21
-3.59999830744681
72
1
10
74.9607837415528
20
-3.59999830744681
11
74.5
21
-7.09999999999999
97
0
75
0
76
1
52
0
41
0.0062
77
0
78
1
53
45
43
0
44
0
45
-0.0139193969876572
46
0.0139193969876572
79
0
47
0
98
1
10
0
20
0
0
HATCH
5
123
100
AcDbEntity
8
SK2
62
256
6
ByLayer
370
13
48
1
60
0
100
AcDbHatch
10
0
20
0
30
0
210
0
220
0
230
1
2
ANSI31
70
0
71
0
91
1
92
5
93
3
72
1
10
-56.5
20
8
11
-56.0392162584472
21
4.50000169255318
72
1
10
-56.0392162584472
20
4.50000169255318
11
-56.9607837415528
21
4.49999830744682
72
1
10
-56.9607837415528
20
4.49999830744682
11
-56.5
21
8
97
0
75
0
76
1
52
0
41
0.0062
77
0
78
1
53
45
43
0
44
0
45
-0.0139193969876572
46
0.0139193969876572
79
0
47
0
98
1
10
0
20
0
0
HATCH
5
127
100
AcDbEntity
8
SK2
62
256
6
ByLayer
370
13
48
1
60
0
100
AcDbHatch
10
0
20
0
30
0
210
0
220
0
230
1
2
ANSI31
70
0
71
0
91
1
92
5
93
3
72
1
10
-56.5
20
-8
11
-56.9607837415528
21
-4.50000169255318
72
1
10
-56.9607837415528
20
-4.50000169255318
11
-56.0392162584472
21
-4.49999830744682
72
1
10
-56.0392162584472
20
-4.49999830744682
11
-56.5
21
-8
97
0
75
0
76
1
52
0
41
0.0062
77
0
78
1
53
45
43
0
44
0
45
-0.0139193969876572
46
0.0139193969876572
79
0
47
0
98
1
10
0
20
0
0
HATCH
5
12C
100
AcDbEntity
8
SK2
62
256
6
ByLayer
370
13
48
1
60
0
100
AcDbHatch
10
0
20
0
30
0
210
0
220
0
230
1
2
ANSI31
70
0
71
0
91
1
92
5
93
3
72
1
10
75.0303624081059
20
22.0648502699526
11
78.4461054705334
21
21.1732174194539
72
1
10
78.4461054705334
20
21.1732174194539
11
78.0989482024163
21
20.3195380551007
72
1
10
78.0989482024163
20
20.3195380551007
11
75.0303624081059
21
22.0648502699526
97
0
75
0
76
1
52
0
41
0.0062
77
0
78
1
53
45
43
0
44
0
45
-0.0139193969876572
46
0.0139193969876572
79
0
47
0
98
1
10
0
20
0
0
HATCH
5
130
100
AcDbEntity
8
SK2
62
256
6
ByLayer
370
13
48
1
60
0
100
AcDbHatch
10
0
20
0
30
0
210
0
220
0
230
1
2
ANSI31
70
0
71
0
91
1
92
5
93
3
72
1
10
75.0303624081062
20
-22.0648502699525
11
78.0989450666818
21
-20.3195393302919
72
1
10
78.0989450666818
20
-20.3195393302919
11
78.4461086062683
21
-21.1732161442623
72
1
10
78.4461086062683
20
-21.1732161442623
11
75.0303624081062
21
-22.0648502699525
97
0
75
0
76
1
52
0
41
0.0062
77
0
78
1
53
45
43
0
44
0
45
-0.0139193969876572
46
0.0139193969876572
79
0
47
0
98
1
10
0
20
0
0
DIMENSION
5
134
100
AcDbEntity
8
SK2
62
256
6
ByLayer
370
18
48
1
60
0
100
AcDbDimension
2
_U0
10
21.9
20
-26.763776
30
0
11
44.45
21
-26.763776
31
0
70
32
71
1
72
1
41
1
210
0
220
0
230
1
3
Standard
100
AcDbAlignedDimension
13
67
23
-7.1
33
0
14
21.9
24
-7.1
34
0
50
0
100
AcDbRotatedDimension
1001
ACAD
1000
DSTYLE
1002
{
1070
   371
1070
    13
1070
   372
1070
    13
1070
   170
1070
     0
1070
   144
1040
1.0
1070
   277
1070
     2
1070
   284
1070
     8
1070
   278
1070
    46
1070
   146
1040
1.166667
1070
   345
1005
16
1070
   347
1005
16
1070
   346
1005
16
1070
   344
1005
0
1070
   343
1005
0
1070
   172
1070
     1
1070
    76
1070
     0
1070
    75
1070
     0
1070
   282
1070
     0
1070
   281
1070
     0
1070
     3
1000

1070
    71
1070
     0
1070
    74
1070
     0
1070
   279
1070
     0
1070
   173
1070
     1
1070
   340
1005
113
1070
   271
1070
     2
1070
   272
1070
     2
1070
    77
1070
     1
1070
    73
1070
     1
1070
   171
1070
     3
1070
   274
1070
     4
1070
   177
1070
     2
1070
   176
1070
     2
1070
   178
1070
     2
1070
    78
1070
     8
1070
    48
1040
-0.1
1070
    41
1040
3.5
1070
   147
1040
1.5
1070
    42
1040
1.5875
1070
    44
1040
2.0
1070
   140
1040
3.0
1002
}
1001
ACAD_DSTYLE_DIM_LINETYPE
1070
   380
1005
16
1001
ACAD_DSTYLE_DIM_EXT1_LINETYPE
1070
   381
1005
16
1001
ACAD_DSTYLE_DIM_EXT2_LINETYPE
1070
   382
1005
16
0
DIMENSION
5
14F
100
AcDbEntity
8
SK2
62
256
6
ByLayer
370
18
48
1
60
0
100
AcDbDimension
2
_U1
10
2
20
-36.763776
30
0
11
34.5
21
-36.763776
31
0
70
32
71
1
72
1
41
1
210
0
220
0
230
1
3
Standard
100
AcDbAlignedDimension
13
67
23
-7.1
33
0
14
2
24
-7.1
34
0
50
0
100
AcDbRotatedDimension
1001
ACAD
1000
DSTYLE
1002
{
1070
   371
1070
    13
1070
   372
1070
    13
1070
     3
1000

1070
   170
1070
     0
1070
   144
1040
1.0
1070
   277
1070
     2
1070
   284
1070
     8
1070
   278
1070
    46
1070
   146
1040
1.166667
1070
   345
1005
16
1070
   347
1005
16
1070
   346
1005
16
1070
   344
1005
0
1070
   343
1005
0
1070
   172
1070
     1
1070
    76
1070
     0
1070
    75
1070
     0
1070
   282
1070
     0
1070
   281
1070
     0
1070
    71
1070
     0
1070
    74
1070
     0
1070
   279
1070
     0
1070
   173
1070
     1
1070
   340
1005
113
1070
   271
1070
     2
1070
   272
1070
     2
1070
    77
1070
     1
1070
    73
1070
     1
1070
   171
1070
     3
1070
   274
1070
     4
1070
   177
1070
     2
1070
   176
1070
     2
1070
   178
1070
     2
1070
    78
1070
     8
1070
    48
1040
-0.1
1070
    41
1040
3.5
1070
   147
1040
1.5
1070
    42
1040
1.5875
1070
    44
1040
2.0
1070
   140
1040
3.0
1002
}
1001
ACAD_DSTYLE_DIM_LINETYPE
1070
   380
1005
16
1001
ACAD_DSTYLE_DIM_EXT1_LINETYPE
1070
   381
1005
16
1001
ACAD_DSTYLE_DIM_EXT2_LINETYPE
1070
   382
1005
16
0
DIMENSION
5
167
100
AcDbEntity
8
SK2
62
256
6
ByLayer
370
18
48
1
60
0
100
AcDbDimension
2
_U2
10
0
20
-44.763776
30
0
11
-24
21
-44.763776
31
0
70
32
71
1
72
1
41
1
210
0
220
0
230
1
3
Standard
100
AcDbAlignedDimension
13
-48
23
-8
33
0
14
0
24
-8
34
0
50
0
100
AcDbRotatedDimension
1001
ACAD
1000
DSTYLE
1002
{
1070
   371
1070
    13
1070
   372
1070
    13
1070
     3
1000

1070
   170
1070
     0
1070
   144
1040
1.0
1070
   277
1070
     2
1070
   284
1070
     8
1070
   278
1070
    46
1070
   146
1040
1.166667
1070
   345
1005
16
1070
   347
1005
16
1070
   346
1005
16
1070
   344
1005
0
1070
   343
1005
0
1070
   172
1070
     1
1070
    76
1070
     0
1070
    75
1070
     0
1070
   282
1070
     0
1070
   281
1070
     0
1070
    71
1070
     0
1070
    74
1070
     0
1070
   279
1070
     0
1070
   173
1070
     1
1070
   340
1005
113
1070
   271
1070
     2
1070
   272
1070
     2
1070
    77
1070
     1
1070
    73
1070
     1
1070
   171
1070
     3
1070
   274
1070
     4
1070
   177
1070
     2
1070
   176
1070
     2
1070
   178
1070
     2
1070
    78
1070
     8
1070
    48
1040
-0.1
1070
    41
1040
3.5
1070
   147
1040
1.5
1070
    42
1040
1.5875
1070
    44
1040
2.0
1070
   140
1040
3.0
1002
}
1001
ACAD_DSTYLE_DIM_LINETYPE
1070
   380
1005
16
1001
ACAD_DSTYLE_DIM_EXT1_LINETYPE
1070
   381
1005
16
1001
ACAD_DSTYLE_DIM_EXT2_LINETYPE
1070
   382
1005
16
0
DIMENSION
5
17F
100
AcDbEntity
8
SK2
62
256
6
ByLayer
370
18
48
1
60
0
100
AcDbDimension
2
_U3
10
67
20
-52.763776
30
0
11
9.5
21
-52.763776
31
0
70
32
71
1
72
1
41
1
210
0
220
0
230
1
3
Standard
100
AcDbAlignedDimension
13
-48
23
-8
33
0
14
67
24
-7.1
34
0
50
0
100
AcDbRotatedDimension
1001
ACAD
1000
DSTYLE
1002
{
1070
   371
1070
    13
1070
   372
1070
    13
1070
     3
1000

1070
   170
1070
     0
1070
   144
1040
1.0
1070
   277
1070
     2
1070
   284
1070
     8
1070
   278
1070
    46
1070
   146
1040
1.166667
1070
   345
1005
16
1070
   347
1005
16
1070
   346
1005
16
1070
   344
1005
0
1070
   343
1005
0
1070
   172
1070
     1
1070
    76
1070
     0
1070
    75
1070
     0
1070
   282
1070
     0
1070
   281
1070
     0
1070
    71
1070
     0
1070
    74
1070
     0
1070
   279
1070
     0
1070
   173
1070
     1
1070
   340
1005
113
1070
   271
1070
     2
1070
   272
1070
     2
1070
    77
1070
     1
1070
    73
1070
     1
1070
   171
1070
     3
1070
   274
1070
     4
1070
   177
1070
     2
1070
   176
1070
     2
1070
   178
1070
     2
1070
    78
1070
     8
1070
    48
1040
-0.1
1070
    41
1040
3.5
1070
   147
1040
1.5
1070
    42
1040
1.5875
1070
    44
1040
2.0
1070
   140
1040
3.0
1002
}
1001
ACAD_DSTYLE_DIM_LINETYPE
1070
   380
1005
16
1001
ACAD_DSTYLE_DIM_EXT1_LINETYPE
1070
   381
1005
16
1001
ACAD_DSTYLE_DIM_EXT2_LINETYPE
1070
   382
1005
16
0
DIMENSION
5
197
100
AcDbEntity
8
2
62
256
6
ByLayer
370
18
48
1
60
0
100
AcDbDimension
2
_U4
10
0
20
-44.763776
30
0
11
33.5
21
-44.763776
31
0
70
32
71
1
72
1
41
1
210
0
220
0
230
1
3
Standard
100
AcDbAlignedDimension
13
67
23
-7.1
33
0
14
0
24
-7.1
34
0
50
0
100
AcDbRotatedDimension
1001
ACAD
1000
DSTYLE
1002
{
1070
   371
1070
    13
1070
   372
1070
    13
1070
     3
1000

1070
   170
1070
     0
1070
   144
1040
1.0
1070
   277
1070
     2
1070
   284
1070
     8
1070
   278
1070
    46
1070
   146
1040
1.166667
1070
   345
1005
16
1070
   347
1005
16
1070
   346
1005
16
1070
   344
1005
0
1070
   343
1005
0
1070
   172
1070
     1
1070
    76
1070
     0
1070
    75
1070
     0
1070
   282
1070
     0
1070
   281
1070
     0
1070
    71
1070
     0
1070
    74
1070
     0
1070
   279
1070
     0
1070
   173
1070
     1
1070
   340
1005
113
1070
   271
1070
     2
1070
   272
1070
     2
1070
    77
1070
     1
1070
    73
1070
     1
1070
   171
1070
     3
1070
   274
1070
     4
1070
   177
1070
     2
1070
   176
1070
     2
1070
   178
1070
     2
1070
    78
1070
     8
1070
    48
1040
-0.1
1070
    41
1040
3.5
1070
   147
1040
1.5
1070
    42
1040
1.5875
1070
    44
1040
2.0
1070
   140
1040
3.0
1002
}
1001
ACAD_DSTYLE_DIM_LINETYPE
1070
   380
1005
16
1001
ACAD_DSTYLE_DIM_EXT1_LINETYPE
1070
   381
1005
16
1001
ACAD_DSTYLE_DIM_EXT2_LINETYPE
1070
   382
1005
16
0
ENDSEC
0
SECTION
2
OBJECTS
0
DICTIONARY
5
21f
330
0
100
AcDbDictionary
280
0
281
1
3
ACAD_GROUP
350
220
3
ACAD_MLINESTYLE
350
221
0
DICTIONARY
5
220
330
0
100
AcDbDictionary
280
0
281
1
0
DICTIONARY
5
221
330
0
100
AcDbDictionary
280
0
281
1
3
Standard
350
18
0
MLINESTYLE
5
18
330
221
100
AcDbMlineStyle
2
Standard
70
0
3

62
256
51
90
52
90
71
2
49
-0.5
62
256
6
ByLayer
49
0.5
62
256
6
ByLayer
0
RASTERVARIABLES
5
20d
330

100
AcDbRasterVariables
90
0
70
1
71
1
72
1
0
ENDSEC
0
EOF
