0
SECTION
2
HEADER
9
$ACADVER
1
AC1015
9
$DWGCODEPAGE
3
ANSI_1252
9
$HANDSEED
5
235
9
$ANGBASE
50
0
9
$ANGDIR
70
0
9
$ATTMODE
70
1
9
$AUNITS
70
0
9
$AUPREC
70
0
9
$CECOLOR
62
256
9
$CELTSCALE
40
1
9
$CELTYPE
6
ByLayer
9
$CELWEIGHT
370
18
9
$CLAYER
8
0
9
$CMLJUST
70
0
9
$CMLSCALE
40
1
9
$CMLSTYLE
2
Standard
9
$DIMSTYLE
2
Standard
9
$TEXTSIZE
40
0.2
9
$TEXTSTYLE
7
Standard
9
$LUNITS
70
2
9
$LUPREC
70
4
9
$EXTNAMES
290
1
9
$INSUNITS
70
4
9
$LTSCALE
40
1
9
$LWDISPLAY
290
1
9
$PDMODE
70
0
9
$PDSIZE
40
0
9
$PLINEGEN
70
0
0
ENDSEC
0
SECTION
2
CLASSES
0
CLASS
1
RASTERVARIABLES
2
AcDbRasterVariables
3
ISM
90
0
280
0
281
0
0
ENDSEC
0
SECTION
2
TABLES
0
TABLE
2
VPORT
5
22b
100
AcDbSymbolTable
0
VPORT
5
1
100
AcDbSymbolTableRecord
100
AcDbViewportTableRecord
2
*Active
70
0
10
0
20
0
11
1
21
1
12
-1
22
1
13
0
23
0
14
0.5
24
0.5
15
10
25
10
16
0
26
0
36
1
17
0
27
0
37
0
0
ENDTAB
0
TABLE
2
LTYPE
5
22c
100
AcDbSymbolTable
0
LTYPE
5
14
100
AcDbSymbolTableRecord
100
AcDbLinetypeTableRecord
70
0
2
ByBlock
3

72
65
73
0
40
0
0
LTYPE
5
15
100
AcDbSymbolTableRecord
100
AcDbLinetypeTableRecord
70
0
2
ByLayer
3

72
65
73
0
40
0
0
LTYPE
5
16
100
AcDbSymbolTableRecord
100
AcDbLinetypeTableRecord
70
0
2
Continuous
3
Solid line
72
65
73
0
40
0
0
LTYPE
5
6E
100
AcDbSymbolTableRecord
100
AcDbLinetypeTableRecord
70
0
2
CENTER
3
____ _ ____ _ ____ _ ____
72
65
73
4
40
47.5
49
22
74
0
49
-8.5
74
0
49
8.5
74
0
49
-8.5
74
0
0
LTYPE
5
6F
100
AcDbSymbolTableRecord
100
AcDbLinetypeTableRecord
70
0
2
DASHED
3
__ __ __ __ __ __ __ __ __
72
65
73
2
40
25.72
49
12.86
74
0
49
-12.86
74
0
0
ENDTAB
0
TABLE
2
LAYER
5
22d
100
AcDbSymbolTable
0
LAYER
5
10
100
AcDbSymbolTableRecord
100
AcDbLayerTableRecord
2
0
70
0
62
7
6
Continuous
290
1
370
-3
390
0
0
LAYER
5
71
100
AcDbSymbolTableRecord
100
AcDbLayerTableRecord
2
80
70
0
62
-6
6
Continuous
290
1
370
-3
390
0
0
LAYER
5
73
100
AcDbSymbolTableRecord
100
AcDbLayerTableRecord
2
81
70
0
62
-3
6
Continuous
290
1
370
-3
390
0
0
LAYER
5
75
100
AcDbSymbolTableRecord
100
AcDbLayerTableRecord
2
1
70
0
62
4
6
Continuous
290
1
370
-3
390
0
0
LAYER
5
83
100
AcDbSymbolTableRecord
100
AcDbLayerTableRecord
2
4
70
0
62
-2
6
CENTER
290
1
370
-3
390
0
0
LAYER
5
AA
100
AcDbSymbolTableRecord
100
AcDbLayerTableRecord
2
2
70
0
62
7
6
Continuous
290
1
370
-3
390
0
0
LAYER
5
140
100
AcDbSymbolTableRecord
100
AcDbLayerTableRecord
2
Defpoints
70
0
62
7
6
Continuous
290
0
370
-3
390
0
0
LAYER
5
217
100
AcDbSymbolTableRecord
100
AcDbLayerTableRecord
2
SK4
70
0
62
2
6
CENTER
290
1
370
-3
390
0
0
LAYER
5
218
100
AcDbSymbolTableRecord
100
AcDbLayerTableRecord
2
SK1
70
0
62
4
6
Continuous
290
1
370
-3
390
0
0
LAYER
5
219
100
AcDbSymbolTableRecord
100
AcDbLayerTableRecord
2
SK2
70
0
62
7
6
Continuous
290
1
370
-3
390
0
0
LAYER
5
21a
100
AcDbSymbolTableRecord
100
AcDbLayerTableRecord
2
SK6
70
0
62
5
6
Continuous
290
1
370
-3
390
0
0
ENDTAB
0
TABLE
2
STYLE
5
22e
100
AcDbSymbolTable
0
STYLE
5
11
100
AcDbSymbolTableRecord
100
AcDbTextStyleTableRecord
2
Standard
3
txt
70
0
71
0
40
0
41
1
42
0
50
0
0
STYLE
5
11C
100
AcDbSymbolTableRecord
100
AcDbTextStyleTableRecord
2
iso_b_vert
3
simplex.shx
70
0
71
0
40
0
41
1
42
0
50
0
0
STYLE
5
11D
100
AcDbSymbolTableRecord
100
AcDbTextStyleTableRecord
2
DWGDirectTextStyle
3
simplex
70
0
71
0
40
0
41
1
42
0
50
0
0
ENDTAB
0
TABLE
2
DIMSTYLE
5
22f
100
AcDbSymbolTable
100
AcDbDimStyleTable
0
DIMSTYLE
105
27
100
AcDbSymbolTableRecord
100
AcDbDimStyleTableRecord
2
Standard
70
0
3
<>
41
0.18
42
0.0625
44
0.18
140
0.18
147
0.09
73
0
74
0
77
1
271
2
275
0
278
52
280
0
340
11
0
ENDTAB
0
TABLE
2
VIEW
5
230
100
AcDbSymbolTable
0
ENDTAB
0
TABLE
2
UCS
5
231
100
AcDbSymbolTable
0
ENDTAB
0
TABLE
2
APPID
5
232
100
AcDbSymbolTable
0
APPID
5
12
100
AcDbSymbolTableRecord
100
AcDbRegAppTableRecord
2
ACAD
70
0
0
APPID
5
13C
100
AcDbSymbolTableRecord
100
AcDbRegAppTableRecord
2
ACAD_DSTYLE_DIMBREAK
70
0
0
APPID
5
1D6
100
AcDbSymbolTableRecord
100
AcDbRegAppTableRecord
2
ACAD_DSTYLE_DIM_LINETYPE
70
0
0
APPID
5
1D7
100
AcDbSymbolTableRecord
100
AcDbRegAppTableRecord
2
ACAD_DSTYLE_DIM_EXT1_LINETYPE
70
0
0
APPID
5
1D8
100
AcDbSymbolTableRecord
100
AcDbRegAppTableRecord
2
ACAD_DSTYLE_DIM_EXT2_LINETYPE
70
0
0
APPID
5
213
100
AcDbSymbolTableRecord
100
AcDbRegAppTableRecord
2
ACAD_MLEADERVER
70
0
0
ENDTAB
0
TABLE
2
BLOCK_RECORD
5
233
100
AcDbSymbolTable
0
BLOCK_RECORD
5
1F
100
AcDbSymbolTableRecord
100
AcDbBlockTableRecord
2
*Model_Space
340
0
70
0
0
BLOCK_RECORD
5
1B
100
AcDbSymbolTableRecord
100
AcDbBlockTableRecord
2
*Paper_Space
340
0
70
0
0
BLOCK_RECORD
5
23
100
AcDbSymbolTableRecord
100
AcDbBlockTableRecord
2
*Paper_Space0
340
0
70
0
0
BLOCK_RECORD
5
141
100
AcDbSymbolTableRecord
100
AcDbBlockTableRecord
2
*D1
340
0
70
0
0
BLOCK_RECORD
5
14D
100
AcDbSymbolTableRecord
100
AcDbBlockTableRecord
2
_U0
340
0
70
0
0
BLOCK_RECORD
5
15B
100
AcDbSymbolTableRecord
100
AcDbBlockTableRecord
2
*D3
340
0
70
0
0
BLOCK_RECORD
5
167
100
AcDbSymbolTableRecord
100
AcDbBlockTableRecord
2
_U1
340
0
70
0
0
BLOCK_RECORD
5
173
100
AcDbSymbolTableRecord
100
AcDbBlockTableRecord
2
*D5
340
0
70
0
0
BLOCK_RECORD
5
17F
100
AcDbSymbolTableRecord
100
AcDbBlockTableRecord
2
_U2
340
0
70
0
0
BLOCK_RECORD
5
18B
100
AcDbSymbolTableRecord
100
AcDbBlockTableRecord
2
*D7
340
0
70
0
0
BLOCK_RECORD
5
197
100
AcDbSymbolTableRecord
100
AcDbBlockTableRecord
2
_U3
340
0
70
0
0
BLOCK_RECORD
5
1A3
100
AcDbSymbolTableRecord
100
AcDbBlockTableRecord
2
*D9
340
0
70
0
0
BLOCK_RECORD
5
1AF
100
AcDbSymbolTableRecord
100
AcDbBlockTableRecord
2
_U4
340
0
70
0
0
ENDTAB
0
ENDSEC
0
SECTION
2
BLOCKS
0
BLOCK
5
20
100
AcDbEntity
8
0
100
AcDbBlockBegin
2
*Model_Space
70
0
10
0
20
0
30
0
3
*Model_Space
0
ENDBLK
5
21
100
AcDbEntity
8
0
100
AcDbBlockEnd
0
BLOCK
5
1C
100
AcDbEntity
8
0
100
AcDbBlockBegin
2
*Paper_Space
70
0
10
0
20
0
30
0
3
*Paper_Space
0
ENDBLK
5
1D
100
AcDbEntity
8
0
100
AcDbBlockEnd
0
BLOCK
5
24
100
AcDbEntity
8
0
100
AcDbBlockBegin
2
*Paper_Space0
70
0
10
0
20
0
30
0
3
*Paper_Space0
0
ENDBLK
5
25
100
AcDbEntity
8
0
100
AcDbBlockEnd
0
BLOCK
5
142
100
AcDbEntity
8
0
100
AcDbBlockBegin
2
*D1
70
1
10
0
20
0
30
0
3
*D1
0
LINE
5
144
100
AcDbEntity
8
0
62
256
6
ByLayer
370
-2
48
1
60
0
100
AcDbLine
10
179
20
-8.7315
30
0
11
179
21
-28.832746
31
0
39
0
210
0
220
0
230
1
0
LINE
5
145
100
AcDbEntity
8
0
62
256
6
ByLayer
370
-2
48
1
60
0
100
AcDbLine
10
62.1
20
-8.7315
30
0
11
62.1
21
-28.832746
31
0
39
0
210
0
220
0
230
1
0
LINE
5
146
100
AcDbEntity
8
0
62
256
6
ByLayer
370
-2
48
1
60
0
100
AcDbLine
10
175.5
20
-26.832746
30
0
11
65.6
21
-26.832746
31
0
39
0
210
0
220
0
230
1
0
SOLID
5
147
100
AcDbEntity
8
0
62
256
6
ByLayer
370
-1
48
1
60
0
100
AcDbTrace
10
175.5
20
-27.416079
30
0
11
175.5
21
-26.249413
31
0
12
179
22
-26.832746
32
0
13
179
23
-26.832746
33
0
39
0
210
0
220
0
230
1
0
SOLID
5
148
100
AcDbEntity
8
0
62
256
6
ByLayer
370
-1
48
1
60
0
100
AcDbTrace
10
65.6
20
-26.249413
30
0
11
65.6
21
-27.416079
31
0
12
62.1
22
-26.832746
32
0
13
62.1
23
-26.832746
33
0
39
0
210
0
220
0
230
1
0
MTEXT
5
149
100
AcDbEntity
8
0
62
256
6
ByLayer
370
18
48
1
60
0
100
AcDbMText
10
120.55
20
-20.832746
30
0
210
0
220
0
230
1
1
\A1;116.9
40
3
41
0
44
1
50
0
71
5
72
5
7
iso_b_vert
0
POINT
5
14A
100
AcDbEntity
8
Defpoints
62
0
6
ByLayer
370
-1
48
1
60
0
100
AcDbPoint
10
179
20
-7.144
30
0
39
0
210
0
220
0
230
1
50
360
0
POINT
5
14B
100
AcDbEntity
8
Defpoints
62
0
6
ByLayer
370
-1
48
1
60
0
100
AcDbPoint
10
62.1
20
-7.144
30
0
39
0
210
0
220
0
230
1
50
360
0
POINT
5
14C
100
AcDbEntity
8
Defpoints
62
0
6
ByLayer
370
-1
48
1
60
0
100
AcDbPoint
10
62.1
20
-26.832746
30
0
39
0
210
0
220
0
230
1
50
360
0
ENDBLK
5
143
100
AcDbEntity
8
0
100
AcDbBlockEnd
0
BLOCK
5
156
100
AcDbEntity
8
0
100
AcDbBlockBegin
2
_U0
70
0
10
0
20
0
30
0
3
_U0
0
MTEXT
5
14E
100
AcDbEntity
8
SK2
62
256
6
ByLayer
370
18
48
1
60
0
100
AcDbMText
10
116.817515
20
-24.635131
30
0
210
0
220
0
230
1
1
\W0.6334;116.9
40
3
41
0
44
1.084337
50
0
71
7
72
5
7
iso_b_vert
0
MTEXT
5
14F
100
AcDbEntity
8
SK2
62
256
6
ByLayer
370
18
48
1
60
0
100
AcDbMText
10
114.717515
20
-24.635131
30
0
210
0
220
0
230
1
1
\W1.1313;{\H1.88x;(}
40
3
41
0
44
1.084337
50
0
71
7
72
5
7
iso_b_vert
0
MTEXT
5
150
100
AcDbEntity
8
SK2
62
256
6
ByLayer
370
18
48
1
60
0
100
AcDbMText
10
124.600485
20
-24.635131
30
0
210
0
220
0
230
1
1
\W1.1313;{\H1.88x;)}
40
3
41
0
44
1.084337
50
0
71
7
72
5
7
iso_b_vert
0
LINE
5
151
100
AcDbEntity
8
SK2
62
256
6
ByLayer
370
13
48
1
60
0
100
AcDbLine
10
179
20
-8.7315
30
0
11
179
21
-28.832746
31
0
39
0
210
0
220
0
230
1
0
LINE
5
152
100
AcDbEntity
8
SK2
62
256
6
ByLayer
370
13
48
1
60
0
100
AcDbLine
10
62.1
20
-8.7315
30
0
11
62.1
21
-28.832746
31
0
39
0
210
0
220
0
230
1
0
LINE
5
153
100
AcDbEntity
8
SK2
62
256
6
ByLayer
370
13
48
1
60
0
100
AcDbLine
10
179
20
-26.832746
30
0
11
62.1
21
-26.832746
31
0
39
0
210
0
220
0
230
1
0
SOLID
5
154
100
AcDbEntity
8
SK2
62
256
6
ByLayer
370
18
48
1
60
0
100
AcDbTrace
10
179
20
-26.832746
30
0
11
175.500002
21
-27.29353
31
0
12
175.499998
22
-26.371962
32
0
13
175.499998
23
-26.371962
33
0
39
0
210
0
220
0
230
1
0
SOLID
5
155
100
AcDbEntity
8
SK2
62
256
6
ByLayer
370
18
48
1
60
0
100
AcDbTrace
10
62.1
20
-26.832746
30
0
11
65.599998
21
-26.371962
31
0
12
65.600002
22
-27.29353
32
0
13
65.600002
23
-27.29353
33
0
39
0
210
0
220
0
230
1
0
ENDBLK
5
157
100
AcDbEntity
8
0
100
AcDbBlockEnd
0
BLOCK
5
15C
100
AcDbEntity
8
0
100
AcDbBlockBegin
2
*D3
70
1
10
0
20
0
30
0
3
*D3
0
LINE
5
15E
100
AcDbEntity
8
0
62
256
6
ByLayer
370
-2
48
1
60
0
100
AcDbLine
10
179
20
-8.7315
30
0
11
179
21
-38.832746
31
0
39
0
210
0
220
0
230
1
0
LINE
5
15F
100
AcDbEntity
8
0
62
256
6
ByLayer
370
-2
48
1
60
0
100
AcDbLine
10
7
20
-8.7315
30
0
11
7
21
-38.832746
31
0
39
0
210
0
220
0
230
1
0
LINE
5
160
100
AcDbEntity
8
0
62
256
6
ByLayer
370
-2
48
1
60
0
100
AcDbLine
10
175.5
20
-36.832746
30
0
11
10.5
21
-36.832746
31
0
39
0
210
0
220
0
230
1
0
SOLID
5
161
100
AcDbEntity
8
0
62
256
6
ByLayer
370
-1
48
1
60
0
100
AcDbTrace
10
175.5
20
-37.416079
30
0
11
175.5
21
-36.249413
31
0
12
179
22
-36.832746
32
0
13
179
23
-36.832746
33
0
39
0
210
0
220
0
230
1
0
SOLID
5
162
100
AcDbEntity
8
0
62
256
6
ByLayer
370
-1
48
1
60
0
100
AcDbTrace
10
10.5
20
-36.249413
30
0
11
10.5
21
-37.416079
31
0
12
7
22
-36.832746
32
0
13
7
23
-36.832746
33
0
39
0
210
0
220
0
230
1
0
MTEXT
5
163
100
AcDbEntity
8
0
62
256
6
ByLayer
370
18
48
1
60
0
100
AcDbMText
10
93
20
-30.832746
30
0
210
0
220
0
230
1
1
\A1;172
40
3
41
0
44
1
50
0
71
5
72
5
7
iso_b_vert
0
POINT
5
164
100
AcDbEntity
8
Defpoints
62
0
6
ByLayer
370
-1
48
1
60
0
100
AcDbPoint
10
179
20
-7.144
30
0
39
0
210
0
220
0
230
1
50
360
0
POINT
5
165
100
AcDbEntity
8
Defpoints
62
0
6
ByLayer
370
-1
48
1
60
0
100
AcDbPoint
10
7
20
-7.144
30
0
39
0
210
0
220
0
230
1
50
360
0
POINT
5
166
100
AcDbEntity
8
Defpoints
62
0
6
ByLayer
370
-1
48
1
60
0
100
AcDbPoint
10
7
20
-36.832746
30
0
39
0
210
0
220
0
230
1
50
360
0
ENDBLK
5
15D
100
AcDbEntity
8
0
100
AcDbBlockEnd
0
BLOCK
5
16E
100
AcDbEntity
8
0
100
AcDbBlockBegin
2
_U1
70
0
10
0
20
0
30
0
3
_U1
0
MTEXT
5
168
100
AcDbEntity
8
SK2
62
256
6
ByLayer
370
18
48
1
60
0
100
AcDbMText
10
90.621201
20
-35.947631
30
0
210
0
220
0
230
1
1
\W0.6217;172
40
3
41
0
44
1.084337
50
0
71
7
72
5
7
iso_b_vert
0
LINE
5
169
100
AcDbEntity
8
SK2
62
256
6
ByLayer
370
13
48
1
60
0
100
AcDbLine
10
179
20
-8.7315
30
0
11
179
21
-38.832746
31
0
39
0
210
0
220
0
230
1
0
LINE
5
16A
100
AcDbEntity
8
SK2
62
256
6
ByLayer
370
13
48
1
60
0
100
AcDbLine
10
7
20
-8.7315
30
0
11
7
21
-38.832746
31
0
39
0
210
0
220
0
230
1
0
LINE
5
16B
100
AcDbEntity
8
SK2
62
256
6
ByLayer
370
13
48
1
60
0
100
AcDbLine
10
179
20
-36.832746
30
0
11
7
21
-36.832746
31
0
39
0
210
0
220
0
230
1
0
SOLID
5
16C
100
AcDbEntity
8
SK2
62
256
6
ByLayer
370
18
48
1
60
0
100
AcDbTrace
10
179
20
-36.832746
30
0
11
175.500002
21
-37.29353
31
0
12
175.499998
22
-36.371962
32
0
13
175.499998
23
-36.371962
33
0
39
0
210
0
220
0
230
1
0
SOLID
5
16D
100
AcDbEntity
8
SK2
62
256
6
ByLayer
370
18
48
1
60
0
100
AcDbTrace
10
7
20
-36.832746
30
0
11
10.499998
21
-36.371962
31
0
12
10.500002
22
-37.29353
32
0
13
10.500002
23
-37.29353
33
0
39
0
210
0
220
0
230
1
0
ENDBLK
5
16F
100
AcDbEntity
8
0
100
AcDbBlockEnd
0
BLOCK
5
174
100
AcDbEntity
8
0
100
AcDbBlockBegin
2
*D5
70
1
10
0
20
0
30
0
3
*D5
0
LINE
5
176
100
AcDbEntity
8
0
62
256
6
ByLayer
370
-2
48
1
60
0
100
AcDbLine
10
-48
20
-9.5875
30
0
11
-48
21
-46.832746
31
0
39
0
210
0
220
0
230
1
0
LINE
5
177
100
AcDbEntity
8
0
62
256
6
ByLayer
370
-2
48
1
60
0
100
AcDbLine
10
0
20
-9.5875
30
0
11
0
21
-46.832746
31
0
39
0
210
0
220
0
230
1
0
LINE
5
178
100
AcDbEntity
8
0
62
256
6
ByLayer
370
-2
48
1
60
0
100
AcDbLine
10
-44.5
20
-44.832746
30
0
11
-3.5
21
-44.832746
31
0
39
0
210
0
220
0
230
1
0
SOLID
5
179
100
AcDbEntity
8
0
62
256
6
ByLayer
370
-1
48
1
60
0
100
AcDbTrace
10
-44.5
20
-44.249413
30
0
11
-44.5
21
-45.416079
31
0
12
-48
22
-44.832746
32
0
13
-48
23
-44.832746
33
0
39
0
210
0
220
0
230
1
0
SOLID
5
17A
100
AcDbEntity
8
0
62
256
6
ByLayer
370
-1
48
1
60
0
100
AcDbTrace
10
-3.5
20
-45.416079
30
0
11
-3.5
21
-44.249413
31
0
12
0
22
-44.832746
32
0
13
0
23
-44.832746
33
0
39
0
210
0
220
0
230
1
0
MTEXT
5
17B
100
AcDbEntity
8
0
62
256
6
ByLayer
370
18
48
1
60
0
100
AcDbMText
10
-24
20
-38.832746
30
0
210
0
220
0
230
1
1
\A1;48
40
3
41
0
44
1
50
0
71
5
72
5
7
iso_b_vert
0
POINT
5
17C
100
AcDbEntity
8
Defpoints
62
0
6
ByLayer
370
-1
48
1
60
0
100
AcDbPoint
10
-48
20
-8
30
0
39
0
210
0
220
0
230
1
50
360
0
POINT
5
17D
100
AcDbEntity
8
Defpoints
62
0
6
ByLayer
370
-1
48
1
60
0
100
AcDbPoint
10
0
20
-8
30
0
39
0
210
0
220
0
230
1
50
360
0
POINT
5
17E
100
AcDbEntity
8
Defpoints
62
0
6
ByLayer
370
-1
48
1
60
0
100
AcDbPoint
10
0
20
-44.832746
30
0
39
0
210
0
220
0
230
1
50
360
0
ENDBLK
5
175
100
AcDbEntity
8
0
100
AcDbBlockEnd
0
BLOCK
5
186
100
AcDbEntity
8
0
100
AcDbBlockBegin
2
_U2
70
0
10
0
20
0
30
0
3
_U2
0
MTEXT
5
180
100
AcDbEntity
8
SK2
62
256
6
ByLayer
370
18
48
1
60
0
100
AcDbMText
10
-25.790771
20
-43.947631
30
0
210
0
220
0
230
1
1
\W0.7361;48
40
3
41
0
44
1.084337
50
0
71
7
72
5
7
iso_b_vert
0
LINE
5
181
100
AcDbEntity
8
SK2
62
256
6
ByLayer
370
13
48
1
60
0
100
AcDbLine
10
-48
20
-9.5875
30
0
11
-48
21
-46.832746
31
0
39
0
210
0
220
0
230
1
0
LINE
5
182
100
AcDbEntity
8
SK2
62
256
6
ByLayer
370
13
48
1
60
0
100
AcDbLine
10
0
20
-9.5875
30
0
11
0
21
-46.832746
31
0
39
0
210
0
220
0
230
1
0
LINE
5
183
100
AcDbEntity
8
SK2
62
256
6
ByLayer
370
13
48
1
60
0
100
AcDbLine
10
-48
20
-44.832746
30
0
11
0
21
-44.832746
31
0
39
0
210
0
220
0
230
1
0
SOLID
5
184
100
AcDbEntity
8
SK2
62
256
6
ByLayer
370
18
48
1
60
0
100
AcDbTrace
10
-48
20
-44.832746
30
0
11
-44.500002
21
-44.371962
31
0
12
-44.499998
22
-45.29353
32
0
13
-44.499998
23
-45.29353
33
0
39
0
210
0
220
0
230
1
0
SOLID
5
185
100
AcDbEntity
8
SK2
62
256
6
ByLayer
370
18
48
1
60
0
100
AcDbTrace
10
0
20
-44.832746
30
0
11
-3.499998
21
-45.29353
31
0
12
-3.500002
22
-44.371962
32
0
13
-3.500002
23
-44.371962
33
0
39
0
210
0
220
0
230
1
0
ENDBLK
5
187
100
AcDbEntity
8
0
100
AcDbBlockEnd
0
BLOCK
5
18C
100
AcDbEntity
8
0
100
AcDbBlockBegin
2
*D7
70
1
10
0
20
0
30
0
3
*D7
0
LINE
5
18E
100
AcDbEntity
8
0
62
256
6
ByLayer
370
-2
48
1
60
0
100
AcDbLine
10
-48
20
-9.5875
30
0
11
-48
21
-54.832746
31
0
39
0
210
0
220
0
230
1
0
LINE
5
18F
100
AcDbEntity
8
0
62
256
6
ByLayer
370
-2
48
1
60
0
100
AcDbLine
10
179
20
-8.7315
30
0
11
179
21
-54.832746
31
0
39
0
210
0
220
0
230
1
0
LINE
5
190
100
AcDbEntity
8
0
62
256
6
ByLayer
370
-2
48
1
60
0
100
AcDbLine
10
-44.5
20
-52.832746
30
0
11
175.5
21
-52.832746
31
0
39
0
210
0
220
0
230
1
0
SOLID
5
191
100
AcDbEntity
8
0
62
256
6
ByLayer
370
-1
48
1
60
0
100
AcDbTrace
10
-44.5
20
-52.249413
30
0
11
-44.5
21
-53.416079
31
0
12
-48
22
-52.832746
32
0
13
-48
23
-52.832746
33
0
39
0
210
0
220
0
230
1
0
SOLID
5
192
100
AcDbEntity
8
0
62
256
6
ByLayer
370
-1
48
1
60
0
100
AcDbTrace
10
175.5
20
-53.416079
30
0
11
175.5
21
-52.249413
31
0
12
179
22
-52.832746
32
0
13
179
23
-52.832746
33
0
39
0
210
0
220
0
230
1
0
MTEXT
5
193
100
AcDbEntity
8
0
62
256
6
ByLayer
370
18
48
1
60
0
100
AcDbMText
10
65.5
20
-46.832746
30
0
210
0
220
0
230
1
1
\A1;227
40
3
41
0
44
1
50
0
71
5
72
5
7
iso_b_vert
0
POINT
5
194
100
AcDbEntity
8
Defpoints
62
0
6
ByLayer
370
-1
48
1
60
0
100
AcDbPoint
10
-48
20
-8
30
0
39
0
210
0
220
0
230
1
50
360
0
POINT
5
195
100
AcDbEntity
8
Defpoints
62
0
6
ByLayer
370
-1
48
1
60
0
100
AcDbPoint
10
179
20
-7.144
30
0
39
0
210
0
220
0
230
1
50
360
0
POINT
5
196
100
AcDbEntity
8
Defpoints
62
0
6
ByLayer
370
-1
48
1
60
0
100
AcDbPoint
10
179
20
-52.832746
30
0
39
0
210
0
220
0
230
1
50
360
0
ENDBLK
5
18D
100
AcDbEntity
8
0
100
AcDbBlockEnd
0
BLOCK
5
19E
100
AcDbEntity
8
0
100
AcDbBlockBegin
2
_U3
70
0
10
0
20
0
30
0
3
_U3
0
MTEXT
5
198
100
AcDbEntity
8
SK2
62
256
6
ByLayer
370
18
48
1
60
0
100
AcDbMText
10
62.746258
20
-51.947631
30
0
210
0
220
0
230
1
1
\W0.7138;227
40
3
41
0
44
1.084337
50
0
71
7
72
5
7
iso_b_vert
0
LINE
5
199
100
AcDbEntity
8
SK2
62
256
6
ByLayer
370
13
48
1
60
0
100
AcDbLine
10
-48
20
-9.5875
30
0
11
-48
21
-54.832746
31
0
39
0
210
0
220
0
230
1
0
LINE
5
19A
100
AcDbEntity
8
SK2
62
256
6
ByLayer
370
13
48
1
60
0
100
AcDbLine
10
179
20
-8.7315
30
0
11
179
21
-54.832746
31
0
39
0
210
0
220
0
230
1
0
LINE
5
19B
100
AcDbEntity
8
SK2
62
256
6
ByLayer
370
13
48
1
60
0
100
AcDbLine
10
-48
20
-52.832746
30
0
11
179
21
-52.832746
31
0
39
0
210
0
220
0
230
1
0
SOLID
5
19C
100
AcDbEntity
8
SK2
62
256
6
ByLayer
370
18
48
1
60
0
100
AcDbTrace
10
-48
20
-52.832746
30
0
11
-44.500002
21
-52.371962
31
0
12
-44.499998
22
-53.29353
32
0
13
-44.499998
23
-53.29353
33
0
39
0
210
0
220
0
230
1
0
SOLID
5
19D
100
AcDbEntity
8
SK2
62
256
6
ByLayer
370
18
48
1
60
0
100
AcDbTrace
10
179
20
-52.832746
30
0
11
175.500002
21
-53.29353
31
0
12
175.499998
22
-52.371962
32
0
13
175.499998
23
-52.371962
33
0
39
0
210
0
220
0
230
1
0
ENDBLK
5
19F
100
AcDbEntity
8
0
100
AcDbBlockEnd
0
BLOCK
5
1A4
100
AcDbEntity
8
0
100
AcDbBlockBegin
2
*D9
70
1
10
0
20
0
30
0
3
*D9
0
LINE
5
1A6
100
AcDbEntity
8
0
62
256
6
ByLayer
370
-2
48
1
60
0
100
AcDbLine
10
179
20
-8.7315
30
0
11
179
21
-46.832746
31
0
39
0
210
0
220
0
230
1
0
LINE
5
1A7
100
AcDbEntity
8
0
62
256
6
ByLayer
370
-2
48
1
60
0
100
AcDbLine
10
0
20
-8.7315
30
0
11
0
21
-46.832746
31
0
39
0
210
0
220
0
230
1
0
LINE
5
1A8
100
AcDbEntity
8
0
62
256
6
ByLayer
370
-2
48
1
60
0
100
AcDbLine
10
175.5
20
-44.832746
30
0
11
3.5
21
-44.832746
31
0
39
0
210
0
220
0
230
1
0
SOLID
5
1A9
100
AcDbEntity
8
0
62
256
6
ByLayer
370
-1
48
1
60
0
100
AcDbTrace
10
175.5
20
-45.416079
30
0
11
175.5
21
-44.249413
31
0
12
179
22
-44.832746
32
0
13
179
23
-44.832746
33
0
39
0
210
0
220
0
230
1
0
SOLID
5
1AA
100
AcDbEntity
8
0
62
256
6
ByLayer
370
-1
48
1
60
0
100
AcDbTrace
10
3.5
20
-44.249413
30
0
11
3.5
21
-45.416079
31
0
12
0
22
-44.832746
32
0
13
0
23
-44.832746
33
0
39
0
210
0
220
0
230
1
0
MTEXT
5
1AB
100
AcDbEntity
8
0
62
256
6
ByLayer
370
18
48
1
60
0
100
AcDbMText
10
89.5
20
-38.832746
30
0
210
0
220
0
230
1
1
\A1;179
40
3
41
0
44
1
50
0
71
5
72
5
7
iso_b_vert
0
POINT
5
1AC
100
AcDbEntity
8
Defpoints
62
0
6
ByLayer
370
-1
48
1
60
0
100
AcDbPoint
10
179
20
-7.144
30
0
39
0
210
0
220
0
230
1
50
360
0
POINT
5
1AD
100
AcDbEntity
8
Defpoints
62
0
6
ByLayer
370
-1
48
1
60
0
100
AcDbPoint
10
0
20
-7.144
30
0
39
0
210
0
220
0
230
1
50
360
0
POINT
5
1AE
100
AcDbEntity
8
Defpoints
62
0
6
ByLayer
370
-1
48
1
60
0
100
AcDbPoint
10
0
20
-44.832746
30
0
39
0
210
0
220
0
230
1
50
360
0
ENDBLK
5
1A5
100
AcDbEntity
8
0
100
AcDbBlockEnd
0
BLOCK
5
1B6
100
AcDbEntity
8
0
100
AcDbBlockBegin
2
_U4
70
0
10
0
20
0
30
0
3
_U4
0
MTEXT
5
1B0
100
AcDbEntity
8
2
62
256
6
ByLayer
370
18
48
1
60
0
100
AcDbMText
10
87.121201
20
-43.947631
30
0
210
0
220
0
230
1
1
\W0.6328;179
40
3
41
0
44
1.084337
50
0
71
7
72
5
7
iso_b_vert
0
LINE
5
1B1
100
AcDbEntity
8
2
62
256
6
ByLayer
370
13
48
1
60
0
100
AcDbLine
10
179
20
-8.7315
30
0
11
179
21
-46.832746
31
0
39
0
210
0
220
0
230
1
0
LINE
5
1B2
100
AcDbEntity
8
2
62
256
6
ByLayer
370
13
48
1
60
0
100
AcDbLine
10
0
20
-8.7315
30
0
11
0
21
-46.832746
31
0
39
0
210
0
220
0
230
1
0
LINE
5
1B3
100
AcDbEntity
8
2
62
256
6
ByLayer
370
13
48
1
60
0
100
AcDbLine
10
179
20
-44.832746
30
0
11
0
21
-44.832746
31
0
39
0
210
0
220
0
230
1
0
SOLID
5
1B4
100
AcDbEntity
8
2
62
256
6
ByLayer
370
18
48
1
60
0
100
AcDbTrace
10
179
20
-44.832746
30
0
11
175.500002
21
-45.29353
31
0
12
175.499998
22
-44.371962
32
0
13
175.499998
23
-44.371962
33
0
39
0
210
0
220
0
230
1
0
SOLID
5
1B5
100
AcDbEntity
8
2
62
256
6
ByLayer
370
18
48
1
60
0
100
AcDbTrace
10
0
20
-44.832746
30
0
11
3.499998
21
-44.371962
31
0
12
3.500002
22
-45.29353
32
0
13
3.500002
23
-45.29353
33
0
39
0
210
0
220
0
230
1
0
ENDBLK
5
1B7
100
AcDbEntity
8
0
100
AcDbBlockEnd
0
ENDSEC
0
SECTION
2
ENTITIES
0
ARC
5
C5
100
AcDbEntity
8
1
62
256
6
ByLayer
370
18
48
1
60
0
100
AcDbCircle
39
0
10
1.541345
20
-7.629251
30
0
40
0.799999999999999
210
0
220
0
230
1
100
AcDbArc
50
89.896868
51
164.437958
0
ARC
5
C6
100
AcDbEntity
8
1
62
256
6
ByLayer
370
18
48
1
60
0
100
AcDbCircle
39
0
10
1.541345
20
7.629251
30
0
40
0.799999999999999
210
0
220
0
230
1
100
AcDbArc
50
195.562042
51
270.103132
0
ARC
5
C7
100
AcDbEntity
8
1
62
256
6
ByLayer
370
18
48
1
60
0
100
AcDbCircle
39
0
10
0
20
-7.2
30
0
40
0.799999999999999
210
0
220
0
230
1
100
AcDbArc
50
270
51
344.437958
0
ARC
5
C8
100
AcDbEntity
8
1
62
256
6
ByLayer
370
18
48
1
60
0
100
AcDbCircle
39
0
10
0
20
7.2
30
0
40
0.799999999999999
210
0
220
0
230
1
100
AcDbArc
50
15.562042
51
90
0
ARC
5
C9
100
AcDbEntity
8
SK2
62
256
6
ByLayer
370
13
48
1
60
0
100
AcDbCircle
39
0
10
179
20
0
30
0
40
24.1987245902691
210
0
220
0
230
1
100
AcDbArc
50
7.121479
51
70.00144
0
ARC
5
CA
100
AcDbEntity
8
SK2
62
256
6
ByLayer
370
13
48
1
60
0
100
AcDbCircle
39
0
10
179
20
0
30
0
40
24.1987245902691
210
0
220
0
230
1
100
AcDbArc
50
289.99856
51
352.878521
0
ELLIPSE
5
CB
100
AcDbEntity
8
1
62
256
6
ByLayer
370
18
48
1
60
0
100
AcDbEllipse
10
107.659798
20
6.848398
30
0
11
0.1
21
0
31
0
210
0
220
0
230
1
40
0.999893
41
-3.09230095315689
42
-1.54646174760169
0
POINT
5
70
100
AcDbEntity
8
80
62
256
6
ByLayer
370
18
48
1
60
0
100
AcDbPoint
10
0
20
0
30
0
39
0
210
0
220
0
230
1
50
360
0
POINT
5
72
100
AcDbEntity
8
81
62
256
6
ByLayer
370
18
48
1
60
0
100
AcDbPoint
10
179
20
0
30
0
39
0
210
0
220
0
230
1
50
360
0
POINT
5
74
100
AcDbEntity
8
1
62
256
6
ByLayer
370
18
48
1
60
0
100
AcDbPoint
10
-150.575638
20
-200
30
0
39
0
210
0
220
0
230
1
50
360
0
POINT
5
76
100
AcDbEntity
8
1
62
256
6
ByLayer
370
13
48
1
60
1
100
AcDbPoint
10
-49.5
20
0
30
0
39
0
210
0
220
0
230
1
50
360
0
POINT
5
77
100
AcDbEntity
8
1
62
256
6
ByLayer
370
13
48
1
60
1
100
AcDbPoint
10
177.888357
20
0
30
0
39
0
210
0
220
0
230
1
50
360
0
POINT
5
78
100
AcDbEntity
8
1
62
256
6
ByLayer
370
18
48
1
60
1
100
AcDbPoint
10
179
20
-7.144
30
0
39
0
210
0
220
0
230
1
50
360
0
POINT
5
79
100
AcDbEntity
8
1
62
256
6
ByLayer
370
18
48
1
60
1
100
AcDbPoint
10
62.1
20
-7.144
30
0
39
0
210
0
220
0
230
1
50
360
0
POINT
5
7A
100
AcDbEntity
8
1
62
256
6
ByLayer
370
18
48
1
60
1
100
AcDbPoint
10
179
20
-7.144
30
0
39
0
210
0
220
0
230
1
50
360
0
POINT
5
7B
100
AcDbEntity
8
1
62
256
6
ByLayer
370
18
48
1
60
1
100
AcDbPoint
10
7
20
-7.144
30
0
39
0
210
0
220
0
230
1
50
360
0
POINT
5
7C
100
AcDbEntity
8
1
62
256
6
ByLayer
370
18
48
1
60
1
100
AcDbPoint
10
-48
20
-8
30
0
39
0
210
0
220
0
230
1
50
360
0
POINT
5
7D
100
AcDbEntity
8
1
62
256
6
ByLayer
370
18
48
1
60
1
100
AcDbPoint
10
0
20
-8
30
0
39
0
210
0
220
0
230
1
50
360
0
POINT
5
7E
100
AcDbEntity
8
1
62
256
6
ByLayer
370
18
48
1
60
1
100
AcDbPoint
10
-48
20
-8
30
0
39
0
210
0
220
0
230
1
50
360
0
POINT
5
7F
100
AcDbEntity
8
1
62
256
6
ByLayer
370
18
48
1
60
1
100
AcDbPoint
10
179
20
-7.144
30
0
39
0
210
0
220
0
230
1
50
360
0
POINT
5
80
100
AcDbEntity
8
1
62
256
6
ByLayer
370
18
48
1
60
1
100
AcDbPoint
10
179
20
-7.144
30
0
39
0
210
0
220
0
230
1
50
360
0
POINT
5
81
100
AcDbEntity
8
1
62
256
6
ByLayer
370
18
48
1
60
1
100
AcDbPoint
10
0
20
-7.144
30
0
39
0
210
0
220
0
230
1
50
360
0
SPLINE
5
CC
100
AcDbEntity
8
1
62
256
6
ByLayer
370
18
48
1
60
0
100
AcDbSpline
70
4
71
3
72
8
73
4
40
0
40
0
40
0
40
0
40
1
40
1
40
1
40
1
41
1
10
178.291562148317
20
2.28829975581226
30
0
41
1
10
178.476620590956
20
1.77030920038493
30
0
41
1
10
178.660162222935
20
1.25178554919302
30
0
41
1
10
178.842156915719
20
0.732718213312751
30
0
0
SPLINE
5
CD
100
AcDbEntity
8
1
62
256
6
ByLayer
370
18
48
1
60
0
100
AcDbSpline
70
4
71
3
72
8
73
4
40
0
40
0
40
0
40
0
40
1
40
1
40
1
40
1
41
1
10
178.842156915719
20
0.732718213312779
30
0
41
1
10
178.892847318513
20
0.588144039581721
30
0
41
1
10
178.944536633495
20
0.444124786956166
30
0
41
1
10
178.997222671158
20
0.300640719568662
30
0
0
SPLINE
5
CE
100
AcDbEntity
8
1
62
256
6
ByLayer
370
18
48
1
60
0
100
AcDbSpline
70
4
71
3
72
10
73
6
40
0
40
0
40
0
40
0
40
0.5
40
0.5
40
1
40
1
40
1
40
1
41
1
10
178.291562148322
20
2.28829975581431
30
0
41
1
10
178.139139157662
20
2.27163075044965
30
0
41
1
10
177.986583966264
20
2.25664664353616
30
0
41
1
10
177.681286991348
20
2.22905654630358
30
0
41
1
10
177.528545141389
20
2.21645140278946
30
0
41
1
10
177.375737645482
20
2.20468291689286
30
0
0
SPLINE
5
CF
100
AcDbEntity
8
1
62
256
6
ByLayer
370
18
48
1
60
0
100
AcDbSpline
70
4
71
3
72
31
73
27
40
0
40
0
40
0
40
0
40
0.124999999999999
40
0.124999999999999
40
0.249999999999999
40
0.249999999999999
40
0.281249999999999
40
0.281249999999999
40
0.312499999999999
40
0.312499999999999
40
0.374999999999999
40
0.437499999999999
40
0.437499999999999
40
0.453125
40
0.453125
40
0.468750000000001
40
0.468750000000001
40
0.500000000000004
40
0.500000000000004
40
0.625000000000003
40
0.625000000000003
40
0.750000000000002
40
0.750000000000002
40
0.875000000000001
40
0.875000000000001
40
1
40
1
40
1
40
1
41
1
10
178.291562148317
20
2.28829975581195
30
0
41
1
10
178.207688972041
20
2.44125332041099
30
0
41
1
10
178.126572622719
20
2.59975548572024
30
0
41
1
10
177.969108738402
20
2.92740350786917
30
0
41
1
10
177.892764894051
20
3.09655896610607
30
0
41
1
10
177.799816501116
20
3.31448340730165
30
0
41
1
10
177.781350910764
20
3.35839332423055
30
0
41
1
10
177.744657112985
20
3.44686957116599
30
0
41
1
10
177.726408367291
20
3.49148652031477
30
0
41
1
10
177.672140434653
20
3.6259891083653
30
0
41
1
10
177.601435972526
20
3.80612445009578
30
0
41
1
10
177.533697101165
20
3.98772427118166
30
0
41
1
10
177.492171833774
20
4.10163562946573
30
0
41
1
10
177.483907177838
20
4.12443838270019
30
0
41
1
10
177.467454644142
20
4.17008311016903
30
0
41
1
10
177.45927276826
20
4.1929281645009
30
0
41
1
10
177.43471534747
20
4.2614576478239
30
0
41
1
10
177.418368598001
20
4.30715705719794
30
0
41
1
10
177.336755873327
20
4.53571897449265
30
0
41
1
10
177.271827502693
20
4.71884847298537
30
0
41
1
10
177.142835447033
20
5.08499380747435
30
0
41
1
10
177.078765284068
20
5.26803516491844
30
0
41
1
10
176.95136435994
20
5.63396914855636
30
0
41
1
10
176.888027934259
20
5.81689325789861
30
0
41
1
10
176.762028619274
20
6.18235759166606
30
0
41
1
10
176.699428116564
20
6.36471350192565
30
0
41
1
10
176.637131821046
20
6.5466137234157
30
0
0
SPLINE
5
D0
100
AcDbEntity
8
1
62
256
6
ByLayer
370
18
48
1
60
0
100
AcDbSpline
70
4
71
3
72
8
73
4
40
0
40
0
40
0
40
0
40
1
40
1
40
1
40
1
41
1
10
176.637131821046
20
6.54661372341573
30
0
41
1
10
176.579602164049
20
6.64646795708271
30
0
41
1
10
176.522098743435
20
6.74631698733455
30
0
41
1
10
176.464627695287
20
6.84614873290096
30
0
0
SPLINE
5
D1
100
AcDbEntity
8
1
62
256
6
ByLayer
370
18
48
1
60
0
100
AcDbSpline
70
4
71
3
72
18
73
14
40
0
40
0
40
0
40
0
40
0.241682443448047
40
0.241682443448047
40
0.368068702873379
40
0.368068702873379
40
0.494454962298711
40
0.494454962298711
40
0.620841221724043
40
0.620841221724043
40
0.747227481149374
40
0.747227481149374
40
1
40
1
40
1
40
1
41
1
10
176.137889680106
20
1.51153748173201
30
0
41
1
10
176.217575880968
20
1.48720757069927
30
0
41
1
10
176.300493310734
20
1.45734099869225
30
0
41
1
10
176.430635131112
20
1.4052362594152
30
0
41
1
10
176.47613037256
20
1.38607286308158
30
0
41
1
10
176.567559571901
20
1.34605314362642
30
0
41
1
10
176.613566200942
20
1.32515638385564
30
0
41
1
10
176.705939253852
20
1.28227015897929
30
0
41
1
10
176.752264000714
20
1.26040726792266
30
0
41
1
10
176.845430386031
20
1.21511167392589
30
0
41
1
10
176.892258076362
20
1.19172133175889
30
0
41
1
10
177.033524663583
20
1.11917074811021
30
0
41
1
10
177.128723375593
20
1.06770293028808
30
0
41
1
10
177.224780905072
20
1.01362686367051
30
0
0
SPLINE
5
D2
100
AcDbEntity
8
1
62
256
6
ByLayer
370
18
48
1
60
0
100
AcDbSpline
70
4
71
3
72
34
73
30
40
0
40
0
40
0
40
0
40
0.141753483160309
40
0.141753483160309
40
0.283506966320617
40
0.283506966320617
40
0.318945337110717
40
0.318945337110717
40
0.354383707900817
40
0.354383707900817
40
0.425260449481015
40
0.425260449481015
40
0.567013932641413
40
0.567013932641413
40
0.637890674221612
40
0.637890674221612
40
0.673329045011711
40
0.673329045011711
40
0.708767415801811
40
0.708767415801811
40
0.850520898962172
40
0.850520898962172
40
0.921397640542352
40
0.921397640542352
40
0.956836011332427
40
0.956836011332427
40
0.992274382122501
40
0.992274382122501
40
1
40
1
40
1
40
1
41
1
10
177.375737645482
20
2.20468291689281
30
0
41
1
10
177.291801300087
20
2.19821855013421
30
0
41
1
10
177.208785454879
20
2.18735834268119
30
0
41
1
10
177.044637465597
20
2.15667991013399
30
0
41
1
10
176.963504775719
20
2.1368642548648
30
0
41
1
10
176.863251154337
20
2.10660255607371
30
0
41
1
10
176.843258451013
20
2.10027608723018
30
0
41
1
10
176.803387492039
20
2.08708362773009
30
0
41
1
10
176.783517597906
20
2.08021936501518
30
0
41
1
10
176.724601159349
20
2.05904521717926
30
0
41
1
10
176.686067891262
20
2.04409736437094
30
0
41
1
10
176.572541009876
20
1.99718819031173
30
0
41
1
10
176.499618340018
20
1.96316227457416
30
0
41
1
10
176.393803350759
20
1.90960479753412
30
0
41
1
10
176.35912751695
20
1.89133107388804
30
0
41
1
10
176.30794391503
20
1.86348206622245
30
0
41
1
10
176.290989422238
20
1.85410796208183
30
0
41
1
10
176.257550684076
20
1.83535979661383
30
0
41
1
10
176.241059885554
20
1.82598286585193
30
0
41
1
10
176.159692734869
20
1.77916106472739
30
0
41
1
10
176.098053016831
20
1.74192567803164
30
0
41
1
10
176.009982917578
20
1.68762956635581
30
0
41
1
10
175.981362528047
20
1.66978619317976
30
0
41
1
10
175.939474684397
20
1.64353128232861
30
0
41
1
10
175.925686097173
20
1.63486454248488
30
0
41
1
10
175.898449517264
20
1.61772077783201
30
0
41
1
10
175.884979385454
20
1.60922970345627
30
0
41
1
10
175.868846609406
20
1.59905915433558
30
0
41
1
10
175.86597038916
20
1.59724587313147
30
0
41
1
10
175.863105357677
20
1.59543973540505
30
0
0
SPLINE
5
D3
100
AcDbEntity
8
1
62
256
6
ByLayer
370
18
48
1
60
0
100
AcDbSpline
70
4
71
3
72
20
73
16
40
0
40
0
40
0
40
0
40
0.500000000000001
40
0.749999999999952
40
0.874999999999975
40
0.937499999999939
40
0.968749999999918
40
0.968749999999918
40
0.98437499999996
40
0.98437499999996
40
0.992187500000031
40
0.992187500000031
40
0.996093750000016
40
0.996093750000016
40
1
40
1
40
1
40
1
41
1
10
176.28317330744
20
7.14366427244087
30
0
41
1
10
176.313408634605
20
7.09438709638044
30
0
41
1
10
176.358781872843
20
7.02020985845141
30
0
41
1
10
176.411751578363
20
6.93321877146695
30
0
41
1
10
176.43824461326
20
6.88961166825035
30
0
41
1
10
176.451493158018
20
6.86778032733483
30
0
41
1
10
176.457171568705
20
6.85841802909184
30
0
41
1
10
176.460008871327
20
6.85374013238271
30
0
41
1
10
176.460952145831
20
6.85218607925202
30
0
41
1
10
176.462373074139
20
6.84984176974663
30
0
41
1
10
176.46286481873
20
6.84902088786293
30
0
41
1
10
176.463594380041
20
6.84780717544913
30
0
41
1
10
176.463837221653
20
6.84740362202405
30
0
41
1
10
176.464299387848
20
6.84664685734575
30
0
41
1
10
176.464530666959
20
6.84627546169179
30
0
41
1
10
176.464627695286
20
6.84614873290121
30
0
0
SPLINE
5
D4
100
AcDbEntity
8
1
62
256
6
ByLayer
370
18
48
1
60
0
100
AcDbSpline
70
4
71
3
72
26
73
22
40
0
40
0
40
0
40
0
40
0.210437719500498
40
0.210437719500498
40
0.315656579250751
40
0.315656579250751
40
0.368266009125873
40
0.368266009125873
40
0.420875439000996
40
0.420875439000996
40
0.526094298751235
40
0.526094298751235
40
0.631313158501475
40
0.631313158501475
40
0.736532018251714
40
0.736532018251714
40
0.789141448126834
40
0.789141448126834
40
0.841750878001954
40
0.841750878001954
40
1
40
1
40
1
40
1
41
1
10
176.464627695283
20
6.84614873289857
30
0
41
1
10
175.746640811536
20
6.85289762711187
30
0
41
1
10
175.029519079035
20
6.83199726922021
30
0
41
1
10
173.952706092394
20
6.75989880964127
30
0
41
1
10
173.593611236356
20
6.7290770364707
30
0
41
1
10
173.054355192618
20
6.6726755422545
30
0
41
1
10
172.874513891973
20
6.65217962859506
30
0
41
1
10
172.515150547075
20
6.60787656919365
30
0
41
1
10
172.335556976707
20
6.58406242149238
30
0
41
1
10
171.79696713666
20
6.50766506335182
30
0
41
1
10
171.438159358908
20
6.45010301973852
30
0
41
1
10
170.720644025362
20
6.32211605292383
30
0
41
1
10
170.361957927436
20
6.25169572071116
30
0
41
1
10
169.644241695121
20
6.09840703293017
30
0
41
1
10
169.285203397591
20
6.01554055938124
30
0
41
1
10
168.746054802991
20
5.88214856209038
30
0
41
1
10
168.566187513209
20
5.83615316451363
30
0
41
1
10
168.206752149369
20
5.74131100098882
30
0
41
1
10
168.027128296209
20
5.69245276219067
30
0
41
1
10
167.307474621972
20
5.49101058223397
30
0
41
1
10
166.768046176892
20
5.32712152179698
30
0
41
1
10
166.228498178043
20
5.15152477250777
30
0
0
SPLINE
5
D5
100
AcDbEntity
8
1
62
256
6
ByLayer
370
18
48
1
60
0
100
AcDbSpline
70
4
71
3
72
22
73
18
40
0
40
0
40
0
40
0
40
0.153498832204725
40
0.153498832204725
40
0.294582360170605
40
0.294582360170605
40
0.365124124153545
40
0.365124124153545
40
0.435665888136484
40
0.435665888136484
40
0.576749416102363
40
0.576749416102363
40
0.717832944068242
40
0.717832944068242
40
0.858916472034121
40
0.858916472034121
40
1
40
1
40
1
40
1
41
1
10
115.192602139181
20
-2.0991485364066
30
0
41
1
10
114.803182373301
20
-1.91606383083155
30
0
41
1
10
114.413797553322
20
-1.73053162867873
30
0
41
1
10
113.666093072284
20
-1.37073221259757
30
0
41
1
10
113.307831930709
20
-1.19673149414487
30
0
41
1
10
112.769843531053
20
-0.933902474405244
30
0
41
1
10
112.590412420946
20
-0.845992051633743
30
0
41
1
10
112.231290164847
20
-0.669681158222431
30
0
41
1
10
112.051552511137
20
-0.581258180035803
30
0
41
1
10
111.512196500547
20
-0.315565521929955
30
0
41
1
10
111.152743832189
20
-0.138031676900937
30
0
41
1
10
110.433682914412
20
0.217055413871463
30
0
41
1
10
110.074069127033
20
0.394652824617196
30
0
41
1
10
109.35493289019
20
0.748726027985356
30
0
41
1
10
108.995666678665
20
0.92502699631072
30
0
41
1
10
108.277569277143
20
1.27512833343909
30
0
41
1
10
107.918698667047
20
1.44895752013952
30
0
41
1
10
107.559798058764
20
1.62115981303256
30
0
0
SPLINE
5
D6
100
AcDbEntity
8
1
62
256
6
ByLayer
370
18
48
1
60
0
100
AcDbSpline
70
4
71
3
72
8
73
4
40
0
40
0
40
0
40
0
40
1
40
1
40
1
40
1
41
1
10
176.637131821046
20
-6.54661372341513
30
0
41
1
10
176.57960216405
20
-6.64646795708148
30
0
41
1
10
176.522098743436
20
-6.74631698733276
30
0
41
1
10
176.464627695288
20
-6.84614873289854
30
0
0
SPLINE
5
D7
100
AcDbEntity
8
1
62
256
6
ByLayer
370
18
48
1
60
0
100
AcDbSpline
70
4
71
3
72
20
73
16
40
0
40
0
40
0
40
0
40
0.500000000000055
40
0.750000000000083
40
0.875000000000049
40
0.93750000000003
40
0.968750000000067
40
0.968750000000067
40
0.984375000000036
40
0.984375000000036
40
0.992187500000018
40
0.992187500000018
40
0.996093750000009
40
0.996093750000009
40
1
40
1
40
1
40
1
41
1
10
176.283173307443
20
-7.14366427243601
30
0
41
1
10
176.313408634608
20
-7.09438709637504
30
0
41
1
10
176.358781872847
20
-7.02020985844501
30
0
41
1
10
176.411751578367
20
-6.93321877145974
30
0
41
1
10
176.438244613265
20
-6.88961166824262
30
0
41
1
10
176.451493158022
20
-6.86778032732684
30
0
41
1
10
176.457171568709
20
-6.85841802908379
30
0
41
1
10
176.460008871332
20
-6.85374013237464
30
0
41
1
10
176.460952145836
20
-6.85218607924412
30
0
41
1
10
176.462373074144
20
-6.84984176973836
30
0
41
1
10
176.462864818735
20
-6.84902088785432
30
0
41
1
10
176.463594380046
20
-6.84780717544064
30
0
41
1
10
176.463837221658
20
-6.84740362201569
30
0
41
1
10
176.464299387852
20
-6.84664685733821
30
0
41
1
10
176.464530666963
20
-6.84627546168593
30
0
41
1
10
176.464627695288
20
-6.84614873289854
30
0
0
SPLINE
5
D8
100
AcDbEntity
8
1
62
256
6
ByLayer
370
18
48
1
60
0
100
AcDbSpline
70
4
71
3
72
82
73
78
40
0
40
0
40
0
40
0
40
0.0141042773660887
40
0.0141042773660887
40
0.0439862436950455
40
0.0439862436950455
40
0.103750176352959
40
0.103750176352959
40
0.133632142681916
40
0.133632142681916
40
0.163514109010873
40
0.163514109010873
40
0.178455092175351
40
0.178455092175351
40
0.19339607533983
40
0.19339607533983
40
0.223278041668786
40
0.223278041668786
40
0.253160007997743
40
0.253160007997743
40
0.268100991162222
40
0.268100991162222
40
0.2830419743267
40
0.2830419743267
40
0.312923940655657
40
0.312923940655657
40
0.342805906984614
40
0.342805906984614
40
0.402569839642529
40
0.402569839642529
40
0.432451805971488
40
0.432451805971488
40
0.462333772300447
40
0.462333772300447
40
0.492215738629405
40
0.492215738629405
40
0.522097704958364
40
0.522097704958364
40
0.537038688122844
40
0.544509179705085
40
0.544509179705085
40
0.551979671287325
40
0.551979671287325
40
0.581861637616285
40
0.581861637616285
40
0.611743603945246
40
0.611743603945246
40
0.641625570274206
40
0.641625570274206
40
0.671507536603167
40
0.686448519767647
40
0.686448519767647
40
0.701389502932127
40
0.701389502932127
40
0.731271469261088
40
0.731271469261088
40
0.761153435590048
40
0.761153435590048
40
0.791035401919009
40
0.791035401919009
40
0.820917368247969
40
0.820917368247969
40
0.83585835141245
40
0.83585835141245
40
0.850799334576932
40
0.850799334576932
40
0.880681300905894
40
0.880681300905894
40
0.910563267234856
40
0.910563267234856
40
0.940445233563818
40
0.940445233563818
40
0.970327199892781
40
0.970327199892781
40
0.985268183057262
40
0.985268183057262
40
1
40
1
40
1
40
1
41
1
10
158.660827973897
20
-2.06053445198285
30
0
41
1
10
158.49108179547
20
-1.98056504781906
30
0
41
1
10
158.32132792846
20
-1.90013965514049
30
0
41
1
10
157.791934205525
20
-1.64808345557077
30
0
41
1
10
157.432863590372
20
-1.4753404009505
30
0
41
1
10
156.356874279406
20
-0.953588795066139
30
0
41
1
10
155.641065375825
20
-0.601281860241556
30
0
41
1
10
154.567102486073
20
-0.0712112980067445
30
0
41
1
10
154.209070332796
20
0.105739768421216
30
0
41
1
10
153.492562363639
20
0.459431661494051
30
0
41
1
10
153.134079787057
20
0.636158797702535
30
0
41
1
10
152.595633765813
20
0.900296445778821
30
0
41
1
10
152.41603278548
20
0.988186308889681
30
0
41
1
10
152.056541231169
20
1.16354820307049
30
0
41
1
10
151.876678480484
20
1.25100766870261
30
0
41
1
10
151.337310425963
20
1.51224527235439
30
0
41
1
10
150.977783891597
20
1.68499139717864
30
0
41
1
10
150.258493188894
20
2.02698064751797
30
0
41
1
10
149.898867137104
20
2.19618087915896
30
0
41
1
10
149.359417128285
20
2.44634481491858
30
0
41
1
10
149.179604651361
20
2.52912725839604
30
0
41
1
10
148.82029234164
20
2.69321232994133
30
0
41
1
10
148.64074854636
20
2.77453676396797
30
0
41
1
10
148.102365780132
20
3.01621610120057
30
0
41
1
10
147.743770043462
20
3.17426770268341
30
0
41
1
10
147.026837154687
20
3.48364678451912
30
0
41
1
10
146.668519623688
20
3.63501679062531
30
0
41
1
10
145.593250340764
20
4.07783024479366
30
0
41
1
10
144.875967982608
20
4.35798352942086
30
0
41
1
10
143.797032669305
20
4.75143152274359
30
0
41
1
10
143.437909143477
20
4.87778000431095
30
0
41
1
10
142.720328938292
20
5.12008767103473
30
0
41
1
10
142.361840798009
20
5.23606114021842
30
0
41
1
10
141.645019838527
20
5.45716789919797
30
0
41
1
10
141.286685337926
20
5.56229757339185
30
0
41
1
10
140.56977196812
20
5.76131742003872
30
0
41
1
10
140.211214349778
20
5.85524232587744
30
0
41
1
10
139.672890331287
20
5.98734187229087
30
0
41
1
10
139.403602333351
20
6.05118797433181
30
0
41
1
10
139.134061508607
20
6.11165038398599
30
0
41
1
10
138.95430481042
20
6.15119902865644
30
0
41
1
10
138.8643851871
20
6.17059541081551
30
0
41
1
10
138.415033462853
20
6.26557322704474
30
0
41
1
10
138.05602062445
20
6.3352124932025
30
0
41
1
10
137.33854456252
20
6.46150486747362
30
0
41
1
10
136.980099904255
20
6.51815742254806
30
0
41
1
10
136.263377901096
20
6.61820366649653
30
0
41
1
10
135.905075699045
20
6.66159960169998
30
0
41
1
10
135.188129653152
20
6.73497367322653
30
0
41
1
10
134.650169298189
20
6.7799473023982
30
0
41
1
10
134.111374612032
20
6.8097034813035
30
0
41
1
10
133.751953325042
20
6.82614352859622
30
0
41
1
10
133.572099664813
20
6.83266566671708
30
0
41
1
10
133.033126803353
20
6.84706302647419
30
0
41
1
10
132.674261692211
20
6.84978179902996
30
0
41
1
10
131.956992584782
20
6.84137859789303
30
0
41
1
10
131.598595513022
20
6.83023510982881
30
0
41
1
10
130.881844646074
20
6.79424165334123
30
0
41
1
10
130.523490906013
20
6.76940329738679
30
0
41
1
10
129.806477913686
20
6.70622773094019
30
0
41
1
10
129.447794353877
20
6.66788499178941
30
0
41
1
10
128.909149130959
20
6.6003208521565
30
0
41
1
10
128.729498313311
20
6.57612388066289
30
0
41
1
10
128.369941547884
20
6.52439736476737
30
0
41
1
10
128.190191966897
20
6.4968896990851
30
0
41
1
10
127.651386082293
20
6.40956298473736
30
0
41
1
10
127.292587770062
20
6.34492001351236
30
0
41
1
10
126.575477462696
20
6.20304462805319
30
0
41
1
10
126.217155480969
20
6.12579671619113
30
0
41
1
10
125.500471882561
20
5.9591314088411
30
0
41
1
10
125.142113515389
20
5.86972753345503
30
0
41
1
10
124.424940412623
20
5.67928842573653
30
0
41
1
10
124.06612106506
20
5.57826232745361
30
0
41
1
10
123.527288543506
20
5.41829535209413
30
0
41
1
10
123.347511325801
20
5.3635422078049
30
0
41
1
10
122.990536194992
20
5.25216712478917
30
0
41
1
10
122.813426448534
20
5.19561092892138
30
0
41
1
10
122.636409684957
20
5.13782761924028
30
0
0
SPLINE
5
D9
100
AcDbEntity
8
1
62
256
6
ByLayer
370
18
48
1
60
0
100
AcDbSpline
70
2053
71
3
72
121
73
117
40
0
40
0
40
0
40
0
40
0.0312499999999865
40
0.0312499999999865
40
0.062499999999973
40
0.062499999999973
40
0.0937499999999596
40
0.0937499999999596
40
0.124999999999946
40
0.124999999999946
40
0.140624999999938
40
0.140624999999938
40
0.15624999999993
40
0.15624999999993
40
0.187499999999914
40
0.187499999999914
40
0.195312499999909
40
0.195312499999909
40
0.203124999999905
40
0.218749999999895
40
0.234374999999885
40
0.234374999999885
40
0.24218749999988
40
0.24218749999988
40
0.249999999999875
40
0.249999999999875
40
0.281249999999854
40
0.281249999999854
40
0.296874999999844
40
0.296874999999844
40
0.304687499999839
40
0.304687499999839
40
0.312499999999834
40
0.312499999999834
40
0.343749999999817
40
0.343749999999817
40
0.351562499999815
40
0.351562499999815
40
0.359374999999812
40
0.359374999999812
40
0.37499999999981
40
0.390624999999807
40
0.390624999999807
40
0.398437499999806
40
0.398437499999806
40
0.406249999999805
40
0.406249999999805
40
0.437499999999799
40
0.437499999999799
40
0.468749999999794
40
0.468749999999794
40
0.484374999999789
40
0.484374999999789
40
0.492187499999784
40
0.492187499999784
40
0.499999999999779
40
0.499999999999779
40
0.531249999999773
40
0.531249999999773
40
0.539062499999775
40
0.539062499999775
40
0.546874999999777
40
0.546874999999777
40
0.562499999999781
40
0.562499999999781
40
0.593749999999789
40
0.593749999999789
40
0.601562499999793
40
0.601562499999793
40
0.609374999999797
40
0.609374999999797
40
0.624999999999805
40
0.624999999999805
40
0.656249999999824
40
0.656249999999824
40
0.671874999999833
40
0.671874999999833
40
0.687499999999842
40
0.687499999999842
40
0.718749999999859
40
0.718749999999859
40
0.734374999999868
40
0.734374999999868
40
0.749999999999876
40
0.749999999999876
40
0.781249999999893
40
0.781249999999893
40
0.789062499999897
40
0.789062499999897
40
0.796874999999901
40
0.796874999999901
40
0.812499999999909
40
0.828124999999917
40
0.828124999999917
40
0.835937499999921
40
0.835937499999921
40
0.843749999999925
40
0.843749999999925
40
0.874999999999938
40
0.874999999999938
40
0.882812499999941
40
0.882812499999941
40
0.890624999999944
40
0.906249999999951
40
0.921874999999958
40
0.921874999999958
40
0.937499999999964
40
0.937499999999964
40
0.968749999999977
40
0.968749999999977
40
0.976562499999983
40
0.976562499999983
40
0.984374999999989
40
0.992187499999994
40
0.992187499999994
40
1
40
1
40
1
40
1
41
1
10
177.115631965358
20
-3.10847533469774
30
0
41
1
10
177.091544510697
20
-3.13908492176324
30
0
41
1
10
177.068515380843
20
-3.16428740726889
30
0
41
1
10
177.024333573683
20
-3.20453657318188
30
0
41
1
10
177.00318217796
20
-3.21958018992936
30
0
41
1
10
176.962674776577
20
-3.23908105459378
30
0
41
1
10
176.943862988046
20
-3.24326742391054
30
0
41
1
10
176.908949066578
20
-3.24077411508816
30
0
41
1
10
176.892831806088
20
-3.23410557689311
30
0
41
1
10
176.870669405658
20
-3.21535302987434
30
0
41
1
10
176.863711203729
20
-3.20770572274049
30
0
41
1
10
176.850686229006
20
-3.18972048543452
30
0
41
1
10
176.844608143959
20
-3.17937307933653
30
0
41
1
10
176.827659614075
20
-3.14422591174076
30
0
41
1
10
176.8180596373
20
-3.1153667697985
30
0
41
1
10
176.808329664811
20
-3.07177796232202
30
0
41
1
10
176.806508771944
20
-3.06272377056595
30
0
41
1
10
176.803135192439
20
-3.04404646792466
30
0
41
1
10
176.79846853236
20
-3.01512822879761
30
0
41
1
10
176.792637010412
20
-2.96245004376749
30
0
41
1
10
176.790075726779
20
-2.91544562113941
30
0
41
1
10
176.788983837755
20
-2.87828031542875
30
0
41
1
10
176.788758375949
20
-2.8655725822058
30
0
41
1
10
176.788595551627
20
-2.83949501673286
30
0
41
1
10
176.78865934887
20
-2.8260786124103
30
0
41
1
10
176.789718353177
20
-2.75805235527321
30
0
41
1
10
176.792886826025
20
-2.70045533455456
30
0
41
1
10
176.801284143382
20
-2.60923376595028
30
0
41
1
10
176.804695898459
20
-2.57801619382354
30
0
41
1
10
176.810807888691
20
-2.52990398147148
30
0
41
1
10
176.813013054652
20
-2.51364958352431
30
0
41
1
10
176.817699080907
20
-2.4811757795766
30
0
41
1
10
176.820186979829
20
-2.46489831446681
30
0
41
1
10
176.833350608842
20
-2.38331287147284
30
0
41
1
10
176.846172927694
20
-2.31741679962107
30
0
41
1
10
176.865316038099
20
-2.23427316608763
30
0
41
1
10
176.869307305404
20
-2.217589117697
30
0
41
1
10
176.877500552159
20
-2.1845956607271
30
0
41
1
10
176.881715070669
20
-2.16822982694035
30
0
41
1
10
176.894709514984
20
-2.11951688841387
30
0
41
1
10
176.912969517532
20
-2.05558980629141
30
0
41
1
10
176.933109387746
20
-1.99367415884314
30
0
41
1
10
176.948943257434
20
-1.94800154081031
30
0
41
1
10
176.954315215651
20
-1.93298652769423
30
0
41
1
10
176.96518624978
20
-1.90352294200224
30
0
41
1
10
176.970694364016
20
-1.88904822386374
30
0
41
1
10
176.998592866019
20
-1.81792276447533
30
0
41
1
10
177.022067688182
20
-1.7649452298181
30
0
41
1
10
177.071215280592
20
-1.66671325852443
30
0
41
1
10
177.096172800933
20
-1.62287326788533
30
0
41
1
10
177.134134983992
20
-1.56418979987294
30
0
41
1
10
177.146876823256
20
-1.54581823107884
30
0
41
1
10
177.166115814631
20
-1.52001996970213
30
0
41
1
10
177.172547083439
20
-1.51171970695185
30
0
41
1
10
177.185337723311
20
-1.49584041356295
30
0
41
1
10
177.191711312074
20
-1.48824194382775
30
0
41
1
10
177.223470742592
20
-1.45190564565843
30
0
41
1
10
177.248535645934
20
-1.42809224374318
30
0
41
1
10
177.279393032968
20
-1.40456785970852
30
0
41
1
10
177.285540536887
20
-1.40017775872263
30
0
41
1
10
177.297785292556
20
-1.39202936653035
30
0
41
1
10
177.303890847067
20
-1.3882674101167
30
0
41
1
10
177.321984026026
20
-1.37801420772621
30
0
41
1
10
177.333791400409
20
-1.37252147825282
30
0
41
1
10
177.368446079892
20
-1.35993571859748
30
0
41
1
10
177.39053326195
20
-1.35670196864228
30
0
41
1
10
177.416753216188
20
-1.35917345499968
30
0
41
1
10
177.421927169185
20
-1.35999610773214
30
0
41
1
10
177.432129512746
20
-1.36231096285084
30
0
41
1
10
177.437167248555
20
-1.3638077165576
30
0
41
1
10
177.451929452839
20
-1.36927710851177
30
0
41
1
10
177.461334919412
20
-1.3742282236806
30
0
41
1
10
177.488223455067
20
-1.39295882944671
30
0
41
1
10
177.504391447749
20
-1.41057760650702
30
0
41
1
10
177.525716873824
20
-1.44520149670558
30
0
41
1
10
177.532334671938
20
-1.45811755632806
30
0
41
1
10
177.544495204603
20
-1.4869149554232
30
0
41
1
10
177.549939283949
20
-1.50256962981004
30
0
41
1
10
177.564297644172
20
-1.55319251278402
30
0
41
1
10
177.571277628731
20
-1.59182630353126
30
0
41
1
10
177.577467566294
20
-1.65777218444754
30
0
41
1
10
177.578813189648
20
-1.68109588896178
30
0
41
1
10
177.579933383333
20
-1.73068529097884
30
0
41
1
10
177.579694106747
20
-1.75646152523032
30
0
41
1
10
177.576604935593
20
-1.83645054600072
30
0
41
1
10
177.571409908101
20
-1.89340687269663
30
0
41
1
10
177.560775380506
20
-1.96951672299079
30
0
41
1
10
177.55843228043
20
-1.98503118037402
30
0
41
1
10
177.553347876941
20
-2.01637317269726
30
0
41
1
10
177.550620752259
20
-2.03211987164417
30
0
41
1
10
177.541900824598
20
-2.07958369036635
30
0
41
1
10
177.52884105844
20
-2.14346426249202
30
0
41
1
10
177.513017932797
20
-2.20853088990319
30
0
41
1
10
177.500120767647
20
-2.2577890492812
30
0
41
1
10
177.495633669177
20
-2.27434115307108
30
0
41
1
10
177.48640715846
20
-2.30726936901942
30
0
41
1
10
177.481669593373
20
-2.32364381439635
30
0
41
1
10
177.457389227945
20
-2.40508459247218
30
0
41
1
10
177.436089501751
20
-2.46887113776774
30
0
41
1
10
177.407358006064
20
-2.54700872403936
30
0
41
1
10
177.401514192073
20
-2.56252858451282
30
0
41
1
10
177.38975174378
20
-2.593064457515
30
0
41
1
10
177.371948064397
20
-2.63823803466997
30
0
41
1
10
177.341528450684
20
-2.71050201506418
30
0
41
1
10
177.316465233366
20
-2.76522309849213
30
0
41
1
10
177.291056393992
20
-2.81841677459829
30
0
41
1
10
177.278328790205
20
-2.8439337162547
30
0
41
1
10
177.240274103121
20
-2.91708433812605
30
0
41
1
10
177.214996311792
20
-2.96151645094679
30
0
41
1
10
177.183522451157
20
-3.01186297094614
30
0
41
1
10
177.177223697259
20
-3.02168492959629
30
0
41
1
10
177.164708923789
20
-3.04069435186861
30
0
41
1
10
177.152268630658
20
-3.0590843146498
30
0
41
1
10
177.139973666848
20
-3.07625398190132
30
0
41
1
10
177.127749812329
20
-3.09281841807171
30
0
41
1
10
177.121653829024
20
-3.10082293793136
30
0
41
1
10
177.115631965358
20
-3.10847533469774
30
0
0
SPLINE
5
DA
100
AcDbEntity
8
1
62
256
6
ByLayer
370
18
48
1
60
0
100
AcDbSpline
70
4
71
3
72
15
73
11
40
0
40
0
40
0
40
0
40
0.500000000000001
40
0.500000000000001
40
0.624999999999996
40
0.624999999999996
40
0.687499999999994
40
0.687499999999994
40
0.749999999999991
40
1
40
1
40
1
40
1
41
1
10
176.637131821046
20
-6.54661372341661
30
0
41
1
10
176.58418638732
20
-6.6250781047948
30
0
41
1
10
176.535764559371
20
-6.69085015469625
30
0
41
1
10
176.480768311927
20
-6.75577104915379
30
0
41
1
10
176.470045354478
20
-6.76788855265309
30
0
41
1
10
176.454372295026
20
-6.78473133362439
30
0
41
1
10
176.449209456495
20
-6.79013031416392
30
0
41
1
10
176.439063827553
20
-6.80043418809527
30
0
41
1
10
176.414146163414
20
-6.82496486060506
30
0
41
1
10
176.391401207731
20
-6.84342952184301
30
0
41
1
10
176.374461855195
20
-6.85447297001039
30
0
0
SPLINE
5
DB
100
AcDbEntity
8
1
62
256
6
ByLayer
370
18
48
1
60
0
100
AcDbSpline
70
4
71
3
72
31
73
27
40
0
40
0
40
0
40
0
40
0.124999999999986
40
0.124999999999986
40
0.249999999999972
40
0.249999999999972
40
0.281249999999969
40
0.281249999999969
40
0.312499999999966
40
0.312499999999966
40
0.374999999999959
40
0.437499999999953
40
0.437499999999953
40
0.453124999999953
40
0.453124999999953
40
0.468749999999953
40
0.468749999999953
40
0.499999999999953
40
0.499999999999953
40
0.624999999999965
40
0.624999999999965
40
0.749999999999976
40
0.749999999999976
40
0.874999999999988
40
0.874999999999988
40
1
40
1
40
1
40
1
41
1
10
178.291562148317
20
-2.28829975581192
30
0
41
1
10
178.207688972041
20
-2.44125332041091
30
0
41
1
10
178.126572622719
20
-2.59975548572012
30
0
41
1
10
177.969108738402
20
-2.927403507869
30
0
41
1
10
177.892764894051
20
-3.09655896610587
30
0
41
1
10
177.799816501116
20
-3.31448340730142
30
0
41
1
10
177.781350910764
20
-3.35839332423041
30
0
41
1
10
177.744657112985
20
-3.44686957116585
30
0
41
1
10
177.726408367291
20
-3.4914865203146
30
0
41
1
10
177.672140434654
20
-3.6259891083651
30
0
41
1
10
177.601435683806
20
-3.80612432015664
30
0
41
1
10
177.533697101165
20
-3.98772427118138
30
0
41
1
10
177.492171833774
20
-4.10163562946542
30
0
41
1
10
177.483907177838
20
-4.12443838269991
30
0
41
1
10
177.467454644142
20
-4.17008311016872
30
0
41
1
10
177.45927276826
20
-4.19292816450059
30
0
41
1
10
177.43471534747
20
-4.26145764782356
30
0
41
1
10
177.418368598001
20
-4.30715705719766
30
0
41
1
10
177.336755873327
20
-4.53571897449237
30
0
41
1
10
177.271827502694
20
-4.718848472985
30
0
41
1
10
177.142835447033
20
-5.08499380747392
30
0
41
1
10
177.078765284068
20
-5.26803516491799
30
0
41
1
10
176.951364359941
20
-5.63396914855588
30
0
41
1
10
176.888027934259
20
-5.8168932578981
30
0
41
1
10
176.762028619275
20
-6.18235759166549
30
0
41
1
10
176.699428116564
20
-6.36471350192511
30
0
41
1
10
176.637131821046
20
-6.54661372341513
30
0
0
SPLINE
5
DC
100
AcDbEntity
8
1
62
256
6
ByLayer
370
18
48
1
60
0
100
AcDbSpline
70
4
71
3
72
8
73
4
40
0
40
0
40
0
40
0
40
1
40
1
40
1
40
1
41
1
10
178.291562148317
20
-2.28829975581226
30
0
41
1
10
178.476620590957
20
-1.7703092003849
30
0
41
1
10
178.660162222935
20
-1.25178554919299
30
0
41
1
10
178.842156915719
20
-0.732718213312722
30
0
0
SPLINE
5
DD
100
AcDbEntity
8
1
62
256
6
ByLayer
370
18
48
1
60
0
100
AcDbSpline
70
4
71
3
72
8
73
4
40
0
40
0
40
0
40
0
40
1
40
1
40
1
40
1
41
1
10
178.842156915719
20
-0.732718213312666
30
0
41
1
10
178.892847318513
20
-0.588144039581692
30
0
41
1
10
178.944536633495
20
-0.44412478695611
30
0
41
1
10
178.997222671158
20
-0.300640719568662
30
0
0
SPLINE
5
DE
100
AcDbEntity
8
1
62
256
6
ByLayer
370
18
48
1
60
0
100
AcDbSpline
70
4
71
3
72
8
73
4
40
0
40
0
40
0
40
0
40
1
40
1
40
1
40
1
41
1
10
178.997222671158
20
0.30064071956869
30
0
41
1
10
179.000917281738
20
0.100673332423241
30
0
41
1
10
179.000934309973
20
-0.0997516949536532
30
0
41
1
10
178.997222671158
20
-0.300640719568634
30
0
0
SPLINE
5
DF
100
AcDbEntity
8
1
62
256
6
ByLayer
370
18
48
1
60
0
100
AcDbSpline
70
4
71
3
72
60
73
56
40
0
40
0
40
0
40
0
40
0.0625000000000355
40
0.0625000000000355
40
0.0937500000000532
40
0.0937500000000532
40
0.109375000000058
40
0.109375000000058
40
0.125000000000063
40
0.125000000000063
40
0.187500000000082
40
0.187500000000082
40
0.250000000000101
40
0.250000000000101
40
0.281250000000111
40
0.281250000000111
40
0.296875000000111
40
0.296875000000111
40
0.312500000000111
40
0.312500000000111
40
0.375000000000111
40
0.375000000000111
40
0.437500000000112
40
0.437500000000112
40
0.453125000000112
40
0.453125000000112
40
0.468750000000112
40
0.468750000000112
40
0.500000000000112
40
0.500000000000112
40
0.562500000000104
40
0.562500000000104
40
0.593750000000099
40
0.593750000000099
40
0.609375000000097
40
0.609375000000097
40
0.625000000000095
40
0.625000000000095
40
0.687500000000071
40
0.687500000000071
40
0.71875000000006
40
0.71875000000006
40
0.734375000000054
40
0.734375000000054
40
0.750000000000048
40
0.750000000000048
40
0.812500000000036
40
0.812500000000036
40
0.875000000000024
40
0.875000000000024
40
0.906250000000018
40
0.906250000000018
40
0.937500000000012
40
0.937500000000012
40
1
40
1
40
1
40
1
41
1
10
178.997222671158
20
0.300640719568605
30
0
41
1
10
178.971174685595
20
0.225150552711852
30
0
41
1
10
178.943734466905
20
0.150318326887287
30
0
41
1
10
178.90049081839
20
0.0390675256008706
30
0
41
1
10
178.885728192167
20
0.002150592020115
30
0
41
1
10
178.863054063607
20
-0.0529692724459494
30
0
41
1
10
178.855407589965
20
-0.0712999392445113
30
0
41
1
10
178.839935573707
20
-0.107874687391444
30
0
41
1
10
178.832096641892
20
-0.126149404015337
30
0
41
1
10
178.79261699348
20
-0.216913484614821
30
0
41
1
10
178.760291959395
20
-0.28721439634873
30
0
41
1
10
178.694273368466
20
-0.423213469053707
30
0
41
1
10
178.660580022764
20
-0.488912831878622
30
0
41
1
10
178.609030893511
20
-0.583853803013
30
0
41
1
10
178.591678942334
20
-0.614897583479916
30
0
41
1
10
178.565392398013
20
-0.66051901003479
30
0
41
1
10
178.556587057626
20
-0.675568625318192
30
0
41
1
10
178.538888445595
20
-0.705344193719696
30
0
41
1
10
178.530003113652
20
-0.720055492666432
30
0
41
1
10
178.485756959689
20
-0.792133735117915
30
0
41
1
10
178.450626575827
20
-0.845612406106397
30
0
41
1
10
178.380904852842
20
-0.94424925963915
30
0
41
1
10
178.346313610466
20
-0.989409178828168
30
0
41
1
10
178.30340008985
20
-1.04039586700424
30
0
41
1
10
178.294833597098
20
-1.05031878883227
30
0
41
1
10
178.277732468439
20
-1.06960383564433
30
0
41
1
10
178.269181423986
20
-1.07898261524676
30
0
41
1
10
178.243791694373
20
-1.10603029072783
30
0
41
1
10
178.227163405973
20
-1.12267550888723
30
0
41
1
10
178.178130976969
20
-1.16854441989378
30
0
41
1
10
178.146576993581
20
-1.1937190532216
30
0
41
1
10
178.1008266528
20
-1.22340531078956
30
0
41
1
10
178.085840580461
20
-1.23195029763431
30
0
41
1
10
178.063747437386
20
-1.24270528955395
30
0
41
1
10
178.056432916457
20
-1.24595176456694
30
0
41
1
10
178.042008366168
20
-1.25171727532518
30
0
41
1
10
178.034904912251
20
-1.25423527331375
30
0
41
1
10
177.999912592305
20
-1.26503861191293
30
0
41
1
10
177.973591684921
20
-1.26798722604335
30
0
41
1
10
177.936342435518
20
-1.26428202906368
30
0
41
1
10
177.924299410217
20
-1.2616876613796
30
0
41
1
10
177.906771084403
20
-1.25577100273694
30
0
41
1
10
177.901017744695
20
-1.25346102210429
30
0
41
1
10
177.889686723726
20
-1.24816498502113
30
0
41
1
10
177.884099424002
20
-1.24517264367711
30
0
41
1
10
177.856739902059
20
-1.22860686964842
30
0
41
1
10
177.836681468094
20
-1.21026760953049
30
0
41
1
10
177.799734350195
20
-1.16422945913484
30
0
41
1
10
177.78284794658
20
-1.13652580850336
30
0
41
1
10
177.759674600045
20
-1.08822343816726
30
0
41
1
10
177.752297814425
20
-1.07095498330847
30
0
41
1
10
177.738358889873
20
-1.03450787639204
30
0
41
1
10
177.731783146799
20
-1.01530845944151
30
0
41
1
10
177.713166528764
20
-0.954894170476621
30
0
41
1
10
177.702231757096
20
-0.910871712115892
30
0
41
1
10
177.692647967972
20
-0.863283673894045
30
0
0
SPLINE
5
E0
100
AcDbEntity
8
1
62
256
6
ByLayer
370
18
48
1
60
0
100
AcDbSpline
70
4
71
3
72
8
73
4
40
0
40
0
40
0
40
0
40
1
40
1
40
1
40
1
41
1
10
177.692647967972
20
-0.863283673894188
30
0
41
1
10
177.570786402174
20
-0.258183459740707
30
0
41
1
10
177.41497011704
20
0.367369416865586
30
0
41
1
10
177.224780905072
20
1.01362686367051
30
0
0
SPLINE
5
E1
100
AcDbEntity
8
1
62
256
6
ByLayer
370
18
48
1
60
0
100
AcDbSpline
70
4
71
3
72
18
73
14
40
0
40
0
40
0
40
0
40
0.249999999999992
40
0.249999999999992
40
0.499999999999983
40
0.499999999999983
40
0.624999999999987
40
0.624999999999987
40
0.749999999999992
40
0.749999999999992
40
0.874999999999996
40
0.874999999999996
40
1
40
1
40
1
40
1
41
1
10
176.3883322587
20
0.531855461573059
30
0
41
1
10
176.456779330039
20
0.591765339785837
30
0
41
1
10
176.525778398938
20
0.646839924427496
30
0
41
1
10
176.664526228771
20
0.747065097730513
30
0
41
1
10
176.734275050828
20
0.792205720687406
30
0
41
1
10
176.839166052921
20
0.852076958567267
30
0
41
1
10
176.874173841481
20
0.870729216404385
30
0
41
1
10
176.944253502305
20
0.905732381571568
30
0
41
1
10
176.979340122833
20
0.922284794951224
30
0
41
1
10
177.049531002187
20
0.952986332393039
30
0
41
1
10
177.08463427931
20
0.967123201987846
30
0
41
1
10
177.154773730076
20
0.992538320782558
30
0
41
1
10
177.189811585784
20
1.00383981245574
30
0
41
1
10
177.224780905072
20
1.01362686367051
30
0
0
SPLINE
5
E2
100
AcDbEntity
8
1
62
256
6
ByLayer
370
18
48
1
60
0
100
AcDbSpline
70
4
71
3
72
16
73
12
40
0
40
0
40
0
40
0
40
0.250000000000194
40
0.250000000000194
40
0.375000000000293
40
0.375000000000293
40
0.500000000000393
40
0.500000000000393
40
0.750000000000196
40
0.750000000000196
40
1
40
1
40
1
40
1
41
1
10
107.614613815569
20
2.52102632199393
30
0
41
1
10
107.606348807961
20
2.52492791918874
30
0
41
1
10
107.598846491185
20
2.52978975554001
30
0
41
1
10
107.588707812173
20
2.53848232969645
30
0
41
1
10
107.585506237225
20
2.54163478535838
30
0
41
1
10
107.579676669554
20
2.54823117197736
30
0
41
1
10
107.577022915388
20
2.55169353914786
30
0
41
1
10
107.569836955612
20
2.56256731896244
30
0
41
1
10
107.566071740489
20
2.57054860287826
30
0
41
1
10
107.56109349881
20
2.58689426262012
30
0
41
1
10
107.559798058753
20
2.59544265319147
30
0
41
1
10
107.559798058753
20
2.60404636796505
30
0
0
SPLINE
5
E3
100
AcDbEntity
8
1
62
256
6
ByLayer
370
18
48
1
60
0
100
AcDbSpline
70
4
71
3
72
27
73
23
40
0
40
0
40
0
40
0
40
0.12499999999991
40
0.12499999999991
40
0.187499999999917
40
0.187499999999917
40
0.249999999999924
40
0.312499999999931
40
0.312499999999931
40
0.374999999999938
40
0.374999999999938
40
0.499999999999951
40
0.499999999999951
40
0.624999999999963
40
0.624999999999963
40
0.687499999999969
40
0.687499999999969
40
0.749999999999975
40
0.749999999999975
40
0.874999999999988
40
0.874999999999988
40
1
40
1
40
1
40
1
41
1
10
107.559798058753
20
6.92646049771008
30
0
41
1
10
107.559798058753
20
6.92506156419637
30
0
41
1
10
107.560887774282
20
6.92367921653386
30
0
41
1
10
107.56410613305
20
6.92163197502325
30
0
41
1
10
107.565459237195
20
6.92094923411426
30
0
41
1
10
107.568651930746
20
6.91962461144607
30
0
41
1
10
107.572324316525
20
6.9183389179083
30
0
41
1
10
107.576934626915
20
6.91713156236892
30
0
41
1
10
107.582026373585
20
6.91596576030091
30
0
41
1
10
107.584810958649
20
6.91540544998682
30
0
41
1
10
107.593651265224
20
6.91383701245178
30
0
41
1
10
107.60027785817
20
6.91292021103013
30
0
41
1
10
107.614915806234
20
6.91138064026364
30
0
41
1
10
107.622653205554
20
6.91078545841265
30
0
41
1
10
107.634871825259
20
6.91015472173822
30
0
41
1
10
107.639076933637
20
6.90998822431297
30
0
41
1
10
107.647486881629
20
6.90975438947558
30
0
41
1
10
107.651706245151
20
6.90968561149967
30
0
41
1
10
107.664406691858
20
6.90962141730858
30
0
41
1
10
107.673051080483
20
6.90977347393783
30
0
41
1
10
107.689620426794
20
6.9104477746294
30
0
41
1
10
107.697596520148
20
6.9109638270649
30
0
41
1
10
107.705251808037
20
6.91166211506581
30
0
0
SPLINE
5
E4
100
AcDbEntity
8
1
62
256
6
ByLayer
370
18
48
1
60
0
100
AcDbSpline
70
4
71
3
72
176
73
172
40
0
40
0
40
0
40
0
40
0.012076379061032
40
0.012076379061032
40
0.024009553308264
40
0.024009553308264
40
0.0359427275554959
40
0.0359427275554959
40
0.0598090760499599
40
0.0598090760499599
40
0.065775663173576
40
0.065775663173576
40
0.0717422502971922
40
0.0717422502971922
40
0.0836754245444244
40
0.0836754245444244
40
0.0956085987916568
40
0.0956085987916568
40
0.107541773038889
40
0.107541773038889
40
0.131408121533354
40
0.131408121533354
40
0.143341295780586
40
0.143341295780586
40
0.155274470027818
40
0.155274470027818
40
0.16720764427505
40
0.16720764427505
40
0.179140818522282
40
0.179140818522282
40
0.191073992769514
40
0.191073992769514
40
0.203007167016746
40
0.203007167016746
40
0.208973754140362
40
0.208973754140362
40
0.214940341263978
40
0.214940341263978
40
0.226873515511211
40
0.226873515511211
40
0.250739864005678
40
0.250739864005678
40
0.262673038252911
40
0.262673038252911
40
0.274606212500144
40
0.274606212500144
40
0.286539386747377
40
0.286539386747377
40
0.29847256099461
40
0.29847256099461
40
0.322338909489076
40
0.322338909489076
40
0.334272083736309
40
0.334272083736309
40
0.346205257983542
40
0.346205257983542
40
0.352171845107158
40
0.352171845107158
40
0.358138432230775
40
0.358138432230775
40
0.370071606478008
40
0.370071606478008
40
0.382004780725241
40
0.382004780725241
40
0.393937954972474
40
0.393937954972474
40
0.405871129219707
40
0.405871129219707
40
0.41780430346694
40
0.41780430346694
40
0.441670651961406
40
0.441670651961406
40
0.447637239085023
40
0.447637239085023
40
0.45360382620864
40
0.45360382620864
40
0.459570413332257
40
0.459570413332257
40
0.465537000455873
40
0.465537000455873
40
0.477470174703106
40
0.477470174703106
40
0.489403348950339
40
0.489403348950339
40
0.513269697444805
40
0.513269697444805
40
0.525202871692038
40
0.525202871692038
40
0.537136045939271
40
0.537136045939271
40
0.543102633062887
40
0.543102633062887
40
0.549069220186503
40
0.549069220186503
40
0.561002394433734
40
0.561002394433734
40
0.572935568680965
40
0.572935568680965
40
0.584868742928197
40
0.584868742928197
40
0.596801917175428
40
0.596801917175428
40
0.608735091422659
40
0.608735091422659
40
0.632601439917123
40
0.632601439917123
40
0.638568027040739
40
0.638568027040739
40
0.644534614164355
40
0.644534614164355
40
0.656467788411587
40
0.656467788411587
40
0.680334136906052
40
0.680334136906052
40
0.692267311153284
40
0.692267311153284
40
0.704200485400517
40
0.704200485400517
40
0.710167072524133
40
0.710167072524133
40
0.716133659647749
40
0.716133659647749
40
0.728066833894981
40
0.728066833894981
40
0.734033421018598
40
0.734033421018598
40
0.740000008142214
40
0.740000008142214
40
0.751933182389447
40
0.751933182389447
40
0.763866356636679
40
0.763866356636679
40
0.775799530883911
40
0.775799530883911
40
0.787732705131144
40
0.787732705131144
40
0.799665879378376
40
0.799665879378376
40
0.823532227872841
40
0.823532227872841
40
0.829498814996457
40
0.829498814996457
40
0.835465402120073
40
0.835465402120073
40
0.847398576367306
40
0.847398576367306
40
0.871264924861771
40
0.871264924861771
40
0.883198099109004
40
0.883198099109004
40
0.895131273356236
40
0.895131273356236
40
0.907064447603469
40
0.907064447603469
40
0.918997621850701
40
0.918997621850701
40
0.930930796097934
40
0.930930796097934
40
0.942863970345167
40
0.942863970345167
40
0.954797144592399
40
0.954797144592399
40
0.960763731716016
40
0.960763731716016
40
0.966730318839633
40
0.966730318839633
40
0.978663493086867
40
0.978663493086867
40
0.990596667334101
40
0.990596667334101
40
1
40
1
40
1
40
1
41
1
10
25.3755169272834
20
6.87215004883393
30
0
41
1
10
25.5910874007699
20
6.87253229955573
30
0
41
1
10
25.8065658328158
20
6.8704051261065
30
0
41
1
10
26.2348890254849
20
6.8611773787577
30
0
41
1
10
26.4477284719594
20
6.85413157111185
30
0
41
1
10
26.873723396881
20
6.8352044280503
30
0
41
1
10
27.0868421781898
20
6.82332456634649
30
0
41
1
10
27.7263562973675
20
6.7804037914965
30
0
41
1
10
28.1528998811374
20
6.74206619784016
30
0
41
1
10
28.6867374566024
20
6.68197171251802
30
0
41
1
10
28.7935690021297
20
6.66934059581581
30
0
41
1
10
29.0071349685806
20
6.64288376376521
30
0
41
1
10
29.1138647913983
20
6.62905852409648
30
0
41
1
10
29.4339179575946
20
6.58580561110773
30
0
41
1
10
29.6470988692159
20
6.55459441002893
30
0
41
1
10
30.0733801483231
20
6.48762422405082
30
0
41
1
10
30.2865440255844
20
6.45191342629261
30
0
41
1
10
30.7127293492002
20
6.37595148436358
30
0
41
1
10
30.9257530131237
20
6.33569888694868
30
0
41
1
10
31.5646556644622
20
6.20814648349614
30
0
41
1
10
31.9903938136631
20
6.11407066633373
30
0
41
1
10
32.6292291269376
20
5.95974781743212
30
0
41
1
10
32.8422091279203
20
5.90610054472339
30
0
41
1
10
33.2684546471361
20
5.79460080166547
30
0
41
1
10
33.4817975846082
20
5.73683508106194
30
0
41
1
10
33.9088945027004
20
5.61725925137006
30
0
41
1
10
34.1226855988963
20
5.55539600034811
30
0
41
1
10
34.5496531415068
20
5.42779715033026
30
0
41
1
10
34.7629504151196
20
5.36204486915372
30
0
41
1
10
35.1892543352688
20
5.2267395309689
30
0
41
1
10
35.4022616454698
20
5.15718726453642
30
0
41
1
10
35.8280761120279
20
5.01439807555201
30
0
41
1
10
36.0408728366993
20
4.94114579320743
30
0
41
1
10
36.3600465417089
20
4.82868062423688
30
0
41
1
10
36.4664307230056
20
4.79075611609301
30
0
41
1
10
36.6792499438281
20
4.71413126505232
30
0
41
1
10
36.7856946121081
20
4.67544555081668
30
0
41
1
10
37.1050800685354
20
4.55819557126082
30
0
41
1
10
37.3180662897417
20
4.47843003408849
30
0
41
1
10
37.957120949793
20
4.23419100430547
30
0
41
1
10
38.3833101097817
20
4.06480715493075
30
0
41
1
10
39.0233453071749
20
3.80160310142819
30
0
41
1
10
39.2369084215096
20
3.7122901575346
30
0
41
1
10
39.6635245468637
20
3.5312126370745
30
0
41
1
10
39.8766502997219
20
3.43939897353587
30
0
41
1
10
40.3029323086191
20
3.25393529584841
30
0
41
1
10
40.5160286239189
20
3.16018188521076
30
0
41
1
10
40.9420291426857
20
2.97045751121149
30
0
41
1
10
41.1549325644205
20
2.87448404685895
30
0
41
1
10
41.7934698241907
20
2.58343905340033
30
0
41
1
10
42.2189242634616
20
2.38523015219121
30
0
41
1
10
42.8573106987361
20
2.08265545549125
30
0
41
1
10
43.0701359553286
20
1.98091070607077
30
0
41
1
10
43.4961793242198
20
1.77629401674616
30
0
41
1
10
43.7094316489832
20
1.67349201458575
30
0
41
1
10
44.0295161707188
20
1.51827583606641
30
0
41
1
10
44.1362486528729
20
1.46637445252148
30
0
41
1
10
44.349785346019
20
1.36223762510406
30
0
41
1
10
44.4565643897598
20
1.31001770596046
30
0
41
1
10
44.7766763857036
20
1.15306854673685
30
0
41
1
10
44.9898889800483
20
1.04799776770634
30
0
41
1
10
45.4160085996312
20
0.83715126849097
30
0
41
1
10
45.6289170862489
20
0.731378482184994
30
0
41
1
10
46.0545163498982
20
0.519304326633431
30
0
41
1
10
46.2672068920138
20
0.413002444238799
30
0
41
1
10
46.6925986379208
20
0.2003291987983
30
0
41
1
10
46.905383175917
20
0.0941255135733741
30
0
41
1
10
47.3310301487489
20
-0.118215288747223
30
0
41
1
10
47.5438781946794
20
-0.224381392865013
30
0
41
1
10
48.1824857505056
20
-0.542887865713396
30
0
41
1
10
48.60834659059
20
-0.755160138513816
30
0
41
1
10
49.1412660693082
20
-1.01953400444395
30
0
41
1
10
49.247878354091
20
-1.07236304268443
30
0
41
1
10
49.4611811506318
20
-1.17788644997867
30
0
41
1
10
49.567875907061
20
-1.23058040938895
30
0
41
1
10
49.7811270504994
20
-1.33565722363514
30
0
41
1
10
49.8877101892757
20
-1.38806255592343
30
0
41
1
10
50.1008657467496
20
-1.49246167389103
30
0
41
1
10
50.2074400037454
20
-1.54445212451992
30
0
41
1
10
50.5270906971851
20
-1.69992194162336
30
0
41
1
10
50.7401007018503
20
-1.80288881112855
30
0
41
1
10
51.1658905262011
20
-2.00756363806443
30
0
41
1
10
51.3786797159871
20
-2.10925272534561
30
0
41
1
10
52.016854564671
20
-2.41213103441069
30
0
41
1
10
52.4420197458376
20
-2.61118184100516
30
0
41
1
10
53.0800111355721
20
-2.90416308123662
30
0
41
1
10
53.2927249661597
20
-3.00087271237237
30
0
41
1
10
53.7186147036964
20
-3.19173764752986
30
0
41
1
10
53.9317217556204
20
-3.28601986356804
30
0
41
1
10
54.2515640044938
20
-3.42582590626779
30
0
41
1
10
54.3582084710416
20
-3.47215796040226
30
0
41
1
10
54.5715684518071
20
-3.56426230143441
30
0
41
1
10
54.6783054831399
20
-3.6100433914965
30
0
41
1
10
54.9982923749825
20
-3.74636855244819
30
0
41
1
10
55.2114139200454
20
-3.83593820418264
30
0
41
1
10
55.6373408640528
20
-4.01229906192194
30
0
41
1
10
55.8501417669
20
-4.09909747402975
30
0
41
1
10
56.2755354863417
20
-4.2697372988124
30
0
41
1
10
56.4881165202176
20
-4.35359498896474
30
0
41
1
10
56.9134181222457
20
-4.51782061259664
30
0
41
1
10
57.1261392576484
20
-4.59819311419173
30
0
41
1
10
57.5515623455535
20
-4.75571572500107
30
0
41
1
10
57.7642670773966
20
-4.83285951321392
30
0
41
1
10
58.4024449411016
20
-5.0592977163785
30
0
41
1
10
58.8279943763973
20
-5.20357942310065
30
0
41
1
10
59.360497750337
20
-5.37487511550728
30
0
41
1
10
59.4670280540635
20
-5.40867968925855
30
0
41
1
10
59.6801747390965
20
-5.47534295912078
30
0
41
1
10
59.7868178285264
20
-5.50821343919071
30
0
41
1
10
60.1066219693715
20
-5.6052414496578
30
0
41
1
10
60.319773268078
20
-5.66775122531865
30
0
41
1
10
60.9588702207898
20
-5.84907108832923
30
0
41
1
10
61.3843868669878
20
-5.96174664942771
30
0
41
1
10
62.0221983511456
20
-6.11806359172101
30
0
41
1
10
62.2347332046418
20
-6.16804373426245
30
0
41
1
10
62.6597522476127
20
-6.26365758200913
30
0
41
1
10
62.8722293774936
20
-6.30929597292226
30
0
41
1
10
63.1910491499116
20
-6.37436388959887
30
0
41
1
10
63.2973379469391
20
-6.39548966977765
30
0
41
1
10
63.5100216623733
20
-6.43655867637773
30
0
41
1
10
63.61641123663
20
-6.45650676340347
30
0
41
1
10
63.9356686384038
20
-6.51463661639244
30
0
41
1
10
64.1486314059644
20
-6.55109986531053
30
0
41
1
10
64.468233681201
20
-6.60236567757465
30
0
41
1
10
64.5747966843942
20
-6.61888070175618
30
0
41
1
10
64.7879912639399
20
-6.65075266060913
30
0
41
1
10
64.8946530190499
20
-6.66611368790106
30
0
41
1
10
65.2145033423716
20
-6.71040879105436
30
0
41
1
10
65.4275284247361
20
-6.73755248978952
30
0
41
1
10
65.8532526421216
20
-6.78702473256462
30
0
41
1
10
66.0659415254109
20
-6.80935671954856
30
0
41
1
10
66.4911444173493
20
-6.84914461377804
30
0
41
1
10
66.7036642763341
20
-6.86659605116898
30
0
41
1
10
67.1288661908235
20
-6.89655339475777
30
0
41
1
10
67.3414779501771
20
-6.90908445180924
30
0
41
1
10
67.7666539591069
20
-6.92927506093085
30
0
41
1
10
67.9792200730238
20
-6.93693193673641
30
0
41
1
10
68.6169793053595
20
-6.95254034556351
30
0
41
1
10
69.0422172890135
20
-6.95312768137765
30
0
41
1
10
69.5743464765713
20
-6.94143903517772
30
0
41
1
10
69.6808053830929
20
-6.93848064335384
30
0
41
1
10
69.8938144872449
20
-6.9313230924393
30
0
41
1
10
70.0003906602586
20
-6.92712228424756
30
0
41
1
10
70.3201693797778
20
-6.91268807458172
30
0
41
1
10
70.533268347082
20
-6.90062580876972
30
0
41
1
10
71.1721062033342
20
-6.85713426835542
30
0
41
1
10
71.5973762298664
20
-6.81838546864091
30
0
41
1
10
72.2348241517365
20
-6.74578531896557
30
0
41
1
10
72.4472329120809
20
-6.71917310283064
30
0
41
1
10
72.8719931532807
20
-6.66115547997578
30
0
41
1
10
73.0843436065008
20
-6.62974696664622
30
0
41
1
10
73.5092470618717
20
-6.56228776967438
30
0
41
1
10
73.7218715989901
20
-6.5262890330697
30
0
41
1
10
74.1473102771565
20
-6.44967010977442
30
0
41
1
10
74.3601226259248
20
-6.40904602984361
30
0
41
1
10
74.7859533000113
20
-6.32315788660378
30
0
41
1
10
74.9990207884019
20
-6.27789056335772
30
0
41
1
10
75.4252924864885
20
-6.18280107246412
30
0
41
1
10
75.6382165971679
20
-6.13304390457367
30
0
41
1
10
76.0637285511064
20
-6.02919047498045
30
0
41
1
10
76.2763112837143
20
-5.97508773597852
30
0
41
1
10
76.5950789506856
20
-5.89083217291287
30
0
41
1
10
76.7013183564319
20
-5.86223141703374
30
0
41
1
10
76.9138324286654
20
-5.80407768685964
30
0
41
1
10
77.0200982256731
20
-5.77451561988477
30
0
41
1
10
77.3388754388807
20
-5.68432815634887
30
0
41
1
10
77.5513719165237
20
-5.6222078012718
30
0
41
1
10
77.9762920323981
20
-5.49394048896858
30
0
41
1
10
78.1887262863816
20
-5.42780494314687
30
0
41
1
10
78.5685867330432
20
-5.3060532938697
30
0
41
1
10
78.7360019229741
20
-5.25117203878838
30
0
41
1
10
78.9034509039812
20
-5.1951012433403
30
0
0
SPLINE
5
E5
100
AcDbEntity
8
1
62
256
6
ByLayer
370
18
48
1
60
0
100
AcDbSpline
70
4
71
3
72
164
73
160
40
0
40
0
40
0
40
0
40
0.0105019197930435
40
0.0105019197930435
40
0.0223284016647288
40
0.0223284016647288
40
0.0341548835364144
40
0.0341548835364144
40
0.0578078472797854
40
0.0578078472797854
40
0.0696343291514707
40
0.0696343291514707
40
0.081460811023156
40
0.081460811023156
40
0.0932872928948416
40
0.0932872928948416
40
0.105113774766527
40
0.105113774766527
40
0.128766738509899
40
0.128766738509899
40
0.140593220381586
40
0.140593220381586
40
0.152419702253272
40
0.152419702253272
40
0.164246184124959
40
0.164246184124959
40
0.176072665996646
40
0.176072665996646
40
0.199725629740019
40
0.199725629740019
40
0.211552111611706
40
0.211552111611706
40
0.223378593483394
40
0.223378593483394
40
0.247031557226767
40
0.247031557226767
40
0.258858039098455
40
0.258858039098455
40
0.270684520970142
40
0.270684520970142
40
0.28251100284183
40
0.28251100284183
40
0.294337484713517
40
0.294337484713517
40
0.317990448456893
40
0.317990448456893
40
0.32981693032858
40
0.32981693032858
40
0.341643412200267
40
0.341643412200267
40
0.353469894071955
40
0.353469894071955
40
0.365296375943642
40
0.365296375943642
40
0.388949339687017
40
0.388949339687017
40
0.400775821558704
40
0.400775821558704
40
0.412602303430392
40
0.412602303430392
40
0.436255267173767
40
0.436255267173767
40
0.448081749045455
40
0.448081749045455
40
0.459908230917143
40
0.459908230917143
40
0.471734712788832
40
0.471734712788832
40
0.48356119466052
40
0.48356119466052
40
0.507214158403897
40
0.507214158403897
40
0.519040640275585
40
0.519040640275585
40
0.530867122147273
40
0.530867122147273
40
0.536780363083117
40
0.536780363083117
40
0.542693604018961
40
0.542693604018961
40
0.554520085890649
40
0.554520085890649
40
0.566346567762337
40
0.566346567762337
40
0.578173049634025
40
0.578173049634025
40
0.584086290569868
40
0.584086290569868
40
0.589999531505712
40
0.589999531505712
40
0.601826013377399
40
0.601826013377399
40
0.625478977120773
40
0.625478977120773
40
0.631392218056616
40
0.631392218056616
40
0.63730545899246
40
0.63730545899246
40
0.649131940864145
40
0.649131940864145
40
0.660958422735831
40
0.660958422735831
40
0.672784904607516
40
0.672784904607516
40
0.696437868350888
40
0.696437868350888
40
0.708264350222574
40
0.708264350222574
40
0.72009083209426
40
0.72009083209426
40
0.726004073030104
40
0.726004073030104
40
0.731917313965947
40
0.731917313965947
40
0.743743795837633
40
0.743743795837633
40
0.755570277709319
40
0.755570277709319
40
0.767396759581005
40
0.767396759581005
40
0.779223241452691
40
0.779223241452691
40
0.791049723324377
40
0.791049723324377
40
0.814702687067749
40
0.814702687067749
40
0.820615928003593
40
0.820615928003593
40
0.826529168939437
40
0.826529168939437
40
0.832442409875281
40
0.832442409875281
40
0.838355650811125
40
0.838355650811125
40
0.850182132682813
40
0.850182132682813
40
0.862008614554501
40
0.862008614554501
40
0.885661578297876
40
0.885661578297876
40
0.897488060169565
40
0.897488060169565
40
0.909314542041252
40
0.909314542041252
40
0.915227782977096
40
0.915227782977096
40
0.92114102391294
40
0.92114102391294
40
0.932967505784628
40
0.932967505784628
40
0.944793987656316
40
0.944793987656316
40
0.956620469528004
40
0.956620469528004
40
0.968446951399692
40
0.968446951399692
40
0.98027343327138
40
0.98027343327138
40
1
40
1
40
1
40
1
41
1
10
112.253890742839
20
7.02853152576228
30
0
41
1
10
112.442293325872
20
7.02889614960284
30
0
41
1
10
112.630601539282
20
7.02730117054574
30
0
41
1
10
113.030835301478
20
7.01974055329998
30
0
41
1
10
113.242742031826
20
7.0132462396009
30
0
41
1
10
113.666670351686
20
6.99532444423585
30
0
41
1
10
113.878748855033
20
6.98391333478458
30
0
41
1
10
114.51509601613
20
6.94231965710566
30
0
41
1
10
114.939448593946
20
6.90475921019987
30
0
41
1
10
115.576576136529
20
6.83366440232072
30
0
41
1
10
115.789058055864
20
6.80750882509625
30
0
41
1
10
116.214322309245
20
6.75028673891015
30
0
41
1
10
116.426801228269
20
6.71925660109224
30
0
41
1
10
116.85144927047
20
6.65251948880507
30
0
41
1
10
117.063719637687
20
6.61685310994767
30
0
41
1
10
117.488163119999
20
6.54097894799804
30
0
41
1
10
117.700308955729
20
6.50075221742213
30
0
41
1
10
118.33649436826
20
6.37319138944247
30
0
41
1
10
118.760318841667
20
6.27900006181724
30
0
41
1
10
119.396129940049
20
6.124357082686
30
0
41
1
10
119.608070574689
20
6.0705738617458
30
0
41
1
10
120.032135491637
20
5.958693235667
30
0
41
1
10
120.244275152966
20
5.90061047664159
30
0
41
1
10
120.669033361257
20
5.78045976955292
30
0
41
1
10
120.881589429436
20
5.71832643799979
30
0
41
1
10
121.307007231839
20
5.58987036463935
30
0
41
1
10
121.519552542963
20
5.5236478079714
30
0
41
1
10
122.156615447503
20
5.31922527191486
30
0
41
1
10
122.580634068785
20
5.17521782310999
30
0
41
1
10
123.216238306382
20
4.94841745784467
30
0
41
1
10
123.428030358068
20
4.87100928228949
30
0
41
1
10
123.851838549683
20
4.71312772809361
30
0
41
1
10
124.063817919542
20
4.63260600260926
30
0
41
1
10
124.699832424662
20
4.38608963323901
30
0
41
1
10
125.123932174998
20
4.21511914039993
30
0
41
1
10
125.760714319555
20
3.94939252034095
30
0
41
1
10
125.973081523509
20
3.85927329347319
30
0
41
1
10
126.39812515325
20
3.67608052952247
30
0
41
1
10
126.610443057619
20
3.58315465574779
30
0
41
1
10
127.034898881396
20
3.39513565815179
30
0
41
1
10
127.247102874786
20
3.30014395503727
30
0
41
1
10
127.671319404809
20
3.10796286123758
30
0
41
1
10
127.883332389287
20
3.01077324412211
30
0
41
1
10
128.51913276038
20
2.71599103467568
30
0
41
1
10
128.942706885493
20
2.5152292737566
30
0
41
1
10
129.578154675088
20
2.20865268169143
30
0
41
1
10
129.78998137686
20
2.10554738874868
30
0
41
1
10
130.213853163444
20
1.89787537146384
30
0
41
1
10
130.425961359988
20
1.79342941294587
30
0
41
1
10
130.85055336441
20
1.58338415533154
30
0
41
1
10
131.063020614805
20
1.47772049699503
30
0
41
1
10
131.488200324562
20
1.26511022448918
30
0
41
1
10
131.700581477835
20
1.15835366305561
30
0
41
1
10
132.33722497254
20
0.836977382457434
30
0
41
1
10
132.760956957116
20
0.621191290101933
30
0
41
1
10
133.396211234272
20
0.296587809517007
30
0
41
1
10
133.607929720691
20
0.188280430580505
30
0
41
1
10
134.031579813683
20
-0.0279975169318334
30
0
41
1
10
134.243449136235
20
-0.136090537082595
30
0
41
1
10
134.879116042028
20
-0.460377146894217
30
0
41
1
10
135.302984102138
20
-0.676555700547937
30
0
41
1
10
135.939444851109
20
-0.999776171885088
30
0
41
1
10
136.151740785269
20
-1.10737044790318
30
0
41
1
10
136.576515050246
20
-1.3218953316991
30
0
41
1
10
136.788688725828
20
-1.42870212814441
30
0
41
1
10
137.212980384524
20
-1.64069560221776
30
0
41
1
10
137.425069835791
20
-1.74593994112203
30
0
41
1
10
137.849035233878
20
-1.95512825736998
30
0
41
1
10
138.060910682611
20
-2.0590722811784
30
0
41
1
10
138.696321238985
20
-2.36875204413457
30
0
41
1
10
139.119644653463
20
-2.5723272901692
30
0
41
1
10
139.754741435701
20
-2.87235047004961
30
0
41
1
10
139.966458101363
20
-2.97146901393913
30
0
41
1
10
140.390179000208
20
-3.16747326710083
30
0
41
1
10
140.602247557534
20
-3.26424653422083
30
0
41
1
10
140.92056491807
20
-3.4077389336083
30
0
41
1
10
141.026708157173
20
-3.45528860791083
30
0
41
1
10
141.239064455149
20
-3.54983339561204
30
0
41
1
10
141.345303113875
20
-3.59683883747104
30
0
41
1
10
141.663959844611
20
-3.73691029932917
30
0
41
1
10
141.876191774814
20
-3.82897651721194
30
0
41
1
10
142.300328674373
20
-4.01034176366957
30
0
41
1
10
142.512234985853
20
-4.09963855710706
30
0
41
1
10
142.935810513017
20
-4.27531906041307
30
0
41
1
10
143.147474962402
20
-4.36170928543476
30
0
41
1
10
143.464931659699
20
-4.48889532084857
30
0
41
1
10
143.570744453462
20
-4.53088992215115
30
0
41
1
10
143.782423521918
20
-4.61398173104476
30
0
41
1
10
143.888282294356
20
-4.65509063138126
30
0
41
1
10
144.205876029035
20
-4.77716991117782
30
0
41
1
10
144.417632996626
20
-4.85688645396647
30
0
41
1
10
145.052955832151
20
-5.09106528858786
30
0
41
1
10
145.476608462503
20
-5.2405035165697
30
0
41
1
10
146.006744769834
20
-5.41825954403376
30
0
41
1
10
146.112800271464
20
-5.4533590111399
30
0
41
1
10
146.32498085222
20
-5.52263453302902
30
0
41
1
10
146.431137532379
20
-5.55681855164985
30
0
41
1
10
146.749500261787
20
-5.65785064812675
30
0
41
1
10
146.961566415276
20
-5.72316527894813
30
0
41
1
10
147.385650575264
20
-5.84940257769628
30
0
41
1
10
147.597607187376
20
-5.91039999057082
30
0
41
1
10
148.021299881085
20
-6.0282251596951
30
0
41
1
10
148.233037858852
20
-6.08504909398107
30
0
41
1
10
148.86805428754
20
-6.24911783331115
30
0
41
1
10
149.291121368682
20
-6.34997087812559
30
0
41
1
10
149.925894280359
20
-6.48784454910194
30
0
41
1
10
150.137506609654
20
-6.5315711244981
30
0
41
1
10
150.561129926288
20
-6.61428938550128
30
0
41
1
10
150.773127451228
20
-6.65329729416581
30
0
41
1
10
151.091319783185
20
-6.70834123382392
30
0
41
1
10
151.197417950889
20
-6.7261097032264
30
0
41
1
10
151.409685259033
20
-6.76048208561971
30
0
41
1
10
151.515885144109
20
-6.7770896282446
30
0
41
1
10
151.83430221072
20
-6.82510129252003
30
0
41
1
10
152.046377979659
20
-6.85470303641202
30
0
41
1
10
152.470212667109
20
-6.90905423220397
30
0
41
1
10
152.681972122267
20
-6.93380340841281
30
0
41
1
10
153.105263925614
20
-6.97840866436985
30
0
41
1
10
153.316795913164
20
-6.99826272955647
30
0
41
1
10
153.739865668206
20
-7.03300248317734
30
0
41
1
10
153.951472918575
20
-7.0478721112878
30
0
41
1
10
154.374725116328
20
-7.07267150411153
30
0
41
1
10
154.586364861403
20
-7.0826005028126
30
0
41
1
10
155.221354562257
20
-7.10495116021139
30
0
41
1
10
155.644804355746
20
-7.10992883105169
30
0
41
1
10
156.174714109319
20
-7.10358175144816
30
0
41
1
10
156.280724737955
20
-7.1016837146386
30
0
41
1
10
156.492825570987
20
-7.09662747992226
30
0
41
1
10
156.598937589657
20
-7.09346826836796
30
0
41
1
10
156.81103065957
20
-7.08589886319919
30
0
41
1
10
156.917034553543
20
-7.08148769295096
30
0
41
1
10
157.129026472282
20
-7.07143097611535
30
0
41
1
10
157.235010697702
20
-7.0657854338948
30
0
41
1
10
157.552884927312
20
-7.04699778298897
30
0
41
1
10
157.764701525225
20
-7.03200631015702
30
0
41
1
10
158.188110628407
20
-6.99709597268819
30
0
41
1
10
158.399712029276
20
-6.97717837968187
30
0
41
1
10
159.034332944543
20
-6.91007569766023
30
0
41
1
10
159.457144424666
20
-6.85552521399464
30
0
41
1
10
160.091618839503
20
-6.75921343816611
30
0
41
1
10
160.303162236891
20
-6.72469822084139
30
0
41
1
10
160.726681018566
20
-6.65106684529903
30
0
41
1
10
160.938597834734
20
-6.61191689186913
30
0
41
1
10
161.256668477832
20
-6.54965352256264
30
0
41
1
10
161.362724615107
20
-6.52830881774116
30
0
41
1
10
161.57491275286
20
-6.48444282123668
30
0
41
1
10
161.681048095175
20
-6.46192044378785
30
0
41
1
10
161.99921458426
20
-6.39267751505363
30
0
41
1
10
162.211128316634
20
-6.3442555551853
30
0
41
1
10
162.634651770342
20
-6.24297600767537
30
0
41
1
10
162.846257762366
20
-6.19011472008177
30
0
41
1
10
163.269270368969
20
-6.08005563190864
30
0
41
1
10
163.480666613639
20
-6.02284482461104
30
0
41
1
10
163.903570076915
20
-5.90441987763046
30
0
41
1
10
164.115086012516
20
-5.84322062600032
30
0
41
1
10
164.538123567327
20
-5.71673130653429
30
0
41
1
10
164.749646912286
20
-5.65144099418416
30
0
41
1
10
165.314080718525
20
-5.47186145126338
30
0
41
1
10
165.667060089485
20
-5.35398507804237
30
0
41
1
10
166.020348493758
20
-5.23070991481626
30
0
0
SPLINE
5
E6
100
AcDbEntity
8
1
62
256
6
ByLayer
370
18
48
1
60
0
100
AcDbSpline
70
4
71
3
72
115
73
111
40
0
40
0
40
0
40
0
40
0.0264448725057086
40
0.0264448725057086
40
0.0397739404721031
40
0.0397739404721031
40
0.0531030084384976
40
0.0531030084384976
40
0.0797611443712877
40
0.0797611443712877
40
0.106419280304078
40
0.106419280304078
40
0.119748348270473
40
0.119748348270473
40
0.133077416236868
40
0.159735552169658
40
0.159735552169658
40
0.186393688102448
40
0.186393688102448
40
0.199722756068844
40
0.199722756068844
40
0.213051824035239
40
0.213051824035239
40
0.239709959968028
40
0.239709959968028
40
0.266368095900817
40
0.266368095900817
40
0.293026231833606
40
0.293026231833606
40
0.299690765816803
40
0.299690765816803
40
0.3063552998
40
0.3063552998
40
0.319684367766394
40
0.346342503699182
40
0.346342503699182
40
0.373000639631969
40
0.373000639631969
40
0.386329707598363
40
0.386329707598363
40
0.392994241581559
40
0.392994241581559
40
0.399658775564756
40
0.399658775564756
40
0.426316911497543
40
0.426316911497543
40
0.45297504743033
40
0.45297504743033
40
0.479633183363117
40
0.479633183363117
40
0.486297717346314
40
0.486297717346314
40
0.49296225132951
40
0.49296225132951
40
0.506291319295903
40
0.532949455228688
40
0.532949455228688
40
0.559607591161473
40
0.559607591161473
40
0.572936659127866
40
0.572936659127866
40
0.579601193111062
40
0.579601193111062
40
0.586265727094258
40
0.586265727094258
40
0.612923863027043
40
0.612923863027043
40
0.639581998959828
40
0.639581998959828
40
0.666240134892614
40
0.666240134892614
40
0.67290466887581
40
0.67290466887581
40
0.679569202859006
40
0.679569202859006
40
0.692898270825398
40
0.719556406758182
40
0.719556406758182
40
0.746214542690965
40
0.746214542690965
40
0.759543610657357
40
0.759543610657357
40
0.766208144640553
40
0.766208144640553
40
0.772872678623749
40
0.772872678623749
40
0.79953081455653
40
0.79953081455653
40
0.826188950489312
40
0.826188950489312
40
0.852847086422093
40
0.852847086422093
40
0.859511620405289
40
0.859511620405289
40
0.866176154388484
40
0.866176154388484
40
0.879505222354876
40
0.906163358287659
40
0.906163358287659
40
0.932821494220443
40
0.932821494220443
40
0.946150562186835
40
0.946150562186835
40
0.952815096170031
40
0.952815096170031
40
0.959479630153227
40
0.959479630153227
40
0.98613776608601
40
0.98613776608601
40
1
40
1
40
1
40
1
41
1
10
89.0072669368637
20
-6.98668801368285
30
0
41
1
10
88.5356623623164
20
-6.98581702590386
30
0
41
1
10
88.0636496881986
20
-6.9727827884102
30
0
41
1
10
87.3523808730327
20
-6.93484700593069
30
0
41
1
10
87.1141843445273
20
-6.91905834545847
30
0
41
1
10
86.6381746181833
20
-6.88139361961066
30
0
41
1
10
86.4003424050203
20
-6.85951304401451
30
0
41
1
10
85.6871132581751
20
-6.78484217645445
30
0
41
1
10
85.2119776272107
20
-6.72302604005935
30
0
41
1
10
84.2613790546243
20
-6.57592324811429
30
0
41
1
10
83.7859053731275
20
-6.49064911010967
30
0
41
1
10
83.0717983353798
20
-6.34552030479651
30
0
41
1
10
82.8335986660525
20
-6.29427184106427
30
0
41
1
10
82.3567818768028
20
-6.1861589920814
30
0
41
1
10
81.6421946066871
20
-6.01584802819909
30
0
41
1
10
80.9289204005833
20
-5.82181328371539
30
0
41
1
10
79.9780983106609
20
-5.54315998585113
30
0
41
1
10
79.5028425085776
20
-5.39379942389479
30
0
41
1
10
78.7893175997708
20
-5.15576425172165
30
0
41
1
10
78.5513679726129
20
-5.07408965964024
30
0
41
1
10
78.075127627715
20
-4.90624046596326
30
0
41
1
10
77.8367898363966
20
-4.8200478964032
30
0
41
1
10
77.1213741509168
20
-4.55507290509507
30
0
41
1
10
76.6452880114093
20
-4.3703807372828
30
0
41
1
10
75.6938818318907
20
-3.98648095335639
30
0
41
1
10
75.2185096607746
20
-3.78735518164134
30
0
41
1
10
74.267389323168
20
-3.37651431834325
30
0
41
1
10
73.7916317319996
20
-3.16481867131918
30
0
41
1
10
73.1961494314106
20
-2.89327091264855
30
0
41
1
10
73.0770150943688
20
-2.83861226833631
30
0
41
1
10
72.8386478051579
20
-2.7286367096178
30
0
41
1
10
72.7193830951504
20
-2.67330547738373
30
0
41
1
10
72.3616438350967
20
-2.50648332667765
30
0
41
1
10
71.6467864526927
20
-2.16971738100307
30
0
41
1
10
70.9331877098058
20
-1.82476543900336
30
0
41
1
10
69.9818785252428
20
-1.35943951759546
30
0
41
1
10
69.5063508862847
20
-1.12398473538198
30
0
41
1
10
68.7924007808729
20
-0.768279758417521
30
0
41
1
10
68.5543047596757
20
-0.649296988182755
30
0
41
1
10
68.1968956827647
20
-0.470391233667499
30
0
41
1
10
68.0777155749751
20
-0.410683198016358
30
0
41
1
10
67.83925160087
20
-0.291153785662743
30
0
41
1
10
67.7199312685793
20
-0.231314356207321
30
0
41
1
10
67.1235395260826
20
0.0678340598179545
30
0
41
1
10
66.6472477605546
20
0.306940064334157
30
0
41
1
10
65.6954005067408
20
0.782921696383909
30
0
41
1
10
65.2197890206071
20
1.01968433496873
30
0
41
1
10
64.2681414649626
20
1.48867765705458
30
0
41
1
10
63.7920992816647
20
1.72089716084216
30
0
41
1
10
63.196223248265
20
2.00723738212858
30
0
41
1
10
63.077008671269
20
2.06431217372648
30
0
41
1
10
62.8384810812055
20
2.17803644291109
30
0
41
1
10
62.7191310978722
20
2.23470090108094
30
0
41
1
10
62.3612638577915
20
2.40382190391418
30
0
41
1
10
61.6461344978426
20
2.73863457949236
30
0
41
1
10
60.9322089363029
20
3.06207237143002
30
0
41
1
10
59.9804103739095
20
3.48151728817433
30
0
41
1
10
59.5046075691705
20
3.68541523129835
30
0
41
1
10
58.7902275241614
20
3.98109140608543
30
0
41
1
10
58.5519836235784
20
4.07794787550054
30
0
41
1
10
58.1943439940289
20
4.22051235956619
30
0
41
1
10
58.0750855320642
20
4.26758111754393
30
0
41
1
10
57.8364625482211
20
4.36078671900049
30
0
41
1
10
57.7170675857236
20
4.40693458910175
30
0
41
1
10
57.1204610105481
20
4.63502069060206
30
0
41
1
10
56.6439632630676
20
4.80915886459735
30
0
41
1
10
55.6916712214813
20
5.13961289987984
30
0
41
1
10
55.2158196695412
20
5.29584318792911
30
0
41
1
10
54.2636421279284
20
5.58894691637997
30
0
41
1
10
53.7873144564636
20
5.72582262744024
30
0
41
1
10
53.1910434409904
20
5.88411189157341
30
0
41
1
10
53.0717478730302
20
5.91513123717738
30
0
41
1
10
52.833057867716
20
5.97587232965094
30
0
41
1
10
52.7136430604812
20
6.00559717620598
30
0
41
1
10
52.3556452274577
20
6.09268178091443
30
0
41
1
10
51.640239074635
20
6.25859636900628
30
0
41
1
10
50.9259824116132
20
6.39929531273151
30
0
41
1
10
49.9736916248441
20
6.56382825134938
30
0
41
1
10
49.4976125390168
20
6.63458762813335
30
0
41
1
10
48.782800635778
20
6.72293633128021
30
0
41
1
10
48.5444081990873
20
6.74941833531108
30
0
41
1
10
48.1865373731862
20
6.78463252833242
30
0
41
1
10
48.0672003174803
20
6.79561928259659
30
0
41
1
10
47.8284177012512
20
6.81608153555811
30
0
41
1
10
47.7089689213768
20
6.82555656330825
30
0
41
1
10
47.1121456239897
20
6.86908355132556
30
0
41
1
10
46.6354415289027
20
6.8916460464952
30
0
41
1
10
45.682697185936
20
6.91225024777137
30
0
41
1
10
45.2066029693918
20
6.91027839239484
30
0
41
1
10
44.2538898894011
20
6.88184427484691
30
0
41
1
10
43.7772742277151
20
6.85538746315294
30
0
41
1
10
43.1806083858162
20
6.80706752528874
30
0
41
1
10
43.061231695076
20
6.79664062485142
30
0
41
1
10
42.8223782130673
20
6.77426102861358
30
0
41
1
10
42.7029192098689
20
6.76230974058399
30
0
41
1
10
42.3447894338921
20
6.724225388919
30
0
41
1
10
41.6291042520831
20
6.63909543338221
30
0
41
1
10
40.9145146400416
20
6.52751016903269
30
0
41
1
10
39.9617287953554
20
6.35594174101749
30
0
41
1
10
39.4853710135123
20
6.25873675328367
30
0
41
1
10
38.7701226687349
20
6.09637028075127
30
0
41
1
10
38.5315801443686
20
6.03949579004131
30
0
41
1
10
38.1734761712857
20
5.95014021321114
30
0
41
1
10
38.0540599580657
20
5.91968096910713
30
0
41
1
10
37.8151163789001
20
5.85742673426989
30
0
41
1
10
37.6956342748413
20
5.82564332991151
30
0
41
1
10
37.0985910094182
20
5.66361721037663
30
0
41
1
10
36.6216810983599
20
5.52394695671859
30
0
41
1
10
35.8972476296858
20
5.29721518752461
30
0
41
1
10
35.6494863217004
20
5.21709515299796
30
0
41
1
10
35.4017187468136
20
5.1345273445848
30
0
0
SPLINE
5
E7
100
AcDbEntity
8
1
62
256
6
ByLayer
370
18
48
1
60
0
100
AcDbSpline
70
4
71
3
72
99
73
95
40
0
40
0
40
0
40
0
40
0.0024738714566972
40
0.0024738714566972
40
0.0423749165984312
40
0.0423749165984312
40
0.0623254391692981
40
0.0623254391692981
40
0.0673130698120148
40
0.0673130698120148
40
0.0723007004547316
40
0.0723007004547316
40
0.0822759617401638
40
0.0822759617401638
40
0.122177006881894
40
0.122177006881894
40
0.162078052023624
40
0.162078052023624
40
0.167065682666342
40
0.167065682666342
40
0.172053313309058
40
0.182028574594493
40
0.182028574594493
40
0.20197909716536
40
0.20197909716536
40
0.241880142307095
40
0.241880142307095
40
0.28178118744883
40
0.28178118744883
40
0.321682232590565
40
0.321682232590565
40
0.341632755161433
40
0.341632755161433
40
0.351608016446867
40
0.356595647089584
40
0.356595647089584
40
0.361583277732302
40
0.361583277732302
40
0.401484322874037
40
0.401484322874037
40
0.441385368015772
40
0.441385368015772
40
0.451360629301205
40
0.451360629301205
40
0.456348259943921
40
0.456348259943921
40
0.461335890586637
40
0.481286413157504
40
0.481286413157504
40
0.521187458299238
40
0.521187458299238
40
0.541137980870105
40
0.541137980870105
40
0.546125611512821
40
0.546125611512821
40
0.551113242155538
40
0.551113242155538
40
0.561088503440971
40
0.561088503440971
40
0.600989548582702
40
0.600989548582702
40
0.640890593724434
40
0.640890593724434
40
0.650865855009867
40
0.650865855009867
40
0.6608411162953
40
0.680791638866164
40
0.680791638866164
40
0.720692684007893
40
0.720692684007893
40
0.730667945293326
40
0.730667945293326
40
0.740643206578759
40
0.740643206578759
40
0.760593729149624
40
0.760593729149624
40
0.800494774291354
40
0.800494774291354
40
0.820445296862219
40
0.830420558147651
40
0.830420558147651
40
0.840395819433083
40
0.840395819433083
40
0.880296864574809
40
0.880296864574809
40
0.900247387145672
40
0.910222648431104
40
0.91521027907382
40
0.91521027907382
40
0.920197909716537
40
0.920197909716537
40
0.960098954858268
40
0.960098954858268
40
1
40
1
40
1
40
1
41
1
10
122.496648847349
20
5.20170862964702
30
0
41
1
10
122.541110277183
20
5.21699870995263
30
0
41
1
10
122.585567707107
20
5.23220779324427
30
0
41
1
10
123.347016975055
20
5.49132794465885
30
0
41
1
10
124.063052567768
20
5.71414394504882
30
0
41
1
10
125.138294216782
20
6.01338189262816
30
0
41
1
10
125.496909120534
20
6.10729468475103
30
0
41
1
10
125.94571750625
20
6.21705816091338
30
0
41
1
10
126.035506189621
20
6.2386295150956
30
0
41
1
10
126.215144833847
20
6.28100130287541
30
0
41
1
10
126.305015542561
20
6.30180635124037
30
0
41
1
10
126.57450789101
20
6.36300291273264
30
0
41
1
10
126.754044589462
20
6.40218476518677
30
0
41
1
10
127.651232257854
20
6.58993681388404
30
0
41
1
10
128.367385319596
20
6.71403658136023
30
0
41
1
10
129.799966084019
20
6.90794355363357
30
0
41
1
10
130.516393411445
20
6.97774432802029
30
0
41
1
10
131.324563156648
20
7.02465056936271
30
0
41
1
10
131.414420245715
20
7.02942466474136
30
0
41
1
10
131.593974723385
20
7.03808124501907
30
0
41
1
10
131.863114790979
20
7.04973246090472
30
0
41
1
10
132.131713568389
20
7.05739374252769
30
0
41
1
10
132.66826989248
20
7.06742810086487
30
0
41
1
10
133.025116853779
20
7.06706692053328
30
0
41
1
10
134.093707455942
20
7.04508441472564
30
0
41
1
10
134.803497213432
20
7.00255126838934
30
0
41
1
10
136.221336433844
20
6.86324553076633
30
0
41
1
10
136.929404409837
20
6.76648220165936
30
0
41
1
10
138.347238690714
20
6.52056240131148
30
0
41
1
10
139.056962061063
20
6.37138118048645
30
0
41
1
10
140.125263530318
20
6.10972725205872
30
0
41
1
10
140.481986355614
20
6.01619898345371
30
0
41
1
10
141.018341093429
20
5.86666188239766
30
0
41
1
10
141.286836291862
20
5.78958262482337
30
0
41
1
10
141.555872917913
20
5.70908278821494
30
0
41
1
10
141.735358247696
20
5.65466142023871
30
0
41
1
10
141.825159687483
20
5.62707450863664
30
0
41
1
10
142.632800535572
20
5.37579326048748
30
0
41
1
10
143.348742266141
20
5.13049707504902
30
0
41
1
10
144.780211930772
20
4.60103915333588
30
0
41
1
10
145.49568990608
20
4.31680616078108
30
0
41
1
10
146.391899325345
20
3.94029337365976
30
0
41
1
10
146.571235324857
20
3.86393167038469
30
0
41
1
10
146.840424001417
20
3.74786512688317
30
0
41
1
10
146.930196531922
20
3.70891687744739
30
0
41
1
10
147.109639278529
20
3.63059859260545
30
0
41
1
10
147.558088177117
20
3.43370646444737
30
0
41
1
10
148.005839726091
20
3.23149727308598
30
0
41
1
10
149.079798776706
20
2.73724267311226
30
0
41
1
10
149.794928787165
20
2.39583436188178
30
0
41
1
10
150.86886978037
20
1.87045197745726
30
0
41
1
10
151.227058697048
20
1.69311438107445
30
0
41
1
10
151.675335612535
20
1.46919486885687
30
0
41
1
10
151.765018085838
20
1.42429870490375
30
0
41
1
10
151.944444397451
20
1.33429515355456
30
0
41
1
10
152.034191968223
20
1.28918581899853
30
0
41
1
10
152.303275028897
20
1.15369301145196
30
0
41
1
10
152.482537760675
20
1.06310118483023
30
0
41
1
10
153.378364007162
20
0.609105300973795
30
0
41
1
10
154.093466783748
20
0.242593802220114
30
0
41
1
10
155.524214457372
20
-0.48987417209861
30
0
41
1
10
156.239862275331
20
-0.855824760167508
30
0
41
1
10
157.136854946062
20
-1.30880271851996
30
0
41
1
10
157.316240517757
20
-1.39910462617897
30
0
41
1
10
157.674674359251
20
-1.57883010900471
30
0
41
1
10
158.211988700404
20
-1.84718646705062
30
0
41
1
10
158.748549352735
20
-2.11136863514869
30
0
41
1
10
159.821354960306
20
-2.63288769512374
30
0
41
1
10
160.536145282013
20
-2.97142280677647
30
0
41
1
10
161.431379455117
20
-3.37901907367478
30
0
41
1
10
161.610512318113
20
-3.45976223395871
30
0
41
1
10
161.96900298119
20
-3.6195999147844
30
0
41
1
10
162.148442532913
20
-3.69872955854797
30
0
41
1
10
162.686272490368
20
-3.93310322566336
30
0
41
1
10
163.044332733813
20
-4.08540639704756
30
0
41
1
10
164.11770467443
20
-4.52945919886045
30
0
41
1
10
164.832210437094
20
-4.80834071965413
30
0
41
1
10
165.905067028285
20
-5.19691817881437
30
0
41
1
10
166.441765907831
20
-5.38377877397321
30
0
41
1
10
166.979368804032
20
-5.55877584007726
30
0
41
1
10
167.338027860175
20
-5.67272387112581
30
0
41
1
10
167.517250477625
20
-5.72826456390723
30
0
41
1
10
168.41282907523
20
-5.99861808425004
30
0
41
1
10
169.127723217229
20
-6.19142725208479
30
0
41
1
10
170.200375011539
20
-6.44285307997416
30
0
41
1
10
170.736782134113
20
-6.55911744970777
30
0
41
1
10
171.363339844857
20
-6.67767110241857
30
0
41
1
10
171.632090380287
20
-6.72476135696061
30
0
41
1
10
171.811314763593
20
-6.75532234111222
30
0
41
1
10
171.900975072659
20
-6.77018955666284
30
0
41
1
10
172.707566374873
20
-6.90012034587923
30
0
41
1
10
173.422604933479
20
-6.98818094185543
30
0
41
1
10
174.85228127508
20
-7.10824195172393
30
0
41
1
10
175.566926207706
20
-7.14023376880988
30
0
41
1
10
176.283173307443
20
-7.14366427244388
30
0
0
SPLINE
5
E8
100
AcDbEntity
8
1
62
256
6
ByLayer
370
18
48
1
60
0
100
AcDbSpline
70
4
71
3
72
12
73
8
40
0
40
0
40
0
40
0
40
0.500000000000003
40
0.500000000000003
40
0.750000000000001
40
0.750000000000001
40
1
40
1
40
1
40
1
41
1
10
176.2316816434
20
-7.08355475927496
30
0
41
1
10
176.24024068884
20
-7.10268184540709
30
0
41
1
10
176.248806779474
20
-7.11726547674436
30
0
41
1
10
176.26168566118
20
-7.13231169699492
30
0
41
1
10
176.265985973278
20
-7.13618950666648
30
0
41
1
10
176.274584987614
20
-7.14164774423674
30
0
41
1
10
176.278880939026
20
-7.14322798910473
30
0
41
1
10
176.283173307438
20
-7.14366427244386
30
0
0
SPLINE
5
E9
100
AcDbEntity
8
1
62
256
6
ByLayer
370
18
48
1
60
0
100
AcDbSpline
70
4
71
3
72
27
73
23
40
0
40
0
40
0
40
0
40
0.125000000000084
40
0.125000000000084
40
0.18750000000018
40
0.18750000000018
40
0.250000000000275
40
0.31250000000037
40
0.31250000000037
40
0.375000000000466
40
0.375000000000466
40
0.500000000000373
40
0.500000000000373
40
0.62500000000028
40
0.62500000000028
40
0.687500000000233
40
0.687500000000233
40
0.750000000000187
40
0.750000000000187
40
0.875000000000093
40
0.875000000000093
40
1
40
1
40
1
40
1
41
1
10
107.559798058753
20
-6.92646049771011
30
0
41
1
10
107.559798058753
20
-6.92506156419637
30
0
41
1
10
107.560887774282
20
-6.92367921653386
30
0
41
1
10
107.56410613305
20
-6.92163197502327
30
0
41
1
10
107.565459237195
20
-6.92094923411426
30
0
41
1
10
107.568651930746
20
-6.91962461144607
30
0
41
1
10
107.572324316525
20
-6.9183389179083
30
0
41
1
10
107.576934626915
20
-6.91713156236892
30
0
41
1
10
107.582026373585
20
-6.91596576030091
30
0
41
1
10
107.584810958649
20
-6.91540544998682
30
0
41
1
10
107.593651265224
20
-6.91383701245181
30
0
41
1
10
107.60027785817
20
-6.91292021103013
30
0
41
1
10
107.614915806234
20
-6.91138064026364
30
0
41
1
10
107.622653205554
20
-6.91078545841265
30
0
41
1
10
107.634871825259
20
-6.91015472173825
30
0
41
1
10
107.639076933637
20
-6.90998822431297
30
0
41
1
10
107.647486881629
20
-6.90975438947558
30
0
41
1
10
107.651706245151
20
-6.90968561149967
30
0
41
1
10
107.664406691858
20
-6.90962141730858
30
0
41
1
10
107.673051080483
20
-6.90977347393783
30
0
41
1
10
107.689620426794
20
-6.9104477746294
30
0
41
1
10
107.697596520148
20
-6.9109638270649
30
0
41
1
10
107.705251808037
20
-6.91166211506581
30
0
0
SPLINE
5
EA
100
AcDbEntity
8
1
62
256
6
ByLayer
370
18
48
1
60
0
100
AcDbSpline
70
4
71
3
72
8
73
4
40
0
40
0
40
0
40
0
40
1
40
1
40
1
40
1
41
1
10
176.256978646779
20
-0.40293449204367
30
0
41
1
10
176.293440078374
20
-0.0897299190266097
30
0
41
1
10
176.336701757267
20
0.221939986627433
30
0
41
1
10
176.3883322587
20
0.531855461573031
30
0
0
SPLINE
5
EB
100
AcDbEntity
8
1
62
256
6
ByLayer
370
18
48
1
60
0
100
AcDbSpline
70
4
71
3
72
72
73
68
40
0
40
0
40
0
40
0
40
0.0576900876190476
40
0.0576900876190476
40
0.0865351314285717
40
0.0865351314285717
40
0.115380175238096
40
0.115380175238096
40
0.14422521904762
40
0.14422521904762
40
0.173070262857144
40
0.173070262857144
40
0.230760350476194
40
0.230760350476194
40
0.245182872380956
40
0.245182872380956
40
0.259605394285718
40
0.259605394285718
40
0.288450438095241
40
0.288450438095241
40
0.302872960000002
40
0.302872960000002
40
0.317295481904764
40
0.317295481904764
40
0.346140525714288
40
0.346140525714288
40
0.403830613333336
40
0.403830613333336
40
0.432675657142861
40
0.432675657142861
40
0.461520700952386
40
0.461520700952386
40
0.475943222857149
40
0.475943222857149
40
0.490365744761912
40
0.490365744761912
40
0.519210788571439
40
0.519210788571439
40
0.576900876190493
40
0.576900876190493
40
0.605745920000019
40
0.605745920000019
40
0.634590963809546
40
0.634590963809546
40
0.692281051428598
40
0.692281051428598
40
0.706703573333362
40
0.706703573333362
40
0.721126095238125
40
0.721126095238125
40
0.749971139047651
40
0.749971139047651
40
0.778816182857178
40
0.778816182857178
40
0.807661226666704
40
0.807661226666704
40
0.865351314285757
40
0.865351314285757
40
0.894196358095282
40
0.894196358095282
40
0.923041401904808
40
0.923041401904808
40
0.951886445714333
40
0.951886445714333
40
0.980731489523859
40
0.980731489523859
40
1
40
1
40
1
40
1
41
1
10
13.2244714689738
20
-4.37252756266838
30
0
41
1
10
13.6527753037444
20
-4.53515336918542
30
0
41
1
10
14.080067768331
20
-4.69178977400534
30
0
41
1
10
14.7199713933327
20
-4.91691673914471
30
0
41
1
10
14.9330894277008
20
-4.99033563587653
30
0
41
1
10
15.3591094244395
20
-5.13369014712384
30
0
41
1
10
15.5720292250915
20
-5.20360018612683
30
0
41
1
10
15.9979361741494
20
-5.33955723899973
30
0
41
1
10
16.2109078264767
20
-5.4056258538499
30
0
41
1
10
16.6370094904553
20
-5.53380013869992
30
0
41
1
10
16.8502323112652
20
-5.59579552690653
30
0
41
1
10
17.4901858898485
20
-5.77581575243141
30
0
41
1
10
17.9171249740921
20
-5.88795671178738
30
0
41
1
10
18.4514731091866
20
-6.0178466713688
30
0
41
1
10
18.5583645796135
20
-6.04330412275624
30
0
41
1
10
18.7719896733931
20
-6.09311526743659
30
0
41
1
10
18.8787524291022
20
-6.11747611170776
30
0
41
1
10
19.1989069844024
20
-6.18891020570808
30
0
41
1
10
19.4121583350253
20
-6.23433923379886
30
0
41
1
10
19.7319162377055
20
-6.29906254149356
30
0
41
1
10
19.8384810977416
20
-6.32006794563438
30
0
41
1
10
20.0516459272684
20
-6.36088580866723
30
0
41
1
10
20.1582390321453
20
-6.38070445221086
30
0
41
1
10
20.4779926101741
20
-6.43844148823632
30
0
41
1
10
20.6911341548189
20
-6.47463643873564
30
0
41
1
10
21.3304100906889
20
-6.57637716806005
30
0
41
1
10
21.7564358893314
20
-6.63504490845665
30
0
41
1
10
22.3957570964644
20
-6.70888674030624
30
0
41
1
10
22.6089014771284
20
-6.73114397290414
30
0
41
1
10
23.0354444180609
20
-6.77084427118942
30
0
41
1
10
23.248853019682
20
-6.78828146563535
30
0
41
1
10
23.5694081868791
20
-6.81075292952008
30
0
41
1
10
23.6763362977874
20
-6.81763644612485
30
0
41
1
10
23.8900610826951
20
-6.83017715621719
30
0
41
1
10
23.9968826882963
20
-6.83583619575498
30
0
41
1
10
24.3172132683576
20
-6.85098470340819
30
0
41
1
10
24.5305898650674
20
-6.85864462092695
30
0
41
1
10
25.1703137113362
20
-6.87428937140447
30
0
41
1
10
25.596236332539
20
-6.87493644152852
30
0
41
1
10
26.2348890254849
20
-6.8611773787577
30
0
41
1
10
26.4477284719594
20
-6.85413157111188
30
0
41
1
10
26.873723396881
20
-6.8352044280503
30
0
41
1
10
27.0868421781898
20
-6.82332456634649
30
0
41
1
10
27.7263562973675
20
-6.7804037914965
30
0
41
1
10
28.1528998811374
20
-6.74206619784016
30
0
41
1
10
28.6867374566025
20
-6.68197171251802
30
0
41
1
10
28.7935690021297
20
-6.66934059581584
30
0
41
1
10
29.0071349685806
20
-6.64288376376521
30
0
41
1
10
29.1138647913983
20
-6.62905852409648
30
0
41
1
10
29.4339179575947
20
-6.58580561110773
30
0
41
1
10
29.6470988692159
20
-6.55459441002893
30
0
41
1
10
30.0733801483231
20
-6.48762422405082
30
0
41
1
10
30.2865440255844
20
-6.45191342629261
30
0
41
1
10
30.7127293492002
20
-6.37595148436361
30
0
41
1
10
30.9257530131237
20
-6.33569888694871
30
0
41
1
10
31.5646556644623
20
-6.20814648349614
30
0
41
1
10
31.9903938136632
20
-6.11407066633373
30
0
41
1
10
32.6292291269376
20
-5.95974781743212
30
0
41
1
10
32.8422091279203
20
-5.90610054472339
30
0
41
1
10
33.2684546471361
20
-5.79460080166547
30
0
41
1
10
33.4817975846082
20
-5.73683508106194
30
0
41
1
10
33.9088945027004
20
-5.61725925137006
30
0
41
1
10
34.1226855988963
20
-5.55539600034814
30
0
41
1
10
34.5496531415069
20
-5.42779715033029
30
0
41
1
10
34.7629504151196
20
-5.36204486915372
30
0
41
1
10
35.1184880412667
20
-5.24920016735877
30
0
41
1
10
35.2608091609517
20
-5.20316048686655
30
0
41
1
10
35.4030790204933
20
-5.15629022933246
30
0
0
SPLINE
5
EC
100
AcDbEntity
8
1
62
256
6
ByLayer
370
18
48
1
60
0
100
AcDbSpline
70
4
71
3
72
155
73
151
40
0
40
0
40
0
40
0
40
0.0121111308156519
40
0.0121111308156519
40
0.0180479628810118
40
0.0180479628810118
40
0.0239847949463718
40
0.0239847949463718
40
0.0358584590770923
40
0.0358584590770923
40
0.0596057873385334
40
0.0596057873385334
40
0.0714794514692539
40
0.0714794514692539
40
0.0833531155999744
40
0.0833531155999744
40
0.095226779730695
40
0.095226779730695
40
0.107100443861415
40
0.107100443861415
40
0.118974107992136
40
0.118974107992136
40
0.130847772122857
40
0.130847772122857
40
0.142721436253577
40
0.142721436253577
40
0.148658268318938
40
0.148658268318938
40
0.154595100384298
40
0.154595100384298
40
0.166468764515018
40
0.166468764515018
40
0.178342428645738
40
0.178342428645738
40
0.202089756907178
40
0.202089756907178
40
0.213963421037898
40
0.213963421037898
40
0.225837085168618
40
0.225837085168618
40
0.249584413430057
40
0.249584413430057
40
0.261458077560777
40
0.261458077560777
40
0.273331741691497
40
0.273331741691497
40
0.285205405822217
40
0.285205405822217
40
0.297079069952937
40
0.297079069952937
40
0.308952734083657
40
0.308952734083657
40
0.320826398214377
40
0.320826398214377
40
0.332700062345097
40
0.332700062345097
40
0.344573726475816
40
0.344573726475816
40
0.368321054737256
40
0.368321054737256
40
0.380194718867977
40
0.380194718867977
40
0.392068382998697
40
0.392068382998697
40
0.403942047129418
40
0.403942047129418
40
0.415815711260138
40
0.415815711260138
40
0.439563039521579
40
0.439563039521579
40
0.451436703652301
40
0.451436703652301
40
0.463310367783022
40
0.463310367783022
40
0.475184031913743
40
0.475184031913743
40
0.487057696044464
40
0.487057696044464
40
0.498931360175185
40
0.498931360175185
40
0.510805024305907
40
0.510805024305907
40
0.522678688436628
40
0.522678688436628
40
0.534552352567349
40
0.534552352567349
40
0.55829968082879
40
0.55829968082879
40
0.57017334495951
40
0.57017334495951
40
0.582047009090231
40
0.582047009090231
40
0.593920673220952
40
0.593920673220952
40
0.605794337351672
40
0.605794337351672
40
0.629541665613115
40
0.629541665613115
40
0.641415329743835
40
0.641415329743835
40
0.653288993874556
40
0.653288993874556
40
0.665162658005276
40
0.665162658005276
40
0.677036322135997
40
0.688909986266717
40
0.688909986266717
40
0.700783650397438
40
0.700783650397438
40
0.712657314528158
40
0.712657314528158
40
0.724530978658879
40
0.724530978658879
40
0.748278306920321
40
0.748278306920321
40
0.760151971051043
40
0.760151971051043
40
0.772025635181765
40
0.772025635181765
40
0.783899299312487
40
0.783899299312487
40
0.795772963443209
40
0.795772963443209
40
0.819520291704651
40
0.819520291704651
40
0.831393955835372
40
0.831393955835372
40
0.843267619966094
40
0.843267619966094
40
0.867014948227536
40
0.867014948227536
40
0.878888612358258
40
0.878888612358258
40
0.89076227648898
40
0.89076227648898
40
0.902635940619701
40
0.902635940619701
40
0.914509604750424
40
0.914509604750424
40
0.938256933011867
40
0.938256933011867
40
0.950130597142589
40
0.950130597142589
40
0.962004261273312
40
0.962004261273312
40
0.973877925404034
40
0.973877925404034
40
0.985751589534756
40
0.985751589534756
40
1
40
1
40
1
40
1
41
1
10
68.8169049058935
20
6.95034476518154
30
0
41
1
10
69.0338245002243
20
6.95072975779073
30
0
41
1
10
69.2508120488087
20
6.94854572946929
30
0
41
1
10
69.5743464765714
20
6.94143903517772
30
0
41
1
10
69.6808053830929
20
6.93848064335384
30
0
41
1
10
69.893814487245
20
6.9313230924393
30
0
41
1
10
70.0003906602587
20
6.92712228424756
30
0
41
1
10
70.320169379778
20
6.91268807458172
30
0
41
1
10
70.5332683470821
20
6.90062580876972
30
0
41
1
10
71.1721062033342
20
6.85713426835542
30
0
41
1
10
71.5973762298665
20
6.81838546864091
30
0
41
1
10
72.2348241517365
20
6.74578531896557
30
0
41
1
10
72.4472329120809
20
6.71917310283064
30
0
41
1
10
72.8719931532808
20
6.66115547997575
30
0
41
1
10
73.0843436065009
20
6.62974696664622
30
0
41
1
10
73.5092470618718
20
6.56228776967438
30
0
41
1
10
73.7218715989902
20
6.5262890330697
30
0
41
1
10
74.1473102771566
20
6.44967010977442
30
0
41
1
10
74.3601226259248
20
6.40904602984361
30
0
41
1
10
74.7859533000113
20
6.32315788660378
30
0
41
1
10
74.9990207884019
20
6.27789056335769
30
0
41
1
10
75.4252924864886
20
6.18280107246412
30
0
41
1
10
75.638216597168
20
6.13304390457367
30
0
41
1
10
76.0637285511064
20
6.02919047498045
30
0
41
1
10
76.2763112837144
20
5.97508773597852
30
0
41
1
10
76.5950789506856
20
5.89083217291287
30
0
41
1
10
76.7013183564319
20
5.86223141703371
30
0
41
1
10
76.9138324286654
20
5.80407768685967
30
0
41
1
10
77.0200982256731
20
5.77451561988477
30
0
41
1
10
77.3388754388808
20
5.68432815634887
30
0
41
1
10
77.5513719165238
20
5.6222078012718
30
0
41
1
10
77.9762920323981
20
5.49394048896855
30
0
41
1
10
78.1887262863816
20
5.42780494314684
30
0
41
1
10
78.8260762872183
20
5.2235235696829
30
0
41
1
10
79.2510068448435
20
5.07945508856662
30
0
41
1
10
79.8891608989344
20
4.85236134161042
30
0
41
1
10
80.1020496572081
20
4.77485929872506
30
0
41
1
10
80.5283432712484
20
4.61672776691785
30
0
41
1
10
80.7413529997246
20
4.53612212763596
30
0
41
1
10
81.3798823175781
20
4.28957156016602
30
0
41
1
10
81.8049143366597
20
4.1189070768867
30
0
41
1
10
82.4419968869281
20
3.85427614486198
30
0
41
1
10
82.6542745938894
20
3.76461728692371
30
0
41
1
10
83.0787951724413
20
3.58261573205308
30
0
41
1
10
83.2910250832487
20
3.49024896567556
30
0
41
1
10
83.7158116401386
20
3.30346115761785
30
0
41
1
10
83.928334398164
20
3.20898508710732
30
0
41
1
10
84.3535206517611
20
3.01766349661534
30
0
41
1
10
84.5661841352214
20
2.92081642663834
30
0
41
1
10
84.9917226865043
20
2.72486237492723
30
0
41
1
10
85.2045992496291
20
2.62575800635327
30
0
41
1
10
85.6306564508542
20
2.42544052279374
30
0
41
1
10
85.8434759278875
20
2.32439613728596
30
0
41
1
10
86.2687692977066
20
2.12072600812604
30
0
41
1
10
86.4812443300831
20
2.01809336075456
30
0
41
1
10
86.9061271065495
20
1.81176538559063
30
0
41
1
10
87.1185981424896
20
1.70819297496985
30
0
41
1
10
87.7558586586704
20
1.3957959243748
30
0
41
1
10
88.1804621013405
20
1.18522461014851
30
0
41
1
10
88.8174126008228
20
0.866676293139903
30
0
41
1
10
89.0297437141422
20
0.76005801752342
30
0
41
1
10
89.4545214852884
20
0.546117824840337
30
0
41
1
10
89.6669643788543
20
0.438788073598573
30
0
41
1
10
90.0921621332405
20
0.223813178778329
30
0
41
1
10
90.3049844547828
20
0.116304070861872
30
0
41
1
10
90.7310916930626
20
-0.0987228191233385
30
0
41
1
10
90.9440182505159
20
-0.206136604469407
30
0
41
1
10
91.5822119325975
20
-0.528060013649139
30
0
41
1
10
92.0070072486422
20
-0.742211963615915
30
0
41
1
10
92.643721368921
20
-1.06170271633709
30
0
41
1
10
92.8558703906911
20
-1.16792802446221
30
0
41
1
10
93.2801692722929
20
-1.37948284507644
30
0
41
1
10
93.492334822433
20
-1.48478142363075
30
0
41
1
10
93.916969096371
20
-1.69389903230461
30
0
41
1
10
94.1293723409546
20
-1.79784591217847
30
0
41
1
10
94.5542958836057
20
-2.00462119621824
30
0
41
1
10
94.766820705155
20
-2.10744052084328
30
0
41
1
10
95.1920817285761
20
-2.31177365280573
30
0
41
1
10
95.404817048581
20
-2.41328912310846
30
0
41
1
10
95.8305899688359
20
-2.61483489314074
30
0
41
1
10
96.0433175436721
20
-2.71473407508398
30
0
41
1
10
96.4683965343866
20
-2.91244577045401
30
0
41
1
10
96.6807671537155
20
-3.01029378868194
30
0
41
1
10
97.1055563982368
20
-3.20329765499346
30
0
41
1
10
97.3179349937346
20
-3.29852891917366
30
0
41
1
10
97.9548642426929
20
-3.58070984943822
30
0
41
1
10
98.3791972425842
20
-3.7641603094919
30
0
41
1
10
99.0157591418659
20
-4.03145156163416
30
0
41
1
10
99.2279576644301
20
-4.11923302248167
30
0
41
1
10
99.6524730235358
20
-4.29199572185883
30
0
41
1
10
99.864786932498
20
-4.37698014240016
30
0
41
1
10
100.289805943579
20
-4.54371326023107
30
0
41
1
10
100.502569292478
20
-4.62537550711471
30
0
41
1
10
100.928445102195
20
-4.78553729446637
30
0
41
1
10
101.141270167561
20
-4.86392390719109
30
0
41
1
10
101.779108112329
20
-5.09381367842033
30
0
41
1
10
102.203658977325
20
-5.2400641094298
30
0
41
1
10
102.839998538117
20
-5.44820241565421
30
0
41
1
10
103.052027401346
20
-5.51571169803847
30
0
41
1
10
103.476119145146
20
-5.64673885926211
30
0
41
1
10
103.688251261596
20
-5.71017609574142
30
0
41
1
10
104.112692428925
20
-5.83291971718933
30
0
41
1
10
104.324973760492
20
-5.89225761436214
30
0
41
1
10
104.749639796207
20
-6.00687379768195
30
0
41
1
10
105.174430032701
20
-6.11740596285225
30
0
41
1
10
105.599637351448
20
-6.21954808752446
30
0
41
1
10
106.025145995328
20
-6.31737579102207
30
0
41
1
10
106.237757539407
20
-6.3640740146835
30
0
41
1
10
106.66262222968
20
-6.45283912969145
30
0
41
1
10
106.874933431439
20
-6.49490012060187
30
0
41
1
10
107.299574733944
20
-6.57422705747504
30
0
41
1
10
107.5118417766
20
-6.61154323306198
30
0
41
1
10
108.148405373347
20
-6.71652037369671
30
0
41
1
10
108.572481373152
20
-6.77719107293254
30
0
41
1
10
109.208663735018
20
-6.85385245673825
30
0
41
1
10
109.420730027064
20
-6.87701748389145
30
0
41
1
10
109.845008833392
20
-6.91849041011301
30
0
41
1
10
110.057209358997
20
-6.93679915134823
30
0
41
1
10
110.48211185001
20
-6.96844444360895
30
0
41
1
10
110.694773786544
20
-6.98179952285309
30
0
41
1
10
111.120418883217
20
-7.00359186421153
30
0
41
1
10
111.333115079123
20
-7.01201100825088
30
0
41
1
10
111.970576650162
20
-7.02981555207003
30
0
41
1
10
112.394870747796
20
-7.03175424386387
30
0
41
1
10
113.030835301478
20
-7.01974055329998
30
0
41
1
10
113.242742031826
20
-7.01324623960093
30
0
41
1
10
113.666670351686
20
-6.99532444423585
30
0
41
1
10
113.878748855033
20
-6.98391333478458
30
0
41
1
10
114.51509601613
20
-6.94231965710566
30
0
41
1
10
114.939448593945
20
-6.90475921019987
30
0
41
1
10
115.576576136529
20
-6.83366440232072
30
0
41
1
10
115.789058055864
20
-6.80750882509625
30
0
41
1
10
116.214322309245
20
-6.75028673891015
30
0
41
1
10
116.426801228269
20
-6.71925660109224
30
0
41
1
10
116.85144927047
20
-6.65251948880507
30
0
41
1
10
117.063719637687
20
-6.61685310994767
30
0
41
1
10
117.488163119999
20
-6.54097894799804
30
0
41
1
10
117.700308955729
20
-6.50075221742213
30
0
41
1
10
118.33649436826
20
-6.37319138944247
30
0
41
1
10
118.760318841667
20
-6.27900006181724
30
0
41
1
10
119.396129940049
20
-6.124357082686
30
0
41
1
10
119.608070574689
20
-6.0705738617458
30
0
41
1
10
120.032135491637
20
-5.958693235667
30
0
41
1
10
120.244275152966
20
-5.90061047664162
30
0
41
1
10
120.669033361257
20
-5.78045976955289
30
0
41
1
10
120.881589429436
20
-5.71832643799979
30
0
41
1
10
121.307007231839
20
-5.58987036463935
30
0
41
1
10
121.519552542963
20
-5.5236478079714
30
0
41
1
10
121.986732247883
20
-5.37373787067443
30
0
41
1
10
122.24130925739
20
-5.28918750053978
30
0
41
1
10
122.495725897322
20
-5.2019709726361
30
0
0
SPLINE
5
ED
100
AcDbEntity
8
1
62
256
6
ByLayer
370
18
48
1
60
0
100
AcDbSpline
70
4
71
3
72
74
73
70
40
0
40
0
40
0
40
0
40
0.0179229044410337
40
0.0179229044410337
40
0.03326785905914
40
0.03326785905914
40
0.0486128136772454
40
0.0486128136772454
40
0.0639577682953516
40
0.0639577682953516
40
0.0793027229134579
40
0.0793027229134579
40
0.10999263214967
40
0.10999263214967
40
0.140682541385882
40
0.140682541385882
40
0.202062359858306
40
0.202062359858306
40
0.232752269094519
40
0.232752269094519
40
0.263442178330733
40
0.263442178330733
40
0.27878713294884
40
0.27878713294884
40
0.294132087566947
40
0.294132087566947
40
0.324821996803163
40
0.324821996803163
40
0.355511906039379
40
0.355511906039379
40
0.386201815275596
40
0.386201815275596
40
0.416891724511813
40
0.416891724511813
40
0.447581633748029
40
0.447581633748029
40
0.508961452220463
40
0.508961452220463
40
0.524306406838573
40
0.524306406838573
40
0.539651361456682
40
0.539651361456682
40
0.570341270692901
40
0.570341270692901
40
0.63172108916534
40
0.63172108916534
40
0.662410998401562
40
0.662410998401562
40
0.693100907637784
40
0.693100907637784
40
0.708445862255894
40
0.708445862255894
40
0.723790816874004
40
0.723790816874004
40
0.754480726110226
40
0.754480726110226
40
0.785170635346448
40
0.785170635346448
40
0.81586054458267
40
0.81586054458267
40
0.846550453818891
40
0.846550453818891
40
0.877240363055113
40
0.877240363055113
40
0.907930272291334
40
0.907930272291334
40
0.938620181527557
40
0.938620181527557
40
1
40
1
40
1
40
1
41
1
10
155.697484896561
20
7.10673042725915
30
0
41
1
10
155.821199113978
20
7.10695916473873
30
0
41
1
10
155.944945257802
20
7.10633384495307
30
0
41
1
10
156.174714109319
20
7.10358175144816
30
0
41
1
10
156.280724737955
20
7.1016837146386
30
0
41
1
10
156.492825570987
20
7.09662747992229
30
0
41
1
10
156.598937589657
20
7.09346826836796
30
0
41
1
10
156.81103065957
20
7.08589886319916
30
0
41
1
10
156.917034553543
20
7.08148769295096
30
0
41
1
10
157.129026472282
20
7.07143097611535
30
0
41
1
10
157.235010697702
20
7.0657854338948
30
0
41
1
10
157.552884927312
20
7.046997782989
30
0
41
1
10
157.764701525225
20
7.03200631015702
30
0
41
1
10
158.188110628407
20
6.99709597268819
30
0
41
1
10
158.399712029276
20
6.97717837968187
30
0
41
1
10
159.034332944543
20
6.91007569766023
30
0
41
1
10
159.457144424666
20
6.85552521399467
30
0
41
1
10
160.091618839503
20
6.75921343816611
30
0
41
1
10
160.303162236891
20
6.72469822084142
30
0
41
1
10
160.726681018566
20
6.65106684529897
30
0
41
1
10
160.938597834734
20
6.61191689186913
30
0
41
1
10
161.256668477833
20
6.54965352256264
30
0
41
1
10
161.362724615107
20
6.52830881774113
30
0
41
1
10
161.57491275286
20
6.48444282123666
30
0
41
1
10
161.681048095175
20
6.46192044378782
30
0
41
1
10
161.99921458426
20
6.39267751505363
30
0
41
1
10
162.211128316634
20
6.3442555551853
30
0
41
1
10
162.634651770342
20
6.24297600767537
30
0
41
1
10
162.846257762366
20
6.19011472008177
30
0
41
1
10
163.269270368969
20
6.08005563190864
30
0
41
1
10
163.480666613639
20
6.02284482461107
30
0
41
1
10
163.903570076915
20
5.90441987763046
30
0
41
1
10
164.115086012515
20
5.84322062600035
30
0
41
1
10
164.538123567327
20
5.71673130653431
30
0
41
1
10
164.749646912286
20
5.65144099418418
30
0
41
1
10
165.3843177102
20
5.44951493919834
30
0
41
1
10
165.807578935876
20
5.30683852269533
30
0
41
1
10
166.337284717505
20
5.1188646509425
30
0
41
1
10
166.443257985634
20
5.08078924732891
30
0
41
1
10
166.655293489066
20
5.00370802706081
30
0
41
1
10
166.761325479167
20
4.96471014493793
30
0
41
1
10
167.079244914015
20
4.846516654754
30
0
41
1
10
167.291125999502
20
4.76617903453433
30
0
41
1
10
167.92647558511
20
4.52044263498047
30
0
41
1
10
168.349559972214
20
4.35018478880795
30
0
41
1
10
168.983826719854
20
4.08570216259994
30
0
41
1
10
169.195196900771
20
3.99603688265896
30
0
41
1
10
169.617921751711
20
3.81383125324302
30
0
41
1
10
169.829268699959
20
3.7212775053793
30
0
41
1
10
170.146402106422
20
3.58049000799531
30
0
41
1
10
170.252128905547
20
3.53322933168548
30
0
41
1
10
170.463678145626
20
3.4381550665293
30
0
41
1
10
170.569503959587
20
3.39034765073654
30
0
41
1
10
170.88708923067
20
3.24603822685842
30
0
41
1
10
171.098959458826
20
3.14865446404954
30
0
41
1
10
171.522963329352
20
2.95146792126596
30
0
41
1
10
171.735170381179
20
2.85164498493492
30
0
41
1
10
172.158983130094
20
2.6502034512877
30
0
41
1
10
172.370699700827
20
2.54853272421295
30
0
41
1
10
172.793844748364
20
2.34345988731886
30
0
41
1
10
173.005265409253
20
2.2400432012391
30
0
41
1
10
173.427947058581
20
2.03171607100222
30
0
41
1
10
173.639200462033
20
1.9267907743945
30
0
41
1
10
174.061882036973
20
1.7160788265729
30
0
41
1
10
174.273259931853
20
1.6101989305177
30
0
41
1
10
174.696026236498
20
1.39727307600171
30
0
41
1
10
174.907413272603
20
1.29022398791469
30
0
41
1
10
175.541708894819
20
0.967546629103424
30
0
41
1
10
175.96474644498
20
0.750377272181481
30
0
41
1
10
176.3883322587
20
0.531855461573144
30
0
0
SPLINE
5
EE
100
AcDbEntity
8
1
62
256
6
ByLayer
370
18
48
1
60
0
100
AcDbSpline
70
4
71
3
72
64
73
60
40
0
40
0
40
0
40
0
40
0.0124452410515513
40
0.0124452410515513
40
0.0248904821031027
40
0.0248904821031027
40
0.0497809642062077
40
0.0497809642062077
40
0.0995619284124176
40
0.0995619284124176
40
0.149342892618628
40
0.149342892618628
40
0.174233374721731
40
0.174233374721731
40
0.186678615773285
40
0.186678615773285
40
0.199123856824837
40
0.199123856824837
40
0.248904821031047
40
0.248904821031047
40
0.298685785237257
40
0.298685785237257
40
0.348466749443467
40
0.348466749443467
40
0.360911990495021
40
0.360911990495021
40
0.373357231546575
40
0.39824771364968
40
0.448028677855887
40
0.448028677855887
40
0.497809642062095
40
0.497809642062095
40
0.522700124165197
40
0.522700124165197
40
0.535145365216748
40
0.535145365216748
40
0.547590606268298
40
0.597371570474499
40
0.597371570474499
40
0.647152534680699
40
0.647152534680699
40
0.6969334988869
40
0.6969334988869
40
0.721823980990001
40
0.721823980990001
40
0.746714463093103
40
0.746714463093103
40
0.796495427299306
40
0.796495427299306
40
0.846276391505509
40
0.846276391505509
40
0.87116687360861
40
0.87116687360861
40
0.896057355711712
40
0.945838319917917
40
0.945838319917917
40
0.995619284124123
40
0.995619284124123
40
1
40
1
40
1
40
1
41
1
10
107.559798058753
20
1.60709299335335
30
0
41
1
10
107.440779635854
20
1.66577125036949
30
0
41
1
10
107.321691768429
20
1.72430037072007
30
0
41
1
10
107.083689596972
20
1.84087631169487
30
0
41
1
10
106.964740567936
20
1.89894105845494
30
0
41
1
10
106.608031276748
20
2.07243197499628
30
0
41
1
10
106.370404362323
20
2.18714590968901
30
0
41
1
10
105.657815393124
20
2.52799337459359
30
0
41
1
10
105.183148415387
20
2.75083928006134
30
0
41
1
10
104.233583204941
20
3.1859306387571
30
0
41
1
10
103.758682137464
20
3.39817313621035
30
0
41
1
10
103.04550471182
20
3.70741036554523
30
0
41
1
10
102.807629480761
20
3.80894761051482
30
0
41
1
10
102.450482209568
20
3.95874631341462
30
0
41
1
10
102.331379173458
20
4.00826061030466
30
0
41
1
10
102.093342838935
20
4.10630376529022
30
0
41
1
10
101.974372348554
20
4.15484831853806
30
0
41
1
10
101.379720525965
20
4.39513236822992
30
0
41
1
10
100.90462901427
20
4.57953723925138
30
0
41
1
10
99.9547769186036
20
4.93138871804575
30
0
41
1
10
99.4800558382039
20
5.09888615920659
30
0
41
1
10
98.5298113390268
20
5.41532536630771
30
0
41
1
10
98.0542997954775
20
5.56428816360599
30
0
41
1
10
97.4588032873276
20
5.73808343635272
30
0
41
1
10
97.3396732696583
20
5.77221491011588
30
0
41
1
10
97.1015806202222
20
5.83914011914572
30
0
41
1
10
96.7445902063754
20
5.9375515840338
30
0
41
1
10
95.9125418872187
20
6.15324389652486
30
0
41
1
10
95.2001920740395
20
6.31353726895941
30
0
41
1
10
94.2501126030567
20
6.50457983029685
30
0
41
1
10
93.7749241562458
20
6.58875857904738
30
0
41
1
10
93.0612841685605
20
6.69749006465975
30
0
41
1
10
92.8232532745594
20
6.73080475980666
30
0
41
1
10
92.4658644418205
20
6.77629911182191
30
0
41
1
10
92.3467305110948
20
6.79071093081768
30
0
41
1
10
92.1086064682124
20
6.81800335655461
30
0
41
1
10
91.513528642953
20
6.88242355340739
30
0
41
1
10
90.919400122758
20
6.92775209943656
30
0
41
1
10
89.9690637141616
20
6.97570030821177
30
0
41
1
10
89.4940777601062
20
6.98738696417237
30
0
41
1
10
88.5432753519846
20
6.98602646120818
30
0
41
1
10
88.0674634321419
20
6.97298619583916
30
0
41
1
10
87.3523808729996
20
6.9348470059287
30
0
41
1
10
87.1141843445112
20
6.9190583454573
30
0
41
1
10
86.6381746181758
20
6.88139361960995
30
0
41
1
10
86.4003424050162
20
6.85951304401408
30
0
41
1
10
85.6871132581781
20
6.78484217645476
30
0
41
1
10
85.2119776272148
20
6.72302604005998
30
0
41
1
10
84.2613790546228
20
6.57592324811409
30
0
41
1
10
83.7859053731195
20
6.49064911010831
30
0
41
1
10
83.0717983353562
20
6.34552030479159
30
0
41
1
10
82.8335986660097
20
6.29427184105487
30
0
41
1
10
82.356781876773
20
6.18615899207438
30
0
41
1
10
81.6421946066738
20
6.01584802819542
30
0
41
1
10
80.9289204005774
20
5.82181328371368
30
0
41
1
10
79.9780983106568
20
5.54315998584991
30
0
41
1
10
79.5028425085706
20
5.39379942389257
30
0
41
1
10
78.9852991937955
20
5.22114460761478
30
0
41
1
10
78.9434358064534
20
5.20710774675069
30
0
41
1
10
78.9015687329686
20
5.1929991600924
30
0
0
SPLINE
5
EF
100
AcDbEntity
8
1
62
256
6
ByLayer
370
18
48
1
60
0
100
AcDbSpline
70
4
71
3
72
58
73
54
40
0
40
0
40
0
40
0
40
0.0265271413607669
40
0.0265271413607669
40
0.0752007842927276
40
0.0752007842927276
40
0.0873691950257176
40
0.0873691950257176
40
0.0995376057587076
40
0.0995376057587076
40
0.123874427224689
40
0.17254807015665
40
0.17254807015665
40
0.22122171308861
40
0.22122171308861
40
0.245558534554591
40
0.245558534554591
40
0.257726945287581
40
0.257726945287581
40
0.269895356020572
40
0.269895356020572
40
0.318568998952533
40
0.318568998952533
40
0.367242641884496
40
0.367242641884496
40
0.415916284816457
40
0.415916284816457
40
0.440253106282438
40
0.440253106282438
40
0.46458992774842
40
0.513263570680382
40
0.513263570680382
40
0.561937213612344
40
0.561937213612344
40
0.586274035078324
40
0.586274035078324
40
0.610610856544305
40
0.610610856544305
40
0.659284499476267
40
0.659284499476267
40
0.70795814240823
40
0.70795814240823
40
0.756631785340191
40
0.756631785340191
40
0.780968606806172
40
0.780968606806172
40
0.805305428272152
40
0.805305428272152
40
0.902652714136076
40
0.902652714136076
40
0.951326357068038
40
0.951326357068038
40
1
40
1
40
1
40
1
41
1
10
45.5089432569087
20
-6.90839017598123
30
0
41
1
10
45.2493972579889
20
-6.90792079799294
30
0
41
1
10
44.9898608019912
20
-6.90380963239315
30
0
41
1
10
44.253889889333
20
-6.88184427484379
30
0
41
1
10
43.7772742276362
20
-6.85538746314816
30
0
41
1
10
43.1806083857169
20
-6.8070675252803
30
0
41
1
10
43.0612316949723
20
-6.79664062484215
30
0
41
1
10
42.8223782129542
20
-6.77426102860252
30
0
41
1
10
42.7029192097624
20
-6.7623097405731
30
0
41
1
10
42.344789433798
20
-6.72422538890811
30
0
41
1
10
41.6291042520095
20
-6.63909543337158
30
0
41
1
10
40.9145146399758
20
-6.52751016902189
30
0
41
1
10
39.961728795289
20
-6.35594174100447
30
0
41
1
10
39.48537101344
20
-6.25873675326855
30
0
41
1
10
38.7701226686454
20
-6.0963702807303
30
0
41
1
10
38.531580144272
20
-6.03949579001798
30
0
41
1
10
38.1734761711762
20
-5.95014021318346
30
0
41
1
10
38.0540599579516
20
-5.91968096907786
30
0
41
1
10
37.815116378776
20
-5.85742673423712
30
0
41
1
10
37.6956342747267
20
-5.82564332988082
30
0
41
1
10
37.0985910093247
20
-5.66361721034966
30
0
41
1
10
36.6216810982775
20
-5.52394695669378
30
0
41
1
10
35.6684792417797
20
-5.22561570521287
30
0
41
1
10
35.1921417469622
20
-5.06700522043241
30
0
41
1
10
34.2388912789204
20
-4.73240393642433
30
0
41
1
10
33.7619858317447
20
-4.55640703243165
30
0
41
1
10
33.0455116091829
20
-4.2803430890186
30
0
41
1
10
32.8063859552151
20
-4.18624307619933
30
0
41
1
10
32.3287002349611
20
-3.99461721805261
30
0
41
1
10
31.6127309730081
20
-3.70196993593473
30
0
41
1
10
30.8978041755219
20
-3.39482028298394
30
0
41
1
10
29.944519464233
20
-2.97415490347436
30
0
41
1
10
29.4678823331217
20
-2.75820252759272
30
0
41
1
10
28.7521955467722
20
-2.42717574457797
30
0
41
1
10
28.5135023117321
20
-2.31566772208757
30
0
41
1
10
28.0357184678835
20
-2.09057065747814
30
0
41
1
10
27.7965177262566
20
-1.9769257494186
30
0
41
1
10
27.0798550117039
20
-1.63403548722806
30
0
41
1
10
26.6028494842142
20
-1.40264995720065
30
0
41
1
10
25.6495499899342
20
-0.935962170286587
30
0
41
1
10
25.1732229352574
20
-0.70072511885823
30
0
41
1
10
24.2200932228149
20
-0.22872704508805
30
0
41
1
10
23.7433015550844
20
0.0080555444237973
30
0
41
1
10
23.0270751753625
20
0.362990695233805
30
0
41
1
10
22.7881679161323
20
0.481279034620201
30
0
41
1
10
22.3098969991404
20
0.717553852868946
30
0
41
1
10
22.0709584571162
20
0.835308452444167
30
0
41
1
10
20.8775118732528
20
1.42116064071115
30
0
41
1
10
19.9260452165103
20
1.88071007498425
30
0
41
1
10
18.4982564989682
20
2.54563414630209
30
0
41
1
10
18.022192132756
20
2.76313682669806
30
0
41
1
10
17.0687403136365
20
3.18785746073826
30
0
41
1
10
16.5913377638267
20
3.39505001950602
30
0
41
1
10
16.1128378538685
20
3.59627244554332
30
0
0
SPLINE
5
F0
100
AcDbEntity
8
1
62
256
6
ByLayer
370
18
48
1
60
0
100
AcDbSpline
70
4
71
3
72
55
73
51
40
0
40
0
40
0
40
0
40
0.0853606495884047
40
0.0853606495884047
40
0.128040974382608
40
0.128040974382608
40
0.138711055581159
40
0.138711055581159
40
0.14938113677971
40
0.170721299176812
40
0.256081948765214
40
0.256081948765214
40
0.298762273559415
40
0.298762273559415
40
0.320102435956516
40
0.330772517155064
40
0.330772517155064
40
0.341442598353613
40
0.341442598353613
40
0.426803247942
40
0.426803247942
40
0.512163897530386
40
0.512163897530386
40
0.533504059927483
40
0.533504059927483
40
0.544174141126032
40
0.544174141126032
40
0.554844222324582
40
0.597524547118785
40
0.597524547118785
40
0.682885196707193
40
0.682885196707193
40
0.725565521501396
40
0.725565521501396
40
0.736235602699947
40
0.736235602699947
40
0.746905683898498
40
0.746905683898498
40
0.768245846295597
40
0.768245846295597
40
0.853606495883997
40
0.853606495883997
40
0.938967145472396
40
0.938967145472396
40
0.949637226670948
40
0.949637226670948
40
0.960307307869499
40
0.981647470266602
40
0.981647470266602
40
1
40
1
40
1
40
1
41
1
10
107.559798058753
20
1.71038838813854
30
0
41
1
10
108.27712880127
20
1.35874353562349
30
0
41
1
10
108.993748982846
20
1.00038401532353
30
0
41
1
10
110.070234289846
20
0.457884005190721
30
0
41
1
10
110.429323640989
20
0.276227634431592
30
0
41
1
10
110.878796253826
20
0.0486876804362169
30
0
41
1
10
110.968741194045
20
0.0031462428432292
30
0
41
1
10
111.148545632682
20
-0.0878931168622046
30
0
41
1
10
111.418157538418
20
-0.224403757294908
30
0
41
1
10
112.405801810335
20
-0.72419540424454
30
0
41
1
10
113.301491986911
20
-1.17498826748295
30
0
41
1
10
114.376889347543
20
-1.70732443203397
30
0
41
1
10
114.735452358827
20
-1.88332980878195
30
0
41
1
10
115.27376654922
20
-2.14454655229542
30
0
41
1
10
115.543040593148
20
-2.27445801233256
30
0
41
1
10
115.812551619627
20
-2.40320431348593
30
0
41
1
10
115.992285344548
20
-2.48876257643244
30
0
41
1
10
116.082202735986
20
-2.53141515918398
30
0
41
1
10
116.891091202419
20
-2.91368464222648
30
0
41
1
10
117.608062487388
20
-3.24232008620649
30
0
41
1
10
119.041503976868
20
-3.8711131044771
30
0
41
1
10
119.757933715568
20
-4.17134159639537
30
0
41
1
10
120.655299770132
20
-4.52521456466221
30
0
41
1
10
120.834865116769
20
-4.59491773954144
30
0
41
1
10
121.104394165662
20
-4.69779440096076
30
0
41
1
10
121.194288279752
20
-4.73181471503995
30
0
41
1
10
121.373997064708
20
-4.79922929106064
30
0
41
1
10
121.823109546691
20
-4.96621792417403
30
0
41
1
10
122.271523827725
20
-5.12533908773534
30
0
41
1
10
123.347016975055
20
-5.49132794465891
30
0
41
1
10
124.063052567768
20
-5.71414394504885
30
0
41
1
10
125.138294216782
20
-6.01338189262819
30
0
41
1
10
125.496909120535
20
-6.10729468475105
30
0
41
1
10
125.94571750625
20
-6.21705816091341
30
0
41
1
10
126.035506189621
20
-6.23862951509562
30
0
41
1
10
126.215144833848
20
-6.28100130287544
30
0
41
1
10
126.305015542561
20
-6.30180635124043
30
0
41
1
10
126.57450789101
20
-6.36300291273267
30
0
41
1
10
126.754044589463
20
-6.40218476518677
30
0
41
1
10
127.651232257854
20
-6.58993681388407
30
0
41
1
10
128.367385319596
20
-6.71403658136026
30
0
41
1
10
129.799966084019
20
-6.9079435536336
30
0
41
1
10
130.516393411446
20
-6.97774432802029
30
0
41
1
10
131.324563156648
20
-7.02465056936271
30
0
41
1
10
131.414420245715
20
-7.02942466474136
30
0
41
1
10
131.593974723385
20
-7.03808124501907
30
0
41
1
10
131.863114790979
20
-7.04973246090475
30
0
41
1
10
132.13171356839
20
-7.05739374252769
30
0
41
1
10
132.464378406118
20
-7.06361504314066
30
0
41
1
10
132.618032629582
20
-7.06518787490404
30
0
41
1
10
132.771544817524
20
-7.06546373677105
30
0
0
SPLINE
5
F1
100
AcDbEntity
8
1
62
256
6
ByLayer
370
18
48
1
60
0
100
AcDbSpline
70
4
71
3
72
23
73
19
40
0
40
0
40
0
40
0
40
0.0585774311296853
40
0.110878684955806
40
0.110878684955806
40
0.163179938781928
40
0.163179938781928
40
0.372384954086401
40
0.372384954086401
40
0.476987461738638
40
0.529288715564759
40
0.555439342477824
40
0.555439342477824
40
0.581589969390887
40
0.581589969390887
40
0.790794984695444
40
0.790794984695444
40
1
40
1
40
1
40
1
41
1
10
166.019628418686
20
5.2354628620225
30
0
41
1
10
166.220007972826
20
5.30552220779236
30
0
41
1
10
166.599462665406
20
5.43511121675718
30
0
41
1
10
166.979368804032
20
5.55877584007735
30
0
41
1
10
167.338027860176
20
5.6727238711259
30
0
41
1
10
167.517250477625
20
5.72826456390732
30
0
41
1
10
168.41282907523
20
5.99861808425013
30
0
41
1
10
169.127723217229
20
6.19142725208488
30
0
41
1
10
170.20037501154
20
6.44285307997421
30
0
41
1
10
170.736782134113
20
6.55911744970785
30
0
41
1
10
171.363339844858
20
6.67767110241866
30
0
41
1
10
171.632090380288
20
6.72476135696067
30
0
41
1
10
171.811314763594
20
6.7553223411123
30
0
41
1
10
171.900975072659
20
6.7701895566629
30
0
41
1
10
172.707566374874
20
6.90012034587929
30
0
41
1
10
173.42260493348
20
6.98818094185549
30
0
41
1
10
174.85228127508
20
7.10824195172395
30
0
41
1
10
175.566926207707
20
7.14023376880991
30
0
41
1
10
176.283173307443
20
7.14366427244388
30
0
0
SPLINE
5
F2
100
AcDbEntity
8
1
62
256
6
ByLayer
370
13
48
1
60
0
100
AcDbSpline
70
4
71
3
72
50
73
46
40
0
40
0
40
0
40
0
40
0.057428440291319
40
0.057428440291319
40
0.0941265095671538
40
0.0941265095671538
40
0.130824578842989
40
0.130824578842989
40
0.204220717394658
40
0.204220717394658
40
0.240918786670493
40
0.240918786670493
40
0.25926782130841
40
0.25926782130841
40
0.277616855946328
40
0.277616855946328
40
0.351012994497998
40
0.351012994497998
40
0.387711063773833
40
0.40606009841175
40
0.40606009841175
40
0.424409133049668
40
0.424409133049668
40
0.497805271601338
40
0.497805271601338
40
0.534503340877174
40
0.552852375515091
40
0.552852375515091
40
0.571201410153009
40
0.571201410153009
40
0.64459754870468
40
0.64459754870468
40
0.681295617980516
40
0.681295617980516
40
0.717993687256351
40
0.717993687256351
40
0.791389825808023
40
0.864785964359694
40
0.938182102911365
40
0.938182102911365
40
0.974880172187201
40
0.974880172187201
40
0.993229206825119
40
0.993229206825119
40
1
40
1
40
1
40
1
41
1
10
107.660303025158
20
6.74841831086329
30
0
41
1
10
107.660298223819
20
6.74621459008401
30
0
41
1
10
107.6602932638
20
6.73892659409566
30
0
41
1
10
107.660284916869
20
6.71853647931366
30
0
41
1
10
107.660281606769
20
6.70847450937495
30
0
41
1
10
107.660274895124
20
6.68408609143432
30
0
41
1
10
107.660271508547
20
6.66981561926607
30
0
41
1
10
107.660261274657
20
6.62083230611324
30
0
41
1
10
107.660254354089
20
6.57995898662574
30
0
41
1
10
107.660243881394
20
6.50634018017433
30
0
41
1
10
107.660240374958
20
6.4797462479346
30
0
41
1
10
107.660235096869
20
6.43675000043791
30
0
41
1
10
107.660233333241
20
6.42188958161796
30
0
41
1
10
107.660229808685
20
6.39119996640554
30
0
41
1
10
107.660228047324
20
6.37536799448108
30
0
41
1
10
107.660219246504
20
6.29378466596418
30
0
41
1
10
107.660212226078
20
6.22077648831836
30
0
41
1
10
107.660201739456
20
6.09972406889736
30
0
41
1
10
107.660196506827
20
6.03630877037688
30
0
41
1
10
107.660191289886
20
5.96853663316892
30
0
41
1
10
107.660187815173
20
5.9223818621669
30
0
41
1
10
107.660186078338
20
5.89880222395166
30
0
41
1
10
107.660177420086
20
5.77871604832288
30
0
41
1
10
107.660170572437
20
5.67560460901086
30
0
41
1
10
107.660160389647
20
5.5104600371408
30
0
41
1
10
107.660155320142
20
5.42526469423095
30
0
41
1
10
107.660150275273
20
5.33611751858607
30
0
41
1
10
107.660146916399
20
5.27580362868881
30
0
41
1
10
107.660145239388
20
5.24520900125123
30
0
41
1
10
107.66013688245
20
5.09039778534313
30
0
41
1
10
107.660130271622
20
4.96039219429483
30
0
41
1
10
107.660120398681
20
4.75620774757482
30
0
41
1
10
107.660117114762
20
4.68661476846651
30
0
41
1
10
107.66011054754
20
4.54434972121095
30
0
41
1
10
107.660107259957
20
4.47157700343143
30
0
41
1
10
107.660097443784
20
4.2501519133761
30
0
41
1
10
107.660084442187
20
3.94585205775016
30
0
41
1
10
107.660064807157
20
3.46292201144834
30
0
41
1
10
107.66005134464
20
3.12339340684244
30
0
41
1
10
107.660040989238
20
2.8620399777738
30
0
41
1
10
107.660037494181
20
2.77380277295472
30
0
41
1
10
107.660032170253
20
2.63973861440198
30
0
41
1
10
107.660030380831
20
2.59473537651135
30
0
41
1
10
107.660027915464
20
2.53285502686066
30
0
41
1
10
107.660027249401
20
2.51614905600917
30
0
41
1
10
107.660026581724
20
2.49941632859253
30
0
0
SPLINE
5
F3
100
AcDbEntity
8
1
62
256
6
ByLayer
370
18
48
1
60
0
100
AcDbSpline
70
4
71
3
72
45
73
41
40
0
40
0
40
0
40
0
40
0.0625000000000005
40
0.0625000000000005
40
0.125000000000001
40
0.187500000000002
40
0.187500000000002
40
0.218750000000002
40
0.234375000000002
40
0.234375000000002
40
0.250000000000002
40
0.250000000000002
40
0.312500000000002
40
0.312500000000002
40
0.375000000000003
40
0.437500000000003
40
0.437500000000003
40
0.468750000000003
40
0.468750000000003
40
0.484375000000003
40
0.484375000000003
40
0.500000000000003
40
0.562500000000002
40
0.625000000000002
40
0.687500000000002
40
0.687500000000002
40
0.718750000000002
40
0.718750000000002
40
0.750000000000002
40
0.750000000000002
40
0.812500000000001
40
0.875000000000001
40
0.875000000000001
40
0.9375
40
0.9375
40
0.953125
40
0.953125
40
0.96875
40
0.96875
40
1
40
1
40
1
40
1
41
1
10
176.350750810182
20
-0.445392644770209
30
0
41
1
10
176.326526616165
20
-0.643999824866597
30
0
41
1
10
176.305394952235
20
-0.840861974551586
30
0
41
1
10
176.268240006559
20
-1.23111035880314
30
0
41
1
10
176.236195381124
20
-1.61788250929516
30
0
41
1
10
176.21258864224
20
-1.99759476220672
30
0
41
1
10
176.197492065937
20
-2.27963852466215
30
0
41
1
10
176.190597563445
20
-2.41997446013821
30
0
41
1
10
176.184594042596
20
-2.55925586096342
30
0
41
1
10
176.180780702727
20
-2.65187231990546
30
0
41
1
10
176.178970541989
20
-2.69801713963747
30
0
41
1
10
176.170408009621
20
-2.92702777632923
30
0
41
1
10
176.1650765954
20
-3.1055928103078
30
0
41
1
10
176.15677635906
20
-3.45367265562518
30
0
41
1
10
176.150840516235
20
-3.79270102890783
30
0
41
1
10
176.148709977504
20
-4.1136923648917
30
0
41
1
10
176.148336432588
20
-4.34754563424201
30
0
41
1
10
176.148417443381
20
-4.42434676738984
30
0
41
1
10
176.148835385817
20
-4.53779258800037
30
0
41
1
10
176.149024512235
20
-4.57534956947052
30
0
41
1
10
176.149498416566
20
-4.64953105020297
30
0
41
1
10
176.150924465743
20
-4.8328259443372
30
0
41
1
10
176.155575827352
20
-5.14357755521908
30
0
41
1
10
176.166208649062
20
-5.51797312876795
30
0
41
1
10
176.176635529561
20
-5.74098465610061
30
0
41
1
10
176.186005278959
20
-5.89806232410567
30
0
41
1
10
176.189389364614
20
-5.94873468227701
30
0
41
1
10
176.196744540855
20
-6.04656506255196
30
0
41
1
10
176.200689960201
20
-6.09338152650244
30
0
41
1
10
176.213416746641
20
-6.22765734762839
30
0
41
1
10
176.232751379536
20
-6.3902523057603
30
0
41
1
10
176.257974206831
20
-6.52068940194945
30
0
41
1
10
176.286882681992
20
-6.63505567432057
30
0
41
1
10
176.303178604613
20
-6.68420388300109
30
0
41
1
10
176.326430958806
20
-6.73538242154044
30
0
41
1
10
176.331226060796
20
-6.74510440991918
30
0
41
1
10
176.341122174622
20
-6.76351199715162
30
0
41
1
10
176.346226048728
20
-6.77220107639559
30
0
41
1
10
176.361976225843
20
-6.79663131149496
30
0
41
1
10
176.373072421591
20
-6.81076105416005
30
0
41
1
10
176.384821244376
20
-6.82273999390819
30
0
0
SPLINE
5
F4
100
AcDbEntity
8
1
62
256
6
ByLayer
370
18
48
1
60
0
100
AcDbSpline
70
4
71
3
72
62
73
58
40
0
40
0
40
0
40
0
40
0.0042972451572756
40
0.0042972451572756
40
0.0217657145404803
40
0.0217657145404803
40
0.091639592073295
40
0.091639592073295
40
0.126576530839702
40
0.126576530839702
40
0.144045000222906
40
0.144045000222906
40
0.16151346960611
40
0.16151346960611
40
0.231387347138931
40
0.231387347138931
40
0.266324285905341
40
0.266324285905341
40
0.283792755288547
40
0.283792755288547
40
0.301261224671752
40
0.301261224671752
40
0.371135102204575
40
0.371135102204575
40
0.406072040970987
40
0.406072040970987
40
0.441008979737399
40
0.441008979737399
40
0.458477449120604
40
0.458477449120604
40
0.47594591850381
40
0.47594591850381
40
0.510882857270222
40
0.510882857270222
40
0.580756734803045
40
0.580756734803045
40
0.598225204186251
40
0.598225204186251
40
0.615693673569458
40
0.615693673569458
40
0.650630612335873
40
0.650630612335873
40
0.720504489868705
40
0.720504489868705
40
0.737972959251911
40
0.737972959251911
40
0.755441428635118
40
0.755441428635118
40
0.790378367401528
40
0.790378367401528
40
0.860252244934351
40
0.860252244934351
40
0.895189183700764
40
0.895189183700764
40
0.930126122467177
40
0.930126122467177
40
1
40
1
40
1
40
1
41
1
10
138.315349610042
20
-6.80659128858935
30
0
41
1
10
138.271295471298
20
-6.81265591580916
30
0
41
1
10
138.227244241948
20
-6.81861662575372
30
0
41
1
10
138.004160506326
20
-6.84827651998256
30
0
41
1
10
137.825220505403
20
-6.87035325795435
30
0
41
1
10
136.930897184256
20
-6.97207343867487
30
0
41
1
10
136.216634206733
20
-7.02571082628799
30
0
41
1
10
135.144380817007
20
-7.06399239040897
30
0
41
1
10
134.786858566726
20
-7.06973096803569
30
0
41
1
10
134.250069165294
20
-7.06772946245059
30
0
41
1
10
134.071051286834
20
-7.06529429423938
30
0
41
1
10
133.712779498671
20
-7.05687988499619
30
0
41
1
10
133.533667302575
20
-7.05090309228677
30
0
41
1
10
132.638749126896
20
-7.01224134662755
30
0
41
1
10
131.924192069489
20
-6.95320468362496
30
0
41
1
10
130.85184314411
20
-6.82360090197775
30
0
41
1
10
130.494332614985
20
-6.77354762410306
30
0
41
1
10
129.957643349125
20
-6.68832952984965
30
0
41
1
10
129.778673631217
20
-6.65823550350618
30
0
41
1
10
129.420525858434
20
-6.59470229991516
30
0
41
1
10
129.241272478972
20
-6.56124782751769
30
0
41
1
10
128.345636385779
20
-6.3859591176809
30
0
41
1
10
127.63077442481
20
-6.21997082211823
30
0
41
1
10
126.558304785215
20
-5.93501826525954
30
0
41
1
10
126.200778811045
20
-5.83404870490574
30
0
41
1
10
125.485266843434
20
-5.62054083931827
30
0
41
1
10
125.127276844534
20
-5.50800481675915
30
0
41
1
10
124.589568338037
20
-5.33093623199446
30
0
41
1
10
124.410361317635
20
-5.27058356673342
30
0
41
1
10
124.052205465118
20
-5.14737343292197
30
0
41
1
10
123.873217584745
20
-5.08450295123896
30
0
41
1
10
123.336449855686
20
-4.89220589193968
30
0
41
1
10
122.978863750533
20
-4.75909574675555
30
0
41
1
10
121.906180196255
20
-4.34608010080692
30
0
41
1
10
121.191125629789
20
-4.05253629741117
30
0
41
1
10
120.295244186281
20
-3.6661809502348
30
0
41
1
10
120.115892336448
20
-3.58790292516144
30
0
41
1
10
119.757464295675
20
-3.42970950036076
30
0
41
1
10
119.578357954029
20
-3.34978127817522
30
0
41
1
10
119.041284836656
20
-3.10764208960268
30
0
41
1
10
118.683558160595
20
-2.94308575006502
30
0
41
1
10
117.61054781827
20
-2.4414846076485
30
0
41
1
10
116.895447907443
20
-2.09648555663162
30
0
41
1
10
115.999781606238
20
-1.6558915708172
30
0
41
1
10
115.820560599356
20
-1.56730209056451
30
0
41
1
10
115.461900476934
20
-1.38925994384968
30
0
41
1
10
115.282673828026
20
-1.29991547809894
30
0
41
1
10
114.745681233802
20
-1.03131747770993
30
0
41
1
10
114.388411483026
20
-0.851391635317356
30
0
41
1
10
113.317992096738
20
-0.310609930664015
30
0
41
1
10
112.606255331775
20
0.0512973377899755
30
0
41
1
10
111.538971964846
20
0.591265828228899
30
0
41
1
10
111.183254366402
20
0.77075327293241
30
0
41
1
10
110.471552079087
20
1.12801811964147
30
0
41
1
10
110.11556610655
20
1.3057926217904
30
0
41
1
10
109.046428554385
20
1.83500209271034
30
0
41
1
10
108.332099388547
20
2.18232854562544
30
0
41
1
10
107.614613815569
20
2.52102632199396
30
0
0
SPLINE
5
F5
100
AcDbEntity
8
1
62
256
6
ByLayer
370
18
48
1
60
0
100
AcDbSpline
70
4
71
3
72
48
73
44
40
0
40
0
40
0
40
0
40
0.0884530425280812
40
0.0884530425280812
40
0.136525342759931
40
0.136525342759931
40
0.184597642991781
40
0.184597642991781
40
0.28074224345548
40
0.28074224345548
40
0.32881454368733
40
0.32881454368733
40
0.376886843919181
40
0.400922994035108
40
0.400922994035108
40
0.412941069093073
40
0.412941069093073
40
0.424959144151038
40
0.424959144151038
40
0.473031444382904
40
0.52110374461477
40
0.52110374461477
40
0.569176044846636
40
0.569176044846636
40
0.617248345078502
40
0.617248345078502
40
0.665320645310368
40
0.665320645310368
40
0.713392945542234
40
0.713392945542234
40
0.7614652457741
40
0.7614652457741
40
0.809537546005966
40
0.809537546005966
40
0.821555621063935
40
0.821555621063935
40
0.833573696121903
40
0.833573696121903
40
0.857609846237844
40
0.857609846237844
40
0.953754446701612
40
0.953754446701612
40
1
40
1
40
1
40
1
41
1
10
112.159475871707
20
0.27776569698068
30
0
41
1
10
112.819077369527
20
-0.0433761958009597
30
0
41
1
10
113.476342572573
20
-0.364507038810075
30
0
41
1
10
114.489079854689
20
-0.856217726622049
30
0
41
1
10
114.845350933187
20
-1.0285978664798
30
0
41
1
10
115.5577213853
20
-1.37085678347253
30
0
41
1
10
115.913822975737
20
-1.54072343081432
30
0
41
1
10
116.982380411548
20
-2.04547519190967
30
0
41
1
10
117.695032936588
20
-2.37562583595783
30
0
41
1
10
118.766801407487
20
-2.8565125140496
30
0
41
1
10
119.124522303712
20
-3.01441726384527
30
0
41
1
10
119.8413946146
20
-3.32445887140031
30
0
41
1
10
120.380125326734
20
-3.5526574829727
30
0
41
1
10
120.920868319536
20
-3.77353537365917
30
0
41
1
10
121.191612830844
20
-3.88267733328343
30
0
41
1
10
121.281871666038
20
-3.91882087438179
30
0
41
1
10
121.462221643276
20
-3.99054579921801
30
0
41
1
10
121.55234215457
20
-4.02613903916199
30
0
41
1
10
122.002687347181
20
-4.20273618316591
30
0
41
1
10
122.721593518066
20
-4.47653065124763
30
0
41
1
10
123.438133893152
20
-4.73164832482769
30
0
41
1
10
124.153930876648
20
-4.976830717186
30
0
41
1
10
124.511457140597
20
-5.09445506585871
30
0
41
1
10
125.226102815026
20
-5.31929103072358
30
0
41
1
10
125.583223268461
20
-5.42650400528319
30
0
41
1
10
126.297536065979
20
-5.62996167601381
30
0
41
1
10
126.654727295576
20
-5.72620698407644
30
0
41
1
10
127.369521413194
20
-5.90727926240461
30
0
41
1
10
127.727125062291
20
-5.99210700776536
30
0
41
1
10
128.443209368157
20
-6.14983186650832
30
0
41
1
10
128.801689066376
20
-6.22272958434459
30
0
41
1
10
129.519878890958
20
-6.35614970516289
30
0
41
1
10
129.879589762416
20
-6.41667244287774
30
0
41
1
10
130.330301447742
20
-6.48425124820963
30
0
41
1
10
130.420533078013
20
-6.49736858047834
30
0
41
1
10
130.600919067575
20
-6.52277184651027
30
0
41
1
10
130.691058639245
20
-6.53505620658814
30
0
41
1
10
130.961330694004
20
-6.5706684183003
30
0
41
1
10
131.14131504667
20
-6.59275190565918
30
0
41
1
10
132.040299683287
20
-6.69468964353507
30
0
41
1
10
132.756507980274
20
-6.74913546322722
30
0
41
1
10
133.815301483877
20
-6.7896849071615
30
0
41
1
10
134.15887846264
20
-6.7965942585339
30
0
41
1
10
134.502349912994
20
-6.79718922489209
30
0
0
SPLINE
5
F6
100
AcDbEntity
8
1
62
256
6
ByLayer
370
18
48
1
60
0
100
AcDbSpline
70
4
71
3
72
50
73
46
40
0
40
0
40
0
40
0
40
0.0200038699748056
40
0.0200038699748056
40
0.0682059337566632
40
0.0682059337566632
40
0.164610061320379
40
0.164610061320379
40
0.188711093211308
40
0.188711093211308
40
0.200761609156774
40
0.200761609156774
40
0.21281212510224
40
0.21281212510224
40
0.261014188884101
40
0.261014188884101
40
0.309216252665961
40
0.309216252665961
40
0.357418316447822
40
0.357418316447822
40
0.405620380229683
40
0.405620380229683
40
0.453822444011543
40
0.453822444011543
40
0.502024507793404
40
0.502024507793404
40
0.550226571575265
40
0.598428635357126
40
0.61047915130259
40
0.61047915130259
40
0.622529667248055
40
0.622529667248055
40
0.646630699138987
40
0.646630699138987
40
0.694832762920848
40
0.694832762920848
40
0.743034826702708
40
0.743034826702708
40
0.83943895426643
40
0.83943895426643
40
0.88764101804829
40
0.88764101804829
40
0.935843081830149
40
0.935843081830149
40
1
40
1
40
1
40
1
41
1
10
134.984022834907
20
-6.8035247757017
30
0
41
1
10
134.835866411134
20
-6.80589781250995
30
0
41
1
10
134.687713270993
20
-6.80713162136507
30
0
41
1
10
134.182503699608
20
-6.80733568529541
30
0
41
1
10
133.825358460453
20
-6.80064429756445
30
0
41
1
10
132.752953333132
20
-6.76024212154047
30
0
41
1
10
132.036723286034
20
-6.70619635152983
30
0
41
1
10
131.137703139587
20
-6.60470068656988
30
0
41
1
10
130.95771138524
20
-6.58270261593179
30
0
41
1
10
130.687428076871
20
-6.54721315061758
30
0
41
1
10
130.597284700587
20
-6.53496883868061
30
0
41
1
10
130.416890800871
20
-6.50964407403788
30
0
41
1
10
130.32665435684
20
-6.49656507098999
30
0
41
1
10
129.875920007289
20
-6.42917408109994
30
0
41
1
10
129.516192678016
20
-6.36878866493427
30
0
41
1
10
128.797973716109
20
-6.23561667067799
30
0
41
1
10
128.439481379566
20
-6.16282967550074
30
0
41
1
10
127.723373754107
20
-6.00529948383698
30
0
41
1
10
127.365759444237
20
-5.92055568445815
30
0
41
1
10
126.6509456357
20
-5.7396245391125
30
0
41
1
10
126.293745499507
20
-5.6434362241001
30
0
41
1
10
125.579414827976
20
-5.44006525850563
30
0
41
1
10
125.222285406387
20
-5.33288202591584
30
0
41
1
10
124.507621516284
20
-5.1080778535258
30
0
41
1
10
124.150086159781
20
-4.99045527859064
30
0
41
1
10
123.434268907638
20
-4.74524818338654
30
0
41
1
10
122.717706320673
20
-4.49007765932012
30
0
41
1
10
121.90890567773
20
-4.18193352637627
30
0
41
1
10
121.458282800032
20
-4.00387565662908
30
0
41
1
10
121.277924420596
20
-3.93211213580929
30
0
41
1
10
121.187661403532
20
-3.89594842230878
30
0
41
1
10
120.916902633943
20
-3.78674260493059
30
0
41
1
10
120.736646141914
20
-3.71307093859022
30
0
41
1
10
120.196549567761
20
-3.48960547111744
30
0
41
1
10
119.837382339412
20
-3.33736160640905
30
0
41
1
10
119.120486288211
20
-3.02707381617961
30
0
41
1
10
118.762755012531
20
-2.86903447580281
30
0
41
1
10
117.690958278768
20
-2.38771044845166
30
0
41
1
10
116.978291153144
20
-2.0572227077474
30
0
41
1
10
115.90971493797
20
-1.55189593833398
30
0
41
1
10
115.553607805872
20
-1.38182561758757
30
0
41
1
10
114.841225258019
20
-1.0391387433078
30
0
41
1
10
114.484948128374
20
-0.866533323557491
30
0
41
1
10
113.653702785045
20
-0.462401608099043
30
0
41
1
10
113.178471525915
20
-0.23028635838574
30
0
41
1
10
112.702190934345
20
0.0022220279353462
30
0
0
SPLINE
5
F7
100
AcDbEntity
8
1
62
256
6
ByLayer
370
18
48
1
60
0
100
AcDbSpline
70
4
71
3
72
43
73
39
40
0
40
0
40
0
40
0
40
0.0225834602937258
40
0.0225834602937258
40
0.0740264360677399
40
0.0740264360677399
40
0.125469411841755
40
0.125469411841755
40
0.176912387615769
40
0.176912387615769
40
0.228355363389783
40
0.228355363389783
40
0.279798339163798
40
0.279798339163798
40
0.331241314937812
40
0.331241314937812
40
0.382684290711827
40
0.382684290711827
40
0.408405778598834
40
0.421266522542337
40
0.421266522542337
40
0.434127266485841
40
0.434127266485841
40
0.485570242259856
40
0.485570242259856
40
0.53701321803387
40
0.53701321803387
40
0.588456193807885
40
0.588456193807885
40
0.639899169581899
40
0.639899169581899
40
0.691342145355914
40
0.691342145355914
40
0.794228096903942
40
0.794228096903942
40
0.897114048451971
40
0.897114048451971
40
1
40
1
40
1
40
1
41
1
10
155.622964554252
20
0.323601305105854
30
0
41
1
10
155.779792086274
20
0.246373565142108
30
0
41
1
10
155.936489380715
20
0.169135341092186
30
0
41
1
10
156.449753270394
20
-0.083971800434739
30
0
41
1
10
156.805848610107
20
-0.259731240379409
30
0
41
1
10
157.517322851169
20
-0.610036750412945
30
0
41
1
10
157.872693079128
20
-0.784602777030841
30
0
41
1
10
158.583045131351
20
-1.1318604014115
30
0
41
1
10
158.938035447804
20
-1.30453467134896
30
0
41
1
10
159.648099234269
20
-1.64704076524626
30
0
41
1
10
160.003165772425
20
-1.81688783581407
30
0
41
1
10
160.713735122328
20
-2.15302326426789
30
0
41
1
10
161.069244592092
20
-2.31929828390125
30
0
41
1
10
161.781168667575
20
-2.6473304111644
30
0
41
1
10
162.137574158853
20
-2.80910736383333
30
0
41
1
10
162.851609402281
20
-3.12750966296494
30
0
41
1
10
163.209246332036
20
-3.28412071243093
30
0
41
1
10
163.74697808252
20
-3.51445401826487
30
0
41
1
10
164.01616210813
20
-3.62847685650001
30
0
41
1
10
164.285883010417
20
-3.74066467761509
30
0
41
1
10
164.465822996965
20
-3.81503523773833
30
0
41
1
10
164.5558997717
20
-3.85202767259932
30
0
41
1
10
165.006039628725
20
-4.03566797565594
30
0
41
1
10
165.365002453158
20
-4.17820151667445
30
0
41
1
10
166.081040608184
20
-4.45393555725499
30
0
41
1
10
166.438115881303
20
-4.58715085521774
30
0
41
1
10
167.150782048336
20
-4.84386737183885
30
0
41
1
10
167.50637587833
20
-4.96735232682303
30
0
41
1
10
168.216519779324
20
-5.20396356090936
30
0
41
1
10
168.571070846146
20
-5.31710481893802
30
0
41
1
10
169.279552263359
20
-5.53264769608725
30
0
41
1
10
169.633479089634
20
-5.6350433966476
30
0
41
1
10
170.694859420237
20
-5.92535896798239
30
0
41
1
10
171.401890783284
20
-6.09647815081715
30
0
41
1
10
172.818196176484
20
-6.39038326406853
30
0
41
1
10
173.527456251299
20
-6.51322870882294
30
0
41
1
10
174.951298175564
20
-6.70748416722526
30
0
41
1
10
175.665899342097
20
-6.77885560287032
30
0
41
1
10
176.384821244376
20
-6.82273999390816
30
0
0
SPLINE
5
F8
100
AcDbEntity
8
1
62
256
6
ByLayer
370
18
48
1
60
0
100
AcDbSpline
70
4
71
3
72
14
73
10
40
0
40
0
40
0
40
0
40
0.25
40
0.25
40
0.5
40
0.5
40
0.75
40
0.75
40
1
40
1
40
1
40
1
41
1
10
176.384821244368
20
-6.82273999391353
30
0
41
1
10
176.384984737291
20
-6.82290668907115
30
0
41
1
10
176.385075826381
20
-6.82326926199713
30
0
41
1
10
176.385070088356
20
-6.82447428289751
30
0
41
1
10
176.384968037082
20
-6.82531624517642
30
0
41
1
10
176.384545036641
20
-6.82739646607627
30
0
41
1
10
176.384218211095
20
-6.82865236457835
30
0
41
1
10
176.383415333022
20
-6.83126144948628
30
0
41
1
10
176.382943788919
20
-6.83260579434722
30
0
41
1
10
176.382457635398
20
-6.83385877650247
30
0
0
SPLINE
5
F9
100
AcDbEntity
8
1
62
256
6
ByLayer
370
18
48
1
60
0
100
AcDbSpline
70
4
71
3
72
8
73
4
40
0
40
0
40
0
40
0
40
1
40
1
40
1
40
1
41
1
10
176.2316816434
20
-7.08355475927345
30
0
41
1
10
176.279225107381
20
-7.00750319719057
30
0
41
1
10
176.326816588023
20
-6.93114210637705
30
0
41
1
10
176.374461855195
20
-6.85447297001033
30
0
0
SPLINE
5
FA
100
AcDbEntity
8
1
62
256
6
ByLayer
370
18
48
1
60
0
100
AcDbSpline
70
4
71
3
72
8
73
4
40
0
40
0
40
0
40
0
40
1
40
1
40
1
40
1
41
1
10
176.382457635401
20
-6.83385877649405
30
0
41
1
10
176.379791285971
20
-6.84073086137542
30
0
41
1
10
176.377126023875
20
-6.84760225760385
30
0
41
1
10
176.374461855195
20
-6.85447297001033
30
0
0
SPLINE
5
FB
100
AcDbEntity
8
1
62
256
6
ByLayer
370
18
48
1
60
0
100
AcDbSpline
70
4
71
3
72
39
73
35
40
0
40
0
40
0
40
0
40
0.106134579993754
40
0.106134579993754
40
0.212269159987508
40
0.212269159987508
40
0.318403739981262
40
0.318403739981262
40
0.371471029978139
40
0.371471029978139
40
0.424538319975017
40
0.424538319975017
40
0.477605609971894
40
0.477605609971894
40
0.53067289996877
40
0.53067289996877
40
0.583740189965647
40
0.583740189965647
40
0.597007012464865
40
0.597007012464865
40
0.610273834964083
40
0.636807479962518
40
0.636807479962518
40
0.689874769959385
40
0.689874769959385
40
0.742942059956252
40
0.742942059956252
40
0.849076639949983
40
0.849076639949983
40
0.902143929946847
40
0.902143929946847
40
0.955211219943711
40
0.955211219943711
40
1
40
1
40
1
40
1
41
1
10
176.382457635401
20
-6.83385877649403
30
0
41
1
10
175.663515953733
20
-6.79042836723869
30
0
41
1
10
174.948903964724
20
-6.71945888741186
30
0
41
1
10
173.525050826629
20
-6.52590911678973
30
0
41
1
10
172.81579149254
20
-6.40336654645006
30
0
41
1
10
171.399493274198
20
-6.10996505697867
30
0
41
1
10
170.692468389479
20
-5.93904609692027
30
0
41
1
10
169.631095174479
20
-5.64895097387893
30
0
41
1
10
169.277170125354
20
-5.54661538671942
30
0
41
1
10
168.56869107525
20
-5.33116407283427
30
0
41
1
10
168.214140617016
20
-5.21805429881181
30
0
41
1
10
167.50399518477
20
-4.98147845881496
30
0
41
1
10
167.148399228648
20
-4.85799732705598
30
0
41
1
10
166.435726335869
20
-4.60125758017583
30
0
41
1
10
166.078646532797
20
-4.4680152519681
30
0
41
1
10
165.362593869819
20
-4.1921977585009
30
0
41
1
10
165.003620977154
20
-4.04960771889995
30
0
41
1
10
164.553464742896
20
-3.86587739925949
30
0
41
1
10
164.463382052802
20
-3.82886499456103
30
0
41
1
10
164.283431698106
20
-3.75445336963824
30
0
41
1
10
164.013695760611
20
-3.64220156425054
30
0
41
1
10
163.744498187599
20
-3.5281076237919
30
0
41
1
10
163.206741173171
20
-3.2976227004217
30
0
41
1
10
162.849089873145
20
-3.14089797432823
30
0
41
1
10
162.135030543092
20
-2.82224219172701
30
0
41
1
10
161.778615398325
20
-2.66032530498615
30
0
41
1
10
160.710703437938
20
-2.1678232492165
30
0
41
1
10
160.0005396074
20
-1.83048543428555
30
0
41
1
10
158.935428209431
20
-1.31613327309518
30
0
41
1
10
158.580432910766
20
-1.14325026931974
30
0
41
1
10
157.870071364702
20
-0.795551771496861
30
0
41
1
10
157.514696693881
20
-0.620753462155847
30
0
41
1
10
156.858707819748
20
-0.297324491274878
30
0
41
1
10
156.558199995656
20
-0.148864064928659
30
0
41
1
10
156.257302323888
20
-0.0002431713410544
30
0
0
SPLINE
5
FC
100
AcDbEntity
8
1
62
256
6
ByLayer
370
18
48
1
60
0
100
AcDbSpline
70
4
71
3
72
84
73
80
40
0
40
0
40
0
40
0
40
0.02567328184178
40
0.02567328184178
40
0.0385099227626701
40
0.0385099227626701
40
0.0513465636835601
40
0.0513465636835601
40
0.102693127367119
40
0.102693127367119
40
0.128366409208897
40
0.128366409208897
40
0.141203050129786
40
0.141203050129786
40
0.154039691050675
40
0.154039691050675
40
0.205386254734234
40
0.205386254734234
40
0.231059536576012
40
0.231059536576012
40
0.243896177496902
40
0.243896177496902
40
0.256732818417791
40
0.256732818417791
40
0.308079382101352
40
0.308079382101352
40
0.333752663943133
40
0.333752663943133
40
0.359425945784914
40
0.359425945784914
40
0.372262586705804
40
0.372262586705804
40
0.385099227626695
40
0.410772509468475
40
0.410772509468475
40
0.436445791310256
40
0.436445791310256
40
0.462119073152037
40
0.462119073152037
40
0.474955714072928
40
0.474955714072928
40
0.487792354993818
40
0.513465636835597
40
0.513465636835597
40
0.564812200519157
40
0.564812200519157
40
0.577648841440047
40
0.577648841440047
40
0.590485482360936
40
0.590485482360936
40
0.616158764202716
40
0.616158764202716
40
0.667505327886276
40
0.667505327886276
40
0.680341968807166
40
0.680341968807166
40
0.693178609728056
40
0.693178609728056
40
0.718851891569836
40
0.718851891569836
40
0.770198455253394
40
0.770198455253394
40
0.795871737095173
40
0.795871737095173
40
0.808708378016063
40
0.808708378016063
40
0.821545018936952
40
0.821545018936952
40
0.872891582620506
40
0.872891582620506
40
0.898564864462283
40
0.898564864462283
40
0.911401505383172
40
0.911401505383172
40
0.924238146304061
40
0.924238146304061
40
0.975584709987618
40
0.975584709987618
40
1
40
1
40
1
40
1
41
1
10
176.231681643402
20
-7.08355475927453
30
0
41
1
10
175.874434434287
20
-7.05905775979275
30
0
41
1
10
175.517199269585
20
-7.027510804999
30
0
41
1
10
174.981059252391
20
-6.96972993226731
30
0
41
1
10
174.80223883678
20
-6.94871826461463
30
0
41
1
10
174.44481798923
20
-6.90327593887292
30
0
41
1
10
174.266210663798
20
-6.87884598260186
30
0
41
1
10
173.373554861221
20
-6.74825273720617
30
0
41
1
10
172.660639109204
20
-6.61676394022638
30
0
41
1
10
171.590540642935
20
-6.38093276079874
30
0
41
1
10
171.233722015832
20
-6.29588669190522
30
0
41
1
10
170.697950022436
20
-6.15895796498685
30
0
41
1
10
170.519268799329
20
-6.11175535250959
30
0
41
1
10
170.161669590415
20
-6.01427719633165
30
0
41
1
10
169.982867546139
20
-5.96403235196092
30
0
41
1
10
169.089573037195
20
-5.70569243626824
30
0
41
1
10
168.376408321909
20
-5.47598514219925
30
0
41
1
10
167.306271399892
20
-5.10020115927483
30
0
41
1
10
166.949489685471
20
-4.96974156591949
30
0
41
1
10
166.413848588801
20
-4.76674147776657
30
0
41
1
10
166.235223376748
20
-4.69785675650053
30
0
41
1
10
165.877762267084
20
-4.55772518259468
30
0
41
1
10
165.698848181867
20
-4.4864463415816
30
0
41
1
10
164.804861078779
20
-4.12483845172815
30
0
41
1
10
164.091337715876
20
-3.81879950100748
30
0
41
1
10
163.020974059598
20
-3.33897587154141
30
0
41
1
10
162.664172214031
20
-3.17557481403679
30
0
41
1
10
161.950048166719
20
-2.84270130786066
30
0
41
1
10
161.592726537311
20
-2.67322914571318
30
0
41
1
10
161.056061974358
20
-2.41497231439052
30
0
41
1
10
160.877181989582
20
-2.32827046653728
30
0
41
1
10
160.519706750212
20
-2.15390806515015
30
0
41
1
10
159.98376884206
20
-1.89085420112684
30
0
41
1
10
159.44838475981
20
-1.62378927996099
30
0
41
1
10
158.734627484712
20
-1.26491443578962
30
0
41
1
10
158.377792232314
20
-1.08408378619481
30
0
41
1
10
157.663713643886
20
-0.720590602895129
30
0
41
1
10
157.306471456009
20
-0.537926342864637
30
0
41
1
10
156.770012496688
20
-0.263115881905037
30
0
41
1
10
156.591015670868
20
-0.171337371482593
30
0
41
1
10
156.233265152681
20
0.0121110254831649
30
0
41
1
10
155.69695428705
20
0.287144416685862
30
0
41
1
10
155.161312058734
20
0.561222812771234
30
0
41
1
10
154.090314758999
20
1.10693337870478
30
0
41
1
10
153.376667593001
20
1.46741494446505
30
0
41
1
10
152.482826861334
20
1.90956120988372
30
0
41
1
10
152.30397146022
20
1.99757126140636
30
0
41
1
10
151.946029470128
20
2.17264350147769
30
0
41
1
10
151.767071268278
20
2.25964254383388
30
0
41
1
10
151.230612669704
20
2.51864497808569
30
0
41
1
10
150.873319978652
20
2.68871715040362
30
0
41
1
10
149.801859274743
20
3.1900591658069
30
0
41
1
10
149.088150295313
20
3.51252353058942
30
0
41
1
10
148.194518975727
20
3.89699058079847
30
0
41
1
10
148.015718243222
20
3.97295414329923
30
0
41
1
10
147.657913983712
20
4.12292861010283
30
0
41
1
10
147.478833553619
20
4.19697052729165
30
0
41
1
10
146.941968942571
20
4.41571213413482
30
0
41
1
10
146.58446847991
20
4.55704449977966
30
0
41
1
10
145.512532547538
20
4.96663920385592
30
0
41
1
10
144.798677117788
20
5.22051425012472
30
0
41
1
10
143.726381301836
20
5.56894171619894
30
0
41
1
10
143.368735585181
20
5.67973589169469
30
0
41
1
10
142.831585447492
20
5.83741957005788
30
0
41
1
10
142.652552713249
20
5.88851798408649
30
0
41
1
10
142.294756328603
20
5.98765400174122
30
0
41
1
10
142.115947432072
20
6.03570488107988
30
0
41
1
10
141.222206167728
20
6.26824890602754
30
0
41
1
10
140.508175842263
20
6.42959496674368
30
0
41
1
10
139.4359259093
20
6.63241163193692
30
0
41
1
10
139.078351288267
20
6.69351626657956
30
0
41
1
10
138.541402429912
20
6.77513079703786
30
0
41
1
10
138.362240310997
20
6.80066834674471
30
0
41
1
10
138.004160506325
20
6.84827651998268
30
0
41
1
10
137.825220505402
20
6.87035325795443
30
0
41
1
10
136.930897184255
20
6.97207343867495
30
0
41
1
10
136.216634206732
20
7.02571082628805
30
0
41
1
10
135.161894303227
20
7.0633671243551
30
0
41
1
10
134.821895524844
20
7.06915172725843
30
0
41
1
10
134.481601967188
20
7.06854183839485
30
0
0
SPLINE
5
FD
100
AcDbEntity
8
1
62
256
6
ByLayer
370
13
48
1
60
0
100
AcDbSpline
70
4
71
3
72
10
73
6
40
0
40
0
40
0
40
0
40
0.369269990550248
40
0.369269990550248
40
1
40
1
40
1
40
1
41
1
10
107.705251808037
20
6.91166211506578
30
0
41
1
10
107.705147429451
20
6.89164263125377
30
0
41
1
10
107.705042771336
20
6.87162320468693
30
0
41
1
10
107.704758595288
20
6.81740984000794
30
0
41
1
10
107.704578541217
20
6.78321601286356
30
0
41
1
10
107.704397671596
20
6.74902235792655
30
0
0
SPLINE
5
FE
100
AcDbEntity
8
1
62
256
6
ByLayer
370
18
48
1
60
0
100
AcDbSpline
70
4
71
3
72
121
73
117
40
0
40
0
40
0
40
0
40
0.0233138275184163
40
0.0233138275184163
40
0.0466276550368327
40
0.0466276550368327
40
0.069941482555249
40
0.069941482555249
40
0.0815983963144572
40
0.0815983963144572
40
0.0932553100736653
40
0.0932553100736653
40
0.11656913759208
40
0.11656913759208
40
0.139882965110495
40
0.139882965110495
40
0.151539878869702
40
0.151539878869702
40
0.163196792628908
40
0.163196792628908
40
0.186510620147321
40
0.186510620147321
40
0.209824447665732
40
0.209824447665732
40
0.233138275184145
40
0.233138275184145
40
0.244795188943351
40
0.244795188943351
40
0.256452102702558
40
0.256452102702558
40
0.279765930220973
40
0.279765930220973
40
0.303079757739388
40
0.303079757739388
40
0.326393585257802
40
0.326393585257802
40
0.33805049901701
40
0.33805049901701
40
0.349707412776217
40
0.349707412776217
40
0.373021240294634
40
0.373021240294634
40
0.39633506781305
40
0.39633506781305
40
0.419648895331466
40
0.419648895331466
40
0.442962722849882
40
0.442962722849882
40
0.466276550368299
40
0.466276550368299
40
0.489590377886715
40
0.489590377886715
40
0.501247291645923
40
0.501247291645923
40
0.512904205405131
40
0.536218032923547
40
0.536218032923547
40
0.547874946682755
40
0.547874946682755
40
0.559531860441964
40
0.559531860441964
40
0.582845687960379
40
0.582845687960379
40
0.594502601719587
40
0.594502601719587
40
0.606159515478795
40
0.606159515478795
40
0.629473342997212
40
0.629473342997212
40
0.641130256756422
40
0.641130256756422
40
0.652787170515632
40
0.652787170515632
40
0.664444084274841
40
0.664444084274841
40
0.676100998034051
40
0.676100998034051
40
0.68775791179326
40
0.68775791179326
40
0.69941482555247
40
0.69941482555247
40
0.722728653070889
40
0.722728653070889
40
0.734385566830098
40
0.734385566830098
40
0.746042480589308
40
0.746042480589308
40
0.757699394348518
40
0.757699394348518
40
0.769356308107727
40
0.769356308107727
40
0.781013221866937
40
0.781013221866937
40
0.792670135626146
40
0.792670135626146
40
0.815983963144567
40
0.815983963144567
40
0.839297790662987
40
0.839297790662987
40
0.850954704422198
40
0.850954704422198
40
0.862611618181409
40
0.862611618181409
40
0.88592544569983
40
0.88592544569983
40
0.90923927321825
40
0.90923927321825
40
0.932553100736671
40
0.932553100736671
40
0.944210014495881
40
0.944210014495881
40
0.955866928255092
40
0.955866928255092
40
0.979180755773511
40
0.979180755773511
40
1
40
1
40
1
40
1
41
1
10
107.705251808037
20
6.91166211506578
30
0
41
1
10
108.063126011216
20
6.94430612081953
30
0
41
1
10
108.421092371095
20
6.96982472318086
30
0
41
1
10
109.137353685666
20
7.00679767192514
30
0
41
1
10
109.495673590444
20
7.01825033925297
30
0
41
1
10
110.212754139466
20
7.02711405267777
30
0
41
1
10
110.570865796723
20
7.024519181899
30
0
41
1
10
111.107525182921
20
7.01013030680161
30
0
41
1
10
111.286323984236
20
7.00358356620941
30
0
41
1
10
111.643734430748
20
6.98697276361168
30
0
41
1
10
111.822358143132
20
6.97690765613464
30
0
41
1
10
112.358363025445
20
6.94152377008513
30
0
41
1
10
112.715840954952
20
6.91102517606367
30
0
41
1
10
113.431156357615
20
6.83628405064997
30
0
41
1
10
113.78900050633
20
6.79203585488065
30
0
41
1
10
114.326356706944
20
6.71543796073348
30
0
41
1
10
114.505622788591
20
6.68819199082111
30
0
41
1
10
114.863791473134
20
6.63039627310579
30
0
41
1
10
115.042758643818
20
6.59983836875537
30
0
41
1
10
115.579269834383
20
6.50314981410227
30
0
41
1
10
115.936411972255
20
6.43197245653866
30
0
41
1
10
116.650918704361
20
6.27720920531644
30
0
41
1
10
117.008293819834
20
6.1936585208623
30
0
41
1
10
117.72342302763
20
6.01443902445166
30
0
41
1
10
118.081176511585
20
5.91876759582033
30
0
41
1
10
118.618259320027
20
5.76630542570709
30
0
41
1
10
118.797377419214
20
5.71398817596207
30
0
41
1
10
119.155713878801
20
5.60637310695492
30
0
41
1
10
119.334728876548
20
5.55113645223386
30
0
41
1
10
119.87133318262
20
5.38115140539901
30
0
41
1
10
120.22849707453
20
5.26213002812571
30
0
41
1
10
120.942958422934
20
5.01438780540303
30
0
41
1
10
121.300233996481
20
4.88565915973993
30
0
41
1
10
122.014930388511
20
4.61862155289626
30
0
41
1
10
122.3723590097
20
4.48031696000243
30
0
41
1
10
122.908960375504
20
4.26616821806854
30
0
41
1
10
123.087902968063
20
4.19366900563989
30
0
41
1
10
123.445957335429
20
4.04645647425738
30
0
41
1
10
123.625119843846
20
3.97172063472522
30
0
41
1
10
124.162004604963
20
3.74460989986596
30
0
41
1
10
124.519399795259
20
3.58925015129506
30
0
41
1
10
125.234095097693
20
3.27228991034838
30
0
41
1
10
125.591367223781
20
3.11065230004004
30
0
41
1
10
126.305693387098
20
2.78094665352072
30
0
41
1
10
126.662774921411
20
2.6129172560417
30
0
41
1
10
127.377686323392
20
2.27215960874082
30
0
41
1
10
127.73551389381
20
2.09937901760588
30
0
41
1
10
128.451742015414
20
1.74900493614572
30
0
41
1
10
128.809284583822
20
1.5718876448999
30
0
41
1
10
129.524077181626
20
1.21544449710345
30
0
41
1
10
129.881296043849
20
1.03606118328364
30
0
41
1
10
130.416729145363
20
0.764987910153366
30
0
41
1
10
130.595153720743
20
0.674321271857764
30
0
41
1
10
130.952183795475
20
0.49293436196993
30
0
41
1
10
131.487971267179
20
0.220717680685056
30
0
41
1
10
132.024364067282
20
-0.0521396860809773
30
0
41
1
10
132.561273736593
20
-0.325205221318868
30
0
41
1
10
132.740383815316
20
-0.416284875869337
30
0
41
1
10
133.09824267955
20
-0.598093434896015
30
0
41
1
10
133.27705514794
20
-0.688854564892665
30
0
41
1
10
133.813224612503
20
-0.96054577360502
30
0
41
1
10
134.170300813123
20
-1.14091115033838
30
0
41
1
10
134.705370377813
20
-1.41027714097348
30
0
41
1
10
134.883648496052
20
-1.49984337136192
30
0
41
1
10
135.240438813861
20
-1.6777800654873
30
0
41
1
10
135.418940286617
20
-1.76617233229638
30
0
41
1
10
135.954671452229
20
-2.02980640115325
30
0
41
1
10
136.312129661366
20
-2.20350266534788
30
0
41
1
10
136.848833380546
20
-2.46084530689012
30
0
41
1
10
137.027831319665
20
-2.54609539433361
30
0
41
1
10
137.385969546232
20
-2.71548570878738
30
0
41
1
10
137.56489673958
20
-2.79952517817722
30
0
41
1
10
137.922482537821
20
-2.96626255675957
30
0
41
1
10
138.101140165929
20
-3.04896242076251
30
0
41
1
10
138.458171332946
20
-3.21303823202211
30
0
41
1
10
138.636549852012
20
-3.29440401580578
30
0
41
1
10
138.993225066166
20
-3.45544794320617
30
0
41
1
10
139.171522778515
20
-3.53512418013267
30
0
41
1
10
139.528254094843
20
-3.69242547903755
30
0
41
1
10
139.706683099324
20
-3.77005968296103
30
0
41
1
10
140.242170134443
20
-3.99991583579731
30
0
41
1
10
140.599423568159
20
-4.14910311581792
30
0
41
1
10
141.135698943036
20
-4.36681196202662
30
0
41
1
10
141.314524252505
20
-4.43836694075767
30
0
41
1
10
141.672322002075
20
-4.5794166391222
30
0
41
1
10
141.851348343399
20
-4.64893114987203
30
0
41
1
10
142.208977165088
20
-4.78562428868423
30
0
41
1
10
142.38764163754
20
-4.85282934716105
30
0
41
1
10
142.744673269214
20
-4.98493955950758
30
0
41
1
10
142.923046536672
20
-5.04983379634518
30
0
41
1
10
143.279740509502
20
-5.17697466202057
30
0
41
1
10
143.458060194494
20
-5.23922331122549
30
0
41
1
10
143.814814162297
20
-5.36087170047963
30
0
41
1
10
143.993243409986
20
-5.42027983108633
30
0
41
1
10
144.528657721532
20
-5.59432327022134
30
0
41
1
10
144.885768660639
20
-5.70478230282686
30
0
41
1
10
145.600396970942
20
-5.91448429307016
30
0
41
1
10
145.957928857646
20
-6.01372976320343
30
0
41
1
10
146.494627079287
20
-6.15391316037287
30
0
41
1
10
146.673363977999
20
-6.19913655315582
30
0
41
1
10
147.030468242404
20
-6.28659884006098
30
0
41
1
10
147.20885032131
20
-6.32881915210504
30
0
41
1
10
147.744025789889
20
-6.45047195082142
30
0
41
1
10
148.100796515341
20
-6.52496540320504
30
0
41
1
10
148.81432735247
20
-6.66086100990148
30
0
41
1
10
149.171098966247
20
-6.72224473310354
30
0
41
1
10
149.885094326848
20
-6.83160557778874
30
0
41
1
10
150.242310254997
20
-6.87959275958178
30
0
41
1
10
150.778619937841
20
-6.9413808573014
30
0
41
1
10
150.95752386621
20
-6.9602829911708
30
0
41
1
10
151.314879456033
20
-6.99461255716798
30
0
41
1
10
151.493405940017
20
-7.01003977659008
30
0
41
1
10
152.028930558388
20
-7.05099886843456
30
0
41
1
10
152.385819001547
20
-7.07124966993084
30
0
41
1
10
153.061006696446
20
-7.09632366035646
30
0
41
1
10
153.379377724506
20
-7.10254077401319
30
0
41
1
10
153.697921549733
20
-7.1031308712119
30
0
0
SPLINE
5
FF
100
AcDbEntity
8
1
62
256
6
ByLayer
370
18
48
1
60
0
100
AcDbSpline
70
4
71
3
72
58
73
54
40
0
40
0
40
0
40
0
40
0.0054708188114938
40
0.0054708188114938
40
0.0296780330287345
40
0.0296780330287345
40
0.0538852472459752
40
0.0538852472459752
40
0.0780924614632162
40
0.0780924614632162
40
0.102299675680457
40
0.102299675680457
40
0.150714104114942
40
0.150714104114942
40
0.199128532549427
40
0.199128532549427
40
0.247542960983911
40
0.247542960983911
40
0.295957389418396
40
0.295957389418396
40
0.392786246287369
40
0.392786246287369
40
0.441200674721856
40
0.441200674721856
40
0.489615103156344
40
0.489615103156344
40
0.513822317373588
40
0.513822317373588
40
0.538029531590832
40
0.538029531590832
40
0.58644396002532
40
0.58644396002532
40
0.634858388459808
40
0.634858388459808
40
0.683272816894296
40
0.683272816894296
40
0.731687245328783
40
0.731687245328783
40
0.780101673763271
40
0.780101673763271
40
0.828516102197759
40
0.828516102197759
40
0.876930530632247
40
0.876930530632247
40
0.925344959066735
40
0.925344959066735
40
0.937448566175358
40
0.937448566175358
40
0.949552173283981
40
0.949552173283981
40
0.973759387501229
40
0.973759387501229
40
1
40
1
40
1
40
1
41
1
10
109.744299785955
20
6.76222009541422
30
0
41
1
10
109.785057622474
20
6.7628357967433
30
0
41
1
10
109.825818201501
20
6.76336212863649
30
0
41
1
10
110.046951556349
20
6.76573488192801
30
0
41
1
10
110.227427956391
20
6.76592761916106
30
0
41
1
10
110.58829204811
20
6.7629089278536
30
0
41
1
10
110.768466927752
20
6.75969992699325
30
0
41
1
10
111.12833520634
20
6.74999948998442
30
0
41
1
10
111.308025859163
20
6.74351477485874
30
0
41
1
10
111.666932568873
20
6.72743209967217
30
0
41
1
10
111.84615759634
20
6.71780475542408
30
0
41
1
10
112.38339640365
20
6.68356135788781
30
0
41
1
10
112.740948010519
20
6.65367610990899
30
0
41
1
10
113.455049787073
20
6.58085570883321
30
0
41
1
10
113.811603211532
20
6.5379083858017
30
0
41
1
10
114.524097640449
20
6.43925252569431
30
0
41
1
10
114.880065198776
20
6.38350609569639
30
0
41
1
10
115.591451170989
20
6.26013689659968
30
0
41
1
10
115.94682743501
20
6.1925813417617
30
0
41
1
10
117.013746936643
20
5.97080064406128
30
0
41
1
10
117.726158199214
20
5.79730756457707
30
0
41
1
10
118.797529001577
20
5.50327835302372
30
0
41
1
10
119.155112579405
20
5.39963579795781
30
0
41
1
10
119.87113205782
20
5.18168077553284
30
0
41
1
10
120.229567235321
20
5.06738026359682
30
0
41
1
10
120.768935521191
20
4.88764555828843
30
0
41
1
10
120.94900993541
20
4.82635186795997
30
0
41
1
10
121.309725930657
20
4.70110588057091
30
0
41
1
10
121.489917151567
20
4.63730988598451
30
0
41
1
10
122.029827527197
20
4.44267810045008
30
0
41
1
10
122.388980740479
20
4.30856526275804
30
0
41
1
10
123.106139671176
20
4.03239018555325
30
0
41
1
10
123.464140898771
20
3.89032445216338
30
0
41
1
10
124.179174373037
20
3.59891242065655
30
0
41
1
10
124.536219652863
20
3.44957564331796
30
0
41
1
10
125.250195678708
20
3.14448932094572
30
0
41
1
10
125.607109011961
20
2.98872879552326
30
0
41
1
10
126.320749245908
20
2.67134005104728
30
0
41
1
10
126.677493876094
20
2.50972711715565
30
0
41
1
10
127.391702482768
20
2.18174028505277
30
0
41
1
10
127.749148491377
20
2.01534878188434
30
0
41
1
10
128.46464392338
20
1.67815154372087
30
0
41
1
10
128.822710852239
20
1.50736587185796
30
0
41
1
10
129.540365267725
20
1.16264682660187
30
0
41
1
10
129.899927719004
20
0.988682389716814
30
0
41
1
10
130.350081581012
20
0.769210271052373
30
0
41
1
10
130.440188743286
20
0.725201697558191
30
0
41
1
10
130.620288387662
20
0.637164493485301
30
0
41
1
10
130.710285570722
20
0.593134895833941
30
0
41
1
10
130.980148723289
20
0.461102894164412
30
0
41
1
10
131.15988117185
20
0.37313925516122
30
0
41
1
10
131.534097214467
20
0.189924030822567
30
0
41
1
10
131.72855225183
20
0.0946834611901579
30
0
41
1
10
131.922830954347
20
-0.0004752567459718
30
0
0
SPLINE
5
100
100
AcDbEntity
8
1
62
256
6
ByLayer
370
18
48
1
60
0
100
AcDbSpline
70
4
71
3
72
58
73
54
40
0
40
0
40
0
40
0
40
0.0034090518931624
40
0.0034090518931624
40
0.0514236490604602
40
0.0514236490604602
40
0.0754309476441105
40
0.0754309476441105
40
0.0874345969359357
40
0.0874345969359357
40
0.0994382462277608
40
0.0994382462277608
40
0.147452843395059
40
0.147452843395059
40
0.195467440562356
40
0.195467440562356
40
0.243482037729654
40
0.243482037729654
40
0.291496634896952
40
0.291496634896952
40
0.339511232064249
40
0.339511232064249
40
0.387525829231547
40
0.387525829231547
40
0.435540426398845
40
0.435540426398845
40
0.483555023566142
40
0.483555023566142
40
0.50756232214979
40
0.50756232214979
40
0.531569620733437
40
0.531569620733437
40
0.579584217900729
40
0.579584217900729
40
0.627598815068021
40
0.627598815068021
40
0.723628009402601
40
0.723628009402601
40
0.77164260656989
40
0.77164260656989
40
0.819657203737179
40
0.819657203737179
40
0.867671800904468
40
0.867671800904468
40
0.915686398071757
40
0.915686398071757
40
0.9396936966554
40
0.9396936966554
40
0.963700995239042
40
0.963700995239042
40
0.987708293822685
40
0.987708293822685
40
1
40
1
40
1
40
1
41
1
10
132.489193470289
20
-0.288562768149546
30
0
41
1
10
132.463783994147
20
-0.276139185606411
30
0
41
1
10
132.438371859617
20
-0.263713617139075
30
0
41
1
10
132.055002826285
20
-0.0762530430592108
30
0
41
1
10
131.696503416585
20
0.099132366011446
30
0
41
1
10
131.157763093294
20
0.362528301063662
30
0
41
1
10
130.978017455932
20
0.450377985889844
30
0
41
1
10
130.708135842361
20
0.582243774441764
30
0
41
1
10
130.618132594674
20
0.626218526931694
30
0
41
1
10
130.438020497837
20
0.714146108031713
30
0
41
1
10
130.347905419262
20
0.75810084533714
30
0
41
1
10
129.897709891967
20
0.977306107309204
30
0
41
1
10
129.53811368707
20
1.15107030837172
30
0
41
1
10
128.820391076188
20
1.4954198713084
30
0
41
1
10
128.46228815926
20
1.66603176955789
30
0
41
1
10
127.746719098545
20
2.00290270651135
30
0
41
1
10
127.389236719693
20
2.16914511914374
30
0
41
1
10
126.674955776781
20
2.49686248498568
30
0
41
1
10
126.318173632935
20
2.65835114589032
30
0
41
1
10
125.604458086798
20
2.97551203467432
30
0
41
1
10
125.247508585913
20
3.13117285923198
30
0
41
1
10
124.53346271327
20
3.43608907787748
30
0
41
1
10
124.176381789798
20
3.58535104059124
30
0
41
1
10
123.461277994992
20
3.87663346524508
30
0
41
1
10
123.103243509201
20
4.01864746584587
30
0
41
1
10
122.386022475883
20
4.29474661456484
30
0
41
1
10
122.026839905144
20
4.42883418943941
30
0
41
1
10
121.486888265718
20
4.62344627495082
30
0
41
1
10
121.306686261252
20
4.68723830642051
30
0
41
1
10
120.945940507537
20
4.81248682860127
30
0
41
1
10
120.765850756774
20
4.87378569478111
30
0
41
1
10
120.226435066528
20
5.05354757229748
30
0
41
1
10
119.867964302464
20
5.16787643708196
30
0
41
1
10
119.151870094152
20
5.38590867107808
30
0
41
1
10
118.794249245045
20
5.4896042733406
30
0
41
1
10
117.722765803476
20
5.78383248075596
30
0
41
1
10
117.010278570918
20
5.95751128339813
30
0
41
1
10
115.943242768077
20
6.17964373674459
30
0
41
1
10
115.58782476665
20
6.24732526791362
30
0
41
1
10
114.876355920056
20
6.3709666472275
30
0
41
1
10
114.520349299996
20
6.42686178155864
30
0
41
1
10
113.807778847271
20
6.52583721667543
30
0
41
1
10
113.451188249087
20
6.56895494674316
30
0
41
1
10
112.737014249884
20
6.64213669620344
30
0
41
1
10
112.379428204322
20
6.67221327288541
30
0
41
1
10
111.842140842323
20
6.70676046221217
30
0
41
1
10
111.662899480067
20
6.71649159488052
30
0
41
1
10
111.303959297027
20
6.73278572372354
30
0
41
1
10
111.124252306425
20
6.73937835249282
30
0
41
1
10
110.764353614049
20
6.74929996715662
30
0
41
1
10
110.584164412235
20
6.75262219130448
30
0
41
1
10
110.311330874379
20
6.75507934892264
30
0
41
1
10
110.21893125725
20
6.75546584386666
30
0
41
1
10
110.126540223322
20
6.7554013031592
30
0
0
SPLINE
5
101
100
AcDbEntity
8
1
62
256
6
ByLayer
370
18
48
1
60
0
100
AcDbSpline
70
4
71
3
72
8
73
4
40
0
40
0
40
0
40
0
40
1
40
1
40
1
40
1
41
1
10
176.350750810173
20
-0.445392644769584
30
0
41
1
10
176.327806139436
20
-0.433968731584486
30
0
41
1
10
176.304864764533
20
-0.422547102029966
30
0
41
1
10
176.281926658196
20
-0.411127822758232
30
0
0
SPLINE
5
102
100
AcDbEntity
8
1
62
256
6
ByLayer
370
18
48
1
60
0
100
AcDbSpline
70
4
71
3
72
51
73
47
40
0
40
0
40
0
40
0
40
0.0815199125928427
40
0.0815199125928427
40
0.129136693111281
40
0.129136693111281
40
0.176753473629719
40
0.176753473629719
40
0.224370254148157
40
0.224370254148157
40
0.271987034666595
40
0.271987034666595
40
0.319603815185033
40
0.319603815185033
40
0.367220595703471
40
0.367220595703471
40
0.414837376221909
40
0.414837376221909
40
0.462454156740347
40
0.462454156740347
40
0.510070937258785
40
0.510070937258785
40
0.521975132388395
40
0.521975132388395
40
0.533879327518005
40
0.557687717777223
40
0.557687717777223
40
0.60530449829566
40
0.60530449829566
40
0.652921278814099
40
0.652921278814099
40
0.700538059332537
40
0.700538059332537
40
0.748154839850975
40
0.748154839850975
40
0.795771620369413
40
0.795771620369413
40
0.843388400887851
40
0.843388400887851
40
0.891005181406289
40
0.891005181406289
40
0.938621961924727
40
0.938621961924727
40
0.986238742443164
40
0.986238742443164
40
1
40
1
40
1
40
1
41
1
10
176.041195830587
20
-0.291314789328908
30
0
41
1
10
175.428206076305
20
0.0136882600590127
30
0
41
1
10
174.817486880135
20
0.316842616068129
30
0
41
1
10
173.852809090026
20
0.792123599792745
30
0
41
1
10
173.497697007724
20
0.966308513856774
30
0
41
1
10
172.788620554509
20
1.31212592191613
30
0
41
1
10
172.43466823119
20
1.4837724259169
30
0
41
1
10
171.727247495641
20
1.82342781115469
30
0
41
1
10
171.373764489602
20
1.99141979322843
30
0
41
1
10
170.667023900235
20
2.32309417130907
30
0
41
1
10
170.313783269941
20
2.48678943807326
30
0
41
1
10
169.60693277561
20
2.80897081100792
30
0
41
1
10
169.253301628952
20
2.96743875820232
30
0
41
1
10
168.545389226461
20
3.2784917975751
30
0
41
1
10
168.191120674194
20
3.43108632447769
30
0
41
1
10
167.481539458199
20
3.72963739304913
30
0
41
1
10
167.126214031685
20
3.87559743694453
30
0
41
1
10
166.41425094462
20
4.15999137356241
30
0
41
1
10
166.057643573202
20
4.29840367431322
30
0
41
1
10
165.34245074193
20
4.56707818004287
30
0
41
1
10
164.983832506126
20
4.69735363404112
30
0
41
1
10
164.534077135002
20
4.85462349073154
30
0
41
1
10
164.444062198667
20
4.88579463981489
30
0
41
1
10
164.264235678626
20
4.94744590193483
30
0
41
1
10
163.994669770361
20
5.03893237787295
30
0
41
1
10
163.725618708522
20
5.12740919811571
30
0
41
1
10
163.188184900373
20
5.30025079377322
30
0
41
1
10
162.830784458048
20
5.41002318271882
30
0
41
1
10
162.117711944688
20
5.61764801828738
30
0
41
1
10
161.762110542642
20
5.71539860874867
30
0
41
1
10
161.051412606184
20
5.89960757064495
30
0
41
1
10
160.696220356706
20
5.98617885847605
30
0
41
1
10
159.986290995081
20
6.14722159082348
30
0
41
1
10
159.631614371949
20
6.22160968588437
30
0
41
1
10
158.922239325509
20
6.35822003877499
30
0
41
1
10
158.56749762634
20
6.42052916159716
30
0
41
1
10
157.857875360969
20
6.53192514078876
30
0
41
1
10
157.503052783462
20
6.58086341668411
30
0
41
1
10
156.792522682435
20
6.66617324750072
30
0
41
1
10
156.436753535903
20
6.70271242496318
30
0
41
1
10
155.724127292902
20
6.76221669678532
30
0
41
1
10
155.367318940835
20
6.78500828320537
30
0
41
1
10
154.652062098315
20
6.81749996428923
30
0
41
1
10
154.293574353107
20
6.82737105450525
30
0
41
1
10
153.830245559538
20
6.83097019833284
30
0
41
1
10
153.726244018614
20
6.83117406394445
30
0
41
1
10
153.622231410099
20
6.8307825736147
30
0
0
SPLINE
5
103
100
AcDbEntity
8
1
62
256
6
ByLayer
370
18
48
1
60
0
100
AcDbSpline
70
4
71
3
72
8
73
4
40
0
40
0
40
0
40
0
40
1
40
1
40
1
40
1
41
1
10
176.348548122737
20
-0.433815928006197
30
0
41
1
10
176.350450891716
20
-0.43442153617741
30
0
41
1
10
176.351456055004
20
-0.439610545877542
30
0
41
1
10
176.350750810181
20
-0.445392644773506
30
0
0
SPLINE
5
104
100
AcDbEntity
8
1
62
256
6
ByLayer
370
18
48
1
60
0
100
AcDbSpline
70
4
71
3
72
53
73
49
40
0
40
0
40
0
40
0
40
0.006152964288048
40
0.006152964288048
40
0.0301879591297714
40
0.0301879591297714
40
0.0782579488132176
40
0.0782579488132176
40
0.126327938496664
40
0.126327938496664
40
0.174397928180111
40
0.174397928180111
40
0.222467917863557
40
0.222467917863557
40
0.270537907547004
40
0.270537907547004
40
0.318607897230451
40
0.318607897230451
40
0.366677886913897
40
0.366677886913897
40
0.414747876597344
40
0.414747876597344
40
0.46281786628079
40
0.46281786628079
40
0.486852861122512
40
0.498870358543373
40
0.498870358543373
40
0.510887855964234
40
0.510887855964234
40
0.558957845647677
40
0.558957845647677
40
0.607027835331121
40
0.607027835331121
40
0.655097825014565
40
0.655097825014565
40
0.703167814698008
40
0.703167814698008
40
0.751237804381452
40
0.751237804381452
40
0.799307794064895
40
0.799307794064895
40
0.847377783748339
40
0.847377783748339
40
0.895447773431782
40
0.895447773431782
40
0.943517763115226
40
0.943517763115226
40
1
40
1
40
1
40
1
41
1
10
153.256444405707
20
6.83659945861763
30
0
41
1
10
153.302471926506
20
6.83742179929425
30
0
41
1
10
153.348507608076
20
6.83813078319542
30
0
41
1
10
153.574414875885
20
6.84104589471099
30
0
41
1
10
153.754489569655
20
6.84160078927675
30
0
41
1
10
154.293629868801
20
6.83783992643024
30
0
41
1
10
154.652092524952
20
6.82823938252335
30
0
41
1
10
155.367292961423
20
6.79626878089172
30
0
41
1
10
155.724071084067
20
6.77373168195047
30
0
41
1
10
156.436633744078
20
6.71471430905314
30
0
41
1
10
156.792368505701
20
6.67840312020516
30
0
41
1
10
157.502825131024
20
6.5935285759447
30
0
41
1
10
157.857609571822
20
6.54480244245764
30
0
41
1
10
158.567154795391
20
6.43380875436154
30
0
41
1
10
158.921856775053
20
6.37168525379786
30
0
41
1
10
159.631149742681
20
6.23542107182098
30
0
41
1
10
159.985784401652
20
6.16119695987359
30
0
41
1
10
160.695629724373
20
6.00045653672467
30
0
41
1
10
161.050779711301
20
5.91401909733042
30
0
41
1
10
161.761390869128
20
5.73005358748986
30
0
41
1
10
162.116947989409
20
5.63241913417963
30
0
41
1
10
162.829934512775
20
5.42500363034617
30
0
41
1
10
163.187292870515
20
5.31531914048841
30
0
41
1
10
163.724665302957
20
5.14258559059343
30
0
41
1
10
163.993686189651
20
5.05415722076063
30
0
41
1
10
164.263222675541
20
4.96271057055495
30
0
41
1
10
164.443029746316
20
4.90108391036318
30
0
41
1
10
164.533034391258
20
4.86992432863332
30
0
41
1
10
164.982768007491
20
4.71269696727668
30
0
41
1
10
165.341364769099
20
4.58243971135806
30
0
41
1
10
166.056508324036
20
4.31377666115566
30
0
41
1
10
166.413089084229
20
4.17536126625541
30
0
41
1
10
167.124996341945
20
3.89093576130537
30
0
41
1
10
167.480291351877
20
3.74494368713596
30
0
41
1
10
168.189807494627
20
3.44629998333548
30
0
41
1
10
168.544041742887
20
3.29364606887211
30
0
41
1
10
169.251882616232
20
2.98244662993784
30
0
41
1
10
169.605476465926
20
2.82389106150075
30
0
41
1
10
170.312249707845
20
2.50150776295794
30
0
41
1
10
170.665450546971
20
2.33769936426202
30
0
41
1
10
171.372111251637
20
2.00577364326585
30
0
41
1
10
171.725553953509
20
1.83764200215148
30
0
41
1
10
172.432893338108
20
1.49767976392178
30
0
41
1
10
172.786804498527
20
1.32586685697186
30
0
41
1
10
173.495799737911
20
0.979690745179767
30
0
41
1
10
173.850871906146
20
0.805312205869484
30
0
41
1
10
174.624449434992
20
0.423689074788768
30
0
41
1
10
175.043183793882
20
0.216035084601259
30
0
41
1
10
175.462911863066
20
0.0073035579783891
30
0
0
SPLINE
5
105
100
AcDbEntity
8
1
62
256
6
ByLayer
370
18
48
1
60
0
100
AcDbSpline
70
4
71
3
72
8
73
4
40
0
40
0
40
0
40
0
40
1
40
1
40
1
40
1
41
1
10
176.256978646786
20
-0.402934492045119
30
0
41
1
10
176.287486648477
20
-0.413802412260282
30
0
41
1
10
176.318005787081
20
-0.424094995911247
30
0
41
1
10
176.348548122737
20
-0.433815928006254
30
0
0
SPLINE
5
106
100
AcDbEntity
8
1
62
256
6
ByLayer
370
18
48
1
60
0
100
AcDbSpline
70
4
71
3
72
12
73
8
40
0
40
0
40
0
40
0
40
0.440722786905025
40
0.440722786905025
40
0.88144557381005
40
0.88144557381005
40
1
40
1
40
1
40
1
41
1
10
107.705251808037
20
-6.91166211506578
30
0
41
1
10
108.063126011216
20
-6.94430612081953
30
0
41
1
10
108.421092371095
20
-6.96982472318086
30
0
41
1
10
109.137353685665
20
-7.00679767192514
30
0
41
1
10
109.495673590444
20
-7.01825033925297
30
0
41
1
10
109.950661195961
20
-7.02387436538595
30
0
41
1
10
110.047077511796
20
-7.02455807380846
30
0
41
1
10
110.143464562064
20
-7.02473388601049
30
0
0
SPLINE
5
107
100
AcDbEntity
8
1
62
256
6
ByLayer
370
18
48
1
60
0
100
AcDbSpline
70
4
71
3
72
62
73
58
40
0
40
0
40
0
40
0
40
0.022642120476876
40
0.022642120476876
40
0.0430037429669413
40
0.0430037429669413
40
0.0633653654570067
40
0.0633653654570067
40
0.104088610437135
40
0.104088610437135
40
0.144811855417264
40
0.144811855417264
40
0.185535100397392
40
0.185535100397392
40
0.205896722887457
40
0.205896722887457
40
0.226258345377521
40
0.226258345377521
40
0.26698159035765
40
0.26698159035765
40
0.307704835337778
40
0.307704835337778
40
0.348428080317907
40
0.348428080317907
40
0.368789702807971
40
0.368789702807971
40
0.389151325298035
40
0.389151325298035
40
0.429874570278166
40
0.429874570278166
40
0.470597815258297
40
0.470597815258297
40
0.511321060238428
40
0.511321060238428
40
0.552044305218559
40
0.552044305218559
40
0.59276755019869
40
0.59276755019869
40
0.63349079517882
40
0.63349079517882
40
0.674214040158951
40
0.674214040158951
40
0.714937285139082
40
0.714937285139082
40
0.735298907629148
40
0.735298907629148
40
0.755660530119213
40
0.755660530119213
40
0.796383775099344
40
0.796383775099344
40
0.837107020079475
40
0.837107020079475
40
0.877830265059607
40
0.877830265059607
40
0.918553510039738
40
0.918553510039738
40
1
40
1
40
1
40
1
41
1
10
150.003755972539
20
6.84579213834334
30
0
41
1
10
150.202365981092
20
6.87287864134828
30
0
41
1
10
150.401057953886
20
6.89788204028184
30
0
41
1
10
150.778619937841
20
6.9413808573014
30
0
41
1
10
150.95752386621
20
6.9602829911708
30
0
41
1
10
151.314879456033
20
6.99461255716798
30
0
41
1
10
151.493405940017
20
7.01003977659008
30
0
41
1
10
152.028930558388
20
7.05099886843456
30
0
41
1
10
152.385819001547
20
7.07124966993084
30
0
41
1
10
153.099171090539
20
7.09774094574138
30
0
41
1
10
153.455670794738
20
7.10395009493877
30
0
41
1
10
154.169197764123
20
7.10225110439836
30
0
41
1
10
154.526191287677
20
7.09436571197998
30
0
41
1
10
155.06199575204
20
7.07191626813602
30
0
41
1
10
155.240661670403
20
7.06266002586725
30
0
41
1
10
155.598214545975
20
7.04060940695032
30
0
41
1
10
155.776876340195
20
7.02782938275098
30
0
41
1
10
156.312678279157
20
6.98429905315956
30
0
41
1
10
156.669604653139
20
6.94836380178859
30
0
41
1
10
157.38281690942
20
6.86263971438041
30
0
41
1
10
157.739147543806
20
6.81284327529912
30
0
41
1
10
158.452344771858
20
6.69999481991226
30
0
41
1
10
158.809169067894
20
6.63694434104201
30
0
41
1
10
159.344707913842
20
6.53238439018668
30
0
41
1
10
159.523277317324
20
6.49586832168731
30
0
41
1
10
159.88062041767
20
6.41956836480767
30
0
41
1
10
160.059451617587
20
6.3797707625412
30
0
41
1
10
160.595490152507
20
6.25577979346571
30
0
41
1
10
160.952455673448
20
6.16692730931933
30
0
41
1
10
161.66548384914
20
5.9766971237689
30
0
41
1
10
162.021605192106
20
5.87534944315601
30
0
41
1
10
162.734405135204
20
5.66168217741199
30
0
41
1
10
163.091037215224
20
5.54933488161348
30
0
41
1
10
163.804857104649
20
5.31378312294976
30
0
41
1
10
164.162051002125
20
5.19057823656897
30
0
41
1
10
164.877163172338
20
4.93346404270758
30
0
41
1
10
165.234147793645
20
4.79988584223867
30
0
41
1
10
165.947239668162
20
4.52304139651355
30
0
41
1
10
166.30338719568
20
4.37982203416027
30
0
41
1
10
167.016021490081
20
4.08555738179223
30
0
41
1
10
167.372466335903
20
3.93446199177904
30
0
41
1
10
168.085675853524
20
3.62446984599055
30
0
41
1
10
168.442455720773
20
3.46559206102464
30
0
41
1
10
168.978256065718
20
3.2220457384129
30
0
41
1
10
169.157040032448
20
3.13995147338809
30
0
41
1
10
169.514034723906
20
2.97443368325429
30
0
41
1
10
169.692326583499
20
2.89097369156522
30
0
41
1
10
170.226636339017
20
2.63858743545106
30
0
41
1
10
170.582101180275
20
2.46767705020525
30
0
41
1
10
171.292265028415
20
2.12191374964334
30
0
41
1
10
171.646952818673
20
1.94704177586365
30
0
41
1
10
172.355794371929
20
1.59381307028176
30
0
41
1
10
172.709954419081
20
1.41546641039906
30
0
41
1
10
173.418442601171
20
1.0566441491392
30
0
41
1
10
173.772768770311
20
0.876167281120388
30
0
41
1
10
174.836161472971
20
0.331861981452363
30
0
41
1
10
175.545617705595
20
-0.0348887545183061
30
0
41
1
10
176.256978646784
20
-0.402934492045233
30
0
0
SPLINE
5
108
100
AcDbEntity
8
1
62
256
6
ByLayer
370
18
48
1
60
0
100
AcDbSpline
70
4
71
3
72
118
73
114
40
0
40
0
40
0
40
0
40
0.0625000000000208
40
0.0625000000000208
40
0.125000000000042
40
0.125000000000042
40
0.156250000000052
40
0.156250000000052
40
0.187500000000062
40
0.187500000000062
40
0.250000000000081
40
0.250000000000081
40
0.281250000000091
40
0.281250000000091
40
0.283203125000091
40
0.284179687500091
40
0.284179687500091
40
0.285156250000091
40
0.285156250000091
40
0.287109375000091
40
0.287109375000091
40
0.288085937500091
40
0.288085937500091
40
0.289062500000091
40
0.289062500000091
40
0.289550781250091
40
0.289550781250091
40
0.290039062500091
40
0.290039062500091
40
0.29101562500009
40
0.29101562500009
40
0.292968750000089
40
0.296875000000089
40
0.312500000000085
40
0.312500000000085
40
0.343750000000078
40
0.343750000000078
40
0.375000000000071
40
0.375000000000071
40
0.382812500000069
40
0.382812500000069
40
0.390625000000067
40
0.390625000000067
40
0.406250000000064
40
0.406250000000064
40
0.437500000000057
40
0.437500000000057
40
0.453125000000054
40
0.453125000000054
40
0.468750000000051
40
0.468750000000051
40
0.484375000000047
40
0.484375000000047
40
0.488281250000047
40
0.488281250000047
40
0.492187500000046
40
0.500000000000045
40
0.500000000000045
40
0.515625000000043
40
0.515625000000043
40
0.531250000000041
40
0.531250000000041
40
0.53515625000004
40
0.53515625000004
40
0.53906250000004
40
0.546875000000039
40
0.562500000000037
40
0.578125000000035
40
0.578125000000035
40
0.582031250000035
40
0.582031250000035
40
0.585937500000034
40
0.585937500000034
40
0.593750000000033
40
0.593750000000033
40
0.609375000000031
40
0.609375000000031
40
0.625000000000029
40
0.625000000000029
40
0.628906250000029
40
0.628906250000029
40
0.632812500000029
40
0.640625000000028
40
0.640625000000028
40
0.656250000000026
40
0.656250000000026
40
0.687500000000023
40
0.687500000000023
40
0.695312500000022
40
0.695312500000022
40
0.703125000000021
40
0.703125000000021
40
0.718750000000019
40
0.718750000000019
40
0.750000000000015
40
0.750000000000015
40
0.781250000000011
40
0.781250000000011
40
0.79687500000001
40
0.79687500000001
40
0.804687500000009
40
0.804687500000009
40
0.812500000000009
40
0.812500000000009
40
0.843750000000008
40
0.843750000000008
40
0.875000000000006
40
0.875000000000006
40
0.906250000000005
40
0.906250000000005
40
0.937500000000004
40
0.937500000000004
40
1
40
1
40
1
40
1
41
1
10
16.112757830932
20
3.59628943988739
30
0
41
1
10
15.7225797521107
20
3.76074247002631
30
0
41
1
10
15.3297287748565
20
3.91509771998338
30
0
41
1
10
14.5370071497186
20
4.20263061059046
30
0
41
1
10
14.1371271770883
20
4.33579589050177
30
0
41
1
10
13.5309530225007
20
4.51946156709272
30
0
41
1
10
13.3277766847066
20
4.57802624346186
30
0
41
1
10
12.9200102098798
20
4.68965183881448
30
0
41
1
10
12.7153272654916
20
4.74274028120465
30
0
41
1
10
12.0987278771487
20
4.89402823748827
30
0
41
1
10
11.6842550970246
20
4.98424429080004
30
0
41
1
10
11.0569648977285
20
5.10461337769212
30
0
41
1
10
10.8469073046971
20
5.14225142440316
30
0
41
1
10
10.6227759602634
20
5.17967959798796
30
0
41
1
10
10.6029951986062
20
5.18296784813415
30
0
41
1
10
10.5832078006048
20
5.18623483424818
30
0
41
1
10
10.5700146296181
20
5.18840787762883
30
0
41
1
10
10.5634255064946
20
5.18953094001174
30
0
41
1
10
10.5435545972271
20
5.19238131605667
30
0
41
1
10
10.5301401983742
20
5.19344437744516
30
0
41
1
10
10.5097090643716
20
5.19349232036345
30
0
41
1
10
10.5027988053408
20
5.1932279711929
30
0
41
1
10
10.4892795135538
20
5.19209184807494
30
0
41
1
10
10.4826249665805
20
5.19123601198726
30
0
41
1
10
10.4728493631129
20
5.18938657387864
30
0
41
1
10
10.4696242588555
20
5.18867837619135
30
0
41
1
10
10.4632507122253
20
5.18705136233459
30
0
41
1
10
10.460100420212
20
5.18611581188097
30
0
41
1
10
10.4508021924471
20
5.18310839532222
30
0
41
1
10
10.4450310097657
20
5.18058547369375
30
0
41
1
10
10.4275003531837
20
5.17329966940906
30
0
41
1
10
10.3924660856358
20
5.15867315650715
30
0
41
1
10
10.2643041162526
20
5.10443103740266
30
0
41
1
10
10.1487525549107
20
5.05325130130294
30
0
41
1
10
9.87340717396222
20
4.92652542006442
30
0
41
1
10
9.692796231502
20
4.83701299964625
30
0
41
1
10
9.3387144009954
20
4.64621339542495
30
0
41
1
10
9.16519365793707
20
4.54491948137067
30
0
41
1
10
8.95355256924759
20
4.40931878299907
30
0
41
1
10
8.91148861621869
20
4.38174710618071
30
0
41
1
10
8.82791656502579
20
4.32564949625527
30
0
41
1
10
8.78640233202157
20
4.29711781418351
30
0
41
1
10
8.66315815014025
20
4.2103103448905
30
0
41
1
10
8.5825861949919
20
4.15073257381496
30
0
41
1
10
8.34605965170701
20
3.96639116448418
30
0
41
1
10
8.19525349541183
20
3.83606622637322
30
0
41
1
10
7.98161508160686
20
3.62680278582619
30
0
41
1
10
7.91250624802376
20
3.5547421584676
30
0
41
1
10
7.7790212389902
20
3.40539988648885
30
0
41
1
10
7.71464325203956
20
3.32812031300932
30
0
41
1
10
7.59129344395313
20
3.16756144055643
30
0
41
1
10
7.53231864275676
20
3.08428553855845
30
0
41
1
10
7.46253788507144
20
2.97579660871492
30
0
41
1
10
7.44876417316016
20
2.9538527172995
30
0
41
1
10
7.42175423065203
20
2.90971270268292
30
0
41
1
10
7.38201299984738
20
2.84307710272898
30
0
41
1
10
7.34463822028039
20
2.77513808832347
30
0
41
1
10
7.27317889660128
20
2.63744326725518
30
0
41
1
10
7.22991971015873
20
2.54322802743729
30
0
41
1
10
7.15302192608564
20
2.34946110660516
30
0
41
1
10
7.11938061155837
20
2.24991094326953
30
0
41
1
10
7.08402899766273
20
2.12174239569936
30
0
41
1
10
7.07728699960037
20
2.09589126140136
30
0
41
1
10
7.06452872815888
20
2.04394291941864
30
0
41
1
10
7.04652291835092
20
1.96583769779542
30
0
41
1
10
7.01243377766323
20
1.78231066331978
30
0
41
1
10
6.98641821079141
20
1.51645012712123
30
0
41
1
10
6.99008759363718
20
1.29977205200291
30
0
41
1
10
7.00020031540714
20
1.16307023243411
30
0
41
1
10
7.00261414914357
20
1.1356659213962
30
0
41
1
10
7.0082299114755
20
1.080728439306
30
0
41
1
10
7.01143190295113
20
1.05321081667455
30
0
41
1
10
7.0221413080792
20
0.971040381663755
30
0
41
1
10
7.03076978128152
20
0.916579330088268
30
0
41
1
10
7.06092400147821
20
0.754111324110227
30
0
41
1
10
7.08671205887788
20
0.647018093056829
30
0
41
1
10
7.14878308474687
20
0.435081550752273
30
0
41
1
10
7.18506775408193
20
0.330238612106598
30
0
41
1
10
7.23655568453711
20
0.200500235874983
30
0
41
1
10
7.24716992285454
20
0.174597290181055
30
0
41
1
10
7.26889200893913
20
0.123177352674332
30
0
41
1
10
7.30224879729616
20
0.0465392316564248
30
0
41
1
10
7.33783965490343
20
-0.0286788563338689
30
0
41
1
10
7.41179749605311
20
-0.17735068769349
30
0
41
1
10
7.46479723510654
20
-0.274117221920392
30
0
41
1
10
7.63356430549956
20
-0.558211077387
30
0
41
1
10
7.75903642475242
20
-0.739372715526116
30
0
41
1
10
7.9290489773523
20
-0.957464299370571
30
0
41
1
10
7.96375340671653
20
-1.00070428600168
30
0
41
1
10
8.03400900513489
20
-1.08587572340235
30
0
41
1
10
8.06960413959285
20
-1.12786622863158
30
0
41
1
10
8.17770035863373
20
-1.25217000138963
30
0
41
1
10
8.25150929496232
20
-1.33281933211919
30
0
41
1
10
8.47756808759775
20
-1.56888773097387
30
0
41
1
10
8.63442224373887
20
-1.71846278193726
30
0
41
1
10
8.95814477168713
20
-2.00496991366583
30
0
41
1
10
9.12502709850932
20
-2.14188408065905
30
0
41
1
10
9.38173445337185
20
-2.33924488674708
30
0
41
1
10
9.46837209855747
20
-2.40369089884902
30
0
41
1
10
9.59982138516844
20
-2.49849279178062
30
0
41
1
10
9.64391619825642
20
-2.52980226680492
30
0
41
1
10
9.7323926679739
20
-2.59168442565223
30
0
41
1
10
9.7767821216793
20
-2.62226349975879
30
0
41
1
10
9.99945452802677
20
-2.77342892128826
30
0
41
1
10
10.1799042681133
20
-2.88884728105117
30
0
41
1
10
10.5447882921899
20
-3.11031740342
30
0
41
1
10
10.7292251174487
20
-3.21636273794573
30
0
41
1
10
11.1016220757703
20
-3.42029725259033
30
0
41
1
10
11.2895836935236
20
-3.51818267353343
30
0
41
1
10
11.668680600959
20
-3.70672452327395
30
0
41
1
10
11.8598168106383
20
-3.79737862064758
30
0
41
1
10
12.4375772196983
20
-4.05959415045885
30
0
41
1
10
12.8285346889547
20
-4.22145594467187
30
0
41
1
10
13.2244864987192
20
-4.37252969193318
30
0
0
SPLINE
5
109
100
AcDbEntity
8
1
62
256
6
ByLayer
370
18
48
1
60
0
100
AcDbSpline
70
4
71
3
72
70
73
66
40
0
40
0
40
0
40
0
40
0.0179356864214802
40
0.0179356864214802
40
0.0365427811922968
40
0.0365427811922968
40
0.0551498759631136
40
0.0551498759631136
40
0.0737569707339303
40
0.0737569707339303
40
0.092364065504747
40
0.092364065504747
40
0.110971160275564
40
0.110971160275564
40
0.11213410369874
40
0.112424839554534
40
0.112570207482431
40
0.112570207482431
40
0.112715575410328
40
0.112715575410328
40
0.113297047121916
40
0.113297047121916
40
0.115622933968268
40
0.115622933968268
40
0.120274707660972
40
0.120274707660972
40
0.129578255046381
40
0.129578255046381
40
0.166792444588017
40
0.166792444588017
40
0.241220823671287
40
0.241220823671287
40
0.390077581837828
40
0.390077581837828
40
0.464505960921099
40
0.464505960921099
40
0.501720150462734
40
0.501720150462734
40
0.520327245233552
40
0.520327245233552
40
0.53893434000437
40
0.53893434000437
40
0.543586113697074
40
0.543586113697074
40
0.545912000543426
40
0.545912000543426
40
0.546202736399221
40
0.546202736399221
40
0.546348104327117
40
0.546348104327117
40
0.546493472255015
40
0.546493472255015
40
0.547074943966603
40
0.54823788738978
40
0.557541434775194
40
0.576148529546023
40
0.61336271908768
40
0.61336271908768
40
0.687791098170995
40
0.687791098170995
40
0.76221947725431
40
0.76221947725431
40
0.836647856337625
40
0.836647856337625
40
1
40
1
40
1
40
1
41
1
10
16.1128334687504
20
3.59627086952179
30
0
41
1
10
16.0667487202858
20
3.5797078101877
30
0
41
1
10
16.0182094771853
20
3.55929212190912
30
0
41
1
10
15.9156946242291
20
3.5091958415326
30
0
41
1
10
15.8615094875871
20
3.47921909144995
30
0
41
1
10
15.7500396895261
20
3.40974012488729
30
0
41
1
10
15.6919289009831
20
3.37067560097529
30
0
41
1
10
15.5690252193592
20
3.28478430335201
30
0
41
1
10
15.5045615343797
20
3.23759020225088
30
0
41
1
10
15.3716735037113
20
3.13475097748696
30
0
41
1
10
15.3030577717093
20
3.0792734249045
30
0
41
1
10
15.1617278053149
20
2.96007825705092
30
0
41
1
10
15.0892163274432
20
2.89636968405952
30
0
41
1
10
15.0107841008721
20
2.8241663502983
30
0
41
1
10
15.0050105568385
20
2.81883650052839
30
0
41
1
10
14.998651118717
20
2.81294517323372
30
0
41
1
10
14.9969160353921
20
2.81133611852158
30
0
41
1
10
14.9957591599414
20
2.81026289755255
30
0
41
1
10
14.9957553640278
20
2.80946564675421
30
0
41
1
10
14.9997653725979
20
2.80555144814838
30
0
41
1
10
15.0043529689509
20
2.80294719594994
30
0
41
1
10
15.025491250557
20
2.78949128945547
30
0
41
1
10
15.0431247669225
20
2.77922800002722
30
0
41
1
10
15.0957497369185
20
2.74827521485062
30
0
41
1
10
15.131092374226
20
2.72783423639538
30
0
41
1
10
15.2372340263236
20
2.66656223220991
30
0
41
1
10
15.3082428082609
20
2.62585249656374
30
0
41
1
10
15.6635746233116
20
2.42226175320516
30
0
41
1
10
15.9488461997545
20
2.25925587094241
30
0
41
1
10
16.8048651764092
20
1.76758267176345
30
0
41
1
10
17.3760934836833
20
1.43682991253311
30
0
41
1
10
19.0886832868291
20
0.432391470847563
30
0
41
1
10
20.2299055575336
20
-0.253279365949112
30
0
41
1
10
21.9373900172101
20
-1.30264591363053
30
0
41
1
10
22.5059781671072
20
-1.65591623423552
30
0
41
1
10
23.3577821899518
20
-2.19138714555896
30
0
41
1
10
23.6414469870698
20
-2.3707768574412
30
0
41
1
10
24.0661186152325
20
-2.64180965982015
30
0
41
1
10
24.2075448283912
20
-2.73247304092089
30
0
41
1
10
24.4899246876367
20
-2.91479169294192
30
0
41
1
10
24.6310221535571
20
-3.00620541294387
30
0
41
1
10
24.8061795644502
20
-3.1226361191008
30
0
41
1
10
24.8411741592675
20
-3.14600546932377
30
0
41
1
10
24.8931740098704
20
-3.18183119211514
30
0
41
1
10
24.9107858859009
20
-3.19345911097142
30
0
41
1
10
24.9291033553575
20
-3.20852038200175
30
0
41
1
10
24.9311519624603
20
-3.2102152202545
30
0
41
1
10
24.9338121342777
20
-3.21314130830541
30
0
41
1
10
24.9351634090462
20
-3.21482083867682
30
0
41
1
10
24.9329311868623
20
-3.21609588854886
30
0
41
1
10
24.9315392537295
20
-3.21597388307194
30
0
41
1
10
24.9251439034236
20
-3.21682097014374
30
0
41
1
10
24.9097954088168
20
-3.21885334755288
30
0
41
1
10
24.8125948682892
20
-3.23171306464212
30
0
41
1
10
24.5569068843296
20
-3.26536484892029
30
0
41
1
10
23.9848094807961
20
-3.33960148427647
30
0
41
1
10
23.4955407997275
20
-3.40124814761185
30
0
41
1
10
22.5186982414145
20
-3.52180144891804
30
0
41
1
10
21.8696444619665
20
-3.59852837092294
30
0
41
1
10
20.5757556410278
20
-3.7443638946356
30
0
41
1
10
19.9308886011449
20
-3.81347650842685
30
0
41
1
10
18.6474970955944
20
-3.94350548024346
30
0
41
1
10
18.0086826446517
20
-4.00443677801732
30
0
41
1
10
15.9767574324528
20
-4.18566100667852
30
0
41
1
10
14.5942836254641
20
-4.28981142118906
30
0
41
1
10
13.2244780047132
20
-4.37252716800774
30
0
0
SPLINE
5
10A
100
AcDbEntity
8
SK1
62
256
6
ByLayer
370
18
48
1
60
0
100
AcDbSpline
70
4
71
4
72
10
73
5
40
0
40
0
40
0
40
0
40
0
40
1
40
1
40
1
40
1
40
1
41
0.994813590275741
10
-48.0000006142833
20
-0.346670089034681
30
0
41
0.994926608150151
10
-48.0000003790061
20
-0.424219584358699
30
0
41
0.996831725761343
10
-48.000000166035
20
-0.492202377545381
30
0
41
1.00050106225256
10
-47.9999999836994
20
-0.547901762795492
30
0
41
1.0045801456982
10
-47.999999834893
20
-0.590813089033515
30
0
0
SPLINE
5
10B
100
AcDbEntity
8
SK1
62
256
6
ByLayer
370
18
48
1
60
0
100
AcDbSpline
70
4
71
3
72
54
73
50
40
0
40
0
40
0
40
0
40
0.124999999999994
40
0.124999999999994
40
0.187499999999991
40
0.187499999999991
40
0.218749999999989
40
0.218749999999989
40
0.249999999999987
40
0.249999999999987
40
0.312499999999984
40
0.312499999999984
40
0.343749999999983
40
0.343749999999983
40
0.374999999999982
40
0.374999999999982
40
0.406249999999981
40
0.406249999999981
40
0.421874999999981
40
0.421874999999981
40
0.437499999999981
40
0.437499999999981
40
0.468749999999981
40
0.468749999999981
40
0.484374999999981
40
0.484374999999981
40
0.499999999999981
40
0.499999999999981
40
0.531249999999982
40
0.531249999999982
40
0.546874999999983
40
0.546874999999983
40
0.562499999999983
40
0.562499999999983
40
0.593749999999985
40
0.593749999999985
40
0.609374999999985
40
0.609374999999985
40
0.624999999999986
40
0.624999999999986
40
0.687499999999989
40
0.687499999999989
40
0.749999999999991
40
0.749999999999991
40
0.812499999999993
40
0.812499999999993
40
0.874999999999996
40
0.874999999999996
40
1
40
1
40
1
40
1
41
1
10
-48.0000000000012
20
-0.582247500702039
30
0
41
1
10
-47.9229299488541
20
-0.576308496636841
30
0
41
1
10
-47.8468926791866
20
-0.569889414231142
30
0
41
1
10
-47.7352163799348
20
-0.559154654462759
30
0
41
1
10
-47.6983923357196
20
-0.555389819527875
30
0
41
1
10
-47.6439525570794
20
-0.549372420607057
30
0
41
1
10
-47.6259395424672
20
-0.547304528419374
30
0
41
1
10
-47.5902284514141
20
-0.543022348123799
30
0
41
1
10
-47.5724947380387
20
-0.540803196747419
30
0
41
1
10
-47.5202993648011
20
-0.53394067615875
30
0
41
1
10
-47.4867327656287
20
-0.52908785109031
30
0
41
1
10
-47.4390250367986
20
-0.521211998809065
30
0
41
1
10
-47.4235670308315
20
-0.518486328600261
30
0
41
1
10
-47.3937613507225
20
-0.512784269917461
30
0
41
1
10
-47.3793895678734
20
-0.509803343173587
30
0
41
1
10
-47.3521806480004
20
-0.503536841545355
30
0
41
1
10
-47.3394979261683
20
-0.500287324995469
30
0
41
1
10
-47.32219918339
20
-0.495195420126663
30
0
41
1
10
-47.3167217749778
20
-0.493461685060055
30
0
41
1
10
-47.3064226753121
20
-0.489911504399885
30
0
41
1
10
-47.3015864028089
20
-0.488088930621615
30
0
41
1
10
-47.2883085163679
20
-0.482521193475378
30
0
41
1
10
-47.2811924095824
20
-0.478722363886305
30
0
41
1
10
-47.2735180949751
20
-0.472873757482063
30
0
41
1
10
-47.27146113384
20
-0.470899103060873
30
0
41
1
10
-47.2684330809994
20
-0.466895366904765
30
0
41
1
10
-47.2674605644646
20
-0.464856997753486
30
0
41
1
10
-47.266329495752
20
-0.458715010905166
30
0
41
1
10
-47.2679513582518
20
-0.454684329655009
30
0
41
1
10
-47.273688325377
20
-0.448727280042988
30
0
41
1
10
-47.276152145392
20
-0.446756447147237
30
0
41
1
10
-47.2821482060846
20
-0.442843550973322
30
0
41
1
10
-47.2856888358447
20
-0.440901241064637
30
0
41
1
10
-47.2975554284128
20
-0.435243233817289
30
0
41
1
10
-47.3071807391525
20
-0.431648077272939
30
0
41
1
10
-47.3236694195979
20
-0.426466901752661
30
0
41
1
10
-47.329509832773
20
-0.424775350787229
30
0
41
1
10
-47.3418152154008
20
-0.421456680398308
30
0
41
1
10
-47.348286545611
20
-0.419828827923794
30
0
41
1
10
-47.3816212247448
20
-0.411936358340284
30
0
41
1
10
-47.4116570151351
20
-0.406300580234358
30
0
41
1
10
-47.4759432428248
20
-0.395877694834866
30
0
41
1
10
-47.5104104406894
20
-0.39108227434707
30
0
41
1
10
-47.5808549039012
20
-0.382295037733286
30
0
41
1
10
-47.6170091502278
20
-0.378274947106263
30
0
41
1
10
-47.6906613559783
20
-0.370773291719246
30
0
41
1
10
-47.7281649065384
20
-0.367293967743819
30
0
41
1
10
-47.8422570572456
20
-0.357489820207803
30
0
41
1
10
-47.9204047028847
20
-0.351789822234735
30
0
41
1
10
-47.9999999999999
20
-0.346670005974573
30
0
0
SPLINE
5
10C
100
AcDbEntity
8
SK1
62
256
6
ByLayer
370
18
48
1
60
0
100
AcDbSpline
70
4
71
3
72
8
73
4
40
0
40
0
40
0
40
0
40
1
40
1
40
1
40
1
41
1
10
-46.5
20
-0.104391840945169
30
0
41
1
10
-47.0011329544258
20
-0.0066974651035991
30
0
41
1
10
-47.5014462249359
20
0.0911493641176548
30
0
41
1
10
-48
20
0.189323442687282
30
0
0
SPLINE
5
10D
100
AcDbEntity
8
SK1
62
256
6
ByLayer
370
18
48
1
60
0
100
AcDbSpline
70
4
71
3
72
20
73
16
40
0
40
0
40
0
40
0
40
0.0625000000000009
40
0.0625000000000009
40
0.125000000000002
40
0.125000000000002
40
0.250000000000001
40
0.250000000000001
40
0.375
40
0.375
40
0.5
40
0.5
40
0.75
40
0.75
40
1
40
1
40
1
40
1
41
1
10
-46.4
20
-0.225290798876273
30
0
41
1
10
-46.4
20
-0.22110325196627
30
0
41
1
10
-46.400255320285
20
-0.216936302148866
30
0
41
1
10
-46.401238720026
20
-0.208640547297051
30
0
41
1
10
-46.4019736794312
20
-0.204500141543889
30
0
41
1
10
-46.4047525178022
20
-0.192522684930566
30
0
41
1
10
-46.407386820202
20
-0.184947363211847
30
0
41
1
10
-46.4138324199078
20
-0.17065958545615
30
0
41
1
10
-46.4175513092506
20
-0.164134560839869
30
0
41
1
10
-46.4257576562687
20
-0.152040839289072
30
0
41
1
10
-46.4302902765822
20
-0.146438380898417
30
0
41
1
10
-46.444519757331
20
-0.131324492488488
30
0
41
1
10
-46.454862846528
20
-0.123341379681875
30
0
41
1
10
-46.4769795344453
20
-0.110888694902457
30
0
41
1
10
-46.4883400853172
20
-0.106664906560269
30
0
41
1
10
-46.5
20
-0.104391840945169
30
0
0
SPLINE
5
10E
100
AcDbEntity
8
SK1
62
256
6
ByLayer
370
18
48
1
60
0
100
AcDbSpline
70
4
71
3
72
20
73
16
40
0
40
0
40
0
40
0
40
0.250000000000009
40
0.250000000000009
40
0.375000000000008
40
0.375000000000008
40
0.500000000000006
40
0.500000000000006
40
0.625000000000005
40
0.625000000000005
40
0.750000000000003
40
0.750000000000003
40
0.875000000000002
40
0.875000000000002
40
1
40
1
40
1
40
1
41
1
10
-46.5
20
-2.55794844813892
30
0
41
1
10
-46.4883382808638
20
-2.56022186552684
30
0
41
1
10
-46.4769899849393
20
-2.56056097038686
30
0
41
1
10
-46.4604389640724
20
-2.55811036852285
30
0
41
1
10
-46.4550533753258
20
-2.55678990461604
30
0
41
1
10
-46.4447632897779
20
-2.55315198656365
30
0
41
1
10
-46.4398264111653
20
-2.55083166330485
30
0
41
1
10
-46.4304188308979
20
-2.54506177832852
30
0
41
1
10
-46.4259311640916
20
-2.54160153354547
30
0
41
1
10
-46.4176087338257
20
-2.53330999827708
30
0
41
1
10
-46.4138727961238
20
-2.52858453872818
30
0
41
1
10
-46.4074449634846
20
-2.5177061102772
30
0
41
1
10
-46.4047607228177
20
-2.51151116953528
30
0
41
1
10
-46.40105390221
20
-2.49795666872166
30
0
41
1
10
-46.4
20
-2.4904023922509
30
0
41
1
10
-46.4
20
-2.48256287749453
30
0
0
SPLINE
5
10F
100
AcDbEntity
8
SK1
62
256
6
ByLayer
370
18
48
1
60
0
100
AcDbSpline
70
4
71
3
72
8
73
4
40
0
40
0
40
0
40
0
40
1
40
1
40
1
40
1
41
1
10
-48
20
-2.26423316450644
30
0
41
1
10
-47.5014644157604
20
-2.36240366098016
30
0
41
1
10
-47.0011330308673
20
-2.4602540573953
30
0
41
1
10
-46.5
20
-2.55794844813892
30
0
0
SPLINE
5
110
100
AcDbEntity
8
SK1
62
256
6
ByLayer
370
18
48
1
60
0
100
AcDbSpline
70
4
71
3
72
8
73
4
40
0
40
0
40
0
40
0
40
1
40
1
40
1
40
1
41
1
10
-47.0339879222395
20
0.0001580789553657
30
0
41
1
10
-47.3565551911884
20
-0.0628976704349213
30
0
41
1
10
-47.6786431140865
20
-0.126042573612523
30
0
41
1
10
-48
20
-0.189323442687282
30
0
0
SPLINE
5
111
100
AcDbEntity
8
1
62
256
6
ByLayer
370
18
48
1
60
0
100
AcDbSpline
70
4
71
3
72
39
73
35
40
0
40
0
40
0
40
0
40
1.04946750858E-05
40
2.1449839013E-05
40
3.13746033671E-05
40
4.07204109792E-05
40
4.99486200035E-05
40
8.26864937583E-05
40
0.0001115789558678
40
0.0003238756990824
40
0.0004922681428758
40
0.0007965151710802
40
0.0013511375927333
40
0.0023777306758097
40
0.0043267855823901
40
0.0266312519065596
40
0.0596079677118574
40
0.097357486350024
40
0.135871612735122
40
0.175157513642444
40
0.227679833933259
40
0.274925391067865
40
0.313036811275729
40
0.375912422367604
40
0.454539811162666
40
0.531220465467694
40
0.62107311525546
40
0.696016236852806
40
0.765133720913593
40
0.800942887860466
40
0.845097200119513
40
0.902499430638966
40
0.973156586527458
40
1
40
1
40
1
40
1
41
1
10
92.730409156916
20
0.485624592382408
30
0
41
1
10
92.7304244081671
20
0.485621955841083
30
0
41
1
10
92.7304517833383
20
0.485617485303436
30
0
41
1
10
92.7304784257433
20
0.485614164774915
30
0
41
1
10
92.7304901781163
20
0.485620015302402
30
0
41
1
10
92.7304589501739
20
0.485628120486723
30
0
41
1
10
92.7303661787087
20
0.485656491032188
30
0
41
1
10
92.7302114973121
20
0.485701879032518
30
0
41
1
10
92.7293670896581
20
0.485929745542336
30
0
41
1
10
92.7278845971564
20
0.486310114630442
30
0
41
1
10
92.7256327085561
20
0.486905349249355
30
0
41
1
10
92.7221683805786
20
0.487813287095776
30
0
41
1
10
92.7158431479247
20
0.489472675006027
30
0
41
1
10
92.7039126698268
20
0.492591919531577
30
0
41
1
10
92.6178873179668
20
0.514992880031116
30
0
41
1
10
92.4163203836569
20
0.566593374587086
30
0
41
1
10
92.0852409983518
20
0.651988074705343
30
0
41
1
10
91.6951401903514
20
0.754421632647023
30
0
41
1
10
91.2819429074778
20
0.865234884025568
30
0
41
1
10
90.8151245496946
20
0.993230114395942
30
0
41
1
10
90.3157448378673
20
1.13382968519826
30
0
41
1
10
89.8210848301367
20
1.27710326444631
30
0
41
1
10
89.2903695398344
20
1.434488311861
30
0
41
1
10
88.6487360925588
20
1.63002064093794
30
0
41
1
10
87.8720360644475
20
1.8756311970032
30
0
41
1
10
87.0027731995664
20
2.16148834009584
30
0
41
1
10
86.1507338990474
20
2.45322801913744
30
0
41
1
10
85.3286891021896
20
2.74571603105059
30
0
41
1
10
84.6989465773144
20
2.97717352674928
30
0
41
1
10
84.1789097590364
20
3.17278089745218
30
0
41
1
10
83.7006276722879
20
3.35573641780806
30
0
41
1
10
83.1026212572305
20
3.58986797764734
30
0
41
1
10
82.5660514481547
20
3.80406499214703
30
0
41
1
10
82.2300976677508
20
3.94332953177278
30
0
41
1
10
82.1377028417336
20
3.98192140305659
30
0
0
SPLINE
5
112
100
AcDbEntity
8
1
62
256
6
ByLayer
370
18
48
1
60
0
100
AcDbSpline
70
4
71
3
72
18
73
14
40
0
40
0
40
0
40
0
40
0.111052238235853
40
0.240772042206326
40
0.327445554179757
40
0.426094342460608
40
0.537538536082956
40
0.593073392552041
40
0.648407003759827
40
0.711686975741825
40
0.795773071908515
40
0.900834641666878
40
1
40
1
40
1
40
1
41
1
10
176.141762666737
20
1.51220210163626
30
0
41
1
10
175.866509627991
20
1.59520817118064
30
0
41
1
10
175.271022437723
20
1.77895134736178
30
0
41
1
10
174.46521204685
20
2.0411527341312
30
0
41
1
10
173.692819466966
20
2.30116950663654
30
0
41
1
10
172.967654629198
20
2.5530157143711
30
0
41
1
10
172.32096347707
20
2.78523600853614
30
0
41
1
10
171.781333493026
20
2.98411211337256
30
0
41
1
10
171.35944849331
20
3.14224536809377
30
0
41
1
10
170.869506400449
20
3.32916885482356
30
0
41
1
10
170.261229974449
20
3.56641258069206
30
0
41
1
10
169.568946180098
20
3.84346169192452
30
0
41
1
10
169.080998586735
20
4.04545097302946
30
0
41
1
10
168.844598287074
20
4.14479595110362
30
0
0
SPLINE
5
113
100
AcDbEntity
8
1
62
256
6
ByLayer
370
18
48
1
60
0
100
AcDbSpline
70
4
71
3
72
40
73
36
40
0
40
0
40
0
40
0
40
1.28495137237E-05
40
3.52524684421E-05
40
5.2756447915E-05
40
7.94725324969E-05
40
9.94116479866E-05
40
0.0001151301655467
40
0.000230829662542
40
0.0003244923413361
40
0.000491800469696
40
0.0007907360408932
40
0.0013251007721855
40
0.0022811125955505
40
0.0039941449848132
40
0.0070726608098983
40
0.0134670262002824
40
0.0251142025699176
40
0.0425589787793181
40
0.0810950628602207
40
0.155094522938114
40
0.283289488368946
40
0.354532484235127
40
0.419653191043063
40
0.475864039666675
40
0.529133460704025
40
0.594110010902176
40
0.666436100175998
40
0.742432738275851
40
0.789953857391991
40
0.827039953649242
40
0.859943875595719
40
0.911203962075971
40
0.982842556490313
40
1
40
1
40
1
40
1
41
1
10
49.1400783783571
20
0.495611154595338
30
0
41
1
10
49.1401079461637
20
0.495605332641873
30
0
41
1
10
49.1401862912371
20
0.495590126678792
30
0
41
1
10
49.14028998224
20
0.495571102370661
30
0
41
1
10
49.1403598762876
20
0.495563298153655
30
0
41
1
10
49.1403095797328
20
0.495584829839032
30
0
41
1
10
49.1402474718346
20
0.495609125680716
30
0
41
1
10
49.1399298100152
20
0.495707534638228
30
0
41
1
10
49.1392754185518
20
0.495893966234092
30
0
41
1
10
49.1384256690911
20
0.496151754034429
30
0
41
1
10
49.1370733637722
20
0.496554079211364
30
0
41
1
10
49.1347039141045
20
0.497261172367729
30
0
41
1
10
49.130414331881
20
0.498532335016875
30
0
41
1
10
49.1226987342069
20
0.50080074246182
30
0
41
1
10
49.1085930677018
20
0.504879905010625
30
0
41
1
10
49.0810311141498
20
0.512681898556195
30
0
41
1
10
49.0205183852063
20
0.528707800921069
30
0
41
1
10
48.896924330767
20
0.560003228966991
30
0
41
1
10
48.6621179429691
20
0.619951205348286
30
0
41
1
10
48.1991244679752
20
0.739823051904324
30
0
41
1
10
47.3480399927619
20
0.968014796518304
30
0
41
1
10
46.3830550731699
20
1.24211785542505
30
0
41
1
10
45.4543239543508
20
1.52069233817761
30
0
41
1
10
44.7803610287272
20
1.73015117384225
30
0
41
1
10
44.1711200300632
20
1.92539107335367
30
0
41
1
10
43.5639827265683
20
2.12526007737654
30
0
41
1
10
42.9026459210941
20
2.34922045780215
30
0
41
1
10
42.1649454129237
20
2.60714076699546
30
0
41
1
10
41.4901353997557
20
2.85108484195172
30
0
41
1
10
40.9385383618986
20
3.05594063128129
30
0
41
1
10
40.5358889447271
20
3.20823666365288
30
0
41
1
10
40.1212697501049
20
3.36731359247577
30
0
41
1
10
39.5900062802797
20
3.57523396497743
30
0
41
1
10
39.1133646944884
20
3.76447699584449
30
0
41
1
10
38.8130355789494
20
3.8888316289854
30
0
41
1
10
38.7550506573656
20
3.91296803967123
30
0
0
SPLINE
5
114
100
AcDbEntity
8
1
62
256
6
ByLayer
370
18
48
1
60
0
100
AcDbSpline
70
4
71
3
72
36
73
32
40
0
40
0
40
0
40
0
40
5.6797149645E-06
40
1.7583983218E-05
40
3.88107371258E-05
40
7.36007231979E-05
40
0.0002281015546869
40
0.0003500501672341
40
0.0005687515487377
40
0.0009622768371269
40
0.0016745394823789
40
0.002976929272475
40
0.005400241650163
40
0.0100407615189526
40
0.0193347252720424
40
0.0799707631814966
40
0.158667862186746
40
0.219285062462571
40
0.26999687316591
40
0.326449505071667
40
0.392964310151102
40
0.467515481735523
40
0.540521445993008
40
0.595668419290491
40
0.647113724946274
40
0.696240245218091
40
0.745472145398747
40
0.796500589646552
40
0.861134989433605
40
0.941697544144143
40
1
40
1
40
1
40
1
41
1
10
136.202290081673
20
0.503876595946991
30
0
41
1
10
136.202296162488
20
0.503875937599531
30
0
41
1
10
136.202312242436
20
0.503874605834199
30
0
41
1
10
136.202323034936
20
0.503877967952292
30
0
41
1
10
136.202215649778
20
0.503913904491583
30
0
41
1
10
136.201737470084
20
0.504057756555454
30
0
41
1
10
136.200520754419
20
0.504372384627999
30
0
41
1
10
136.198983432556
20
0.504794376287265
30
0
41
1
10
136.196562794794
20
0.505447656313521
30
0
41
1
10
136.192275094136
20
0.506609900850549
30
0
41
1
10
136.1844051206
20
0.50873543800688
30
0
41
1
10
136.169869993753
20
0.512651696589131
30
0
41
1
10
136.14224487911
20
0.520056021500181
30
0
41
1
10
136.087613546928
20
0.534587151731614
30
0
41
1
10
135.834874860916
20
0.60107592993549
30
0
41
1
10
135.299056991638
20
0.738891382975993
30
0
41
1
10
134.568378341771
20
0.936090202798795
30
0
41
1
10
133.877609382756
20
1.13012539646044
30
0
41
1
10
133.268920826233
20
1.30669718957847
30
0
41
1
10
132.640452492382
20
1.49451550568665
30
0
41
1
10
131.927649717466
20
1.71472447094445
30
0
41
1
10
131.157646402381
20
1.96152748298519
30
0
41
1
10
130.431109736049
20
2.20321606571247
30
0
41
1
10
129.789428942713
20
2.42344706504636
30
0
41
1
10
129.234658687248
20
2.61872121875359
30
0
41
1
10
128.702444374277
20
2.81046508922705
30
0
41
1
10
128.173192192123
20
3.0054512801419
30
0
41
1
10
127.590685470385
20
3.2248409807122
30
0
41
1
10
126.899947126511
20
3.49184125522487
30
0
41
1
10
126.18627083361
20
3.775290362786
30
0
41
1
10
125.702120805917
20
3.97539370419594
30
0
41
1
10
125.499281327529
20
4.0604291628689
30
0
0
SPLINE
5
115
100
AcDbEntity
8
1
62
256
6
ByLayer
370
18
48
1
60
0
100
AcDbSpline
70
4
71
3
72
34
73
30
40
0
40
0
40
0
40
0
40
0.0542592475169486
40
0.0987661621005351
40
0.133662745861074
40
0.160917797258009
40
0.1860537354621
40
0.209601893235459
40
0.23212759767707
40
0.277672628237928
40
0.326716567849268
40
0.365380611727534
40
0.397446834588445
40
0.438654429427822
40
0.480493038522841
40
0.51631788525887
40
0.556467425979139
40
0.605845371029928
40
0.662988842502356
40
0.720844817217294
40
0.783719399855354
40
0.816296127158573
40
0.842448889595634
40
0.86314047876998
40
0.888016604306012
40
0.924367460691005
40
0.96043296749378
40
0.989125722129283
40
1
40
1
40
1
40
1
41
1
10
134.481666565701
20
-6.79715528111143
30
0
41
1
10
134.761540422346
20
-6.79760281941316
30
0
41
1
10
135.271630879248
20
-6.79845251261267
30
0
41
1
10
135.96304633096
20
-6.7994793280661
30
0
41
1
10
136.516498596454
20
-6.80065227468205
30
0
41
1
10
136.962363999808
20
-6.80164614075946
30
0
41
1
10
137.354351109725
20
-6.80197682444899
30
0
41
1
10
137.723309059267
20
-6.80244724113501
30
0
41
1
10
138.196838369028
20
-6.80330579759172
30
0
41
1
10
138.803042271684
20
-6.80472488583928
30
0
41
1
10
139.492894036008
20
-6.80681713174789
30
0
41
1
10
140.112956411632
20
-6.80773775210614
30
0
41
1
10
140.692448158345
20
-6.80841547290285
30
0
41
1
10
141.288379894884
20
-6.80894477502937
30
0
41
1
10
141.903766084163
20
-6.80960397582686
30
0
41
1
10
142.513677423278
20
-6.81054428651294
30
0
41
1
10
143.162612671749
20
-6.81300536279133
30
0
41
1
10
143.921925737941
20
-6.81525830186348
30
0
41
1
10
144.772840757757
20
-6.81556654175878
30
0
41
1
10
145.693681501373
20
-6.81611405781672
30
0
41
1
10
146.487339383281
20
-6.81642172765774
30
0
41
1
10
147.116853468647
20
-6.81882161364928
30
0
41
1
10
147.528020792274
20
-6.82049471746635
30
0
41
1
10
147.899281627871
20
-6.82139110618803
30
0
41
1
10
148.323400719566
20
-6.82213737995048
30
0
41
1
10
148.826921363006
20
-6.82290095780084
30
0
41
1
10
149.350890204037
20
-6.82364549137401
30
0
41
1
10
149.7408599213
20
-6.82389324749869
30
0
41
1
10
149.944958540932
20
-6.82387958261896
30
0
41
1
10
150.001081467658
20
-6.82387902491365
30
0
0
SPLINE
5
116
100
AcDbEntity
8
1
62
256
6
ByLayer
370
18
48
1
60
0
100
AcDbSpline
70
4
71
3
72
11
73
7
40
0
40
0
40
0
40
0
40
0.204522409890389
40
0.443184110228321
40
0.72072972604094
40
1
40
1
40
1
40
1
41
1
10
110.141503597495
20
6.75541725004209
30
0
41
1
10
109.976046627129
20
6.75494331389936
30
0
41
1
10
109.614743141169
20
6.75399722482896
30
0
41
1
10
109.010390937864
20
6.75218358230535
30
0
41
1
10
108.347554764944
20
6.7518854792049
30
0
41
1
10
107.889001651761
20
6.74998492668888
30
0
41
1
10
107.660189282838
20
6.74885531823807
30
0
0
SPLINE
5
117
100
AcDbEntity
8
1
62
256
6
ByLayer
370
18
48
1
60
0
100
AcDbSpline
70
4
71
3
72
31
73
27
40
0
40
0
40
0
40
0
40
0.0537231993448849
40
0.0971406332012505
40
0.130846426295484
40
0.159094415205077
40
0.184024357535581
40
0.205946591943318
40
0.236934689616334
40
0.277739194667688
40
0.319295199603334
40
0.357317591030362
40
0.40349949943708
40
0.444060437362969
40
0.487246005546361
40
0.536050387900885
40
0.596750505656565
40
0.654798200180381
40
0.693349026899329
40
0.732373783235281
40
0.777393167436751
40
0.820014308946116
40
0.860446723467092
40
0.906297984551405
40
0.982628205927624
40
1
40
1
40
1
40
1
41
1
10
153.699089619217
20
6.83097693650211
30
0
41
1
10
153.426263912185
20
6.8300848218683
30
0
41
1
10
152.931707426975
20
6.82880258086468
30
0
41
1
10
152.258539476576
20
6.82680958950081
30
0
41
1
10
151.720204346714
20
6.82725280678278
30
0
41
1
10
151.280935190084
20
6.82615851820284
30
0
41
1
10
150.895836982293
20
6.8250679651311
30
0
41
1
10
150.496109411663
20
6.8246352901017
30
0
41
1
10
150.015334125142
20
6.82423236674771
30
0
41
1
10
149.433337641302
20
6.82374499521134
30
0
41
1
10
148.815353960402
20
6.82289667613998
30
0
41
1
10
148.169728086839
20
6.82189629751841
30
0
41
1
10
147.529217595935
20
6.82075598057961
30
0
41
1
10
146.862208898571
20
6.81749314836816
30
0
41
1
10
146.181727814842
20
6.81638589174696
30
0
41
1
10
145.39785327381
20
6.81591931060879
30
0
41
1
10
144.537703625051
20
6.81547308874869
30
0
41
1
10
143.730111081101
20
6.81496982316403
30
0
41
1
10
143.034034852832
20
6.81242361800022
30
0
41
1
10
142.404622313851
20
6.81024557041096
30
0
41
1
10
141.754432292287
20
6.80942544168533
30
0
41
1
10
141.096943674462
20
6.8087812807762
30
0
41
1
10
140.435179375713
20
6.80813459826132
30
0
41
1
10
139.600363148713
20
6.80715284788576
30
0
41
1
10
138.883947041378
20
6.80485772232299
30
0
41
1
10
138.40289798176
20
6.80382056761906
30
0
41
1
10
138.313715112333
20
6.80364200023479
30
0
0
SPLINE
5
118
100
AcDbEntity
8
1
62
256
6
ByLayer
370
18
48
1
60
0
100
AcDbSpline
70
4
71
2
72
6
73
3
40
0
40
0
40
0
40
1
40
1
40
1
41
1
10
112.701251711556
20
0.0026761115673821
30
0
41
1
10
112.701240446387
20
0.0026807188571922
30
0
41
1
10
112.701229181232
20
0.0026855440185045
30
0
0
SPLINE
5
119
100
AcDbEntity
8
1
62
256
6
ByLayer
370
18
48
1
60
0
100
AcDbSpline
70
4
71
2
72
6
73
3
40
0
40
0
40
0
40
1
40
1
40
1
41
1
10
156.257633710297
20
-0.0003838769390825
30
0
41
1
10
156.2575933452
20
-0.0003639328999725
30
0
41
1
10
156.257552980057
20
-0.0003432227808275
30
0
0
LINE
5
82
100
AcDbEntity
8
4
62
256
6
ByLayer
370
18
48
0.05
60
0
100
AcDbLine
10
0
20
0
30
0
11
179
21
0
31
0
39
0
210
0
220
0
230
1
0
LINE
5
84
100
AcDbEntity
8
81
62
256
6
ByLayer
370
18
48
1
60
0
100
AcDbLine
10
179
20
0
30
0
11
182
21
0
31
0
39
0
210
0
220
0
230
1
0
LINE
5
85
100
AcDbEntity
8
80
62
256
6
ByLayer
370
18
48
1
60
0
100
AcDbLine
10
0
20
0
30
0
11
-3
21
0
31
0
39
0
210
0
220
0
230
1
0
LINE
5
86
100
AcDbEntity
8
SK4
62
256
6
ByLayer
370
18
48
0.05
60
0
100
AcDbLine
10
-51
20
0
30
0
11
182
21
0
31
0
39
0
210
0
220
0
230
1
0
LINE
5
88
100
AcDbEntity
8
1
62
256
6
ByLayer
370
18
48
1
60
0
100
AcDbLine
10
0
20
8
30
0
11
0
21
-8
31
0
39
0
210
0
220
0
230
1
0
LINE
5
89
100
AcDbEntity
8
1
62
256
6
ByLayer
370
13
48
1
60
0
100
AcDbLine
10
178.842157
20
0.732718
30
0
11
177.375738
21
2.204683
31
0
39
0
210
0
220
0
230
1
0
LINE
5
8A
100
AcDbEntity
8
1
62
256
6
ByLayer
370
13
48
1
60
0
100
AcDbLine
10
0.770672
20
-7.414625
30
0
11
0.770672
21
7.414625
31
0
39
0
210
0
220
0
230
1
0
LINE
5
8B
100
AcDbEntity
8
1
62
256
6
ByLayer
370
18
48
1
60
0
100
AcDbLine
10
107.559798
20
7.020083
30
0
11
107.559798
21
2.604046
31
0
39
0
210
0
220
0
230
1
0
LINE
5
8C
100
AcDbEntity
8
1
62
256
6
ByLayer
370
18
48
1
60
0
100
AcDbLine
10
107.559798
20
-6.92646
30
0
11
107.559798
21
-7.020083
31
0
39
0
210
0
220
0
230
1
0
LINE
5
8D
100
AcDbEntity
8
1
62
256
6
ByLayer
370
18
48
1
60
0
100
AcDbLine
10
107.559798
20
1.710388
30
0
11
107.559798
21
1.607093
31
0
39
0
210
0
220
0
230
1
0
LINE
5
8E
100
AcDbEntity
8
1
62
256
6
ByLayer
370
13
48
1
60
0
100
AcDbLine
10
1.542785
20
-6.829252
30
0
11
1.542785
21
6.829252
31
0
39
0
210
0
220
0
230
1
0
LINE
5
8F
100
AcDbEntity
8
1
62
256
6
ByLayer
370
18
48
1
60
0
100
AcDbLine
10
107.660307
20
6.749083
30
0
11
107.660303
21
6.748419
31
0
39
0
210
0
220
0
230
1
0
LINE
5
90
100
AcDbEntity
8
SK1
62
256
6
ByLayer
370
18
48
1
60
0
100
AcDbLine
10
-48
20
-0.582248
30
0
11
-48
21
-2.264233
31
0
39
0
210
0
220
0
230
1
0
LINE
5
92
100
AcDbEntity
8
SK1
62
256
6
ByLayer
370
18
48
1
60
0
100
AcDbLine
10
-48
20
-0.189323
30
0
11
-48
21
-0.34667
31
0
39
0
210
0
220
0
230
1
0
LINE
5
93
100
AcDbEntity
8
SK1
62
256
6
ByLayer
370
13
48
1
60
0
100
AcDbLine
10
-46.5
20
-2.557948
30
0
11
-46.5
21
-0.104394
31
0
39
0
210
0
220
0
230
1
0
LINE
5
94
100
AcDbEntity
8
SK1
62
256
6
ByLayer
370
18
48
1
60
0
100
AcDbLine
10
-46.4
20
-2.482563
30
0
11
-46.4
21
-0.225291
31
0
39
0
210
0
220
0
230
1
0
LINE
5
95
100
AcDbEntity
8
SK1
62
256
6
ByLayer
370
18
48
1
60
0
100
AcDbLine
10
-48
20
-5.55
30
0
11
-48
21
-2.264233
31
0
39
0
210
0
220
0
230
1
0
LINE
5
96
100
AcDbEntity
8
SK1
62
256
6
ByLayer
370
18
48
1
60
0
100
AcDbLine
10
-48
20
5.55
30
0
11
-48
21
0.189323
31
0
39
0
210
0
220
0
230
1
0
LINE
5
97
100
AcDbEntity
8
SK1
62
256
6
ByLayer
370
18
48
1
60
0
100
AcDbLine
10
-45.55
20
-8
30
0
11
-45.55
21
8
31
0
39
0
210
0
220
0
230
1
0
LINE
5
98
100
AcDbEntity
8
SK1
62
256
6
ByLayer
370
18
48
1
60
0
100
AcDbLine
10
0
20
8
30
0
11
0
21
-8
31
0
39
0
210
0
220
0
230
1
0
LINE
5
99
100
AcDbEntity
8
1
62
256
6
ByLayer
370
18
48
1
60
0
100
AcDbLine
10
1.542785
20
-6.829252
30
0
11
25.373492
21
-6.872147
31
0
39
0
210
0
220
0
230
1
0
LINE
5
9A
100
AcDbEntity
8
1
62
256
6
ByLayer
370
18
48
1
60
0
100
AcDbLine
10
45.508742
20
-6.908391
30
0
11
68.814451
21
-6.950341
31
0
39
0
210
0
220
0
230
1
0
LINE
5
9B
100
AcDbEntity
8
1
62
256
6
ByLayer
370
18
48
1
60
0
100
AcDbLine
10
89.008196
20
-6.98669
30
0
11
107.559798
21
-7.020083
31
0
39
0
210
0
220
0
230
1
0
LINE
5
9C
100
AcDbEntity
8
1
62
256
6
ByLayer
370
18
48
1
60
0
100
AcDbLine
10
110.142998
20
-7.024732
30
0
11
112.255861
21
-7.028536
31
0
39
0
210
0
220
0
230
1
0
LINE
5
9D
100
AcDbEntity
8
1
62
256
6
ByLayer
370
18
48
1
60
0
100
AcDbLine
10
132.771158
20
-7.065463
30
0
11
134.480842
21
-7.06854
31
0
39
0
210
0
220
0
230
1
0
LINE
5
9E
100
AcDbEntity
8
1
62
256
6
ByLayer
370
18
48
1
60
0
100
AcDbLine
10
153.698754
20
-7.103133
30
0
11
155.697742
21
-7.106731
31
0
39
0
210
0
220
0
230
1
0
LINE
5
9F
100
AcDbEntity
8
1
62
256
6
ByLayer
370
18
48
1
60
0
100
AcDbLine
10
155.697742
20
7.106731
30
0
11
153.698754
21
7.103133
31
0
39
0
210
0
220
0
230
1
0
LINE
5
A0
100
AcDbEntity
8
1
62
256
6
ByLayer
370
18
48
1
60
0
100
AcDbLine
10
134.480842
20
7.06854
30
0
11
132.771158
21
7.065463
31
0
39
0
210
0
220
0
230
1
0
LINE
5
A1
100
AcDbEntity
8
1
62
256
6
ByLayer
370
18
48
1
60
0
100
AcDbLine
10
112.255861
20
7.028536
30
0
11
110.142998
21
7.024732
31
0
39
0
210
0
220
0
230
1
0
LINE
5
A2
100
AcDbEntity
8
1
62
256
6
ByLayer
370
18
48
1
60
0
100
AcDbLine
10
107.559798
20
7.020083
30
0
11
89.008196
21
6.98669
31
0
39
0
210
0
220
0
230
1
0
LINE
5
A3
100
AcDbEntity
8
1
62
256
6
ByLayer
370
18
48
1
60
0
100
AcDbLine
10
68.814451
20
6.950341
30
0
11
45.508742
21
6.908391
31
0
39
0
210
0
220
0
230
1
0
LINE
5
A4
100
AcDbEntity
8
1
62
256
6
ByLayer
370
18
48
1
60
0
100
AcDbLine
10
25.373492
20
6.872147
30
0
11
1.542785
21
6.829252
31
0
39
0
210
0
220
0
230
1
0
LINE
5
A5
100
AcDbEntity
8
SK1
62
256
6
ByLayer
370
18
48
1
60
0
100
AcDbLine
10
-48
20
-5.55
30
0
11
-45.55
21
-8
31
0
39
0
210
0
220
0
230
1
0
LINE
5
A6
100
AcDbEntity
8
SK1
62
256
6
ByLayer
370
18
48
1
60
0
100
AcDbLine
10
-45.55
20
8
30
0
11
-48
21
5.55
31
0
39
0
210
0
220
0
230
1
0
LINE
5
A7
100
AcDbEntity
8
SK1
62
256
6
ByLayer
370
18
48
1
60
0
100
AcDbLine
10
-45.55
20
-8
30
0
11
0
21
-8
31
0
39
0
210
0
220
0
230
1
0
LINE
5
A8
100
AcDbEntity
8
SK1
62
256
6
ByLayer
370
18
48
1
60
0
100
AcDbLine
10
0
20
8
30
0
11
-45.55
21
8
31
0
39
0
210
0
220
0
230
1
0
LINE
5
A9
100
AcDbEntity
8
2
62
256
6
ByLayer
370
13
48
1
60
0
100
AcDbLine
10
186.5
20
-7.144
30
0
11
186.5
21
37.734569
31
0
39
0
210
0
220
0
230
1
0
LINE
5
AB
100
AcDbEntity
8
2
62
256
6
ByLayer
370
13
48
1
60
0
100
AcDbLine
10
180.5875
20
7.144
30
0
11
188.5
21
7.144
31
0
39
0
210
0
220
0
230
1
0
LINE
5
AC
100
AcDbEntity
8
2
62
256
6
ByLayer
370
13
48
1
60
0
100
AcDbLine
10
180.5875
20
-7.144
30
0
11
188.5
21
-7.144
31
0
39
0
210
0
220
0
230
1
0
LINE
5
AD
100
AcDbEntity
8
1
62
256
6
ByLayer
370
18
48
1
60
1
100
AcDbLine
10
186.5
20
7.144
30
0
11
186.960784
21
3.644002
31
0
39
0
210
0
220
0
230
1
0
LINE
5
AE
100
AcDbEntity
8
1
62
256
6
ByLayer
370
18
48
1
60
1
100
AcDbLine
10
186.960784
20
3.644002
30
0
11
186.039216
21
3.643998
31
0
39
0
210
0
220
0
230
1
0
LINE
5
AF
100
AcDbEntity
8
1
62
256
6
ByLayer
370
18
48
1
60
1
100
AcDbLine
10
186.039216
20
3.643998
30
0
11
186.5
21
7.144
31
0
39
0
210
0
220
0
230
1
0
LINE
5
B0
100
AcDbEntity
8
1
62
256
6
ByLayer
370
18
48
1
60
1
100
AcDbLine
10
186.5
20
-7.144
30
0
11
186.039216
21
-3.644002
31
0
39
0
210
0
220
0
230
1
0
LINE
5
B1
100
AcDbEntity
8
1
62
256
6
ByLayer
370
18
48
1
60
1
100
AcDbLine
10
186.039216
20
-3.644002
30
0
11
186.960784
21
-3.643998
31
0
39
0
210
0
220
0
230
1
0
LINE
5
B2
100
AcDbEntity
8
1
62
256
6
ByLayer
370
18
48
1
60
1
100
AcDbLine
10
186.960784
20
-3.643998
30
0
11
186.5
21
-7.144
31
0
39
0
210
0
220
0
230
1
0
LINE
5
B3
100
AcDbEntity
8
SK2
62
256
6
ByLayer
370
13
48
1
60
0
100
AcDbLine
10
-56.5
20
-8
30
0
11
-56.5
21
15.333771
31
0
39
0
210
0
220
0
230
1
0
LINE
5
B5
100
AcDbEntity
8
SK2
62
256
6
ByLayer
370
13
48
1
60
0
100
AcDbLine
10
-49.5875
20
8
30
0
11
-58.5
21
8
31
0
39
0
210
0
220
0
230
1
0
LINE
5
B6
100
AcDbEntity
8
SK2
62
256
6
ByLayer
370
13
48
1
60
0
100
AcDbLine
10
-49.5875
20
-8
30
0
11
-58.5
21
-8
31
0
39
0
210
0
220
0
230
1
0
LINE
5
B7
100
AcDbEntity
8
1
62
256
6
ByLayer
370
18
48
1
60
1
100
AcDbLine
10
-56.5
20
8
30
0
11
-56.039216
21
4.500002
31
0
39
0
210
0
220
0
230
1
0
LINE
5
B8
100
AcDbEntity
8
1
62
256
6
ByLayer
370
18
48
1
60
1
100
AcDbLine
10
-56.039216
20
4.500002
30
0
11
-56.960784
21
4.499998
31
0
39
0
210
0
220
0
230
1
0
LINE
5
B9
100
AcDbEntity
8
1
62
256
6
ByLayer
370
18
48
1
60
1
100
AcDbLine
10
-56.960784
20
4.499998
30
0
11
-56.5
21
8
31
0
39
0
210
0
220
0
230
1
0
LINE
5
BA
100
AcDbEntity
8
1
62
256
6
ByLayer
370
18
48
1
60
1
100
AcDbLine
10
-56.5
20
-8
30
0
11
-56.960784
21
-4.500002
31
0
39
0
210
0
220
0
230
1
0
LINE
5
BB
100
AcDbEntity
8
1
62
256
6
ByLayer
370
18
48
1
60
1
100
AcDbLine
10
-56.960784
20
-4.500002
30
0
11
-56.039216
21
-4.499998
31
0
39
0
210
0
220
0
230
1
0
LINE
5
BC
100
AcDbEntity
8
1
62
256
6
ByLayer
370
18
48
1
60
1
100
AcDbLine
10
-56.039216
20
-4.499998
30
0
11
-56.5
21
-8
31
0
39
0
210
0
220
0
230
1
0
LINE
5
BD
100
AcDbEntity
8
SK2
62
256
6
ByLayer
370
13
48
1
60
0
100
AcDbLine
10
179.542919
20
1.491776
30
0
11
187.959873
21
24.618973
31
0
39
0
210
0
220
0
230
1
0
LINE
5
BE
100
AcDbEntity
8
SK2
62
256
6
ByLayer
370
13
48
1
60
0
100
AcDbLine
10
179.542919
20
-1.491776
30
0
11
187.959873
21
-24.618973
31
0
39
0
210
0
220
0
230
1
0
LINE
5
BF
100
AcDbEntity
8
1
62
256
6
ByLayer
370
18
48
1
60
1
100
AcDbLine
10
187.27588
20
22.739571
30
0
11
190.692603
21
21.851701
31
0
39
0
210
0
220
0
230
1
0
LINE
5
C0
100
AcDbEntity
8
1
62
256
6
ByLayer
370
18
48
1
60
1
100
AcDbLine
10
190.692603
20
21.851701
30
0
11
190.346386
21
20.99764
31
0
39
0
210
0
220
0
230
1
0
LINE
5
C1
100
AcDbEntity
8
1
62
256
6
ByLayer
370
18
48
1
60
1
100
AcDbLine
10
190.346386
20
20.99764
30
0
11
187.27588
21
22.739571
31
0
39
0
210
0
220
0
230
1
0
LINE
5
C2
100
AcDbEntity
8
1
62
256
6
ByLayer
370
18
48
1
60
1
100
AcDbLine
10
187.27588
20
-22.739571
30
0
11
190.346383
21
-20.997641
31
0
39
0
210
0
220
0
230
1
0
LINE
5
C3
100
AcDbEntity
8
1
62
256
6
ByLayer
370
18
48
1
60
1
100
AcDbLine
10
190.346383
20
-20.997641
30
0
11
190.692606
21
-21.8517
31
0
39
0
210
0
220
0
230
1
0
LINE
5
C4
100
AcDbEntity
8
1
62
256
6
ByLayer
370
18
48
1
60
1
100
AcDbLine
10
190.692606
20
-21.8517
30
0
11
187.27588
21
-22.739571
31
0
39
0
210
0
220
0
230
1
0
LINE
5
11A
100
AcDbEntity
8
1
62
256
6
ByLayer
370
13
48
0.05
60
0
100
AcDbLine
10
-54.5
20
0
30
0
11
182.888357
21
0
31
0
39
0
210
0
220
0
230
1
0
LINE
5
11F
100
AcDbEntity
8
1
62
256
6
ByLayer
370
18
48
1
60
1
100
AcDbLine
10
186.5
20
7.144
30
0
11
186.960784
21
3.644002
31
0
39
0
210
0
220
0
230
1
0
LINE
5
120
100
AcDbEntity
8
1
62
256
6
ByLayer
370
18
48
1
60
1
100
AcDbLine
10
186.960784
20
3.644002
30
0
11
186.039216
21
3.643998
31
0
39
0
210
0
220
0
230
1
0
LINE
5
121
100
AcDbEntity
8
1
62
256
6
ByLayer
370
18
48
1
60
1
100
AcDbLine
10
186.039216
20
3.643998
30
0
11
186.5
21
7.144
31
0
39
0
210
0
220
0
230
1
0
LINE
5
123
100
AcDbEntity
8
1
62
256
6
ByLayer
370
18
48
1
60
1
100
AcDbLine
10
186.5
20
-7.144
30
0
11
186.039216
21
-3.644002
31
0
39
0
210
0
220
0
230
1
0
LINE
5
124
100
AcDbEntity
8
1
62
256
6
ByLayer
370
18
48
1
60
1
100
AcDbLine
10
186.039216
20
-3.644002
30
0
11
186.960784
21
-3.643998
31
0
39
0
210
0
220
0
230
1
0
LINE
5
125
100
AcDbEntity
8
1
62
256
6
ByLayer
370
18
48
1
60
1
100
AcDbLine
10
186.960784
20
-3.643998
30
0
11
186.5
21
-7.144
31
0
39
0
210
0
220
0
230
1
0
LINE
5
129
100
AcDbEntity
8
1
62
256
6
ByLayer
370
18
48
1
60
1
100
AcDbLine
10
-56.5
20
8
30
0
11
-56.039216
21
4.500002
31
0
39
0
210
0
220
0
230
1
0
LINE
5
12A
100
AcDbEntity
8
1
62
256
6
ByLayer
370
18
48
1
60
1
100
AcDbLine
10
-56.039216
20
4.500002
30
0
11
-56.960784
21
4.499998
31
0
39
0
210
0
220
0
230
1
0
LINE
5
12B
100
AcDbEntity
8
1
62
256
6
ByLayer
370
18
48
1
60
1
100
AcDbLine
10
-56.960784
20
4.499998
30
0
11
-56.5
21
8
31
0
39
0
210
0
220
0
230
1
0
LINE
5
12D
100
AcDbEntity
8
1
62
256
6
ByLayer
370
18
48
1
60
1
100
AcDbLine
10
-56.5
20
-8
30
0
11
-56.960784
21
-4.500002
31
0
39
0
210
0
220
0
230
1
0
LINE
5
12E
100
AcDbEntity
8
1
62
256
6
ByLayer
370
18
48
1
60
1
100
AcDbLine
10
-56.960784
20
-4.500002
30
0
11
-56.039216
21
-4.499998
31
0
39
0
210
0
220
0
230
1
0
LINE
5
12F
100
AcDbEntity
8
1
62
256
6
ByLayer
370
18
48
1
60
1
100
AcDbLine
10
-56.039216
20
-4.499998
30
0
11
-56.5
21
-8
31
0
39
0
210
0
220
0
230
1
0
LINE
5
132
100
AcDbEntity
8
1
62
256
6
ByLayer
370
18
48
1
60
1
100
AcDbLine
10
187.27588
20
22.739571
30
0
11
190.692603
21
21.851701
31
0
39
0
210
0
220
0
230
1
0
LINE
5
133
100
AcDbEntity
8
1
62
256
6
ByLayer
370
18
48
1
60
1
100
AcDbLine
10
190.692603
20
21.851701
30
0
11
190.346386
21
20.99764
31
0
39
0
210
0
220
0
230
1
0
LINE
5
134
100
AcDbEntity
8
1
62
256
6
ByLayer
370
18
48
1
60
1
100
AcDbLine
10
190.346386
20
20.99764
30
0
11
187.27588
21
22.739571
31
0
39
0
210
0
220
0
230
1
0
LINE
5
136
100
AcDbEntity
8
1
62
256
6
ByLayer
370
18
48
1
60
1
100
AcDbLine
10
187.27588
20
-22.739571
30
0
11
190.346383
21
-20.997641
31
0
39
0
210
0
220
0
230
1
0
LINE
5
137
100
AcDbEntity
8
1
62
256
6
ByLayer
370
18
48
1
60
1
100
AcDbLine
10
190.346383
20
-20.997641
30
0
11
190.692606
21
-21.8517
31
0
39
0
210
0
220
0
230
1
0
LINE
5
138
100
AcDbEntity
8
1
62
256
6
ByLayer
370
18
48
1
60
1
100
AcDbLine
10
190.692606
20
-21.8517
30
0
11
187.27588
21
-22.739571
31
0
39
0
210
0
220
0
230
1
0
MTEXT
5
11B
100
AcDbEntity
8
2
62
256
6
ByLayer
370
18
48
1
60
0
100
AcDbMText
10
185.158886
20
20.802438
30
0
210
0
220
0
230
1
1
%%c
40
3
41
0
44
1.084337
50
90
71
7
72
5
7
iso_b_vert
0
MTEXT
5
11E
100
AcDbEntity
8
2
62
256
6
ByLayer
370
18
48
1
60
0
100
AcDbMText
10
185.158886
20
26.779
30
0
210
0
220
0
230
1
1
\W0.7237;14.288
40
3
41
0
44
1.084337
50
90
71
7
72
5
7
iso_b_vert
0
MTEXT
5
127
100
AcDbEntity
8
SK2
62
256
6
ByLayer
370
18
48
1
60
0
100
AcDbMText
10
-57.841114
20
6.658437
30
0
210
0
220
0
230
1
1
%%c
40
3
41
0
44
1.084337
50
90
71
7
72
5
7
iso_b_vert
0
MTEXT
5
128
100
AcDbEntity
8
SK2
62
256
6
ByLayer
370
18
48
1
60
0
100
AcDbMText
10
-57.841114
20
12.635
30
0
210
0
220
0
230
1
1
\W0.5321;16
40
3
41
0
44
1.084337
50
90
71
7
72
5
7
iso_b_vert
0
MTEXT
5
131
100
AcDbEntity
8
SK2
62
256
6
ByLayer
370
18
48
1
60
0
100
AcDbMText
10
199.758068
20
-2.114886
30
0
210
0
220
0
230
1
1
\W0.7071;140%%d
40
3
41
0
44
1.084337
50
0
71
7
72
5
7
iso_b_vert
0
MTEXT
5
13A
100
AcDbEntity
8
SK6
62
256
6
ByLayer
370
18
48
1
60
0
100
AcDbMText
10
44.27548
20
-77.114886
30
0
210
0
220
0
230
1
1
\W0.7240;860.1-1429-116A1-SD S2BM
40
3
41
0
44
1.084337
50
0
71
7
72
5
7
iso_b_vert
0
HATCH
5
122
100
AcDbEntity
8
2
62
256
6
ByLayer
370
13
48
1
60
0
100
AcDbHatch
10
0
20
0
30
0
210
0
220
0
230
1
2
ANSI31
70
0
71
0
91
1
92
5
93
3
72
1
10
186.5
20
7.144
11
186.960783741553
21
3.64400169255319
72
1
10
186.960783741553
20
3.64400169255319
11
186.039216258447
21
3.64399830744682
72
1
10
186.039216258447
20
3.64399830744682
11
186.5
21
7.144
97
0
75
0
76
1
52
0
41
0.0062
77
0
78
1
53
45
43
0
44
0
45
-0.0139193969876572
46
0.0139193969876572
79
0
47
0
98
1
10
0
20
0
0
HATCH
5
126
100
AcDbEntity
8
2
62
256
6
ByLayer
370
13
48
1
60
0
100
AcDbHatch
10
0
20
0
30
0
210
0
220
0
230
1
2
ANSI31
70
0
71
0
91
1
92
5
93
3
72
1
10
186.5
20
-7.14399999999998
11
186.039216258447
21
-3.64400169255316
72
1
10
186.039216258447
20
-3.64400169255316
11
186.960783741553
21
-3.64399830744679
72
1
10
186.960783741553
20
-3.64399830744679
11
186.5
21
-7.14399999999998
97
0
75
0
76
1
52
0
41
0.0062
77
0
78
1
53
45
43
0
44
0
45
-0.0139193969876572
46
0.0139193969876572
79
0
47
0
98
1
10
0
20
0
0
HATCH
5
12C
100
AcDbEntity
8
SK2
62
256
6
ByLayer
370
13
48
1
60
0
100
AcDbHatch
10
0
20
0
30
0
210
0
220
0
230
1
2
ANSI31
70
0
71
0
91
1
92
5
93
3
72
1
10
-56.5
20
8
11
-56.0392162584472
21
4.50000169255318
72
1
10
-56.0392162584472
20
4.50000169255318
11
-56.9607837415528
21
4.49999830744682
72
1
10
-56.9607837415528
20
4.49999830744682
11
-56.5
21
8
97
0
75
0
76
1
52
0
41
0.0062
77
0
78
1
53
45
43
0
44
0
45
-0.0139193969876572
46
0.0139193969876572
79
0
47
0
98
1
10
0
20
0
0
HATCH
5
130
100
AcDbEntity
8
SK2
62
256
6
ByLayer
370
13
48
1
60
0
100
AcDbHatch
10
0
20
0
30
0
210
0
220
0
230
1
2
ANSI31
70
0
71
0
91
1
92
5
93
3
72
1
10
-56.5
20
-8
11
-56.9607837415528
21
-4.50000169255318
72
1
10
-56.9607837415528
20
-4.50000169255318
11
-56.0392162584472
21
-4.49999830744682
72
1
10
-56.0392162584472
20
-4.49999830744682
11
-56.5
21
-8
97
0
75
0
76
1
52
0
41
0.0062
77
0
78
1
53
45
43
0
44
0
45
-0.0139193969876572
46
0.0139193969876572
79
0
47
0
98
1
10
0
20
0
0
HATCH
5
135
100
AcDbEntity
8
SK2
62
256
6
ByLayer
370
13
48
1
60
0
100
AcDbHatch
10
0
20
0
30
0
210
0
220
0
230
1
2
ANSI31
70
0
71
0
91
1
92
5
93
3
72
1
10
187.275879686776
20
22.7395709547412
11
190.692602741818
21
21.8517008213608
72
1
10
190.692602741818
20
21.8517008213608
11
190.34638594594
21
20.9976396079922
72
1
10
190.34638594594
20
20.9976396079922
11
187.275879686776
21
22.7395709547412
97
0
75
0
76
1
52
0
41
0.0062
77
0
78
1
53
45
43
0
44
0
45
-0.0139193969876572
46
0.0139193969876572
79
0
47
0
98
1
10
0
20
0
0
HATCH
5
139
100
AcDbEntity
8
SK2
62
256
6
ByLayer
370
13
48
1
60
0
100
AcDbHatch
10
0
20
0
30
0
210
0
220
0
230
1
2
ANSI31
70
0
71
0
91
1
92
5
93
3
72
1
10
187.275879686776
20
-22.7395709547412
11
190.346382808803
21
-20.997640879729
72
1
10
190.346382808803
20
-20.997640879729
11
190.692605878956
21
-21.851699549624
72
1
10
190.692605878956
20
-21.851699549624
11
187.275879686776
21
-22.7395709547412
97
0
75
0
76
1
52
0
41
0.0062
77
0
78
1
53
45
43
0
44
0
45
-0.0139193969876572
46
0.0139193969876572
79
0
47
0
98
1
10
0
20
0
0
DIMENSION
5
13D
100
AcDbEntity
8
SK2
62
256
6
ByLayer
370
18
48
1
60
0
100
AcDbDimension
2
_U0
10
62.1
20
-26.832746
30
0
11
120.55
21
-26.832746
31
0
70
32
71
1
72
1
41
1
210
0
220
0
230
1
3
Standard
100
AcDbAlignedDimension
13
179
23
-7.144
33
0
14
62.1
24
-7.144
34
0
50
0
100
AcDbRotatedDimension
1001
ACAD
1000
DSTYLE
1002
{
1070
   371
1070
    13
1070
   372
1070
    13
1070
   170
1070
     0
1070
   144
1040
1.0
1070
   277
1070
     2
1070
   284
1070
     8
1070
   278
1070
    46
1070
   146
1040
1.166667
1070
   345
1005
16
1070
   347
1005
16
1070
   346
1005
16
1070
   344
1005
0
1070
   343
1005
0
1070
   172
1070
     1
1070
    76
1070
     0
1070
    75
1070
     0
1070
   282
1070
     0
1070
   281
1070
     0
1070
     3
1000

1070
    71
1070
     0
1070
    74
1070
     0
1070
   279
1070
     0
1070
   173
1070
     1
1070
   340
1005
11C
1070
   271
1070
     2
1070
   272
1070
     2
1070
    77
1070
     1
1070
    73
1070
     1
1070
   171
1070
     3
1070
   274
1070
     4
1070
   177
1070
     2
1070
   176
1070
     2
1070
   178
1070
     2
1070
    78
1070
     8
1070
    48
1040
-0.1
1070
    41
1040
3.5
1070
   147
1040
1.5
1070
    42
1040
1.5875
1070
    44
1040
2.0
1070
   140
1040
3.0
1002
}
1001
ACAD_DSTYLE_DIM_LINETYPE
1070
   380
1005
16
1001
ACAD_DSTYLE_DIM_EXT1_LINETYPE
1070
   381
1005
16
1001
ACAD_DSTYLE_DIM_EXT2_LINETYPE
1070
   382
1005
16
0
DIMENSION
5
158
100
AcDbEntity
8
SK2
62
256
6
ByLayer
370
18
48
1
60
0
100
AcDbDimension
2
_U1
10
7
20
-36.832746
30
0
11
93
21
-36.832746
31
0
70
32
71
1
72
1
41
1
210
0
220
0
230
1
3
Standard
100
AcDbAlignedDimension
13
179
23
-7.144
33
0
14
7
24
-7.144
34
0
50
0
100
AcDbRotatedDimension
1001
ACAD
1000
DSTYLE
1002
{
1070
   371
1070
    13
1070
   372
1070
    13
1070
     3
1000

1070
   170
1070
     0
1070
   144
1040
1.0
1070
   277
1070
     2
1070
   284
1070
     8
1070
   278
1070
    46
1070
   146
1040
1.166667
1070
   345
1005
16
1070
   347
1005
16
1070
   346
1005
16
1070
   344
1005
0
1070
   343
1005
0
1070
   172
1070
     1
1070
    76
1070
     0
1070
    75
1070
     0
1070
   282
1070
     0
1070
   281
1070
     0
1070
    71
1070
     0
1070
    74
1070
     0
1070
   279
1070
     0
1070
   173
1070
     1
1070
   340
1005
11C
1070
   271
1070
     2
1070
   272
1070
     2
1070
    77
1070
     1
1070
    73
1070
     1
1070
   171
1070
     3
1070
   274
1070
     4
1070
   177
1070
     2
1070
   176
1070
     2
1070
   178
1070
     2
1070
    78
1070
     8
1070
    48
1040
-0.1
1070
    41
1040
3.5
1070
   147
1040
1.5
1070
    42
1040
1.5875
1070
    44
1040
2.0
1070
   140
1040
3.0
1002
}
1001
ACAD_DSTYLE_DIM_LINETYPE
1070
   380
1005
16
1001
ACAD_DSTYLE_DIM_EXT1_LINETYPE
1070
   381
1005
16
1001
ACAD_DSTYLE_DIM_EXT2_LINETYPE
1070
   382
1005
16
0
DIMENSION
5
170
100
AcDbEntity
8
SK2
62
256
6
ByLayer
370
18
48
1
60
0
100
AcDbDimension
2
_U2
10
0
20
-44.832746
30
0
11
-24
21
-44.832746
31
0
70
32
71
1
72
1
41
1
210
0
220
0
230
1
3
Standard
100
AcDbAlignedDimension
13
-48
23
-8
33
0
14
0
24
-8
34
0
50
0
100
AcDbRotatedDimension
1001
ACAD
1000
DSTYLE
1002
{
1070
   371
1070
    13
1070
   372
1070
    13
1070
     3
1000

1070
   170
1070
     0
1070
   144
1040
1.0
1070
   277
1070
     2
1070
   284
1070
     8
1070
   278
1070
    46
1070
   146
1040
1.166667
1070
   345
1005
16
1070
   347
1005
16
1070
   346
1005
16
1070
   344
1005
0
1070
   343
1005
0
1070
   172
1070
     1
1070
    76
1070
     0
1070
    75
1070
     0
1070
   282
1070
     0
1070
   281
1070
     0
1070
    71
1070
     0
1070
    74
1070
     0
1070
   279
1070
     0
1070
   173
1070
     1
1070
   340
1005
11C
1070
   271
1070
     2
1070
   272
1070
     2
1070
    77
1070
     1
1070
    73
1070
     1
1070
   171
1070
     3
1070
   274
1070
     4
1070
   177
1070
     2
1070
   176
1070
     2
1070
   178
1070
     2
1070
    78
1070
     8
1070
    48
1040
-0.1
1070
    41
1040
3.5
1070
   147
1040
1.5
1070
    42
1040
1.5875
1070
    44
1040
2.0
1070
   140
1040
3.0
1002
}
1001
ACAD_DSTYLE_DIM_LINETYPE
1070
   380
1005
16
1001
ACAD_DSTYLE_DIM_EXT1_LINETYPE
1070
   381
1005
16
1001
ACAD_DSTYLE_DIM_EXT2_LINETYPE
1070
   382
1005
16
0
DIMENSION
5
188
100
AcDbEntity
8
SK2
62
256
6
ByLayer
370
18
48
1
60
0
100
AcDbDimension
2
_U3
10
179
20
-52.832746
30
0
11
65.5
21
-52.832746
31
0
70
32
71
1
72
1
41
1
210
0
220
0
230
1
3
Standard
100
AcDbAlignedDimension
13
-48
23
-8
33
0
14
179
24
-7.144
34
0
50
0
100
AcDbRotatedDimension
1001
ACAD
1000
DSTYLE
1002
{
1070
   371
1070
    13
1070
   372
1070
    13
1070
     3
1000

1070
   170
1070
     0
1070
   144
1040
1.0
1070
   277
1070
     2
1070
   284
1070
     8
1070
   278
1070
    46
1070
   146
1040
1.166667
1070
   345
1005
16
1070
   347
1005
16
1070
   346
1005
16
1070
   344
1005
0
1070
   343
1005
0
1070
   172
1070
     1
1070
    76
1070
     0
1070
    75
1070
     0
1070
   282
1070
     0
1070
   281
1070
     0
1070
    71
1070
     0
1070
    74
1070
     0
1070
   279
1070
     0
1070
   173
1070
     1
1070
   340
1005
11C
1070
   271
1070
     2
1070
   272
1070
     2
1070
    77
1070
     1
1070
    73
1070
     1
1070
   171
1070
     3
1070
   274
1070
     4
1070
   177
1070
     2
1070
   176
1070
     2
1070
   178
1070
     2
1070
    78
1070
     8
1070
    48
1040
-0.1
1070
    41
1040
3.5
1070
   147
1040
1.5
1070
    42
1040
1.5875
1070
    44
1040
2.0
1070
   140
1040
3.0
1002
}
1001
ACAD_DSTYLE_DIM_LINETYPE
1070
   380
1005
16
1001
ACAD_DSTYLE_DIM_EXT1_LINETYPE
1070
   381
1005
16
1001
ACAD_DSTYLE_DIM_EXT2_LINETYPE
1070
   382
1005
16
0
DIMENSION
5
1A0
100
AcDbEntity
8
2
62
256
6
ByLayer
370
18
48
1
60
0
100
AcDbDimension
2
_U4
10
0
20
-44.832746
30
0
11
89.5
21
-44.832746
31
0
70
32
71
1
72
1
41
1
210
0
220
0
230
1
3
Standard
100
AcDbAlignedDimension
13
179
23
-7.144
33
0
14
0
24
-7.144
34
0
50
0
100
AcDbRotatedDimension
1001
ACAD
1000
DSTYLE
1002
{
1070
   371
1070
    13
1070
   372
1070
    13
1070
     3
1000

1070
   170
1070
     0
1070
   144
1040
1.0
1070
   277
1070
     2
1070
   284
1070
     8
1070
   278
1070
    46
1070
   146
1040
1.166667
1070
   345
1005
16
1070
   347
1005
16
1070
   346
1005
16
1070
   344
1005
0
1070
   343
1005
0
1070
   172
1070
     1
1070
    76
1070
     0
1070
    75
1070
     0
1070
   282
1070
     0
1070
   281
1070
     0
1070
    71
1070
     0
1070
    74
1070
     0
1070
   279
1070
     0
1070
   173
1070
     1
1070
   340
1005
11C
1070
   271
1070
     2
1070
   272
1070
     2
1070
    77
1070
     1
1070
    73
1070
     1
1070
   171
1070
     3
1070
   274
1070
     4
1070
   177
1070
     2
1070
   176
1070
     2
1070
   178
1070
     2
1070
    78
1070
     8
1070
    48
1040
-0.1
1070
    41
1040
3.5
1070
   147
1040
1.5
1070
    42
1040
1.5875
1070
    44
1040
2.0
1070
   140
1040
3.0
1002
}
1001
ACAD_DSTYLE_DIM_LINETYPE
1070
   380
1005
16
1001
ACAD_DSTYLE_DIM_EXT1_LINETYPE
1070
   381
1005
16
1001
ACAD_DSTYLE_DIM_EXT2_LINETYPE
1070
   382
1005
16
0
ENDSEC
0
SECTION
2
OBJECTS
0
DICTIONARY
5
228
330
0
100
AcDbDictionary
280
0
281
1
3
ACAD_GROUP
350
229
3
ACAD_MLINESTYLE
350
22a
0
DICTIONARY
5
229
330
0
100
AcDbDictionary
280
0
281
1
0
DICTIONARY
5
22a
330
0
100
AcDbDictionary
280
0
281
1
3
Standard
350
18
0
MLINESTYLE
5
18
330
22a
100
AcDbMlineStyle
2
Standard
70
0
3

62
256
51
90
52
90
71
2
49
-0.5
62
256
6
ByLayer
49
0.5
62
256
6
ByLayer
0
RASTERVARIABLES
5
216
330

100
AcDbRasterVariables
90
0
70
1
71
1
72
1
0
ENDSEC
0
EOF
