0
SECTION
2
HEADER
9
$ACADVER
1
AC1015
9
$DWGCODEPAGE
3
ANSI_1252
9
$HANDSEED
5
234
9
$ANGBASE
50
0
9
$ANGDIR
70
0
9
$ATTMODE
70
1
9
$AUNITS
70
0
9
$AUPREC
70
0
9
$CECOLOR
62
256
9
$CELTSCALE
40
1
9
$CELTYPE
6
ByLayer
9
$CELWEIGHT
370
18
9
$CLAYER
8
0
9
$CMLJUST
70
0
9
$CMLSCALE
40
1
9
$CMLSTYLE
2
Standard
9
$DIMSTYLE
2
Standard
9
$TEXTSIZE
40
0.2
9
$TEXTSTYLE
7
Standard
9
$LUNITS
70
2
9
$LUPREC
70
4
9
$EXTNAMES
290
1
9
$INSUNITS
70
4
9
$LTSCALE
40
1
9
$LWDISPLAY
290
1
9
$PDMODE
70
0
9
$PDSIZE
40
0
9
$PLINEGEN
70
0
0
ENDSEC
0
SECTION
2
CLASSES
0
CLASS
1
RASTERVARIABLES
2
AcDbRasterVariables
3
ISM
90
0
280
0
281
0
0
ENDSEC
0
SECTION
2
TABLES
0
TABLE
2
VPORT
5
22a
100
AcDbSymbolTable
0
VPORT
5
1
100
AcDbSymbolTableRecord
100
AcDbViewportTableRecord
2
*Active
70
0
10
0
20
0
11
1
21
1
12
-1
22
1
13
0
23
0
14
0.5
24
0.5
15
10
25
10
16
0
26
0
36
1
17
0
27
0
37
0
0
ENDTAB
0
TABLE
2
LTYPE
5
22b
100
AcDbSymbolTable
0
LTYPE
5
14
100
AcDbSymbolTableRecord
100
AcDbLinetypeTableRecord
70
0
2
ByBlock
3

72
65
73
0
40
0
0
LTYPE
5
15
100
AcDbSymbolTableRecord
100
AcDbLinetypeTableRecord
70
0
2
ByLayer
3

72
65
73
0
40
0
0
LTYPE
5
16
100
AcDbSymbolTableRecord
100
AcDbLinetypeTableRecord
70
0
2
Continuous
3
Solid line
72
65
73
0
40
0
0
LTYPE
5
6E
100
AcDbSymbolTableRecord
100
AcDbLinetypeTableRecord
70
0
2
CENTER
3
____ _ ____ _ ____ _ ____
72
65
73
4
40
47.5
49
22
74
0
49
-8.5
74
0
49
8.5
74
0
49
-8.5
74
0
0
LTYPE
5
6F
100
AcDbSymbolTableRecord
100
AcDbLinetypeTableRecord
70
0
2
DASHED
3
__ __ __ __ __ __ __ __ __
72
65
73
2
40
25.72
49
12.86
74
0
49
-12.86
74
0
0
ENDTAB
0
TABLE
2
LAYER
5
22c
100
AcDbSymbolTable
0
LAYER
5
10
100
AcDbSymbolTableRecord
100
AcDbLayerTableRecord
2
0
70
0
62
7
6
Continuous
290
1
370
-3
390
0
0
LAYER
5
71
100
AcDbSymbolTableRecord
100
AcDbLayerTableRecord
2
80
70
0
62
-6
6
Continuous
290
1
370
-3
390
0
0
LAYER
5
73
100
AcDbSymbolTableRecord
100
AcDbLayerTableRecord
2
81
70
0
62
-3
6
Continuous
290
1
370
-3
390
0
0
LAYER
5
75
100
AcDbSymbolTableRecord
100
AcDbLayerTableRecord
2
1
70
0
62
4
6
Continuous
290
1
370
-3
390
0
0
LAYER
5
83
100
AcDbSymbolTableRecord
100
AcDbLayerTableRecord
2
4
70
0
62
-2
6
CENTER
290
1
370
-3
390
0
0
LAYER
5
A8
100
AcDbSymbolTableRecord
100
AcDbLayerTableRecord
2
2
70
0
62
7
6
Continuous
290
1
370
-3
390
0
0
LAYER
5
13F
100
AcDbSymbolTableRecord
100
AcDbLayerTableRecord
2
Defpoints
70
0
62
7
6
Continuous
290
0
370
-3
390
0
0
LAYER
5
216
100
AcDbSymbolTableRecord
100
AcDbLayerTableRecord
2
SK4
70
0
62
2
6
CENTER
290
1
370
-3
390
0
0
LAYER
5
217
100
AcDbSymbolTableRecord
100
AcDbLayerTableRecord
2
SK1
70
0
62
4
6
Continuous
290
1
370
-3
390
0
0
LAYER
5
218
100
AcDbSymbolTableRecord
100
AcDbLayerTableRecord
2
SK2
70
0
62
7
6
Continuous
290
1
370
-3
390
0
0
LAYER
5
219
100
AcDbSymbolTableRecord
100
AcDbLayerTableRecord
2
SK6
70
0
62
5
6
Continuous
290
1
370
-3
390
0
0
ENDTAB
0
TABLE
2
STYLE
5
22d
100
AcDbSymbolTable
0
STYLE
5
11
100
AcDbSymbolTableRecord
100
AcDbTextStyleTableRecord
2
Standard
3
txt
70
0
71
0
40
0
41
1
42
0
50
0
0
STYLE
5
11B
100
AcDbSymbolTableRecord
100
AcDbTextStyleTableRecord
2
iso_b_vert
3
simplex.shx
70
0
71
0
40
0
41
1
42
0
50
0
0
STYLE
5
11C
100
AcDbSymbolTableRecord
100
AcDbTextStyleTableRecord
2
DWGDirectTextStyle
3
simplex
70
0
71
0
40
0
41
1
42
0
50
0
0
ENDTAB
0
TABLE
2
DIMSTYLE
5
22e
100
AcDbSymbolTable
100
AcDbDimStyleTable
0
DIMSTYLE
105
27
100
AcDbSymbolTableRecord
100
AcDbDimStyleTableRecord
2
Standard
70
0
3
<>
41
0.18
42
0.0625
44
0.18
140
0.18
147
0.09
73
0
74
0
77
1
271
2
275
0
278
52
280
0
340
11
0
ENDTAB
0
TABLE
2
VIEW
5
22f
100
AcDbSymbolTable
0
ENDTAB
0
TABLE
2
UCS
5
230
100
AcDbSymbolTable
0
ENDTAB
0
TABLE
2
APPID
5
231
100
AcDbSymbolTable
0
APPID
5
12
100
AcDbSymbolTableRecord
100
AcDbRegAppTableRecord
2
ACAD
70
0
0
APPID
5
13B
100
AcDbSymbolTableRecord
100
AcDbRegAppTableRecord
2
ACAD_DSTYLE_DIMBREAK
70
0
0
APPID
5
1D5
100
AcDbSymbolTableRecord
100
AcDbRegAppTableRecord
2
ACAD_DSTYLE_DIM_LINETYPE
70
0
0
APPID
5
1D6
100
AcDbSymbolTableRecord
100
AcDbRegAppTableRecord
2
ACAD_DSTYLE_DIM_EXT1_LINETYPE
70
0
0
APPID
5
1D7
100
AcDbSymbolTableRecord
100
AcDbRegAppTableRecord
2
ACAD_DSTYLE_DIM_EXT2_LINETYPE
70
0
0
APPID
5
212
100
AcDbSymbolTableRecord
100
AcDbRegAppTableRecord
2
ACAD_MLEADERVER
70
0
0
ENDTAB
0
TABLE
2
BLOCK_RECORD
5
232
100
AcDbSymbolTable
0
BLOCK_RECORD
5
1F
100
AcDbSymbolTableRecord
100
AcDbBlockTableRecord
2
*Model_Space
340
0
70
0
0
BLOCK_RECORD
5
1B
100
AcDbSymbolTableRecord
100
AcDbBlockTableRecord
2
*Paper_Space
340
0
70
0
0
BLOCK_RECORD
5
23
100
AcDbSymbolTableRecord
100
AcDbBlockTableRecord
2
*Paper_Space0
340
0
70
0
0
BLOCK_RECORD
5
140
100
AcDbSymbolTableRecord
100
AcDbBlockTableRecord
2
*D1
340
0
70
0
0
BLOCK_RECORD
5
14C
100
AcDbSymbolTableRecord
100
AcDbBlockTableRecord
2
_U0
340
0
70
0
0
BLOCK_RECORD
5
15A
100
AcDbSymbolTableRecord
100
AcDbBlockTableRecord
2
*D3
340
0
70
0
0
BLOCK_RECORD
5
166
100
AcDbSymbolTableRecord
100
AcDbBlockTableRecord
2
_U1
340
0
70
0
0
BLOCK_RECORD
5
172
100
AcDbSymbolTableRecord
100
AcDbBlockTableRecord
2
*D5
340
0
70
0
0
BLOCK_RECORD
5
17E
100
AcDbSymbolTableRecord
100
AcDbBlockTableRecord
2
_U2
340
0
70
0
0
BLOCK_RECORD
5
18A
100
AcDbSymbolTableRecord
100
AcDbBlockTableRecord
2
*D7
340
0
70
0
0
BLOCK_RECORD
5
196
100
AcDbSymbolTableRecord
100
AcDbBlockTableRecord
2
_U3
340
0
70
0
0
BLOCK_RECORD
5
1A2
100
AcDbSymbolTableRecord
100
AcDbBlockTableRecord
2
*D9
340
0
70
0
0
BLOCK_RECORD
5
1AE
100
AcDbSymbolTableRecord
100
AcDbBlockTableRecord
2
_U4
340
0
70
0
0
ENDTAB
0
ENDSEC
0
SECTION
2
BLOCKS
0
BLOCK
5
20
100
AcDbEntity
8
0
100
AcDbBlockBegin
2
*Model_Space
70
0
10
0
20
0
30
0
3
*Model_Space
0
ENDBLK
5
21
100
AcDbEntity
8
0
100
AcDbBlockEnd
0
BLOCK
5
1C
100
AcDbEntity
8
0
100
AcDbBlockBegin
2
*Paper_Space
70
0
10
0
20
0
30
0
3
*Paper_Space
0
ENDBLK
5
1D
100
AcDbEntity
8
0
100
AcDbBlockEnd
0
BLOCK
5
24
100
AcDbEntity
8
0
100
AcDbBlockBegin
2
*Paper_Space0
70
0
10
0
20
0
30
0
3
*Paper_Space0
0
ENDBLK
5
25
100
AcDbEntity
8
0
100
AcDbBlockEnd
0
BLOCK
5
141
100
AcDbEntity
8
0
100
AcDbBlockBegin
2
*D1
70
1
10
0
20
0
30
0
3
*D1
0
LINE
5
143
100
AcDbEntity
8
0
62
256
6
ByLayer
370
-2
48
1
60
0
100
AcDbLine
10
157
20
-8.3345
30
0
11
157
21
-27.438536
31
0
39
0
210
0
220
0
230
1
0
LINE
5
144
100
AcDbEntity
8
0
62
256
6
ByLayer
370
-2
48
1
60
0
100
AcDbLine
10
46.7
20
-8.3345
30
0
11
46.7
21
-27.438536
31
0
39
0
210
0
220
0
230
1
0
LINE
5
145
100
AcDbEntity
8
0
62
256
6
ByLayer
370
-2
48
1
60
0
100
AcDbLine
10
153.5
20
-25.438536
30
0
11
50.2
21
-25.438536
31
0
39
0
210
0
220
0
230
1
0
SOLID
5
146
100
AcDbEntity
8
0
62
256
6
ByLayer
370
-1
48
1
60
0
100
AcDbTrace
10
153.5
20
-26.021869
30
0
11
153.5
21
-24.855203
31
0
12
157
22
-25.438536
32
0
13
157
23
-25.438536
33
0
39
0
210
0
220
0
230
1
0
SOLID
5
147
100
AcDbEntity
8
0
62
256
6
ByLayer
370
-1
48
1
60
0
100
AcDbTrace
10
50.2
20
-24.855203
30
0
11
50.2
21
-26.021869
31
0
12
46.7
22
-25.438536
32
0
13
46.7
23
-25.438536
33
0
39
0
210
0
220
0
230
1
0
MTEXT
5
148
100
AcDbEntity
8
0
62
256
6
ByLayer
370
18
48
1
60
0
100
AcDbMText
10
101.85
20
-19.438536
30
0
210
0
220
0
230
1
1
\A1;110.3
40
3
41
0
44
1
50
0
71
5
72
5
7
iso_b_vert
0
POINT
5
149
100
AcDbEntity
8
Defpoints
62
0
6
ByLayer
370
-1
48
1
60
0
100
AcDbPoint
10
157
20
-6.747
30
0
39
0
210
0
220
0
230
1
50
360
0
POINT
5
14A
100
AcDbEntity
8
Defpoints
62
0
6
ByLayer
370
-1
48
1
60
0
100
AcDbPoint
10
46.7
20
-6.747
30
0
39
0
210
0
220
0
230
1
50
360
0
POINT
5
14B
100
AcDbEntity
8
Defpoints
62
0
6
ByLayer
370
-1
48
1
60
0
100
AcDbPoint
10
46.7
20
-25.438536
30
0
39
0
210
0
220
0
230
1
50
360
0
ENDBLK
5
142
100
AcDbEntity
8
0
100
AcDbBlockEnd
0
BLOCK
5
155
100
AcDbEntity
8
0
100
AcDbBlockBegin
2
_U0
70
0
10
0
20
0
30
0
3
_U0
0
MTEXT
5
14D
100
AcDbEntity
8
SK2
62
256
6
ByLayer
370
18
48
1
60
0
100
AcDbMText
10
98.117515
20
-23.240921
30
0
210
0
220
0
230
1
1
\W0.6261;110.3
40
3
41
0
44
1.084337
50
0
71
7
72
5
7
iso_b_vert
0
MTEXT
5
14E
100
AcDbEntity
8
SK2
62
256
6
ByLayer
370
18
48
1
60
0
100
AcDbMText
10
96.017515
20
-23.240921
30
0
210
0
220
0
230
1
1
\W1.1313;{\H1.88x;(}
40
3
41
0
44
1.084337
50
0
71
7
72
5
7
iso_b_vert
0
MTEXT
5
14F
100
AcDbEntity
8
SK2
62
256
6
ByLayer
370
18
48
1
60
0
100
AcDbMText
10
105.900485
20
-23.240921
30
0
210
0
220
0
230
1
1
\W1.1313;{\H1.88x;)}
40
3
41
0
44
1.084337
50
0
71
7
72
5
7
iso_b_vert
0
LINE
5
150
100
AcDbEntity
8
SK2
62
256
6
ByLayer
370
13
48
1
60
0
100
AcDbLine
10
157
20
-8.3345
30
0
11
157
21
-27.438536
31
0
39
0
210
0
220
0
230
1
0
LINE
5
151
100
AcDbEntity
8
SK2
62
256
6
ByLayer
370
13
48
1
60
0
100
AcDbLine
10
46.7
20
-8.3345
30
0
11
46.7
21
-27.438536
31
0
39
0
210
0
220
0
230
1
0
LINE
5
152
100
AcDbEntity
8
SK2
62
256
6
ByLayer
370
13
48
1
60
0
100
AcDbLine
10
157
20
-25.438536
30
0
11
46.7
21
-25.438536
31
0
39
0
210
0
220
0
230
1
0
SOLID
5
153
100
AcDbEntity
8
SK2
62
256
6
ByLayer
370
18
48
1
60
0
100
AcDbTrace
10
157
20
-25.438536
30
0
11
153.500002
21
-25.89932
31
0
12
153.499998
22
-24.977752
32
0
13
153.499998
23
-24.977752
33
0
39
0
210
0
220
0
230
1
0
SOLID
5
154
100
AcDbEntity
8
SK2
62
256
6
ByLayer
370
18
48
1
60
0
100
AcDbTrace
10
46.7
20
-25.438536
30
0
11
50.199998
21
-24.977752
31
0
12
50.200002
22
-25.89932
32
0
13
50.200002
23
-25.89932
33
0
39
0
210
0
220
0
230
1
0
ENDBLK
5
156
100
AcDbEntity
8
0
100
AcDbBlockEnd
0
BLOCK
5
15B
100
AcDbEntity
8
0
100
AcDbBlockBegin
2
*D3
70
1
10
0
20
0
30
0
3
*D3
0
LINE
5
15D
100
AcDbEntity
8
0
62
256
6
ByLayer
370
-2
48
1
60
0
100
AcDbLine
10
157
20
-8.3345
30
0
11
157
21
-37.438536
31
0
39
0
210
0
220
0
230
1
0
LINE
5
15E
100
AcDbEntity
8
0
62
256
6
ByLayer
370
-2
48
1
60
0
100
AcDbLine
10
6
20
-8.3345
30
0
11
6
21
-37.438536
31
0
39
0
210
0
220
0
230
1
0
LINE
5
15F
100
AcDbEntity
8
0
62
256
6
ByLayer
370
-2
48
1
60
0
100
AcDbLine
10
153.5
20
-35.438536
30
0
11
9.5
21
-35.438536
31
0
39
0
210
0
220
0
230
1
0
SOLID
5
160
100
AcDbEntity
8
0
62
256
6
ByLayer
370
-1
48
1
60
0
100
AcDbTrace
10
153.5
20
-36.021869
30
0
11
153.5
21
-34.855203
31
0
12
157
22
-35.438536
32
0
13
157
23
-35.438536
33
0
39
0
210
0
220
0
230
1
0
SOLID
5
161
100
AcDbEntity
8
0
62
256
6
ByLayer
370
-1
48
1
60
0
100
AcDbTrace
10
9.5
20
-34.855203
30
0
11
9.5
21
-36.021869
31
0
12
6
22
-35.438536
32
0
13
6
23
-35.438536
33
0
39
0
210
0
220
0
230
1
0
MTEXT
5
162
100
AcDbEntity
8
0
62
256
6
ByLayer
370
18
48
1
60
0
100
AcDbMText
10
81.5
20
-29.438536
30
0
210
0
220
0
230
1
1
\A1;151
40
3
41
0
44
1
50
0
71
5
72
5
7
iso_b_vert
0
POINT
5
163
100
AcDbEntity
8
Defpoints
62
0
6
ByLayer
370
-1
48
1
60
0
100
AcDbPoint
10
157
20
-6.747
30
0
39
0
210
0
220
0
230
1
50
360
0
POINT
5
164
100
AcDbEntity
8
Defpoints
62
0
6
ByLayer
370
-1
48
1
60
0
100
AcDbPoint
10
6
20
-6.747
30
0
39
0
210
0
220
0
230
1
50
360
0
POINT
5
165
100
AcDbEntity
8
Defpoints
62
0
6
ByLayer
370
-1
48
1
60
0
100
AcDbPoint
10
6
20
-35.438536
30
0
39
0
210
0
220
0
230
1
50
360
0
ENDBLK
5
15C
100
AcDbEntity
8
0
100
AcDbBlockEnd
0
BLOCK
5
16D
100
AcDbEntity
8
0
100
AcDbBlockBegin
2
_U1
70
0
10
0
20
0
30
0
3
_U1
0
MTEXT
5
167
100
AcDbEntity
8
SK2
62
256
6
ByLayer
370
18
48
1
60
0
100
AcDbMText
10
79.496143
20
-34.553421
30
0
210
0
220
0
230
1
1
\W0.5919;151
40
3
41
0
44
1.084337
50
0
71
7
72
5
7
iso_b_vert
0
LINE
5
168
100
AcDbEntity
8
SK2
62
256
6
ByLayer
370
13
48
1
60
0
100
AcDbLine
10
157
20
-8.3345
30
0
11
157
21
-37.438536
31
0
39
0
210
0
220
0
230
1
0
LINE
5
169
100
AcDbEntity
8
SK2
62
256
6
ByLayer
370
13
48
1
60
0
100
AcDbLine
10
6
20
-8.3345
30
0
11
6
21
-37.438536
31
0
39
0
210
0
220
0
230
1
0
LINE
5
16A
100
AcDbEntity
8
SK2
62
256
6
ByLayer
370
13
48
1
60
0
100
AcDbLine
10
157
20
-35.438536
30
0
11
6
21
-35.438536
31
0
39
0
210
0
220
0
230
1
0
SOLID
5
16B
100
AcDbEntity
8
SK2
62
256
6
ByLayer
370
18
48
1
60
0
100
AcDbTrace
10
157
20
-35.438536
30
0
11
153.500002
21
-35.89932
31
0
12
153.499998
22
-34.977752
32
0
13
153.499998
23
-34.977752
33
0
39
0
210
0
220
0
230
1
0
SOLID
5
16C
100
AcDbEntity
8
SK2
62
256
6
ByLayer
370
18
48
1
60
0
100
AcDbTrace
10
6
20
-35.438536
30
0
11
9.499998
21
-34.977752
31
0
12
9.500002
22
-35.89932
32
0
13
9.500002
23
-35.89932
33
0
39
0
210
0
220
0
230
1
0
ENDBLK
5
16E
100
AcDbEntity
8
0
100
AcDbBlockEnd
0
BLOCK
5
173
100
AcDbEntity
8
0
100
AcDbBlockBegin
2
*D5
70
1
10
0
20
0
30
0
3
*D5
0
LINE
5
175
100
AcDbEntity
8
0
62
256
6
ByLayer
370
-2
48
1
60
0
100
AcDbLine
10
-45
20
-8.5875
30
0
11
-45
21
-45.438536
31
0
39
0
210
0
220
0
230
1
0
LINE
5
176
100
AcDbEntity
8
0
62
256
6
ByLayer
370
-2
48
1
60
0
100
AcDbLine
10
0
20
-8.5875
30
0
11
0
21
-45.438536
31
0
39
0
210
0
220
0
230
1
0
LINE
5
177
100
AcDbEntity
8
0
62
256
6
ByLayer
370
-2
48
1
60
0
100
AcDbLine
10
-41.5
20
-43.438536
30
0
11
-3.5
21
-43.438536
31
0
39
0
210
0
220
0
230
1
0
SOLID
5
178
100
AcDbEntity
8
0
62
256
6
ByLayer
370
-1
48
1
60
0
100
AcDbTrace
10
-41.5
20
-42.855203
30
0
11
-41.5
21
-44.021869
31
0
12
-45
22
-43.438536
32
0
13
-45
23
-43.438536
33
0
39
0
210
0
220
0
230
1
0
SOLID
5
179
100
AcDbEntity
8
0
62
256
6
ByLayer
370
-1
48
1
60
0
100
AcDbTrace
10
-3.5
20
-44.021869
30
0
11
-3.5
21
-42.855203
31
0
12
0
22
-43.438536
32
0
13
0
23
-43.438536
33
0
39
0
210
0
220
0
230
1
0
MTEXT
5
17A
100
AcDbEntity
8
0
62
256
6
ByLayer
370
18
48
1
60
0
100
AcDbMText
10
-22.5
20
-37.438536
30
0
210
0
220
0
230
1
1
\A1;45
40
3
41
0
44
1
50
0
71
5
72
5
7
iso_b_vert
0
POINT
5
17B
100
AcDbEntity
8
Defpoints
62
0
6
ByLayer
370
-1
48
1
60
0
100
AcDbPoint
10
-45
20
-7
30
0
39
0
210
0
220
0
230
1
50
360
0
POINT
5
17C
100
AcDbEntity
8
Defpoints
62
0
6
ByLayer
370
-1
48
1
60
0
100
AcDbPoint
10
0
20
-7
30
0
39
0
210
0
220
0
230
1
50
360
0
POINT
5
17D
100
AcDbEntity
8
Defpoints
62
0
6
ByLayer
370
-1
48
1
60
0
100
AcDbPoint
10
0
20
-43.438536
30
0
39
0
210
0
220
0
230
1
50
360
0
ENDBLK
5
174
100
AcDbEntity
8
0
100
AcDbBlockEnd
0
BLOCK
5
185
100
AcDbEntity
8
0
100
AcDbBlockBegin
2
_U2
70
0
10
0
20
0
30
0
3
_U2
0
MTEXT
5
17F
100
AcDbEntity
8
SK2
62
256
6
ByLayer
370
18
48
1
60
0
100
AcDbMText
10
-24.290771
20
-42.553421
30
0
210
0
220
0
230
1
1
\W0.7361;45
40
3
41
0
44
1.084337
50
0
71
7
72
5
7
iso_b_vert
0
LINE
5
180
100
AcDbEntity
8
SK2
62
256
6
ByLayer
370
13
48
1
60
0
100
AcDbLine
10
-45
20
-8.5875
30
0
11
-45
21
-45.438536
31
0
39
0
210
0
220
0
230
1
0
LINE
5
181
100
AcDbEntity
8
SK2
62
256
6
ByLayer
370
13
48
1
60
0
100
AcDbLine
10
0
20
-8.5875
30
0
11
0
21
-45.438536
31
0
39
0
210
0
220
0
230
1
0
LINE
5
182
100
AcDbEntity
8
SK2
62
256
6
ByLayer
370
13
48
1
60
0
100
AcDbLine
10
-45
20
-43.438536
30
0
11
0
21
-43.438536
31
0
39
0
210
0
220
0
230
1
0
SOLID
5
183
100
AcDbEntity
8
SK2
62
256
6
ByLayer
370
18
48
1
60
0
100
AcDbTrace
10
-45
20
-43.438536
30
0
11
-41.500002
21
-42.977752
31
0
12
-41.499998
22
-43.89932
32
0
13
-41.499998
23
-43.89932
33
0
39
0
210
0
220
0
230
1
0
SOLID
5
184
100
AcDbEntity
8
SK2
62
256
6
ByLayer
370
18
48
1
60
0
100
AcDbTrace
10
0
20
-43.438536
30
0
11
-3.499998
21
-43.89932
31
0
12
-3.500002
22
-42.977752
32
0
13
-3.500002
23
-42.977752
33
0
39
0
210
0
220
0
230
1
0
ENDBLK
5
186
100
AcDbEntity
8
0
100
AcDbBlockEnd
0
BLOCK
5
18B
100
AcDbEntity
8
0
100
AcDbBlockBegin
2
*D7
70
1
10
0
20
0
30
0
3
*D7
0
LINE
5
18D
100
AcDbEntity
8
0
62
256
6
ByLayer
370
-2
48
1
60
0
100
AcDbLine
10
-45
20
-8.5875
30
0
11
-45
21
-53.438536
31
0
39
0
210
0
220
0
230
1
0
LINE
5
18E
100
AcDbEntity
8
0
62
256
6
ByLayer
370
-2
48
1
60
0
100
AcDbLine
10
157
20
-8.3345
30
0
11
157
21
-53.438536
31
0
39
0
210
0
220
0
230
1
0
LINE
5
18F
100
AcDbEntity
8
0
62
256
6
ByLayer
370
-2
48
1
60
0
100
AcDbLine
10
-41.5
20
-51.438536
30
0
11
153.5
21
-51.438536
31
0
39
0
210
0
220
0
230
1
0
SOLID
5
190
100
AcDbEntity
8
0
62
256
6
ByLayer
370
-1
48
1
60
0
100
AcDbTrace
10
-41.5
20
-50.855203
30
0
11
-41.5
21
-52.021869
31
0
12
-45
22
-51.438536
32
0
13
-45
23
-51.438536
33
0
39
0
210
0
220
0
230
1
0
SOLID
5
191
100
AcDbEntity
8
0
62
256
6
ByLayer
370
-1
48
1
60
0
100
AcDbTrace
10
153.5
20
-52.021869
30
0
11
153.5
21
-50.855203
31
0
12
157
22
-51.438536
32
0
13
157
23
-51.438536
33
0
39
0
210
0
220
0
230
1
0
MTEXT
5
192
100
AcDbEntity
8
0
62
256
6
ByLayer
370
18
48
1
60
0
100
AcDbMText
10
56
20
-45.438536
30
0
210
0
220
0
230
1
1
\A1;202
40
3
41
0
44
1
50
0
71
5
72
5
7
iso_b_vert
0
POINT
5
193
100
AcDbEntity
8
Defpoints
62
0
6
ByLayer
370
-1
48
1
60
0
100
AcDbPoint
10
-45
20
-7
30
0
39
0
210
0
220
0
230
1
50
360
0
POINT
5
194
100
AcDbEntity
8
Defpoints
62
0
6
ByLayer
370
-1
48
1
60
0
100
AcDbPoint
10
157
20
-6.747
30
0
39
0
210
0
220
0
230
1
50
360
0
POINT
5
195
100
AcDbEntity
8
Defpoints
62
0
6
ByLayer
370
-1
48
1
60
0
100
AcDbPoint
10
157
20
-51.438536
30
0
39
0
210
0
220
0
230
1
50
360
0
ENDBLK
5
18C
100
AcDbEntity
8
0
100
AcDbBlockEnd
0
BLOCK
5
19D
100
AcDbEntity
8
0
100
AcDbBlockBegin
2
_U3
70
0
10
0
20
0
30
0
3
_U3
0
MTEXT
5
197
100
AcDbEntity
8
SK2
62
256
6
ByLayer
370
18
48
1
60
0
100
AcDbMText
10
53.246258
20
-50.553421
30
0
210
0
220
0
230
1
1
\W0.7138;202
40
3
41
0
44
1.084337
50
0
71
7
72
5
7
iso_b_vert
0
LINE
5
198
100
AcDbEntity
8
SK2
62
256
6
ByLayer
370
13
48
1
60
0
100
AcDbLine
10
-45
20
-8.5875
30
0
11
-45
21
-53.438536
31
0
39
0
210
0
220
0
230
1
0
LINE
5
199
100
AcDbEntity
8
SK2
62
256
6
ByLayer
370
13
48
1
60
0
100
AcDbLine
10
157
20
-8.3345
30
0
11
157
21
-53.438536
31
0
39
0
210
0
220
0
230
1
0
LINE
5
19A
100
AcDbEntity
8
SK2
62
256
6
ByLayer
370
13
48
1
60
0
100
AcDbLine
10
-45
20
-51.438536
30
0
11
157
21
-51.438536
31
0
39
0
210
0
220
0
230
1
0
SOLID
5
19B
100
AcDbEntity
8
SK2
62
256
6
ByLayer
370
18
48
1
60
0
100
AcDbTrace
10
-45
20
-51.438536
30
0
11
-41.500002
21
-50.977752
31
0
12
-41.499998
22
-51.89932
32
0
13
-41.499998
23
-51.89932
33
0
39
0
210
0
220
0
230
1
0
SOLID
5
19C
100
AcDbEntity
8
SK2
62
256
6
ByLayer
370
18
48
1
60
0
100
AcDbTrace
10
157
20
-51.438536
30
0
11
153.500002
21
-51.89932
31
0
12
153.499998
22
-50.977752
32
0
13
153.499998
23
-50.977752
33
0
39
0
210
0
220
0
230
1
0
ENDBLK
5
19E
100
AcDbEntity
8
0
100
AcDbBlockEnd
0
BLOCK
5
1A3
100
AcDbEntity
8
0
100
AcDbBlockBegin
2
*D9
70
1
10
0
20
0
30
0
3
*D9
0
LINE
5
1A5
100
AcDbEntity
8
0
62
256
6
ByLayer
370
-2
48
1
60
0
100
AcDbLine
10
157
20
-8.3345
30
0
11
157
21
-45.438536
31
0
39
0
210
0
220
0
230
1
0
LINE
5
1A6
100
AcDbEntity
8
0
62
256
6
ByLayer
370
-2
48
1
60
0
100
AcDbLine
10
0
20
-8.3345
30
0
11
0
21
-45.438536
31
0
39
0
210
0
220
0
230
1
0
LINE
5
1A7
100
AcDbEntity
8
0
62
256
6
ByLayer
370
-2
48
1
60
0
100
AcDbLine
10
153.5
20
-43.438536
30
0
11
3.5
21
-43.438536
31
0
39
0
210
0
220
0
230
1
0
SOLID
5
1A8
100
AcDbEntity
8
0
62
256
6
ByLayer
370
-1
48
1
60
0
100
AcDbTrace
10
153.5
20
-44.021869
30
0
11
153.5
21
-42.855203
31
0
12
157
22
-43.438536
32
0
13
157
23
-43.438536
33
0
39
0
210
0
220
0
230
1
0
SOLID
5
1A9
100
AcDbEntity
8
0
62
256
6
ByLayer
370
-1
48
1
60
0
100
AcDbTrace
10
3.5
20
-42.855203
30
0
11
3.5
21
-44.021869
31
0
12
0
22
-43.438536
32
0
13
0
23
-43.438536
33
0
39
0
210
0
220
0
230
1
0
MTEXT
5
1AA
100
AcDbEntity
8
0
62
256
6
ByLayer
370
18
48
1
60
0
100
AcDbMText
10
78.5
20
-37.438536
30
0
210
0
220
0
230
1
1
\A1;157
40
3
41
0
44
1
50
0
71
5
72
5
7
iso_b_vert
0
POINT
5
1AB
100
AcDbEntity
8
Defpoints
62
0
6
ByLayer
370
-1
48
1
60
0
100
AcDbPoint
10
157
20
-6.747
30
0
39
0
210
0
220
0
230
1
50
360
0
POINT
5
1AC
100
AcDbEntity
8
Defpoints
62
0
6
ByLayer
370
-1
48
1
60
0
100
AcDbPoint
10
0
20
-6.747
30
0
39
0
210
0
220
0
230
1
50
360
0
POINT
5
1AD
100
AcDbEntity
8
Defpoints
62
0
6
ByLayer
370
-1
48
1
60
0
100
AcDbPoint
10
0
20
-43.438536
30
0
39
0
210
0
220
0
230
1
50
360
0
ENDBLK
5
1A4
100
AcDbEntity
8
0
100
AcDbBlockEnd
0
BLOCK
5
1B5
100
AcDbEntity
8
0
100
AcDbBlockBegin
2
_U4
70
0
10
0
20
0
30
0
3
_U4
0
MTEXT
5
1AF
100
AcDbEntity
8
2
62
256
6
ByLayer
370
18
48
1
60
0
100
AcDbMText
10
76.121201
20
-42.553421
30
0
210
0
220
0
230
1
1
\W0.6217;157
40
3
41
0
44
1.084337
50
0
71
7
72
5
7
iso_b_vert
0
LINE
5
1B0
100
AcDbEntity
8
2
62
256
6
ByLayer
370
13
48
1
60
0
100
AcDbLine
10
157
20
-8.3345
30
0
11
157
21
-45.438536
31
0
39
0
210
0
220
0
230
1
0
LINE
5
1B1
100
AcDbEntity
8
2
62
256
6
ByLayer
370
13
48
1
60
0
100
AcDbLine
10
0
20
-8.3345
30
0
11
0
21
-45.438536
31
0
39
0
210
0
220
0
230
1
0
LINE
5
1B2
100
AcDbEntity
8
2
62
256
6
ByLayer
370
13
48
1
60
0
100
AcDbLine
10
157
20
-43.438536
30
0
11
0
21
-43.438536
31
0
39
0
210
0
220
0
230
1
0
SOLID
5
1B3
100
AcDbEntity
8
2
62
256
6
ByLayer
370
18
48
1
60
0
100
AcDbTrace
10
157
20
-43.438536
30
0
11
153.500002
21
-43.89932
31
0
12
153.499998
22
-42.977752
32
0
13
153.499998
23
-42.977752
33
0
39
0
210
0
220
0
230
1
0
SOLID
5
1B4
100
AcDbEntity
8
2
62
256
6
ByLayer
370
18
48
1
60
0
100
AcDbTrace
10
0
20
-43.438536
30
0
11
3.499998
21
-42.977752
31
0
12
3.500002
22
-43.89932
32
0
13
3.500002
23
-43.89932
33
0
39
0
210
0
220
0
230
1
0
ENDBLK
5
1B6
100
AcDbEntity
8
0
100
AcDbBlockEnd
0
ENDSEC
0
SECTION
2
ENTITIES
0
ARC
5
C3
100
AcDbEntity
8
1
62
256
6
ByLayer
370
18
48
1
60
0
100
AcDbCircle
39
0
10
1.188719
20
-7.270956
30
0
40
0.8
210
0
220
0
230
1
100
AcDbArc
50
89.896868
51
137.983282
0
ARC
5
C4
100
AcDbEntity
8
1
62
256
6
ByLayer
370
18
48
1
60
0
100
AcDbCircle
39
0
10
1.188719
20
7.270956
30
0
40
0.8
210
0
220
0
230
1
100
AcDbArc
50
222.016718
51
270.103132
0
ARC
5
C5
100
AcDbEntity
8
1
62
256
6
ByLayer
370
18
48
1
60
0
100
AcDbCircle
39
0
10
0
20
-6.2
30
0
40
0.800000000000001
210
0
220
0
230
1
100
AcDbArc
50
270
51
317.983282
0
ARC
5
C6
100
AcDbEntity
8
1
62
256
6
ByLayer
370
18
48
1
60
0
100
AcDbCircle
39
0
10
0
20
6.2
30
0
40
0.800000000000001
210
0
220
0
230
1
100
AcDbArc
50
42.016718
51
90
0
ARC
5
C7
100
AcDbEntity
8
SK2
62
256
6
ByLayer
370
13
48
1
60
0
100
AcDbCircle
39
0
10
157
20
0
30
0
40
24.4156787411256
210
0
220
0
230
1
100
AcDbArc
50
7.057875
51
69.997804
0
ARC
5
C8
100
AcDbEntity
8
SK2
62
256
6
ByLayer
370
13
48
1
60
0
100
AcDbCircle
39
0
10
157
20
0
30
0
40
24.4156787411256
210
0
220
0
230
1
100
AcDbArc
50
290.002196
51
352.942125
0
ELLIPSE
5
C9
100
AcDbEntity
8
1
62
256
6
ByLayer
370
18
48
1
60
0
100
AcDbEllipse
10
89.630295
20
-6.474075
30
0
11
0.1
21
0
31
0
210
0
220
0
230
1
40
0.999999
41
1.57643513666282
42
3.13173645153586
0
ELLIPSE
5
CA
100
AcDbEntity
8
1
62
256
6
ByLayer
370
18
48
1
60
0
100
AcDbEllipse
10
89.630295
20
6.474075
30
0
11
0.1
21
0
31
0
210
0
220
0
230
1
40
0.999999
41
-3.13173645153587
42
-1.55561339970955
0
POINT
5
70
100
AcDbEntity
8
80
62
256
6
ByLayer
370
18
48
1
60
0
100
AcDbPoint
10
0
20
0
30
0
39
0
210
0
220
0
230
1
50
360
0
POINT
5
72
100
AcDbEntity
8
81
62
256
6
ByLayer
370
18
48
1
60
0
100
AcDbPoint
10
157
20
0
30
0
39
0
210
0
220
0
230
1
50
360
0
POINT
5
74
100
AcDbEntity
8
1
62
256
6
ByLayer
370
18
48
1
60
0
100
AcDbPoint
10
-159.967161
20
-200
30
0
39
0
210
0
220
0
230
1
50
360
0
POINT
5
76
100
AcDbEntity
8
1
62
256
6
ByLayer
370
13
48
1
60
1
100
AcDbPoint
10
-46.5
20
0
30
0
39
0
210
0
220
0
230
1
50
360
0
POINT
5
77
100
AcDbEntity
8
1
62
256
6
ByLayer
370
13
48
1
60
1
100
AcDbPoint
10
156.054932
20
0
30
0
39
0
210
0
220
0
230
1
50
360
0
POINT
5
78
100
AcDbEntity
8
1
62
256
6
ByLayer
370
18
48
1
60
1
100
AcDbPoint
10
157
20
-6.747
30
0
39
0
210
0
220
0
230
1
50
360
0
POINT
5
79
100
AcDbEntity
8
1
62
256
6
ByLayer
370
18
48
1
60
1
100
AcDbPoint
10
46.7
20
-6.747
30
0
39
0
210
0
220
0
230
1
50
360
0
POINT
5
7A
100
AcDbEntity
8
1
62
256
6
ByLayer
370
18
48
1
60
1
100
AcDbPoint
10
157
20
-6.747
30
0
39
0
210
0
220
0
230
1
50
360
0
POINT
5
7B
100
AcDbEntity
8
1
62
256
6
ByLayer
370
18
48
1
60
1
100
AcDbPoint
10
6
20
-6.747
30
0
39
0
210
0
220
0
230
1
50
360
0
POINT
5
7C
100
AcDbEntity
8
1
62
256
6
ByLayer
370
18
48
1
60
1
100
AcDbPoint
10
-45
20
-7
30
0
39
0
210
0
220
0
230
1
50
360
0
POINT
5
7D
100
AcDbEntity
8
1
62
256
6
ByLayer
370
18
48
1
60
1
100
AcDbPoint
10
0
20
-7
30
0
39
0
210
0
220
0
230
1
50
360
0
POINT
5
7E
100
AcDbEntity
8
1
62
256
6
ByLayer
370
18
48
1
60
1
100
AcDbPoint
10
-45
20
-7
30
0
39
0
210
0
220
0
230
1
50
360
0
POINT
5
7F
100
AcDbEntity
8
1
62
256
6
ByLayer
370
18
48
1
60
1
100
AcDbPoint
10
157
20
-6.747
30
0
39
0
210
0
220
0
230
1
50
360
0
POINT
5
80
100
AcDbEntity
8
1
62
256
6
ByLayer
370
18
48
1
60
1
100
AcDbPoint
10
157
20
-6.747
30
0
39
0
210
0
220
0
230
1
50
360
0
POINT
5
81
100
AcDbEntity
8
1
62
256
6
ByLayer
370
18
48
1
60
1
100
AcDbPoint
10
0
20
-6.747
30
0
39
0
210
0
220
0
230
1
50
360
0
SPLINE
5
CB
100
AcDbEntity
8
1
62
256
6
ByLayer
370
18
48
1
60
0
100
AcDbSpline
70
4
71
3
72
8
73
4
40
0
40
0
40
0
40
0
40
1
40
1
40
1
40
1
41
1
10
156.331936152714
20
2.15832237477733
30
0
41
1
10
156.506370094583
20
1.67005320923909
30
0
41
1
10
156.679376951216
20
1.18128248206295
30
0
41
1
10
156.850928430911
20
0.69200024988163
30
0
0
SPLINE
5
CC
100
AcDbEntity
8
1
62
256
6
ByLayer
370
18
48
1
60
0
100
AcDbSpline
70
4
71
3
72
8
73
4
40
0
40
0
40
0
40
0
40
1
40
1
40
1
40
1
41
1
10
156.850928430911
20
0.69200024988163
30
0
41
1
10
156.898801901751
20
0.555460251994305
30
0
41
1
10
156.947618784172
20
0.419444307667988
30
0
41
1
10
156.997377010407
20
0.283933781485501
30
0
0
SPLINE
5
CD
100
AcDbEntity
8
1
62
256
6
ByLayer
370
18
48
1
60
0
100
AcDbSpline
70
4
71
3
72
24
73
20
40
0
40
0
40
0
40
0
40
0.499999999999892
40
0.499999999999892
40
0.74999999999989
40
0.74999999999989
40
0.874999999999837
40
0.874999999999837
40
0.937499999999862
40
0.937499999999862
40
0.968749999999878
40
0.968749999999878
40
0.984374999999885
40
0.984374999999885
40
0.992187499999889
40
0.992187499999889
40
0.996093749999945
40
0.996093749999945
40
1
40
1
40
1
40
1
41
1
10
154.434035862222
20
-6.74665968730068
30
0
41
1
10
154.462758019802
20
-6.69998725252515
30
0
41
1
10
154.49150089676
20
-6.65311768117087
30
0
41
1
10
154.534628565947
20
-6.58255921160421
30
0
41
1
10
154.549002652312
20
-6.55900592486952
30
0
41
1
10
154.570585204047
20
-6.52357369983042
30
0
41
1
10
154.57778836131
20
-6.51173444794617
30
0
41
1
10
154.588570436215
20
-6.49401001152032
30
0
41
1
10
154.592152618519
20
-6.48812473924983
30
0
41
1
10
154.597561351971
20
-6.4792176737331
30
0
41
1
10
154.59938301576
20
-6.47620835157565
30
0
41
1
10
154.602061957816
20
-6.47180685349187
30
0
41
1
10
154.602926034874
20
-6.47040059938769
30
0
41
1
10
154.604293774512
20
-6.46813887779763
30
0
41
1
10
154.604767133283
20
-6.46734673734969
30
0
41
1
10
154.605463794887
20
-6.4661880614357
30
0
41
1
10
154.60569727812
20
-6.46580091978799
30
0
41
1
10
154.606110605712
20
-6.4651334405971
30
0
41
1
10
154.606303854234
20
-6.46483527421799
30
0
41
1
10
154.606310282074
20
-6.46486593209443
30
0
0
SPLINE
5
CE
100
AcDbEntity
8
1
62
256
6
ByLayer
370
18
48
1
60
0
100
AcDbSpline
70
4
71
3
72
12
73
8
40
0
40
0
40
0
40
0
40
0.655723411445701
40
0.655723411445701
40
0.983585117168483
40
0.983585117168483
40
1
40
1
40
1
40
1
41
1
10
154.434035862222
20
6.74665968730068
30
0
41
1
10
154.462758019799
20
6.69998725252884
30
0
41
1
10
154.491500896755
20
6.65311768117829
30
0
41
1
10
154.534628565939
20
6.58255921161725
30
0
41
1
10
154.549002652303
20
6.55900592488447
30
0
41
1
10
154.564111395112
20
6.53420179690931
30
0
41
1
10
154.564831860071
20
6.53301886643089
30
0
41
1
10
154.565552390825
20
6.53183570176844
30
0
0
SPLINE
5
CF
100
AcDbEntity
8
1
62
256
6
ByLayer
370
18
48
1
60
0
100
AcDbSpline
70
4
71
3
72
8
73
4
40
0
40
0
40
0
40
0
40
1
40
1
40
1
40
1
41
1
10
154.771097303819
20
-6.17907570771831
30
0
41
1
10
154.716134260004
20
-6.2743408950783
30
0
41
1
10
154.661201704173
20
-6.36961082399475
30
0
41
1
10
154.606310282074
20
-6.46486593209443
30
0
0
SPLINE
5
D0
100
AcDbEntity
8
1
62
256
6
ByLayer
370
18
48
1
60
0
100
AcDbSpline
70
4
71
3
72
82
73
78
40
0
40
0
40
0
40
0
40
0.0164219391185042
40
0.0164219391185042
40
0.08082173225789
40
0.08082173225789
40
0.113021628827582
40
0.113021628827582
40
0.129121577112428
40
0.129121577112428
40
0.145221525397274
40
0.145221525397274
40
0.177421421966968
40
0.177421421966968
40
0.193521370251815
40
0.193521370251815
40
0.209621318536661
40
0.209621318536661
40
0.274021111676053
40
0.274021111676053
40
0.338420904815446
40
0.338420904815446
40
0.346470878957868
40
0.346470878957868
40
0.354520853100291
40
0.354520853100291
40
0.370620801385138
40
0.370620801385138
40
0.402820697954832
40
0.402820697954832
40
0.435020594524526
40
0.435020594524526
40
0.467220491094219
40
0.467220491094219
40
0.483320439379066
40
0.483320439379066
40
0.499420387663913
40
0.499420387663913
40
0.531620284233605
40
0.531620284233605
40
0.547720232518451
40
0.547720232518451
40
0.563820180803297
40
0.563820180803297
40
0.596020077372987
40
0.596020077372987
40
0.628219973942677
40
0.628219973942677
40
0.660419870512367
40
0.660419870512367
40
0.676519818797213
40
0.676519818797213
40
0.692619767082059
40
0.692619767082059
40
0.724819663651751
40
0.724819663651751
40
0.757019560221443
40
0.757019560221443
40
0.77311950850629
40
0.77311950850629
40
0.789219456791137
40
0.789219456791137
40
0.821419353360829
40
0.821419353360829
40
0.837519301645675
40
0.837519301645675
40
0.853619249930521
40
0.853619249930521
40
0.885819146500213
40
0.885819146500213
40
0.918019043069905
40
0.918019043069905
40
0.950218939639597
40
0.950218939639597
40
0.982418836209289
40
0.982418836209289
40
1
40
1
40
1
40
1
41
1
10
138.881514875223
20
-1.87373760454687
30
0
41
1
10
138.708301539339
20
-1.78532172229043
30
0
41
1
10
138.535142985837
20
-1.69636886314387
30
0
41
1
10
137.683636721161
20
-1.25663353355
30
0
41
1
10
137.00677881292
20
-0.899806450639602
30
0
41
1
10
135.991153762063
20
-0.360068465368272
30
0
41
1
10
135.652520763237
20
-0.179474856627309
30
0
41
1
10
135.144002980758
20
0.0916219413004171
30
0
41
1
10
134.974404452301
20
0.182025988404945
30
0
41
1
10
134.63496439832
20
0.362802575279289
30
0
41
1
10
134.465063146329
20
0.453204643315786
30
0
41
1
10
133.955656329897
20
0.723778036126191
30
0
41
1
10
133.616280945514
20
0.903427603895722
30
0
41
1
10
133.107198739492
20
1.17111301347225
30
0
41
1
10
132.937492982192
20
1.26002841774445
30
0
41
1
10
132.597978932547
20
1.4370890556437
30
0
41
1
10
132.428106635285
20
1.52527082282592
30
0
41
1
10
131.57918941845
20
1.96352927342326
30
0
41
1
10
130.902089543559
20
2.30537761329916
30
0
41
1
10
129.548013879233
20
2.96482631913904
30
0
41
1
10
128.870858501461
20
3.28216894149495
30
0
41
1
10
128.106747035038
20
3.62126730240428
30
0
41
1
10
128.021801990015
20
3.65870032819476
30
0
41
1
10
127.852030030085
20
3.73297301195191
30
0
41
1
10
127.767180959443
20
3.7698229046307
30
0
41
1
10
127.512732586489
20
3.87950090355449
30
0
41
1
10
127.343232038778
20
3.9514581394416
30
0
41
1
10
126.834979586191
20
4.16366696257876
30
0
41
1
10
126.496474782791
20
4.30024870734184
30
0
41
1
10
125.819617880262
20
4.56297878067082
30
0
41
1
10
125.481269570157
20
4.68913713480529
30
0
41
1
10
124.804252050351
20
4.93035649592329
30
0
41
1
10
124.465607560205
20
5.04544930268952
30
0
41
1
10
123.956975364077
20
5.20922586094636
30
0
41
1
10
123.787318287131
20
5.26233863240222
30
0
41
1
10
123.447714136312
20
5.36551383980327
30
0
41
1
10
123.277836871869
20
5.41555380639528
30
0
41
1
10
122.768383693685
20
5.56076210831748
30
0
41
1
10
122.428727638695
20
5.65108041191419
30
0
41
1
10
121.919182129809
20
5.77645486623979
30
0
41
1
10
121.749311191917
20
5.81656737695536
30
0
41
1
10
121.409903230941
20
5.89329389771675
30
0
41
1
10
121.24032194408
20
5.92991703345913
30
0
41
1
10
120.731818725247
20
6.03449677869497
30
0
41
1
10
120.393143129399
20
6.09716623462902
30
0
41
1
10
119.715964623606
20
6.20816240909841
30
0
41
1
10
119.3774574814
20
6.2564924644322
30
0
41
1
10
118.70015503921
20
6.33846409595978
30
0
41
1
10
118.361381841411
20
6.37207977760349
30
0
41
1
10
117.852535530624
20
6.41126457566207
30
0
41
1
10
117.682791915355
20
6.42245627700873
30
0
41
1
10
117.343083743817
20
6.4410677877419
30
0
41
1
10
117.173313782142
20
6.44847756303082
30
0
41
1
10
116.664167741585
20
6.46501065372362
30
0
41
1
10
116.324949022463
20
6.46842420750326
30
0
41
1
10
115.646469730997
20
6.46003030590057
30
0
41
1
10
115.307212788264
20
6.44824257821989
30
0
41
1
10
114.797806851229
20
6.41923617078101
30
0
41
1
10
114.627932167816
20
6.40767638637851
30
0
41
1
10
114.288423901053
20
6.38082135200227
30
0
41
1
10
114.118733018687
20
6.36552319997836
30
0
41
1
10
113.609758049961
20
6.31404325375658
30
0
41
1
10
113.270567203635
20
6.27226185288075
30
0
41
1
10
112.761622879321
20
6.19858780505243
30
0
41
1
10
112.591949235736
20
6.17219604457688
30
0
41
1
10
112.252458099085
20
6.11579826308437
30
0
41
1
10
112.082596626836
20
6.08578399642224
30
0
41
1
10
111.573109291961
20
5.99044270497163
30
0
41
1
10
111.23356088315
20
5.91982792031192
30
0
41
1
10
110.554214952441
20
5.76465799330737
30
0
41
1
10
110.21433460908
20
5.68004120825759
30
0
41
1
10
109.535706006172
20
5.49782545869292
30
0
41
1
10
109.196794359893
20
5.40025488009303
30
0
41
1
10
108.51917016465
20
5.19291442907695
30
0
41
1
10
108.18047153565
20
5.08312711158558
30
0
41
1
10
107.656640516663
20
4.90440583687379
30
0
41
1
10
107.471600276613
20
4.83955433404401
30
0
41
1
10
107.28648393448
20
4.77300939052265
30
0
0
SPLINE
5
D1
100
AcDbEntity
8
1
62
256
6
ByLayer
370
18
48
1
60
0
100
AcDbSpline
70
4
71
3
72
10
73
6
40
0
40
0
40
0
40
0
40
0.5
40
0.5
40
1
40
1
40
1
40
1
41
1
10
156.331936152714
20
2.15832237477736
30
0
41
1
10
156.190881868002
20
2.13938332797792
30
0
41
1
10
156.049674682635
20
2.12252827873849
30
0
41
1
10
155.767070812109
20
2.09140101486761
30
0
41
1
10
155.6256734074
20
2.07713860753017
30
0
41
1
10
155.48420118613
20
2.06389593113059
30
0
0
SPLINE
5
D2
100
AcDbEntity
8
1
62
256
6
ByLayer
370
18
48
1
60
0
100
AcDbSpline
70
4
71
3
72
33
73
29
40
0
40
0
40
0
40
0
40
0.12499999999999
40
0.12499999999999
40
0.187499999999981
40
0.187499999999981
40
0.218749999999977
40
0.218749999999977
40
0.249999999999973
40
0.249999999999973
40
0.312499999999964
40
0.312499999999964
40
0.34374999999996
40
0.34374999999996
40
0.374999999999956
40
0.374999999999956
40
0.390624999999957
40
0.390624999999957
40
0.406249999999958
40
0.43749999999996
40
0.499999999999965
40
0.624999999999974
40
0.624999999999974
40
0.687499999999981
40
0.687499999999981
40
0.749999999999988
40
0.749999999999988
40
1
40
1
40
1
40
1
41
1
10
156.331936152714
20
2.15832237477736
30
0
41
1
10
156.254020523861
20
2.30155964294309
30
0
41
1
10
156.178363951561
20
2.45083987344367
30
0
41
1
10
156.067839723971
20
2.68386017709457
30
0
41
1
10
156.031491253701
20
2.7630533672565
30
0
41
1
10
155.977646503434
20
2.88414646161849
30
0
41
1
10
155.959811189859
20
2.92489487794012
30
0
41
1
10
155.924355501464
20
3.00716615728786
30
0
41
1
10
155.906769052703
20
3.04861205266599
30
0
41
1
10
155.854633137225
20
3.17333708721023
30
0
41
1
10
155.820616128755
20
3.25721287415359
30
0
41
1
10
155.770586229186
20
3.38406021280724
30
0
41
1
10
155.754075605467
20
3.42651503104946
30
0
41
1
10
155.721367329876
20
3.5117605097241
30
0
41
1
10
155.705158781404
20
3.55458155115323
30
0
41
1
10
155.681109001493
20
3.61894095302958
30
0
41
1
10
155.673146366221
20
3.64041362818028
30
0
41
1
10
155.65726462377
20
3.68337474273119
30
0
41
1
10
155.633465541669
20
3.74782494002721
30
0
41
1
10
155.578098289978
20
3.89826812298156
30
0
41
1
10
155.468012433364
20
4.19938941866604
30
0
41
1
10
155.374748088641
20
4.457889781532
30
0
41
1
10
155.282172764783
20
4.71663927335695
30
0
41
1
10
155.251424444733
20
4.80294365237779
30
0
41
1
10
155.190214499768
20
4.9754364465179
30
0
41
1
10
155.159745675082
20
5.06164633990406
30
0
41
1
10
155.008064609563
20
5.49247063749903
30
0
41
1
10
154.888837255346
20
5.83642614440762
30
0
41
1
10
154.771097303819
20
6.17907570771834
30
0
0
SPLINE
5
D3
100
AcDbEntity
8
1
62
256
6
ByLayer
370
18
48
1
60
0
100
AcDbSpline
70
4
71
3
72
8
73
4
40
0
40
0
40
0
40
0
40
1
40
1
40
1
40
1
41
1
10
154.771097303819
20
6.17907570771828
30
0
41
1
10
154.716134260005
20
6.27434089507673
30
0
41
1
10
154.661201704175
20
6.36961082399165
30
0
41
1
10
154.606310282077
20
6.46486593208979
30
0
0
SPLINE
5
D4
100
AcDbEntity
8
1
62
256
6
ByLayer
370
18
48
1
60
0
100
AcDbSpline
70
4
71
3
72
26
73
22
40
0
40
0
40
0
40
0
40
0.109926345312748
40
0.109926345312748
40
0.219852690625497
40
0.219852690625497
40
0.329779035938245
40
0.329779035938245
40
0.439705381250994
40
0.439705381250994
40
0.65955807187649
40
0.65955807187649
40
0.714521244532865
40
0.714521244532865
40
0.769484417189241
40
0.769484417189241
40
0.879410762501993
40
0.879410762501993
40
0.989337107814744
40
0.989337107814744
40
1
40
1
40
1
40
1
41
1
10
154.606310282105
20
6.46486593200598
30
0
41
1
10
154.267973620643
20
6.46842597012042
30
0
41
1
10
153.930455829405
20
6.4641838412075
30
0
41
1
10
153.256298073673
20
6.44085680980757
30
0
41
1
10
152.919628957691
20
6.42190525881745
30
0
41
1
10
152.246673236083
20
6.3695446504835
30
0
41
1
10
151.910388840205
20
6.33612698053389
30
0
41
1
10
151.237787278973
20
6.25473938769065
30
0
41
1
10
150.901496589127
20
6.20674076228008
30
0
41
1
10
149.891725668987
20
6.04090242701804
30
0
41
1
10
149.217317609278
20
5.90137712798747
30
0
41
1
10
148.37029320724
20
5.6925411879584
30
0
41
1
10
148.200692618601
20
5.64904091959375
30
0
41
1
10
147.861023887243
20
5.55861355814463
30
0
41
1
10
147.691303563985
20
5.51178519651282
30
0
41
1
10
147.182384332789
20
5.36658820030419
30
0
41
1
10
146.843422904238
20
5.26350917504405
30
0
41
1
10
146.165651892268
20
5.04536204342097
30
0
41
1
10
145.826835788285
20
4.93030317562335
30
0
41
1
10
145.454982988905
20
4.79777257385723
30
0
41
1
10
145.422101151153
20
4.78599958789036
30
0
41
1
10
145.389217605273
20
4.77417279849928
30
0
0
SPLINE
5
D5
100
AcDbEntity
8
1
62
256
6
ByLayer
370
18
48
1
60
0
100
AcDbSpline
70
4
71
3
72
32
73
28
40
0
40
0
40
0
40
0
40
0.0905783699766616
40
0.0905783699766616
40
0.181520532978993
40
0.181520532978993
40
0.226991614480159
40
0.226991614480159
40
0.272462695981325
40
0.272462695981325
40
0.454347021985988
40
0.454347021985988
40
0.499818103487155
40
0.499818103487155
40
0.545289184988322
40
0.545289184988322
40
0.636231347990657
40
0.636231347990657
40
0.727173510992991
40
0.727173510992991
40
0.818115673995325
40
0.818115673995325
40
0.863586755496493
40
0.863586755496493
40
0.90905783699766
40
0.90905783699766
40
1
40
1
40
1
40
1
41
1
10
100.716806888835
20
-1.84088706657846
30
0
41
1
10
100.379460529888
20
-1.66842452126522
30
0
41
1
10
100.042162316377
20
-1.49382440321833
30
0
41
1
10
99.3657203907501
20
-1.14072063193308
30
0
41
1
10
99.0265946087159
20
-0.9621641455511
30
0
41
1
10
98.5171833845595
20
-0.692573134671932
30
0
41
1
10
98.3473729334199
20
-0.60247455865877
30
0
41
1
10
98.0080811518617
20
-0.422118447816416
30
0
41
1
10
97.8385395851434
20
-0.33182967576974
30
0
41
1
10
96.9911250346244
20
0.119737442571989
30
0
41
1
10
96.3141208565209
20
0.481366041114086
30
0
41
1
10
95.4666270533492
20
0.929334904313578
30
0
41
1
10
95.2970673124067
20
1.01872727980935
30
0
41
1
10
94.9577656904238
20
1.19699636041659
30
0
41
1
10
94.7879526249249
20
1.28590445079513
30
0
41
1
10
94.2785913521643
20
1.55132642504734
30
0
41
1
10
93.9394741107349
20
1.72636572373145
30
0
41
1
10
93.261649944272
20
2.07175322120577
30
0
41
1
10
92.9229421836605
20
2.24210205534689
30
0
41
1
10
92.2454560062857
20
2.57726385750041
30
0
41
1
10
91.9067040915684
20
2.74211863345153
30
0
41
1
10
91.3980780565786
20
2.98446094975219
30
0
41
1
10
91.2284538541543
20
3.06442032792327
30
0
41
1
10
90.8889773309687
20
3.22258227044821
30
0
41
1
10
90.7190919725894
20
3.30079948131996
30
0
41
1
10
90.2096193162742
20
3.53237341666343
30
0
41
1
10
89.869970171004
20
3.68274309232567
30
0
41
1
10
89.5302948442742
20
3.82863983054872
30
0
0
SPLINE
5
D6
100
AcDbEntity
8
1
62
256
6
ByLayer
370
18
48
1
60
0
100
AcDbSpline
70
4
71
3
72
8
73
4
40
0
40
0
40
0
40
0
40
1
40
1
40
1
40
1
41
1
10
89.530294844274
20
3.88074980206523
30
0
41
1
10
89.530294844274
20
3.8640337922653
30
0
41
1
10
89.5302948442741
20
3.84666071487388
30
0
41
1
10
89.5302948442741
20
3.82863983054901
30
0
0
SPLINE
5
D7
100
AcDbEntity
8
1
62
256
6
ByLayer
370
18
48
1
60
0
100
AcDbSpline
70
4
71
3
72
22
73
18
40
0
40
0
40
0
40
0
40
0.0746693175457239
40
0.0746693175457239
40
0.177483837818384
40
0.177483837818384
40
0.228891097954728
40
0.228891097954728
40
0.280298358091072
40
0.280298358091072
40
0.383112878363789
40
0.383112878363789
40
0.588741918909193
40
0.588741918909193
40
0.794370959454596
40
0.794370959454596
40
1
40
1
40
1
40
1
41
1
10
153.955435534289
20
1.63327369809923
30
0
41
1
10
153.986140427191
20
1.62375818785813
30
0
41
1
10
154.01721139722
20
1.61361389839044
30
0
41
1
10
154.092090329111
20
1.58774042795255
30
0
41
1
10
154.136325859154
20
1.57127684985738
30
0
41
1
10
154.203983213169
20
1.54434161269972
30
0
41
1
10
154.226743829718
20
1.53500062486276
30
0
41
1
10
154.272404332712
20
1.51574138968581
30
0
41
1
10
154.295337765614
20
1.50580960599336
30
0
41
1
10
154.364425652359
20
1.47517205511556
30
0
41
1
10
154.410863571802
20
1.4536361606815
30
0
41
1
10
154.551140608049
20
1.38620752395101
30
0
41
1
10
154.64596156946
20
1.33743945580167
30
0
41
1
10
154.837243394145
20
1.23510087704344
30
0
41
1
10
154.933727255357
20
1.18146301711846
30
0
41
1
10
155.128691306066
20
1.06834106223823
30
0
41
1
10
155.227138492601
20
1.00895361625515
30
0
41
1
10
155.326448253376
20
0.947040126946632
30
0
0
SPLINE
5
D8
100
AcDbEntity
8
1
62
256
6
ByLayer
370
18
48
1
60
0
100
AcDbSpline
70
4
71
3
72
26
73
22
40
0
40
0
40
0
40
0
40
0.157585757342887
40
0.157585757342887
40
0.315171514685774
40
0.315171514685774
40
0.354567954021496
40
0.354567954021496
40
0.393964393357217
40
0.393964393357217
40
0.472757272028661
40
0.472757272028661
40
0.630343029371597
40
0.630343029371597
40
0.709135908043065
40
0.709135908043065
40
0.787928786714533
40
0.787928786714533
40
0.945514544057469
40
0.945514544057469
40
1
40
1
40
1
40
1
41
1
10
155.48420118613
20
2.06389593113053
30
0
41
1
10
155.403695577961
20
2.05636010743481
30
0
41
1
10
155.324200443133
20
2.04446403573331
30
0
41
1
10
155.167183628596
20
2.01223398514046
30
0
41
1
10
155.089662417025
20
1.991897914352
30
0
41
1
10
154.993889401712
20
1.96172518243915
30
0
41
1
10
154.974790907123
20
1.95545445085094
30
0
41
1
10
154.93670223995
20
1.94245946333757
30
0
41
1
10
154.917686202632
20
1.93572489226125
30
0
41
1
10
154.861254525726
20
1.9150462952139
30
0
41
1
10
154.82431789216
20
1.90058372858766
30
0
41
1
10
154.715396340956
20
1.85559096962192
30
0
41
1
10
154.645297173013
20
1.82345808615781
30
0
41
1
10
154.54334055675
20
1.77361779079612
30
0
41
1
10
154.509887836234
20
1.7567297824244
30
0
41
1
10
154.443963168765
20
1.72265228221343
30
0
41
1
10
154.411418651246
20
1.70542049289588
30
0
41
1
10
154.316468116812
20
1.65435936128733
30
0
41
1
10
154.256323726224
20
1.62094238995741
30
0
41
1
10
154.178773791175
20
1.57811567385085
30
0
41
1
10
154.159149103791
20
1.56730501947442
30
0
41
1
10
154.139806050926
20
1.55672067000975
30
0
0
SPLINE
5
D9
100
AcDbEntity
8
1
62
256
6
ByLayer
370
18
48
1
60
0
100
AcDbSpline
70
2053
71
3
72
126
73
122
40
0
40
0
40
0
40
0
40
0.031250000000016
40
0.031250000000016
40
0.062500000000032
40
0.062500000000032
40
0.07812500000004
40
0.07812500000004
40
0.093750000000048
40
0.093750000000048
40
0.125000000000064
40
0.125000000000064
40
0.132812500000067
40
0.132812500000067
40
0.14062500000007
40
0.15625000000008
40
0.15625000000008
40
0.187500000000096
40
0.187500000000096
40
0.195312500000099
40
0.195312500000099
40
0.203125000000103
40
0.218750000000111
40
0.234375000000119
40
0.234375000000119
40
0.242187500000123
40
0.242187500000123
40
0.250000000000127
40
0.250000000000127
40
0.281250000000142
40
0.281250000000142
40
0.29687500000015
40
0.29687500000015
40
0.304687500000155
40
0.304687500000155
40
0.312500000000159
40
0.312500000000159
40
0.343750000000176
40
0.343750000000176
40
0.351562500000179
40
0.351562500000179
40
0.359375000000183
40
0.37500000000019
40
0.37500000000019
40
0.390625000000196
40
0.390625000000196
40
0.406250000000203
40
0.42187500000021
40
0.42187500000021
40
0.429687500000211
40
0.429687500000211
40
0.437500000000211
40
0.437500000000211
40
0.468750000000204
40
0.468750000000204
40
0.484375000000197
40
0.484375000000197
40
0.492187500000194
40
0.492187500000194
40
0.500000000000191
40
0.500000000000191
40
0.531250000000172
40
0.531250000000172
40
0.539062500000168
40
0.539062500000168
40
0.546875000000163
40
0.546875000000163
40
0.562500000000154
40
0.562500000000154
40
0.593750000000135
40
0.593750000000135
40
0.601562500000132
40
0.601562500000132
40
0.609375000000128
40
0.609375000000128
40
0.625000000000121
40
0.625000000000121
40
0.656250000000107
40
0.656250000000107
40
0.6718750000001
40
0.6718750000001
40
0.687500000000094
40
0.687500000000094
40
0.71875000000008
40
0.71875000000008
40
0.726562500000077
40
0.726562500000077
40
0.734375000000074
40
0.750000000000068
40
0.765625000000061
40
0.765625000000061
40
0.773437500000058
40
0.773437500000058
40
0.781250000000054
40
0.781250000000054
40
0.812500000000039
40
0.812500000000039
40
0.820312500000036
40
0.820312500000036
40
0.828125000000033
40
0.828125000000033
40
0.843750000000031
40
0.859375000000029
40
0.859375000000029
40
0.875000000000027
40
0.875000000000027
40
0.906250000000017
40
0.906250000000017
40
0.914062500000016
40
0.914062500000016
40
0.921875000000015
40
0.937500000000013
40
0.953125000000011
40
0.953125000000011
40
0.968750000000009
40
0.968750000000009
40
0.984375000000007
40
0.984375000000007
40
0.992187500000004
40
0.992187500000004
40
1
40
1
40
1
40
1
41
1
10
155.390215351578
20
-2.61692704648147
30
0
41
1
10
155.367899312888
20
-2.64363513961672
30
0
41
1
10
155.346566264505
20
-2.66548546735135
30
0
41
1
10
155.305653752046
20
-2.70003559549593
30
0
41
1
10
155.286075356503
20
-2.71273312873299
30
0
41
1
10
155.257977652731
20
-2.72460971637881
30
0
41
1
10
155.248939675702
20
-2.72731491276227
30
0
41
1
10
155.231539633233
20
-2.73025722177613
30
0
41
1
10
155.223168272827
20
-2.7304981838486
30
0
41
1
10
155.199009553996
20
-2.72753190538765
30
0
41
1
10
155.184169157152
20
-2.72067054736456
30
0
41
1
10
155.167219219768
20
-2.70551071790749
30
0
41
1
10
155.163922668627
20
-2.70215651917411
30
0
41
1
10
155.157552189817
20
-2.69484663741164
30
0
41
1
10
155.148312931953
20
-2.68296033660675
30
0
41
1
10
155.140004037638
20
-2.66833339385363
30
0
41
1
10
155.124614402363
20
-2.63538637395533
30
0
41
1
10
155.115977404833
20
-2.60853917505955
30
0
41
1
10
155.107365283501
20
-2.56820505141997
30
0
41
1
10
155.105761515165
20
-2.55983084260572
30
0
41
1
10
155.102810801205
20
-2.54258013318855
30
0
41
1
10
155.098760638356
20
-2.51589919426092
30
0
41
1
10
155.093872452663
20
-2.46742925486185
30
0
41
1
10
155.091976793442
20
-2.42431256873672
30
0
41
1
10
155.091350166341
20
-2.3902668468327
30
0
41
1
10
155.091274118142
20
-2.37863300011009
30
0
41
1
10
155.091398476058
20
-2.35477351944408
30
0
41
1
10
155.091600511013
20
-2.34250696558405
30
0
41
1
10
155.093310916307
20
-2.28039431130705
30
0
41
1
10
155.096880696674
20
-2.22793936090972
30
0
41
1
10
155.105685701336
20
-2.14505956665892
30
0
41
1
10
155.10920064885
20
-2.11672812536341
30
0
41
1
10
155.115413019592
20
-2.07311290135277
30
0
41
1
10
155.117635959386
20
-2.05842934843443
30
0
41
1
10
155.122337874628
20
-2.02909858359507
30
0
41
1
10
155.124823345265
20
-2.01440485021868
30
0
41
1
10
155.137922285378
20
-1.94079816430204
30
0
41
1
10
155.150526948901
20
-1.88147545657233
30
0
41
1
10
155.169157858076
20
-1.80679085947486
30
0
41
1
10
155.173019534078
20
-1.7918701978987
30
0
41
1
10
155.180933297808
20
-1.76236472605964
30
0
41
1
10
155.193123753602
20
-1.71847749391685
30
0
41
1
10
155.206261089396
20
-1.67567521174999
30
0
41
1
10
155.224622747043
20
-1.61955300322103
30
0
41
1
10
155.234237388003
20
-1.59193550210287
30
0
41
1
10
155.254292939583
20
-1.53778451952979
30
0
41
1
10
155.274861631043
20
-1.48555159378071
30
0
41
1
10
155.296422351075
20
-1.43691756878073
30
0
41
1
10
155.312960380951
20
-1.40174580623758
30
0
41
1
10
155.31853438761
20
-1.39023959902514
30
0
41
1
10
155.329805246838
20
-1.36765975016292
30
0
41
1
10
155.335513922624
20
-1.35656399916843
30
0
41
1
10
155.364224718796
20
-1.30243235956479
30
0
41
1
10
155.387483822065
20
-1.26382833284254
30
0
41
1
10
155.42276973504
20
-1.21226109023891
30
0
41
1
10
155.434597963574
20
-1.19613736434132
30
0
41
1
10
155.452435063685
20
-1.17353070551951
30
0
41
1
10
155.458387688428
20
-1.16627129458729
30
0
41
1
10
155.470222191883
20
-1.15239219989459
30
0
41
1
10
155.476116097415
20
-1.14575708368298
30
0
41
1
10
155.505469428643
20
-1.11406129049521
30
0
41
1
10
155.528584756858
20
-1.09340122990741
30
0
41
1
10
155.556981752959
20
-1.07318356263198
30
0
41
1
10
155.562636014358
20
-1.06942276152984
30
0
41
1
10
155.573892169945
20
-1.06246936281613
30
0
41
1
10
155.579502559581
20
-1.05927319583105
30
0
41
1
10
155.596120718249
20
-1.05060967657408
30
0
41
1
10
155.606952580845
20
-1.04603927044036
30
0
41
1
10
155.638705875783
20
-1.03582942638042
30
0
41
1
10
155.658892035357
20
-1.03366136654887
30
0
41
1
10
155.682787423127
20
-1.03683479827913
30
0
41
1
10
155.687499072639
20
-1.03776607541539
30
0
41
1
10
155.69678238409
20
-1.04023406095419
30
0
41
1
10
155.701364236305
20
-1.04177561987947
30
0
41
1
10
155.714788530743
20
-1.04728787049831
30
0
41
1
10
155.723323154996
20
-1.05214052287622
30
0
41
1
10
155.747665611106
20
-1.07020101609959
30
0
41
1
10
155.762224236632
20
-1.08687682824063
30
0
41
1
10
155.781289650075
20
-1.11930750816546
30
0
41
1
10
155.787179916212
20
-1.1313618961884
30
0
41
1
10
155.797942681452
20
-1.1581573816724
30
0
41
1
10
155.802744703107
20
-1.17273517695469
30
0
41
1
10
155.815288183004
20
-1.21980813064991
30
0
41
1
10
155.821227033274
20
-1.2557003827313
30
0
41
1
10
155.825256772231
20
-1.30683835539105
30
0
41
1
10
155.825892622205
20
-1.31741670867905
30
0
41
1
10
155.826799292889
20
-1.33906209041532
30
0
41
1
10
155.827611485415
20
-1.37219784187826
30
0
41
1
10
155.826249826567
20
-1.43073760963452
30
0
41
1
10
155.822238393586
20
-1.48115748546948
30
0
41
1
10
155.818092188269
20
-1.52038352697656
30
0
41
1
10
155.816520172105
20
-1.53369454850301
30
0
41
1
10
155.812984619452
20
-1.56080548241204
30
0
41
1
10
155.811015625904
20
-1.57463309351749
30
0
41
1
10
155.800328334366
20
-1.64399425265668
30
0
41
1
10
155.789022822724
20
-1.70092785241226
30
0
41
1
10
155.771605706641
20
-1.77390838675962
30
0
41
1
10
155.767956427074
20
-1.78859611494244
30
0
41
1
10
155.760323683596
20
-1.81815890417425
30
0
41
1
10
155.756339110001
20
-1.8330332599127
30
0
41
1
10
155.744055340067
20
-1.87732779319273
30
0
41
1
10
155.726696526419
20
-1.93592440536662
30
0
41
1
10
155.707514624045
20
-1.99365210245077
30
0
41
1
10
155.687457586632
20
-2.05095843888046
30
0
41
1
10
155.676950526453
20
-2.0794932558629
30
0
41
1
10
155.644879608322
20
-2.16259287478815
30
0
41
1
10
155.622574506399
20
-2.21528863080908
30
0
41
1
10
155.593700637364
20
-2.2780310407434
30
0
41
1
10
155.587861020053
20
-2.2904513489751
30
0
41
1
10
155.576161100606
20
-2.31481364707128
30
0
41
1
10
155.558596713274
20
-2.35060620543163
30
0
41
1
10
155.529264599214
20
-2.40665936498724
30
0
41
1
10
155.505754376584
20
-2.44783438753984
30
0
41
1
10
155.482225750254
20
-2.48720559474216
30
0
41
1
10
155.470411660251
20
-2.50604669666535
30
0
41
1
10
155.447083229577
20
-2.54143430916415
30
0
41
1
10
155.435543663181
20
-2.55802951385158
30
0
41
1
10
155.418412991245
20
-2.58131897748848
30
0
41
1
10
155.412732574983
20
-2.58881440905509
30
0
41
1
10
155.40143028189
20
-2.60327152814224
30
0
41
1
10
155.39579436125
20
-2.61025002319766
30
0
41
1
10
155.390215351578
20
-2.61692704648147
30
0
0
SPLINE
5
DA
100
AcDbEntity
8
1
62
256
6
ByLayer
370
18
48
1
60
0
100
AcDbSpline
70
4
71
3
72
15
73
11
40
0
40
0
40
0
40
0
40
0.50000000000001
40
0.50000000000001
40
0.625000000000017
40
0.625000000000017
40
0.687500000000021
40
0.687500000000021
40
0.750000000000025
40
1
40
1
40
1
40
1
41
1
10
154.771097303818
20
-6.17907570771936
30
0
41
1
10
154.720478120378
20
-6.25430958715117
30
0
41
1
10
154.674177945206
20
-6.31740452945272
30
0
41
1
10
154.621601162363
20
-6.37965588802243
30
0
41
1
10
154.61135047309
20
-6.39127330802316
30
0
41
1
10
154.596368826358
20
-6.40741634693453
30
0
41
1
10
154.591437886245
20
-6.41258587922999
30
0
41
1
10
154.58176049094
20
-6.42243838893387
30
0
41
1
10
154.557994512463
20
-6.44589018556161
30
0
41
1
10
154.536309684871
20
-6.46351850380833
30
0
41
1
10
154.520166203356
20
-6.47403712711088
30
0
0
SPLINE
5
DB
100
AcDbEntity
8
1
62
256
6
ByLayer
370
18
48
1
60
0
100
AcDbSpline
70
4
71
3
72
33
73
29
40
0
40
0
40
0
40
0
40
0.125000000000034
40
0.125000000000034
40
0.187500000000048
40
0.187500000000048
40
0.218750000000051
40
0.218750000000051
40
0.250000000000054
40
0.250000000000054
40
0.31250000000006
40
0.31250000000006
40
0.343750000000063
40
0.343750000000063
40
0.375000000000066
40
0.375000000000066
40
0.390625000000067
40
0.390625000000067
40
0.406250000000069
40
0.437500000000065
40
0.500000000000059
40
0.625000000000046
40
0.625000000000046
40
0.687500000000039
40
0.687500000000039
40
0.750000000000033
40
0.750000000000033
40
1
40
1
40
1
40
1
41
1
10
156.331936152714
20
-2.15832237477733
30
0
41
1
10
156.254020523861
20
-2.30155964294303
30
0
41
1
10
156.178363951561
20
-2.45083987344361
30
0
41
1
10
156.067839723971
20
-2.68386017709469
30
0
41
1
10
156.031491253701
20
-2.76305336725673
30
0
41
1
10
155.977646503434
20
-2.88414646161886
30
0
41
1
10
155.959811189859
20
-2.92489487794052
30
0
41
1
10
155.924355501464
20
-3.0071661572884
30
0
41
1
10
155.906769052703
20
-3.04861205266647
30
0
41
1
10
155.854633137225
20
-3.17333708721068
30
0
41
1
10
155.820616128755
20
-3.25721287415411
30
0
41
1
10
155.770586229186
20
-3.38406021280778
30
0
41
1
10
155.754075605467
20
-3.42651503105
30
0
41
1
10
155.721367329875
20
-3.5117605097247
30
0
41
1
10
155.705158781404
20
-3.55458155115389
30
0
41
1
10
155.681109001493
20
-3.61894095303018
30
0
41
1
10
155.673146366221
20
-3.64041362818091
30
0
41
1
10
155.65726462377
20
-3.68337474273179
30
0
41
1
10
155.633465541669
20
-3.74782494002778
30
0
41
1
10
155.578098289978
20
-3.8982681229821
30
0
41
1
10
155.468012433364
20
-4.19938941866656
30
0
41
1
10
155.374748088641
20
-4.4578897815324
30
0
41
1
10
155.282172764783
20
-4.71663927335734
30
0
41
1
10
155.251424444733
20
-4.80294365237813
30
0
41
1
10
155.190214499768
20
-4.97543644651822
30
0
41
1
10
155.159745675082
20
-5.06164633990437
30
0
41
1
10
155.008064609563
20
-5.49247063749922
30
0
41
1
10
154.888837255346
20
-5.83642614440768
30
0
41
1
10
154.771097303819
20
-6.17907570771831
30
0
0
SPLINE
5
DC
100
AcDbEntity
8
1
62
256
6
ByLayer
370
18
48
1
60
0
100
AcDbSpline
70
4
71
3
72
8
73
4
40
0
40
0
40
0
40
0
40
1
40
1
40
1
40
1
41
1
10
156.331936152714
20
-2.15832237477736
30
0
41
1
10
156.506370094583
20
-1.67005320923914
30
0
41
1
10
156.679376951216
20
-1.18128248206304
30
0
41
1
10
156.850928430911
20
-0.692000249881744
30
0
0
SPLINE
5
DD
100
AcDbEntity
8
1
62
256
6
ByLayer
370
18
48
1
60
0
100
AcDbSpline
70
4
71
3
72
8
73
4
40
0
40
0
40
0
40
0
40
1
40
1
40
1
40
1
41
1
10
156.850928430911
20
-0.692000249881772
30
0
41
1
10
156.898801901751
20
-0.55546025199439
30
0
41
1
10
156.947618784173
20
-0.419444307667959
30
0
41
1
10
156.997377010407
20
-0.283933781485445
30
0
0
SPLINE
5
DE
100
AcDbEntity
8
1
62
256
6
ByLayer
370
18
48
1
60
0
100
AcDbSpline
70
4
71
3
72
8
73
4
40
0
40
0
40
0
40
0
40
1
40
1
40
1
40
1
41
1
10
156.997377010407
20
0.283933781485445
30
0
41
1
10
157.000866304859
20
0.0950789402275802
30
0
41
1
10
157.000882391883
20
-0.0942082449211625
30
0
41
1
10
156.997377010407
20
-0.283933781485473
30
0
0
SPLINE
5
DF
100
AcDbEntity
8
1
62
256
6
ByLayer
370
18
48
1
60
0
100
AcDbSpline
70
4
71
3
72
60
73
56
40
0
40
0
40
0
40
0
40
0.0624999999999998
40
0.0624999999999998
40
0.0937499999999998
40
0.0937499999999998
40
0.109375
40
0.109375
40
0.125
40
0.125
40
0.1875
40
0.1875
40
0.249999999999999
40
0.249999999999999
40
0.281250000000004
40
0.281250000000004
40
0.296875000000007
40
0.296875000000007
40
0.312500000000009
40
0.312500000000009
40
0.375000000000038
40
0.375000000000038
40
0.437500000000068
40
0.437500000000068
40
0.453125000000073
40
0.453125000000073
40
0.468750000000078
40
0.468750000000078
40
0.500000000000088
40
0.500000000000088
40
0.562500000000099
40
0.562500000000099
40
0.5937500000001
40
0.5937500000001
40
0.6093750000001
40
0.6093750000001
40
0.625000000000101
40
0.625000000000101
40
0.687500000000095
40
0.687500000000095
40
0.718750000000092
40
0.718750000000092
40
0.734375000000087
40
0.734375000000087
40
0.750000000000082
40
0.750000000000082
40
0.812500000000064
40
0.812500000000064
40
0.875000000000046
40
0.875000000000046
40
0.906250000000034
40
0.906250000000034
40
0.937500000000023
40
0.937500000000023
40
1
40
1
40
1
40
1
41
1
10
156.997377010407
20
0.283933781485501
30
0
41
1
10
156.972776540279
20
0.212638686890983
30
0
41
1
10
156.946861204963
20
0.141964970816076
30
0
41
1
10
156.906020653937
20
0.0368964998921513
30
0
41
1
10
156.892078403219
20
0.0020310812374191
30
0
41
1
10
156.87066430112
20
-0.0500257112532267
30
0
41
1
10
156.863442750495
20
-0.0673377225760134
30
0
41
1
10
156.848830531334
20
-0.101879971420885
30
0
41
1
10
156.84142721765
20
-0.119139141782284
30
0
41
1
10
156.804141497068
20
-0.20485936179989
30
0
41
1
10
156.773612800963
20
-0.271253573931688
30
0
41
1
10
156.711262936321
20
-0.399695027394984
30
0
41
1
10
156.679441967193
20
-0.461743403792042
30
0
41
1
10
156.630757480201
20
-0.551408399906904
30
0
41
1
10
156.614369796187
20
-0.58072704307753
30
0
41
1
10
156.589544024276
20
-0.623813236381864
30
0
41
1
10
156.581228006416
20
-0.638026527859608
30
0
41
1
10
156.564512925877
20
-0.666147434915217
30
0
41
1
10
156.556121361681
20
-0.68004121067014
30
0
41
1
10
156.514334015545
20
-0.748113985281123
30
0
41
1
10
156.48115586606
20
-0.798620787235279
30
0
41
1
10
156.415308656516
20
-0.891776281466321
30
0
41
1
10
156.382639687828
20
-0.934426613880845
30
0
41
1
10
156.342110919127
20
-0.982579915270037
30
0
41
1
10
156.334020475874
20
-0.991951409331193
30
0
41
1
10
156.317869675894
20
-1.01016476471207
30
0
41
1
10
156.30979382246
20
-1.01902235513447
30
0
41
1
10
156.285815028269
20
-1.04456696130339
30
0
41
1
10
156.270110792291
20
-1.06028718623657
30
0
41
1
10
156.223803149725
20
-1.10360711100719
30
0
41
1
10
156.194002656175
20
-1.12738276205169
30
0
41
1
10
156.150794712551
20
-1.15541932137575
30
0
41
1
10
156.136641432865
20
-1.1634894538285
30
0
41
1
10
156.115776030244
20
-1.17364677892391
30
0
41
1
10
156.108867985351
20
-1.17671284372119
30
0
41
1
10
156.095245023313
20
-1.18215795865481
30
0
41
1
10
156.088536316206
20
-1.18453602870369
30
0
41
1
10
156.055488558272
20
-1.19473901380007
30
0
41
1
10
156.030630332891
20
-1.19752377017431
30
0
41
1
10
155.995451065573
20
-1.19402447509839
30
0
41
1
10
155.984077284539
20
-1.1915742793027
30
0
41
1
10
155.967523027223
20
-1.18598641594013
30
0
41
1
10
155.96208940698
20
-1.18380480349217
30
0
41
1
10
155.951388063408
20
-1.17880307306098
30
0
41
1
10
155.946111256125
20
-1.1759770194428
30
0
41
1
10
155.920272133146
20
-1.16033182384197
30
0
41
1
10
155.901328368595
20
-1.14301169674007
30
0
41
1
10
155.866434442997
20
-1.09953193740068
30
0
41
1
10
155.850486435552
20
-1.07336780934764
30
0
41
1
10
155.828600857574
20
-1.02774965528005
30
0
41
1
10
155.821634008109
20
-1.011440827602
30
0
41
1
10
155.808469685047
20
-0.97701912682291
30
0
41
1
10
155.802259363306
20
-0.958886642757051
30
0
41
1
10
155.784677291374
20
-0.901829642806462
30
0
41
1
10
155.77435017709
20
-0.860253561261146
30
0
41
1
10
155.765298969753
20
-0.815310043080359
30
0
0
SPLINE
5
E0
100
AcDbEntity
8
1
62
256
6
ByLayer
370
18
48
1
60
0
100
AcDbSpline
70
4
71
3
72
8
73
4
40
0
40
0
40
0
40
0
40
1
40
1
40
1
40
1
41
1
10
155.765298969753
20
-0.815310043080473
30
0
41
1
10
155.650855169306
20
-0.24704253638248
30
0
41
1
10
155.504701879987
20
0.340329028635892
30
0
41
1
10
155.326448253373
20
0.94704012694848
30
0
0
SPLINE
5
E1
100
AcDbEntity
8
1
62
256
6
ByLayer
370
18
48
1
60
0
100
AcDbSpline
70
4
71
3
72
14
73
10
40
0
40
0
40
0
40
0
40
0.25
40
0.25
40
0.5
40
0.5
40
0.75
40
0.75
40
1
40
1
40
1
40
1
41
1
10
154.493209265996
20
0.248605311802351
30
0
41
1
10
154.559425483393
20
0.329877521699672
30
0
41
1
10
154.626693102142
20
0.405447064669261
30
0
41
1
10
154.762975178829
20
0.545241700668328
30
0
41
1
10
154.831990620243
20
0.609441009228135
30
0
41
1
10
154.971386865744
20
0.725976988880063
30
0
41
1
10
155.041763859159
20
0.778224983444602
30
0
41
1
10
155.183498448088
20
0.871775669757682
30
0
41
1
10
155.254860372145
20
0.912922164187052
30
0
41
1
10
155.326448253372
20
0.947040126948366
30
0
0
SPLINE
5
E2
100
AcDbEntity
8
1
62
256
6
ByLayer
370
18
48
1
60
0
100
AcDbSpline
70
4
71
3
72
48
73
44
40
0
40
0
40
0
40
0
40
0.100858610239451
40
0.100858610239451
40
0.153858397840329
40
0.153858397840329
40
0.206858185441207
40
0.206858185441207
40
0.233358079241646
40
0.233358079241646
40
0.259857973042085
40
0.259857973042085
40
0.312857760642963
40
0.312857760642963
40
0.339357654443403
40
0.352607601343624
40
0.352607601343624
40
0.365857548243844
40
0.365857548243844
40
0.418857335844722
40
0.418857335844722
40
0.44535722964516
40
0.44535722964516
40
0.471857123445597
40
0.471857123445597
40
0.524856911046468
40
0.524856911046468
40
0.577856698647339
40
0.577856698647339
40
0.63085648624821
40
0.63085648624821
40
0.683856273849082
40
0.736856061449953
40
0.789855849050824
40
0.816355742851261
40
0.816355742851261
40
0.842855636651698
40
0.842855636651698
40
0.895855424252576
40
0.895855424252576
40
0.948855211853454
40
0.948855211853454
40
1
40
1
40
1
40
1
41
1
10
117.928564689093
20
-6.43446731622777
30
0
41
1
10
117.28624053735
20
-6.43484138846739
30
0
41
1
10
116.646144996942
20
-6.4083241512171
30
0
41
1
10
115.670305423542
20
-6.32721959704318
30
0
41
1
10
115.334292372664
20
-6.2920392081611
30
0
41
1
10
114.662048296677
20
-6.20732287899807
30
0
41
1
10
114.32580109845
20
-6.15771229315931
30
0
41
1
10
113.820797395538
20
-6.0725736024097
30
0
41
1
10
113.652356681325
20
-6.04240420015324
30
0
41
1
10
113.315265813086
20
-5.97862148243516
30
0
41
1
10
113.146616754015
20
-5.9450116355153
30
0
41
1
10
112.640187588293
20
-5.8389028444204
30
0
41
1
10
112.301924514295
20
-5.76111893104815
30
0
41
1
10
111.793123547654
20
-5.63411331046385
30
0
41
1
10
111.538370012246
20
-5.56802474570776
30
0
41
1
10
111.283093042923
20
-5.49817907923057
30
0
41
1
10
111.112777567561
20
-5.45077615434806
30
0
41
1
10
111.027523766172
20
-5.4266456333722
30
0
41
1
10
110.601778419463
20
-5.30413687684262
30
0
41
1
10
110.262248181779
20
-5.20002735315012
30
0
41
1
10
109.75410258533
20
-5.03536317003636
30
0
41
1
10
109.584912997494
20
-4.97905718451398
30
0
41
1
10
109.246891842898
20
-4.86373324816949
30
0
41
1
10
109.078059665316
20
-4.80471564559082
30
0
41
1
10
108.571972809683
20
-4.62367791954972
30
0
41
1
10
108.235128219305
20
-4.4976756102451
30
0
41
1
10
107.561974845578
20
-4.23592770548865
30
0
41
1
10
107.2256669568
20
-4.10018051737697
30
0
41
1
10
106.553164545448
20
-3.81961584952359
30
0
41
1
10
106.216969619154
20
-3.67479974489328
30
0
41
1
10
105.54411462823
20
-3.37696767731248
30
0
41
1
10
104.870796626132
20
-3.0709299268201
30
0
41
1
10
103.858158295472
20
-2.58936377735387
30
0
41
1
10
103.010714508986
20
-2.17148234958017
30
0
41
1
10
102.499991234115
20
-1.91428068611782
30
0
41
1
10
102.158947387028
20
-1.74147688034711
30
0
41
1
10
101.988609117205
20
-1.65464255353615
30
0
41
1
10
101.478462118534
20
-1.39323283750935
30
0
41
1
10
101.139342905059
20
-1.21765917276011
30
0
41
1
10
100.462613684886
20
-0.86477243374128
30
0
41
1
10
100.124998170728
20
-0.687470384499022
30
0
41
1
10
99.4624402894968
20
-0.338588924426148
30
0
41
1
10
99.137469248211
20
-0.167023057516929
30
0
41
1
10
98.8126845717269
20
0.0043475454843644
30
0
0
SPLINE
5
E3
100
AcDbEntity
8
1
62
256
6
ByLayer
370
18
48
1
60
0
100
AcDbSpline
70
4
71
3
72
56
73
52
40
0
40
0
40
0
40
0
40
0.0433431891605719
40
0.0433431891605719
40
0.0960080294779233
40
0.0960080294779233
40
0.201337710112626
40
0.201337710112626
40
0.254002550429977
40
0.254002550429977
40
0.306667390747329
40
0.306667390747329
40
0.332999810906004
40
0.332999810906004
40
0.346166020985343
40
0.346166020985343
40
0.359332231064683
40
0.359332231064683
40
0.411997071382048
40
0.411997071382048
40
0.464661911699413
40
0.464661911699413
40
0.517326752016777
40
0.517326752016777
40
0.569991592334142
40
0.569991592334142
40
0.622656432651507
40
0.622656432651507
40
0.675321272968872
40
0.675321272968872
40
0.701653693127554
40
0.701653693127554
40
0.727986113286237
40
0.727986113286237
40
0.780650953603598
40
0.780650953603598
40
0.793817163682939
40
0.793817163682939
40
0.806983373762279
40
0.806983373762279
40
0.833315793920963
40
0.833315793920963
40
0.885980634238332
40
0.885980634238332
40
0.912313054397015
40
0.912313054397015
40
0.9386454745557
40
0.9386454745557
40
0.991310314873067
40
0.991310314873067
40
1
40
1
40
1
40
1
41
1
10
95.9734358574526
20
6.39638097659221
30
0
41
1
10
96.2509295594329
20
6.39798981782872
30
0
41
1
10
96.5280758433953
20
6.39458960384445
30
0
41
1
10
97.1412453123225
20
6.37675867861185
30
0
41
1
10
97.4770603243483
20
6.36023684446948
30
0
41
1
10
98.4848837627255
20
6.2874029890134
30
0
41
1
10
99.1573922400557
20
6.20748175094118
30
0
41
1
10
100.168551688952
20
6.04567939571209
30
0
41
1
10
100.506007592255
20
5.98475613939706
30
0
41
1
10
101.181730336806
20
5.84965629200008
30
0
41
1
10
101.519983135722
20
5.77551302608714
30
0
41
1
10
102.02919374943
20
5.65328184807839
30
0
41
1
10
102.199238051494
20
5.61069548674158
30
0
41
1
10
102.454766981701
20
5.54415141278875
30
0
41
1
10
102.539997405627
20
5.52153147063993
30
0
41
1
10
102.71023723345
20
5.4755250612165
30
0
41
1
10
102.79529259849
20
5.45212672219122
30
0
41
1
10
103.220261985805
20
5.33321822268775
30
0
41
1
10
103.559255581149
20
5.23195890485684
30
0
41
1
10
104.235800324362
20
5.01792495558229
30
0
41
1
10
104.573348212993
20
4.90514926284325
30
0
41
1
10
105.247279748747
20
4.66899459039848
30
0
41
1
10
105.583674094583
20
4.54561667925475
30
0
41
1
10
106.256278641415
20
4.28855141485275
30
0
41
1
10
106.592473911315
20
4.15486602287254
30
0
41
1
10
107.264658513165
20
3.87825776794099
30
0
41
1
10
107.600662918827
20
3.73533792304161
30
0
41
1
10
108.27352568574
20
3.4408529629095
30
0
41
1
10
108.610366078518
20
3.28928036393253
30
0
41
1
10
109.116055458437
20
3.05604251095281
30
0
41
1
10
109.284698596899
20
2.97731958024636
30
0
41
1
10
109.622422509627
20
2.81801832207196
30
0
41
1
10
109.791496512736
20
2.73743874666394
30
0
41
1
10
110.299364592894
20
2.49308725273354
30
0
41
1
10
110.638800641753
20
2.32669441983117
30
0
41
1
10
111.064082224987
20
2.11467056861062
30
0
41
1
10
111.149236477271
20
2.07204290545764
30
0
41
1
10
111.319398606626
20
1.98656334921674
30
0
41
1
10
111.404413602279
20
1.94370866750131
30
0
41
1
10
111.65928864541
20
1.81485767046198
30
0
41
1
10
111.828974855269
20
1.72856613598216
30
0
41
1
10
112.337389703634
20
1.46859834850082
30
0
41
1
10
112.675471913451
20
1.29382405212073
30
0
41
1
10
113.181439239596
20
1.02970166280764
30
0
41
1
10
113.349911687159
20
0.941353000429416
30
0
41
1
10
113.686703944015
20
0.764470784927425
30
0
41
1
10
113.855015053736
20
0.675919501626908
30
0
41
1
10
114.35967928617
20
0.409893659049629
30
0
41
1
10
114.695766248576
20
0.232053428959262
30
0
41
1
10
115.086977628741
20
0.024446020472908
30
0
41
1
10
115.142378347406
20
-0.0049657051762324
30
0
41
1
10
115.19777641979
20
-0.0343772552554356
30
0
0
SPLINE
5
E4
100
AcDbEntity
8
1
62
256
6
ByLayer
370
18
48
1
60
0
100
AcDbSpline
70
4
71
3
72
8
73
4
40
0
40
0
40
0
40
0
40
1
40
1
40
1
40
1
41
1
10
154.385289413371
20
-6.68916510706066
30
0
41
1
10
154.430194104427
20
-6.61778524611393
30
0
41
1
10
154.475150936602
20
-6.54607537365604
30
0
41
1
10
154.520166203356
20
-6.47403712711099
30
0
0
SPLINE
5
E5
100
AcDbEntity
8
1
62
256
6
ByLayer
370
18
48
1
60
0
100
AcDbSpline
70
4
71
3
72
8
73
4
40
0
40
0
40
0
40
0
40
1
40
1
40
1
40
1
41
1
10
154.527734091965
20
-6.45466083524605
30
0
41
1
10
154.525210373733
20
-6.46112034758698
30
0
41
1
10
154.522687742198
20
-6.46757910984161
30
0
41
1
10
154.520166203356
20
-6.47403712711099
30
0
0
SPLINE
5
E6
100
AcDbEntity
8
1
62
256
6
ByLayer
370
18
48
1
60
0
100
AcDbSpline
70
4
71
3
72
57
73
53
40
0
40
0
40
0
40
0
40
0.0091705327010653
40
0.0091705327010653
40
0.0349304499902326
40
0.0349304499902326
40
0.0864502845685678
40
0.0864502845685678
40
0.112210201857736
40
0.112210201857736
40
0.137970119146903
40
0.137970119146903
40
0.189489953725241
40
0.189489953725241
40
0.21524987101441
40
0.21524987101441
40
0.228129829658995
40
0.228129829658995
40
0.24100978830358
40
0.24100978830358
40
0.292529622881908
40
0.292529622881908
40
0.318289540171074
40
0.318289540171074
40
0.34404945746024
40
0.34404945746024
40
0.395569292038572
40
0.395569292038572
40
0.447089126616903
40
0.447089126616903
40
0.498608961195235
40
0.498608961195235
40
0.550128795773566
40
0.550128795773566
40
0.601648630351898
40
0.601648630351898
40
0.65316846493023
40
0.666048423574811
40
0.666048423574811
40
0.678928382219393
40
0.678928382219393
40
0.704688299508555
40
0.704688299508555
40
0.75620813408688
40
0.75620813408688
40
0.807727968665206
40
0.807727968665206
40
0.910767637821856
40
0.910767637821856
40
0.962287472400184
40
0.962287472400184
40
1
40
1
40
1
40
1
41
1
10
115.712664479562
20
-0.318282457319356
30
0
41
1
10
115.652876398417
20
-0.286673419986073
30
0
41
1
10
115.593093666638
20
-0.255047230401374
30
0
41
1
10
115.36540437298
20
-0.134513470930813
30
0
41
1
10
115.19754515712
20
-0.0454655602907224
30
0
41
1
10
114.693778060402
20
0.221457827011307
30
0
41
1
10
114.357651914194
20
0.399054767461706
30
0
41
1
10
113.852931725354
20
0.664734299869622
30
0
41
1
10
113.684602643539
20
0.753173639356163
30
0
41
1
10
113.347776475304
20
0.929840751926719
30
0
41
1
10
113.179286932744
20
1.01808414237834
30
0
41
1
10
112.673266676048
20
1.2818928853734
30
0
41
1
10
112.335151943833
20
1.45647006051521
30
0
41
1
10
111.826693509799
20
1.71616316429902
30
0
41
1
10
111.656993716118
20
1.80236678802419
30
0
41
1
10
111.402100231153
20
1.93109263146164
30
0
41
1
10
111.317079217746
20
1.97390635872682
30
0
41
1
10
111.14690478242
20
2.05930435495111
30
0
41
1
10
111.061742155551
20
2.1018926693657
30
0
41
1
10
110.636415806078
20
2.31372310845586
30
0
41
1
10
110.296943076097
20
2.47997791044708
30
0
41
1
10
109.789018785907
20
2.72414932088205
30
0
41
1
10
109.619925847535
20
2.80467329061216
30
0
41
1
10
109.282164075208
20
2.96387331486372
30
0
41
1
10
109.113501163891
20
3.04254831498113
30
0
41
1
10
108.607749960215
20
3.27564686771751
30
0
41
1
10
108.270869384094
20
3.42714418970107
30
0
41
1
10
107.597927971896
20
3.72151622210143
30
0
41
1
10
107.261882462996
20
3.86439201357919
30
0
41
1
10
106.589615160723
20
4.14093651565366
30
0
41
1
10
106.253380593317
20
4.27460729846592
30
0
41
1
10
105.580700826235
20
4.53167802895319
30
0
41
1
10
105.244267849557
20
4.65507055799281
30
0
41
1
10
104.570260226102
20
4.89127802874555
30
0
41
1
10
104.232676723454
20
5.00409537821633
30
0
41
1
10
103.556066351959
20
5.21824404011196
30
0
41
1
10
103.132286069326
20
5.3449081466386
30
0
41
1
10
102.706975292037
20
5.46201218429772
30
0
41
1
10
102.536722272364
20
5.50806560352217
30
0
41
1
10
102.451485930199
20
5.53070995700608
30
0
41
1
10
102.195933435041
20
5.59733187565212
30
0
41
1
10
102.025873005219
20
5.6399743559775
30
0
41
1
10
101.516612486641
20
5.7623858919639
30
0
41
1
10
101.178321483706
20
5.83666003373173
30
0
41
1
10
100.502518754715
20
5.97204361756309
30
0
41
1
10
100.165023323014
20
6.03312332638382
30
0
41
1
10
99.1537455170347
20
6.19543439404927
30
0
41
1
10
98.4811592005027
20
6.27574746240205
30
0
41
1
10
97.4732181453687
20
6.34923939003582
30
0
41
1
10
97.1373603860628
20
6.36598999333478
30
0
41
1
10
96.5547262996488
20
6.38334435854628
30
0
41
1
10
96.3082279957651
20
6.3870067838821
30
0
41
1
10
96.0614577412124
20
6.38674374540437
30
0
0
SPLINE
5
E7
100
AcDbEntity
8
1
62
256
6
ByLayer
370
13
48
1
60
0
100
AcDbSpline
70
4
71
3
72
37
73
33
40
0
40
0
40
0
40
0
40
0.0745371673369481
40
0.0745371673369481
40
0.128806957104734
40
0.155941851988627
40
0.155941851988627
40
0.183076746872521
40
0.183076746872521
40
0.291616326408093
40
0.291616326408093
40
0.345886116175879
40
0.373021011059772
40
0.373021011059772
40
0.400155905943665
40
0.400155905943665
40
0.508695485479238
40
0.508695485479238
40
0.562965275247025
40
0.590100170130918
40
0.590100170130918
40
0.617235065014812
40
0.617235065014812
40
0.725774644550385
40
0.725774644550385
40
0.780044434318172
40
0.807179329202065
40
0.807179329202065
40
0.834314224085958
40
0.834314224085958
40
0.942853803621533
40
1
40
1
40
1
40
1
41
1
10
89.6307750777675
20
6.37408062035635
30
0
41
1
10
89.6307690738284
20
6.37404374281002
30
0
41
1
10
89.6307630907489
20
6.37051186916349
30
0
41
1
10
89.6307527926234
20
6.35837922864948
30
0
41
1
10
89.6307463028987
20
6.34793357895265
30
0
41
1
10
89.6307398403556
20
6.333293241278
30
0
41
1
10
89.6307355377264
20
6.32259543988593
30
0
41
1
10
89.630733388007
20
6.31677373263474
30
0
41
1
10
89.6307226779322
20
6.28538342210419
30
0
41
1
10
89.6307142220036
20
6.25296083048533
30
0
41
1
10
89.6307016696103
20
6.19344948802865
30
0
41
1
10
89.6306954259718
20
6.16097085512178
30
0
41
1
10
89.6306892213346
20
6.12439183620137
30
0
41
1
10
89.6306850922694
20
6.09909058971999
30
0
41
1
10
89.6306830305216
20
6.0859760708567
30
0
41
1
10
89.6306727591505
20
6.01825557807683
30
0
41
1
10
89.6306646481448
20
5.95713609205131
30
0
41
1
10
89.6306525588056
20
5.85512258193341
30
0
41
1
10
89.6306465331664
20
5.80152884102918
30
0
41
1
10
89.6306405181413
20
5.74403885635223
30
0
41
1
10
89.6306365082961
20
5.70484246229253
30
0
41
1
10
89.6306345028244
20
5.68480246660661
30
0
41
1
10
89.630624493006
20
5.58265349753572
30
0
41
1
10
89.6306165252685
20
5.49454965808258
30
0
41
1
10
89.6306045163039
20
5.35288778615404
30
0
41
1
10
89.6305984972793
20
5.27967718253004
30
0
41
1
10
89.6305924322992
20
5.20288200832928
30
0
41
1
10
89.6305883759151
20
5.15088499701343
30
0
41
1
10
89.6305863408426
20
5.12448138907348
30
0
41
1
10
89.6305761503034
20
4.9907811420623
30
0
41
1
10
89.6305636027801
20
4.81893074806871
30
0
41
1
10
89.6305506822216
20
4.63410560254852
30
0
41
1
10
89.6305461668388
20
4.56880467955534
30
0
0
SPLINE
5
E8
100
AcDbEntity
8
1
62
256
6
ByLayer
370
18
48
1
60
0
100
AcDbSpline
70
4
71
3
72
49
73
45
40
0
40
0
40
0
40
0
40
0.0812815316118145
40
0.0812815316118145
40
0.132790751619382
40
0.132790751619382
40
0.184299971626949
40
0.197177276628841
40
0.197177276628841
40
0.210054581630732
40
0.210054581630732
40
0.235809191634519
40
0.287318411642096
40
0.338827631649673
40
0.390336851657251
40
0.390336851657251
40
0.441846071664828
40
0.441846071664828
40
0.493355291672405
40
0.544864511679982
40
0.544864511679982
40
0.57061912168377
40
0.57061912168377
40
0.596373731687559
40
0.596373731687559
40
0.647882951695136
40
0.647882951695136
40
0.660760256697031
40
0.660760256697031
40
0.673637561698926
40
0.673637561698926
40
0.699392171702713
40
0.699392171702713
40
0.75090139171029
40
0.75090139171029
40
0.776656001714077
40
0.776656001714077
40
0.802410611717864
40
0.802410611717864
40
0.853919831725434
40
0.853919831725434
40
0.905429051733005
40
0.905429051733005
40
1
40
1
40
1
40
1
41
1
10
98.2050412426551
20
0.335501845882334
30
0
41
1
10
98.7363134911281
20
0.0561864808729808
30
0
41
1
10
99.2677118522886
20
-0.224396818652593
30
0
41
1
10
100.137650829186
20
-0.681797854018271
30
0
41
1
10
100.475536234452
20
-0.858981545408227
30
0
41
1
10
101.152810259614
20
-1.21163749446984
30
0
41
1
10
101.577051878039
20
-1.43096608790464
30
0
41
1
10
102.002823471019
20
-1.64827305540217
30
0
41
1
10
102.173262357212
20
-1.73501899006209
30
0
41
1
10
102.258574958819
20
-1.77831769864923
30
0
41
1
10
102.514532716973
20
-1.90783068453942
30
0
41
1
10
103.025607646915
20
-2.16485894881686
30
0
41
1
10
103.873652072848
20
-2.5824745655539
30
0
41
1
10
104.887033045539
20
-3.06375572445134
30
0
41
1
10
105.560860476887
20
-3.36962106410707
30
0
41
1
10
106.234228671459
20
-3.66729186850733
30
0
41
1
10
106.570683653342
20
-3.81203110286873
30
0
41
1
10
107.243714178545
20
-4.09244571494003
30
0
41
1
10
107.916864101618
20
-4.36379698564076
30
0
41
1
10
108.591098215935
20
-4.61566787669059
30
0
41
1
10
109.0976002443
20
-4.7966046208727
30
0
41
1
10
109.266572321274
20
-4.8555889954184
30
0
41
1
10
109.604875120588
20
-4.97084872740237
30
0
41
1
10
109.774205185036
20
-5.02712331591184
30
0
41
1
10
110.282772363929
20
-5.19169276130299
30
0
41
1
10
110.622587569987
20
-5.29573838370641
30
0
41
1
10
111.048695040359
20
-5.41816449589084
30
0
41
1
10
111.13401248144
20
-5.44227599831854
30
0
41
1
10
111.304439024308
20
-5.48963721489028
30
0
41
1
10
111.389587440116
20
-5.51289856698395
30
0
41
1
10
111.64485982864
20
-5.5814330644009
30
0
41
1
10
111.814808161202
20
-5.6254531780848
30
0
41
1
10
112.323947353403
20
-5.75234093716026
30
0
41
1
10
112.662441730645
20
-5.83004777257474
30
0
41
1
10
113.169227994383
20
-5.93604204596562
30
0
41
1
10
113.33799895538
20
-5.96961617702001
30
0
41
1
10
113.675336813573
20
-6.03333186572678
30
0
41
1
10
113.843900277871
20
-6.06346687672718
30
0
41
1
10
114.349272358627
20
-6.14849788482329
30
0
41
1
10
114.685771247242
20
-6.19803707719348
30
0
41
1
10
115.358531716497
20
-6.28261032631463
30
0
41
1
10
115.694810562133
20
-6.31772890115516
30
0
41
1
10
116.648885335801
20
-6.39676452757649
30
0
41
1
10
117.266940195981
20
-6.42312510309372
30
0
41
1
10
117.887024334056
20
-6.42445875529486
30
0
0
SPLINE
5
E9
100
AcDbEntity
8
1
62
256
6
ByLayer
370
13
48
1
60
0
100
AcDbSpline
70
4
71
3
72
28
73
24
40
0
40
0
40
0
40
0
40
0.0194690801041058
40
0.0194690801041058
40
0.11174093286152
40
0.11174093286152
40
0.204012785618934
40
0.204012785618934
40
0.388556491133762
40
0.434692417512469
40
0.434692417512469
40
0.480828343891176
40
0.480828343891176
40
0.57310019664859
40
0.57310019664859
40
0.757643902163419
40
0.803779828542126
40
0.803779828542126
40
0.849915754920833
40
0.849915754920833
40
0.942187607678247
40
0.942187607678247
40
1
40
1
40
1
40
1
41
1
10
89.6309105351603
20
-5.72973230644311
30
0
41
1
10
89.6309097870949
20
-5.73796369326703
30
0
41
1
10
89.6309090344286
20
-5.74612112305655
30
0
41
1
10
89.6309046887772
20
-5.79251561563495
30
0
41
1
10
89.6309009955499
20
-5.82919538393278
30
0
41
1
10
89.6308934440986
20
-5.89904673155877
30
0
41
1
10
89.6308895884282
20
-5.93220038923749
30
0
41
1
10
89.630877812063
20
-6.02638003851396
30
0
41
1
10
89.6308676507833
20
-6.09607237810752
30
0
41
1
10
89.630857161155
20
-6.15474603685792
30
0
41
1
10
89.6308529405592
20
-6.17732794837247
30
0
41
1
10
89.6308508171913
20
-6.18817891012918
30
0
41
1
10
89.6308444271552
20
-6.21932775428061
30
0
41
1
10
89.6308401364107
20
-6.23824623918929
30
0
41
1
10
89.6308271922065
20
-6.28949478652908
30
0
41
1
10
89.6308162866817
20
-6.32303573231394
30
0
41
1
10
89.6308052969005
20
-6.34508372734604
30
0
41
1
10
89.6308008949347
20
-6.35297709701595
30
0
41
1
10
89.6307986904759
20
-6.35646149993917
30
0
41
1
10
89.6307920868848
20
-6.36550051886212
30
0
41
1
10
89.6307876919673
20
-6.36965285720771
30
0
41
1
10
89.6307805598691
20
-6.37338695499022
30
0
41
1
10
89.6307778166468
20
-6.37409744354355
30
0
41
1
10
89.6307750777654
20
-6.37408062034334
30
0
0
SPLINE
5
EA
100
AcDbEntity
8
1
62
256
6
ByLayer
370
18
48
1
60
0
100
AcDbSpline
70
4
71
3
72
52
73
48
40
0
40
0
40
0
40
0
40
0.0624999999999983
40
0.0624999999999983
40
0.0937499999999976
40
0.109374999999998
40
0.109374999999998
40
0.124999999999998
40
0.124999999999998
40
0.187499999999998
40
0.187499999999998
40
0.218749999999997
40
0.234374999999997
40
0.234374999999997
40
0.249999999999997
40
0.249999999999997
40
0.312499999999997
40
0.312499999999997
40
0.374999999999997
40
0.437499999999996
40
0.437499999999996
40
0.468749999999996
40
0.484374999999996
40
0.484374999999996
40
0.499999999999996
40
0.499999999999996
40
0.562499999999995
40
0.562499999999995
40
0.593749999999995
40
0.593749999999995
40
0.624999999999995
40
0.624999999999995
40
0.687499999999994
40
0.687499999999994
40
0.718749999999994
40
0.718749999999994
40
0.749999999999994
40
0.749999999999994
40
0.812499999999993
40
0.812499999999993
40
0.843749999999993
40
0.859374999999993
40
0.859374999999993
40
0.874999999999993
40
0.874999999999993
40
0.937499999999997
40
1
40
1
40
1
40
1
41
1
10
154.469086035061
20
-0.670137619184885
30
0
41
1
10
154.449252896917
20
-0.851208379557903
30
0
41
1
10
154.431922325239
20
-1.03109339519685
30
0
41
1
10
154.409071109514
20
-1.29909660660584
30
0
41
1
10
154.398433268254
20
-1.43264163166913
30
0
41
1
10
154.38887631625
20
-1.56548851737722
30
0
41
1
10
154.382734872811
20
-1.65389614985713
30
0
41
1
10
154.379777366918
20
-1.69804804598021
30
0
41
1
10
154.365564092064
20
-1.9180169522109
30
0
41
1
10
154.356022799568
20
-2.09145314345136
30
0
41
1
10
154.343927148923
20
-2.34779727747622
30
0
41
1
10
154.338435286182
20
-2.47501563290942
30
0
41
1
10
154.333694512651
20
-2.60079237398665
30
0
41
1
10
154.330692743825
20
-2.68432118938773
30
0
41
1
10
154.329270772466
20
-2.72594106621156
30
0
41
1
10
154.322560248355
20
-2.93250388013655
30
0
41
1
10
154.318440744641
20
-3.09340733739808
30
0
41
1
10
154.312159847108
20
-3.40675397201716
30
0
41
1
10
154.307838505671
20
-3.71163920610741
30
0
41
1
10
154.306713837307
20
-3.99970687625387
30
0
41
1
10
154.306918936379
20
-4.20935864810883
30
0
41
1
10
154.307285484695
20
-4.31258272421206
30
0
41
1
10
154.308036886731
20
-4.4133671337793
30
0
41
1
10
154.308623324128
20
-4.48000903430068
30
0
41
1
10
154.308959177075
20
-4.513038763471
30
0
41
1
10
154.310845054868
20
-4.67623935567843
30
0
41
1
10
154.313011901012
20
-4.80102166234192
30
0
41
1
10
154.317284866027
20
-4.97958322318556
30
0
41
1
10
154.318880968652
20
-5.037666497148
30
0
41
1
10
154.322438800986
20
-5.15094460536412
30
0
41
1
10
154.324402977691
20
-5.2061911098989
30
0
41
1
10
154.330864372518
20
-5.36688079181749
30
0
41
1
10
154.335929072357
20
-5.46746118035611
30
0
41
1
10
154.34490471095
20
-5.60856787790303
30
0
41
1
10
154.348127617828
20
-5.65397395846441
30
0
41
1
10
154.35509170421
20
-5.74151028273673
30
0
41
1
10
154.358836426711
20
-5.78366624198816
30
0
41
1
10
154.370887670077
20
-5.90461228492217
30
0
41
1
10
154.380020078786
20
-5.97808848582722
30
0
41
1
10
154.395779360139
20
-6.07764848244463
30
0
41
1
10
154.404175864966
20
-6.12476142062084
30
0
41
1
10
154.413441429812
20
-6.16785694549836
30
0
41
1
10
154.419823229272
20
-6.19569048681319
30
0
41
1
10
154.423116853813
20
-6.20915903069826
30
0
41
1
10
154.440079993991
20
-6.27408359587466
30
0
41
1
10
154.470446776265
20
-6.3628126591193
30
0
41
1
10
154.508632869467
20
-6.42164045089851
30
0
41
1
10
154.530086734931
20
-6.44353055587695
30
0
0
SPLINE
5
EB
100
AcDbEntity
8
1
62
256
6
ByLayer
370
18
48
1
60
0
100
AcDbSpline
70
4
71
3
72
38
73
34
40
0
40
0
40
0
40
0
40
0.0536101812242129
40
0.0536101812242129
40
0.109280170563964
40
0.109280170563964
40
0.164950159903715
40
0.164950159903715
40
0.220620149243466
40
0.220620149243466
40
0.276290138583217
40
0.276290138583217
40
0.331960127922967
40
0.331960127922967
40
0.443300106602473
40
0.443300106602473
40
0.471135101272349
40
0.471135101272349
40
0.485052598607287
40
0.485052598607287
40
0.498970095942226
40
0.498970095942226
40
0.554640085281979
40
0.554640085281979
40
0.610310074621731
40
0.610310074621731
40
0.665980063961484
40
0.665980063961484
40
0.777320042640989
40
0.777320042640989
40
0.888660021320494
40
0.888660021320494
40
1
40
1
40
1
40
1
41
1
10
136.380923259542
20
0.298540827930907
30
0
41
1
10
136.708730471035
20
0.124203063269448
30
0
41
1
10
137.035508483951
20
-0.0499403993856902
30
0
41
1
10
137.699982682756
20
-0.403728316554464
30
0
41
1
10
138.037623426145
20
-0.583310890986866
30
0
41
1
10
138.711732798657
20
-0.940126027868246
30
0
41
1
10
139.048195679254
20
-1.11737587649867
30
0
41
1
10
139.720412396164
20
-1.46870272540178
30
0
41
1
10
140.05617523625
20
-1.64276199184775
30
0
41
1
10
140.727577824668
20
-1.98660633537884
30
0
41
1
10
141.063206569939
20
-2.15641527623782
30
0
41
1
10
141.734749192929
20
-2.49103615450363
30
0
41
1
10
142.070670510877
20
-2.6558336619768
30
0
41
1
10
143.079701076312
20
-3.1411836464832
30
0
41
1
10
143.754061203744
20
-3.4527319445277
30
0
41
1
10
144.601703112755
20
-3.82237728380221
30
0
41
1
10
144.771465903495
20
-3.89531809234856
30
0
41
1
10
145.026508504926
20
-4.00316663429584
30
0
41
1
10
145.111637579386
20
-4.03887575357433
30
0
41
1
10
145.281764207321
20
-4.10964656442829
30
0
41
1
10
145.366750866384
20
-4.14470439554756
30
0
41
1
10
145.791322448636
20
-4.31833016388626
30
0
41
1
10
146.129822778996
20
-4.45190282661861
30
0
41
1
10
146.805050224211
20
-4.70773357492791
30
0
41
1
10
147.141782421349
20
-4.8300082974248
30
0
41
1
10
147.814034177174
20
-5.06281388959246
30
0
41
1
10
148.149546729641
20
-5.17333719945771
30
0
41
1
10
149.154919496941
20
-5.48645893701774
30
0
41
1
10
149.823610489361
20
-5.67068252440541
30
0
41
1
10
151.162038075472
20
-5.98623420118003
30
0
41
1
10
151.83176756657
20
-6.11764920963532
30
0
41
1
10
153.176196383544
20
-6.32399075925193
30
0
41
1
10
153.850907065686
20
-6.39887342506714
30
0
41
1
10
154.530086734931
20
-6.44353055587695
30
0
0
SPLINE
5
EC
100
AcDbEntity
8
1
62
256
6
ByLayer
370
18
48
1
60
0
100
AcDbSpline
70
4
71
3
72
42
73
38
40
0
40
0
40
0
40
0
40
0.0574877836125539
40
0.0862316754188323
40
0.0862316754188323
40
0.10060362132197
40
0.10060362132197
40
0.114975567225107
40
0.114975567225107
40
0.229951134450208
40
0.229951134450208
40
0.344926701675307
40
0.344926701675307
40
0.40241448528786
40
0.40241448528786
40
0.459902268900412
40
0.459902268900412
40
0.517390052512964
40
0.531761998416101
40
0.531761998416101
40
0.546133944319238
40
0.546133944319238
40
0.574877836125516
40
0.574877836125516
40
0.689853403350623
40
0.689853403350623
40
0.747341186963179
40
0.747341186963179
40
0.804828970575734
40
0.804828970575734
40
0.862316754188289
40
0.862316754188289
40
0.919804537800845
40
0.919804537800845
40
0.9772923214134
40
0.9772923214134
40
1
40
1
40
1
40
1
41
1
10
154.527734091965
20
-6.45466083524596
30
0
41
1
10
154.187916135466
20
-6.43256504781525
30
0
41
1
10
153.678375849447
20
-6.38794591855896
30
0
41
1
10
153.168574382799
20
-6.32638369292735
30
0
41
1
10
152.913582743144
20
-6.29279935801051
30
0
41
1
10
152.828555086576
20
-6.28113495373714
30
0
41
1
10
152.658664059246
20
-6.25690506316397
30
0
41
1
10
152.573777839724
20
-6.24433674310512
30
0
41
1
10
151.810298636859
20
-6.127179051611
30
0
41
1
10
151.135170524085
20
-5.99436227505714
30
0
41
1
10
149.787845243727
20
-5.67568744812272
30
0
41
1
10
149.115654737269
20
-5.4897501291982
30
0
41
1
10
148.106382104002
20
-5.17418785856449
30
0
41
1
10
147.769795979347
20
-5.06287314073077
30
0
41
1
10
147.09584259009
20
-4.8285833185513
30
0
41
1
10
146.758480850384
20
-4.70561430210176
30
0
41
1
10
146.082430947096
20
-4.44853782637227
30
0
41
1
10
145.659066424462
20
-4.28088602557958
30
0
41
1
10
145.234236441679
20
-4.10506178675737
30
0
41
1
10
145.064178399738
20
-4.03408946108962
30
0
41
1
10
144.979156597616
20
-3.99831057996352
30
0
41
1
10
144.724372308786
20
-3.89022929655786
30
0
41
1
10
144.554779368823
20
-3.81713583946404
30
0
41
1
10
143.7079744066
20
-3.44673989336206
30
0
41
1
10
143.03424215645
20
-3.1346400128553
30
0
41
1
10
142.026094387975
20
-2.64852283785837
30
0
41
1
10
141.690457217689
20
-2.48348017094784
30
0
41
1
10
141.019462602671
20
-2.14838840934596
30
0
41
1
10
140.684099154283
20
-1.97835090679379
30
0
41
1
10
140.013211151486
20
-1.63405741194006
30
0
41
1
10
139.677695510139
20
-1.45978207486615
30
0
41
1
10
139.005949741731
20
-1.10804543044009
30
0
41
1
10
138.669712517823
20
-0.930597922449266
30
0
41
1
10
137.996036526787
20
-0.573395577152354
30
0
41
1
10
137.658602295598
20
-0.393626639182884
30
0
41
1
10
137.186669291413
20
-0.141958770836368
30
0
41
1
10
137.052902645591
20
-0.0706006121534415
30
0
41
1
10
136.918983694729
20
0.0008281728792383
30
0
0
SPLINE
5
ED
100
AcDbEntity
8
1
62
256
6
ByLayer
370
18
48
1
60
0
100
AcDbSpline
70
4
71
3
72
14
73
10
40
0
40
0
40
0
40
0
40
0.25
40
0.25
40
0.5
40
0.5
40
0.75
40
0.75
40
1
40
1
40
1
40
1
41
1
10
154.530086734931
20
-6.44353055587692
30
0
41
1
10
154.530251409948
20
-6.44369857937062
30
0
41
1
10
154.53034570879
20
-6.44405528012499
30
0
41
1
10
154.530349716559
20
-6.44524769476413
30
0
41
1
10
154.53025396398
20
-6.44608019796792
30
0
41
1
10
154.529838361712
20
-6.44815736231945
30
0
41
1
10
154.529512024555
20
-6.44941967794389
30
0
41
1
10
154.528703153203
20
-6.45204743551344
30
0
41
1
10
154.528225022729
20
-6.45340428715414
30
0
41
1
10
154.527734091965
20
-6.45466083524596
30
0
0
SPLINE
5
EE
100
AcDbEntity
8
1
62
256
6
ByLayer
370
18
48
1
60
0
100
AcDbSpline
70
4
71
3
72
79
73
75
40
0
40
0
40
0
40
0
40
0.035214663819346
40
0.035214663819346
40
0.0512944194223563
40
0.0512944194223563
40
0.0673741750253667
40
0.0673741750253667
40
0.0995336862313877
40
0.0995336862313877
40
0.163852708643429
40
0.163852708643429
40
0.171892586444936
40
0.171892586444936
40
0.179932464246442
40
0.179932464246442
40
0.196012219849454
40
0.228171731055473
40
0.228171731055473
40
0.292490753467513
40
0.292490753467513
40
0.308570509070523
40
0.308570509070523
40
0.324650264673532
40
0.324650264673532
40
0.356809775879549
40
0.356809775879549
40
0.421128798291585
40
0.421128798291585
40
0.437208553894595
40
0.437208553894595
40
0.445248431696101
40
0.445248431696101
40
0.453288309497606
40
0.485447820703627
40
0.485447820703627
40
0.517607331909648
40
0.517607331909648
40
0.549766843115669
40
0.549766843115669
40
0.565846598718679
40
0.565846598718679
40
0.58192635432169
40
0.58192635432169
40
0.61408586552771
40
0.61408586552771
40
0.646245376733731
40
0.646245376733731
40
0.678404887939752
40
0.678404887939752
40
0.694484643542763
40
0.702524521344269
40
0.702524521344269
40
0.710564399145775
40
0.710564399145775
40
0.7427239103518
40
0.7427239103518
40
0.774883421557825
40
0.774883421557825
40
0.80704293276385
40
0.80704293276385
40
0.839202443969875
40
0.839202443969875
40
0.847242321771381
40
0.847242321771381
40
0.855282199572886
40
0.855282199572886
40
0.8713619551759
40
0.8713619551759
40
0.903521466381925
40
0.903521466381925
40
0.93568097758795
40
0.93568097758795
40
1
40
1
40
1
40
1
41
1
10
121.097581761259
20
-6.45140375127986
30
0
41
1
10
120.728264311925
20
-6.50431615494614
30
0
41
1
10
120.358724616845
20
-6.54827382516055
30
0
41
1
10
119.819573256903
20
-6.59895998624887
30
0
41
1
10
119.650345830528
20
-6.61294685478754
30
0
41
1
10
119.312191811238
20
-6.63702984058244
30
0
41
1
10
119.143244116319
20
-6.6471298758398
30
0
41
1
10
118.636672381283
20
-6.67160535724545
30
0
41
1
10
118.299306739254
20
-6.68015476305811
30
0
41
1
10
117.287467216637
20
-6.682555060055
30
0
41
1
10
116.613323691732
20
-6.65314285589332
30
0
41
1
10
115.852813313622
20
-6.58534691871853
30
0
41
1
10
115.768283797168
20
-6.57733200952231
30
0
41
1
10
115.599161284866
20
-6.56033817044258
30
0
41
1
10
115.514545807029
20
-6.55135662023864
30
0
41
1
10
115.260773768728
20
-6.52298661009357
30
0
41
1
10
114.753645575427
20
-6.46056381145738
30
0
41
1
10
114.247398496457
20
-6.38130906555537
30
0
41
1
10
113.235174419129
20
-6.20096359487832
30
0
41
1
10
112.560998251347
20
-6.05142883251011
30
0
41
1
10
111.715989895259
20
-5.82999187339246
30
0
41
1
10
111.546879123444
20
-5.78397643106931
30
0
41
1
10
111.208409688544
20
-5.68849922953243
30
0
41
1
10
111.039220724453
20
-5.63908933372434
30
0
41
1
10
110.532112626339
20
-5.48614077254865
30
0
41
1
10
110.19446046804
20
-5.37782359799527
30
0
41
1
10
109.181877504645
20
-5.03488734586162
30
0
41
1
10
108.507565223557
20
-4.78199342399588
30
0
41
1
10
107.662634752324
20
-4.43912132500441
30
0
41
1
10
107.493547577206
20
-4.36920919041717
30
0
41
1
10
107.239720106869
20
-4.26238910612218
30
0
41
1
10
107.155054746787
20
-4.22644702403824
30
0
41
1
10
106.98578764436
20
-4.15398013701915
30
0
41
1
10
106.562789683532
20
-3.97135993779673
30
0
41
1
10
106.140530937391
20
-3.78164504818531
30
0
41
1
10
105.465256062154
20
-3.46998184178093
30
0
41
1
10
105.127794155776
20
-3.31008285766248
30
0
41
1
10
104.452737665593
20
-2.98292385465862
30
0
41
1
10
104.115139387022
20
-2.81566859072655
30
0
41
1
10
103.608200837271
20
-2.55997237305226
30
0
41
1
10
103.439131131593
20
-2.47393820329216
30
0
41
1
10
103.100739114187
20
-2.30038296684509
30
0
41
1
10
102.931329735798
20
-2.212816593257
30
0
41
1
10
102.42359019665
20
-1.94857084698131
30
0
41
1
10
102.085575905823
20
-1.77025465673179
30
0
41
1
10
101.410000549856
20
-1.41022966944809
30
0
41
1
10
101.072442005978
20
-1.22851639844836
30
0
41
1
10
100.397289530525
20
-0.862577856892472
30
0
41
1
10
100.05968525806
20
-0.678370606065641
30
0
41
1
10
99.5527437802212
20
-0.401096830289163
30
0
41
1
10
99.2991417914641
20
-0.26221480196773
30
0
41
1
10
99.0452682856321
20
-0.123100806262556
30
0
41
1
10
98.8759506618165
20
-0.0303216546688532
30
0
41
1
10
98.7912334312973
20
0.0160993690723501
30
0
41
1
10
98.3678488718449
20
0.248042383929771
30
0
41
1
10
98.0296974457738
20
0.433121930906566
30
0
41
1
10
97.3539977295215
20
0.801414906753223
30
0
41
1
10
97.0164729211803
20
0.984671397570821
30
0
41
1
10
96.3415506301355
20
1.34845739698116
30
0
41
1
10
96.0041502883715
20
1.52898112171553
30
0
41
1
10
95.328823130837
20
1.88612383578413
30
0
41
1
10
94.9909002479381
20
2.06275051549528
30
0
41
1
10
94.5678538094275
20
2.28053110366489
30
0
41
1
10
94.4832122818598
20
2.32393690459182
30
0
41
1
10
94.3138561029257
20
2.41043237941255
30
0
41
1
10
94.2291162330795
20
2.45353477322848
30
0
41
1
10
93.9750302321621
20
2.58221499299191
30
0
41
1
10
93.8057867018644
20
2.66718198052152
30
0
41
1
10
93.2983951236619
20
2.91946461679592
30
0
41
1
10
92.960582127619
20
3.08415636953305
30
0
41
1
10
92.2854007359052
20
3.40584899882134
30
0
41
1
10
91.9480254191856
20
3.56283584701984
30
0
41
1
10
90.9355618879893
20
4.02069752234709
30
0
41
1
10
90.2601384162963
20
4.30849351828567
30
0
41
1
10
89.5823194906623
20
4.57585292936778
30
0
0
SPLINE
5
EF
100
AcDbEntity
8
1
62
256
6
ByLayer
370
18
48
1
60
0
100
AcDbSpline
70
4
71
3
72
16
73
12
40
0
40
0
40
0
40
0
40
0.249999999999587
40
0.249999999999587
40
0.374999999999661
40
0.374999999999661
40
0.499999999999735
40
0.499999999999735
40
0.749999999999867
40
0.749999999999867
40
1
40
1
40
1
40
1
41
1
10
89.5823194906622
20
4.57585292936778
30
0
41
1
10
89.5744215749573
20
4.57896818922819
30
0
41
1
10
89.5672747144254
20
4.58276893840286
30
0
41
1
10
89.5576495665457
20
4.5894625661364
30
0
41
1
10
89.5546109260548
20
4.59187882315646
30
0
41
1
10
89.549077976497
20
4.5969184657601
30
0
41
1
10
89.5465639967328
20
4.5995519226669
30
0
41
1
10
89.5397681244455
20
4.60778633636985
30
0
41
1
10
89.5362098051066
20
4.61380102446194
30
0
41
1
10
89.531509667219
20
4.62608078406237
30
0
41
1
10
89.5302948442742
20
4.63244976148638
30
0
41
1
10
89.5302948442741
20
4.63888088894652
30
0
0
SPLINE
5
F0
100
AcDbEntity
8
1
62
256
6
ByLayer
370
18
48
1
60
0
100
AcDbSpline
70
4
71
3
72
139
73
135
40
0
40
0
40
0
40
0
40
0.008618791856102
40
0.008618791856102
40
0.0208613912101936
40
0.0208613912101936
40
0.0453465899183752
40
0.0453465899183752
40
0.0698317886265568
40
0.0698317886265568
40
0.0820743879806476
40
0.0820743879806476
40
0.0943169873347384
40
0.0943169873347384
40
0.118802186042922
40
0.118802186042922
40
0.143287384751105
40
0.143287384751105
40
0.167772583459288
40
0.167772583459288
40
0.173893883136333
40
0.173893883136333
40
0.180015182813378
40
0.180015182813378
40
0.192257782167468
40
0.192257782167468
40
0.216742980875649
40
0.216742980875649
40
0.241228179583831
40
0.241228179583831
40
0.265713378292013
40
0.265713378292013
40
0.277955977646104
40
0.277955977646104
40
0.290198577000194
40
0.290198577000194
40
0.314683775708374
40
0.314683775708374
40
0.339168974416555
40
0.339168974416555
40
0.363654173124735
40
0.363654173124735
40
0.375896772478825
40
0.375896772478825
40
0.38201807215587
40
0.38201807215587
40
0.388139371832916
40
0.388139371832916
40
0.400381971187009
40
0.400381971187009
40
0.412624570541102
40
0.412624570541102
40
0.43710976924929
40
0.43710976924929
40
0.449352368603385
40
0.449352368603385
40
0.461594967957479
40
0.473837567311574
40
0.473837567311574
40
0.486080166665669
40
0.486080166665669
40
0.498322766019763
40
0.498322766019763
40
0.510565365373858
40
0.510565365373858
40
0.535050564082047
40
0.535050564082047
40
0.547293163436143
40
0.547293163436143
40
0.559535762790238
40
0.571778362144333
40
0.571778362144333
40
0.584020961498429
40
0.584020961498429
40
0.596263560852524
40
0.596263560852524
40
0.60850616020662
40
0.60850616020662
40
0.620748759560715
40
0.620748759560715
40
0.63299135891481
40
0.645233958268906
40
0.645233958268906
40
0.657476557623001
40
0.669719156977097
40
0.669719156977097
40
0.681961756331192
40
0.681961756331192
40
0.68808305600824
40
0.68808305600824
40
0.694204355685289
40
0.706446955039386
40
0.718689554393483
40
0.718689554393483
40
0.73093215374758
40
0.743174753101677
40
0.743174753101677
40
0.755417352455774
40
0.755417352455774
40
0.767659951809871
40
0.767659951809871
40
0.779902551163968
40
0.779902551163968
40
0.792145150518065
40
0.792145150518065
40
0.804387749872162
40
0.804387749872162
40
0.816630349226259
40
0.816630349226259
40
0.828872948580356
40
0.828872948580356
40
0.85335814728855
40
0.85335814728855
40
0.877843345996744
40
0.877843345996744
40
0.883964645673791
40
0.883964645673791
40
0.890085945350839
40
0.890085945350839
40
0.902328544704936
40
0.902328544704936
40
0.914571144059033
40
0.914571144059033
40
0.92681374341313
40
0.92681374341313
40
0.951298942121324
40
0.951298942121324
40
0.963541541475421
40
0.963541541475421
40
0.975784140829519
40
0.975784140829519
40
0.988026740183617
40
0.988026740183617
40
1
40
1
40
1
40
1
41
1
10
92.8708993880798
20
6.40481308561198
30
0
41
1
10
92.9897005973451
20
6.42202114881977
30
0
41
1
10
93.1084476541313
20
6.43831452419064
30
0
41
1
10
93.3957330668546
20
6.47553374790866
30
0
41
1
10
93.564223339171
20
6.49551891790432
30
0
41
1
10
94.0698505265271
20
6.54972432004126
30
0
41
1
10
94.407118646331
20
6.5782276612257
30
0
41
1
10
95.0820700731295
20
6.62000922041616
30
0
41
1
10
95.4197584563037
20
6.63327319872243
30
0
41
1
10
95.9270446273463
20
6.64158813702747
30
0
41
1
10
96.0962980983992
20
6.64242772118783
30
0
41
1
10
96.4343502300244
20
6.64023784571464
30
0
41
1
10
96.603240844829
20
6.63721170352935
30
0
41
1
10
97.1094688600558
20
6.62233172352927
30
0
41
1
10
97.4463274218894
20
6.60464299368263
30
0
41
1
10
98.1203028763713
20
6.55402650153283
30
0
41
1
10
98.4574565503515
20
6.52114192503106
30
0
41
1
10
99.1322712698464
20
6.4403978261951
30
0
41
1
10
99.4699304540611
20
6.39253482715583
30
0
41
1
10
99.8924990511609
20
6.32337056979236
30
0
41
1
10
99.9770380430225
20
6.30907090464945
30
0
41
1
10
100.146168701847
20
6.27953579718812
30
0
41
1
10
100.230771771622
20
6.26429795143247
30
0
41
1
10
100.484387415423
20
6.21722902774442
30
0
41
1
10
100.6532924426
20
6.18402822456599
30
0
41
1
10
101.159527016789
20
6.07897409657264
30
0
41
1
10
101.496368686787
20
6.00164018745519
30
0
41
1
10
102.170255510504
20
5.83357872693151
30
0
41
1
10
102.507297987944
20
5.74288041440786
30
0
41
1
10
103.181667808275
20
5.54830497604709
30
0
41
1
10
103.518997686063
20
5.44442017711765
30
0
41
1
10
104.025618257907
20
5.27906545581885
30
0
41
1
10
104.194596527014
20
5.22236029603741
30
0
41
1
10
104.53279334065
20
5.10579196845256
30
0
41
1
10
104.701754394918
20
5.0460172030466
30
0
41
1
10
105.208171383777
20
4.86232905822328
30
0
41
1
10
105.545214775915
20
4.73403110638912
30
0
41
1
10
106.219291915722
20
4.46725135946272
30
0
41
1
10
106.556310082298
20
4.32876829876025
30
0
41
1
10
107.230270442362
20
4.04156816115452
30
0
41
1
10
107.56722935205
20
3.89285616795624
30
0
41
1
10
108.073451185293
20
3.66329198123392
30
0
41
1
10
108.242319554649
20
3.58568673589531
30
0
41
1
10
108.495792975672
20
3.46761501378728
30
0
41
1
10
108.580336196493
20
3.42796941327882
30
0
41
1
10
108.749332835616
20
3.34818756212687
30
0
41
1
10
108.83378845986
20
3.30805046168939
30
0
41
1
10
109.087026402449
20
3.18689905270148
30
0
41
1
10
109.25568185803
20
3.10514695662979
30
0
41
1
10
109.592917279918
20
2.94010746886812
30
0
41
1
10
109.761494647792
20
2.85681702172087
30
0
41
1
10
110.267115906675
20
2.60466243633013
30
0
41
1
10
110.604042863839
20
2.43350834661217
30
0
41
1
10
111.109227036444
20
2.17222673898988
30
0
41
1
10
111.277591387623
20
2.08437923133801
30
0
41
1
10
111.614538033812
20
1.90765948874517
30
0
41
1
10
111.951697799473
20
1.72990941946728
30
0
41
1
10
112.289226696167
20
1.55000132343116
30
0
41
1
10
112.626943338482
20
1.36901282432669
30
0
41
1
10
112.795987828321
20
1.27792759152234
30
0
41
1
10
113.133667375405
20
1.09502356079622
30
0
41
1
10
113.302327572223
20
1.00319575508155
30
0
41
1
10
113.639590647923
20
0.819338133768355
30
0
41
1
10
113.808191589038
20
0.727304905965468
30
0
41
1
10
114.313820308394
20
0.450743024291057
30
0
41
1
10
114.650671193621
20
0.265747171359266
30
0
41
1
10
115.15571050433
20
-0.012469117291289
30
0
41
1
10
115.324019047788
20
-0.105325482759753
30
0
41
1
10
115.660827271159
20
-0.290785827738176
30
0
41
1
10
115.997826052003
20
-0.47599465203794
30
0
41
1
10
116.335132468693
20
-0.660834600535765
30
0
41
1
10
116.672596822397
20
-0.8454830934011
30
0
41
1
10
116.841451734816
20
-0.937735840620178
30
0
41
1
10
117.179236452788
20
-1.12175265079472
30
0
41
1
10
117.347978343998
20
-1.21341431664933
30
0
41
1
10
117.685303163488
20
-1.39579280534861
30
0
41
1
10
117.853886064259
20
-1.48651008491868
30
0
41
1
10
118.190934342894
20
-1.6669327564075
30
0
41
1
10
118.359399830499
20
-1.75663824393607
30
0
41
1
10
118.696181236306
20
-1.93509473491161
30
0
41
1
10
119.032812967917
20
-2.1125955960762
30
0
41
1
10
119.369413705124
20
-2.28771292512346
30
0
41
1
10
119.70613642792
20
-2.46140327257564
30
0
41
1
10
120.042981190972
20
-2.63366754883629
30
0
41
1
10
120.380096958375
20
-2.80303436094417
30
0
41
1
10
120.717330909535
20
-2.97097520986208
30
0
41
1
10
120.886006918506
20
-3.05423197622315
30
0
41
1
10
121.139227963853
20
-3.17784574053616
30
0
41
1
10
121.2236760371
20
-3.21884176403796
30
0
41
1
10
121.392469978844
20
-3.30029372136391
30
0
41
1
10
121.645576620424
20
-3.42169495835751
30
0
41
1
10
122.067116017187
20
-3.61998206742183
30
0
41
1
10
122.403995525818
20
-3.77435839170965
30
0
41
1
10
122.740711934584
20
-3.92658686182
30
0
41
1
10
123.077266679991
20
-4.07666297529775
30
0
41
1
10
123.413803077225
20
-4.22198556037426
30
0
41
1
10
123.75043257407
20
-4.36479012731027
30
0
41
1
10
123.918792977635
20
-4.4349354875134
30
0
41
1
10
124.255600503503
20
-4.57271668853386
30
0
41
1
10
124.424048030418
20
-4.6403516695184
30
0
41
1
10
124.761067050759
20
-4.77304989469667
30
0
41
1
10
124.929639846419
20
-4.83811050162353
30
0
41
1
10
125.267067164719
20
-4.96544534126721
30
0
41
1
10
125.435982410513
20
-5.02774223734795
30
0
41
1
10
125.773446944544
20
-5.14919949026643
30
0
41
1
10
125.942073023113
20
-5.20839288331143
30
0
41
1
10
126.279110685651
20
-5.32372377430855
30
0
41
1
10
126.447523094679
20
-5.37985978815144
30
0
41
1
10
126.784182969611
20
-5.48902002462987
30
0
41
1
10
126.952432919943
20
-5.54204035917129
30
0
41
1
10
127.457188980002
20
-5.69617389755786
30
0
41
1
10
127.793727614001
20
-5.79234645400484
30
0
41
1
10
128.46698648884
20
-5.97141533546594
30
0
41
1
10
128.803693645991
20
-6.05430579283967
30
0
41
1
10
129.225250256406
20
-6.14909347077844
30
0
41
1
10
129.309594447243
20
-6.16761084145892
30
0
41
1
10
129.478354019305
20
-6.20376009617218
30
0
41
1
10
129.562786787119
20
-6.22139532472875
30
0
41
1
10
129.815934964656
20
-6.27291122679515
30
0
41
1
10
129.984571928823
20
-6.30541838704903
30
0
41
1
10
130.321637849538
20
-6.36674347675302
30
0
41
1
10
130.490063816553
20
-6.39556400884632
30
0
41
1
10
130.826683523573
20
-6.44952863626523
30
0
41
1
10
130.99488697416
20
-6.47466447778271
30
0
41
1
10
131.499538422227
20
-6.54436838697444
30
0
41
1
10
131.83599065493
20
-6.58326794464784
30
0
41
1
10
132.340787821103
20
-6.6302473260892
30
0
41
1
10
132.509073130348
20
-6.64401044454692
30
0
41
1
10
132.845688105977
20
-6.66771940356642
30
0
41
1
10
133.014028559926
20
-6.67765966253197
30
0
41
1
10
133.351033670098
20
-6.6936550542186
30
0
41
1
10
133.519688363854
20
-6.69971500604973
30
0
41
1
10
133.853580807115
20
-6.70786502240355
30
0
41
1
10
134.018565741395
20
-6.71003303935075
30
0
41
1
10
134.183415043759
20
-6.7103449239832
30
0
0
SPLINE
5
F1
100
AcDbEntity
8
1
62
256
6
ByLayer
370
18
48
1
60
0
100
AcDbSpline
70
4
71
3
72
120
73
116
40
0
40
0
40
0
40
0
40
0.003775390014501
40
0.003775390014501
40
0.0157228212997455
40
0.0157228212997455
40
0.02767025258499
40
0.02767025258499
40
0.0515651151554791
40
0.0515651151554791
40
0.075459977725968
40
0.075459977725968
40
0.0993548402964571
40
0.0993548402964571
40
0.123249702866946
40
0.123249702866946
40
0.129223418509569
40
0.129223418509569
40
0.135197134152191
40
0.135197134152191
40
0.147144565437436
40
0.147144565437436
40
0.171039428007925
40
0.171039428007925
40
0.194934290578414
40
0.194934290578414
40
0.206881721863658
40
0.206881721863658
40
0.218829153148903
40
0.218829153148903
40
0.242724015719391
40
0.242724015719391
40
0.266618878289879
40
0.266618878289879
40
0.290513740860368
40
0.290513740860368
40
0.314408603430856
40
0.314408603430856
40
0.320382319073478
40
0.320382319073478
40
0.326356034716099
40
0.326356034716099
40
0.338303466001343
40
0.338303466001343
40
0.36219832857183
40
0.36219832857183
40
0.386093191142317
40
0.386093191142317
40
0.409988053712804
40
0.409988053712804
40
0.433882916283291
40
0.433882916283291
40
0.457777778853779
40
0.457777778853779
40
0.481672641424266
40
0.481672641424266
40
0.493620072709509
40
0.493620072709509
40
0.499593788352131
40
0.499593788352131
40
0.505567503994753
40
0.505567503994753
40
0.517514935279997
40
0.517514935279997
40
0.529462366565242
40
0.529462366565242
40
0.553357229135731
40
0.553357229135731
40
0.57725209170622
40
0.57725209170622
40
0.601146954276709
40
0.601146954276709
40
0.625041816847198
40
0.625041816847198
40
0.648936679417688
40
0.648936679417688
40
0.672831541988177
40
0.672831541988177
40
0.684778973273422
40
0.684778973273422
40
0.690752688916044
40
0.690752688916044
40
0.696726404558667
40
0.696726404558667
40
0.720621267129159
40
0.720621267129159
40
0.744516129699651
40
0.744516129699651
40
0.768410992270143
40
0.768410992270143
40
0.792305854840635
40
0.792305854840635
40
0.816200717411127
40
0.816200717411127
40
0.828148148696373
40
0.828148148696373
40
0.840095579981618
40
0.840095579981618
40
0.863990442552111
40
0.863990442552111
40
0.869964158194734
40
0.869964158194734
40
0.875937873837358
40
0.875937873837358
40
0.887885305122604
40
0.887885305122604
40
0.911780167693098
40
0.911780167693098
40
0.935675030263592
40
0.935675030263592
40
0.959569892834086
40
0.959569892834086
40
0.98346475540458
40
0.98346475540458
40
1
40
1
40
1
40
1
41
1
10
21.9695137516139
20
6.50835990722467
30
0
41
1
10
22.028697864231
20
6.50846271833018
30
0
41
1
10
22.0878653135624
20
6.50833139346594
30
0
41
1
10
22.3342079616742
20
6.50681028650166
30
0
41
1
10
22.521245413461
20
6.50331069319785
30
0
41
1
10
22.895188946063
20
6.49165655726117
30
0
41
1
10
23.0821016779656
20
6.48350480489361
30
0
41
1
10
23.6427190076441
20
6.45211552399289
30
0
41
1
10
24.0162686633296
20
6.42193736269047
30
0
41
1
10
24.7635483765884
20
6.34320453884001
30
0
41
1
10
25.1372566381415
20
6.29463116024587
30
0
41
1
10
25.8857461103358
20
6.17936112479978
30
0
41
1
10
26.2606420501509
20
6.11274487922864
30
0
41
1
10
27.0121112768657
20
5.96162484899753
30
0
41
1
10
27.3886854554961
20
5.87711349673486
30
0
41
1
10
27.8608773942322
20
5.76038743960885
30
0
41
1
10
27.9553897686051
20
5.73648799082076
30
0
41
1
10
28.1445786197111
20
5.68758841894319
30
0
41
1
10
28.2392980465491
20
5.66257542416653
30
0
41
1
10
28.5230701866326
20
5.58608218842079
30
0
41
1
10
28.7119252802015
20
5.53311552681478
30
0
41
1
10
29.2777006942285
20
5.3685606404199
30
0
41
1
10
29.6537589024261
20
5.25124577575602
30
0
41
1
10
30.4041169529765
20
5.00213744438213
30
0
41
1
10
30.7784217326852
20
4.87034390972369
30
0
41
1
10
31.3391489185739
20
4.66258463170607
30
0
41
1
10
31.5259465584324
20
4.59166652054677
30
0
41
1
10
31.8994792678664
20
4.44672946785388
30
0
41
1
10
32.0862071185948
20
4.3727019751671
30
0
41
1
10
32.6463022619947
20
4.14599153645432
30
0
41
1
10
33.0195894784618
20
3.98869137105754
30
0
41
1
10
33.7665550604113
20
3.66262441445628
30
0
41
1
10
34.1401962164132
20
3.49379110449468
30
0
41
1
10
34.8888975535126
20
3.14618607324348
30
0
41
1
10
35.2639869144197
20
2.967477082144
30
0
41
1
10
36.0160084613862
20
2.60072517333896
30
0
41
1
10
36.3929558242721
20
2.41270257162827
30
0
41
1
10
36.8657669944377
20
2.17252293429903
30
0
41
1
10
36.9604330447915
20
2.12422050483258
30
0
41
1
10
37.1494803328647
20
2.02736903243019
30
0
41
1
10
37.2439185789553
20
1.97879266650637
30
0
41
1
10
37.5270153633536
20
1.83268413476409
30
0
41
1
10
37.7154614206834
20
1.73478291253105
30
0
41
1
10
38.2800330048844
20
1.43975967374647
30
0
41
1
10
38.6553486843716
20
1.24123595311102
30
0
41
1
10
39.4044312886871
20
0.841604616723998
30
0
41
1
10
39.7781817390973
20
0.640465967261008
30
0
41
1
10
40.5249883272819
20
0.237220348887291
30
0
41
1
10
40.8981704360603
20
0.0353513538308903
30
0
41
1
10
41.6445037081329
20
-0.368103377764385
30
0
41
1
10
42.017647352641
20
-0.569703188897364
30
0
41
1
10
42.7645263009406
20
-0.971442755116612
30
0
41
1
10
43.1382358505263
20
-1.17163075987946
30
0
41
1
10
43.8873713373347
20
-1.56842543646923
30
0
41
1
10
44.2627308125272
20
-1.7651575560084
30
0
41
1
10
44.827305578864
20
-2.0570998228182
30
0
41
1
10
45.015757899996
20
-2.15387886333087
30
0
41
1
10
45.2988951066557
20
-2.29811713162528
30
0
41
1
10
45.3933502296091
20
-2.3460422559215
30
0
41
1
10
45.5824253215237
20
-2.44155986647371
30
0
41
1
10
45.6770189935528
20
-2.48913766809403
30
0
41
1
10
45.9603730549781
20
-2.63097960266057
30
0
41
1
10
46.1489317919593
20
-2.72446533379508
30
0
41
1
10
46.5255373437226
20
-2.90900564099852
30
0
41
1
10
46.7135824703128
20
-3.0000648352993
30
0
41
1
10
47.2769794253829
20
-3.26959814894633
30
0
41
1
10
47.651597403827
20
-3.4444190774424
30
0
41
1
10
48.3994933824198
20
-3.78343104630577
30
0
41
1
10
48.7727354227608
20
-3.94767049595313
30
0
41
1
10
49.5188577420935
20
-4.26407813195755
30
0
41
1
10
49.8917944377227
20
-4.41617679588651
30
0
41
1
10
50.6377795670423
20
-4.70768538703436
30
0
41
1
10
51.0108409365595
20
-4.8470719315734
30
0
41
1
10
51.7577689976705
20
-5.11214205837746
30
0
41
1
10
52.1316528845323
20
-5.23779614572948
30
0
41
1
10
52.8813443819909
20
-5.47395741523033
30
0
41
1
10
53.2570453222965
20
-5.58459450085715
30
0
41
1
10
53.8223063653412
20
-5.73875887909912
30
0
41
1
10
54.0110156332905
20
-5.78817707359198
30
0
41
1
10
54.2945784530912
20
-5.85925556882785
30
0
41
1
10
54.3890642288487
20
-5.88240998314274
30
0
41
1
10
54.5778107738697
20
-5.9275915032604
30
0
41
1
10
54.672097777592
20
-5.94962598165546
30
0
41
1
10
55.1431502593443
20
-6.05699063679376
30
0
41
1
10
55.5188652813808
20
-6.13382577115473
30
0
41
1
10
56.2685682205244
20
-6.26937785272872
30
0
41
1
10
56.6425350470591
20
-6.32810367253481
30
0
41
1
10
57.3893396473815
20
-6.42725688508975
30
0
41
1
10
57.7621418669051
20
-6.46768526989064
30
0
41
1
10
58.5077029393323
20
-6.52991549859638
30
0
41
1
10
58.8804279038908
20
-6.55174798636227
30
0
41
1
10
59.6261863929116
20
-6.57675550326351
30
0
41
1
10
59.9992312535726
20
-6.57992104027102
30
0
41
1
10
60.5595836871197
20
-6.57051160159085
30
0
41
1
10
60.746498940526
20
-6.56501432617452
30
0
41
1
10
61.1207660823461
20
-6.54929469558914
30
0
41
1
10
61.3081222204534
20
-6.53907512649991
30
0
41
1
10
61.8709081529163
20
-6.50131065780579
30
0
41
1
10
62.2470404293826
20
-6.46665614135063
30
0
41
1
10
62.7187800561973
20
-6.4113741389987
30
0
41
1
10
62.8132439828235
20
-6.3997148185974
30
0
41
1
10
63.0021772194462
20
-6.37521819929518
30
0
41
1
10
63.0965515171296
20
-6.36239344920091
30
0
41
1
10
63.3794193116607
20
-6.32220793061464
30
0
41
1
10
63.5676520859482
20
-6.29313205363681
30
0
41
1
10
64.1315621263082
20
-6.19924744988811
30
0
41
1
10
64.5065019518293
20
-6.12782434801508
30
0
41
1
10
65.2548019589854
20
-5.96786895143933
30
0
41
1
10
65.6281689601489
20
-5.8793352520984
30
0
41
1
10
66.3739925903694
20
-5.68579260052698
30
0
41
1
10
66.7464455363745
20
-5.58076895283591
30
0
41
1
10
67.4915591109165
20
-5.355386477872
30
0
41
1
10
67.8641265125367
20
-5.23494457213772
30
0
41
1
10
68.4949633806455
20
-5.01848323476273
30
0
41
1
10
68.7530943056622
20
-4.92636566753521
30
0
41
1
10
69.0114805439879
20
-4.8307891231033
30
0
0
SPLINE
5
F2
100
AcDbEntity
8
1
62
256
6
ByLayer
370
18
48
1
60
0
100
AcDbSpline
70
4
71
3
72
112
73
108
40
0
40
0
40
0
40
0
40
0.0123649880555027
40
0.0123649880555027
40
0.0242088388046172
40
0.0242088388046172
40
0.0360526895537313
40
0.0360526895537313
40
0.0597403910519613
40
0.0597403910519613
40
0.0834280925501913
40
0.0834280925501913
40
0.107115794048421
40
0.107115794048421
40
0.130803495546651
40
0.130803495546651
40
0.154491197044881
40
0.154491197044881
40
0.166335047793995
40
0.166335047793995
40
0.172256973168552
40
0.172256973168552
40
0.17817889854311
40
0.201866600041338
40
0.201866600041338
40
0.213710450790452
40
0.213710450790452
40
0.225554301539567
40
0.225554301539567
40
0.249242003037796
40
0.249242003037796
40
0.272929704536026
40
0.272929704536026
40
0.296617406034256
40
0.296617406034256
40
0.320305107532486
40
0.320305107532486
40
0.343992809030716
40
0.343992809030716
40
0.349914734405273
40
0.349914734405273
40
0.35583665977983
40
0.367680510528945
40
0.367680510528945
40
0.391368212027172
40
0.391368212027172
40
0.438743615023626
40
0.438743615023626
40
0.462431316521854
40
0.462431316521854
40
0.486119018020082
40
0.486119018020082
40
0.509806719518309
40
0.509806719518309
40
0.521650570267424
40
0.521650570267424
40
0.52757249564198
40
0.52757249564198
40
0.533494421016536
40
0.533494421016536
40
0.55718212251476
40
0.55718212251476
40
0.580869824012983
40
0.580869824012983
40
0.604557525511207
40
0.604557525511207
40
0.628245227009431
40
0.628245227009431
40
0.651932928507655
40
0.651932928507655
40
0.675620630005879
40
0.675620630005879
40
0.699308331504103
40
0.699308331504103
40
0.705230256878659
40
0.705230256878659
40
0.711152182253216
40
0.711152182253216
40
0.722996033002328
40
0.722996033002328
40
0.74668373450055
40
0.74668373450055
40
0.770371435998772
40
0.770371435998772
40
0.794059137496994
40
0.794059137496994
40
0.817746838995216
40
0.817746838995216
40
0.841434540493439
40
0.841434540493439
40
0.865122241991661
40
0.865122241991661
40
0.888809943489883
40
0.888809943489883
40
0.894731868864439
40
0.894731868864439
40
0.900653794238995
40
0.900653794238995
40
0.912497644988106
40
0.912497644988106
40
0.936185346486331
40
0.936185346486331
40
0.959873047984556
40
0.959873047984556
40
0.983560749482781
40
0.983560749482781
40
1
40
1
40
1
40
1
41
1
10
97.949551982595
20
6.64512406769236
30
0
41
1
10
98.1456536742968
20
6.64549534938285
30
0
41
1
10
98.3414134144633
20
6.64324465454621
30
0
41
1
10
98.7241139370146
20
6.63374751739144
30
0
41
1
10
98.9110769498305
20
6.62671415203047
30
0
41
1
10
99.2846412072301
20
6.60793273707262
30
0
41
1
10
99.4712482751131
20
6.59618762699185
30
0
41
1
10
100.030607818106
20
6.55395538380196
30
0
41
1
10
100.402885939748
20
6.51646808501661
30
0
41
1
10
101.146791440155
20
6.42314019064955
30
0
41
1
10
101.518392854276
20
6.3672802646314
30
0
41
1
10
102.261791183748
20
6.23761216743415
30
0
41
1
10
102.633690699666
20
6.1638772212788
30
0
41
1
10
103.378347197867
20
5.99887013677858
30
0
41
1
10
103.75110556875
20
5.90759417244365
30
0
41
1
10
104.498133563814
20
5.70780645415786
30
0
41
1
10
104.872382388549
20
5.59926083023311
30
0
41
1
10
105.435730564738
20
5.42412947664536
30
0
41
1
10
105.623828203273
20
5.36368819635297
30
0
41
1
10
105.906488703036
20
5.26994172392429
30
0
41
1
10
106.000747442614
20
5.23819484436601
30
0
41
1
10
106.18898895694
20
5.17384036884977
30
0
41
1
10
106.659163718476
20
5.01071732659634
30
0
41
1
10
107.127307984788
20
4.83659006889917
30
0
41
1
10
107.68768883329
20
4.61790652475619
30
0
41
1
10
107.87425881165
20
4.54340098411703
30
0
41
1
10
108.247116519025
20
4.3914137287517
30
0
41
1
10
108.433397256008
20
4.313923252145
30
0
41
1
10
108.99185139501
20
4.07706320826
30
0
41
1
10
109.363645057056
20
3.91331676794266
30
0
41
1
10
110.106833280534
20
3.57509721673648
30
0
41
1
10
110.478189204403
20
3.40055865384102
30
0
41
1
10
111.221448152129
20
3.04221838517336
30
0
41
1
10
111.593400566696
20
2.85850598099137
30
0
41
1
10
112.338388482135
20
2.48267375261341
30
0
41
1
10
112.711435826008
20
2.29057088265711
30
0
41
1
10
113.459314868753
20
1.89902766944894
30
0
41
1
10
113.834158122749
20
1.69960162794069
30
0
41
1
10
114.304523912662
20
1.44690704230911
30
0
41
1
10
114.398735840933
20
1.39615984951661
30
0
41
1
10
114.587071626151
20
1.29446120948253
30
0
41
1
10
114.869312674589
20
1.14168134293377
30
0
41
1
10
115.150808245223
20
0.988282874986595
30
0
41
1
10
115.71292858812
20
0.680887155197212
30
0
41
1
10
116.086499273644
20
0.475129903687758
30
0
41
1
10
117.204895010536
20
-0.14238071488677
30
0
41
1
10
117.947878087016
20
-0.553493348934467
30
0
41
1
10
119.061858593917
20
-1.16306700699516
30
0
41
1
10
119.433074946015
20
-1.36512320834339
30
0
41
1
10
120.176408269566
20
-1.76491945307532
30
0
41
1
10
120.548502909044
20
-1.96270236545539
30
0
41
1
10
121.294038576479
20
-2.35313628641407
30
0
41
1
10
121.667488903644
20
-2.54576995671681
30
0
41
1
10
122.229218195983
20
-2.82987191379377
30
0
41
1
10
122.416718776853
20
-2.92376685237721
30
0
41
1
10
122.698487816931
20
-3.06316506705158
30
0
41
1
10
122.792497870829
20
-3.10938930651324
30
0
41
1
10
122.980700738838
20
-3.20133828233776
30
0
41
1
10
123.074876306468
20
-3.24705541853507
30
0
41
1
10
123.545041654711
20
-3.47381045577012
30
0
41
1
10
123.919825437239
20
-3.64981376675712
30
0
41
1
10
124.667342293793
20
-3.99022450302795
30
0
41
1
10
125.040046305746
20
-4.15467055744662
30
0
41
1
10
125.78426447152
20
-4.47082481628325
30
0
41
1
10
126.155874561783
20
-4.62240578915549
30
0
41
1
10
126.898577579959
20
-4.91204330356717
30
0
41
1
10
127.26967385586
20
-5.05009202454821
30
0
41
1
10
128.011991903093
20
-5.31184063945213
30
0
41
1
10
128.383190943617
20
-5.43555650435971
30
0
41
1
10
129.126804900642
20
-5.66735078596614
30
0
41
1
10
129.499149688377
20
-5.77551484194393
30
0
41
1
10
130.245470828392
20
-5.97567057865106
30
0
41
1
10
130.619450779864
20
-6.06765568612786
30
0
41
1
10
131.088408472365
20
-6.17194821056063
30
0
41
1
10
131.182275533945
20
-6.19227109109434
30
0
41
1
10
131.370184790158
20
-6.23182257187673
30
0
41
1
10
131.464281050145
20
-6.25106195574426
30
0
41
1
10
131.746445386219
20
-6.30703116661073
30
0
41
1
10
131.934225799429
20
-6.34198785287921
30
0
41
1
10
132.496653223444
20
-6.43982920259398
30
0
41
1
10
132.870395076819
20
-6.49567997921935
30
0
41
1
10
133.616107925958
20
-6.58858728882993
30
0
41
1
10
133.988038234993
20
-6.62564903340899
30
0
41
1
10
134.731075678429
20
-6.68082194596232
30
0
41
1
10
135.102230290973
20
-6.69893775805252
30
0
41
1
10
135.844273744511
20
-6.71626409595547
30
0
41
1
10
136.215173861624
20
-6.71546842408088
30
0
41
1
10
136.957382563096
20
-6.69488867642477
30
0
41
1
10
137.328696698254
20
-6.67509323608914
30
0
41
1
10
138.072818531716
20
-6.61656900646651
30
0
41
1
10
138.445539841688
20
-6.57783070606388
30
0
41
1
10
139.192911446829
20
-6.48134224663605
30
0
41
1
10
139.567551878057
20
-6.42358259695499
30
0
41
1
10
140.037549801344
20
-6.3394787743415
30
0
41
1
10
140.131577782109
20
-6.32207501903557
30
0
41
1
10
140.319377282825
20
-6.28618096644394
30
0
41
1
10
140.413198831848
20
-6.2676827291285
30
0
41
1
10
140.694442398337
20
-6.2105531136265
30
0
41
1
10
140.881638768246
20
-6.1702839016865
30
0
41
1
10
141.442424184276
20
-6.0430547141907
30
0
41
1
10
141.815214887494
20
-5.94967793155627
30
0
41
1
10
142.559311951571
20
-5.74654158664723
30
0
41
1
10
142.93057481097
20
-5.63673122280122
30
0
41
1
10
143.672648230055
20
-5.40183953908212
30
0
41
1
10
144.043441029416
20
-5.27675286193269
30
0
41
1
10
144.671578834769
20
-5.05242340037961
30
0
41
1
10
144.928923361742
20
-4.95698824812033
30
0
41
1
10
145.186387761743
20
-4.85814413856522
30
0
0
SPLINE
5
F3
100
AcDbEntity
8
1
62
256
6
ByLayer
370
18
48
1
60
0
100
AcDbSpline
70
4
71
3
72
103
73
99
40
0
40
0
40
0
40
0
40
0.0021378494602622
40
0.0021378494602622
40
0.0267108929592553
40
0.0267108929592553
40
0.0512839364582484
40
0.0512839364582484
40
0.0758569799572415
40
0.0758569799572415
40
0.100430023456235
40
0.100430023456235
40
0.125003066955228
40
0.125003066955228
40
0.149576110454221
40
0.149576110454221
40
0.174149153953214
40
0.174149153953214
40
0.180292414827962
40
0.180292414827962
40
0.186435675702711
40
0.186435675702711
40
0.198722197452209
40
0.198722197452209
40
0.223295240951205
40
0.223295240951205
40
0.2478682844502
40
0.2478682844502
40
0.272441327949196
40
0.272441327949196
40
0.297014371448192
40
0.297014371448192
40
0.321587414947188
40
0.321587414947188
40
0.346160458446183
40
0.346160458446183
40
0.358446980195681
40
0.358446980195681
40
0.364590241070429
40
0.364590241070429
40
0.370733501945178
40
0.370733501945178
40
0.395306545444174
40
0.395306545444174
40
0.444452632442166
40
0.444452632442166
40
0.469025675941162
40
0.469025675941162
40
0.493598719440158
40
0.493598719440158
40
0.518171762939154
40
0.518171762939154
40
0.54274480643815
40
0.54274480643815
40
0.548888067312899
40
0.548888067312899
40
0.555031328187648
40
0.555031328187648
40
0.567317849937146
40
0.567317849937146
40
0.591890893436143
40
0.591890893436143
40
0.641036980434138
40
0.641036980434138
40
0.665610023933135
40
0.665610023933135
40
0.690183067432132
40
0.690183067432132
40
0.714756110931129
40
0.714756110931129
40
0.727042632680627
40
0.733185893555376
40
0.733185893555376
40
0.739329154430125
40
0.739329154430125
40
0.76390219792912
40
0.76390219792912
40
0.788475241428114
40
0.788475241428114
40
0.813048284927108
40
0.813048284927108
40
0.837621328426103
40
0.837621328426103
40
0.886767415424093
40
0.886767415424093
40
0.911340458923088
40
0.911340458923088
40
0.917483719797837
40
0.917483719797837
40
0.923626980672587
40
0.923626980672587
40
0.935913502422085
40
0.935913502422085
40
0.960486545921082
40
0.960486545921082
40
0.985059589420079
40
0.985059589420079
40
1
40
1
40
1
40
1
41
1
10
78.0757439077496
20
-6.60935114738086
30
0
41
1
10
78.0419388786411
20
-6.6092890475968
30
0
41
1
10
78.0081243021785
20
-6.60914974364036
30
0
41
1
10
77.5855196821919
20
-6.60644281552879
30
0
41
1
10
77.1982585127312
20
-6.59374796363323
30
0
41
1
10
76.425797995107
20
-6.54845318484527
30
0
41
1
10
76.0405993330527
20
-6.51585953383494
30
0
41
1
10
75.2715203919715
20
-6.43128295650033
30
0
41
1
10
74.887632269841
20
-6.3793042001904
30
0
41
1
10
74.1204760869043
20
-6.25641426810245
30
0
41
1
10
73.7371681493642
20
-6.18551992159186
30
0
41
1
10
72.9702394305296
20
-6.02542074019794
30
0
41
1
10
72.5866380354441
20
-5.93620541554984
30
0
41
1
10
71.8184255319341
20
-5.73995510762069
30
0
41
1
10
71.4338473296915
20
-5.6328869263271
30
0
41
1
10
70.6628469573436
20
-5.40152436100698
30
0
41
1
10
70.276407527916
20
-5.27725266376964
30
0
41
1
10
69.791711099898
20
-5.11152561543466
30
0
41
1
10
69.6946893137184
20
-5.07786094005473
30
0
41
1
10
69.5004680862394
20
-5.00950264103386
30
0
41
1
10
69.4032162107352
20
-4.97478997926308
30
0
41
1
10
69.1115593828965
20
-4.86926012504316
30
0
41
1
10
68.9174873174454
20
-4.7971388107083
30
0
41
1
10
68.336240771654
20
-4.57568187406321
30
0
41
1
10
67.9500115233343
20
-4.42128424683671
30
0
41
1
10
67.1791590437305
20
-4.10046520058236
30
0
41
1
10
66.7945578622014
20
-3.93401397143197
30
0
41
1
10
66.0262624420741
20
-3.59025717015692
30
0
41
1
10
65.642593367055
20
-3.41291112522771
30
0
41
1
10
64.8753811542653
20
-3.04864610195622
30
0
41
1
10
64.491803869528
20
-2.86178438045434
30
0
41
1
10
63.7239740603183
20
-2.47983108038898
30
0
41
1
10
63.3397175558044
20
-2.28474689378419
30
0
41
1
10
62.5698191451533
20
-1.8875285162363
30
0
41
1
10
62.1841863854401
20
-1.68537420126302
30
0
41
1
10
61.6039898417917
20
-1.37806499074665
30
0
41
1
10
61.41030405856
20
-1.27494154749854
30
0
41
1
10
61.1192756784662
20
-1.11934278732204
30
0
41
1
10
61.0221831470038
20
-1.0673238382991
30
0
41
1
10
60.8278187585911
20
-0.963003118386979
30
0
41
1
10
60.7304850164823
20
-0.910668025477776
30
0
41
1
10
60.2442352788355
20
-0.648822190419139
30
0
41
1
10
59.8566927263214
20
-0.438830956429797
30
0
41
1
10
58.6972292964809
20
0.190442421834462
30
0
41
1
10
57.9282456473996
20
0.608585968054882
30
0
41
1
10
56.7763188518138
20
1.22558401281452
30
0
41
1
10
56.392633693811
20
1.42960552134073
30
0
41
1
10
55.6248934690207
20
1.83261141485477
30
0
41
1
10
55.2408542531848
20
2.0316262399667
30
0
41
1
10
54.4717135041935
20
2.42335545191492
30
0
41
1
10
54.0866129978051
20
2.61607177682887
30
0
41
1
10
53.3146291728254
20
2.99388052093795
30
0
41
1
10
52.9276932780776
20
3.1788805852994
30
0
41
1
10
52.4423294970329
20
3.40431959079447
30
0
41
1
10
52.3451726774622
20
3.44911793114298
30
0
41
1
10
52.150679397325
20
3.53811466821108
30
0
41
1
10
52.0532825429853
20
3.58233959405334
30
0
41
1
10
51.7614182179038
20
3.71380202393692
30
0
41
1
10
51.5671992371611
20
3.79986396464796
30
0
41
1
10
50.9854768889171
20
4.05315427426424
30
0
41
1
10
50.5989366823457
20
4.21552753564379
30
0
41
1
10
49.4416924788202
20
4.68140034664899
30
0
41
1
10
48.6733668887005
20
4.96369182385843
30
0
41
1
10
47.5213472485473
20
5.33988212779269
30
0
41
1
10
47.1373826812026
20
5.45735729523
30
0
41
1
10
46.3687067228537
20
5.67556408465936
30
0
41
1
10
45.9840126305231
20
5.77631550051959
30
0
41
1
10
45.2131773401274
20
5.96031395965764
30
0
41
1
10
44.8270702285123
20
6.04358581141969
30
0
41
1
10
44.2461836546801
20
6.15468795909376
30
0
41
1
10
43.9553061006255
20
6.20678705521655
30
0
41
1
10
43.6636660899744
20
6.25359447785152
30
0
41
1
10
43.4690586423075
20
6.28361139568418
30
0
41
1
10
43.3716072892273
20
6.2980336585556
30
0
41
1
10
42.8849403057582
20
6.36699457199524
30
0
41
1
10
42.4970232396782
20
6.41216361416102
30
0
41
1
10
41.7233108905749
20
6.48259194442488
30
0
41
1
10
41.3374882147486
20
6.50783563084775
30
0
41
1
10
40.5670186636985
20
6.53845716417575
30
0
41
1
10
40.1823922766131
20
6.54384253832342
30
0
41
1
10
39.4136247400789
20
6.53487627082492
30
0
41
1
10
39.0295126566504
20
6.52051990012498
30
0
41
1
10
37.8767143886657
20
6.44800850777497
30
0
41
1
10
37.1074542589765
20
6.36046238995999
30
0
41
1
10
35.9481483183667
20
6.17116799829248
30
0
41
1
10
35.5608124680256
20
6.09839633083655
30
0
41
1
10
35.0749244408944
20
5.99552882057435
30
0
41
1
10
34.9776620472803
20
5.97435963892878
30
0
41
1
10
34.7829557685512
20
5.93083298934371
30
0
41
1
10
34.6854537628718
20
5.90846145290607
30
0
41
1
10
34.3932953274753
20
5.83971989780366
30
0
41
1
10
34.198878808368
20
5.79170311921021
30
0
41
1
10
33.616547941165
20
5.64128064575314
30
0
41
1
10
33.2295739895888
20
5.53248120742398
30
0
41
1
10
32.4572953554119
20
5.29890923014133
30
0
41
1
10
32.0719504006771
20
5.17418167021475
30
0
41
1
10
31.4529925258757
20
4.9616702568733
30
0
41
1
10
31.2191139511236
20
4.8785712986014
30
0
41
1
10
30.9853120475557
20
4.79283267956632
30
0
0
SPLINE
5
F4
100
AcDbEntity
8
1
62
256
6
ByLayer
370
18
48
1
60
0
100
AcDbSpline
70
4
71
3
72
122
73
118
40
0
40
0
40
0
40
0
40
0.0141871412590661
40
0.0356178555795213
40
0.0463332127397489
40
0.0463332127397489
40
0.0570485698999765
40
0.0570485698999765
40
0.0999099985408828
40
0.0999099985408828
40
0.11062535570111
40
0.11062535570111
40
0.121340712861337
40
0.121340712861337
40
0.142771427181791
40
0.142771427181791
40
0.164202141502244
40
0.164202141502244
40
0.174917498662471
40
0.174917498662471
40
0.185632855822698
40
0.185632855822698
40
0.207063570143153
40
0.207063570143153
40
0.217778927303379
40
0.217778927303379
40
0.228494284463606
40
0.228494284463606
40
0.271355713104512
40
0.271355713104512
40
0.282071070264739
40
0.282071070264739
40
0.292786427424966
40
0.292786427424966
40
0.314217141745419
40
0.335647856065872
40
0.335647856065872
40
0.346363213226099
40
0.346363213226099
40
0.357078570386326
40
0.357078570386326
40
0.399939999027238
40
0.399939999027238
40
0.421370713347693
40
0.421370713347693
40
0.432086070507921
40
0.432086070507921
40
0.442801427668148
40
0.442801427668148
40
0.485662856309059
40
0.485662856309059
40
0.496378213469286
40
0.496378213469286
40
0.507093570629513
40
0.507093570629513
40
0.528524284949966
40
0.528524284949966
40
0.539239642110193
40
0.539239642110193
40
0.54995499927042
40
0.54995499927042
40
0.571385713590875
40
0.571385713590875
40
0.582101070751104
40
0.582101070751104
40
0.592816427911332
40
0.592816427911332
40
0.614247142231787
40
0.614247142231787
40
0.635677856552242
40
0.635677856552242
40
0.657108570872697
40
0.657108570872697
40
0.678539285193153
40
0.678539285193153
40
0.68925464235338
40
0.68925464235338
40
0.699969999513608
40
0.710685356673836
40
0.710685356673836
40
0.721400713834063
40
0.721400713834063
40
0.74283142815452
40
0.74283142815452
40
0.753546785314749
40
0.753546785314749
40
0.764262142474978
40
0.764262142474978
40
0.785692856795436
40
0.785692856795436
40
0.807123571115893
40
0.807123571115893
40
0.828554285436351
40
0.828554285436351
40
0.849984999756809
40
0.849984999756809
40
0.860700356917038
40
0.860700356917038
40
0.871415714077266
40
0.882131071237494
40
0.882131071237494
40
0.892846428397722
40
0.892846428397722
40
0.914277142718179
40
0.914277142718179
40
0.924992499878407
40
0.924992499878407
40
0.935707857038634
40
0.935707857038634
40
0.946423214198862
40
0.946423214198862
40
0.95713857135909
40
0.967853928519317
40
0.967853928519317
40
0.978569285679545
40
0.978569285679545
40
1
40
1
40
1
40
1
41
1
10
107.13731808961
20
4.82304753445982
30
0
41
1
10
107.361100301197
20
4.90804850174291
30
0
41
1
10
107.922733355102
20
5.11525187163829
30
0
41
1
10
108.653365945412
20
5.36375521456168
30
0
41
1
10
109.160926996598
20
5.52224654278402
30
0
41
1
10
109.499514081999
20
5.62473185227961
30
0
41
1
10
109.668723406156
20
5.67432862139574
30
0
41
1
10
110.514308613127
20
5.91387948229811
30
0
41
1
10
111.189519472206
20
6.0786040915055
30
0
41
1
10
112.034627540096
20
6.24870846952209
30
0
41
1
10
112.203704824601
20
6.28093862597066
30
0
41
1
10
112.542041569248
20
6.34176178331771
30
0
41
1
10
112.711342695019
20
6.37035986847803
30
0
41
1
10
113.218775330185
20
6.45048976509676
30
0
41
1
10
113.556695886025
20
6.49640612692994
30
0
41
1
10
114.232362953132
20
6.57304239846107
30
0
41
1
10
114.570104634331
20
6.60376487592953
30
0
41
1
10
115.076975719
20
6.63832451413586
30
0
41
1
10
115.245975997951
20
6.64792364534415
30
0
41
1
10
115.584130613898
20
6.66325834136455
30
0
41
1
10
115.753320903649
20
6.66899463563425
30
0
41
1
10
116.26098147745
20
6.6803702374099
30
0
41
1
10
116.599207670491
20
6.68017223271627
30
0
41
1
10
117.106633577717
20
6.66820947447059
30
0
41
1
10
117.2757901237
20
6.66227762119334
30
0
41
1
10
117.614202261984
20
6.64652745019797
30
0
41
1
10
117.783330781956
20
6.6367146239304
30
0
41
1
10
118.628484242356
20
6.5780388718363
30
0
41
1
10
119.30334784531
20
6.50033138289825
30
0
41
1
10
120.14804514264
20
6.36578952844081
30
0
41
1
10
120.317040336605
20
6.33701079531954
30
0
41
1
10
120.655211004063
20
6.27574020628643
30
0
41
1
10
120.824435412647
20
6.24323712555139
30
0
41
1
10
121.331643749721
20
6.14037945817245
30
0
41
1
10
122.007163406418
20
5.98889426862104
30
0
41
1
10
122.682273761453
20
5.80965134803225
30
0
41
1
10
123.188856838509
20
5.66515203705399
30
0
41
1
10
123.357759268256
20
5.61530747360166
30
0
41
1
10
123.695713725356
20
5.51231856144153
30
0
41
1
10
123.86480644645
20
5.45916098393076
30
0
41
1
10
124.710370603895
20
5.18541759196131
30
0
41
1
10
125.385068643989
20
4.94166445430818
30
0
41
1
10
126.397832477226
20
4.54303562161979
30
0
41
1
10
126.735534734834
20
4.40465404694169
30
0
41
1
10
127.242677638559
20
4.18934905434597
30
0
41
1
10
127.411810146952
20
4.11629667585788
30
0
41
1
10
127.749756908153
20
3.96796830359136
30
0
41
1
10
127.918643982517
20
3.8926617249104
30
0
41
1
10
128.762822884842
20
3.51068793106012
30
0
41
1
10
129.437321236142
20
3.18766407987474
30
0
41
1
10
130.282021368487
20
2.76614514922807
30
0
41
1
10
130.451095504129
20
2.68092928801386
30
0
41
1
10
130.789182094365
20
2.50898874276635
30
0
41
1
10
130.958176087311
20
2.42227415070607
30
0
41
1
10
131.465117861014
20
2.1600802448703
30
0
41
1
10
131.803051633226
20
1.98253716175589
30
0
41
1
10
132.310202102617
20
1.71286504719302
30
0
41
1
10
132.479224896454
20
1.62245204189418
30
0
41
1
10
132.817286209034
20
1.44070496023377
30
0
41
1
10
132.986346469636
20
1.34935902623951
30
0
41
1
10
133.493350980078
20
1.07429416738941
30
0
41
1
10
133.831199963254
20
0.889511792754007
30
0
41
1
10
134.338137385997
20
0.610936869528388
30
0
41
1
10
134.507179975162
20
0.517825055438834
30
0
41
1
10
134.845187954888
20
0.331366406266142
30
0
41
1
10
135.014143050755
20
0.238025433657157
30
0
41
1
10
135.520965523123
20
-0.0421445017848896
30
0
41
1
10
135.858827263104
20
-0.229142516477339
30
0
41
1
10
136.534843944659
20
-0.602423006171534
30
0
41
1
10
136.87264033383
20
-0.788497410332042
30
0
41
1
10
137.548348672073
20
-1.15854542765024
30
0
41
1
10
137.886387311628
20
-1.34259422197604
30
0
41
1
10
138.562070647427
20
-1.70705643684258
30
0
41
1
10
138.899799219642
20
-1.88751585825966
30
0
41
1
10
139.406647063387
20
-2.15480351818982
30
0
41
1
10
139.575631876071
20
-2.24332821088296
30
0
41
1
10
139.913464577774
20
-2.4189670905181
30
0
41
1
10
140.251234429257
20
-2.59323231631967
30
0
41
1
10
140.58901022584
20
-2.76452996946355
30
0
41
1
10
140.926855578854
20
-2.93423227710889
30
0
41
1
10
141.095840650046
20
-3.01829904283693
30
0
41
1
10
141.602588370693
20
-3.26773267457355
30
0
41
1
10
141.940253711061
20
-3.43038975034654
30
0
41
1
10
142.446918481115
20
-3.66827192481458
30
0
41
1
10
142.615871140779
20
-3.74656519732537
30
0
41
1
10
142.953695478866
20
-3.90091322293898
30
0
41
1
10
143.122560175985
20
-3.97696519805774
30
0
41
1
10
143.629115865026
20
-4.20160520989677
30
0
41
1
10
143.966798787396
20
-4.34669316486415
30
0
41
1
10
144.64247885155
20
-4.62664661607499
30
0
41
1
10
144.980281625248
20
-4.76142849308417
30
0
41
1
10
145.655881160122
20
-5.0196630989814
30
0
41
1
10
145.993737357695
20
-5.1431315249595
30
0
41
1
10
146.669104114598
20
-5.37779365110688
30
0
41
1
10
147.006680369363
20
-5.48901643241913
30
0
41
1
10
147.513284600156
20
-5.64624545289882
30
0
41
1
10
147.682181536599
20
-5.69705003494678
30
0
41
1
10
148.019829783372
20
-5.79530095360653
30
0
41
1
10
148.357405205448
20
-5.89021588450518
30
0
41
1
10
148.694978690252
20
-5.97832770233538
30
0
41
1
10
149.032623981708
20
-6.06297277495284
30
0
41
1
10
149.201508385077
20
-6.1035672417421
30
0
41
1
10
149.707959158974
20
-6.2199611522453
30
0
41
1
10
150.045440880899
20
-6.29040175374857
30
0
41
1
10
150.551871993607
20
-6.38504235632894
30
0
41
1
10
150.720745021666
20
-6.41475690499854
30
0
41
1
10
151.05846917808
20
-6.47044297962972
30
0
41
1
10
151.227316701586
20
-6.49641557551632
30
0
41
1
10
151.565042113566
20
-6.54459037350262
30
0
41
1
10
151.733910116352
20
-6.56679037134185
30
0
41
1
10
152.071515665003
20
-6.60736441565965
30
0
41
1
10
152.409045303266
20
-6.64412054994591
30
0
41
1
10
152.746550228681
20
-6.67319369583257
30
0
41
1
10
153.08410786304
20
-6.69840027418249
30
0
41
1
10
153.252945402792
20
-6.70907138534179
30
0
41
1
10
153.759227003106
20
-6.73522783242905
30
0
41
1
10
154.096539523427
20
-6.74485907808841
30
0
41
1
10
154.434035862222
20
-6.74665968730065
30
0
0
SPLINE
5
F5
100
AcDbEntity
8
1
62
256
6
ByLayer
370
18
48
1
60
0
100
AcDbSpline
70
4
71
3
72
12
73
8
40
0
40
0
40
0
40
0
40
0.499999999999997
40
0.499999999999997
40
0.749999999999999
40
0.749999999999999
40
1
40
1
40
1
40
1
41
1
10
154.38528941337
20
-6.6891651070631
30
0
41
1
10
154.393392150059
20
-6.70739161420619
30
0
41
1
10
154.401501252284
20
-6.72130593854271
30
0
41
1
10
154.41369295904
20
-6.73569712220134
30
0
41
1
10
154.41776357698
20
-6.73941463662609
30
0
41
1
10
154.425904797816
20
-6.74467047522833
30
0
41
1
10
154.429972025192
20
-6.74620792982282
30
0
41
1
10
154.434035862222
20
-6.74665968730068
30
0
0
SPLINE
5
F6
100
AcDbEntity
8
1
62
256
6
ByLayer
370
18
48
1
60
0
100
AcDbSpline
70
4
71
3
72
90
73
86
40
0
40
0
40
0
40
0
40
0.0277077390559982
40
0.0277077390559982
40
0.0415616085839973
40
0.0415616085839973
40
0.0554154781119964
40
0.110830956223991
40
0.110830956223991
40
0.138538695279989
40
0.138538695279989
40
0.152392564807988
40
0.152392564807988
40
0.166246434335988
40
0.166246434335988
40
0.221661912447984
40
0.221661912447984
40
0.249369651503983
40
0.249369651503983
40
0.263223521031982
40
0.263223521031982
40
0.270150455795982
40
0.270150455795982
40
0.277077390559982
40
0.332492868671984
40
0.332492868671984
40
0.360200607727984
40
0.360200607727984
40
0.374054477255985
40
0.374054477255985
40
0.387908346783985
40
0.387908346783985
40
0.415616085839986
40
0.415616085839986
40
0.443323824895986
40
0.443323824895986
40
0.471031563951987
40
0.471031563951987
40
0.484885433479988
40
0.49181236824399
40
0.49181236824399
40
0.498739303007991
40
0.498739303007991
40
0.526447042064001
40
0.526447042064001
40
0.55415478112001
40
0.55415478112001
40
0.581862520176019
40
0.581862520176019
40
0.595716389704025
40
0.595716389704025
40
0.609570259232031
40
0.609570259232031
40
0.63727799828804
40
0.63727799828804
40
0.66498573734405
40
0.66498573734405
40
0.692693476400059
40
0.692693476400059
40
0.720401215456068
40
0.720401215456068
40
0.72732815022007
40
0.72732815022007
40
0.734255084984071
40
0.748108954512074
40
0.748108954512074
40
0.775816693568082
40
0.775816693568082
40
0.831232171680095
40
0.831232171680095
40
0.845086041208099
40
0.845086041208099
40
0.858939910736103
40
0.858939910736103
40
0.886647649792111
40
0.886647649792111
40
0.942063127904126
40
0.942063127904126
40
0.95591699743213
40
0.95591699743213
40
0.969770866960134
40
0.969770866960134
40
0.997478606016143
40
0.997478606016143
40
1
40
1
40
1
40
1
41
1
10
154.385289413373
20
-6.68916510706245
30
0
41
1
10
154.048065299147
20
-6.66408720196441
30
0
41
1
10
153.71085236763
20
-6.63126026541232
30
0
41
1
10
153.204683987012
20
-6.57052830915256
30
0
41
1
10
153.035832884011
20
-6.54835854801152
30
0
41
1
10
152.698323792142
20
-6.50026344551327
30
0
41
1
10
151.855185365029
20
-6.37066893305831
30
0
41
1
10
151.014411130147
20
-6.19490159046444
30
0
41
1
10
150.004527673499
20
-5.94203051473298
30
0
41
1
10
149.667741361833
20
-5.85074688880661
30
0
41
1
10
149.16188549725
20
-5.70366597052717
30
0
41
1
10
148.993136784971
20
-5.6529415800731
30
0
41
1
10
148.655414069042
20
-5.54818439037075
30
0
41
1
10
148.486688970046
20
-5.49422921084587
30
0
41
1
10
147.643569633026
20
-5.21678925182587
30
0
41
1
10
146.970732716543
20
-4.97027162116126
30
0
41
1
10
145.960748415967
20
-4.5676508988004
30
0
41
1
10
145.623957905375
20
-4.42797890997838
30
0
41
1
10
145.118143658047
20
-4.21082619811531
30
0
41
1
10
144.949433733454
20
-4.13716860759189
30
0
41
1
10
144.69615888413
20
-4.02483931161294
30
0
41
1
10
144.611689135026
20
-3.98708447928143
30
0
41
1
10
144.44285757513
20
-3.91105639493586
30
0
41
1
10
143.683399762307
20
-3.5665091018536
30
0
41
1
10
142.926158959558
20
-3.20073029093578
30
0
41
1
10
141.915935778691
20
-2.69304598234018
30
0
41
1
10
141.579100141503
20
-2.52048680848071
30
0
41
1
10
141.073259702056
20
-2.25737896991436
30
0
41
1
10
140.90454809438
20
-2.1689655400576
30
0
41
1
10
140.566866468213
20
-1.99081836591435
30
0
41
1
10
140.397844415463
20
-1.90105626948235
30
0
41
1
10
139.891401016529
20
-1.63053215423625
30
0
41
1
10
139.554266801905
20
-1.44835358915134
30
0
41
1
10
138.880378999187
20
-1.08143251338771
30
0
41
1
10
138.543624328486
20
-0.896692253517585
30
0
41
1
10
137.869992350653
20
-0.525555681924715
30
0
41
1
10
137.53311695155
20
-0.339155657508257
30
0
41
1
10
137.027271671001
20
-0.0591072669226662
30
0
41
1
10
136.774215373466
20
0.0810278324069031
30
0
41
1
10
136.520886535299
20
0.22119928274941
30
0
41
1
10
136.351932747064
20
0.314641806021143
30
0
41
1
10
136.267418129038
20
0.361362527540791
30
0
41
1
10
135.84512740101
20
0.594658819296114
30
0
41
1
10
135.507823702579
20
0.780520076115124
30
0
41
1
10
134.8336597077
20
1.14959812558462
30
0
41
1
10
134.496795720408
20
1.33280895418403
30
0
41
1
10
133.8230172075
20
1.69571422290812
30
0
41
1
10
133.486105481571
20
1.87541297919697
30
0
41
1
10
132.980253049676
20
2.14153319625504
30
0
41
1
10
132.811554590849
20
2.22966840619708
30
0
41
1
10
132.473928971961
20
2.40467813758593
30
0
41
1
10
132.304961298349
20
2.49157397938046
30
0
41
1
10
131.797890542606
20
2.75008295541602
30
0
41
1
10
131.460401124032
20
2.91911765193959
30
0
41
1
10
130.785940771126
20
3.24965102666985
30
0
41
1
10
130.4489623054
20
3.41113898833191
30
0
41
1
10
129.775026334874
20
3.72582083659671
30
0
41
1
10
129.438072634147
20
3.87901857401883
30
0
41
1
10
128.763563525218
20
4.17616873059174
30
0
41
1
10
128.426010344284
20
4.32012619437407
30
0
41
1
10
128.003381570871
20
4.49382362623564
30
0
41
1
10
127.918824901019
20
4.52824899198041
30
0
41
1
10
127.749823618735
20
4.59638839454328
30
0
41
1
10
127.496419794562
20
4.69756005846006
30
0
41
1
10
127.243273765736
20
4.7955771915023
30
0
41
1
10
126.737204192728
20
4.98726480057221
30
0
41
1
10
126.400112396353
20
5.10925020660545
30
0
41
1
10
125.388872436514
20
5.45687628599848
30
0
41
1
10
124.714891446254
20
5.66432458019798
30
0
41
1
10
123.869750096137
20
5.89008262014821
30
0
41
1
10
123.700559236105
20
5.93356373799949
30
0
41
1
10
123.362604285462
20
6.01693436492798
30
0
41
1
10
123.193748181436
20
6.05684824621085
30
0
41
1
10
122.687434749694
20
6.17120908631665
30
0
41
1
10
122.350219378232
20
6.24026477933546
30
0
41
1
10
121.338692697614
20
6.4253981496729
30
0
41
1
10
120.664638100069
20
6.51951459122017
30
0
41
1
10
119.819573256903
20
6.59895998624887
30
0
41
1
10
119.650345830528
20
6.61294685478751
30
0
41
1
10
119.312191811238
20
6.63702984058244
30
0
41
1
10
119.143244116319
20
6.6471298758398
30
0
41
1
10
118.636672381283
20
6.67160535724545
30
0
41
1
10
118.299306739254
20
6.68015476305811
30
0
41
1
10
117.931334557879
20
6.68102767076942
30
0
41
1
10
117.900643078919
20
6.68103627657925
30
0
41
1
10
117.86995224656
20
6.68098069470383
30
0
0
SPLINE
5
F7
100
AcDbEntity
8
1
62
256
6
ByLayer
370
18
48
1
60
0
100
AcDbSpline
70
4
71
3
72
26
73
22
40
0
40
0
40
0
40
0
40
0.125000000000099
40
0.125000000000099
40
0.187500000000203
40
0.187500000000203
40
0.250000000000307
40
0.250000000000307
40
0.375000000000314
40
0.375000000000314
40
0.500000000000322
40
0.500000000000322
40
0.625000000000329
40
0.625000000000329
40
0.68750000000014
40
0.68750000000014
40
0.749999999999951
40
0.749999999999951
40
0.874999999999975
40
0.874999999999975
40
1
40
1
40
1
40
1
41
1
10
89.5302948442741
20
-5.7701154457838
30
0
41
1
10
89.5302948442741
20
-5.76581762409916
30
0
41
1
10
89.5314177114962
20
-5.76160076660503
30
0
41
1
10
89.5347357032458
20
-5.75539543439399
30
0
41
1
10
89.5361311143498
20
-5.75333317561254
30
0
41
1
10
89.5394178323498
20
-5.74935161532412
30
0
41
1
10
89.5413079047097
20
-5.74742608803911
30
0
41
1
10
89.5477034232035
20
-5.74184299508369
30
0
41
1
10
89.553022000432
20
-5.73833487186474
30
0
41
1
10
89.565125046415
20
-5.73219296681413
30
0
41
1
10
89.5719627866878
20
-5.72951132932212
30
0
41
1
10
89.5869312163018
20
-5.72508173274289
30
0
41
1
10
89.5948435243249
20
-5.72338856492706
30
0
41
1
10
89.607347158816
20
-5.72162887303222
30
0
41
1
10
89.6116362023558
20
-5.72117510489605
30
0
41
1
10
89.6201851673041
20
-5.72056032188473
30
0
41
1
10
89.6244743870571
20
-5.72039415199413
30
0
41
1
10
89.637385795336
20
-5.72031521124347
30
0
41
1
10
89.64614724513
20
-5.72083914128638
30
0
41
1
10
89.6628541549646
20
-5.72297075594784
30
0
41
1
10
89.6709542100632
20
-5.72458186935125
30
0
41
1
10
89.678595205076
20
-5.72671787681
30
0
0
SPLINE
5
F8
100
AcDbEntity
8
1
62
256
6
ByLayer
370
18
48
1
60
0
100
AcDbSpline
70
4
71
3
72
8
73
4
40
0
40
0
40
0
40
0
40
1
40
1
40
1
40
1
41
1
10
154.381260483834
20
-0.63617364756027
30
0
41
1
10
154.412053819187
20
-0.340021223908138
30
0
41
1
10
154.448887509199
20
-0.0450282462355176
30
0
41
1
10
154.49320926599
20
0.248605311803374
30
0
0
SPLINE
5
F9
100
AcDbEntity
8
1
62
256
6
ByLayer
370
18
48
1
60
0
100
AcDbSpline
70
4
71
3
72
54
73
50
40
0
40
0
40
0
40
0
40
0.056016131750268
40
0.056016131750268
40
0.112032263500536
40
0.112032263500536
40
0.168048395250804
40
0.168048395250804
40
0.224064527001072
40
0.224064527001072
40
0.28008065875134
40
0.28008065875134
40
0.308088724626474
40
0.308088724626474
40
0.336096790501608
40
0.336096790501608
40
0.392112922251876
40
0.392112922251876
40
0.420120988127011
40
0.420120988127011
40
0.434125021064579
40
0.434125021064579
40
0.448129054002147
40
0.448129054002147
40
0.504145185752422
40
0.504145185752422
40
0.560161317502697
40
0.560161317502697
40
0.588169383377835
40
0.588169383377835
40
0.616177449252972
40
0.616177449252972
40
0.672193581003249
40
0.672193581003249
40
0.728209712753525
40
0.728209712753525
40
0.784225844503801
40
0.784225844503801
40
0.840241976254077
40
0.840241976254077
40
0.854246009191645
40
0.854246009191645
40
0.868250042129213
40
0.868250042129213
40
0.89625810800435
40
0.89625810800435
40
0.952274239754624
40
0.952274239754624
40
1
40
1
40
1
40
1
41
1
10
10.8748479282826
20
-3.94490952499569
30
0
41
1
10
11.2541895283667
20
-4.10658241559298
30
0
41
1
10
11.6320829537411
20
-4.26198296634178
30
0
41
1
10
12.3856163081421
20
-4.55949918972428
30
0
41
1
10
12.7612110211729
20
-4.70166833547032
30
0
41
1
10
13.5111301594428
20
-4.97152193035703
30
0
41
1
10
13.885408046226
20
-5.0992679936945
30
0
41
1
10
14.6336094868753
20
-5.33934464232897
30
0
41
1
10
15.0074451511457
20
-5.4517879583685
30
0
41
1
10
15.7550611739135
20
-5.66099084638321
30
0
41
1
10
16.1288443191422
20
-5.7577398943414
30
0
41
1
10
16.6900757062596
20
-5.89046061668839
30
0
41
1
10
16.8772593537667
20
-5.93262208738812
30
0
41
1
10
17.2519904896249
20
-6.0126602911792
30
0
41
1
10
17.4395280365846
20
-6.05054624121522
30
0
41
1
10
18.0026868710655
20
-6.15775528704563
30
0
41
1
10
18.3788630684408
20
-6.22062209738954
30
0
41
1
10
18.9447166156334
20
-6.30149674528406
30
0
41
1
10
19.1335979873509
20
-6.3262171977513
30
0
41
1
10
19.4174037749073
20
-6.35986218973775
30
0
41
1
10
19.5121406290149
20
-6.37051048941038
30
0
41
1
10
19.7015122186075
20
-6.39061670589285
30
0
41
1
10
19.7961164757148
20
-6.40007168764078
30
0
41
1
10
20.2687731266232
20
-6.444360971348
30
0
41
1
10
20.6457207446284
20
-6.47025386116701
30
0
41
1
10
21.3976451660862
20
-6.50321904781339
30
0
41
1
10
21.772636637133
20
-6.51027785518801
30
0
41
1
10
22.3342079616743
20
-6.50681028650166
30
0
41
1
10
22.5212454134611
20
-6.50331069319785
30
0
41
1
10
22.8951889460631
20
-6.49165655726117
30
0
41
1
10
23.0821016779656
20
-6.48350480489361
30
0
41
1
10
23.6427190076441
20
-6.45211552399286
30
0
41
1
10
24.0162686633296
20
-6.42193736269047
30
0
41
1
10
24.7635483765884
20
-6.34320453884001
30
0
41
1
10
25.1372566381416
20
-6.29463116024587
30
0
41
1
10
25.8857461103358
20
-6.17936112479978
30
0
41
1
10
26.260642050151
20
-6.11274487922864
30
0
41
1
10
27.0121112768658
20
-5.96162484899753
30
0
41
1
10
27.3886854554961
20
-5.87711349673489
30
0
41
1
10
27.8608773942322
20
-5.76038743960885
30
0
41
1
10
27.9553897686051
20
-5.73648799082076
30
0
41
1
10
28.1445786197112
20
-5.68758841894319
30
0
41
1
10
28.2392980465492
20
-5.66257542416653
30
0
41
1
10
28.5230701866326
20
-5.58608218842079
30
0
41
1
10
28.7119252802015
20
-5.53311552681478
30
0
41
1
10
29.2777006942285
20
-5.3685606404199
30
0
41
1
10
29.6537589024261
20
-5.25124577575605
30
0
41
1
10
30.3485905643597
20
-5.02057142534017
30
0
41
1
10
30.667608582239
20
-4.90919615019516
30
0
41
1
10
30.9862316943143
20
-4.79289154452871
30
0
0
SPLINE
5
FA
100
AcDbEntity
8
1
62
256
6
ByLayer
370
18
48
1
60
0
100
AcDbSpline
70
4
71
3
72
122
73
118
40
0
40
0
40
0
40
0
40
0.0087253319789797
40
0.0087253319789797
40
0.0205804154170222
40
0.0205804154170222
40
0.0324354988550644
40
0.0324354988550644
40
0.0561456657311485
40
0.0561456657311485
40
0.0620732074501694
40
0.0620732074501694
40
0.0680007491691904
40
0.0680007491691904
40
0.0798558326072323
40
0.0798558326072323
40
0.103565999483316
40
0.103565999483316
40
0.1272761663594
40
0.1272761663594
40
0.150986333235484
40
0.150986333235484
40
0.174696500111568
40
0.174696500111568
40
0.198406666987652
40
0.198406666987652
40
0.210261750425695
40
0.210261750425695
40
0.222116833863737
40
0.222116833863737
40
0.233971917301779
40
0.2398994590208
40
0.2398994590208
40
0.245827000739821
40
0.245827000739821
40
0.269537167615903
40
0.269537167615903
40
0.293247334491985
40
0.293247334491985
40
0.316957501368067
40
0.316957501368067
40
0.328812584806108
40
0.328812584806108
40
0.340667668244149
40
0.340667668244149
40
0.364377835120232
40
0.364377835120232
40
0.388088001996314
40
0.388088001996314
40
0.411798168872397
40
0.411798168872397
40
0.423653252310438
40
0.423653252310438
40
0.42958079402946
40
0.42958079402946
40
0.435508335748481
40
0.435508335748481
40
0.459218502624568
40
0.459218502624568
40
0.482928669500655
40
0.482928669500655
40
0.506638836376741
40
0.506638836376741
40
0.518493919814784
40
0.518493919814784
40
0.530349003252827
40
0.530349003252827
40
0.554059170128912
40
0.554059170128912
40
0.577769337004997
40
0.577769337004997
40
0.601479503881083
40
0.601479503881083
40
0.613334587319125
40
0.613334587319125
40
0.625189670757168
40
0.625189670757168
40
0.648899837633252
40
0.648899837633252
40
0.672610004509336
40
0.672610004509336
40
0.69632017138542
40
0.69632017138542
40
0.720030338261504
40
0.720030338261504
40
0.743740505137588
40
0.743740505137588
40
0.767450672013672
40
0.767450672013672
40
0.779305755451714
40
0.779305755451714
40
0.785233297170736
40
0.785233297170736
40
0.791160838889757
40
0.791160838889757
40
0.814871005765843
40
0.814871005765843
40
0.826726089203884
40
0.826726089203884
40
0.838581172641927
40
0.838581172641927
40
0.862291339518011
40
0.862291339518011
40
0.886001506394095
40
0.886001506394095
40
0.909711673270179
40
0.909711673270179
40
0.933421840146263
40
0.933421840146263
40
0.957132007022347
40
0.957132007022347
40
0.968987090460388
40
0.968987090460388
40
0.974914632179409
40
0.974914632179409
40
0.980842173898429
40
1
40
1
40
1
40
1
41
1
10
59.9605754192546
20
6.57674382940095
30
0
41
1
10
60.0979244636829
20
6.57698677793647
30
0
41
1
10
60.2353265608383
20
6.57595652761185
30
0
41
1
10
60.5595836871197
20
6.57051160159085
30
0
41
1
10
60.7464989405261
20
6.56501432617452
30
0
41
1
10
61.1207660823462
20
6.54929469558914
30
0
41
1
10
61.3081222204534
20
6.53907512649991
30
0
41
1
10
61.8709081529163
20
6.50131065780579
30
0
41
1
10
62.2470404293826
20
6.46665614135063
30
0
41
1
10
62.7187800561973
20
6.4113741389987
30
0
41
1
10
62.8132439828235
20
6.3997148185974
30
0
41
1
10
63.0021772194462
20
6.37521819929518
30
0
41
1
10
63.0965515171296
20
6.36239344920091
30
0
41
1
10
63.3794193116607
20
6.32220793061464
30
0
41
1
10
63.5676520859482
20
6.29313205363684
30
0
41
1
10
64.1315621263082
20
6.19924744988811
30
0
41
1
10
64.5065019518293
20
6.12782434801508
30
0
41
1
10
65.2548019589855
20
5.96786895143936
30
0
41
1
10
65.628168960149
20
5.87933525209843
30
0
41
1
10
66.3739925903694
20
5.68579260052698
30
0
41
1
10
66.7464455363745
20
5.58076895283594
30
0
41
1
10
67.4915591109166
20
5.35538647787197
30
0
41
1
10
67.8641265125368
20
5.23494457213772
30
0
41
1
10
68.6097965749979
20
4.9790801052356
30
0
41
1
10
68.9829011778466
20
4.84365417120301
30
0
41
1
10
69.543533811561
20
4.62986085224696
30
0
41
1
10
69.7305863690824
20
4.55683675116742
30
0
41
1
10
70.1051959389278
20
4.40746336154322
30
0
41
1
10
70.2927434381333
20
4.33110216976433
30
0
41
1
10
70.6683579666744
20
4.17505199955687
30
0
41
1
10
70.9504644646078
20
4.05552666273098
30
0
41
1
10
71.233249210357
20
3.93235196403941
30
0
41
1
10
71.4219347198364
20
3.84943654470067
30
0
41
1
10
71.5164162690032
20
3.80755347065508
30
0
41
1
10
71.9882915479069
20
3.59660298919806
30
0
41
1
10
72.3643071427599
20
3.42274985667996
30
0
41
1
10
73.1145041450251
20
3.06683369041019
30
0
41
1
10
73.4886984866433
20
2.88479800397474
30
0
41
1
10
74.2357023051546
20
2.51336317612515
30
0
41
1
10
74.6085250222515
20
2.32398471583559
30
0
41
1
10
75.1672566156598
20
2.03534429892051
30
0
41
1
10
75.3534145027964
20
1.93836442979779
30
0
41
1
10
75.7257250675267
20
1.7431713864315
30
0
41
1
10
75.9118864042059
20
1.64497419912036
30
0
41
1
10
76.4704671595148
20
1.34872643544094
30
0
41
1
10
76.8429496825343
20
1.14895880091245
30
0
41
1
10
77.5886887460423
20
0.745929836538068
30
0
41
1
10
77.9619275610289
20
0.542633349520429
30
0
41
1
10
78.710016752471
20
0.134060135196989
30
0
41
1
10
79.0849850997674
20
-0.0709880346935279
30
0
41
1
10
79.6491853722768
20
-0.379054901848917
30
0
41
1
10
79.837543501636
20
-0.481826574322042
30
0
41
1
10
80.1205778365666
20
-0.636001004466209
30
0
41
1
10
80.2150023460962
20
-0.687392627324073
30
0
41
1
10
80.4035573255976
20
-0.78990355680483
30
0
41
1
10
80.497746715736
20
-0.841054976689122
30
0
41
1
10
80.968278972502
20
-1.09624731710994
30
0
41
1
10
81.3433528595461
20
-1.29863623008748
30
0
41
1
10
82.0919808205167
20
-1.69778422267464
30
0
41
1
10
82.4654693201545
20
-1.89467408342168
30
0
41
1
10
83.2112965281554
20
-2.28226195137853
30
0
41
1
10
83.583641795982
20
-2.4729453050081
30
0
41
1
10
84.141847283884
20
-2.75337432655556
30
0
41
1
10
84.3278681846957
20
-2.84590990748444
30
0
41
1
10
84.6999844204671
20
-3.02881604440392
30
0
41
1
10
84.8860778578744
20
-3.11919066214057
30
0
41
1
10
85.4445037041235
20
-3.38701476459443
30
0
41
1
10
85.816986794897
20
-3.56115570293591
30
0
41
1
10
86.5629652955101
20
-3.89957153269467
30
0
41
1
10
86.9364259158302
20
-4.06389560079413
30
0
41
1
10
87.685309982855
20
-4.38110975943809
30
0
41
1
10
88.0607970752628
20
-4.53391342198552
30
0
41
1
10
88.6259293713269
20
-4.75382551570107
30
0
41
1
10
88.8148019062886
20
-4.82563618168797
30
0
41
1
10
89.1914999419221
20
-4.96535303418409
30
0
41
1
10
89.379504708895
20
-5.03333245711488
30
0
41
1
10
89.9426208568626
20
-5.23151676905331
30
0
41
1
10
90.316841872954
20
-5.3559477179829
30
0
41
1
10
91.0640046552221
20
-5.5884563960501
30
0
41
1
10
91.436850682182
20
-5.69665041831274
30
0
41
1
10
92.1816403313329
20
-5.89649618536419
30
0
41
1
10
92.5535773932552
20
-5.98814813302096
30
0
41
1
10
93.2973133851262
20
-6.15427240288341
30
0
41
1
10
93.6692378077245
20
-6.22865633354016
30
0
41
1
10
94.4137593881293
20
-6.3596914648769
30
0
41
1
10
94.7863318439293
20
-6.41635561469877
30
0
41
1
10
95.5327353801091
20
-6.5114644295557
30
0
41
1
10
95.9065274314562
20
-6.54991256852105
30
0
41
1
10
96.4689524439245
20
-6.59343088427573
30
0
41
1
10
96.6567201032575
20
-6.60558082511858
30
0
41
1
10
96.9388370468824
20
-6.62023757624621
30
0
41
1
10
97.0329543862134
20
-6.62452813346053
30
0
41
1
10
97.2213556492506
20
-6.63191133328968
30
0
41
1
10
97.3156976880057
20
-6.63500519084664
30
0
41
1
10
97.7868928641526
20
-6.64743707345787
30
0
41
1
10
98.1624205934446
20
-6.64768655956269
30
0
41
1
10
98.7241139370146
20
-6.63374751739144
30
0
41
1
10
98.9110769498306
20
-6.62671415203047
30
0
41
1
10
99.2846412072302
20
-6.60793273707262
30
0
41
1
10
99.4712482751131
20
-6.59618762699185
30
0
41
1
10
100.030607818106
20
-6.55395538380196
30
0
41
1
10
100.402885939748
20
-6.51646808501661
30
0
41
1
10
101.146791440155
20
-6.42314019064955
30
0
41
1
10
101.518392854276
20
-6.36728026463143
30
0
41
1
10
102.261791183748
20
-6.23761216743412
30
0
41
1
10
102.633690699666
20
-6.1638772212788
30
0
41
1
10
103.378347197867
20
-5.99887013677858
30
0
41
1
10
103.75110556875
20
-5.90759417244365
30
0
41
1
10
104.498133563814
20
-5.70780645415786
30
0
41
1
10
104.872382388549
20
-5.59926083023311
30
0
41
1
10
105.435730564738
20
-5.42412947664536
30
0
41
1
10
105.623828203273
20
-5.36368819635297
30
0
41
1
10
105.906488703036
20
-5.26994172392429
30
0
41
1
10
106.000747442614
20
-5.23819484436598
30
0
41
1
10
106.18898895694
20
-5.17384036884977
30
0
41
1
10
106.586945053824
20
-5.03577296388116
30
0
41
1
10
106.983446516918
20
-4.88982220935756
30
0
41
1
10
107.285604226709
20
-4.77405394960687
30
0
0
SPLINE
5
FB
100
AcDbEntity
8
1
62
256
6
ByLayer
370
18
48
1
60
0
100
AcDbSpline
70
4
71
3
72
50
73
46
40
0
40
0
40
0
40
0
40
0.0349819084120581
40
0.0349819084120581
40
0.09529553913631
40
0.09529553913631
40
0.155609169860561
40
0.155609169860561
40
0.215922800584813
40
0.215922800584813
40
0.231001208265876
40
0.231001208265876
40
0.24607961594694
40
0.24607961594694
40
0.276236431309064
40
0.276236431309064
40
0.336550062033311
40
0.336550062033311
40
0.39686369275756
40
0.39686369275756
40
0.457177323481807
40
0.457177323481807
40
0.517490954206055
40
0.517490954206055
40
0.547647769568179
40
0.547647769568179
40
0.577804584930303
40
0.577804584930303
40
0.638118215654551
40
0.638118215654551
40
0.668275031016675
40
0.668275031016675
40
0.683353438697734
40
0.683353438697734
40
0.698431846378795
40
0.698431846378795
40
0.758745477103036
40
0.758745477103036
40
0.819059107827277
40
0.819059107827277
40
0.879372738551518
40
0.879372738551518
40
0.939686369275759
40
0.939686369275759
40
1
40
1
40
1
40
1
41
1
10
135.940699130889
20
6.71350828139075
30
0
41
1
10
136.155865837811
20
6.71392095476736
30
0
41
1
10
136.371037672985
20
6.71114667751533
30
0
41
1
10
136.957382563096
20
6.69488867642477
30
0
41
1
10
137.328696698254
20
6.67509323608914
30
0
41
1
10
138.072818531716
20
6.61656900646651
30
0
41
1
10
138.445539841688
20
6.57783070606388
30
0
41
1
10
139.192911446829
20
6.48134224663605
30
0
41
1
10
139.567551878057
20
6.42358259695499
30
0
41
1
10
140.037549801344
20
6.33947877434153
30
0
41
1
10
140.131577782109
20
6.32207501903559
30
0
41
1
10
140.319377282825
20
6.28618096644396
30
0
41
1
10
140.413198831848
20
6.2676827291285
30
0
41
1
10
140.694442398337
20
6.21055311362653
30
0
41
1
10
140.881638768246
20
6.1702839016865
30
0
41
1
10
141.442424184276
20
6.04305471419073
30
0
41
1
10
141.815214887494
20
5.94967793155627
30
0
41
1
10
142.559311951571
20
5.74654158664725
30
0
41
1
10
142.93057481097
20
5.63673122280125
30
0
41
1
10
143.672648230055
20
5.40183953908212
30
0
41
1
10
144.043441029416
20
5.27675286193269
30
0
41
1
10
144.785044370094
20
5.01190098280259
30
0
41
1
10
145.155863464327
20
4.87214245924241
30
0
41
1
10
145.712618523777
20
4.65205630495581
30
0
41
1
10
145.89828846516
20
4.57694797206597
30
0
41
1
10
146.269969532557
20
4.42345409578078
30
0
41
1
10
146.455987129455
20
4.34507886185452
30
0
41
1
10
147.014645394083
20
4.10515058831814
30
0
41
1
10
147.387882632855
20
3.93878270557116
30
0
41
1
10
147.949416014073
20
3.68014055313674
30
0
41
1
10
148.13687390173
20
3.59241167388305
30
0
41
1
10
148.418548033743
20
3.45862028743821
30
0
41
1
10
148.512569542579
20
3.41363377743676
30
0
41
1
10
148.700426949292
20
3.3231192385262
30
0
41
1
10
148.794287506186
20
3.27758112618824
30
0
41
1
10
149.263310220397
20
3.04858844973427
30
0
41
1
10
149.63767877347
20
2.86130583523863
30
0
41
1
10
150.38526194497
20
2.47954152537636
30
0
41
1
10
150.758477218066
20
2.28505994542854
30
0
41
1
10
151.504406548661
20
1.89002673063285
30
0
41
1
10
151.877091768186
20
1.68942141828006
30
0
41
1
10
152.623064039895
20
1.28406483737538
30
0
41
1
10
152.996285863758
20
1.07920239646984
30
0
41
1
10
153.743777454537
20
0.6661112596598
30
0
41
1
10
154.118050375735
20
0.457887372880578
30
0
41
1
10
154.493209265989
20
0.248605311793796
30
0
0
SPLINE
5
FC
100
AcDbEntity
8
1
62
256
6
ByLayer
370
18
48
1
60
0
100
AcDbSpline
70
4
71
3
72
50
73
46
40
0
40
0
40
0
40
0
40
0.0563253358297939
40
0.0563253358297939
40
0.112650671659588
40
0.112650671659588
40
0.140813339574485
40
0.140813339574485
40
0.154894673531933
40
0.154894673531933
40
0.168976007489382
40
0.168976007489382
40
0.225301343319185
40
0.225301343319185
40
0.281626679148988
40
0.281626679148988
40
0.337952014978791
40
0.337952014978791
40
0.4506026866384
40
0.4506026866384
40
0.506928022468205
40
0.506928022468205
40
0.535090690383108
40
0.535090690383108
40
0.563253358298011
40
0.563253358298011
40
0.619578694127818
40
0.619578694127818
40
0.675904029957624
40
0.675904029957624
40
0.73222936578743
40
0.73222936578743
40
0.788554701617237
40
0.788554701617237
40
0.844880037447043
40
0.844880037447043
40
0.901205373276849
40
0.901205373276849
40
0.957530709106655
40
0.957530709106655
40
0.971612043064106
40
0.971612043064106
40
0.985693377021557
40
0.985693377021557
40
1
40
1
40
1
40
1
41
1
10
89.5302948442604
20
3.88074980207119
30
0
41
1
10
89.1467020602341
20
4.05057117585827
30
0
41
1
10
88.762673788638
20
4.21477405301926
30
0
41
1
10
87.9927831672187
20
4.53042404667409
30
0
41
1
10
87.6069423462863
20
4.68190532264342
30
0
41
1
10
87.026267299362
20
4.89870265311183
30
0
41
1
10
86.8323886137844
20
4.96922913162137
30
0
41
1
10
86.5410232084792
20
5.07230081901645
30
0
41
1
10
86.443896485531
20
5.10617490301203
30
0
41
1
10
86.2499092762986
20
5.17284379599903
30
0
41
1
10
86.1530046733569
20
5.20565387277125
30
0
41
1
10
85.6688821504948
20
5.36704419001606
30
0
41
1
10
85.2828442021199
20
5.4876192741668
30
0
41
1
10
84.5124923807105
20
5.71117963426553
30
0
41
1
10
84.128183693814
20
5.81417127074417
30
0
41
1
10
83.3605651641784
20
6.00210328988788
30
0
41
1
10
82.977285199807
20
6.08706249100257
30
0
41
1
10
81.827593766499
20
6.31395990069242
30
0
41
1
10
81.0613808604307
20
6.42799227829795
30
0
41
1
10
79.9081212508001
20
6.5405122507635
30
0
41
1
10
79.5229949731593
20
6.56824059173425
30
0
41
1
10
78.9436248284494
20
6.59483068727624
30
0
41
1
10
78.7502251197122
20
6.60119466815439
30
0
41
1
10
78.3627751542201
20
6.60886854297598
30
0
41
1
10
78.1686908471706
20
6.61017822765086
30
0
41
1
10
77.5855196821904
20
6.60644281552877
30
0
41
1
10
77.1982585127297
20
6.59374796363318
30
0
41
1
10
76.4257979951056
20
6.54845318484516
30
0
41
1
10
76.0405993330513
20
6.5158595338348
30
0
41
1
10
75.2715203919701
20
6.43128295650013
30
0
41
1
10
74.8876322698395
20
6.37930420019018
30
0
41
1
10
74.1204760869029
20
6.25641426810222
30
0
41
1
10
73.7371681493629
20
6.18551992159161
30
0
41
1
10
72.9702394305283
20
6.02542074019763
30
0
41
1
10
72.5866380354427
20
5.9362054155495
30
0
41
1
10
71.8184255319328
20
5.73995510762032
30
0
41
1
10
71.4338473296902
20
5.63288692632668
30
0
41
1
10
70.6628469573423
20
5.40152436100655
30
0
41
1
10
70.2764075279148
20
5.27725266376919
30
0
41
1
10
69.7917110998968
20
5.11152561543418
30
0
41
1
10
69.6946893137172
20
5.07786094005428
30
0
41
1
10
69.5004680862381
20
5.00950264103341
30
0
41
1
10
69.4032162107339
20
4.9747899792626
30
0
41
1
10
69.2072229075009
20
4.90387394800925
30
0
41
1
10
69.1085429516325
20
4.86767825828562
30
0
41
1
10
69.009951815436
20
4.83103552297732
30
0
0
SPLINE
5
FD
100
AcDbEntity
8
1
62
256
6
ByLayer
370
18
48
1
60
0
100
AcDbSpline
70
4
71
3
72
57
73
53
40
0
40
0
40
0
40
0
40
0.0090600276248695
40
0.0090600276248695
40
0.0562476453570148
40
0.0562476453570148
40
0.150622880821306
40
0.150622880821306
40
0.197810498553452
40
0.197810498553452
40
0.209607402986489
40
0.209607402986489
40
0.221404307419526
40
0.221404307419526
40
0.2449981162856
40
0.2449981162856
40
0.292185734017748
40
0.292185734017748
40
0.339373351749896
40
0.339373351749896
40
0.386560969482044
40
0.386560969482044
40
0.433748587214193
40
0.433748587214193
40
0.528123822678489
40
0.528123822678489
40
0.551717631544564
40
0.551717631544564
40
0.563514535977601
40
0.563514535977601
40
0.575311440410639
40
0.575311440410639
40
0.622499058142791
40
0.622499058142791
40
0.669686675874943
40
0.669686675874943
40
0.716874293607095
40
0.764061911339248
40
0.764061911339248
40
0.8112495290714
40
0.8112495290714
40
0.858437146803552
40
0.858437146803552
40
0.905624764535704
40
0.905624764535704
40
0.917421668968741
40
0.917421668968741
40
0.929218573401778
40
0.929218573401778
40
0.952812382267852
40
0.952812382267852
40
1
40
1
40
1
40
1
41
1
10
40.0194431021619
20
-6.54084990918614
30
0
41
1
10
39.9456209010592
20
-6.54071713580953
30
0
41
1
10
39.8718102327473
20
-6.54022016673099
30
0
41
1
10
39.4136247400783
20
-6.5348762708249
30
0
41
1
10
39.0295126566499
20
-6.52051990012495
30
0
41
1
10
37.8767143886652
20
-6.44800850777492
30
0
41
1
10
37.107454258976
20
-6.36046238995991
30
0
41
1
10
35.9481483183662
20
-6.17116799829239
30
0
41
1
10
35.5608124680251
20
-6.09839633083644
30
0
41
1
10
35.0749244408939
20
-5.99552882057424
30
0
41
1
10
34.9776620472798
20
-5.97435963892866
30
0
41
1
10
34.7829557685507
20
-5.9308329893436
30
0
41
1
10
34.6854537628713
20
-5.90846145290598
30
0
41
1
10
34.3932953274749
20
-5.83971989780355
30
0
41
1
10
34.1988788083675
20
-5.7917031192101
30
0
41
1
10
33.6165479411646
20
-5.641280645753
30
0
41
1
10
33.2295739895884
20
-5.53248120742384
30
0
41
1
10
32.4572953554116
20
-5.29890923014119
30
0
41
1
10
32.0719504006767
20
-5.17418167021461
30
0
41
1
10
31.302102300272
20
-4.90986399281576
30
0
41
1
10
30.9175982256262
20
-4.77027574908584
30
0
41
1
10
30.1487307912879
20
-4.47719013033384
30
0
41
1
10
29.7643841736982
20
-4.32366534162389
30
0
41
1
10
28.6101994000718
20
-3.84408595133615
30
0
41
1
10
27.8393009576504
20
-3.49892781265237
30
0
41
1
10
26.870227794397
20
-3.04073713135796
30
0
41
1
10
26.6761276374825
20
-2.94778343431227
30
0
41
1
10
26.384469192651
20
-2.80649708885841
30
0
41
1
10
26.2871652432281
20
-2.75909194493508
30
0
41
1
10
26.0923759969963
20
-2.66368031514054
30
0
41
1
10
25.9948294797458
20
-2.61564340790454
30
0
41
1
10
25.507598994933
20
-2.37448530257933
30
0
41
1
10
25.1192349603213
20
-2.17836480134022
30
0
41
1
10
24.3445926940654
20
-1.78116790560091
30
0
41
1
10
23.9583435927572
20
-1.58003654665413
30
0
41
1
10
23.1870328355963
20
-1.17451960522487
30
0
41
1
10
22.4169351766862
20
-0.7657008161992
30
0
41
1
10
21.6478195550062
20
-0.35302273460465
30
0
41
1
10
20.8784999634899
20
0.0602652686898182
30
0
41
1
10
20.4936877283379
20
0.26711840978146
30
0
41
1
10
19.7229628306474
20
0.679729038640915
30
0
41
1
10
19.3370630611662
20
0.885511062263703
30
0
41
1
10
18.5634547413518
20
1.29463206435918
30
0
41
1
10
18.1757802337232
20
1.49803676589761
30
0
41
1
10
17.6895052949497
20
1.74971509007449
30
0
41
1
10
17.5921663324172
20
1.79992208267592
30
0
41
1
10
17.3973080742909
20
1.90005510962226
30
0
41
1
10
17.2997523952267
20
1.94999960455129
30
0
41
1
10
17.0070919751483
20
2.09922777135887
30
0
41
1
10
16.8120521230287
20
2.19788016978842
30
0
41
1
10
16.2269907437138
20
2.49109118414867
30
0
41
1
10
15.8370113711723
20
2.68287698902006
30
0
41
1
10
15.4467640705461
20
2.87040089207642
30
0
0
SPLINE
5
FE
100
AcDbEntity
8
1
62
256
6
ByLayer
370
18
48
1
60
0
100
AcDbSpline
70
4
71
3
72
71
73
67
40
0
40
0
40
0
40
0
40
0.0189050209367494
40
0.0189050209367494
40
0.0378100418734989
40
0.0567150628102483
40
0.0567150628102483
40
0.0756200837469977
40
0.0756200837469977
40
0.113430125620496
40
0.113430125620496
40
0.151240167493995
40
0.151240167493995
40
0.189050209367494
40
0.189050209367494
40
0.207955230304243
40
0.207955230304243
40
0.226860251240991
40
0.226860251240991
40
0.302480334987986
40
0.302480334987986
40
0.321385355924734
40
0.321385355924734
40
0.340290376861483
40
0.378100418734979
40
0.378100418734979
40
0.415910460608475
40
0.415910460608475
40
0.434815481545222
40
0.434815481545222
40
0.453720502481969
40
0.453720502481969
40
0.491530544355464
40
0.491530544355464
40
0.529340586228958
40
0.529340586228958
40
0.548245607165705
40
0.548245607165705
40
0.567150628102452
40
0.567150628102452
40
0.604960669975948
40
0.604960669975948
40
0.623865690912698
40
0.623865690912698
40
0.642770711849447
40
0.680580753722946
40
0.718390795596444
40
0.737295816533194
40
0.737295816533194
40
0.756200837469943
40
0.756200837469943
40
0.831820921216941
40
0.831820921216941
40
0.850725942153691
40
0.850725942153691
40
0.869630963090441
40
0.869630963090441
40
0.907441004963943
40
0.907441004963943
40
0.945251046837445
40
0.945251046837445
40
0.964156067774198
40
0.964156067774198
40
0.98306108871095
40
0.98306108871095
40
1
40
1
40
1
40
1
41
1
10
89.5302948442741
20
3.96426451664408
30
0
41
1
10
89.6996839737396
20
3.89028282726366
30
0
41
1
10
89.8692111059631
20
3.81507188593483
30
0
41
1
10
90.2081321158069
20
3.66249940822152
30
0
41
1
10
90.5469663317183
20
3.50775752080756
30
0
41
1
10
90.8857591837652
20
3.34888135162481
30
0
41
1
10
91.2246016579708
20
3.18804716610285
30
0
41
1
10
91.3940796915603
20
3.10663550968351
30
0
41
1
10
91.9024594642394
20
2.85975032723368
30
0
41
1
10
92.2411931327059
20
2.69169574259973
30
0
41
1
10
92.9188378381686
20
2.34957952148744
30
0
41
1
10
93.2578471130144
20
2.17545073943791
30
0
41
1
10
93.9354385064374
20
1.82259482529321
30
0
41
1
10
94.2741309507574
20
1.64380664335599
30
0
41
1
10
94.7824159462267
20
1.37278466416433
30
0
41
1
10
94.9518240544362
20
1.28200691266193
30
0
41
1
10
95.2903877960547
20
1.0998679723368
30
0
41
1
10
95.4595861939426
20
1.00848405444205
30
0
41
1
10
96.305349112314
20
0.550335793880606
30
0
41
1
10
96.9812522930022
20
0.179933200751719
30
0
41
1
10
97.8278118668616
20
-0.283240014875645
30
0
41
1
10
97.9972778234383
20
-0.375919597082941
30
0
41
1
10
98.3359518207913
20
-0.560899237331824
30
0
41
1
10
98.8436625865205
20
-0.837847154165217
30
0
41
1
10
99.3507790574453
20
-1.11267640001185
30
0
41
1
10
100.026946912502
20
-1.47625540077095
30
0
41
1
10
100.365035918452
20
-1.65661682367835
30
0
41
1
10
100.872621639877
20
-1.92421722124209
30
0
41
1
10
101.041892372612
20
-2.01292689845994
30
0
41
1
10
101.380659727885
20
-2.18923131758231
30
0
41
1
10
101.549943519563
20
-2.2767151311221
30
0
41
1
10
102.057580435519
20
-2.53696350771759
30
0
41
1
10
102.395743090873
20
-2.70751248962142
30
0
41
1
10
103.071894537253
20
-3.04213762847806
30
0
41
1
10
103.409864489844
20
-3.2062415647726
30
0
41
1
10
103.917145799087
20
-3.44677572243222
30
0
41
1
10
104.086295208444
20
-3.52601508325822
30
0
41
1
10
104.424787532945
20
-3.68248262772974
30
0
41
1
10
104.594156280355
20
-3.75972030796928
30
0
41
1
10
105.102020442259
20
-3.98794817779313
30
0
41
1
10
105.440470445397
20
-4.1355601814773
30
0
41
1
10
105.948333843349
20
-4.34962422936863
30
0
41
1
10
106.11770693951
20
-4.41977419633756
30
0
41
1
10
106.456224624552
20
-4.55738213936394
30
0
41
1
10
106.963702535459
20
-4.75977725576695
30
0
41
1
10
107.808509065695
20
-5.0764013054827
30
0
41
1
10
108.653365945412
20
-5.36375521456171
30
0
41
1
10
109.160926996596
20
-5.52224654278348
30
0
41
1
10
109.499514081996
20
-5.62473185227864
30
0
41
1
10
109.668723406155
20
-5.6743286213954
30
0
41
1
10
110.514308613129
20
-5.91387948229854
30
0
41
1
10
111.189519472207
20
-6.07860409150581
30
0
41
1
10
112.034627540095
20
-6.24870846952192
30
0
41
1
10
112.203704824599
20
-6.28093862597041
30
0
41
1
10
112.542041569245
20
-6.3417617833172
30
0
41
1
10
112.711342695016
20
-6.37035986847761
30
0
41
1
10
113.218775330185
20
-6.45048976509671
30
0
41
1
10
113.556695886026
20
-6.49640612693003
30
0
41
1
10
114.232362953133
20
-6.57304239846118
30
0
41
1
10
114.570104634332
20
-6.60376487592958
30
0
41
1
10
115.076975719
20
-6.63832451413583
30
0
41
1
10
115.24597599795
20
-6.64792364534406
30
0
41
1
10
115.584130613896
20
-6.66325834136447
30
0
41
1
10
115.753320903645
20
-6.66899463563414
30
0
41
1
10
116.074162498442
20
-6.67618401846957
30
0
41
1
10
116.225740913221
20
-6.6780197055493
30
0
41
1
10
116.377300790408
20
-6.67829397520265
30
0
0
SPLINE
5
FF
100
AcDbEntity
8
1
62
256
6
ByLayer
370
18
48
1
60
0
100
AcDbSpline
70
4
71
3
72
34
73
30
40
0
40
0
40
0
40
0
40
0.0142388073507484
40
0.0142388073507484
40
0.12376782875622
40
0.12376782875622
40
0.233296850161692
40
0.233296850161692
40
0.288061360864429
40
0.288061360864429
40
0.342825871567165
40
0.397590382269901
40
0.397590382269901
40
0.452354892972637
40
0.452354892972637
40
0.561883914378102
40
0.561883914378102
40
0.616648425080839
40
0.616648425080839
40
0.671412935783575
40
0.671412935783575
40
0.726177446486311
40
0.726177446486311
40
0.780941957189047
40
0.835706467891784
40
0.835706467891784
40
0.890470978594521
40
0.890470978594521
40
1
40
1
40
1
40
1
41
1
10
145.186338935873
20
4.83990376232506
30
0
41
1
10
145.230253189116
20
4.85687948399715
30
0
41
1
10
145.274167316301
20
4.87376050589717
30
0
41
1
10
145.655881160117
20
5.01966309897958
30
0
41
1
10
145.99373735769
20
5.14313152495779
30
0
41
1
10
146.669104114595
20
5.37779365110589
30
0
41
1
10
147.006680369359
20
5.48901643241803
30
0
41
1
10
147.513284600151
20
5.64624545289703
30
0
41
1
10
147.682181536594
20
5.69705003494539
30
0
41
1
10
148.019829783369
20
5.79530095360556
30
0
41
1
10
148.357405217071
20
5.89021586466879
30
0
41
1
10
148.694978690248
20
5.97832770233438
30
0
41
1
10
149.032623981703
20
6.06297277495156
30
0
41
1
10
149.201508385072
20
6.10356724174088
30
0
41
1
10
149.707959158971
20
6.21996115224471
30
0
41
1
10
150.045440880896
20
6.29040175374797
30
0
41
1
10
150.551871993603
20
6.38504235632811
30
0
41
1
10
150.72074502166
20
6.41475690499757
30
0
41
1
10
151.058469178075
20
6.47044297962893
30
0
41
1
10
151.227316701581
20
6.49641557551556
30
0
41
1
10
151.56504211356
20
6.54459037350185
30
0
41
1
10
151.733910116348
20
6.56679037134131
30
0
41
1
10
152.071515665
20
6.60736441565933
30
0
41
1
10
152.409045310863
20
6.64412053051402
30
0
41
1
10
152.746550228679
20
6.67319369583242
30
0
41
1
10
153.084107863038
20
6.69840027418232
30
0
41
1
10
153.252945402789
20
6.70907138534164
30
0
41
1
10
153.759227003105
20
6.73522783242902
30
0
41
1
10
154.096539523426
20
6.74485907808841
30
0
41
1
10
154.434035862222
20
6.74665968730065
30
0
0
SPLINE
5
100
100
AcDbEntity
8
1
62
256
6
ByLayer
370
18
48
1
60
0
100
AcDbSpline
70
4
71
3
72
8
73
4
40
0
40
0
40
0
40
0
40
1
40
1
40
1
40
1
41
1
10
154.469086035075
20
-0.67013761918605
30
0
41
1
10
154.455545194771
20
-0.662904098045857
30
0
41
1
10
154.44200596201
20
-0.655670709156453
30
0
41
1
10
154.428468323065
20
-0.648437479302885
30
0
0
SPLINE
5
101
100
AcDbEntity
8
1
62
256
6
ByLayer
370
18
48
1
60
0
100
AcDbSpline
70
4
71
3
72
56
73
52
40
0
40
0
40
0
40
0
40
0.0679971293461305
40
0.0679971293461305
40
0.11943216607213
40
0.11943216607213
40
0.17086720279813
40
0.17086720279813
40
0.222302239524129
40
0.222302239524129
40
0.273737276250129
40
0.273737276250129
40
0.325172312976129
40
0.325172312976129
40
0.376607349702129
40
0.376607349702129
40
0.428042386428128
40
0.428042386428128
40
0.453759904791126
40
0.453759904791126
40
0.479477423154125
40
0.479477423154125
40
0.530912459880118
40
0.530912459880118
40
0.582347496606111
40
0.582347496606111
40
0.633782533332105
40
0.633782533332105
40
0.685217570058098
40
0.685217570058098
40
0.736652606784092
40
0.736652606784092
40
0.788087643510085
40
0.788087643510085
40
0.839522680236079
40
0.839522680236079
40
0.865240198599074
40
0.865240198599074
40
0.890957716962068
40
0.890957716962068
40
0.903816476143568
40
0.903816476143568
40
0.916675235325067
40
0.916675235325067
40
0.942392753688065
40
0.942392753688065
40
0.968110272051063
40
0.968110272051063
40
0.993827790414062
40
0.993827790414062
40
1
40
1
40
1
40
1
41
1
10
153.781858538501
20
-0.302560456570688
30
0
41
1
10
153.33600786903
20
-0.0638968977721959
30
0
41
1
10
152.891658926359
20
0.174126303799937
30
0
41
1
10
152.112958519086
20
0.589374188164527
30
0
41
1
10
151.778173347707
20
0.767282815601277
30
0
41
1
10
151.109529056976
20
1.12059695388319
30
0
41
1
10
150.775680783257
20
1.29601376964871
30
0
41
1
10
150.108220112791
20
1.64323571069551
30
0
41
1
10
149.77459364356
20
1.81502586100137
30
0
41
1
10
149.107189738784
20
2.15415201808116
30
0
41
1
10
148.773428595367
20
2.32149812627935
30
0
41
1
10
148.105100502582
20
2.65074293377259
30
0
41
1
10
147.770511786885
20
2.81262555590826
30
0
41
1
10
147.10012296753
20
3.13008742827048
30
0
41
1
10
146.764335747188
20
3.28567370276778
30
0
41
1
10
146.091051778422
20
3.58963731664269
30
0
41
1
10
145.75354535631
20
3.73802228734303
30
0
41
1
10
145.24566717217
20
3.95436440369275
30
0
41
1
10
145.076107684668
20
4.02543321441243
30
0
41
1
10
144.73637034785
20
4.16538407445171
30
0
41
1
10
144.566757112656
20
4.23403544241816
30
0
41
1
10
144.058600874799
20
4.43594318583081
30
0
41
1
10
143.720592477258
20
4.56522244269826
30
0
41
1
10
143.045814829345
20
4.81246486556279
30
0
41
1
10
142.70905721887
20
4.9304210882336
30
0
41
1
10
142.036594090488
20
5.15432663475772
30
0
41
1
10
141.70089076337
20
5.2603029113929
30
0
41
1
10
141.0302986666
20
5.4591914067806
30
0
41
1
10
140.695469058841
20
5.55198754235459
30
0
41
1
10
140.025413422332
20
5.72519022231671
30
0
41
1
10
139.690095975364
20
5.80574633049531
30
0
41
1
10
139.01895021583
20
5.95328826679298
30
0
41
1
10
138.683189949138
20
6.02013931081456
30
0
41
1
10
138.010506900624
20
6.1403428957384
30
0
41
1
10
137.67352949082
20
6.19384768360288
30
0
41
1
10
137.167050756746
20
6.26272911633259
30
0
41
1
10
136.998071614579
20
6.28373684722578
30
0
41
1
10
136.659652493893
20
6.32211444385339
30
0
41
1
10
136.490195369773
20
6.33954024932248
30
0
41
1
10
136.2355828843
20
6.36305517220478
30
0
41
1
10
136.150642015324
20
6.37045380564714
30
0
41
1
10
135.980615260913
20
6.38435326545221
30
0
41
1
10
135.895555277719
20
6.39084975989218
30
0
41
1
10
135.640701465204
20
6.40890419423539
30
0
41
1
10
135.471063152044
20
6.41904119766898
30
0
41
1
10
135.132346278702
20
6.43532446466025
30
0
41
1
10
134.963290621466
20
6.44141971427854
30
0
41
1
10
134.625548643451
20
6.44992241005323
30
0
41
1
10
134.456833714599
20
6.45239093019191
30
0
41
1
10
134.247791807826
20
6.453244956519
30
0
41
1
10
134.207340081584
20
6.45330736247149
30
0
41
1
10
134.166896449449
20
6.45326561029771
30
0
0
SPLINE
5
102
100
AcDbEntity
8
1
62
256
6
ByLayer
370
18
48
1
60
0
100
AcDbSpline
70
4
71
3
72
8
73
4
40
0
40
0
40
0
40
0
40
1
40
1
40
1
40
1
41
1
10
154.466796379982
20
-0.658675423176504
30
0
41
1
10
154.468707536472
20
-0.65913948546816
30
0
41
1
10
154.469726644894
20
-0.664289038456559
30
0
41
1
10
154.469086035062
20
-0.670137619179116
30
0
0
SPLINE
5
103
100
AcDbEntity
8
1
62
256
6
ByLayer
370
18
48
1
60
0
100
AcDbSpline
70
4
71
3
72
56
73
52
40
0
40
0
40
0
40
0
40
0.0182378996478275
40
0.0182378996478275
40
0.0443666623337753
40
0.0443666623337753
40
0.0704954250197232
40
0.0704954250197232
40
0.0966241877056706
40
0.0966241877056706
40
0.109688569048643
40
0.109688569048643
40
0.122752950391615
40
0.122752950391615
40
0.148881713077563
40
0.148881713077563
40
0.17501047576351
40
0.17501047576351
40
0.227268001135409
40
0.227268001135409
40
0.279525526507308
40
0.279525526507308
40
0.331783051879206
40
0.331783051879206
40
0.384040577251105
40
0.384040577251105
40
0.436298102623003
40
0.436298102623003
40
0.488555627994902
40
0.488555627994902
40
0.5408131533668
40
0.5408131533668
40
0.566941916052748
40
0.566941916052748
40
0.593070678738696
40
0.593070678738696
40
0.645328204110591
40
0.645328204110591
40
0.697585729482486
40
0.697585729482486
40
0.749843254854381
40
0.749843254854381
40
0.802100780226277
40
0.802100780226277
40
0.854358305598172
40
0.854358305598172
40
0.906615830970067
40
0.906615830970067
40
0.958873356341962
40
0.958873356341962
40
1
40
1
40
1
40
1
41
1
10
133.93540811159
20
6.46164531671153
30
0
41
1
10
134.052926039274
20
6.46304761384013
30
0
41
1
10
134.170513516399
20
6.46354690360647
30
0
41
1
10
134.456729253784
20
6.46264068075754
30
0
41
1
10
134.625422483538
20
6.46032339693673
30
0
41
1
10
134.963121151474
20
6.45212249050309
30
0
41
1
10
135.132155278054
20
6.44617949240327
30
0
41
1
10
135.470829964792
20
6.43019463349015
30
0
41
1
10
135.640447542799
20
6.42020315552153
30
0
41
1
10
135.895270667331
20
6.40236111035543
30
0
41
1
10
135.980319080786
20
6.39593459013963
30
0
41
1
10
136.150336010532
20
6.38217174294397
30
0
41
1
10
136.235271589284
20
6.37484021431288
30
0
41
1
10
136.489867520657
20
6.35152422465177
30
0
41
1
10
136.659312430198
20
6.33422665491386
30
0
41
1
10
136.997706291085
20
6.29610409130757
30
0
41
1
10
137.166672808555
20
6.27522480140345
30
0
41
1
10
137.673111613113
20
6.20671525245945
30
0
41
1
10
138.010058618595
20
6.1534370801204
30
0
41
1
10
138.682674196779
20
6.03365710537395
30
0
41
1
10
139.018398646626
20
5.96700908125527
30
0
41
1
10
139.68947019956
20
5.81984383411358
30
0
41
1
10
140.024748231434
20
5.73945468146033
30
0
41
1
10
140.694719599957
20
5.56655767227866
30
0
41
1
10
141.029505486633
20
5.47390834264289
30
0
41
1
10
141.700010680829
20
5.27528800898503
30
0
41
1
10
142.035669838254
20
5.16942723602102
30
0
41
1
10
142.708044351512
20
4.94571751518444
30
0
41
1
10
143.044757805002
20
4.82784255636872
30
0
41
1
10
143.719447283701
20
4.5807272846595
30
0
41
1
10
144.057411801424
20
4.45149247222426
30
0
41
1
10
144.565501787657
20
4.24962795272322
30
0
41
1
10
144.7350790753
20
4.18099353128821
30
0
41
1
10
145.074800928556
20
4.04104735105813
30
0
41
1
10
145.244352353514
20
3.9699785529117
30
0
41
1
10
145.752203566945
20
3.75362278146036
30
0
41
1
10
146.089687775714
20
3.60520942914064
30
0
41
1
10
146.762920712854
20
3.30115583637138
30
0
41
1
10
147.098679660027
20
3.14550939459747
30
0
41
1
10
147.769006980982
20
2.82789482316372
30
0
41
1
10
148.103562193993
20
2.66591871413164
30
0
41
1
10
148.771818971623
20
2.33645616289323
30
0
41
1
10
149.105542758139
20
2.16898734953222
30
0
41
1
10
149.772870454817
20
1.82958654204711
30
0
41
1
10
150.106457576241
20
1.65764270511284
30
0
41
1
10
150.773837522983
20
1.31008171916804
30
0
41
1
10
151.107644572348
20
1.13448063215103
30
0
41
1
10
151.776206756806
20
0.780768185567752
30
0
41
1
10
152.110950790221
20
0.602643795257478
30
0
41
1
10
152.71016112263
20
0.282656380701098
30
0
41
1
10
152.974411651643
20
0.141153972027297
30
0
41
1
10
153.239123654326
20
-0.0007234750194698
30
0
0
SPLINE
5
104
100
AcDbEntity
8
1
62
256
6
ByLayer
370
18
48
1
60
0
100
AcDbSpline
70
4
71
3
72
8
73
4
40
0
40
0
40
0
40
0
40
1
40
1
40
1
40
1
41
1
10
154.381260483843
20
-0.636173647561776
30
0
41
1
10
154.409742091394
20
-0.644244453423511
30
0
41
1
10
154.438249993241
20
-0.651743860158405
30
0
41
1
10
154.466796379982
20
-0.658675423176447
30
0
0
SPLINE
5
105
100
AcDbEntity
8
1
62
256
6
ByLayer
370
18
48
1
60
0
100
AcDbSpline
70
4
71
3
72
24
73
20
40
0
40
0
40
0
40
0
40
0.158252896429783
40
0.158252896429783
40
0.316505792859566
40
0.316505792859566
40
0.395632241074457
40
0.395632241074457
40
0.474758689289349
40
0.474758689289349
40
0.55388513750424
40
0.55388513750424
40
0.633011585719131
40
0.633011585719131
40
0.791264482148904
40
0.791264482148904
40
0.949517378578677
40
0.949517378578677
40
1
40
1
40
1
40
1
41
1
10
89.678595205076
20
-5.72671787681
30
0
41
1
10
90.0162712551913
20
-5.82111377164682
30
0
41
1
10
90.354059402918
20
-5.90833482441028
30
0
41
1
10
91.0300375792848
20
-6.06853675711105
30
0
41
1
10
91.3682271693079
20
-6.14151554612417
30
0
41
1
10
91.8760145617246
20
-6.24019952167791
30
0
41
1
10
92.0452016169214
20
-6.27126462941001
30
0
41
1
10
92.3832827765354
20
-6.32970589539175
30
0
41
1
10
92.5522036081617
20
-6.35708710390187
30
0
41
1
10
92.8898352301372
20
-6.40815790578463
30
0
41
1
10
93.0585436461866
20
-6.43184921702968
30
0
41
1
10
93.3957330668545
20
-6.47553374790866
30
0
41
1
10
93.5642233391711
20
-6.49551891790435
30
0
41
1
10
94.0698505265272
20
-6.54972432004126
30
0
41
1
10
94.407118646331
20
-6.5782276612257
30
0
41
1
10
95.0820700731294
20
-6.62000922041616
30
0
41
1
10
95.4197584563037
20
-6.63327319872243
30
0
41
1
10
95.8658319837615
20
-6.6405847992983
30
0
41
1
10
95.973779076193
20
-6.64156667508692
30
0
41
1
10
96.0816904061909
20
-6.64176147945776
30
0
0
SPLINE
5
106
100
AcDbEntity
8
1
62
256
6
ByLayer
370
18
48
1
60
0
100
AcDbSpline
70
4
71
3
72
71
73
67
40
0
40
0
40
0
40
0
40
0.0088769987774814
40
0.0088769987774814
40
0.0519693031784566
40
0.0519693031784566
40
0.0735154553789455
40
0.0735154553789455
40
0.0950616075794347
40
0.0950616075794347
40
0.116607759779924
40
0.116607759779924
40
0.138153911980413
40
0.138153911980413
40
0.159700064180901
40
0.159700064180901
40
0.181246216381391
40
0.181246216381391
40
0.224338520782371
40
0.224338520782371
40
0.245884672982861
40
0.245884672982861
40
0.267430825183352
40
0.267430825183352
40
0.288976977383842
40
0.288976977383842
40
0.299750053484087
40
0.299750053484087
40
0.310523129584332
40
0.310523129584332
40
0.353615433985312
40
0.353615433985312
40
0.396707738386293
40
0.396707738386293
40
0.439800042787273
40
0.439800042787273
40
0.461346194987762
40
0.461346194987762
40
0.482892347188251
40
0.482892347188251
40
0.525984651589229
40
0.525984651589229
40
0.569076955990207
40
0.569076955990207
40
0.612169260391184
40
0.612169260391184
40
0.633715412591674
40
0.644488488691918
40
0.644488488691918
40
0.655261564792162
40
0.655261564792162
40
0.698353869193143
40
0.698353869193143
40
0.741446173594124
40
0.741446173594124
40
0.784538477995105
40
0.784538477995105
40
0.827630782396085
40
0.827630782396085
40
0.849176934596575
40
0.849176934596575
40
0.870723086797063
40
0.870723086797063
40
0.913815391198042
40
0.913815391198042
40
1
40
1
40
1
40
1
41
1
10
130.955186676618
20
6.46821683181489
30
0
41
1
10
131.024495766448
20
6.4784310911397
30
0
41
1
10
131.093798782344
20
6.48832646116168
30
0
41
1
10
131.499538422227
20
6.54436838697444
30
0
41
1
10
131.83599065493
20
6.58326794464784
30
0
41
1
10
132.340787821102
20
6.6302473260892
30
0
41
1
10
132.509073130348
20
6.64401044454692
30
0
41
1
10
132.845688105977
20
6.66771940356639
30
0
41
1
10
133.014028559926
20
6.67765966253197
30
0
41
1
10
133.351033670098
20
6.6936550542186
30
0
41
1
10
133.519688363854
20
6.69971500604973
30
0
41
1
10
133.85729450712
20
6.70795567050411
30
0
41
1
10
134.025988389902
20
6.71012963675881
30
0
41
1
10
134.363091082856
20
6.71059667102702
30
0
41
1
10
134.531511442078
20
6.70888988263303
30
0
41
1
10
134.868108291429
20
6.70159262108828
30
0
41
1
10
135.036295622825
20
6.69600012671569
30
0
41
1
10
135.540895924603
20
6.67345107139616
30
0
41
1
10
135.877297126222
20
6.65073896155468
30
0
41
1
10
136.381858462184
20
6.60515230100478
30
0
41
1
10
136.550041823938
20
6.58803448177105
30
0
41
1
10
136.886449069108
20
6.54994756326929
30
0
41
1
10
137.054684063351
20
6.52897976029499
30
0
41
1
10
137.391495466829
20
6.48331032918995
30
0
41
1
10
137.560059198835
20
6.45860697657241
30
0
41
1
10
137.813111222352
20
6.41873368829093
30
0
41
1
10
137.897518650506
20
6.40496882040134
30
0
41
1
10
138.066238337112
20
6.37652254568585
30
0
41
1
10
138.150560320104
20
6.36183971488623
30
0
41
1
10
138.571979036011
20
6.2861274406784
30
0
41
1
10
138.908528326833
20
6.21820795383269
30
0
41
1
10
139.581459196541
20
6.06842070992317
30
0
41
1
10
139.91779634882
20
5.98654642722067
30
0
41
1
10
140.590044566423
20
5.8086240372705
30
0
41
1
10
140.926017576731
20
5.71259277435243
30
0
41
1
10
141.430867869129
20
5.55895418905627
30
0
41
1
10
141.599289659754
20
5.50613840824099
30
0
41
1
10
141.936433462385
20
5.39732851095974
30
0
41
1
10
142.105239752256
20
5.34130458990458
30
0
41
1
10
142.611158825489
20
5.1688535417245
30
0
41
1
10
142.947973521312
20
5.04798751014388
30
0
41
1
10
143.620948385512
20
4.79483586216867
30
0
41
1
10
143.957106581493
20
4.66254605910368
30
0
41
1
10
144.629136247736
20
4.38694846403155
30
0
41
1
10
144.965047934007
20
4.24368038665659
30
0
41
1
10
145.469663032374
20
4.02181557117189
30
0
41
1
10
145.722144018012
20
3.90912797482059
30
0
41
1
10
145.974907191131
20
3.79383830089668
30
0
41
1
10
146.143482403927
20
3.71640448531989
30
0
41
1
10
146.227827251467
20
3.67738910758268
30
0
41
1
10
146.649346528382
20
3.48106847258091
30
0
41
1
10
146.98597041432
20
3.32002040375591
30
0
41
1
10
147.658635252276
20
2.99093365860023
30
0
41
1
10
147.994665291875
20
2.82287990405754
30
0
41
1
10
148.666464101747
20
2.48031282720859
30
0
41
1
10
149.002250053979
20
2.30582350829184
30
0
41
1
10
149.674412683442
20
1.95180109923021
30
0
41
1
10
150.010776989968
20
1.77225096944247
30
0
41
1
10
150.516036369295
20
1.49959135990176
30
0
41
1
10
150.684671841454
20
1.40809740415423
30
0
41
1
10
151.021583917736
20
1.22454978002361
30
0
41
1
10
151.189903462634
20
1.13247363684516
30
0
41
1
10
151.694588248927
20
0.85558324584207
30
0
41
1
10
152.030680136942
20
0.670108142855213
30
0
41
1
10
153.038291722811
20
0.111816537765861
30
0
41
1
10
153.709142941655
20
-0.262874953544411
30
0
41
1
10
154.381260483841
20
-0.636173647563254
30
0
0
SPLINE
5
107
100
AcDbEntity
8
1
62
256
6
ByLayer
370
18
48
1
60
0
100
AcDbSpline
70
4
71
3
72
106
73
102
40
0
40
0
40
0
40
0
40
0.0625000000000299
40
0.0625000000000299
40
0.12500000000006
40
0.12500000000006
40
0.156250000000074
40
0.156250000000074
40
0.187500000000089
40
0.187500000000089
40
0.250000000000118
40
0.250000000000118
40
0.281250000000132
40
0.281250000000132
40
0.312500000000146
40
0.312500000000146
40
0.320312500000149
40
0.320312500000149
40
0.32421875000015
40
0.326171875000151
40
0.327148437500152
40
0.327148437500152
40
0.328125000000153
40
0.328125000000153
40
0.330078125000155
40
0.330078125000155
40
0.331054687500155
40
0.331054687500155
40
0.332031250000155
40
0.332031250000155
40
0.333007812500155
40
0.333007812500155
40
0.333984375000155
40
0.333984375000155
40
0.335937500000154
40
0.343750000000153
40
0.343750000000153
40
0.35937500000015
40
0.35937500000015
40
0.375000000000146
40
0.390625000000143
40
0.390625000000143
40
0.398437500000141
40
0.398437500000141
40
0.406250000000139
40
0.406250000000139
40
0.437500000000132
40
0.437500000000132
40
0.468750000000124
40
0.468750000000124
40
0.500000000000116
40
0.500000000000116
40
0.507812500000114
40
0.507812500000114
40
0.515625000000112
40
0.515625000000112
40
0.531250000000109
40
0.531250000000109
40
0.546875000000105
40
0.546875000000105
40
0.562500000000102
40
0.562500000000102
40
0.578125000000098
40
0.578125000000098
40
0.593750000000095
40
0.593750000000095
40
0.609375000000091
40
0.609375000000091
40
0.61718750000009
40
0.61718750000009
40
0.625000000000088
40
0.625000000000088
40
0.656250000000081
40
0.656250000000081
40
0.664062500000079
40
0.664062500000079
40
0.671875000000077
40
0.671875000000077
40
0.687500000000073
40
0.687500000000073
40
0.718750000000065
40
0.718750000000065
40
0.726562500000063
40
0.726562500000063
40
0.734375000000061
40
0.734375000000061
40
0.750000000000058
40
0.750000000000058
40
0.781250000000051
40
0.781250000000051
40
0.812500000000043
40
0.812500000000043
40
0.843750000000036
40
0.843750000000036
40
0.875000000000028
40
0.875000000000028
40
0.906250000000021
40
0.906250000000021
40
0.937500000000014
40
0.937500000000014
40
1
40
1
40
1
40
1
41
1
10
15.4468450680162
20
2.87036144358763
30
0
41
1
10
15.0843067102911
20
3.04461308365387
30
0
41
1
10
14.7193953290647
20
3.20991881303476
30
0
41
1
10
13.9828743831538
20
3.52083257721935
30
0
41
1
10
13.6112621453416
20
3.6664388490841
30
0
41
1
10
13.0475009952494
20
3.86924661669957
30
0
41
1
10
12.8586649238684
20
3.93420257435597
30
0
41
1
10
12.4794076675996
20
4.05864313214363
30
0
41
1
10
12.2889226769321
20
4.11815033332104
30
0
41
1
10
11.7146900592208
20
4.28859827375285
30
0
41
1
10
11.3281643570811
20
4.39146675794012
30
0
41
1
10
10.7421513410189
20
4.53022528104037
30
0
41
1
10
10.5458041002789
20
4.57388352964387
30
0
41
1
10
10.1516494527571
20
4.65603941272124
30
0
41
1
10
9.95375887130129
20
4.69455789080126
30
0
41
1
10
9.70534440047913
20
4.73962357094575
30
0
41
1
10
9.65560896478397
20
4.74848258513424
30
0
41
1
10
9.580926412396
20
4.7615421098651
30
0
41
1
10
9.54356469202747
20
4.76801474710857
30
0
41
1
10
9.49994379257777
20
4.77546577281603
30
0
41
1
10
9.48124273756096
20
4.7786378534478
30
0
41
1
10
9.46877384528062
20
4.78074763588802
30
0
41
1
10
9.46252841478506
20
4.78176717166554
30
0
41
1
10
9.44371121449004
20
4.78410820360423
30
0
41
1
10
9.43106825365467
20
4.78486686191334
30
0
41
1
10
9.41191771872175
20
4.78448691211676
30
0
41
1
10
9.40545875682071
20
4.78410749349666
30
0
41
1
10
9.39273053128767
20
4.78276954691259
30
0
41
1
10
9.38646367440455
20
4.7818225317437
30
0
41
1
10
9.37418691238241
20
4.77919252124841
30
0
41
1
10
9.36817594788789
20
4.77749071759152
30
0
41
1
10
9.35672332345095
20
4.77340568047436
30
0
41
1
10
9.3513025504318
20
4.77097089380734
30
0
41
1
10
9.3349219100952
20
4.76385576938051
30
0
41
1
10
9.28035932076497
20
4.74005542804309
30
0
41
1
10
9.22599968335055
20
4.71583468911319
30
0
41
1
10
9.09594995544856
20
4.65687162587955
30
0
41
1
10
9.00978462305349
20
4.61644437966291
30
0
41
1
10
8.83877992440509
20
4.53325970088071
30
0
41
1
10
8.66906772776537
20
4.44773060646173
30
0
41
1
10
8.50213076031011
20
4.35711965200275
30
0
41
1
10
8.3780528377545
20
4.28708258232604
30
0
41
1
10
8.33688114131016
20
4.26339012766402
30
0
41
1
10
8.25492891240981
20
4.2152789394211
30
0
41
1
10
8.21412843411457
20
4.19084776602904
30
0
41
1
10
8.01150737370483
20
4.06700939179842
30
0
41
1
10
7.85367349551066
20
3.96250822619922
30
0
41
1
10
7.54799773518252
20
3.74059314744523
30
0
41
1
10
7.40014395292584
20
3.62319549515459
30
0
41
1
10
7.11654389342388
20
3.372548119334
30
0
41
1
10
6.98077261243469
20
3.23933270707886
30
0
41
1
10
6.82068980828839
20
3.06005707140315
30
0
41
1
10
6.78915897096161
20
3.02355843948604
30
0
41
1
10
6.72714084696366
20
2.94917500083181
30
0
41
1
10
6.69672525967502
20
2.91137202486814
30
0
41
1
10
6.60773806957141
20
2.79651290243191
30
0
41
1
10
6.55126711284768
20
2.71782566840705
30
0
41
1
10
6.44463248986168
20
2.55575811015433
30
0
41
1
10
6.39446698601964
20
2.47237915936839
30
0
41
1
10
6.30120159144897
20
2.3003441399421
30
0
41
1
10
6.25809889065835
20
2.21169018848158
30
0
41
1
10
6.17994709489207
20
2.02834810415223
30
0
41
1
10
6.14553276533724
20
1.93511556916522
30
0
41
1
10
6.08655488957677
20
1.7455647228355
30
0
41
1
10
6.06197697624049
20
1.64921520041705
30
0
41
1
10
6.02321588438193
20
1.45317623500375
30
0
41
1
10
6.00903135526605
20
1.35348721225444
30
0
41
1
10
5.99609807307345
20
1.20126844789894
30
0
41
1
10
5.99317860082832
20
1.15006922069372
30
0
41
1
10
5.9902351070925
20
1.04678596824397
30
0
41
1
10
5.99022701244715
20
0.995278932244929
30
0
41
1
10
5.99730411027073
20
0.738397994566782
30
0
41
1
10
6.02565824539917
20
0.534978427752577
30
0
41
1
10
6.08717187935673
20
0.283102893207456
30
0
41
1
10
6.10078314443493
20
0.232848233154698
30
0
41
1
10
6.13058400720016
20
0.132576490283981
30
0
41
1
10
6.14667460389916
20
0.0829009519635235
30
0
41
1
10
6.19812801972876
20
-0.0643015115209948
30
0
41
1
10
6.23673505678934
20
-0.160246471903093
30
0
41
1
10
6.36400998654162
20
-0.442256484550825
30
0
41
1
10
6.46406150182773
20
-0.622532359430068
30
0
41
1
10
6.60476220620288
20
-0.83993382444757
30
0
41
1
10
6.63371235681677
20
-0.883040005404325
30
0
41
1
10
6.69266945435473
20
-0.967853500893398
30
0
41
1
10
6.7227285744614
20
-1.00964428966108
30
0
41
1
10
6.81452956852294
20
-1.13329578795529
30
0
41
1
10
6.87789113408257
20
-1.21343984580142
30
0
41
1
10
7.07368433968801
20
-1.44783501539592
30
0
41
1
10
7.21178844208552
20
-1.59608770770052
30
0
41
1
10
7.5002476691173
20
-1.87970329373024
30
0
41
1
10
7.65062150217591
20
-2.0150461866709
30
0
41
1
10
7.96173496973898
20
-2.27488801025547
30
0
41
1
10
8.12071048492953
20
-2.39792054481737
30
0
41
1
10
8.44416062899424
20
-2.63271257370624
30
0
41
1
10
8.60866355314775
20
-2.7444757868974
30
0
41
1
10
8.94239543179535
20
-2.95853880828548
30
0
41
1
10
9.11162791611849
20
-3.0608310793628
30
0
41
1
10
9.45422635711759
20
-3.25724689281074
30
0
41
1
10
9.62759432933771
20
-3.35136612784751
30
0
41
1
10
10.1532283782012
20
-3.62294390234652
30
0
41
1
10
10.5109929790566
20
-3.78969044184379
30
0
41
1
10
10.8748487637399
20
-3.94490934857325
30
0
0
SPLINE
5
108
100
AcDbEntity
8
1
62
256
6
ByLayer
370
18
48
1
60
0
100
AcDbSpline
70
4
71
3
72
131
73
127
40
0
40
0
40
0
40
0
40
0.0129521259442155
40
0.0296460409004442
40
0.0463399558566731
40
0.0546869133347875
40
0.0630338708129018
40
0.0797277857691305
40
0.0880747432472449
40
0.0964217007253593
40
0.100595179464417
40
0.104768658203474
40
0.108942136942531
40
0.113115615681588
40
0.115202355051117
40
0.117289094420645
40
0.119375833790174
40
0.121462573159703
40
0.122505942844467
40
0.123549312529231
40
0.124592682213995
40
0.125114367056377
40
0.12563605189876
40
0.125896894319951
40
0.126157736741142
40
0.126288157951738
40
0.126418579162333
40
0.126483789767631
40
0.126549000372928
40
0.126679421583524
40
0.126940264004715
40
0.127201106425906
40
0.127722791268288
40
0.12824447611067
40
0.128766160953053
40
0.129809530637817
40
0.130852900322581
40
0.131896270007346
40
0.133983009376874
40
0.138156488115932
40
0.142329966854989
40
0.146503445594046
40
0.150676924333103
40
0.15485040307216
40
0.159023881811217
40
0.163197360550275
40
0.171544318028389
40
0.179891275506503
40
0.188238232984618
40
0.196585190462732
40
0.213279105418961
40
0.22997302037519
40
0.246666935331419
40
0.263360850287647
40
0.280054765243876
40
0.313442595156334
40
0.346830425068791
40
0.36352434002502
40
0.380218254981249
40
0.396912169937478
40
0.413606084893706
40
0.430299999849935
40
0.446993914806164
40
0.455340872284278
40
0.463687829762393
40
0.472034787240507
40
0.480381744718622
40
0.488728702196736
40
0.492902180935793
40
0.49707565967485
40
0.501249138413908
40
0.505422617152965
40
0.509596095892022
40
0.51168283526155
40
0.513769574631079
40
0.515856314000608
40
0.516899683685372
40
0.517943053370136
40
0.518986423054901
40
0.519508107897283
40
0.520029792739665
40
0.520551477582047
40
0.521073162424429
40
0.521203583635025
40
0.52133400484562
40
0.521399215450918
40
0.521464426056216
40
0.521529636661514
40
0.521594847266811
40
0.521725268477407
40
0.521855689688003
40
0.522116532109194
40
0.522377374530384
40
0.522638216951576
40
0.523159901793958
40
0.52368158663634
40
0.524203271478722
40
0.525246641163486
40
0.526290010848251
40
0.527333380533015
40
0.528376750217779
40
0.530463489587308
40
0.532550228956836
40
0.534636968326365
40
0.536723707695894
40
0.538810447065422
40
0.542983925804479
40
0.547157404543537
40
0.551330883282594
40
0.555504362021651
40
0.563851319499765
40
0.57219827697788
40
0.580545234455994
40
0.588892191934109
40
0.597239149412223
40
0.613933064368452
40
0.647320894280909
40
0.680708724193367
40
0.714096554105825
40
0.747484384018282
40
0.78087221393074
40
0.814260043843197
40
0.847647873755655
40
0.91442353358057
40
0.981199193405485
40
1
40
1
40
1
40
1
41
1
10
15.4467708161841
20
2.87040036447377
30
0
41
1
10
15.4123804297284
20
2.8730903209881
30
0
41
1
10
15.3306516936483
20
2.87421823094869
30
0
41
1
10
15.1937002347515
20
2.85735872611625
30
0
41
1
10
15.0630557055486
20
2.822045389875
30
0
41
1
10
14.9548085683369
20
2.78114669936022
30
0
41
1
10
14.844581048492
20
2.73118646649266
30
0
41
1
10
14.7274445037109
20
2.6707786999477
30
0
41
1
10
14.6054176167877
20
2.59962613526693
30
0
41
1
10
14.5273240168985
20
2.55047746868158
30
0
41
1
10
14.4635543309168
20
2.50847686906388
30
0
41
1
10
14.4151076677035
20
2.47561496843301
30
0
41
1
10
14.3660747083894
20
2.44137200790155
30
0
41
1
10
14.3247449096768
20
2.41166387731661
30
0
41
1
10
14.2914625548921
20
2.38721943186917
30
0
41
1
10
14.2663907643689
20
2.36854215726405
30
0
41
1
10
14.2412136459587
20
2.34951966175896
30
0
41
1
10
14.2201474997651
20
2.33337810668641
30
0
41
1
10
14.2032452376558
20
2.32028987091488
30
0
41
1
10
14.1905440893297
20
2.31038662209639
30
0
41
1
10
14.1799432378746
20
2.30206099880877
30
0
41
1
10
14.1714466495095
20
2.29535824511927
30
0
41
1
10
14.1661425439227
20
2.29114774023546
30
0
41
1
10
14.1618717008061
20
2.2877755093061
30
0
41
1
10
14.1592580379568
20
2.2856471743408
30
0
41
1
10
14.1570365112045
20
2.28397876367231
30
0
41
1
10
14.1559442435795
20
2.28285047998264
30
0
41
1
10
14.1543912373471
20
2.28214046219324
30
0
41
1
10
14.1553932773077
20
2.28068167324039
30
0
41
1
10
14.1586325264717
20
2.27860659388705
30
0
41
1
10
14.1630826293974
20
2.27567900425308
30
0
41
1
10
14.1705812630931
20
2.27115258727463
30
0
41
1
10
14.1799979030882
20
2.26556123266164
30
0
41
1
10
14.1914087508668
20
2.25891345146968
30
0
41
1
10
14.2066694301892
20
2.25009167916855
30
0
41
1
10
14.2258193558575
20
2.23911608650548
30
0
41
1
10
14.2488531658604
20
2.22598438433388
30
0
41
1
10
14.2796114117822
20
2.20850668261065
30
0
41
1
10
14.3335214388498
20
2.17797104705201
30
0
41
1
10
14.4106673010681
20
2.13441128312471
30
0
41
1
10
14.5033461380118
20
2.082152947071
30
0
41
1
10
14.5960941136222
20
2.02987895579474
30
0
41
1
10
14.6888854458183
20
1.97756653327824
30
0
41
1
10
14.7817034739114
20
1.92520355318854
30
0
41
1
10
14.8745393843271
20
1.87278251373394
30
0
41
1
10
14.9983369707209
20
1.8028030721367
30
0
41
1
10
15.1531031854059
20
1.71515975236062
30
0
41
1
10
15.3388304477285
20
1.60969009106802
30
0
41
1
10
15.5245584198125
20
1.50392806193301
30
0
41
1
10
15.772156733702
20
1.36254535628331
30
0
41
1
10
16.0816003079509
20
1.18512336851973
30
0
41
1
10
16.4528335193148
20
0.97110386460642
30
0
41
1
10
16.823948367347
20
0.75594659849196
30
0
41
1
10
17.1949284892395
20
0.539629825247232
30
0
41
1
10
17.6893633397273
20
0.249621930309956
30
0
41
1
10
18.3070599689247
20
-0.115822984420276
30
0
41
1
10
18.9243997563147
20
-0.485050485129762
30
0
41
1
10
19.4180860534174
20
-0.782663205904726
30
0
41
1
10
19.7882736202936
20
-1.00696510522297
30
0
41
1
10
20.1584065748467
20
-1.23232303538902
30
0
41
1
10
20.5284973323242
20
-1.45871437627736
30
0
41
1
10
20.8985159886929
20
-1.68618226633166
30
0
41
1
10
21.2067842328025
20
-1.87667524136344
30
0
41
1
10
21.453245807648
20
-2.02961488522888
30
0
41
1
10
21.6380224099137
20
-2.14460133795578
30
0
41
1
10
21.8227261513072
20
-2.25986995143384
30
0
41
1
10
22.0073556884232
20
-2.3754249348392
30
0
41
1
10
22.1611517466416
20
-2.47195949014503
30
0
41
1
10
22.284137466802
20
-2.54935427691879
30
0
41
1
10
22.3763449918131
20
-2.60749412848662
30
0
41
1
10
22.4685136193908
20
-2.66574185729982
30
0
41
1
10
22.5606269656834
20
-2.72411779392954
30
0
41
1
10
22.6373231655142
20
-2.77290172960375
30
0
41
1
10
22.698614819203
20
-2.81205595348291
30
0
41
1
10
22.7445363246682
20
-2.84150975168907
30
0
41
1
10
22.7827491183313
20
-2.86615480824366
30
0
41
1
10
22.8132639863846
20
-2.88596880643684
30
0
41
1
10
22.8361081979236
20
-2.90089877626917
30
0
41
1
10
22.8550930914375
20
-2.91342748402877
30
0
41
1
10
22.8702235106268
20
-2.92354301228167
30
0
41
1
10
22.881534290917
20
-2.9311957694033
30
0
41
1
10
22.8927615893179
20
-2.9389645170514
30
0
41
1
10
22.9011233719131
20
-2.94492531310658
30
0
41
1
10
22.9064976782747
20
-2.94912228868276
30
0
41
1
10
22.9087545506941
20
-2.95094995394047
30
0
41
1
10
22.9102987878207
20
-2.95249748872953
30
0
41
1
10
22.911823892782
20
-2.95384754662214
30
0
41
1
10
22.9110054417685
20
-2.95532152686823
30
0
41
1
10
22.9084985013382
20
-2.95515980885767
30
0
41
1
10
22.905837985801
20
-2.95562459465532
30
0
41
1
10
22.9013167662918
20
-2.95599544748825
30
0
41
1
10
22.8957560508963
20
-2.95658682451571
30
0
41
1
10
22.8890444883782
20
-2.95724160405567
30
0
41
1
10
22.880109477987
20
-2.95813359184785
30
0
41
1
10
22.8689363872232
20
-2.9592416896528
30
0
41
1
10
22.8555311941516
20
-2.96057369323927
30
0
41
1
10
22.837657599277
20
-2.9623480216228
30
0
41
1
10
22.8153171865746
20
-2.96456495997347
30
0
41
1
10
22.7885107639692
20
-2.96722304451146
30
0
41
1
10
22.7617065360547
20
-2.96987907060546
30
0
41
1
10
22.7259704480141
20
-2.97341762809182
30
0
41
1
10
22.6813057621076
20
-2.97783558365515
30
0
41
1
10
22.6277168095356
20
-2.98312873009246
30
0
41
1
10
22.5741365273572
20
-2.98841347424514
30
0
41
1
10
22.5205649133046
20
-2.99368981068454
30
0
41
1
10
22.4491476498263
20
-3.00071370959995
30
0
41
1
10
22.3598977320745
20
-3.00947254092827
30
0
41
1
10
22.2528324750743
20
-3.01994943283859
30
0
41
1
10
22.1458018485251
20
-3.03039258118244
30
0
41
1
10
22.0031405010407
20
-3.04427173669572
30
0
41
1
10
21.8249003281396
20
-3.06153613053772
30
0
41
1
10
21.6111504017373
20
-3.08211781594142
30
0
41
1
10
21.3975387519094
20
-3.10256359341111
30
0
41
1
10
21.1840649013178
20
-3.12287318119343
30
0
41
1
10
20.8996390924346
20
-3.14976850980406
30
0
41
1
10
20.4024266426143
20
-3.19635172642199
30
0
41
1
10
19.6936404391435
20
-3.26151167627447
30
0
41
1
10
18.8455443910676
20
-3.3374618476825
30
0
41
1
10
17.9997901531212
20
-3.41115838273268
30
0
41
1
10
17.1568761493228
20
-3.48253766190274
30
0
41
1
10
16.3168257862264
20
-3.55157940383143
30
0
41
1
10
15.4796205910268
20
-3.61826615330023
30
0
41
1
10
14.3671290881674
20
-3.70401636273641
30
0
41
1
10
12.9836028973933
20
-3.805222812647
30
0
41
1
10
11.729479221142
20
-3.89017986800272
30
0
41
1
10
11.0286456790203
20
-3.9351601367681
30
0
41
1
10
10.8748479283036
20
-3.94490952499436
30
0
0
SPLINE
5
109
100
AcDbEntity
8
SK1
62
256
6
ByLayer
370
18
48
1
60
0
100
AcDbSpline
70
4
71
3
72
8
73
4
40
0
40
0
40
0
40
0
40
1
40
1
40
1
40
1
41
1
10
-44
20
2.02164476709478
30
0
41
1
10
-44.3340973293886
20
1.97654104361459
30
0
41
1
10
-44.6675861295011
20
1.93136017609771
30
0
41
1
10
-45
20
1.88604303837516
30
0
0
SPLINE
5
10A
100
AcDbEntity
8
SK1
62
256
6
ByLayer
370
18
48
1
60
0
100
AcDbSpline
70
4
71
3
72
22
73
18
40
0
40
0
40
0
40
0
40
0.0624999999999988
40
0.0624999999999988
40
0.124999999999998
40
0.124999999999998
40
0.187499999999997
40
0.187499999999997
40
0.249999999999995
40
0.249999999999995
40
0.374999999999993
40
0.374999999999993
40
0.499999999999991
40
0.499999999999991
40
0.749999999999995
40
0.749999999999995
40
1
40
1
40
1
40
1
41
1
10
-43.9
20
1.93864216388656
30
0
41
1
10
-43.9
20
1.94265137805243
30
0
41
1
10
-43.9002571474035
20
1.94655857231913
30
0
41
1
10
-43.9012483776125
20
1.95418360323967
30
0
41
1
10
-43.9019843513023
20
1.95788232636949
30
0
41
1
10
-43.9038359635904
20
1.96488106438363
30
0
41
1
10
-43.9049554869821
20
1.96821313649676
30
0
41
1
10
-43.9075371189045
20
1.97458156129389
30
0
41
1
10
-43.9090098413739
20
1.97763484104891
30
0
41
1
10
-43.9138179871196
20
1.98623899251169
30
0
41
1
10
-43.9175198374798
20
1.99124140102756
30
0
41
1
10
-43.9257004816946
20
2.0001019061996
30
0
41
1
10
-43.9302200169575
20
2.00397303481955
30
0
41
1
10
-43.9443936084027
20
2.01376888961624
30
0
41
1
10
-43.9547462216613
20
2.01806647248966
30
0
41
1
10
-43.9768688927872
20
2.0228382562884
30
0
41
1
10
-43.9882652380084
20
2.0232289804764
30
0
41
1
10
-44
20
2.02164476709478
30
0
0
SPLINE
5
10B
100
AcDbEntity
8
SK1
62
256
6
ByLayer
370
18
48
1
60
0
100
AcDbSpline
70
4
71
3
72
20
73
16
40
0
40
0
40
0
40
0
40
0.249999999999994
40
0.249999999999994
40
0.374999999999995
40
0.374999999999995
40
0.499999999999996
40
0.499999999999996
40
0.624999999999997
40
0.624999999999997
40
0.749999999999998
40
0.749999999999998
40
0.874999999999999
40
0.874999999999999
40
1
40
1
40
1
40
1
41
1
10
-44
20
-0.45644832388146
30
0
41
1
10
-43.9882624016387
20
-0.454863727584979
30
0
41
1
10
-43.9768728337101
20
-0.451284317235377
30
0
41
1
10
-43.9603029893906
20
-0.442909803553533
30
0
41
1
10
-43.9549192307105
20
-0.439625132971315
30
0
41
1
10
-43.9446385133001
20
-0.432156932374283
30
0
41
1
10
-43.9397103681262
20
-0.427959562908853
30
0
41
1
10
-43.9303270419096
20
-0.418526153767573
30
0
41
1
10
-43.9258538446687
20
-0.413270939001933
30
0
41
1
10
-43.9175707355638
20
-0.40154598305125
30
0
41
1
10
-43.9138512481045
20
-0.395213109005596
30
0
41
1
10
-43.9074484729558
20
-0.381389196465079
30
0
41
1
10
-43.9047693085045
20
-0.373849887137652
30
0
41
1
10
-43.9010616952338
20
-0.358080706212576
30
0
41
1
10
-43.9
20
-0.349627094718215
30
0
41
1
10
-43.9
20
-0.341203479811554
30
0
0
SPLINE
5
10C
100
AcDbEntity
8
SK1
62
256
6
ByLayer
370
18
48
1
60
0
100
AcDbSpline
70
4
71
3
72
8
73
4
40
0
40
0
40
0
40
0
40
1
40
1
40
1
40
1
41
1
10
-45
20
-0.592050052601024
30
0
41
1
10
-44.66758615991
20
-0.546732919024066
30
0
41
1
10
-44.3340973547838
20
-0.501552050789996
30
0
41
1
10
-44
20
-0.456448323881432
30
0
0
SPLINE
5
10D
100
AcDbEntity
8
SK1
62
256
6
ByLayer
370
18
48
1
60
0
100
AcDbSpline
70
4
71
3
72
20
73
16
40
0
40
0
40
0
40
0
40
0.249999999999994
40
0.249999999999994
40
0.374999999999995
40
0.374999999999995
40
0.499999999999996
40
0.499999999999996
40
0.624999999999997
40
0.624999999999997
40
0.749999999999998
40
0.749999999999998
40
0.874999999999999
40
0.874999999999999
40
1
40
1
40
1
40
1
41
1
10
-44
20
0.45644832388146
30
0
41
1
10
-43.9882624016387
20
0.454863727584979
30
0
41
1
10
-43.9768728337101
20
0.451284317235377
30
0
41
1
10
-43.9603029893906
20
0.442909803553533
30
0
41
1
10
-43.9549192307105
20
0.439625132971344
30
0
41
1
10
-43.9446385133001
20
0.432156932374283
30
0
41
1
10
-43.9397103681262
20
0.427959562908882
30
0
41
1
10
-43.9303270419096
20
0.418526153767601
30
0
41
1
10
-43.9258538446687
20
0.413270939001961
30
0
41
1
10
-43.9175707355638
20
0.401545983051278
30
0
41
1
10
-43.9138512481045
20
0.395213109005624
30
0
41
1
10
-43.9074484729558
20
0.381389196465108
30
0
41
1
10
-43.9047693085045
20
0.373849887137652
30
0
41
1
10
-43.9010616952338
20
0.358080706212604
30
0
41
1
10
-43.9
20
0.349627094718244
30
0
41
1
10
-43.9
20
0.341203479811554
30
0
0
SPLINE
5
10E
100
AcDbEntity
8
SK1
62
256
6
ByLayer
370
18
48
1
60
0
100
AcDbSpline
70
4
71
3
72
8
73
4
40
0
40
0
40
0
40
0
40
1
40
1
40
1
40
1
41
1
10
-45
20
0.592050052601053
30
0
41
1
10
-44.66758615991
20
0.546732919024095
30
0
41
1
10
-44.3340973547838
20
0.501552050790025
30
0
41
1
10
-44
20
0.45644832388146
30
0
0
SPLINE
5
10F
100
AcDbEntity
8
1
62
256
6
ByLayer
370
18
48
1
60
0
100
AcDbSpline
70
4
71
3
72
35
73
31
40
0
40
0
40
0
40
0
40
2.1888587372E-06
40
2.1888587372E-06
40
3.7884920885E-05
40
6.47732080886E-05
40
0.000115962376298
40
0.0002164004946193
40
0.0004297352719322
40
0.0009250557918349
40
0.0038474537034066
40
0.0226000003137427
40
0.0433379271666037
40
0.0626652724696971
40
0.0806960766678015
40
0.159284874340291
40
0.243120589682869
40
0.33347921884511
40
0.430580241813509
40
0.524916420845111
40
0.592461210091906
40
0.649705915865912
40
0.695066394127542
40
0.712220428753373
40
0.737430160495613
40
0.770870859327802
40
0.812545882792942
40
0.880928080102281
40
0.963950371809647
40
1
40
1
40
1
40
1
41
1
10
44.1127338392311
20
0.376197075695558
30
0
41
1
10
44.1127273359833
20
0.376198886310561
30
0
41
1
10
44.1127201072884
20
0.376200878892377
30
0
41
1
10
44.112598289262
20
0.376233919150934
30
0
41
1
10
44.1123297531563
20
0.376305050406898
30
0
41
1
10
44.1120712138099
20
0.376376631587647
30
0
41
1
10
44.1115780507429
20
0.376510418996162
30
0
41
1
10
44.1103459207932
20
0.376838409536333
30
0
41
1
10
44.1076381415146
20
0.377553024440346
30
0
41
1
10
44.0942565887434
20
0.381032986821765
30
0
41
1
10
44.008122437738
20
0.403091055669279
30
0
41
1
10
43.839816550429
20
0.446138702817791
30
0
41
1
10
43.6075105376653
20
0.506283879584629
30
0
41
1
10
43.3773767288649
20
0.566492630861973
30
0
41
1
10
42.9171553287506
20
0.688190685886269
30
0
41
1
10
42.2020714108961
20
0.882527722777354
30
0
41
1
10
41.2037563514889
20
1.16619796400292
30
0
41
1
10
40.1362383647235
20
1.48376702898608
30
0
41
1
10
39.0319995050504
20
1.82819187867315
30
0
41
1
10
38.0216310626611
20
2.15831253118202
30
0
41
1
10
37.1700851283753
20
2.44727444348908
30
0
41
1
10
36.5109634123001
20
2.67737728895062
30
0
41
1
10
36.0482377313594
20
2.84264762251891
30
0
41
1
10
35.7098472330011
20
2.96517736134893
30
0
41
1
10
35.4177766374445
20
3.07191022721153
30
0
41
1
10
35.0318327792016
20
3.21475208591247
30
0
41
1
10
34.4808915658183
20
3.42186996949789
30
0
41
1
10
33.7419832125825
20
3.70663459016069
30
0
41
1
10
33.0268706143186
20
3.98883921475778
30
0
41
1
10
32.5754394004573
20
4.17478880045644
30
0
41
1
10
32.4389608473847
20
4.23155527669181
30
0
0
SPLINE
5
110
100
AcDbEntity
8
1
62
256
6
ByLayer
370
18
48
1
60
0
100
AcDbSpline
70
4
71
3
72
36
73
32
40
0
40
0
40
0
40
0
40
3.26115119301E-05
40
4.61208305131E-05
40
5.14410037422E-05
40
5.61015785319E-05
40
6.03897427103E-05
40
6.45476827208E-05
40
9.84127279788E-05
40
0.0001237381670249
40
0.0001682243046253
40
0.0002484661280433
40
0.0003939225876411
40
0.0006595249074616
40
0.0011532616893622
40
0.0020972659925361
40
0.0039969026253391
40
0.0081285820537177
40
0.0285429986611312
40
0.115280206453014
40
0.198945047731802
40
0.292575159372365
40
0.389739551372066
40
0.483917978104277
40
0.535466034795646
40
0.588203404270941
40
0.652104560557235
40
0.728447733491824
40
0.817249476734855
40
0.91851564731933
40
1
40
1
40
1
40
1
41
1
10
120.262383652919
20
0.3877775629702
30
0
41
1
10
120.26244089085
20
0.387763454032182
30
0
41
1
10
120.262497913201
20
0.387749700441901
30
0
41
1
10
120.262487970793
20
0.387757348501566
30
0
41
1
10
120.26246452721
20
0.387763512365012
30
0
41
1
10
120.262436850093
20
0.387770999215604
30
0
41
1
10
120.262401356852
20
0.387780383830119
30
0
41
1
10
120.262259729294
20
0.387817328422415
30
0
41
1
10
120.2619793041
20
0.387888781655391
30
0
41
1
10
120.261595620134
20
0.387988189255793
30
0
41
1
10
120.261129357291
20
0.388110373110692
30
0
41
1
10
120.260156629488
20
0.388362718943398
30
0
41
1
10
120.258425323955
20
0.388812315897496
30
0
41
1
10
120.255214704357
20
0.389645450975593
30
0
41
1
10
120.249109441916
20
0.391227629510752
30
0
41
1
10
120.237003177299
20
0.394359578657344
30
0
41
1
10
120.210909890983
20
0.401084629931376
30
0
41
1
10
120.10762290435
20
0.427580541620273
30
0
41
1
10
119.653268812309
20
0.544307075036869
30
0
41
1
10
118.877865788325
20
0.750202197720171
30
0
41
1
10
117.807445020485
20
1.04850086015853
30
0
41
1
10
116.699278673051
20
1.37275106383478
30
0
41
1
10
115.553429422807
20
1.72522767687747
30
0
41
1
10
114.581149263206
20
2.03905362208872
30
0
41
1
10
113.789537627032
20
2.30375202087012
30
0
41
1
10
113.120448974619
20
2.53306207850341
30
0
41
1
10
112.355035092604
20
2.80257004378251
30
0
41
1
10
111.44990700486
20
3.13145601539699
30
0
41
1
10
110.401943748265
20
3.52659212284257
30
0
41
1
10
109.338997506614
20
3.94270587769878
30
0
41
1
10
108.628478399767
20
4.23426841401408
30
0
41
1
10
108.31253180263
20
4.36635625889082
30
0
0
SPLINE
5
111
100
AcDbEntity
8
1
62
256
6
ByLayer
370
18
48
1
60
0
100
AcDbSpline
70
4
71
3
72
26
73
22
40
0
40
0
40
0
40
0
40
3.58617480359E-05
40
0.0002350410704871
40
0.0006828933613688
40
0.0019329673178789
40
0.0038783799193714
40
0.0232972523634871
40
0.0465595372282331
40
0.132792103749732
40
0.220927302217565
40
0.318773366221962
40
0.416506457856789
40
0.509796243843762
40
0.560210965826932
40
0.615095978849462
40
0.68065243429422
40
0.756889173840458
40
0.843821738695545
40
0.941449075133004
40
1
40
1
40
1
40
1
41
1
10
82.1770115048862
20
0.384607245547329
30
0
41
1
10
82.1770189978946
20
0.384608100936788
30
0
41
1
10
82.1770481624385
20
0.384618670362244
30
0
41
1
10
82.1767588790336
20
0.384743112838805
30
0
41
1
10
82.1734603058851
20
0.385694053519046
30
0
41
1
10
82.1622267486379
20
0.38866574777586
30
0
41
1
10
82.0796249454629
20
0.409951214184019
30
0
41
1
10
81.8959870968362
20
0.456763605733414
30
0
41
1
10
81.3822399734499
20
0.590129643966065
30
0
41
1
10
80.5885778643353
20
0.802424066751257
30
0
41
1
10
79.5037206700847
20
1.10740254487541
30
0
41
1
10
78.3762178777707
20
1.44046445845413
30
0
41
1
10
77.2335177668766
20
1.79539449792284
30
0
41
1
10
76.2825725661481
20
2.10494136779707
30
0
41
1
10
75.503154808526
20
2.36744956600404
30
0
41
1
10
74.8343396805102
20
2.59825614340505
30
0
41
1
10
74.0667910553637
20
2.87047975553497
30
0
41
1
10
73.1774054649113
20
3.19583992163524
30
0
41
1
10
72.1679033300206
20
3.57883840331257
30
0
41
1
10
71.2309531033489
20
3.94637656427815
30
0
41
1
10
70.6330341975244
20
4.19210435618086
30
0
41
1
10
70.4093411823379
20
4.28536778679401
30
0
0
SPLINE
5
112
100
AcDbEntity
8
1
62
256
6
ByLayer
370
18
48
1
60
0
100
AcDbSpline
70
4
71
3
72
17
73
13
40
0
40
0
40
0
40
0
40
0.0534378893120305
40
0.18607990200571
40
0.293943630048749
40
0.357042388265899
40
0.407628266525031
40
0.475365948142848
40
0.568354499144142
40
0.692875762261363
40
0.84514570573175
40
1
40
1
40
1
40
1
41
1
10
153.958076017212
20
1.6340741844833
30
0
41
1
10
153.817879454772
20
1.67699842154403
30
0
41
1
10
153.330203958206
20
1.82804113573533
30
0
41
1
10
152.563330184273
20
2.07761779438096
30
0
41
1
10
151.773768788021
20
2.34259185888638
30
0
41
1
10
151.199291390226
20
2.54083976898036
30
0
41
1
10
150.729676285759
20
2.70564765057051
30
0
41
1
10
150.183762440848
20
2.90064679544099
30
0
41
1
10
149.448874313039
20
3.1693556688125
30
0
41
1
10
148.499914732185
20
3.52740497303333
30
0
41
1
10
147.397581258856
20
3.95906188506157
30
0
41
1
10
146.618419335535
20
4.27851027858151
30
0
41
1
10
146.226797516508
20
4.44258344639434
30
0
0
SPLINE
5
113
100
AcDbEntity
8
1
62
256
6
ByLayer
370
18
48
1
60
0
100
AcDbSpline
70
4
71
1
72
4
73
2
40
0
40
0
40
1
40
1
41
1
10
115.133139924556
20
-6.22173036504E-05
30
0
41
1
10
115.133126219418
20
-5.53561585832E-05
30
0
0
SPLINE
5
114
100
AcDbEntity
8
1
62
256
6
ByLayer
370
18
48
1
60
0
100
AcDbSpline
70
4
71
3
72
31
73
27
40
0
40
0
40
0
40
0
40
0.0552727955476401
40
0.100722392106238
40
0.139763171880933
40
0.173545437254019
40
0.207825704323479
40
0.251300626960539
40
0.291477390857654
40
0.325899612247329
40
0.35911088444913
40
0.404638913983875
40
0.445522299020136
40
0.479395071773924
40
0.513591247741394
40
0.562381833008867
40
0.602643629671237
40
0.632326870964925
40
0.679505965915631
40
0.741976770879917
40
0.785779963231056
40
0.840222779654163
40
0.907151621539804
40
0.955507388851822
40
0.995060501130802
40
1
40
1
40
1
40
1
41
1
10
117.86891904182
20
-6.42441878683599
30
0
41
1
10
118.109326353203
20
-6.42473866868161
30
0
41
1
10
118.547636571301
20
-6.42541880618251
30
0
41
1
10
119.155887998363
20
-6.42690257341815
30
0
41
1
10
119.671813086331
20
-6.42786994379571
30
0
41
1
10
120.139141622566
20
-6.42874357600988
30
0
41
1
10
120.62578470629
20
-6.42956080151208
30
0
41
1
10
121.140337916385
20
-6.43062425160122
30
0
41
1
10
121.655506471148
20
-6.43167978613079
30
0
41
1
10
122.125895672609
20
-6.43239163388722
30
0
41
1
10
122.619631908371
20
-6.43315496107462
30
0
41
1
10
123.141559426908
20
-6.43434529276189
30
0
41
1
10
123.666372500358
20
-6.43539963435214
30
0
41
1
10
124.14174454666
20
-6.43605594396814
30
0
41
1
10
124.651616159872
20
-6.43691062527114
30
0
41
1
10
125.189363121807
20
-6.43826993856428
30
0
41
1
10
125.707420504079
20
-6.43910574531049
30
0
41
1
10
126.218447257454
20
-6.43962982526932
30
0
41
1
10
126.826373582764
20
-6.44071249120094
30
0
41
1
10
127.495906395313
20
-6.44238263791186
30
0
41
1
10
128.197127942737
20
-6.44300907885341
30
0
41
1
10
128.917805112394
20
-6.4445202132419
30
0
41
1
10
129.658348070916
20
-6.44588587739599
30
0
41
1
10
130.333889291139
20
-6.44651528162603
30
0
41
1
10
130.739004507712
20
-6.44741953948531
30
0
41
1
10
130.933128108189
20
-6.44786918663544
30
0
41
1
10
130.954679336046
20
-6.44791910145892
30
0
0
SPLINE
5
115
100
AcDbEntity
8
1
62
256
6
ByLayer
370
18
48
1
60
0
100
AcDbSpline
70
4
71
3
72
19
73
15
40
0
40
0
40
0
40
0
40
0.120369957049971
40
0.226302752561178
40
0.309778665704921
40
0.384612705320463
40
0.481591233192203
40
0.57486260762817
40
0.655206427409656
40
0.725963344025644
40
0.774029546366636
40
0.833562760017953
40
0.913952169369235
40
1
40
1
40
1
40
1
41
1
10
96.0808845934855
20
6.38677510063445
30
0
41
1
10
95.8227291140534
20
6.38624327734789
30
0
41
1
10
95.3371566596664
20
6.385384228719
30
0
41
1
10
94.6735613319536
20
6.38507600789788
30
0
41
1
10
94.1045551629008
20
6.384301113497
30
0
41
1
10
93.5553754259043
20
6.38289090928262
30
0
41
1
10
92.9849814888121
20
6.38101092764907
30
0
41
1
10
92.402772137831
20
6.38047968389017
30
0
41
1
10
91.8769714765276
20
6.37988413669615
30
0
41
1
10
91.448438159608
20
6.37933706658126
30
0
41
1
10
91.0646812575108
20
6.3787002649224
30
0
41
1
10
90.6601990584543
20
6.37783851125613
30
0
41
1
10
90.1739964224553
20
6.37645216889044
30
0
41
1
10
89.8158884738762
20
6.37492047790971
30
0
41
1
10
89.6307476169677
20
6.37400983962638
30
0
0
SPLINE
5
116
100
AcDbEntity
8
1
62
256
6
ByLayer
370
18
48
1
60
0
100
AcDbSpline
70
4
71
3
72
32
73
28
40
0
40
0
40
0
40
0
40
0.0531675461569427
40
0.100060407497491
40
0.137956097004119
40
0.17020758925619
40
0.205175414171969
40
0.241780843238662
40
0.275350871395104
40
0.30335350915071
40
0.328529365176125
40
0.35622258031573
40
0.404098865356763
40
0.444077741331113
40
0.474578397170989
40
0.504048681016283
40
0.545114358172715
40
0.585624382833946
40
0.614717543196795
40
0.661985589089882
40
0.732132090868544
40
0.782437331166816
40
0.839587448989585
40
0.903497203731665
40
0.95350846197724
40
0.994249833506155
40
1
40
1
40
1
40
1
41
1
10
134.185924899034
20
6.45328665062277
30
0
41
1
10
133.95509362205
20
6.45294488853804
30
0
41
1
10
133.520260772209
20
6.45223541071428
30
0
41
1
10
132.920122186229
20
6.45146833691618
30
0
41
1
10
132.409517033726
20
6.45010623523396
30
0
41
1
10
131.950687872304
20
6.4496307329581
30
0
41
1
10
131.49753467626
20
6.44911814649342
30
0
41
1
10
131.038628317664
20
6.44821965898589
30
0
41
1
10
130.610113071883
20
6.44699604422948
30
0
41
1
10
130.231473120975
20
6.44651370044673
30
0
41
1
10
129.878509882168
20
6.4460800427868
30
0
41
1
10
129.43878297023
20
6.44546540878548
30
0
41
1
10
128.934459340954
20
6.44454808567374
30
0
41
1
10
128.417866519379
20
6.44345971746782
30
0
41
1
10
127.981613967324
20
6.44281913826453
30
0
41
1
10
127.54061869148
20
6.44234389717323
30
0
41
1
10
127.055932018532
20
6.44138244764983
30
0
41
1
10
126.572894371168
20
6.44018876034241
30
0
41
1
10
126.062782021145
20
6.43945084173495
30
0
41
1
10
125.423314291928
20
6.43883935062857
30
0
41
1
10
124.691263340246
20
6.43691101831709
30
0
41
1
10
123.916078197159
20
6.43577079669609
30
0
41
1
10
123.168115634817
20
6.43444665953274
30
0
41
1
10
122.421436587086
20
6.43275037025131
30
0
41
1
10
121.746375584755
20
6.43186619551369
30
0
41
1
10
121.325167802572
20
6.43100382816925
30
0
41
1
10
121.122244430395
20
6.43058545452871
30
0
41
1
10
121.097146455523
20
6.43053376374073
30
0
0
SPLINE
5
117
100
AcDbEntity
8
1
62
256
6
ByLayer
370
18
48
1
60
0
100
AcDbSpline
70
4
71
3
72
13
73
9
40
0
40
0
40
0
40
0
40
0.219332496470478
40
0.401353343438843
40
0.529575477433472
40
0.636834161865079
40
0.816560894914612
40
1
40
1
40
1
40
1
41
1
10
89.6307488391629
20
-6.37399182063629
30
0
41
1
10
89.8675709144326
20
-6.37514595947911
30
0
41
1
10
90.300929516682
20
-6.3769264171992
30
0
41
1
10
90.8727388807693
20
-6.37834141542453
30
0
41
1
10
91.3235377214433
20
-6.37914914614271
30
0
41
1
10
91.7718591457706
20
-6.37976370210509
30
0
41
1
10
92.2798029175718
20
-6.38035132982657
30
0
41
1
10
92.6719300883067
20
-6.3806976003363
30
0
41
1
10
92.8700000114955
20
-6.38103741289063
30
0
0
SPLINE
5
118
100
AcDbEntity
8
1
62
256
6
ByLayer
370
18
48
1
60
0
100
AcDbSpline
70
4
71
1
72
4
73
2
40
0
40
0
40
1
40
1
41
1
10
115.133126219417
20
5.53561579579E-05
30
0
41
1
10
115.133139924557
20
6.22173041052E-05
30
0
0
LINE
5
82
100
AcDbEntity
8
4
62
256
6
ByLayer
370
18
48
0.05
60
0
100
AcDbLine
10
0
20
0
30
0
11
157
21
0
31
0
39
0
210
0
220
0
230
1
0
LINE
5
84
100
AcDbEntity
8
81
62
256
6
ByLayer
370
18
48
1
60
0
100
AcDbLine
10
157
20
0
30
0
11
160
21
0
31
0
39
0
210
0
220
0
230
1
0
LINE
5
85
100
AcDbEntity
8
80
62
256
6
ByLayer
370
18
48
1
60
0
100
AcDbLine
10
0
20
0
30
0
11
-3
21
0
31
0
39
0
210
0
220
0
230
1
0
LINE
5
86
100
AcDbEntity
8
SK4
62
256
6
ByLayer
370
18
48
0.05
60
0
100
AcDbLine
10
-48
20
0
30
0
11
160
21
0
31
0
39
0
210
0
220
0
230
1
0
LINE
5
88
100
AcDbEntity
8
1
62
256
6
ByLayer
370
18
48
1
60
0
100
AcDbLine
10
0
20
7
30
0
11
0
21
-7
31
0
39
0
210
0
220
0
230
1
0
LINE
5
89
100
AcDbEntity
8
1
62
256
6
ByLayer
370
13
48
1
60
0
100
AcDbLine
10
156.850928
20
0.692
30
0
11
155.484201
21
2.063896
31
0
39
0
210
0
220
0
230
1
0
LINE
5
8A
100
AcDbEntity
8
1
62
256
6
ByLayer
370
13
48
1
60
0
100
AcDbLine
10
0.59436
20
-6.735478
30
0
11
0.59436
21
6.735478
31
0
39
0
210
0
220
0
230
1
0
LINE
5
8B
100
AcDbEntity
8
1
62
256
6
ByLayer
370
18
48
1
60
0
100
AcDbLine
10
89.530295
20
6.629969
30
0
11
89.530295
21
4.638881
31
0
39
0
210
0
220
0
230
1
0
LINE
5
8C
100
AcDbEntity
8
1
62
256
6
ByLayer
370
18
48
1
60
0
100
AcDbLine
10
89.530295
20
-5.770115
30
0
11
89.530295
21
-6.629969
31
0
39
0
210
0
220
0
230
1
0
LINE
5
8D
100
AcDbEntity
8
1
62
256
6
ByLayer
370
18
48
1
60
0
100
AcDbLine
10
89.530295
20
3.964265
30
0
11
89.530295
21
3.88075
31
0
39
0
210
0
220
0
230
1
0
LINE
5
8E
100
AcDbEntity
8
1
62
256
6
ByLayer
370
13
48
1
60
0
100
AcDbLine
10
1.190159
20
-6.470957
30
0
11
1.190159
21
6.470957
31
0
39
0
210
0
220
0
230
1
0
LINE
5
8F
100
AcDbEntity
8
SK1
62
256
6
ByLayer
370
18
48
1
60
0
100
AcDbLine
10
-45
20
1.886043
30
0
11
-45
21
0.59205
31
0
39
0
210
0
220
0
230
1
0
LINE
5
91
100
AcDbEntity
8
SK1
62
256
6
ByLayer
370
13
48
1
60
0
100
AcDbLine
10
-44
20
0.456448
30
0
11
-44
21
2.021645
31
0
39
0
210
0
220
0
230
1
0
LINE
5
92
100
AcDbEntity
8
SK1
62
256
6
ByLayer
370
18
48
1
60
0
100
AcDbLine
10
-43.9
20
-0.341203
30
0
11
-43.9
21
1.938642
31
0
39
0
210
0
220
0
230
1
0
LINE
5
93
100
AcDbEntity
8
SK1
62
256
6
ByLayer
370
18
48
1
60
0
100
AcDbLine
10
-45
20
-5.055
30
0
11
-45
21
-0.59205
31
0
39
0
210
0
220
0
230
1
0
LINE
5
94
100
AcDbEntity
8
SK1
62
256
6
ByLayer
370
18
48
1
60
0
100
AcDbLine
10
-45
20
1.886043
30
0
11
-45
21
5.055
31
0
39
0
210
0
220
0
230
1
0
LINE
5
95
100
AcDbEntity
8
SK1
62
256
6
ByLayer
370
18
48
1
60
0
100
AcDbLine
10
0
20
7
30
0
11
0
21
-7
31
0
39
0
210
0
220
0
230
1
0
LINE
5
96
100
AcDbEntity
8
SK1
62
256
6
ByLayer
370
18
48
1
60
0
100
AcDbLine
10
-43.055
20
-7
30
0
11
-43.055
21
7
31
0
39
0
210
0
220
0
230
1
0
LINE
5
97
100
AcDbEntity
8
1
62
256
6
ByLayer
370
18
48
1
60
0
100
AcDbLine
10
1.190159
20
-6.470957
30
0
11
21.967528
21
-6.508356
31
0
39
0
210
0
220
0
230
1
0
LINE
5
98
100
AcDbEntity
8
1
62
256
6
ByLayer
370
18
48
1
60
0
100
AcDbLine
10
40.018869
20
-6.540849
30
0
11
59.959537
21
-6.576742
31
0
39
0
210
0
220
0
230
1
0
LINE
5
99
100
AcDbEntity
8
1
62
256
6
ByLayer
370
18
48
1
60
0
100
AcDbLine
10
78.076302
20
-6.609352
30
0
11
89.530295
21
-6.629969
31
0
39
0
210
0
220
0
230
1
0
LINE
5
9A
100
AcDbEntity
8
1
62
256
6
ByLayer
370
18
48
1
60
0
100
AcDbLine
10
96.08116
20
-6.641761
30
0
11
97.950587
21
-6.645126
31
0
39
0
210
0
220
0
230
1
0
LINE
5
9B
100
AcDbEntity
8
1
62
256
6
ByLayer
370
18
48
1
60
0
100
AcDbLine
10
116.377118
20
-6.678294
30
0
11
117.869541
21
-6.68098
31
0
39
0
210
0
220
0
230
1
0
LINE
5
9C
100
AcDbEntity
8
1
62
256
6
ByLayer
370
18
48
1
60
0
100
AcDbLine
10
134.184264
20
-6.710347
30
0
11
135.942578
21
-6.713512
31
0
39
0
210
0
220
0
230
1
0
LINE
5
9D
100
AcDbEntity
8
1
62
256
6
ByLayer
370
18
48
1
60
0
100
AcDbLine
10
135.942578
20
6.713512
30
0
11
134.184264
21
6.710347
31
0
39
0
210
0
220
0
230
1
0
LINE
5
9E
100
AcDbEntity
8
1
62
256
6
ByLayer
370
18
48
1
60
0
100
AcDbLine
10
117.869541
20
6.68098
30
0
11
116.377118
21
6.678294
31
0
39
0
210
0
220
0
230
1
0
LINE
5
9F
100
AcDbEntity
8
1
62
256
6
ByLayer
370
18
48
1
60
0
100
AcDbLine
10
97.950587
20
6.645126
30
0
11
96.08116
21
6.641761
31
0
39
0
210
0
220
0
230
1
0
LINE
5
A0
100
AcDbEntity
8
1
62
256
6
ByLayer
370
18
48
1
60
0
100
AcDbLine
10
89.530295
20
6.629969
30
0
11
78.076302
21
6.609352
31
0
39
0
210
0
220
0
230
1
0
LINE
5
A1
100
AcDbEntity
8
1
62
256
6
ByLayer
370
18
48
1
60
0
100
AcDbLine
10
59.959537
20
6.576742
30
0
11
40.018869
21
6.540849
31
0
39
0
210
0
220
0
230
1
0
LINE
5
A2
100
AcDbEntity
8
1
62
256
6
ByLayer
370
18
48
1
60
0
100
AcDbLine
10
21.967528
20
6.508356
30
0
11
1.190159
21
6.470957
31
0
39
0
210
0
220
0
230
1
0
LINE
5
A3
100
AcDbEntity
8
SK1
62
256
6
ByLayer
370
18
48
1
60
0
100
AcDbLine
10
-45
20
-5.055
30
0
11
-43.055
21
-7
31
0
39
0
210
0
220
0
230
1
0
LINE
5
A4
100
AcDbEntity
8
SK1
62
256
6
ByLayer
370
18
48
1
60
0
100
AcDbLine
10
-43.055
20
7
30
0
11
-45
21
5.055
31
0
39
0
210
0
220
0
230
1
0
LINE
5
A5
100
AcDbEntity
8
SK1
62
256
6
ByLayer
370
18
48
1
60
0
100
AcDbLine
10
-43.055
20
-7
30
0
11
0
21
-7
31
0
39
0
210
0
220
0
230
1
0
LINE
5
A6
100
AcDbEntity
8
SK1
62
256
6
ByLayer
370
18
48
1
60
0
100
AcDbLine
10
0
20
7
30
0
11
-43.055
21
7
31
0
39
0
210
0
220
0
230
1
0
LINE
5
A7
100
AcDbEntity
8
2
62
256
6
ByLayer
370
13
48
1
60
0
100
AcDbLine
10
164.5
20
-6.747
30
0
11
164.5
21
37.653455
31
0
39
0
210
0
220
0
230
1
0
LINE
5
A9
100
AcDbEntity
8
2
62
256
6
ByLayer
370
13
48
1
60
0
100
AcDbLine
10
158.5875
20
6.747
30
0
11
166.5
21
6.747
31
0
39
0
210
0
220
0
230
1
0
LINE
5
AA
100
AcDbEntity
8
2
62
256
6
ByLayer
370
13
48
1
60
0
100
AcDbLine
10
158.5875
20
-6.747
30
0
11
166.5
21
-6.747
31
0
39
0
210
0
220
0
230
1
0
LINE
5
AB
100
AcDbEntity
8
1
62
256
6
ByLayer
370
18
48
1
60
1
100
AcDbLine
10
164.5
20
6.747
30
0
11
164.960784
21
3.247002
31
0
39
0
210
0
220
0
230
1
0
LINE
5
AC
100
AcDbEntity
8
1
62
256
6
ByLayer
370
18
48
1
60
1
100
AcDbLine
10
164.960784
20
3.247002
30
0
11
164.039216
21
3.246998
31
0
39
0
210
0
220
0
230
1
0
LINE
5
AD
100
AcDbEntity
8
1
62
256
6
ByLayer
370
18
48
1
60
1
100
AcDbLine
10
164.039216
20
3.246998
30
0
11
164.5
21
6.747
31
0
39
0
210
0
220
0
230
1
0
LINE
5
AE
100
AcDbEntity
8
1
62
256
6
ByLayer
370
18
48
1
60
1
100
AcDbLine
10
164.5
20
-6.747
30
0
11
164.039216
21
-3.247002
31
0
39
0
210
0
220
0
230
1
0
LINE
5
AF
100
AcDbEntity
8
1
62
256
6
ByLayer
370
18
48
1
60
1
100
AcDbLine
10
164.039216
20
-3.247002
30
0
11
164.960784
21
-3.246998
31
0
39
0
210
0
220
0
230
1
0
LINE
5
B0
100
AcDbEntity
8
1
62
256
6
ByLayer
370
18
48
1
60
1
100
AcDbLine
10
164.960784
20
-3.246998
30
0
11
164.5
21
-6.747
31
0
39
0
210
0
220
0
230
1
0
LINE
5
B1
100
AcDbEntity
8
SK2
62
256
6
ByLayer
370
13
48
1
60
0
100
AcDbLine
10
-53.5
20
-7
30
0
11
-53.5
21
15.649657
31
0
39
0
210
0
220
0
230
1
0
LINE
5
B3
100
AcDbEntity
8
SK2
62
256
6
ByLayer
370
13
48
1
60
0
100
AcDbLine
10
-46.5875
20
7
30
0
11
-55.5
21
7
31
0
39
0
210
0
220
0
230
1
0
LINE
5
B4
100
AcDbEntity
8
SK2
62
256
6
ByLayer
370
13
48
1
60
0
100
AcDbLine
10
-46.5875
20
-7
30
0
11
-55.5
21
-7
31
0
39
0
210
0
220
0
230
1
0
LINE
5
B5
100
AcDbEntity
8
1
62
256
6
ByLayer
370
18
48
1
60
1
100
AcDbLine
10
-53.5
20
7
30
0
11
-53.039216
21
3.500002
31
0
39
0
210
0
220
0
230
1
0
LINE
5
B6
100
AcDbEntity
8
1
62
256
6
ByLayer
370
18
48
1
60
1
100
AcDbLine
10
-53.039216
20
3.500002
30
0
11
-53.960784
21
3.499998
31
0
39
0
210
0
220
0
230
1
0
LINE
5
B7
100
AcDbEntity
8
1
62
256
6
ByLayer
370
18
48
1
60
1
100
AcDbLine
10
-53.960784
20
3.499998
30
0
11
-53.5
21
7
31
0
39
0
210
0
220
0
230
1
0
LINE
5
B8
100
AcDbEntity
8
1
62
256
6
ByLayer
370
18
48
1
60
1
100
AcDbLine
10
-53.5
20
-7
30
0
11
-53.960784
21
-3.500002
31
0
39
0
210
0
220
0
230
1
0
LINE
5
B9
100
AcDbEntity
8
1
62
256
6
ByLayer
370
18
48
1
60
1
100
AcDbLine
10
-53.960784
20
-3.500002
30
0
11
-53.039216
21
-3.499998
31
0
39
0
210
0
220
0
230
1
0
LINE
5
BA
100
AcDbEntity
8
1
62
256
6
ByLayer
370
18
48
1
60
1
100
AcDbLine
10
-53.039216
20
-3.499998
30
0
11
-53.5
21
-7
31
0
39
0
210
0
220
0
230
1
0
LINE
5
BB
100
AcDbEntity
8
SK2
62
256
6
ByLayer
370
13
48
1
60
0
100
AcDbLine
10
157.543014
20
1.491741
30
0
11
166.035646
21
24.822272
31
0
39
0
210
0
220
0
230
1
0
LINE
5
BC
100
AcDbEntity
8
SK2
62
256
6
ByLayer
370
13
48
1
60
0
100
AcDbLine
10
157.543014
20
-1.491741
30
0
11
166.035646
21
-24.822272
31
0
39
0
210
0
220
0
230
1
0
LINE
5
BD
100
AcDbEntity
8
1
62
256
6
ByLayer
370
18
48
1
60
1
100
AcDbLine
10
165.351533
20
22.942913
30
0
11
168.768484
21
22.055918
31
0
39
0
210
0
220
0
230
1
0
LINE
5
BE
100
AcDbEntity
8
1
62
256
6
ByLayer
370
18
48
1
60
1
100
AcDbLine
10
168.768484
20
22.055918
30
0
11
168.422486
21
21.201768
31
0
39
0
210
0
220
0
230
1
0
LINE
5
BF
100
AcDbEntity
8
1
62
256
6
ByLayer
370
18
48
1
60
1
100
AcDbLine
10
168.422486
20
21.201768
30
0
11
165.351533
21
22.942913
31
0
39
0
210
0
220
0
230
1
0
LINE
5
C0
100
AcDbEntity
8
1
62
256
6
ByLayer
370
18
48
1
60
1
100
AcDbLine
10
165.351533
20
-22.942913
30
0
11
168.422482
21
-21.20177
31
0
39
0
210
0
220
0
230
1
0
LINE
5
C1
100
AcDbEntity
8
1
62
256
6
ByLayer
370
18
48
1
60
1
100
AcDbLine
10
168.422482
20
-21.20177
30
0
11
168.768487
21
-22.055917
31
0
39
0
210
0
220
0
230
1
0
LINE
5
C2
100
AcDbEntity
8
1
62
256
6
ByLayer
370
18
48
1
60
1
100
AcDbLine
10
168.768487
20
-22.055917
30
0
11
165.351533
21
-22.942913
31
0
39
0
210
0
220
0
230
1
0
LINE
5
119
100
AcDbEntity
8
1
62
256
6
ByLayer
370
13
48
0.05
60
0
100
AcDbLine
10
-51.5
20
0
30
0
11
161.054932
21
0
31
0
39
0
210
0
220
0
230
1
0
LINE
5
11E
100
AcDbEntity
8
1
62
256
6
ByLayer
370
18
48
1
60
1
100
AcDbLine
10
164.5
20
6.747
30
0
11
164.960784
21
3.247002
31
0
39
0
210
0
220
0
230
1
0
LINE
5
11F
100
AcDbEntity
8
1
62
256
6
ByLayer
370
18
48
1
60
1
100
AcDbLine
10
164.960784
20
3.247002
30
0
11
164.039216
21
3.246998
31
0
39
0
210
0
220
0
230
1
0
LINE
5
120
100
AcDbEntity
8
1
62
256
6
ByLayer
370
18
48
1
60
1
100
AcDbLine
10
164.039216
20
3.246998
30
0
11
164.5
21
6.747
31
0
39
0
210
0
220
0
230
1
0
LINE
5
122
100
AcDbEntity
8
1
62
256
6
ByLayer
370
18
48
1
60
1
100
AcDbLine
10
164.5
20
-6.747
30
0
11
164.039216
21
-3.247002
31
0
39
0
210
0
220
0
230
1
0
LINE
5
123
100
AcDbEntity
8
1
62
256
6
ByLayer
370
18
48
1
60
1
100
AcDbLine
10
164.039216
20
-3.247002
30
0
11
164.960784
21
-3.246998
31
0
39
0
210
0
220
0
230
1
0
LINE
5
124
100
AcDbEntity
8
1
62
256
6
ByLayer
370
18
48
1
60
1
100
AcDbLine
10
164.960784
20
-3.246998
30
0
11
164.5
21
-6.747
31
0
39
0
210
0
220
0
230
1
0
LINE
5
128
100
AcDbEntity
8
1
62
256
6
ByLayer
370
18
48
1
60
1
100
AcDbLine
10
-53.5
20
7
30
0
11
-53.039216
21
3.500002
31
0
39
0
210
0
220
0
230
1
0
LINE
5
129
100
AcDbEntity
8
1
62
256
6
ByLayer
370
18
48
1
60
1
100
AcDbLine
10
-53.039216
20
3.500002
30
0
11
-53.960784
21
3.499998
31
0
39
0
210
0
220
0
230
1
0
LINE
5
12A
100
AcDbEntity
8
1
62
256
6
ByLayer
370
18
48
1
60
1
100
AcDbLine
10
-53.960784
20
3.499998
30
0
11
-53.5
21
7
31
0
39
0
210
0
220
0
230
1
0
LINE
5
12C
100
AcDbEntity
8
1
62
256
6
ByLayer
370
18
48
1
60
1
100
AcDbLine
10
-53.5
20
-7
30
0
11
-53.960784
21
-3.500002
31
0
39
0
210
0
220
0
230
1
0
LINE
5
12D
100
AcDbEntity
8
1
62
256
6
ByLayer
370
18
48
1
60
1
100
AcDbLine
10
-53.960784
20
-3.500002
30
0
11
-53.039216
21
-3.499998
31
0
39
0
210
0
220
0
230
1
0
LINE
5
12E
100
AcDbEntity
8
1
62
256
6
ByLayer
370
18
48
1
60
1
100
AcDbLine
10
-53.039216
20
-3.499998
30
0
11
-53.5
21
-7
31
0
39
0
210
0
220
0
230
1
0
LINE
5
131
100
AcDbEntity
8
1
62
256
6
ByLayer
370
18
48
1
60
1
100
AcDbLine
10
165.351533
20
22.942913
30
0
11
168.768484
21
22.055918
31
0
39
0
210
0
220
0
230
1
0
LINE
5
132
100
AcDbEntity
8
1
62
256
6
ByLayer
370
18
48
1
60
1
100
AcDbLine
10
168.768484
20
22.055918
30
0
11
168.422486
21
21.201768
31
0
39
0
210
0
220
0
230
1
0
LINE
5
133
100
AcDbEntity
8
1
62
256
6
ByLayer
370
18
48
1
60
1
100
AcDbLine
10
168.422486
20
21.201768
30
0
11
165.351533
21
22.942913
31
0
39
0
210
0
220
0
230
1
0
LINE
5
135
100
AcDbEntity
8
1
62
256
6
ByLayer
370
18
48
1
60
1
100
AcDbLine
10
165.351533
20
-22.942913
30
0
11
168.422482
21
-21.20177
31
0
39
0
210
0
220
0
230
1
0
LINE
5
136
100
AcDbEntity
8
1
62
256
6
ByLayer
370
18
48
1
60
1
100
AcDbLine
10
168.422482
20
-21.20177
30
0
11
168.768487
21
-22.055917
31
0
39
0
210
0
220
0
230
1
0
LINE
5
137
100
AcDbEntity
8
1
62
256
6
ByLayer
370
18
48
1
60
1
100
AcDbLine
10
168.768487
20
-22.055917
30
0
11
165.351533
21
-22.942913
31
0
39
0
210
0
220
0
230
1
0
MTEXT
5
11A
100
AcDbEntity
8
2
62
256
6
ByLayer
370
18
48
1
60
0
100
AcDbMText
10
163.158886
20
20.405437
30
0
210
0
220
0
230
1
1
%%c
40
3
41
0
44
1.084337
50
90
71
7
72
5
7
iso_b_vert
0
MTEXT
5
11D
100
AcDbEntity
8
2
62
256
6
ByLayer
370
18
48
1
60
0
100
AcDbMText
10
163.158886
20
26.382
30
0
210
0
220
0
230
1
1
\W0.7383;13.494
40
3
41
0
44
1.084337
50
90
71
7
72
5
7
iso_b_vert
0
MTEXT
5
126
100
AcDbEntity
8
SK2
62
256
6
ByLayer
370
18
48
1
60
0
100
AcDbMText
10
-54.841114
20
6.658437
30
0
210
0
220
0
230
1
1
%%c
40
3
41
0
44
1.084337
50
90
71
7
72
5
7
iso_b_vert
0
MTEXT
5
127
100
AcDbEntity
8
SK2
62
256
6
ByLayer
370
18
48
1
60
0
100
AcDbMText
10
-54.841114
20
12.635
30
0
210
0
220
0
230
1
1
\W0.5785;14
40
3
41
0
44
1.084337
50
90
71
7
72
5
7
iso_b_vert
0
MTEXT
5
130
100
AcDbEntity
8
SK2
62
256
6
ByLayer
370
18
48
1
60
0
100
AcDbMText
10
177.975022
20
-2.114886
30
0
210
0
220
0
230
1
1
\W0.7071;140%%d
40
3
41
0
44
1.084337
50
0
71
7
72
5
7
iso_b_vert
0
MTEXT
5
139
100
AcDbEntity
8
SK6
62
256
6
ByLayer
370
18
48
1
60
0
100
AcDbMText
10
34.883957
20
-77.114886
30
0
210
0
220
0
230
1
1
\W0.7240;860.1-1349-110A1-SD S2BM
40
3
41
0
44
1.084337
50
0
71
7
72
5
7
iso_b_vert
0
HATCH
5
121
100
AcDbEntity
8
2
62
256
6
ByLayer
370
13
48
1
60
0
100
AcDbHatch
10
0
20
0
30
0
210
0
220
0
230
1
2
ANSI31
70
0
71
0
91
1
92
5
93
3
72
1
10
164.5
20
6.74699999999999
11
164.960783741553
21
3.24700169255317
72
1
10
164.960783741553
20
3.24700169255317
11
164.039216258447
21
3.2469983074468
72
1
10
164.039216258447
20
3.2469983074468
11
164.5
21
6.74699999999999
97
0
75
0
76
1
52
0
41
0.0062
77
0
78
1
53
45
43
0
44
0
45
-0.0139193969876572
46
0.0139193969876572
79
0
47
0
98
1
10
0
20
0
0
HATCH
5
125
100
AcDbEntity
8
2
62
256
6
ByLayer
370
13
48
1
60
0
100
AcDbHatch
10
0
20
0
30
0
210
0
220
0
230
1
2
ANSI31
70
0
71
0
91
1
92
5
93
3
72
1
10
164.5
20
-6.74700000000001
11
164.039216258447
21
-3.2470016925532
72
1
10
164.039216258447
20
-3.2470016925532
11
164.960783741553
21
-3.24699830744683
72
1
10
164.960783741553
20
-3.24699830744683
11
164.5
21
-6.74700000000001
97
0
75
0
76
1
52
0
41
0.0062
77
0
78
1
53
45
43
0
44
0
45
-0.0139193969876572
46
0.0139193969876572
79
0
47
0
98
1
10
0
20
0
0
HATCH
5
12B
100
AcDbEntity
8
SK2
62
256
6
ByLayer
370
13
48
1
60
0
100
AcDbHatch
10
0
20
0
30
0
210
0
220
0
230
1
2
ANSI31
70
0
71
0
91
1
92
5
93
3
72
1
10
-53.5
20
7
11
-53.0392162584472
21
3.50000169255318
72
1
10
-53.0392162584472
20
3.50000169255318
11
-53.9607837415528
21
3.49999830744682
72
1
10
-53.9607837415528
20
3.49999830744682
11
-53.5
21
7
97
0
75
0
76
1
52
0
41
0.0062
77
0
78
1
53
45
43
0
44
0
45
-0.0139193969876572
46
0.0139193969876572
79
0
47
0
98
1
10
0
20
0
0
HATCH
5
12F
100
AcDbEntity
8
SK2
62
256
6
ByLayer
370
13
48
1
60
0
100
AcDbHatch
10
0
20
0
30
0
210
0
220
0
230
1
2
ANSI31
70
0
71
0
91
1
92
5
93
3
72
1
10
-53.5
20
-7
11
-53.9607837415528
21
-3.50000169255318
72
1
10
-53.9607837415528
20
-3.50000169255318
11
-53.0392162584472
21
-3.49999830744682
72
1
10
-53.0392162584472
20
-3.49999830744682
11
-53.5
21
-7
97
0
75
0
76
1
52
0
41
0.0062
77
0
78
1
53
45
43
0
44
0
45
-0.0139193969876572
46
0.0139193969876572
79
0
47
0
98
1
10
0
20
0
0
HATCH
5
134
100
AcDbEntity
8
SK2
62
256
6
ByLayer
370
13
48
1
60
0
100
AcDbHatch
10
0
20
0
30
0
210
0
220
0
230
1
2
ANSI31
70
0
71
0
91
1
92
5
93
3
72
1
10
165.351533210175
20
22.9429130981485
11
168.768483613676
21
22.0559183131422
72
1
10
168.768483613676
20
22.0559183131422
11
168.422485628341
21
21.2017684316382
72
1
10
168.422485628341
20
21.2017684316382
11
165.351533210175
21
22.9429130981485
97
0
75
0
76
1
52
0
41
0.0062
77
0
78
1
53
45
43
0
44
0
45
-0.0139193969876572
46
0.0139193969876572
79
0
47
0
98
1
10
0
20
0
0
HATCH
5
138
100
AcDbEntity
8
SK2
62
256
6
ByLayer
370
13
48
1
60
0
100
AcDbHatch
10
0
20
0
30
0
210
0
220
0
230
1
2
ANSI31
70
0
71
0
91
1
92
5
93
3
72
1
10
165.351533210175
20
-22.9429130981485
11
168.422482490878
21
-21.2017697025713
72
1
10
168.422482490878
20
-21.2017697025713
11
168.768486751139
21
-22.0559170422091
72
1
10
168.768486751139
20
-22.0559170422091
11
165.351533210175
21
-22.9429130981485
97
0
75
0
76
1
52
0
41
0.0062
77
0
78
1
53
45
43
0
44
0
45
-0.0139193969876572
46
0.0139193969876572
79
0
47
0
98
1
10
0
20
0
0
DIMENSION
5
13C
100
AcDbEntity
8
SK2
62
256
6
ByLayer
370
18
48
1
60
0
100
AcDbDimension
2
_U0
10
46.7
20
-25.438536
30
0
11
101.85
21
-25.438536
31
0
70
32
71
1
72
1
41
1
210
0
220
0
230
1
3
Standard
100
AcDbAlignedDimension
13
157
23
-6.747
33
0
14
46.7
24
-6.747
34
0
50
0
100
AcDbRotatedDimension
1001
ACAD
1000
DSTYLE
1002
{
1070
   371
1070
    13
1070
   372
1070
    13
1070
   170
1070
     0
1070
   144
1040
1.0
1070
   277
1070
     2
1070
   284
1070
     8
1070
   278
1070
    46
1070
   146
1040
1.166667
1070
   345
1005
16
1070
   347
1005
16
1070
   346
1005
16
1070
   344
1005
0
1070
   343
1005
0
1070
   172
1070
     1
1070
    76
1070
     0
1070
    75
1070
     0
1070
   282
1070
     0
1070
   281
1070
     0
1070
     3
1000

1070
    71
1070
     0
1070
    74
1070
     0
1070
   279
1070
     0
1070
   173
1070
     1
1070
   340
1005
11B
1070
   271
1070
     2
1070
   272
1070
     2
1070
    77
1070
     1
1070
    73
1070
     1
1070
   171
1070
     3
1070
   274
1070
     4
1070
   177
1070
     2
1070
   176
1070
     2
1070
   178
1070
     2
1070
    78
1070
     8
1070
    48
1040
-0.1
1070
    41
1040
3.5
1070
   147
1040
1.5
1070
    42
1040
1.5875
1070
    44
1040
2.0
1070
   140
1040
3.0
1002
}
1001
ACAD_DSTYLE_DIM_LINETYPE
1070
   380
1005
16
1001
ACAD_DSTYLE_DIM_EXT1_LINETYPE
1070
   381
1005
16
1001
ACAD_DSTYLE_DIM_EXT2_LINETYPE
1070
   382
1005
16
0
DIMENSION
5
157
100
AcDbEntity
8
SK2
62
256
6
ByLayer
370
18
48
1
60
0
100
AcDbDimension
2
_U1
10
6
20
-35.438536
30
0
11
81.5
21
-35.438536
31
0
70
32
71
1
72
1
41
1
210
0
220
0
230
1
3
Standard
100
AcDbAlignedDimension
13
157
23
-6.747
33
0
14
6
24
-6.747
34
0
50
0
100
AcDbRotatedDimension
1001
ACAD
1000
DSTYLE
1002
{
1070
   371
1070
    13
1070
   372
1070
    13
1070
     3
1000

1070
   170
1070
     0
1070
   144
1040
1.0
1070
   277
1070
     2
1070
   284
1070
     8
1070
   278
1070
    46
1070
   146
1040
1.166667
1070
   345
1005
16
1070
   347
1005
16
1070
   346
1005
16
1070
   344
1005
0
1070
   343
1005
0
1070
   172
1070
     1
1070
    76
1070
     0
1070
    75
1070
     0
1070
   282
1070
     0
1070
   281
1070
     0
1070
    71
1070
     0
1070
    74
1070
     0
1070
   279
1070
     0
1070
   173
1070
     1
1070
   340
1005
11B
1070
   271
1070
     2
1070
   272
1070
     2
1070
    77
1070
     1
1070
    73
1070
     1
1070
   171
1070
     3
1070
   274
1070
     4
1070
   177
1070
     2
1070
   176
1070
     2
1070
   178
1070
     2
1070
    78
1070
     8
1070
    48
1040
-0.1
1070
    41
1040
3.5
1070
   147
1040
1.5
1070
    42
1040
1.5875
1070
    44
1040
2.0
1070
   140
1040
3.0
1002
}
1001
ACAD_DSTYLE_DIM_LINETYPE
1070
   380
1005
16
1001
ACAD_DSTYLE_DIM_EXT1_LINETYPE
1070
   381
1005
16
1001
ACAD_DSTYLE_DIM_EXT2_LINETYPE
1070
   382
1005
16
0
DIMENSION
5
16F
100
AcDbEntity
8
SK2
62
256
6
ByLayer
370
18
48
1
60
0
100
AcDbDimension
2
_U2
10
0
20
-43.438536
30
0
11
-22.5
21
-43.438536
31
0
70
32
71
1
72
1
41
1
210
0
220
0
230
1
3
Standard
100
AcDbAlignedDimension
13
-45
23
-7
33
0
14
0
24
-7
34
0
50
0
100
AcDbRotatedDimension
1001
ACAD
1000
DSTYLE
1002
{
1070
   371
1070
    13
1070
   372
1070
    13
1070
     3
1000

1070
   170
1070
     0
1070
   144
1040
1.0
1070
   277
1070
     2
1070
   284
1070
     8
1070
   278
1070
    46
1070
   146
1040
1.166667
1070
   345
1005
16
1070
   347
1005
16
1070
   346
1005
16
1070
   344
1005
0
1070
   343
1005
0
1070
   172
1070
     1
1070
    76
1070
     0
1070
    75
1070
     0
1070
   282
1070
     0
1070
   281
1070
     0
1070
    71
1070
     0
1070
    74
1070
     0
1070
   279
1070
     0
1070
   173
1070
     1
1070
   340
1005
11B
1070
   271
1070
     2
1070
   272
1070
     2
1070
    77
1070
     1
1070
    73
1070
     1
1070
   171
1070
     3
1070
   274
1070
     4
1070
   177
1070
     2
1070
   176
1070
     2
1070
   178
1070
     2
1070
    78
1070
     8
1070
    48
1040
-0.1
1070
    41
1040
3.5
1070
   147
1040
1.5
1070
    42
1040
1.5875
1070
    44
1040
2.0
1070
   140
1040
3.0
1002
}
1001
ACAD_DSTYLE_DIM_LINETYPE
1070
   380
1005
16
1001
ACAD_DSTYLE_DIM_EXT1_LINETYPE
1070
   381
1005
16
1001
ACAD_DSTYLE_DIM_EXT2_LINETYPE
1070
   382
1005
16
0
DIMENSION
5
187
100
AcDbEntity
8
SK2
62
256
6
ByLayer
370
18
48
1
60
0
100
AcDbDimension
2
_U3
10
157
20
-51.438536
30
0
11
56
21
-51.438536
31
0
70
32
71
1
72
1
41
1
210
0
220
0
230
1
3
Standard
100
AcDbAlignedDimension
13
-45
23
-7
33
0
14
157
24
-6.747
34
0
50
0
100
AcDbRotatedDimension
1001
ACAD
1000
DSTYLE
1002
{
1070
   371
1070
    13
1070
   372
1070
    13
1070
     3
1000

1070
   170
1070
     0
1070
   144
1040
1.0
1070
   277
1070
     2
1070
   284
1070
     8
1070
   278
1070
    46
1070
   146
1040
1.166667
1070
   345
1005
16
1070
   347
1005
16
1070
   346
1005
16
1070
   344
1005
0
1070
   343
1005
0
1070
   172
1070
     1
1070
    76
1070
     0
1070
    75
1070
     0
1070
   282
1070
     0
1070
   281
1070
     0
1070
    71
1070
     0
1070
    74
1070
     0
1070
   279
1070
     0
1070
   173
1070
     1
1070
   340
1005
11B
1070
   271
1070
     2
1070
   272
1070
     2
1070
    77
1070
     1
1070
    73
1070
     1
1070
   171
1070
     3
1070
   274
1070
     4
1070
   177
1070
     2
1070
   176
1070
     2
1070
   178
1070
     2
1070
    78
1070
     8
1070
    48
1040
-0.1
1070
    41
1040
3.5
1070
   147
1040
1.5
1070
    42
1040
1.5875
1070
    44
1040
2.0
1070
   140
1040
3.0
1002
}
1001
ACAD_DSTYLE_DIM_LINETYPE
1070
   380
1005
16
1001
ACAD_DSTYLE_DIM_EXT1_LINETYPE
1070
   381
1005
16
1001
ACAD_DSTYLE_DIM_EXT2_LINETYPE
1070
   382
1005
16
0
DIMENSION
5
19F
100
AcDbEntity
8
2
62
256
6
ByLayer
370
18
48
1
60
0
100
AcDbDimension
2
_U4
10
0
20
-43.438536
30
0
11
78.5
21
-43.438536
31
0
70
32
71
1
72
1
41
1
210
0
220
0
230
1
3
Standard
100
AcDbAlignedDimension
13
157
23
-6.747
33
0
14
0
24
-6.747
34
0
50
0
100
AcDbRotatedDimension
1001
ACAD
1000
DSTYLE
1002
{
1070
   371
1070
    13
1070
   372
1070
    13
1070
     3
1000

1070
   170
1070
     0
1070
   144
1040
1.0
1070
   277
1070
     2
1070
   284
1070
     8
1070
   278
1070
    46
1070
   146
1040
1.166667
1070
   345
1005
16
1070
   347
1005
16
1070
   346
1005
16
1070
   344
1005
0
1070
   343
1005
0
1070
   172
1070
     1
1070
    76
1070
     0
1070
    75
1070
     0
1070
   282
1070
     0
1070
   281
1070
     0
1070
    71
1070
     0
1070
    74
1070
     0
1070
   279
1070
     0
1070
   173
1070
     1
1070
   340
1005
11B
1070
   271
1070
     2
1070
   272
1070
     2
1070
    77
1070
     1
1070
    73
1070
     1
1070
   171
1070
     3
1070
   274
1070
     4
1070
   177
1070
     2
1070
   176
1070
     2
1070
   178
1070
     2
1070
    78
1070
     8
1070
    48
1040
-0.1
1070
    41
1040
3.5
1070
   147
1040
1.5
1070
    42
1040
1.5875
1070
    44
1040
2.0
1070
   140
1040
3.0
1002
}
1001
ACAD_DSTYLE_DIM_LINETYPE
1070
   380
1005
16
1001
ACAD_DSTYLE_DIM_EXT1_LINETYPE
1070
   381
1005
16
1001
ACAD_DSTYLE_DIM_EXT2_LINETYPE
1070
   382
1005
16
0
ENDSEC
0
SECTION
2
OBJECTS
0
DICTIONARY
5
227
330
0
100
AcDbDictionary
280
0
281
1
3
ACAD_GROUP
350
228
3
ACAD_MLINESTYLE
350
229
0
DICTIONARY
5
228
330
0
100
AcDbDictionary
280
0
281
1
0
DICTIONARY
5
229
330
0
100
AcDbDictionary
280
0
281
1
3
Standard
350
18
0
MLINESTYLE
5
18
330
229
100
AcDbMlineStyle
2
Standard
70
0
3

62
256
51
90
52
90
71
2
49
-0.5
62
256
6
ByLayer
49
0.5
62
256
6
ByLayer
0
RASTERVARIABLES
5
215
330

100
AcDbRasterVariables
90
0
70
1
71
1
72
1
0
ENDSEC
0
EOF
