0
SECTION
2
HEADER
9
$ACADVER
1
AC1015
9
$DWGCODEPAGE
3
ANSI_1252
9
$HANDSEED
5
22a
9
$ANGBASE
50
0
9
$ANGDIR
70
0
9
$ATTMODE
70
1
9
$AUNITS
70
0
9
$AUPREC
70
0
9
$CECOLOR
62
256
9
$CELTSCALE
40
1
9
$CELTYPE
6
ByLayer
9
$CELWEIGHT
370
18
9
$CLAYER
8
0
9
$CMLJUST
70
0
9
$CMLSCALE
40
1
9
$CMLSTYLE
2
Standard
9
$DIMSTYLE
2
Standard
9
$TEXTSIZE
40
0.2
9
$TEXTSTYLE
7
Standard
9
$LUNITS
70
2
9
$LUPREC
70
4
9
$EXTNAMES
290
1
9
$INSUNITS
70
4
9
$LTSCALE
40
1
9
$LWDISPLAY
290
1
9
$PDMODE
70
0
9
$PDSIZE
40
0
9
$PLINEGEN
70
0
0
ENDSEC
0
SECTION
2
CLASSES
0
CLASS
1
RASTERVARIABLES
2
AcDbRasterVariables
3
ISM
90
0
280
0
281
0
0
ENDSEC
0
SECTION
2
TABLES
0
TABLE
2
VPORT
5
220
100
AcDbSymbolTable
0
VPORT
5
1
100
AcDbSymbolTableRecord
100
AcDbViewportTableRecord
2
*Active
70
0
10
0
20
0
11
1
21
1
12
-1
22
1
13
0
23
0
14
0.5
24
0.5
15
10
25
10
16
0
26
0
36
1
17
0
27
0
37
0
0
ENDTAB
0
TABLE
2
LTYPE
5
221
100
AcDbSymbolTable
0
LTYPE
5
14
100
AcDbSymbolTableRecord
100
AcDbLinetypeTableRecord
70
0
2
ByBlock
3

72
65
73
0
40
0
0
LTYPE
5
15
100
AcDbSymbolTableRecord
100
AcDbLinetypeTableRecord
70
0
2
ByLayer
3

72
65
73
0
40
0
0
LTYPE
5
16
100
AcDbSymbolTableRecord
100
AcDbLinetypeTableRecord
70
0
2
Continuous
3
Solid line
72
65
73
0
40
0
0
LTYPE
5
6E
100
AcDbSymbolTableRecord
100
AcDbLinetypeTableRecord
70
0
2
CENTER
3
____ _ ____ _ ____ _ ____
72
65
73
4
40
47.5
49
22
74
0
49
-8.5
74
0
49
8.5
74
0
49
-8.5
74
0
0
LTYPE
5
6F
100
AcDbSymbolTableRecord
100
AcDbLinetypeTableRecord
70
0
2
DASHED
3
__ __ __ __ __ __ __ __ __
72
65
73
2
40
25.72
49
12.86
74
0
49
-12.86
74
0
0
ENDTAB
0
TABLE
2
LAYER
5
222
100
AcDbSymbolTable
0
LAYER
5
10
100
AcDbSymbolTableRecord
100
AcDbLayerTableRecord
2
0
70
0
62
7
6
Continuous
290
1
370
-3
390
0
0
LAYER
5
71
100
AcDbSymbolTableRecord
100
AcDbLayerTableRecord
2
81
70
0
62
-3
6
Continuous
290
1
370
-3
390
0
0
LAYER
5
73
100
AcDbSymbolTableRecord
100
AcDbLayerTableRecord
2
80
70
0
62
-6
6
Continuous
290
1
370
-3
390
0
0
LAYER
5
75
100
AcDbSymbolTableRecord
100
AcDbLayerTableRecord
2
1
70
0
62
4
6
Continuous
290
1
370
-3
390
0
0
LAYER
5
86
100
AcDbSymbolTableRecord
100
AcDbLayerTableRecord
2
4
70
0
62
-2
6
CENTER
290
1
370
-3
390
0
0
LAYER
5
A1
100
AcDbSymbolTableRecord
100
AcDbLayerTableRecord
2
2
70
0
62
7
6
Continuous
290
1
370
-3
390
0
0
LAYER
5
135
100
AcDbSymbolTableRecord
100
AcDbLayerTableRecord
2
Defpoints
70
0
62
7
6
Continuous
290
0
370
-3
390
0
0
LAYER
5
20c
100
AcDbSymbolTableRecord
100
AcDbLayerTableRecord
2
SK4
70
0
62
2
6
CENTER
290
1
370
-3
390
0
0
LAYER
5
20d
100
AcDbSymbolTableRecord
100
AcDbLayerTableRecord
2
SK1
70
0
62
4
6
Continuous
290
1
370
-3
390
0
0
LAYER
5
20e
100
AcDbSymbolTableRecord
100
AcDbLayerTableRecord
2
SK2
70
0
62
7
6
Continuous
290
1
370
-3
390
0
0
LAYER
5
20f
100
AcDbSymbolTableRecord
100
AcDbLayerTableRecord
2
SK6
70
0
62
5
6
Continuous
290
1
370
-3
390
0
0
ENDTAB
0
TABLE
2
STYLE
5
223
100
AcDbSymbolTable
0
STYLE
5
11
100
AcDbSymbolTableRecord
100
AcDbTextStyleTableRecord
2
Standard
3
txt
70
0
71
0
40
0
41
1
42
0
50
0
0
STYLE
5
111
100
AcDbSymbolTableRecord
100
AcDbTextStyleTableRecord
2
iso_b_vert
3
simplex.shx
70
0
71
0
40
0
41
1
42
0
50
0
0
STYLE
5
112
100
AcDbSymbolTableRecord
100
AcDbTextStyleTableRecord
2
DWGDirectTextStyle
3
simplex
70
0
71
0
40
0
41
1
42
0
50
0
0
ENDTAB
0
TABLE
2
DIMSTYLE
5
224
100
AcDbSymbolTable
100
AcDbDimStyleTable
0
DIMSTYLE
105
27
100
AcDbSymbolTableRecord
100
AcDbDimStyleTableRecord
2
Standard
70
0
3
<>
41
0.18
42
0.0625
44
0.18
140
0.18
147
0.09
73
0
74
0
77
1
271
2
275
0
278
52
280
0
340
11
0
ENDTAB
0
TABLE
2
VIEW
5
225
100
AcDbSymbolTable
0
ENDTAB
0
TABLE
2
UCS
5
226
100
AcDbSymbolTable
0
ENDTAB
0
TABLE
2
APPID
5
227
100
AcDbSymbolTable
0
APPID
5
12
100
AcDbSymbolTableRecord
100
AcDbRegAppTableRecord
2
ACAD
70
0
0
APPID
5
131
100
AcDbSymbolTableRecord
100
AcDbRegAppTableRecord
2
ACAD_DSTYLE_DIMBREAK
70
0
0
APPID
5
1CB
100
AcDbSymbolTableRecord
100
AcDbRegAppTableRecord
2
ACAD_DSTYLE_DIM_LINETYPE
70
0
0
APPID
5
1CC
100
AcDbSymbolTableRecord
100
AcDbRegAppTableRecord
2
ACAD_DSTYLE_DIM_EXT1_LINETYPE
70
0
0
APPID
5
1CD
100
AcDbSymbolTableRecord
100
AcDbRegAppTableRecord
2
ACAD_DSTYLE_DIM_EXT2_LINETYPE
70
0
0
APPID
5
208
100
AcDbSymbolTableRecord
100
AcDbRegAppTableRecord
2
ACAD_MLEADERVER
70
0
0
ENDTAB
0
TABLE
2
BLOCK_RECORD
5
228
100
AcDbSymbolTable
0
BLOCK_RECORD
5
1F
100
AcDbSymbolTableRecord
100
AcDbBlockTableRecord
2
*Model_Space
340
0
70
0
0
BLOCK_RECORD
5
1B
100
AcDbSymbolTableRecord
100
AcDbBlockTableRecord
2
*Paper_Space
340
0
70
0
0
BLOCK_RECORD
5
23
100
AcDbSymbolTableRecord
100
AcDbBlockTableRecord
2
*Paper_Space0
340
0
70
0
0
BLOCK_RECORD
5
136
100
AcDbSymbolTableRecord
100
AcDbBlockTableRecord
2
*D1
340
0
70
0
0
BLOCK_RECORD
5
142
100
AcDbSymbolTableRecord
100
AcDbBlockTableRecord
2
_U0
340
0
70
0
0
BLOCK_RECORD
5
150
100
AcDbSymbolTableRecord
100
AcDbBlockTableRecord
2
*D3
340
0
70
0
0
BLOCK_RECORD
5
15C
100
AcDbSymbolTableRecord
100
AcDbBlockTableRecord
2
_U1
340
0
70
0
0
BLOCK_RECORD
5
168
100
AcDbSymbolTableRecord
100
AcDbBlockTableRecord
2
*D5
340
0
70
0
0
BLOCK_RECORD
5
174
100
AcDbSymbolTableRecord
100
AcDbBlockTableRecord
2
_U2
340
0
70
0
0
BLOCK_RECORD
5
180
100
AcDbSymbolTableRecord
100
AcDbBlockTableRecord
2
*D7
340
0
70
0
0
BLOCK_RECORD
5
18C
100
AcDbSymbolTableRecord
100
AcDbBlockTableRecord
2
_U3
340
0
70
0
0
BLOCK_RECORD
5
198
100
AcDbSymbolTableRecord
100
AcDbBlockTableRecord
2
*D9
340
0
70
0
0
BLOCK_RECORD
5
1A4
100
AcDbSymbolTableRecord
100
AcDbBlockTableRecord
2
_U4
340
0
70
0
0
ENDTAB
0
ENDSEC
0
SECTION
2
BLOCKS
0
BLOCK
5
20
100
AcDbEntity
8
0
100
AcDbBlockBegin
2
*Model_Space
70
0
10
0
20
0
30
0
3
*Model_Space
0
ENDBLK
5
21
100
AcDbEntity
8
0
100
AcDbBlockEnd
0
BLOCK
5
1C
100
AcDbEntity
8
0
100
AcDbBlockBegin
2
*Paper_Space
70
0
10
0
20
0
30
0
3
*Paper_Space
0
ENDBLK
5
1D
100
AcDbEntity
8
0
100
AcDbBlockEnd
0
BLOCK
5
24
100
AcDbEntity
8
0
100
AcDbBlockBegin
2
*Paper_Space0
70
0
10
0
20
0
30
0
3
*Paper_Space0
0
ENDBLK
5
25
100
AcDbEntity
8
0
100
AcDbBlockEnd
0
BLOCK
5
137
100
AcDbEntity
8
0
100
AcDbBlockBegin
2
*D1
70
1
10
0
20
0
30
0
3
*D1
0
LINE
5
139
100
AcDbEntity
8
0
62
256
6
ByLayer
370
-2
48
1
60
0
100
AcDbLine
10
62
20
-8.3345
30
0
11
62
21
-27.298792
31
0
39
0
210
0
220
0
230
1
0
LINE
5
13A
100
AcDbEntity
8
0
62
256
6
ByLayer
370
-2
48
1
60
0
100
AcDbLine
10
20.4
20
-8.3345
30
0
11
20.4
21
-27.298792
31
0
39
0
210
0
220
0
230
1
0
LINE
5
13B
100
AcDbEntity
8
0
62
256
6
ByLayer
370
-2
48
1
60
0
100
AcDbLine
10
58.5
20
-25.298792
30
0
11
23.9
21
-25.298792
31
0
39
0
210
0
220
0
230
1
0
SOLID
5
13C
100
AcDbEntity
8
0
62
256
6
ByLayer
370
-1
48
1
60
0
100
AcDbTrace
10
58.5
20
-25.882125
30
0
11
58.5
21
-24.715458
31
0
12
62
22
-25.298792
32
0
13
62
23
-25.298792
33
0
39
0
210
0
220
0
230
1
0
SOLID
5
13D
100
AcDbEntity
8
0
62
256
6
ByLayer
370
-1
48
1
60
0
100
AcDbTrace
10
23.9
20
-24.715458
30
0
11
23.9
21
-25.882125
31
0
12
20.4
22
-25.298792
32
0
13
20.4
23
-25.298792
33
0
39
0
210
0
220
0
230
1
0
MTEXT
5
13E
100
AcDbEntity
8
0
62
256
6
ByLayer
370
18
48
1
60
0
100
AcDbMText
10
41.2
20
-19.298792
30
0
210
0
220
0
230
1
1
\A1;41.6
40
3
41
0
44
1
50
0
71
5
72
5
7
iso_b_vert
0
POINT
5
13F
100
AcDbEntity
8
Defpoints
62
0
6
ByLayer
370
-1
48
1
60
0
100
AcDbPoint
10
62
20
-6.747
30
0
39
0
210
0
220
0
230
1
50
360
0
POINT
5
140
100
AcDbEntity
8
Defpoints
62
0
6
ByLayer
370
-1
48
1
60
0
100
AcDbPoint
10
20.4
20
-6.747
30
0
39
0
210
0
220
0
230
1
50
360
0
POINT
5
141
100
AcDbEntity
8
Defpoints
62
0
6
ByLayer
370
-1
48
1
60
0
100
AcDbPoint
10
20.4
20
-25.298792
30
0
39
0
210
0
220
0
230
1
50
360
0
ENDBLK
5
138
100
AcDbEntity
8
0
100
AcDbBlockEnd
0
BLOCK
5
14B
100
AcDbEntity
8
0
100
AcDbBlockBegin
2
_U0
70
0
10
0
20
0
30
0
3
_U0
0
MTEXT
5
143
100
AcDbEntity
8
SK2
62
256
6
ByLayer
370
18
48
1
60
0
100
AcDbMText
10
38.055544
20
-23.101177
30
0
210
0
220
0
230
1
1
\W0.6856;41.6
40
3
41
0
44
1.084337
50
0
71
7
72
5
7
iso_b_vert
0
MTEXT
5
144
100
AcDbEntity
8
SK2
62
256
6
ByLayer
370
18
48
1
60
0
100
AcDbMText
10
35.955544
20
-23.101177
30
0
210
0
220
0
230
1
1
\W1.1313;{\H1.88x;(}
40
3
41
0
44
1.084337
50
0
71
7
72
5
7
iso_b_vert
0
MTEXT
5
145
100
AcDbEntity
8
SK2
62
256
6
ByLayer
370
18
48
1
60
0
100
AcDbMText
10
44.662456
20
-23.101177
30
0
210
0
220
0
230
1
1
\W1.1313;{\H1.88x;)}
40
3
41
0
44
1.084337
50
0
71
7
72
5
7
iso_b_vert
0
LINE
5
146
100
AcDbEntity
8
SK2
62
256
6
ByLayer
370
13
48
1
60
0
100
AcDbLine
10
62
20
-8.3345
30
0
11
62
21
-27.298792
31
0
39
0
210
0
220
0
230
1
0
LINE
5
147
100
AcDbEntity
8
SK2
62
256
6
ByLayer
370
13
48
1
60
0
100
AcDbLine
10
20.4
20
-8.3345
30
0
11
20.4
21
-27.298792
31
0
39
0
210
0
220
0
230
1
0
LINE
5
148
100
AcDbEntity
8
SK2
62
256
6
ByLayer
370
13
48
1
60
0
100
AcDbLine
10
62
20
-25.298792
30
0
11
20.4
21
-25.298792
31
0
39
0
210
0
220
0
230
1
0
SOLID
5
149
100
AcDbEntity
8
SK2
62
256
6
ByLayer
370
18
48
1
60
0
100
AcDbTrace
10
62
20
-25.298792
30
0
11
58.500002
21
-25.759575
31
0
12
58.499998
22
-24.838008
32
0
13
58.499998
23
-24.838008
33
0
39
0
210
0
220
0
230
1
0
SOLID
5
14A
100
AcDbEntity
8
SK2
62
256
6
ByLayer
370
18
48
1
60
0
100
AcDbTrace
10
20.4
20
-25.298792
30
0
11
23.899998
21
-24.838008
31
0
12
23.900002
22
-25.759575
32
0
13
23.900002
23
-25.759575
33
0
39
0
210
0
220
0
230
1
0
ENDBLK
5
14C
100
AcDbEntity
8
0
100
AcDbBlockEnd
0
BLOCK
5
151
100
AcDbEntity
8
0
100
AcDbBlockBegin
2
*D3
70
1
10
0
20
0
30
0
3
*D3
0
LINE
5
153
100
AcDbEntity
8
0
62
256
6
ByLayer
370
-2
48
1
60
0
100
AcDbLine
10
62
20
-8.3345
30
0
11
62
21
-37.298792
31
0
39
0
210
0
220
0
230
1
0
LINE
5
154
100
AcDbEntity
8
0
62
256
6
ByLayer
370
-2
48
1
60
0
100
AcDbLine
10
2
20
-8.3345
30
0
11
2
21
-37.298792
31
0
39
0
210
0
220
0
230
1
0
LINE
5
155
100
AcDbEntity
8
0
62
256
6
ByLayer
370
-2
48
1
60
0
100
AcDbLine
10
58.5
20
-35.298792
30
0
11
5.5
21
-35.298792
31
0
39
0
210
0
220
0
230
1
0
SOLID
5
156
100
AcDbEntity
8
0
62
256
6
ByLayer
370
-1
48
1
60
0
100
AcDbTrace
10
58.5
20
-35.882125
30
0
11
58.5
21
-34.715458
31
0
12
62
22
-35.298792
32
0
13
62
23
-35.298792
33
0
39
0
210
0
220
0
230
1
0
SOLID
5
157
100
AcDbEntity
8
0
62
256
6
ByLayer
370
-1
48
1
60
0
100
AcDbTrace
10
5.5
20
-34.715458
30
0
11
5.5
21
-35.882125
31
0
12
2
22
-35.298792
32
0
13
2
23
-35.298792
33
0
39
0
210
0
220
0
230
1
0
MTEXT
5
158
100
AcDbEntity
8
0
62
256
6
ByLayer
370
18
48
1
60
0
100
AcDbMText
10
32
20
-29.298792
30
0
210
0
220
0
230
1
1
\A1;60
40
3
41
0
44
1
50
0
71
5
72
5
7
iso_b_vert
0
POINT
5
159
100
AcDbEntity
8
Defpoints
62
0
6
ByLayer
370
-1
48
1
60
0
100
AcDbPoint
10
62
20
-6.747
30
0
39
0
210
0
220
0
230
1
50
360
0
POINT
5
15A
100
AcDbEntity
8
Defpoints
62
0
6
ByLayer
370
-1
48
1
60
0
100
AcDbPoint
10
2
20
-6.747
30
0
39
0
210
0
220
0
230
1
50
360
0
POINT
5
15B
100
AcDbEntity
8
Defpoints
62
0
6
ByLayer
370
-1
48
1
60
0
100
AcDbPoint
10
2
20
-35.298792
30
0
39
0
210
0
220
0
230
1
50
360
0
ENDBLK
5
152
100
AcDbEntity
8
0
100
AcDbBlockEnd
0
BLOCK
5
163
100
AcDbEntity
8
0
100
AcDbBlockBegin
2
_U1
70
0
10
0
20
0
30
0
3
_U1
0
MTEXT
5
15D
100
AcDbEntity
8
SK2
62
256
6
ByLayer
370
18
48
1
60
0
100
AcDbMText
10
30.367172
20
-34.413677
30
0
210
0
220
0
230
1
1
\W0.6740;60
40
3
41
0
44
1.084337
50
0
71
7
72
5
7
iso_b_vert
0
LINE
5
15E
100
AcDbEntity
8
SK2
62
256
6
ByLayer
370
13
48
1
60
0
100
AcDbLine
10
62
20
-8.3345
30
0
11
62
21
-37.298792
31
0
39
0
210
0
220
0
230
1
0
LINE
5
15F
100
AcDbEntity
8
SK2
62
256
6
ByLayer
370
13
48
1
60
0
100
AcDbLine
10
2
20
-8.3345
30
0
11
2
21
-37.298792
31
0
39
0
210
0
220
0
230
1
0
LINE
5
160
100
AcDbEntity
8
SK2
62
256
6
ByLayer
370
13
48
1
60
0
100
AcDbLine
10
62
20
-35.298792
30
0
11
2
21
-35.298792
31
0
39
0
210
0
220
0
230
1
0
SOLID
5
161
100
AcDbEntity
8
SK2
62
256
6
ByLayer
370
18
48
1
60
0
100
AcDbTrace
10
62
20
-35.298792
30
0
11
58.500002
21
-35.759575
31
0
12
58.499998
22
-34.838008
32
0
13
58.499998
23
-34.838008
33
0
39
0
210
0
220
0
230
1
0
SOLID
5
162
100
AcDbEntity
8
SK2
62
256
6
ByLayer
370
18
48
1
60
0
100
AcDbTrace
10
2
20
-35.298792
30
0
11
5.499998
21
-34.838008
31
0
12
5.500002
22
-35.759575
32
0
13
5.500002
23
-35.759575
33
0
39
0
210
0
220
0
230
1
0
ENDBLK
5
164
100
AcDbEntity
8
0
100
AcDbBlockEnd
0
BLOCK
5
169
100
AcDbEntity
8
0
100
AcDbBlockBegin
2
*D5
70
1
10
0
20
0
30
0
3
*D5
0
LINE
5
16B
100
AcDbEntity
8
0
62
256
6
ByLayer
370
-2
48
1
60
0
100
AcDbLine
10
-45
20
-8.5875
30
0
11
-45
21
-45.298792
31
0
39
0
210
0
220
0
230
1
0
LINE
5
16C
100
AcDbEntity
8
0
62
256
6
ByLayer
370
-2
48
1
60
0
100
AcDbLine
10
0
20
-8.5875
30
0
11
0
21
-45.298792
31
0
39
0
210
0
220
0
230
1
0
LINE
5
16D
100
AcDbEntity
8
0
62
256
6
ByLayer
370
-2
48
1
60
0
100
AcDbLine
10
-41.5
20
-43.298792
30
0
11
-3.5
21
-43.298792
31
0
39
0
210
0
220
0
230
1
0
SOLID
5
16E
100
AcDbEntity
8
0
62
256
6
ByLayer
370
-1
48
1
60
0
100
AcDbTrace
10
-41.5
20
-42.715458
30
0
11
-41.5
21
-43.882125
31
0
12
-45
22
-43.298792
32
0
13
-45
23
-43.298792
33
0
39
0
210
0
220
0
230
1
0
SOLID
5
16F
100
AcDbEntity
8
0
62
256
6
ByLayer
370
-1
48
1
60
0
100
AcDbTrace
10
-3.5
20
-43.882125
30
0
11
-3.5
21
-42.715458
31
0
12
0
22
-43.298792
32
0
13
0
23
-43.298792
33
0
39
0
210
0
220
0
230
1
0
MTEXT
5
170
100
AcDbEntity
8
0
62
256
6
ByLayer
370
18
48
1
60
0
100
AcDbMText
10
-22.5
20
-37.298792
30
0
210
0
220
0
230
1
1
\A1;45
40
3
41
0
44
1
50
0
71
5
72
5
7
iso_b_vert
0
POINT
5
171
100
AcDbEntity
8
Defpoints
62
0
6
ByLayer
370
-1
48
1
60
0
100
AcDbPoint
10
-45
20
-7
30
0
39
0
210
0
220
0
230
1
50
360
0
POINT
5
172
100
AcDbEntity
8
Defpoints
62
0
6
ByLayer
370
-1
48
1
60
0
100
AcDbPoint
10
0
20
-7
30
0
39
0
210
0
220
0
230
1
50
360
0
POINT
5
173
100
AcDbEntity
8
Defpoints
62
0
6
ByLayer
370
-1
48
1
60
0
100
AcDbPoint
10
0
20
-43.298792
30
0
39
0
210
0
220
0
230
1
50
360
0
ENDBLK
5
16A
100
AcDbEntity
8
0
100
AcDbBlockEnd
0
BLOCK
5
17B
100
AcDbEntity
8
0
100
AcDbBlockBegin
2
_U2
70
0
10
0
20
0
30
0
3
_U2
0
MTEXT
5
175
100
AcDbEntity
8
SK2
62
256
6
ByLayer
370
18
48
1
60
0
100
AcDbMText
10
-24.290771
20
-42.413677
30
0
210
0
220
0
230
1
1
\W0.7361;45
40
3
41
0
44
1.084337
50
0
71
7
72
5
7
iso_b_vert
0
LINE
5
176
100
AcDbEntity
8
SK2
62
256
6
ByLayer
370
13
48
1
60
0
100
AcDbLine
10
-45
20
-8.5875
30
0
11
-45
21
-45.298792
31
0
39
0
210
0
220
0
230
1
0
LINE
5
177
100
AcDbEntity
8
SK2
62
256
6
ByLayer
370
13
48
1
60
0
100
AcDbLine
10
0
20
-8.5875
30
0
11
0
21
-45.298792
31
0
39
0
210
0
220
0
230
1
0
LINE
5
178
100
AcDbEntity
8
SK2
62
256
6
ByLayer
370
13
48
1
60
0
100
AcDbLine
10
-45
20
-43.298792
30
0
11
0
21
-43.298792
31
0
39
0
210
0
220
0
230
1
0
SOLID
5
179
100
AcDbEntity
8
SK2
62
256
6
ByLayer
370
18
48
1
60
0
100
AcDbTrace
10
-45
20
-43.298792
30
0
11
-41.500002
21
-42.838008
31
0
12
-41.499998
22
-43.759575
32
0
13
-41.499998
23
-43.759575
33
0
39
0
210
0
220
0
230
1
0
SOLID
5
17A
100
AcDbEntity
8
SK2
62
256
6
ByLayer
370
18
48
1
60
0
100
AcDbTrace
10
0
20
-43.298792
30
0
11
-3.499998
21
-43.759575
31
0
12
-3.500002
22
-42.838008
32
0
13
-3.500002
23
-42.838008
33
0
39
0
210
0
220
0
230
1
0
ENDBLK
5
17C
100
AcDbEntity
8
0
100
AcDbBlockEnd
0
BLOCK
5
181
100
AcDbEntity
8
0
100
AcDbBlockBegin
2
*D7
70
1
10
0
20
0
30
0
3
*D7
0
LINE
5
183
100
AcDbEntity
8
0
62
256
6
ByLayer
370
-2
48
1
60
0
100
AcDbLine
10
-45
20
-8.5875
30
0
11
-45
21
-53.298792
31
0
39
0
210
0
220
0
230
1
0
LINE
5
184
100
AcDbEntity
8
0
62
256
6
ByLayer
370
-2
48
1
60
0
100
AcDbLine
10
62
20
-8.3345
30
0
11
62
21
-53.298792
31
0
39
0
210
0
220
0
230
1
0
LINE
5
185
100
AcDbEntity
8
0
62
256
6
ByLayer
370
-2
48
1
60
0
100
AcDbLine
10
-41.5
20
-51.298792
30
0
11
58.5
21
-51.298792
31
0
39
0
210
0
220
0
230
1
0
SOLID
5
186
100
AcDbEntity
8
0
62
256
6
ByLayer
370
-1
48
1
60
0
100
AcDbTrace
10
-41.5
20
-50.715458
30
0
11
-41.5
21
-51.882125
31
0
12
-45
22
-51.298792
32
0
13
-45
23
-51.298792
33
0
39
0
210
0
220
0
230
1
0
SOLID
5
187
100
AcDbEntity
8
0
62
256
6
ByLayer
370
-1
48
1
60
0
100
AcDbTrace
10
58.5
20
-51.882125
30
0
11
58.5
21
-50.715458
31
0
12
62
22
-51.298792
32
0
13
62
23
-51.298792
33
0
39
0
210
0
220
0
230
1
0
MTEXT
5
188
100
AcDbEntity
8
0
62
256
6
ByLayer
370
18
48
1
60
0
100
AcDbMText
10
8.5
20
-45.298792
30
0
210
0
220
0
230
1
1
\A1;107
40
3
41
0
44
1
50
0
71
5
72
5
7
iso_b_vert
0
POINT
5
189
100
AcDbEntity
8
Defpoints
62
0
6
ByLayer
370
-1
48
1
60
0
100
AcDbPoint
10
-45
20
-7
30
0
39
0
210
0
220
0
230
1
50
360
0
POINT
5
18A
100
AcDbEntity
8
Defpoints
62
0
6
ByLayer
370
-1
48
1
60
0
100
AcDbPoint
10
62
20
-6.747
30
0
39
0
210
0
220
0
230
1
50
360
0
POINT
5
18B
100
AcDbEntity
8
Defpoints
62
0
6
ByLayer
370
-1
48
1
60
0
100
AcDbPoint
10
62
20
-51.298792
30
0
39
0
210
0
220
0
230
1
50
360
0
ENDBLK
5
182
100
AcDbEntity
8
0
100
AcDbBlockEnd
0
BLOCK
5
193
100
AcDbEntity
8
0
100
AcDbBlockBegin
2
_U3
70
0
10
0
20
0
30
0
3
_U3
0
MTEXT
5
18D
100
AcDbEntity
8
SK2
62
256
6
ByLayer
370
18
48
1
60
0
100
AcDbMText
10
6.121201
20
-50.413677
30
0
210
0
220
0
230
1
1
\W0.6217;107
40
3
41
0
44
1.084337
50
0
71
7
72
5
7
iso_b_vert
0
LINE
5
18E
100
AcDbEntity
8
SK2
62
256
6
ByLayer
370
13
48
1
60
0
100
AcDbLine
10
-45
20
-8.5875
30
0
11
-45
21
-53.298792
31
0
39
0
210
0
220
0
230
1
0
LINE
5
18F
100
AcDbEntity
8
SK2
62
256
6
ByLayer
370
13
48
1
60
0
100
AcDbLine
10
62
20
-8.3345
30
0
11
62
21
-53.298792
31
0
39
0
210
0
220
0
230
1
0
LINE
5
190
100
AcDbEntity
8
SK2
62
256
6
ByLayer
370
13
48
1
60
0
100
AcDbLine
10
-45
20
-51.298792
30
0
11
62
21
-51.298792
31
0
39
0
210
0
220
0
230
1
0
SOLID
5
191
100
AcDbEntity
8
SK2
62
256
6
ByLayer
370
18
48
1
60
0
100
AcDbTrace
10
-45
20
-51.298792
30
0
11
-41.500002
21
-50.838008
31
0
12
-41.499998
22
-51.759575
32
0
13
-41.499998
23
-51.759575
33
0
39
0
210
0
220
0
230
1
0
SOLID
5
192
100
AcDbEntity
8
SK2
62
256
6
ByLayer
370
18
48
1
60
0
100
AcDbTrace
10
62
20
-51.298792
30
0
11
58.500002
21
-51.759575
31
0
12
58.499998
22
-50.838008
32
0
13
58.499998
23
-50.838008
33
0
39
0
210
0
220
0
230
1
0
ENDBLK
5
194
100
AcDbEntity
8
0
100
AcDbBlockEnd
0
BLOCK
5
199
100
AcDbEntity
8
0
100
AcDbBlockBegin
2
*D9
70
1
10
0
20
0
30
0
3
*D9
0
LINE
5
19B
100
AcDbEntity
8
0
62
256
6
ByLayer
370
-2
48
1
60
0
100
AcDbLine
10
62
20
-8.3345
30
0
11
62
21
-45.298792
31
0
39
0
210
0
220
0
230
1
0
LINE
5
19C
100
AcDbEntity
8
0
62
256
6
ByLayer
370
-2
48
1
60
0
100
AcDbLine
10
0
20
-8.3345
30
0
11
0
21
-45.298792
31
0
39
0
210
0
220
0
230
1
0
LINE
5
19D
100
AcDbEntity
8
0
62
256
6
ByLayer
370
-2
48
1
60
0
100
AcDbLine
10
58.5
20
-43.298792
30
0
11
3.5
21
-43.298792
31
0
39
0
210
0
220
0
230
1
0
SOLID
5
19E
100
AcDbEntity
8
0
62
256
6
ByLayer
370
-1
48
1
60
0
100
AcDbTrace
10
58.5
20
-43.882125
30
0
11
58.5
21
-42.715458
31
0
12
62
22
-43.298792
32
0
13
62
23
-43.298792
33
0
39
0
210
0
220
0
230
1
0
SOLID
5
19F
100
AcDbEntity
8
0
62
256
6
ByLayer
370
-1
48
1
60
0
100
AcDbTrace
10
3.5
20
-42.715458
30
0
11
3.5
21
-43.882125
31
0
12
0
22
-43.298792
32
0
13
0
23
-43.298792
33
0
39
0
210
0
220
0
230
1
0
MTEXT
5
1A0
100
AcDbEntity
8
0
62
256
6
ByLayer
370
18
48
1
60
0
100
AcDbMText
10
31
20
-37.298792
30
0
210
0
220
0
230
1
1
\A1;62
40
3
41
0
44
1
50
0
71
5
72
5
7
iso_b_vert
0
POINT
5
1A1
100
AcDbEntity
8
Defpoints
62
0
6
ByLayer
370
-1
48
1
60
0
100
AcDbPoint
10
62
20
-6.747
30
0
39
0
210
0
220
0
230
1
50
360
0
POINT
5
1A2
100
AcDbEntity
8
Defpoints
62
0
6
ByLayer
370
-1
48
1
60
0
100
AcDbPoint
10
0
20
-6.747
30
0
39
0
210
0
220
0
230
1
50
360
0
POINT
5
1A3
100
AcDbEntity
8
Defpoints
62
0
6
ByLayer
370
-1
48
1
60
0
100
AcDbPoint
10
0
20
-43.298792
30
0
39
0
210
0
220
0
230
1
50
360
0
ENDBLK
5
19A
100
AcDbEntity
8
0
100
AcDbBlockEnd
0
BLOCK
5
1AB
100
AcDbEntity
8
0
100
AcDbBlockBegin
2
_U4
70
0
10
0
20
0
30
0
3
_U4
0
MTEXT
5
1A5
100
AcDbEntity
8
2
62
256
6
ByLayer
370
18
48
1
60
0
100
AcDbMText
10
29.367172
20
-42.413677
30
0
210
0
220
0
230
1
1
\W0.6740;62
40
3
41
0
44
1.084337
50
0
71
7
72
5
7
iso_b_vert
0
LINE
5
1A6
100
AcDbEntity
8
2
62
256
6
ByLayer
370
13
48
1
60
0
100
AcDbLine
10
62
20
-8.3345
30
0
11
62
21
-45.298792
31
0
39
0
210
0
220
0
230
1
0
LINE
5
1A7
100
AcDbEntity
8
2
62
256
6
ByLayer
370
13
48
1
60
0
100
AcDbLine
10
0
20
-8.3345
30
0
11
0
21
-45.298792
31
0
39
0
210
0
220
0
230
1
0
LINE
5
1A8
100
AcDbEntity
8
2
62
256
6
ByLayer
370
13
48
1
60
0
100
AcDbLine
10
62
20
-43.298792
30
0
11
0
21
-43.298792
31
0
39
0
210
0
220
0
230
1
0
SOLID
5
1A9
100
AcDbEntity
8
2
62
256
6
ByLayer
370
18
48
1
60
0
100
AcDbTrace
10
62
20
-43.298792
30
0
11
58.500002
21
-43.759575
31
0
12
58.499998
22
-42.838008
32
0
13
58.499998
23
-42.838008
33
0
39
0
210
0
220
0
230
1
0
SOLID
5
1AA
100
AcDbEntity
8
2
62
256
6
ByLayer
370
18
48
1
60
0
100
AcDbTrace
10
0
20
-43.298792
30
0
11
3.499998
21
-42.838008
31
0
12
3.500002
22
-43.759575
32
0
13
3.500002
23
-43.759575
33
0
39
0
210
0
220
0
230
1
0
ENDBLK
5
1AC
100
AcDbEntity
8
0
100
AcDbBlockEnd
0
ENDSEC
0
SECTION
2
ENTITIES
0
ARC
5
BC
100
AcDbEntity
8
1
62
256
6
ByLayer
370
18
48
1
60
0
100
AcDbCircle
39
0
10
1.009133
20
-7.441633
30
0
40
0.800000000000004
210
0
220
0
230
1
100
AcDbArc
50
89.896868
51
129.102365
0
ARC
5
BD
100
AcDbEntity
8
1
62
256
6
ByLayer
370
18
48
1
60
0
100
AcDbCircle
39
0
10
1.009133
20
7.441633
30
0
40
0.800000000000004
210
0
220
0
230
1
100
AcDbArc
50
230.897635
51
270.103132
0
ARC
5
BE
100
AcDbEntity
8
1
62
256
6
ByLayer
370
18
48
1
60
0
100
AcDbCircle
39
0
10
0
20
-6.2
30
0
40
0.799999999999997
210
0
220
0
230
1
100
AcDbArc
50
270
51
309.102365
0
ARC
5
BF
100
AcDbEntity
8
1
62
256
6
ByLayer
370
18
48
1
60
0
100
AcDbCircle
39
0
10
0
20
6.2
30
0
40
0.799999999999997
210
0
220
0
230
1
100
AcDbArc
50
50.897635
51
90
0
ARC
5
C0
100
AcDbEntity
8
SK2
62
256
6
ByLayer
370
13
48
1
60
0
100
AcDbCircle
39
0
10
62
20
0
30
0
40
23.868639369873
210
0
220
0
230
1
100
AcDbArc
50
7.220485
51
69.997804
0
ARC
5
C1
100
AcDbEntity
8
SK2
62
256
6
ByLayer
370
13
48
1
60
0
100
AcDbCircle
39
0
10
62
20
0
30
0
40
23.868639369873
210
0
220
0
230
1
100
AcDbArc
50
290.002196
51
352.779515
0
ELLIPSE
5
C2
100
AcDbEntity
8
1
62
256
6
ByLayer
370
13
48
1
60
0
100
AcDbEllipse
10
20.458093
20
-6.311655
30
0
11
-0.0038298810181105
21
0.00923753275431903
31
0
210
0
220
0
230
1
40
0.500197
41
0.204694270764442
42
1.55269716835271
0
ELLIPSE
5
C3
100
AcDbEntity
8
1
62
256
6
ByLayer
370
13
48
1
60
0
100
AcDbEllipse
10
20.500492
20
-6.305795
30
0
11
-0.00105371313686441
21
-0.00994432947086928
31
0
210
0
220
0
230
1
40
0.458862
41
-2.91933605414935
42
-1.34875487651518
0
POINT
5
70
100
AcDbEntity
8
81
62
256
6
ByLayer
370
18
48
1
60
0
100
AcDbPoint
10
62
20
0
30
0
39
0
210
0
220
0
230
1
50
360
0
POINT
5
72
100
AcDbEntity
8
80
62
256
6
ByLayer
370
18
48
1
60
0
100
AcDbPoint
10
0
20
0
30
0
39
0
210
0
220
0
230
1
50
360
0
POINT
5
74
100
AcDbEntity
8
1
62
256
6
ByLayer
370
18
48
1
60
0
100
AcDbPoint
10
-207.74068
20
-200
30
0
39
0
210
0
220
0
230
1
50
360
0
POINT
5
76
100
AcDbEntity
8
1
62
256
6
ByLayer
370
13
48
1
60
1
100
AcDbPoint
10
-46.5
20
0
30
0
39
0
210
0
220
0
230
1
50
360
0
POINT
5
77
100
AcDbEntity
8
1
62
256
6
ByLayer
370
13
48
1
60
1
100
AcDbPoint
10
61.054866
20
0
30
0
39
0
210
0
220
0
230
1
50
360
0
POINT
5
78
100
AcDbEntity
8
1
62
256
6
ByLayer
370
18
48
1
60
1
100
AcDbPoint
10
62
20
-6.747
30
0
39
0
210
0
220
0
230
1
50
360
0
POINT
5
79
100
AcDbEntity
8
1
62
256
6
ByLayer
370
18
48
1
60
1
100
AcDbPoint
10
20.4
20
-6.747
30
0
39
0
210
0
220
0
230
1
50
360
0
POINT
5
7A
100
AcDbEntity
8
1
62
256
6
ByLayer
370
18
48
1
60
1
100
AcDbPoint
10
62
20
-6.747
30
0
39
0
210
0
220
0
230
1
50
360
0
POINT
5
7B
100
AcDbEntity
8
1
62
256
6
ByLayer
370
18
48
1
60
1
100
AcDbPoint
10
2
20
-6.747
30
0
39
0
210
0
220
0
230
1
50
360
0
POINT
5
7C
100
AcDbEntity
8
1
62
256
6
ByLayer
370
18
48
1
60
1
100
AcDbPoint
10
-45
20
-7
30
0
39
0
210
0
220
0
230
1
50
360
0
POINT
5
7D
100
AcDbEntity
8
1
62
256
6
ByLayer
370
18
48
1
60
1
100
AcDbPoint
10
0
20
-7
30
0
39
0
210
0
220
0
230
1
50
360
0
POINT
5
7E
100
AcDbEntity
8
1
62
256
6
ByLayer
370
18
48
1
60
1
100
AcDbPoint
10
-45
20
-7
30
0
39
0
210
0
220
0
230
1
50
360
0
POINT
5
7F
100
AcDbEntity
8
1
62
256
6
ByLayer
370
18
48
1
60
1
100
AcDbPoint
10
62
20
-6.747
30
0
39
0
210
0
220
0
230
1
50
360
0
POINT
5
80
100
AcDbEntity
8
1
62
256
6
ByLayer
370
18
48
1
60
1
100
AcDbPoint
10
62
20
-6.747
30
0
39
0
210
0
220
0
230
1
50
360
0
POINT
5
81
100
AcDbEntity
8
1
62
256
6
ByLayer
370
18
48
1
60
1
100
AcDbPoint
10
0
20
-6.747
30
0
39
0
210
0
220
0
230
1
50
360
0
SPLINE
5
C4
100
AcDbEntity
8
1
62
256
6
ByLayer
370
18
48
1
60
0
100
AcDbSpline
70
4
71
3
72
8
73
4
40
0
40
0
40
0
40
0
40
1
40
1
40
1
40
1
41
1
10
61.3321392151831
20
2.15775396764045
30
0
41
1
10
61.5065043622889
20
1.66967388164338
30
0
41
1
10
61.6794435205092
20
1.18109261967416
30
0
41
1
10
61.8509284309049
20
0.692000249887428
30
0
0
SPLINE
5
C5
100
AcDbEntity
8
1
62
256
6
ByLayer
370
18
48
1
60
0
100
AcDbSpline
70
4
71
3
72
10
73
6
40
0
40
0
40
0
40
0
40
0.669765337486402
40
0.669765337486402
40
1
40
1
40
1
40
1
41
1
10
59.4340302330904
20
6.74665906084218
30
0
41
1
10
59.4627016132465
20
6.70006928741952
30
0
41
1
10
59.4913934142323
20
6.65328352945696
30
0
41
1
10
59.5342450305416
20
6.583178039225
30
0
41
1
10
59.5483943605441
20
6.55999406335749
30
0
41
1
10
59.5625572897765
20
6.53674451289723
30
0
0
SPLINE
5
C6
100
AcDbEntity
8
1
62
256
6
ByLayer
370
18
48
1
60
0
100
AcDbSpline
70
4
71
3
72
14
73
10
40
0
40
0
40
0
40
0
40
0.249999999999999
40
0.249999999999999
40
0.374999999999998
40
0.374999999999998
40
0.499999999999997
40
0.499999999999997
40
1
40
1
40
1
40
1
41
1
10
20.4534034304897
20
-6.31340296248877
30
0
41
1
10
20.4441604021451
20
-6.3167547978035
30
0
41
1
10
20.4363609355605
20
-6.32080765752178
30
0
41
1
10
20.42627584032
20
-6.32766425653651
30
0
41
1
10
20.4231989845631
20
-6.33008368120491
30
0
41
1
10
20.4177165613798
20
-6.33502364529508
30
0
41
1
10
20.4152838457771
20
-6.33756196550172
30
0
41
1
10
20.4045091348628
20
-6.3505591720419
30
0
41
1
10
20.4002948442769
20
-6.36203515597882
30
0
41
1
10
20.4002948442769
20
-6.37325902746366
30
0
0
SPLINE
5
C7
100
AcDbEntity
8
1
62
256
6
ByLayer
370
18
48
1
60
0
100
AcDbSpline
70
4
71
3
72
8
73
4
40
0
40
0
40
0
40
0
40
1
40
1
40
1
40
1
41
1
10
61.8509284309049
20
0.692000249887428
30
0
41
1
10
61.8988019081942
20
0.555460233606425
30
0
41
1
10
61.9476187906304
20
0.419444290069691
30
0
41
1
10
61.9973770104027
20
0.28393378148732
30
0
0
SPLINE
5
C8
100
AcDbEntity
8
1
62
256
6
ByLayer
370
18
48
1
60
0
100
AcDbSpline
70
4
71
3
72
16
73
12
40
0
40
0
40
0
40
0
40
0.126637525207448
40
0.126637525207448
40
0.235807834556513
40
0.235807834556513
40
0.344978143905577
40
0.344978143905577
40
0.563318762603719
40
0.563318762603719
40
1
40
1
40
1
40
1
41
1
10
23.3129922294852
20
-6.43118037124867
30
0
41
1
10
23.1945067413866
20
-6.43327022090972
30
0
41
1
10
23.0759104990966
20
-6.4344451373685
30
0
41
1
10
22.8548482720665
20
-6.43491609822658
30
0
41
1
10
22.7524141668967
20
-6.43444723938566
30
0
41
1
10
22.5473493094973
20
-6.43212672752514
30
0
41
1
10
22.4446955756634
20
-6.43027414362626
30
0
41
1
10
22.1369051439701
20
-6.42264513816659
30
0
41
1
10
21.931789259487
20
-6.41479743696695
30
0
41
1
10
21.3164858650841
20
-6.3829758240511
30
0
41
1
10
20.9063383814588
20
-6.35071773132029
30
0
41
1
10
20.4958092797202
20
-6.30751306757691
30
0
0
SPLINE
5
C9
100
AcDbEntity
8
1
62
256
6
ByLayer
370
13
48
1
60
0
100
AcDbSpline
70
4
71
3
72
10
73
6
40
0
40
0
40
0
40
0
40
0.5
40
0.5
40
1
40
1
40
1
40
1
41
1
10
20.4958092797205
20
-6.30751306757696
30
0
41
1
10
20.4884620989064
20
-6.30673983986864
30
0
41
1
10
20.481244288114
20
-6.30684642913101
30
0
41
1
10
20.4670661472193
20
-6.30878317657539
30
0
41
1
10
20.4600564838529
20
-6.31064087375964
30
0
41
1
10
20.4534034304897
20
-6.31340296248877
30
0
0
SPLINE
5
CA
100
AcDbEntity
8
1
62
256
6
ByLayer
370
13
48
1
60
0
100
AcDbSpline
70
4
71
3
72
8
73
4
40
0
40
0
40
0
40
0
40
1
40
1
40
1
40
1
41
1
10
20.4520703151164
20
-6.5443502439374
30
0
41
1
10
20.4525092420321
20
-6.46736893241078
30
0
41
1
10
20.4529536055202
20
-6.39038652493778
30
0
41
1
10
20.4534034304897
20
-6.31340296248877
30
0
0
SPLINE
5
CB
100
AcDbEntity
8
1
62
256
6
ByLayer
370
18
48
1
60
0
100
AcDbSpline
70
4
71
3
72
14
73
10
40
0
40
0
40
0
40
0
40
0.514403326188071
40
0.514403326188071
40
0.771604989282106
40
0.771604989282106
40
0.900205820829131
40
0.900205820829131
40
1
40
1
40
1
40
1
41
1
10
20.5005143343869
20
-6.29598844798875
30
0
41
1
10
20.91042192652
20
-6.33935647580512
30
0
41
1
10
21.3199499273181
20
-6.37182996144608
30
0
41
1
10
21.9343245164086
20
-6.40405072027067
30
0
41
1
10
22.1391308622359
20
-6.41204414354863
30
0
41
1
10
22.4464563444188
20
-6.41991084907983
30
0
41
1
10
22.5489555743218
20
-6.42184590949307
30
0
41
1
10
22.7307827680654
20
-6.42405845143975
30
0
41
1
10
22.810170818219
20
-6.42461069661098
30
0
41
1
10
22.8895035901179
20
-6.42475051767357
30
0
0
SPLINE
5
CC
100
AcDbEntity
8
1
62
256
6
ByLayer
370
13
48
1
60
0
100
AcDbSpline
70
4
71
3
72
10
73
6
40
0
40
0
40
0
40
0
40
0.5
40
0.5
40
1
40
1
40
1
40
1
41
1
10
20.5426268462381
20
-0.22581906398193
30
0
41
1
10
20.5361598601317
20
-0.222383003905804
30
0
41
1
10
20.5294119457475
20
-0.219793997021895
30
0
41
1
10
20.5153738822294
20
-0.216251050086697
30
0
41
1
10
20.5080528042648
20
-0.215314597143077
30
0
41
1
10
20.5007292633356
20
-0.215281789267152
30
0
0
SPLINE
5
CD
100
AcDbEntity
8
1
62
256
6
ByLayer
370
18
48
1
60
0
100
AcDbSpline
70
4
71
3
72
10
73
6
40
0
40
0
40
0
40
0
40
0.5
40
0.5
40
1
40
1
40
1
40
1
41
1
10
61.3321392151831
20
2.15775396764042
30
0
41
1
10
61.1911322686168
20
2.13871751017726
30
0
41
1
10
61.0499637100712
20
2.12184953266791
30
0
41
1
10
60.767428398944
20
2.09077290894155
30
0
41
1
10
60.6260601976948
20
2.07658370068273
30
0
41
1
10
60.4846107358153
20
2.06348483268593
30
0
0
SPLINE
5
CE
100
AcDbEntity
8
1
62
256
6
ByLayer
370
18
48
1
60
0
100
AcDbSpline
70
4
71
3
72
31
73
27
40
0
40
0
40
0
40
0
40
0.124999999999995
40
0.124999999999995
40
0.18749999999999
40
0.18749999999999
40
0.249999999999985
40
0.249999999999985
40
0.281249999999983
40
0.281249999999983
40
0.312499999999981
40
0.312499999999981
40
0.374999999999976
40
0.374999999999976
40
0.390624999999974
40
0.390624999999974
40
0.406249999999972
40
0.406249999999972
40
0.437499999999971
40
0.499999999999974
40
0.499999999999974
40
0.62499999999998
40
0.62499999999998
40
0.749999999999987
40
0.749999999999987
40
1
40
1
40
1
40
1
41
1
10
61.3321392151832
20
2.15775396764045
30
0
41
1
10
61.2537882055108
20
2.30180740662229
30
0
41
1
10
61.1779848629305
20
2.45154539724805
30
0
41
1
10
61.0675877823755
20
2.6844660435992
30
0
41
1
10
61.0313406428453
20
2.76349733334064
30
0
41
1
10
60.9598531010173
20
2.92431032790162
30
0
41
1
10
60.9246024433205
20
3.00605299054439
30
0
41
1
10
60.8724138096574
20
3.13074809051241
30
0
41
1
10
60.8551262802354
20
3.17268502477904
30
0
41
1
10
60.8209897297994
20
3.25672268273377
30
0
41
1
10
60.8041128764776
20
3.29888889562818
30
0
41
1
10
60.7540260036373
20
3.42581601604539
30
0
41
1
10
60.7213608263537
20
3.51100639807547
30
0
41
1
10
60.6813259498722
20
3.61815659765247
30
0
41
1
10
60.6733663308903
20
3.63962618343996
30
0
41
1
10
60.6574819628958
20
3.68259432190462
30
0
41
1
10
60.6495465141978
20
3.70408437595521
30
0
41
1
10
60.6257620524727
20
3.76856764653726
30
0
41
1
10
60.5782885478106
20
3.89756521165089
30
0
41
1
10
60.531098147869
20
4.02665430193704
30
0
41
1
10
60.4370864365139
20
4.28495023729874
30
0
41
1
10
60.3749049435023
20
4.45730488161317
30
0
41
1
10
60.2514690296086
20
4.80229994861469
30
0
41
1
10
60.1901854949316
20
4.97502271940826
30
0
41
1
10
60.0080143900941
20
5.49240805124802
30
0
41
1
10
59.8887095964852
20
5.83656314098494
30
0
41
1
10
59.7709262997636
20
6.17932984436899
30
0
0
SPLINE
5
CF
100
AcDbEntity
8
1
62
256
6
ByLayer
370
18
48
1
60
0
100
AcDbSpline
70
4
71
3
72
8
73
4
40
0
40
0
40
0
40
0
40
1
40
1
40
1
40
1
41
1
10
59.7709262997636
20
6.17932984436899
30
0
41
1
10
59.7159385269072
20
6.27463743564738
30
0
41
1
10
59.6609812245376
20
6.36995018035378
30
0
41
1
10
59.6060659808424
20
6.4652470164967
30
0
0
SPLINE
5
D0
100
AcDbEntity
8
1
62
256
6
ByLayer
370
18
48
1
60
0
100
AcDbSpline
70
4
71
3
72
34
73
30
40
0
40
0
40
0
40
0
40
0.0331807010877515
40
0.0331807010877515
40
0.0663614021755035
40
0.0663614021755035
40
0.132722804351007
40
0.132722804351007
40
0.265445608702018
40
0.265445608702018
40
0.398168413053029
40
0.398168413053029
40
0.464529815228537
40
0.464529815228537
40
0.49771051631629
40
0.49771051631629
40
0.530891217404043
40
0.530891217404043
40
0.663614021755054
40
0.663614021755054
40
0.72997542393056
40
0.72997542393056
40
0.796336826106068
40
0.796336826106068
40
0.929059630457082
40
0.929059630457082
40
0.995421032632591
40
0.995421032632591
40
1
40
1
40
1
40
1
41
1
10
59.6060659808341
20
6.46524701649651
30
0
41
1
10
59.5038849324667
20
6.46632368921979
30
0
41
1
10
59.4016581610866
20
6.46670125055655
30
0
41
1
10
59.1973152229265
20
6.46606327731647
30
0
41
1
10
59.0951934110859
20
6.46504845007056
30
0
41
1
10
58.7889561080858
20
6.45993294046087
30
0
41
1
10
58.5849697264473
20
6.4537621672859
30
0
41
1
10
57.9733288633539
20
6.42708444928294
30
0
41
1
10
57.5659643082296
20
6.39839454010854
30
0
41
1
10
56.7510959463281
20
6.31964027976565
30
0
41
1
10
56.3436257853341
20
6.26960496895316
30
0
41
1
10
55.7316993087238
20
6.17873071967236
30
0
41
1
10
55.527596679867
20
6.14580165849716
30
0
41
1
10
55.2211648075141
20
6.09246284689621
30
0
41
1
10
55.1189496189991
20
6.07402077240997
30
0
41
1
10
54.9145526493472
20
6.03584690745129
30
0
41
1
10
54.8123778662572
20
6.01611691798658
30
0
41
1
10
54.3015926638341
20
5.91425971701307
30
0
41
1
10
53.8932817838433
20
5.8224167191907
30
0
41
1
10
53.2805351534996
20
5.66989063913582
30
0
41
1
10
53.076204467374
20
5.61659193170925
30
0
41
1
10
52.6674226973785
20
5.50524382932934
30
0
41
1
10
52.4631237392411
20
5.44723619069833
30
0
41
1
10
51.8503417527657
20
5.26643030900135
30
0
41
1
10
51.4420061619951
20
5.1368327557081
30
0
41
1
10
50.8290324920855
20
4.92965174375843
30
0
41
1
10
50.6245883623634
20
4.85844843631938
30
0
41
1
10
50.4060963989739
20
4.78019128008455
30
0
41
1
10
50.3919935423762
20
4.77513045469522
30
0
41
1
10
50.3778907511647
20
4.77006005914404
30
0
0
SPLINE
5
D1
100
AcDbEntity
8
1
62
256
6
ByLayer
370
18
48
1
60
0
100
AcDbSpline
70
4
71
3
72
26
73
22
40
0
40
0
40
0
40
0
40
0.0381693435236526
40
0.0381693435236526
40
0.0887920096539939
40
0.0887920096539939
40
0.190037341914676
40
0.190037341914676
40
0.24066000804501
40
0.24066000804501
40
0.291282674175345
40
0.291282674175345
40
0.392528006436014
40
0.392528006436014
40
0.493773338696683
40
0.493773338696683
40
0.595018670957353
40
0.595018670957353
40
0.797509335478677
40
0.797509335478677
40
1
40
1
40
1
40
1
41
1
10
58.9360778964189
20
1.64006133062401
30
0
41
1
10
58.9520881455626
20
1.63495506917772
30
0
41
1
10
58.9682254938549
20
1.62962399558893
30
0
41
1
10
59.0057337338686
20
1.61727823879505
30
0
41
1
10
59.0269933055905
20
1.61046045767702
30
0
41
1
10
59.0916260101924
20
1.58849658339488
30
0
41
1
10
59.135688467946
20
1.57213121690378
30
0
41
1
10
59.2030689536869
20
1.54530708531843
30
0
41
1
10
59.2257442314928
20
1.53598521254011
30
0
41
1
10
59.2715024725236
20
1.51662035568185
30
0
41
1
10
59.2945934279049
20
1.5065680876252
30
0
41
1
10
59.3640251096532
20
1.47562808069404
30
0
41
1
10
59.4106506762749
20
1.45393215421035
30
0
41
1
10
59.5043895685643
20
1.40899627624597
30
0
41
1
10
59.5515154984948
20
1.38571642535766
30
0
41
1
10
59.6462686823918
20
1.33756975794819
30
0
41
1
10
59.6938968004349
20
1.31270020615068
30
0
41
1
10
59.8374424449525
20
1.23599820385121
30
0
41
1
10
59.9339825281255
20
1.18219501982367
30
0
41
1
10
60.1289613590934
20
1.06857833650884
30
0
41
1
10
60.2273659414
20
1.00887298973694
30
0
41
1
10
60.3265232872885
20
0.946784733213264
30
0
0
SPLINE
5
D2
100
AcDbEntity
8
1
62
256
6
ByLayer
370
18
48
1
60
0
100
AcDbSpline
70
4
71
3
72
26
73
22
40
0
40
0
40
0
40
0
40
0.157319241731881
40
0.157319241731881
40
0.314638483463762
40
0.314638483463762
40
0.353968293896732
40
0.353968293896732
40
0.393298104329702
40
0.393298104329702
40
0.471957725195643
40
0.471957725195643
40
0.629276966927524
40
0.629276966927524
40
0.707936587793465
40
0.707936587793465
40
0.786596208659406
40
0.786596208659406
40
0.943915450391308
40
0.943915450391308
40
1
40
1
40
1
40
1
41
1
10
60.4846107358153
20
2.06348483268587
30
0
41
1
10
60.4040936413757
20
2.05602858097919
30
0
41
1
10
60.3245707663127
20
2.04425513922598
30
0
41
1
10
60.1674871473254
20
2.0122607710457
30
0
41
1
10
60.0899283215966
20
1.99203119222301
30
0
41
1
10
59.9941211594592
20
1.96189838550095
30
0
41
1
10
59.9750163022365
20
1.95563178500044
30
0
41
1
10
59.9369155846407
20
1.94263860934541
30
0
41
1
10
59.9178958805335
20
1.93590240128705
30
0
41
1
10
59.8614603074449
20
1.91521407847054
30
0
41
1
10
59.8245241630868
20
1.9007364945015
30
0
41
1
10
59.715607253373
20
1.85568694694891
30
0
41
1
10
59.6455137600805
20
1.8235041954845
30
0
41
1
10
59.5435512939533
20
1.77360914436264
30
0
41
1
10
59.5100943232832
20
1.75670598464231
30
0
41
1
10
59.4441539098043
20
1.72260939296422
30
0
41
1
10
59.411603774358
20
1.70537853136543
30
0
41
1
10
59.316629600107
20
1.65434337032565
30
0
41
1
10
59.2565434684032
20
1.62081895807748
30
0
41
1
10
59.178291930682
20
1.57773751917082
30
0
41
1
10
59.1580347734147
20
1.56663374398866
30
0
41
1
10
59.1380713722741
20
1.55577786514925
30
0
0
SPLINE
5
D3
100
AcDbEntity
8
1
62
256
6
ByLayer
370
18
48
1
60
0
100
AcDbSpline
70
4
71
3
72
8
73
4
40
0
40
0
40
0
40
0
40
1
40
1
40
1
40
1
41
1
10
59.7709262997637
20
-6.17932984436891
30
0
41
1
10
59.7159385269073
20
-6.27463743564724
30
0
41
1
10
59.6609812245378
20
-6.36995018035358
30
0
41
1
10
59.6060659808426
20
-6.46524701649642
30
0
0
SPLINE
5
D4
100
AcDbEntity
8
1
62
256
6
ByLayer
370
18
48
1
60
0
100
AcDbSpline
70
4
71
3
72
8
73
4
40
0
40
0
40
0
40
0
40
1
40
1
40
1
40
1
41
1
10
20.4002948442769
20
6.66428244080638
30
0
41
1
10
20.4002948442769
20
6.59308943783239
30
0
41
1
10
20.400294844277
20
6.52158499356136
30
0
41
1
10
20.400294844277
20
6.44977465945539
30
0
0
SPLINE
5
D5
100
AcDbEntity
8
1
62
256
6
ByLayer
370
18
48
1
60
0
100
AcDbSpline
70
2053
71
3
72
126
73
122
40
0
40
0
40
0
40
0
40
0.0312500000000062
40
0.0312500000000062
40
0.0625000000000124
40
0.0625000000000124
40
0.0781250000000157
40
0.0781250000000157
40
0.0937500000000189
40
0.0937500000000189
40
0.125000000000023
40
0.125000000000023
40
0.132812500000024
40
0.132812500000024
40
0.140625000000025
40
0.156250000000026
40
0.156250000000026
40
0.187500000000026
40
0.187500000000026
40
0.195312500000027
40
0.195312500000027
40
0.203125000000027
40
0.218750000000027
40
0.234375000000027
40
0.234375000000027
40
0.242187500000027
40
0.242187500000027
40
0.250000000000027
40
0.250000000000027
40
0.281250000000027
40
0.281250000000027
40
0.296875000000027
40
0.296875000000027
40
0.304687500000027
40
0.304687500000027
40
0.312500000000027
40
0.312500000000027
40
0.343750000000029
40
0.343750000000029
40
0.351562500000031
40
0.351562500000031
40
0.359375000000032
40
0.375000000000035
40
0.375000000000035
40
0.390625000000037
40
0.390625000000037
40
0.40625000000004
40
0.421875000000043
40
0.421875000000043
40
0.429687500000045
40
0.429687500000045
40
0.437500000000048
40
0.437500000000048
40
0.468750000000056
40
0.468750000000056
40
0.48437500000006
40
0.48437500000006
40
0.492187500000062
40
0.492187500000062
40
0.500000000000063
40
0.500000000000063
40
0.531250000000071
40
0.531250000000071
40
0.539062500000072
40
0.539062500000072
40
0.546875000000074
40
0.546875000000074
40
0.562500000000073
40
0.562500000000073
40
0.59375000000007
40
0.59375000000007
40
0.601562500000071
40
0.601562500000071
40
0.609375000000071
40
0.609375000000071
40
0.62500000000007
40
0.62500000000007
40
0.656250000000066
40
0.656250000000066
40
0.671875000000063
40
0.671875000000063
40
0.68750000000006
40
0.68750000000006
40
0.718750000000054
40
0.718750000000054
40
0.726562500000053
40
0.726562500000053
40
0.734375000000051
40
0.750000000000048
40
0.765625000000045
40
0.765625000000045
40
0.773437500000044
40
0.773437500000044
40
0.781250000000043
40
0.781250000000043
40
0.812500000000037
40
0.812500000000037
40
0.820312500000035
40
0.820312500000035
40
0.828125000000033
40
0.828125000000033
40
0.843750000000029
40
0.859375000000026
40
0.859375000000026
40
0.875000000000022
40
0.875000000000022
40
0.906250000000012
40
0.906250000000012
40
0.91406250000001
40
0.91406250000001
40
0.921875000000008
40
0.937500000000007
40
0.953125000000006
40
0.953125000000006
40
0.968750000000005
40
0.968750000000005
40
0.984375000000004
40
0.984375000000004
40
0.992187500000002
40
0.992187500000002
40
1
40
1
40
1
40
1
41
1
10
60.3902075964022
20
-2.61681489887758
30
0
41
1
10
60.367891993381
20
-2.64351699314139
30
0
41
1
10
60.3465595655754
20
-2.6653610659873
30
0
41
1
10
60.305648592682
20
-2.69989830814569
30
0
41
1
10
60.2860711165862
20
-2.71258920891646
30
0
41
1
10
60.2579749995352
20
-2.72445561556899
30
0
41
1
10
60.2489375543871
20
-2.72715742885819
30
0
41
1
10
60.2315386434815
20
-2.73009298757987
30
0
41
1
10
60.2231678722903
20
-2.73033058380037
30
0
41
1
10
60.1990109896765
20
-2.72735423956866
30
0
41
1
10
60.184171907185
20
-2.72048621338865
30
0
41
1
10
60.1672237375868
20
-2.70531811172879
30
0
41
1
10
60.1639275302571
20
-2.70196225290439
30
0
41
1
10
60.1575577564984
20
-2.69464909333198
30
0
41
1
10
60.148319568287
20
-2.68275791709729
30
0
41
1
10
60.1400117812585
20
-2.66812622017167
30
0
41
1
10
60.124624417457
20
-2.63516985052686
30
0
41
1
10
60.1159890087117
20
-2.60831662855065
30
0
41
1
10
60.1073790060323
20
-2.56797524751534
30
0
41
1
10
60.1057756513152
20
-2.55959952981007
30
0
41
1
10
60.1028257853074
20
-2.54234591420044
30
0
41
1
10
60.0987769094655
20
-2.5156606917528
30
0
41
1
10
60.0938909480851
20
-2.46718399167332
30
0
41
1
10
60.0919971647503
20
-2.42406231075989
30
0
41
1
10
60.0913719868705
20
-2.39001300680169
30
0
41
1
10
60.0912964288137
20
-2.37837799345599
30
0
41
1
10
60.0914217824343
20
-2.35451623658753
30
0
41
1
10
60.0916243245136
20
-2.34224854300553
30
0
41
1
10
60.0933372933544
20
-2.28013009133414
30
0
41
1
10
60.0969092012607
20
-2.22767118613274
30
0
41
1
10
60.1057175160726
20
-2.14478655036714
30
0
41
1
10
60.1092335868856
20
-2.11645367832341
30
0
41
1
10
60.1154476730732
20
-2.0728366062053
30
0
41
1
10
60.1176712026764
20
-2.05815239231805
30
0
41
1
10
60.1223742857141
20
-2.0288204810121
30
0
41
1
10
60.1248603396031
20
-2.01412623397712
30
0
41
1
10
60.1379621909221
20
-1.94051727457506
30
0
41
1
10
60.1505691692316
20
-1.88119368174213
30
0
41
1
10
60.1692029089723
20
-1.80650919320848
30
0
41
1
10
60.173065151124
20
-1.79158859559237
30
0
41
1
10
60.1809800239657
20
-1.76208337645605
30
0
41
1
10
60.1931721168454
20
-1.71819669736618
30
0
41
1
10
60.2063110075958
20
-1.67539547048472
30
0
41
1
10
60.2246746572288
20
-1.61927509563986
30
0
41
1
10
60.2342902646878
20
-1.5916586990781
30
0
41
1
10
60.2543476085446
20
-1.53751045394171
30
0
41
1
10
60.2749179811423
20
-1.48528058852415
30
0
41
1
10
60.2964801606428
20
-1.43665020702153
30
0
41
1
10
60.3130191995143
20
-1.40148138013933
30
0
41
1
10
60.3185935282102
20
-1.38997618539554
30
0
41
1
10
60.3298650021909
20
-1.3673984275236
30
0
41
1
10
60.335573972019
20
-1.35630375595954
30
0
41
1
10
60.3642861402448
20
-1.30217767708962
30
0
41
1
10
60.387546107904
20
-1.26357839823172
30
0
41
1
10
60.422832976195
20
-1.21201868569369
30
0
41
1
10
60.4346614659106
20
-1.19589753882724
30
0
41
1
10
60.4524988697953
20
-1.17329485326229
30
0
41
1
10
60.4584515959369
20
-1.16603676380095
30
0
41
1
10
60.4702862675574
20
-1.15216033219821
30
0
41
1
10
60.476180243061
20
-1.14552655623493
30
0
41
1
10
60.5055338540525
20
-1.11383750977072
30
0
41
1
10
60.5286491833638
20
-1.0931829906344
30
0
41
1
10
60.5570458938087
20
-1.07297247464067
30
0
41
1
10
60.5627000836262
20
-1.06921311511735
30
0
41
1
10
60.5739560665315
20
-1.06226262376671
30
0
41
1
10
60.5795663704787
20
-1.05906791529387
30
0
41
1
10
60.5961842687546
20
-1.05040876379434
30
0
41
1
10
60.6070158951511
20
-1.0458412981917
30
0
41
1
10
60.6387682936437
20
-1.03564037122985
30
0
41
1
10
60.6589536064464
20
-1.03347838268925
30
0
41
1
10
60.6828476044593
20
-1.03665960387832
30
0
41
1
10
60.6875589593493
20
-1.03759244898538
30
0
41
1
10
60.6968416472688
20
-1.0400635919469
30
0
41
1
10
60.7014231763197
20
-1.04160674454249
30
0
41
1
10
60.7148465468866
20
-1.04712382424083
30
0
41
1
10
60.7233804797008
20
-1.05197971287032
30
0
41
1
10
60.7477206412676
20
-1.07004995328785
30
0
41
1
10
60.7622774444169
20
-1.08673231625659
30
0
41
1
10
60.7813396900088
20
-1.11917284003738
30
0
41
1
10
60.787228827559
20
-1.13123051203729
30
0
41
1
10
60.7979891882854
20
-1.15803255427184
30
0
41
1
10
60.802790017719
20
-1.17261379072244
30
0
41
1
10
60.8153296343554
20
-1.21969657034208
30
0
41
1
10
60.8212656685675
20
-1.25559510534515
30
0
41
1
10
60.8252916747745
20
-1.30674038359908
30
0
41
1
10
60.8259267650824
20
-1.31732015660899
30
0
41
1
10
60.8268319148541
20
-1.33896846272978
30
0
41
1
10
60.8276418142145
20
-1.37210847587957
30
0
41
1
10
60.8262763013909
20
-1.43065470214447
30
0
41
1
10
60.8222618025042
20
-1.4810790005221
30
0
41
1
10
60.8181133240475
20
-1.52030804864407
30
0
41
1
10
60.8165405545613
20
-1.53362002055081
30
0
41
1
10
60.8130035075954
20
-1.56073274474761
30
0
41
1
10
60.8110337689724
20
-1.57456121810438
30
0
41
1
10
60.8003428240228
20
-1.64392644886252
30
0
41
1
10
60.7890346072824
20
-1.70086240862162
30
0
41
1
10
60.7716144172941
20
-1.77384477936087
30
0
41
1
10
60.7679645383406
20
-1.78853281860566
30
0
41
1
10
60.7603306279234
20
-1.8180961155025
30
0
41
1
10
60.7563454771117
20
-1.83297070473526
30
0
41
1
10
60.7440600381025
20
-1.87726577975616
30
0
41
1
10
60.7266991538625
20
-1.9358626883342
30
0
41
1
10
60.7075154707645
20
-1.99358986531035
30
0
41
1
10
60.6874567914258
20
-2.05089527684817
30
0
41
1
10
60.6769489465396
20
-2.07942951232246
30
0
41
1
10
60.6448758627968
20
-2.16252694402138
30
0
41
1
10
60.622569621664
20
-2.21522046584653
30
0
41
1
10
60.5936946661691
20
-2.27795916566177
30
0
41
1
10
60.5878548536732
20
-2.29037867286792
30
0
41
1
10
60.5761545019845
20
-2.31473944630002
30
0
41
1
10
60.5585895243676
20
-2.35052958163064
30
0
41
1
10
60.529256701713
20
-2.40657805573821
30
0
41
1
10
60.5057461846675
20
-2.44774868462565
30
0
41
1
10
60.4822173936119
20
-2.48711518997243
30
0
41
1
10
60.470403270386
20
-2.50595380513818
30
0
41
1
10
60.4470748236501
20
-2.54133631623242
30
0
41
1
10
60.43553530984
20
-2.55792884658808
30
0
41
1
10
60.4184048005359
20
-2.5812141292655
30
0
41
1
10
60.4127244524736
20
-2.58870813888501
30
0
41
1
10
60.4014223228852
20
-2.60316235962952
30
0
41
1
10
60.3957864971575
20
-2.61013937531163
30
0
41
1
10
60.3902075964022
20
-2.61681489887758
30
0
0
SPLINE
5
D6
100
AcDbEntity
8
1
62
256
6
ByLayer
370
18
48
1
60
0
100
AcDbSpline
70
4
71
3
72
15
73
11
40
0
40
0
40
0
40
0
40
0.499999999999985
40
0.499999999999985
40
0.624999999999981
40
0.624999999999981
40
0.687499999999984
40
0.687499999999984
40
0.749999999999987
40
1
40
1
40
1
40
1
41
1
10
59.7709262997632
20
-6.17932984436999
30
0
41
1
10
59.72034542333
20
-6.25449382723394
30
0
41
1
10
59.6740786113072
20
-6.31753146322751
30
0
41
1
10
59.6215374672711
20
-6.37972896333679
30
0
41
1
10
59.6112936031018
20
-6.39133650399762
30
0
41
1
10
59.5963217439423
20
-6.40746611327631
30
0
41
1
10
59.5913940948045
20
-6.41263129088782
30
0
41
1
10
59.5817231212049
20
-6.42247560010875
30
0
41
1
10
59.5579726836354
20
-6.44590826616493
30
0
41
1
10
59.5363009311857
20
-6.46352416717676
30
0
41
1
10
59.5201665516818
20
-6.47403690015315
30
0
0
SPLINE
5
D7
100
AcDbEntity
8
1
62
256
6
ByLayer
370
18
48
1
60
0
100
AcDbSpline
70
4
71
3
72
31
73
27
40
0
40
0
40
0
40
0
40
0.124999999999999
40
0.124999999999999
40
0.187499999999998
40
0.187499999999998
40
0.249999999999998
40
0.249999999999998
40
0.281249999999998
40
0.281249999999998
40
0.312499999999997
40
0.312499999999997
40
0.374999999999997
40
0.374999999999997
40
0.390624999999997
40
0.390624999999997
40
0.406249999999997
40
0.406249999999997
40
0.437499999999997
40
0.499999999999998
40
0.499999999999998
40
0.624999999999999
40
0.624999999999999
40
0.749999999999999
40
0.749999999999999
40
1
40
1
40
1
40
1
41
1
10
61.3321392151831
20
-2.15775396764042
30
0
41
1
10
61.2537882055108
20
-2.30180740662226
30
0
41
1
10
61.1779848629305
20
-2.45154539724803
30
0
41
1
10
61.0675877823755
20
-2.68446604359914
30
0
41
1
10
61.0313406428454
20
-2.76349733334058
30
0
41
1
10
60.9598531010174
20
-2.92431032790154
30
0
41
1
10
60.9246024433205
20
-3.00605299054428
30
0
41
1
10
60.8724138096574
20
-3.13074809051227
30
0
41
1
10
60.8551262802355
20
-3.1726850247789
30
0
41
1
10
60.8209897297995
20
-3.25672268273365
30
0
41
1
10
60.8041128764776
20
-3.29888889562804
30
0
41
1
10
60.7540260036374
20
-3.42581601604525
30
0
41
1
10
60.7213608263537
20
-3.5110063980753
30
0
41
1
10
60.6813259498723
20
-3.6181565976523
30
0
41
1
10
60.6733663308905
20
-3.63962618343982
30
0
41
1
10
60.6574819628959
20
-3.68259432190445
30
0
41
1
10
60.6495465141979
20
-3.70408437595506
30
0
41
1
10
60.6257620524727
20
-3.76856764653709
30
0
41
1
10
60.5782885478106
20
-3.89756521165074
30
0
41
1
10
60.5310981478691
20
-4.02665430193687
30
0
41
1
10
60.4370864365141
20
-4.2849502372986
30
0
41
1
10
60.3749049435024
20
-4.45730488161303
30
0
41
1
10
60.2514690296086
20
-4.80229994861458
30
0
41
1
10
60.1901854949317
20
-4.97502271940812
30
0
41
1
10
60.0080143900942
20
-5.49240805124791
30
0
41
1
10
59.8887095964852
20
-5.83656314098482
30
0
41
1
10
59.7709262997637
20
-6.17932984436891
30
0
0
SPLINE
5
D8
100
AcDbEntity
8
1
62
256
6
ByLayer
370
18
48
1
60
0
100
AcDbSpline
70
4
71
3
72
8
73
4
40
0
40
0
40
0
40
0
40
1
40
1
40
1
40
1
41
1
10
61.3321392151831
20
-2.15775396764042
30
0
41
1
10
61.506504362289
20
-1.66967388164332
30
0
41
1
10
61.6794435205092
20
-1.18109261967407
30
0
41
1
10
61.850928430905
20
-0.692000249887258
30
0
0
SPLINE
5
D9
100
AcDbEntity
8
1
62
256
6
ByLayer
370
18
48
1
60
0
100
AcDbSpline
70
4
71
3
72
8
73
4
40
0
40
0
40
0
40
0
40
1
40
1
40
1
40
1
41
1
10
61.850928430905
20
-0.692000249887286
30
0
41
1
10
61.8988019081943
20
-0.55546023360634
30
0
41
1
10
61.9476187906304
20
-0.419444290069606
30
0
41
1
10
61.9973770104026
20
-0.28393378148732
30
0
0
SPLINE
5
DA
100
AcDbEntity
8
1
62
256
6
ByLayer
370
18
48
1
60
0
100
AcDbSpline
70
4
71
3
72
8
73
4
40
0
40
0
40
0
40
0
40
1
40
1
40
1
40
1
41
1
10
61.9973770104026
20
0.283933781487349
30
0
41
1
10
62.0008663048548
20
0.0950789402282624
30
0
41
1
10
62.0008823918784
20
-0.0942082449217878
30
0
41
1
10
61.9973770104026
20
-0.28393378148732
30
0
0
SPLINE
5
DB
100
AcDbEntity
8
1
62
256
6
ByLayer
370
18
48
1
60
0
100
AcDbSpline
70
4
71
3
72
60
73
56
40
0
40
0
40
0
40
0
40
0.0625000000000023
40
0.0625000000000023
40
0.0937500000000056
40
0.0937500000000056
40
0.109375000000009
40
0.109375000000009
40
0.125000000000013
40
0.125000000000013
40
0.187500000000024
40
0.187500000000024
40
0.250000000000034
40
0.250000000000034
40
0.28125000000004
40
0.28125000000004
40
0.29687500000004
40
0.29687500000004
40
0.31250000000004
40
0.31250000000004
40
0.375000000000041
40
0.375000000000041
40
0.437500000000042
40
0.437500000000042
40
0.453125000000044
40
0.453125000000044
40
0.468750000000047
40
0.468750000000047
40
0.500000000000048
40
0.500000000000048
40
0.562500000000044
40
0.562500000000044
40
0.593750000000044
40
0.593750000000044
40
0.609375000000045
40
0.609375000000045
40
0.625000000000045
40
0.625000000000045
40
0.687500000000038
40
0.687500000000038
40
0.718750000000032
40
0.718750000000032
40
0.734375000000031
40
0.734375000000031
40
0.75000000000003
40
0.75000000000003
40
0.812500000000023
40
0.812500000000023
40
0.875000000000016
40
0.875000000000016
40
0.906250000000013
40
0.906250000000013
40
0.937500000000009
40
0.937500000000009
40
1
40
1
40
1
40
1
41
1
10
61.9973770104026
20
0.28393378148732
30
0
41
1
10
61.9727765402745
20
0.212638686892802
30
0
41
1
10
61.9468612049582
20
0.141964970817895
30
0
41
1
10
61.906020653932
20
0.0368964998939703
30
0
41
1
10
61.8920784032145
20
0.0020310812392381
30
0
41
1
10
61.8706643011151
20
-0.0500257112514078
30
0
41
1
10
61.8634427504908
20
-0.0673377225741945
30
0
41
1
10
61.8488305313292
20
-0.101879971419066
30
0
41
1
10
61.8414272176452
20
-0.119139141780437
30
0
41
1
10
61.8041414970638
20
-0.204859361798015
30
0
41
1
10
61.7736128009589
20
-0.271253573929783
30
0
41
1
10
61.711262936317
20
-0.399695027393051
30
0
41
1
10
61.6794419671884
20
-0.461743403790052
30
0
41
1
10
61.6307574801971
20
-0.551408399904858
30
0
41
1
10
61.6143697961828
20
-0.580727043075456
30
0
41
1
10
61.5895440242717
20
-0.62381323637976
30
0
41
1
10
61.5812280064117
20
-0.638026527857534
30
0
41
1
10
61.5645129258725
20
-0.666147434913142
30
0
41
1
10
61.5561213616766
20
-0.680041210668094
30
0
41
1
10
61.5143340155406
20
-0.748113985279019
30
0
41
1
10
61.4811558660564
20
-0.798620787233062
30
0
41
1
10
61.4153086565124
20
-0.89177628146399
30
0
41
1
10
61.3826396878242
20
-0.934426613878458
30
0
41
1
10
61.3421109191233
20
-0.982579915267564
30
0
41
1
10
61.33402047587
20
-0.991951409328721
30
0
41
1
10
61.31786967589
20
-1.01016476470954
30
0
41
1
10
61.3097938224563
20
-1.01902235513197
30
0
41
1
10
61.2858150282655
20
-1.04456696130086
30
0
41
1
10
61.270110792287
20
-1.06028718623389
30
0
41
1
10
61.2238031497209
20
-1.10360711100441
30
0
41
1
10
61.1940026561709
20
-1.12738276204891
30
0
41
1
10
61.1507947125468
20
-1.15541932137282
30
0
41
1
10
61.1366414328608
20
-1.16348945382546
30
0
41
1
10
61.1157760302398
20
-1.17364677892081
30
0
41
1
10
61.1088679853474
20
-1.17671284371812
30
0
41
1
10
61.0952450233094
20
-1.18215795865169
30
0
41
1
10
61.0885363162016
20
-1.18453602870054
30
0
41
1
10
61.0554885582684
20
-1.19473901379678
30
0
41
1
10
61.030630332887
20
-1.1975237701709
30
0
41
1
10
60.9954510655692
20
-1.19402447509484
30
0
41
1
10
60.9840772845346
20
-1.19157427929909
30
0
41
1
10
60.9675230272186
20
-1.18598641593644
30
0
41
1
10
60.9620894069764
20
-1.18380480348844
30
0
41
1
10
60.9513880634044
20
-1.1788030730572
30
0
41
1
10
60.9461112561207
20
-1.17597701943893
30
0
41
1
10
60.9202721331424
20
-1.16033182383799
30
0
41
1
10
60.9013283685904
20
-1.14301169673601
30
0
41
1
10
60.8664344429932
20
-1.09953193739645
30
0
41
1
10
60.850486435548
20
-1.0733678093433
30
0
41
1
10
60.8286008575699
20
-1.02774965527558
30
0
41
1
10
60.8216340081043
20
-1.01144082759743
30
0
41
1
10
60.8084696850428
20
-0.977019126818277
30
0
41
1
10
60.8022593633014
20
-0.958886642752447
30
0
41
1
10
60.7846772913693
20
-0.901829642801772
30
0
41
1
10
60.7743501770849
20
-0.860253561256343
30
0
41
1
10
60.7652989697477
20
-0.815310043075499
30
0
0
SPLINE
5
DC
100
AcDbEntity
8
1
62
256
6
ByLayer
370
18
48
1
60
0
100
AcDbSpline
70
4
71
3
72
8
73
4
40
0
40
0
40
0
40
0
40
1
40
1
40
1
40
1
41
1
10
60.7652989697477
20
-0.815310043075499
30
0
41
1
10
60.6508712144672
20
-0.247122208210385
30
0
41
1
10
60.504742882468
20
0.340164258322432
30
0
41
1
10
60.3265232872885
20
0.94678473321332
30
0
0
SPLINE
5
DD
100
AcDbEntity
8
1
62
256
6
ByLayer
370
18
48
1
60
0
100
AcDbSpline
70
4
71
3
72
18
73
14
40
0
40
0
40
0
40
0
40
0.25
40
0.25
40
0.5
40
0.5
40
0.75
40
0.75
40
0.875
40
0.875
40
0.9375
40
0.9375
40
1
40
1
40
1
40
1
41
1
10
59.4932885351927
20
0.249130419273655
30
0
41
1
10
59.5595255396034
20
0.330405611232322
30
0
41
1
10
59.6268101721541
20
0.405847962187408
30
0
41
1
10
59.763114486351
20
0.545496158630698
30
0
41
1
10
59.8321351450373
20
0.609700204852061
30
0
41
1
10
59.9715417386108
20
0.726734361509671
30
0
41
1
10
60.0419339705856
20
0.779763558752364
30
0
41
1
10
60.1482165780536
20
0.84945807973159
30
0
41
1
10
60.1837591825141
20
0.871062849621183
30
0
41
1
10
60.2371968810553
20
0.900883231737964
30
0
41
1
10
60.2550280045005
20
0.910335222764957
30
0
41
1
10
60.2907429754057
20
0.928960637044412
30
0
41
1
10
60.3086268821045
20
0.938114672854255
30
0
41
1
10
60.3265232872884
20
0.946784733213207
30
0
0
SPLINE
5
DE
100
AcDbEntity
8
1
62
256
6
ByLayer
370
18
48
1
60
0
100
AcDbSpline
70
4
71
3
72
14
73
10
40
0
40
0
40
0
40
0
40
0.249999999999777
40
0.249999999999777
40
0.374999999999754
40
0.374999999999754
40
0.49999999999973
40
0.49999999999973
40
1
40
1
40
1
40
1
41
1
10
20.4534034304897
20
-6.30299948105659
30
0
41
1
10
20.4441605292724
20
-6.30693044585891
30
0
41
1
10
20.4363604674913
20
-6.31168447977544
30
0
41
1
10
20.4262745871394
20
-6.31972951296382
30
0
41
1
10
20.4231974990522
20
-6.32256859783692
30
0
41
1
10
20.4177148327936
20
-6.32836595637249
30
0
41
1
10
20.4152820794996
20
-6.33134511012861
30
0
41
1
10
20.4045075228559
20
-6.34660101137871
30
0
41
1
10
20.4002948442769
20
-6.36007615911541
30
0
41
1
10
20.4002948442769
20
-6.37325902746369
30
0
0
SPLINE
5
DF
100
AcDbEntity
8
1
62
256
6
ByLayer
370
13
48
1
60
0
100
AcDbSpline
70
4
71
3
72
10
73
6
40
0
40
0
40
0
40
0
40
0.5
40
0.5
40
1
40
1
40
1
40
1
41
1
10
20.500514334387
20
-6.29598844798878
30
0
41
1
10
20.4923392575106
20
-6.29520825928032
30
0
41
1
10
20.4843143564111
20
-6.29540787889496
30
0
41
1
10
20.4685618482865
20
-6.2977190652652
30
0
41
1
10
20.4607778770646
20
-6.29986316170823
30
0
41
1
10
20.4534034304897
20
-6.30299948105659
30
0
0
SPLINE
5
E0
100
AcDbEntity
8
1
62
256
6
ByLayer
370
13
48
1
60
0
100
AcDbSpline
70
4
71
3
72
47
73
43
40
0
40
0
40
0
40
0
40
0.0624999999999993
40
0.0781249999999992
40
0.0781249999999992
40
0.093749999999999
40
0.093749999999999
40
0.124999999999999
40
0.124999999999999
40
0.187499999999998
40
0.249999999999998
40
0.312499999999998
40
0.328124999999998
40
0.328124999999998
40
0.343749999999998
40
0.343749999999998
40
0.374999999999998
40
0.374999999999998
40
0.437499999999998
40
0.437499999999998
40
0.468749999999998
40
0.484374999999998
40
0.484374999999998
40
0.499999999999998
40
0.499999999999998
40
0.562499999999998
40
0.624999999999998
40
0.687499999999999
40
0.687499999999999
40
0.718749999999999
40
0.734374999999999
40
0.734374999999999
40
0.749999999999999
40
0.749999999999999
40
0.812499999999999
40
0.812499999999999
40
0.875
40
0.9375
40
0.9375
40
0.96875
40
0.96875
40
1
40
1
40
1
40
1
41
1
10
20.5007292633356
20
-0.215281789267152
30
0
41
1
10
20.5007252048738
20
-0.395830271591734
30
0
41
1
10
20.5007198268688
20
-0.620653623192425
30
0
41
1
10
20.5007141565121
20
-0.844403152834957
30
0
41
1
10
20.5007118663823
20
-0.933816600692069
30
0
41
1
10
20.5007107096521
20
-0.978506935877363
30
0
41
1
10
20.5007072194901
20
-1.11204472106718
30
0
41
1
10
20.5007048633988
20
-1.20046835033512
30
0
41
1
10
20.5006977263166
20
-1.46396567919541
30
0
41
1
10
20.5006880280645
20
-1.81057213983121
30
0
41
1
10
20.5006731865751
20
-2.31657385897833
30
0
41
1
10
20.500661977838
20
-2.68562055029687
30
0
41
1
10
20.5006557591867
20
-2.88693116517172
30
0
41
1
10
20.5006532727811
20
-2.96715453651612
30
0
41
1
10
20.5006520289531
20
-3.00715396711908
30
0
41
1
10
20.5006483112032
20
-3.12633335783147
30
0
41
1
10
20.5006458502544
20
-3.20472178752354
30
0
41
1
10
20.5006385233704
20
-3.43672379637258
30
0
41
1
10
20.5006337139682
20
-3.58717961628213
30
0
41
1
10
20.5006266153696
20
-3.80656423365818
30
0
41
1
10
20.5006230947318
20
-3.9146796872536
30
0
41
1
10
20.5006196156402
20
-4.02041450036907
30
0
41
1
10
20.5006173051792
20
-4.09037229738783
30
0
41
1
10
20.5006161535747
20
-4.12511047244777
30
0
41
1
10
20.5006104375327
20
-4.2968491428056
30
0
41
1
10
20.5006015353704
20
-4.55995711194936
30
0
41
1
10
20.5005887781674
20
-4.92061116305231
30
0
41
1
10
20.5005805540743
20
-5.13855833063295
30
0
41
1
10
20.5005744361852
20
-5.29347846192584
30
0
41
1
10
20.5005713895822
20
-5.36880068866475
30
0
41
1
10
20.5005683492465
20
-5.44086993464944
30
0
41
1
10
20.5005663222404
20
-5.48818615658709
30
0
41
1
10
20.5005653074773
20
-5.51150635454093
30
0
41
1
10
20.5005602483748
20
-5.62584020189757
30
0
41
1
10
20.5005562460673
20
-5.71013618527053
30
0
41
1
10
20.5005482244567
20
-5.8648122062842
30
0
41
1
10
20.5005401860739
20
-6.00557034610361
30
0
41
1
10
20.5005318874171
20
-6.11874045391031
30
0
41
1
10
20.5005254733496
20
-6.19314864371913
30
0
41
1
10
20.5005233035384
20
-6.21620421136001
30
0
41
1
10
20.5005188835558
20
-6.2587721106589
30
0
41
1
10
20.5005166318834
20
-6.27829592515442
30
0
41
1
10
20.500514334387
20
-6.29598844798878
30
0
0
SPLINE
5
E1
100
AcDbEntity
8
1
62
256
6
ByLayer
370
18
48
1
60
0
100
AcDbSpline
70
4
71
3
72
24
73
20
40
0
40
0
40
0
40
0
40
0.499999999999971
40
0.499999999999971
40
0.749999999999931
40
0.749999999999931
40
0.874999999999884
40
0.874999999999884
40
0.93749999999989
40
0.93749999999989
40
0.968749999999919
40
0.968749999999919
40
0.984374999999933
40
0.984374999999933
40
0.992187499999966
40
0.992187499999966
40
0.996093749999983
40
0.996093749999983
40
1
40
1
40
1
40
1
41
1
10
59.4340302330904
20
-6.74665906084218
30
0
41
1
10
59.4627016132479
20
-6.70006928741719
30
0
41
1
10
59.4913934142352
20
-6.6532835294523
30
0
41
1
10
59.5344442051261
20
-6.58285218846149
30
0
41
1
10
59.5487926598438
20
-6.55934143449639
30
0
41
1
10
59.5703366524679
20
-6.52397343986308
30
0
41
1
10
59.5775269015027
20
-6.51215574352827
30
0
41
1
10
59.5882897823383
20
-6.4944633421203
30
0
41
1
10
59.591865617067
20
-6.48858865182297
30
0
41
1
10
59.5972642577153
20
-6.47969868514218
30
0
41
1
10
59.5990822078331
20
-6.47669573069817
30
0
41
1
10
59.6017580582364
20
-6.47229869817553
30
0
41
1
10
59.6026215444424
20
-6.47089316003323
30
0
41
1
10
59.603984443144
20
-6.46864132813255
30
0
41
1
10
59.60445451609
20
-6.46785560929678
30
0
41
1
10
59.6051517006632
20
-6.46669498033191
30
0
41
1
10
59.6053835147059
20
-6.4663098381599
30
0
41
1
10
59.6058124129764
20
-6.46561268055257
30
0
41
1
10
59.6060225294621
20
-6.465280882423
30
0
41
1
10
59.6060659808426
20
-6.46524701649642
30
0
0
SPLINE
5
E2
100
AcDbEntity
8
1
62
256
6
ByLayer
370
18
48
1
60
0
100
AcDbSpline
70
4
71
3
72
63
73
59
40
0
40
0
40
0
40
0
40
0.003670682348548
40
0.003670682348548
40
0.0561090674880974
40
0.0561090674880974
40
0.0692186637729847
40
0.0692186637729847
40
0.082328260057872
40
0.108547452627645
40
0.108547452627645
40
0.134766645197419
40
0.134766645197419
40
0.160985837767192
40
0.160985837767192
40
0.21342422290674
40
0.21342422290674
40
0.239643415476514
40
0.239643415476514
40
0.265862608046288
40
0.265862608046288
40
0.318300993185837
40
0.318300993185837
40
0.370739378325385
40
0.370739378325385
40
0.39695857089516
40
0.39695857089516
40
0.423177763464934
40
0.423177763464934
40
0.449396956034709
40
0.449396956034709
40
0.475616148604484
40
0.475616148604484
40
0.528054533744032
40
0.528054533744032
40
0.58049291888358
40
0.58049291888358
40
0.606712111453355
40
0.606712111453355
40
0.632931304023129
40
0.632931304023129
40
0.68536968916268
40
0.68536968916268
40
0.737808074302231
40
0.737808074302231
40
0.764027266872007
40
0.764027266872007
40
0.790246459441784
40
0.790246459441784
40
0.842684844581337
40
0.842684844581337
40
0.895123229720891
40
0.895123229720891
40
0.921342422290669
40
0.921342422290669
40
0.947561614860446
40
0.947561614860446
40
1
40
1
40
1
40
1
41
1
10
43.7655589625593
20
-1.8143515671166
30
0
41
1
10
43.7370100924296
20
-1.79974176336796
30
0
41
1
10
43.7084603719221
20
-1.78511649667243
30
0
41
1
10
43.2720412647523
20
-1.5613268493106
30
0
41
1
10
42.8639572529827
20
-1.34910997723841
30
0
41
1
10
42.3530818483873
20
-1.08094004329681
30
0
41
1
10
42.25086537535
20
-1.02715735607825
30
0
41
1
10
42.0465095387289
20
-0.919424066743147
30
0
41
1
10
41.7400273645879
20
-0.757538933767364
30
0
41
1
10
41.4336208565622
20
-0.594945847457893
30
0
41
1
10
41.0250291472896
20
-0.377744121757957
30
0
41
1
10
40.8207089401802
20
-0.268936920828139
30
0
41
1
10
40.4119161749772
20
-0.051102253536385
30
0
41
1
10
40.207515672766
20
0.0578922086832847
30
0
41
1
10
39.5945983759816
20
0.384595196069995
30
0
41
1
10
39.1861865400178
20
0.602109239664003
30
0
41
1
10
38.5730496035041
20
0.926416812075274
30
0
41
1
10
38.3687014105603
20
1.03414012789514
30
0
41
1
10
37.9603763368796
20
1.24841687043724
30
0
41
1
10
37.7563391715635
20
1.35500991751169
30
0
41
1
10
37.144444290716
20
1.67287500898536
30
0
41
1
10
36.7367672338976
20
1.88216223713033
30
0
41
1
10
35.9209602850053
20
2.29376563663197
30
0
41
1
10
35.51284346401
20
2.49611165394936
30
0
41
1
10
34.8997600264444
20
2.79334309305588
30
0
41
1
10
34.6953551669237
20
2.89130987942843
30
0
41
1
10
34.2867400684534
20
3.08456385882161
30
0
41
1
10
34.08246829316
20
3.17988183636714
30
0
41
1
10
33.6738852532792
20
3.36772287485292
30
0
41
1
10
33.4695722309689
20
3.46024583397437
30
0
41
1
10
33.0608014626367
20
3.6423513615419
30
0
41
1
10
32.8564693182718
20
3.7318893208425
30
0
41
1
10
32.2440201024427
20
3.99540710708652
30
0
41
1
10
31.8361881672334
20
4.1643642248209
30
0
41
1
10
31.020538525911
20
4.48761135633106
30
0
41
1
10
30.6127442274075
20
4.64194160632991
30
0
41
1
10
30.0004693170833
20
4.86154168353525
30
0
41
1
10
29.7962720522765
20
4.93274750791932
30
0
41
1
10
29.3875372753334
20
5.07097289247369
30
0
41
1
10
29.183101759506
20
5.13796103827931
30
0
41
1
10
28.5699429510584
20
5.33216017093434
30
0
41
1
10
28.1610991916414
20
5.45272903622259
30
0
41
1
10
27.3435747654943
20
5.67480638637684
30
0
41
1
10
26.9351100307593
20
5.77622434181549
30
0
41
1
10
26.3221818994872
20
5.91343663185506
30
0
41
1
10
26.1177833134036
20
5.95670224314492
30
0
41
1
10
25.7090623205723
20
6.03813733589644
30
0
41
1
10
25.5048701552692
20
6.07628317028909
30
0
41
1
10
24.8925912380674
20
6.18288704676698
30
0
41
1
10
24.4847858414822
20
6.24348750540992
30
0
41
1
10
23.6691044346238
20
6.34331574469843
30
0
41
1
10
23.261266880511
20
6.38255917423024
30
0
41
1
10
22.6487287537683
20
6.42511687350844
30
0
41
1
10
22.4443550564628
20
6.43658914825701
30
0
41
1
10
22.0355472425702
20
6.45405691453058
30
0
41
1
10
21.831166642655
20
6.4600523671869
30
0
41
1
10
21.2179518960897
20
6.46980016501954
30
0
41
1
10
20.809121024913
20
6.46529349497357
30
0
41
1
10
20.4002948442713
20
6.44977465949719
30
0
0
SPLINE
5
E3
100
AcDbEntity
8
1
62
256
6
ByLayer
370
18
48
1
60
0
100
AcDbSpline
70
4
71
3
72
8
73
4
40
0
40
0
40
0
40
0
40
1
40
1
40
1
40
1
41
1
10
20.6714474996345
20
-0.294223827879961
30
0
41
1
10
20.6285076229318
20
-0.271436049639561
30
0
41
1
10
20.5855674586999
20
-0.248634409754828
30
0
41
1
10
20.542626846238
20
-0.22581906398193
30
0
0
SPLINE
5
E4
100
AcDbEntity
8
1
62
256
6
ByLayer
370
18
48
1
60
0
100
AcDbSpline
70
4
71
3
72
14
73
10
40
0
40
0
40
0
40
0
40
0.25
40
0.25
40
0.5
40
0.5
40
0.75
40
0.75
40
1
40
1
40
1
40
1
41
1
10
59.5300861722546
20
-6.44353292666702
30
0
41
1
10
59.5302508431223
20
-6.4437009284126
30
0
41
1
10
59.530345138543
20
-6.44405761379207
30
0
41
1
10
59.5303491285155
20
-6.44525000186832
30
0
41
1
10
59.5302533607931
20
-6.4460825103458
30
0
41
1
10
59.5298377321128
20
-6.44815964937735
30
0
41
1
10
59.5295113855813
20
-6.44942193465178
30
0
41
1
10
59.5287025217413
20
-6.45204959562909
30
0
41
1
10
59.5282244183292
20
-6.45340635414982
30
0
41
1
10
59.5277335150727
20
-6.45466284189581
30
0
0
SPLINE
5
E5
100
AcDbEntity
8
1
62
256
6
ByLayer
370
18
48
1
60
0
100
AcDbSpline
70
4
71
3
72
8
73
4
40
0
40
0
40
0
40
0
40
1
40
1
40
1
40
1
41
1
10
59.4670036760932
20
-0.657324239346934
30
0
41
1
10
59.4689131693032
20
-0.657792597137728
30
0
41
1
10
59.4699280416824
20
-0.662945505797609
30
0
41
1
10
59.4692878553196
20
-0.668790294035915
30
0
0
SPLINE
5
E6
100
AcDbEntity
8
1
62
256
6
ByLayer
370
18
48
1
60
0
100
AcDbSpline
70
4
71
3
72
24
73
20
40
0
40
0
40
0
40
0
40
0.0015368612564619
40
0.0015368612564619
40
0.155217501422322
40
0.155217501422322
40
0.232057821505253
40
0.232057821505253
40
0.308898141588184
40
0.308898141588184
40
0.462578781754037
40
0.462578781754037
40
0.61625942191989
40
0.61625942191989
40
0.769940062085744
40
0.769940062085744
40
0.923620702251597
40
0.923620702251597
40
1
40
1
40
1
40
1
41
1
10
38.795363908413
20
6.45786737462083
30
0
41
1
10
38.7973956180603
20
6.45790628303061
30
0
41
1
10
38.7994273344738
20
6.45794497485218
30
0
41
1
10
39.0046241095009
20
6.46183088524626
30
0
41
1
10
39.2078775607717
20
6.46346630847231
30
0
41
1
10
39.5132207608833
20
6.46187136228187
30
0
41
1
10
39.6150817460026
20
6.46066157141519
30
0
41
1
10
39.8190530933192
20
6.45672206360308
30
0
41
1
10
39.921193384206
20
6.45399653669719
30
0
41
1
10
40.2278098521414
20
6.4435001183308
30
0
41
1
10
40.4322070756505
20
6.43343981233346
30
0
41
1
10
40.8409770646184
20
6.40766934889592
30
0
41
1
10
41.0453519768911
20
6.39195282499827
30
0
41
1
10
41.4541378968726
20
6.35511787394486
30
0
41
1
10
41.6585457764173
20
6.33400057461941
30
0
41
1
10
42.0673587505799
20
6.28668105704477
30
0
41
1
10
42.2718935965743
20
6.26046181974417
30
0
41
1
10
42.5772856236567
20
6.21774915032429
30
0
41
1
10
42.6785670729303
20
6.20298600177136
30
0
41
1
10
42.7797583621547
20
6.18759661813695
30
0
0
SPLINE
5
E7
100
AcDbEntity
8
1
62
256
6
ByLayer
370
18
48
1
60
0
100
AcDbSpline
70
4
71
3
72
42
73
38
40
0
40
0
40
0
40
0
40
0.0776402808557125
40
0.0776402808557125
40
0.161259310667023
40
0.161259310667023
40
0.203068825572678
40
0.203068825572678
40
0.244878340478333
40
0.244878340478333
40
0.328497370289646
40
0.328497370289646
40
0.412116400100958
40
0.412116400100958
40
0.453925915006615
40
0.453925915006615
40
0.495735429912271
40
0.495735429912271
40
0.516640187365098
40
0.516640187365098
40
0.537544944817925
40
0.537544944817925
40
0.579354459723579
40
0.579354459723579
40
0.662973489534887
40
0.662973489534887
40
0.70478300444054
40
0.70478300444054
40
0.746592519346192
40
0.746592519346192
40
0.788402034251845
40
0.788402034251845
40
0.830211549157498
40
0.830211549157498
40
0.913830578968804
40
0.913830578968804
40
1
40
1
40
1
40
1
41
1
10
43.7827246333355
20
6.01319814392792
30
0
41
1
10
44.1591430058168
20
5.93948935915665
30
0
41
1
10
44.5348290406805
20
5.85675305999933
30
0
41
1
10
45.3140190306179
20
5.66819518164425
30
0
41
1
10
45.7174221741798
20
5.5610771573113
30
0
41
1
10
46.3214135644567
20
5.38811985378089
30
0
41
1
10
46.5225748655337
20
5.32840513130802
30
0
41
1
10
46.9251429076784
20
5.20422449691836
30
0
41
1
10
47.1265397450848
20
5.13977000774011
30
0
41
1
10
47.7311714094125
20
4.9397499489485
30
0
41
1
10
48.1348444677715
20
4.79752404546289
30
0
41
1
10
48.943518372108
20
4.49725431941155
30
0
41
1
10
49.3485187461363
20
4.33920489534745
30
0
41
1
10
49.9568580010544
20
4.09123392665177
30
0
41
1
10
50.159776852881
20
4.00676682257762
30
0
41
1
10
50.5664550679901
20
3.83410229709619
30
0
41
1
10
50.770216264276
20
3.74589825612824
30
0
41
1
10
51.0764184300696
20
3.61095909841288
30
0
41
1
10
51.1784961760695
20
3.56557743187463
30
0
41
1
10
51.382367864274
20
3.474192164508
30
0
41
1
10
51.4842119212708
20
3.42816651486783
30
0
41
1
10
51.7895124697199
20
3.28914166852502
30
0
41
1
10
51.9927366191738
20
3.19519303947607
30
0
41
1
10
52.6015910601965
20
2.90988518224407
30
0
41
1
10
53.006404167457
20
2.71506618176255
30
0
41
1
10
53.612417451558
20
2.41697465031626
30
0
41
1
10
53.8142206912875
20
2.31663316987357
30
0
41
1
10
54.217466978785
20
2.11412002285635
30
0
41
1
10
54.4189097741538
20
2.01194849431727
30
0
41
1
10
54.8215274322323
20
1.80593505525837
30
0
41
1
10
55.0226993207302
20
1.70209082459485
30
0
41
1
10
55.4251348994699
20
1.49319660422427
30
0
41
1
10
55.626403921193
20
1.38815019059044
30
0
41
1
10
56.2304392049748
20
1.07145440343626
30
0
41
1
10
56.6334306498759
20
0.858248177359769
30
0
41
1
10
57.4528925512365
20
0.422476033925704
30
0
41
1
10
57.8694041116281
20
0.199830967436242
30
0
41
1
10
58.2867419666118
20
-0.0238196101304879
30
0
0
SPLINE
5
E8
100
AcDbEntity
8
1
62
256
6
ByLayer
370
18
48
1
60
0
100
AcDbSpline
70
4
71
3
72
8
73
4
40
0
40
0
40
0
40
0
40
1
40
1
40
1
40
1
41
1
10
59.3814245500512
20
-0.63459631591661
30
0
41
1
10
59.4099207871787
20
-0.642744046056492
30
0
41
1
10
59.4384430696392
20
-0.650318934236566
30
0
41
1
10
59.4670036760932
20
-0.657324239346934
30
0
0
SPLINE
5
E9
100
AcDbEntity
8
1
62
256
6
ByLayer
370
18
48
1
60
0
100
AcDbSpline
70
4
71
3
72
8
73
4
40
0
40
0
40
0
40
0
40
1
40
1
40
1
40
1
41
1
10
59.3852893516982
20
-6.68916496832645
30
0
41
1
10
59.4301939741299
20
-6.6177859604108
30
0
41
1
10
59.4751509065474
20
-6.54607616863441
30
0
41
1
10
59.5201665516818
20
-6.47403690015315
30
0
0
SPLINE
5
EA
100
AcDbEntity
8
1
62
256
6
ByLayer
370
18
48
1
60
0
100
AcDbSpline
70
4
71
3
72
8
73
4
40
0
40
0
40
0
40
0
40
1
40
1
40
1
40
1
41
1
10
59.5277335150727
20
-6.45466284189578
30
0
41
1
10
59.5252101061506
20
-6.46112161426421
30
0
41
1
10
59.5226877830117
20
-6.46757963194796
30
0
41
1
10
59.5201665516818
20
-6.47403690015312
30
0
0
SPLINE
5
EB
100
AcDbEntity
8
1
62
256
6
ByLayer
370
18
48
1
60
0
100
AcDbSpline
70
4
71
3
72
44
73
40
40
0
40
0
40
0
40
0
40
0.138341289941637
40
0.138341289941637
40
0.207511934912455
40
0.207511934912455
40
0.242097257397865
40
0.242097257397865
40
0.276682579883275
40
0.276682579883275
40
0.345853224854096
40
0.345853224854096
40
0.415023869824918
40
0.415023869824918
40
0.449609192310328
40
0.449609192310328
40
0.484194514795738
40
0.484194514795738
40
0.501487176038442
40
0.501487176038442
40
0.518779837281146
40
0.518779837281146
40
0.553365159766552
40
0.553365159766552
40
0.622535804737364
40
0.622535804737364
40
0.691706449708177
40
0.691706449708177
40
0.760877094678989
40
0.760877094678989
40
0.830047739649802
40
0.830047739649802
40
0.899218384620614
40
0.899218384620614
40
0.933803707106021
40
0.933803707106021
40
0.968389029591428
40
0.968389029591428
40
1
40
1
40
1
40
1
41
1
10
59.5277335150727
20
-6.45466284189581
30
0
41
1
10
58.7100834480618
20
-6.40160637510783
30
0
41
1
10
57.8984583897411
20
-6.30448639742855
30
0
41
1
10
56.6846358619135
20
-6.09778641075261
30
0
41
1
10
56.2806337030338
20
-6.01869967563346
30
0
41
1
10
55.6748809620674
20
-5.88539340518074
30
0
41
1
10
55.4730048315434
20
-5.83851013191369
30
0
41
1
10
55.0692479291603
20
-5.73998270160422
30
0
41
1
10
54.8673682070179
20
-5.68834148960306
30
0
41
1
10
54.2615110416734
20
-5.52630239936082
30
0
41
1
10
53.8573365073871
20
-5.40879537441393
30
0
41
1
10
53.0476229340718
20
-5.15584171331204
30
0
41
1
10
52.642051769429
20
-5.02036840109429
30
0
41
1
10
52.0319238067815
20
-4.80424586837859
30
0
41
1
10
51.8282511248764
20
-4.73005016758046
30
0
41
1
10
51.420230388591
20
-4.57749680308771
30
0
41
1
10
51.2158855759707
20
-4.49914261146486
30
0
41
1
10
50.9087276215071
20
-4.37854405742488
30
0
41
1
10
50.8062448114018
20
-4.33783591536579
30
0
41
1
10
50.6016071404965
20
-4.25563843897007
30
0
41
1
10
50.4993835254954
20
-4.21412237884425
30
0
41
1
10
50.1929842584143
20
-4.08836518222344
30
0
41
1
10
49.9890816153251
20
-4.00291746123179
30
0
41
1
10
49.3782472266979
20
-3.74200125638515
30
0
41
1
10
48.9721854580758
20
-3.56195511600842
30
0
41
1
10
48.1614716487608
20
-3.19138895188615
30
0
41
1
10
47.7568198276588
20
-3.00086990596333
30
0
41
1
10
46.9480826671626
20
-2.61082293046206
30
0
41
1
10
46.5439835849594
20
-2.41132781123682
30
0
41
1
10
45.7354542667656
20
-2.00492810075699
30
0
41
1
10
45.3310498888867
20
-1.79795927232595
30
0
41
1
10
44.5209906734295
20
-1.37828409925697
30
0
41
1
10
44.1153349388482
20
-1.16558059389834
30
0
41
1
10
43.5052077486723
20
-0.843441042045043
30
0
41
1
10
43.3015544227936
20
-0.735550205606017
30
0
41
1
10
42.8936451605013
20
-0.518874052612119
30
0
41
1
10
42.6893958224956
20
-0.410081206842392
30
0
41
1
10
42.2977229490211
20
-0.201261611175994
30
0
41
1
10
42.1102763857525
20
-0.101245272144922
30
0
41
1
10
41.9229595043293
20
-0.0013214399394599
30
0
0
SPLINE
5
EC
100
AcDbEntity
8
1
62
256
6
ByLayer
370
18
48
1
60
0
100
AcDbSpline
70
4
71
3
72
8
73
4
40
0
40
0
40
0
40
0
40
1
40
1
40
1
40
1
41
1
10
59.4692878553182
20
-0.668790294035233
30
0
41
1
10
59.4558655007726
20
-0.661592463800446
30
0
41
1
10
59.4424441866406
20
-0.654395176969643
30
0
41
1
10
59.4290239063432
20
-0.647198449349474
30
0
0
SPLINE
5
ED
100
AcDbEntity
8
1
62
256
6
ByLayer
370
18
48
1
60
0
100
AcDbSpline
70
4
71
3
72
58
73
54
40
0
40
0
40
0
40
0
40
0.0896701111302548
40
0.0896701111302548
40
0.151618384019353
40
0.151618384019353
40
0.182592520463902
40
0.182592520463902
40
0.21356665690845
40
0.21356665690845
40
0.244540793352998
40
0.244540793352998
40
0.275514929797547
40
0.275514929797547
40
0.337463202686645
40
0.368437339131195
40
0.38392440735347
40
0.38392440735347
40
0.399411475575745
40
0.399411475575745
40
0.430385612020295
40
0.430385612020295
40
0.461359748464845
40
0.461359748464845
40
0.523308021353946
40
0.523308021353946
40
0.585256294243048
40
0.585256294243048
40
0.616230430687598
40
0.616230430687598
40
0.647204567132148
40
0.647204567132148
40
0.709152840021249
40
0.709152840021249
40
0.771101112910351
40
0.771101112910351
40
0.802075249354902
40
0.802075249354902
40
0.833049385799452
40
0.833049385799452
40
0.864023522244003
40
0.864023522244003
40
0.894997658688554
40
0.894997658688554
40
0.925971795133104
40
0.925971795133104
40
0.956945931577655
40
0.956945931577655
40
0.972432999799931
40
0.972432999799931
40
0.987920068022208
40
0.987920068022208
40
1
40
1
40
1
40
1
41
1
10
58.7959577045013
20
-0.307790881745859
30
0
41
1
10
58.2086468256573
20
0.0069422290699208
30
0
41
1
10
57.6231258152894
20
0.320120615042356
30
0
41
1
10
56.6351872552868
20
0.844772724985347
30
0
41
1
10
56.2321204957982
20
1.05775059197646
30
0
41
1
10
55.6279733344675
20
1.37413804414885
30
0
41
1
10
55.4266673872513
20
1.47908800619965
30
0
41
1
10
55.0241586875326
20
1.68780155777637
30
0
41
1
10
54.822950124197
20
1.79155935656442
30
0
41
1
10
54.4202601883423
20
1.99740805533739
30
0
41
1
10
54.218781795646
20
2.09950213331274
30
0
41
1
10
53.8154659625222
20
2.30187098736866
30
0
41
1
10
53.6136289362338
20
2.40214618306851
30
0
41
1
10
53.0075169243346
20
2.70005591105891
30
0
41
1
10
52.4002044954564
20
2.99213786703947
30
0
41
1
10
51.6888211041216
20
3.32084760841389
30
0
41
1
10
51.3832488848895
20
3.45889109762521
30
0
41
1
10
51.1793507316071
20
3.55025577899602
30
0
41
1
10
51.0772637727633
20
3.59562645640022
30
0
41
1
10
50.7710008701289
20
3.73055038317494
30
0
41
1
10
50.5671987028966
20
3.81875188626304
30
0
41
1
10
50.1604379978728
20
3.99142797824672
30
0
41
1
10
49.9574776850518
20
4.07590304184407
30
0
41
1
10
49.3490152795869
20
4.32390389000437
30
0
41
1
10
48.9439337856788
20
4.4819996929327
30
0
41
1
10
48.1350979092395
20
4.78241168636958
30
0
41
1
10
47.7313449542047
20
4.9247351714466
30
0
41
1
10
47.1265935057776
20
5.12493842875102
30
0
41
1
10
46.9251568780296
20
5.18946022662615
30
0
41
1
10
46.5225099115055
20
5.31378828036858
30
0
41
1
10
46.3213082343303
20
5.37357674090561
30
0
41
1
10
45.7171961949921
20
5.54675275844616
30
0
41
1
10
45.3137179204388
20
5.6540403582957
30
0
41
1
10
44.505496328277
20
5.84997812004323
30
0
41
1
10
44.1007685217167
20
5.93863596150601
30
0
41
1
10
43.4923808278243
20
6.05581767767404
30
0
41
1
10
43.2893723212364
20
6.09223336302284
30
0
41
1
10
42.8827638958954
20
6.15970149384123
30
0
41
1
10
42.6791675018903
20
6.19072406983983
30
0
41
1
10
42.2711013901968
20
6.24805233999817
30
0
41
1
10
42.0665340971452
20
6.2744082978131
30
0
41
1
10
41.6576536079561
20
6.32201355159333
30
0
41
1
10
41.4532126272338
20
6.34327897750927
30
0
41
1
10
41.0443614696544
20
6.38042033316736
30
0
41
1
10
40.8399545023502
20
6.39629499172017
30
0
41
1
10
40.4311213756477
20
6.42239108011435
30
0
41
1
10
40.2266932336335
20
6.43261942379436
30
0
41
1
10
39.9200311251382
20
6.44337590386527
30
0
41
1
10
39.8178705445792
20
6.44618921012014
30
0
41
1
10
39.613861512346
20
6.4503050283756
30
0
41
1
10
39.5119814180529
20
6.45160319824933
30
0
41
1
10
39.3307765956993
20
6.45270623834725
30
0
41
1
10
39.2514189778939
20
6.45277911038593
30
0
41
1
10
39.1720951457141
20
6.45247040448564
30
0
0
SPLINE
5
EE
100
AcDbEntity
8
1
62
256
6
ByLayer
370
18
48
1
60
0
100
AcDbSpline
70
4
71
3
72
10
73
6
40
0
40
0
40
0
40
0
40
0.143486577854373
40
0.143486577854373
40
1
40
1
40
1
40
1
41
1
10
22.6114022307687
20
6.42257091248766
30
0
41
1
10
22.6247151671132
20
6.42275615703545
30
0
41
1
10
22.6380264795939
20
6.42292975789928
30
0
41
1
10
22.7307828977809
20
6.42405845301818
30
0
41
1
10
22.8101710774575
20
6.42461069841434
30
0
41
1
10
22.8895039787048
20
6.42475051835848
30
0
0
SPLINE
5
EF
100
AcDbEntity
8
1
62
256
6
ByLayer
370
18
48
1
60
0
100
AcDbSpline
70
4
71
3
72
46
73
42
40
0
40
0
40
0
40
0
40
0.0219553955303014
40
0.0388182335383992
40
0.0388182335383992
40
0.0556810715464968
40
0.0556810715464968
40
0.0894067475626944
40
0.0894067475626944
40
0.123132423578892
40
0.123132423578892
40
0.190583775611287
40
0.190583775611287
40
0.258035127643681
40
0.258035127643681
40
0.325486479676076
40
0.325486479676076
40
0.392937831708471
40
0.392937831708471
40
0.460389183740866
40
0.460389183740866
40
0.494114859757062
40
0.51097769776516
40
0.51097769776516
40
0.527840535773259
40
0.527840535773259
40
0.561566211789453
40
0.595291887805648
40
0.595291887805648
40
0.662743239838037
40
0.662743239838037
40
0.730194591870427
40
0.730194591870427
40
0.763920267886621
40
0.797645943902816
40
0.831371619919011
40
0.848234457927109
40
0.848234457927109
40
0.865097295935207
40
0.865097295935207
40
1
40
1
40
1
40
1
41
1
10
41.4432736712057
20
0.265371491561552
30
0
41
1
10
41.5764263583189
20
0.194536279408709
30
0
41
1
10
41.8118673533727
20
0.0691838397162599
30
0
41
1
10
42.0473922375063
20
-0.0562783482349403
30
0
41
1
10
42.2520642287052
20
-0.165296885293173
30
0
41
1
10
42.3543834712283
20
-0.219793039155775
30
0
41
1
10
42.6609391959633
20
-0.383004312523155
30
0
41
1
10
42.8649203266014
20
-0.49151655471772
30
0
41
1
10
43.2722881139178
20
-0.70765844556297
30
0
41
1
10
43.4756708179196
20
-0.815292670879899
30
0
41
1
10
44.0849838143825
20
-1.13669520867543
30
0
41
1
10
44.4900886948017
20
-1.3489553533966
30
0
41
1
10
45.2990258858894
20
-1.76784722408755
30
0
41
1
10
45.7028579841096
20
-1.9744788747673
30
0
41
1
10
46.5102175781172
20
-2.38031754307599
30
0
41
1
10
46.9137236560832
20
-2.57957640671623
30
0
41
1
10
47.7212330994179
20
-2.96928933045669
30
0
41
1
10
48.1252554885809
20
-3.15969769401721
30
0
41
1
10
48.9346739857903
20
-3.53016510383077
30
0
41
1
10
49.3400691627343
20
-3.71022600840115
30
0
41
1
10
49.9498709721809
20
-3.97126754892145
30
0
41
1
10
50.2551996964743
20
-4.09952314972989
30
0
41
1
10
50.5613299007436
20
-4.22419589792858
30
0
41
1
10
50.7656045760448
20
-4.30648624712319
30
0
41
1
10
50.8678781806057
20
-4.34723562943526
30
0
41
1
10
51.1747006212873
20
-4.46808668776563
30
0
41
1
10
51.5831917246937
20
-4.62525871962865
30
0
41
1
10
51.9908289752213
20
-4.77435003921991
30
0
41
1
10
52.6017717775424
20
-4.99167880508921
30
0
41
1
10
53.0083842766585
20
-5.12815726760778
30
0
41
1
10
53.8211777425014
20
-5.38338925300437
30
0
41
1
10
54.2273844726774
20
-5.50216766994555
30
0
41
1
10
54.8370656472876
20
-5.66621295763579
30
0
41
1
10
55.2436304360702
20
-5.77085456034811
30
0
41
1
10
55.8542275886339
20
-5.91356722018657
30
0
41
1
10
56.3639205749829
20
-6.02022630733043
30
0
41
1
10
56.670253306877
20
-6.07856672102969
30
0
41
1
10
56.8746045056655
20
-6.11618780322678
30
0
41
1
10
56.9768789156677
20
-6.1343677749926
30
0
41
1
10
57.896970621248
20
-6.29201636928096
30
0
41
1
10
58.7127578146846
20
-6.3898997370224
30
0
41
1
10
59.530086174212
20
-6.44353292679546
30
0
0
SPLINE
5
F0
100
AcDbEntity
8
1
62
256
6
ByLayer
370
18
48
1
60
0
100
AcDbSpline
70
4
71
3
72
43
73
39
40
0
40
0
40
0
40
0
40
0.0625000000000005
40
0.0625000000000005
40
0.125000000000001
40
0.187500000000001
40
0.187500000000001
40
0.218750000000002
40
0.234375000000002
40
0.234375000000002
40
0.250000000000002
40
0.250000000000002
40
0.312500000000001
40
0.312500000000001
40
0.375000000000001
40
0.437500000000001
40
0.437500000000001
40
0.468750000000001
40
0.484375000000001
40
0.484375000000001
40
0.500000000000001
40
0.500000000000001
40
0.562500000000001
40
0.562500000000001
40
0.625
40
0.6875
40
0.6875
40
0.71875
40
0.734375
40
0.734375
40
0.75
40
0.75
40
0.8125
40
0.8125
40
0.875
40
0.9375
40
0.9375
40
1
40
1
40
1
40
1
41
1
10
59.4692878553196
20
-0.668790294035318
30
0
41
1
10
59.4493402616447
20
-0.850908295387626
30
0
41
1
10
59.431996848583
20
-1.03112979257588
30
0
41
1
10
59.4015936893001
20
-1.38782239067791
30
0
41
1
10
59.3754758456055
20
-1.74076423536735
30
0
41
1
10
59.3564078212937
20
-2.08614712896031
30
0
41
1
10
59.3442811355104
20
-2.34227400912198
30
0
41
1
10
59.3387628712193
20
-2.46960901996036
30
0
41
1
10
59.3339872674002
20
-2.59582893602351
30
0
41
1
10
59.3309611195481
20
-2.67972463414429
30
0
41
1
10
59.32952521127
20
-2.72159737260088
30
0
41
1
10
59.3227447915512
20
-2.92959657939551
30
0
41
1
10
59.3185886505764
20
-3.09155568906593
30
0
41
1
10
59.3122593319387
20
-3.4068448912239
30
0
41
1
10
59.3079147847694
20
-3.71350396747587
30
0
41
1
10
59.3067999660352
20
-4.00303095923454
30
0
41
1
10
59.3070223439363
20
-4.21366433904623
30
0
41
1
10
59.3073999977149
20
-4.31735092372043
30
0
41
1
10
59.308166050386
20
-4.41855582992602
30
0
41
1
10
59.3087630519843
20
-4.48546874014377
30
0
41
1
10
59.3091049838498
20
-4.51866631884465
30
0
41
1
10
59.3110211712789
20
-4.68248226550651
30
0
41
1
10
59.313212590968
20
-4.80718962432974
30
0
41
1
10
59.3189319373207
20
-5.04427872892467
30
0
41
1
10
59.3259886009706
20
-5.26904041866538
30
0
41
1
10
59.3360896179188
20
-5.46933367223792
30
0
41
1
10
59.3450724644814
20
-5.61025189570293
30
0
41
1
10
59.349917672011
20
-5.67838252058004
30
0
41
1
10
59.355362834276
20
-5.74296784812799
30
0
41
1
10
59.3591354322099
20
-5.78522891798144
30
0
41
1
10
59.3610933461891
20
-5.80596227238061
30
0
41
1
10
59.3712099542588
20
-5.90712369542735
30
0
41
1
10
59.3803818806804
20
-5.98047889831031
30
0
41
1
10
59.4013763568402
20
-6.11252016903441
30
0
41
1
10
59.4250216196139
20
-6.22989000423399
30
0
41
1
10
59.4551994184954
20
-6.31824732336258
30
0
41
1
10
59.4893983806119
20
-6.39197131116634
30
0
41
1
10
59.5085072363152
20
-6.42151750309833
30
0
41
1
10
59.530086172395
20
-6.44353292681015
30
0
0
SPLINE
5
F1
100
AcDbEntity
8
1
62
256
6
ByLayer
370
18
48
1
60
0
100
AcDbSpline
70
4
71
3
72
14
73
10
40
0
40
0
40
0
40
0
40
0.15948727803099
40
0.15948727803099
40
0.579743639015493
40
0.579743639015493
40
0.789871819507747
40
0.789871819507747
40
1
40
1
40
1
40
1
41
1
10
26.23450463002
20
-6.43140560018074
30
0
41
1
10
25.9270681676649
20
-6.47728617587808
30
0
41
1
10
25.6200598811517
20
-6.51689276733464
30
0
41
1
10
24.5049153500666
20
-6.6379154477782
30
0
41
1
10
23.6981419143861
20
-6.68176853780474
30
0
41
1
10
22.4847341697757
20
-6.68062670354124
30
0
41
1
10
22.0797318383902
20
-6.66909459095658
30
0
41
1
10
21.2676684195535
20
-6.62358706404405
30
0
41
1
10
20.8606070501311
20
-6.58961574344298
30
0
41
1
10
20.4520703151164
20
-6.5443502439374
30
0
0
SPLINE
5
F2
100
AcDbEntity
8
1
62
256
6
ByLayer
370
18
48
1
60
0
100
AcDbSpline
70
4
71
3
72
16
73
12
40
0
40
0
40
0
40
0
40
0.24999999999999
40
0.24999999999999
40
0.374999999999988
40
0.374999999999988
40
0.499999999999987
40
0.499999999999987
40
0.749999999999993
40
0.749999999999993
40
1
40
1
40
1
40
1
41
1
10
20.4520703151164
20
-6.5443502439374
30
0
41
1
10
20.4442054746419
20
-6.54347882674992
30
0
41
1
10
20.4370904901552
20
-6.54241803711801
30
0
41
1
10
20.4275111799586
20
-6.54054096886242
30
0
41
1
10
20.4244871726248
20
-6.53986200441045
30
0
41
1
10
20.4189806484881
20
-6.53844101263041
30
0
41
1
10
20.4164790934221
20
-6.53769631518702
30
0
41
1
10
20.4097178302985
20
-6.53535881917972
30
0
41
1
10
20.4061780506807
20
-6.5336390437603
30
0
41
1
10
20.4015024678864
20
-6.53009257877247
30
0
41
1
10
20.4002948442769
20
-6.52823740096298
30
0
41
1
10
20.4002948442769
20
-6.52634386279317
30
0
0
SPLINE
5
F3
100
AcDbEntity
8
1
62
256
6
ByLayer
370
18
48
1
60
0
100
AcDbSpline
70
4
71
3
72
26
73
22
40
0
40
0
40
0
40
0
40
0.125000000000122
40
0.125000000000122
40
0.187500000000183
40
0.187500000000183
40
0.250000000000244
40
0.250000000000244
40
0.375000000000367
40
0.375000000000367
40
0.50000000000049
40
0.50000000000049
40
0.625000000000613
40
0.625000000000613
40
0.687500000000578
40
0.687500000000578
40
0.750000000000543
40
0.750000000000543
40
0.875000000000271
40
0.875000000000271
40
1
40
1
40
1
40
1
41
1
10
20.4002948442769
20
-0.313871012898488
30
0
41
1
10
20.4002948442769
20
-0.305150878919449
30
0
41
1
10
20.4014185704661
20
-0.296621207562623
30
0
41
1
10
20.4047391421232
20
-0.284103927659231
30
0
41
1
10
20.4061356446927
20
-0.279949997149259
30
0
41
1
10
20.4094247934695
20
-0.271940871568972
30
0
41
1
10
20.4113162587308
20
-0.268072875723874
30
0
41
1
10
20.4177165215708
20
-0.256870476908972
30
0
41
1
10
20.4230390656488
20
-0.249849971059973
30
0
41
1
10
20.4351502660121
20
-0.237578206004173
30
0
41
1
10
20.4419933840307
20
-0.23222990677985
30
0
41
1
10
20.4569703223896
20
-0.223400016598532
30
0
41
1
10
20.4648871359315
20
-0.220026246882071
30
0
41
1
10
20.4773981238903
20
-0.216511215226006
30
0
41
1
10
20.4816891409498
20
-0.215602852441947
30
0
41
1
10
20.4902416738037
20
-0.214365705772593
30
0
41
1
10
20.4945326864041
20
-0.214026634861682
30
0
41
1
10
20.5074495092652
20
-0.21383935965784
30
0
41
1
10
20.5162137416862
20
-0.214854441319318
30
0
41
1
10
20.5329237342393
20
-0.21903447695945
30
0
41
1
10
20.5410257383693
20
-0.222206511518408
30
0
41
1
10
20.5486662705055
20
-0.226427269158506
30
0
0
SPLINE
5
F4
100
AcDbEntity
8
1
62
256
6
ByLayer
370
18
48
1
60
0
100
AcDbSpline
70
4
71
3
72
59
73
55
40
0
40
0
40
0
40
0
40
0.0650258471170732
40
0.0650258471170732
40
0.0975387706756098
40
0.0975387706756098
40
0.113795232454877
40
0.113795232454877
40
0.130051694234145
40
0.130051694234145
40
0.16256461779268
40
0.16256461779268
40
0.195077541351215
40
0.195077541351215
40
0.227590464909749
40
0.227590464909749
40
0.260103388468285
40
0.260103388468285
40
0.325129235585356
40
0.325129235585356
40
0.390155082702427
40
0.390155082702427
40
0.422668006260963
40
0.422668006260963
40
0.455180929819499
40
0.455180929819499
40
0.520206776936569
40
0.520206776936569
40
0.552719700495104
40
0.552719700495104
40
0.568976162274371
40
0.568976162274371
40
0.585232624053638
40
0.617745547612175
40
0.617745547612175
40
0.650258471170711
40
0.650258471170711
40
0.715284318287786
40
0.715284318287786
40
0.747797241846323
40
0.747797241846323
40
0.780310165404861
40
0.780310165404861
40
0.845336012521937
40
0.845336012521937
40
0.877848936080476
40
0.877848936080476
40
0.910361859639014
40
0.910361859639014
40
0.942874783197552
40
0.942874783197552
40
0.97538770675609
40
0.97538770675609
40
1
40
1
40
1
40
1
41
1
10
20.5486662705055
20
-0.226427269158506
30
0
41
1
10
20.9559522859558
20
-0.451418870630221
30
0
41
1
10
21.3632533620456
20
-0.675137404392473
30
0
41
1
10
21.9743124098969
20
-1.00867190959212
30
0
41
1
10
22.1780272959593
20
-1.11948969864585
30
0
41
1
10
22.4837255427593
20
-1.28502577734733
30
0
41
1
10
22.585686551765
20
-1.34011118042193
30
0
41
1
10
22.789453406104
20
-1.44991254320584
30
0
41
1
10
22.891234805283
20
-1.50461626914497
30
0
41
1
10
23.196298253408
20
-1.66809472647972
30
0
41
1
10
23.3993036810149
20
-1.77622870151353
30
0
41
1
10
23.8047224455254
20
-1.99055029479985
30
0
41
1
10
24.0071293999038
20
-2.09675056967407
30
0
41
1
10
24.4113779471029
20
-2.30718041632815
30
0
41
1
10
24.613203136357
20
-2.41143959580589
30
0
41
1
10
25.016257369391
20
-2.61804020383738
30
0
41
1
10
25.2175288947086
20
-2.72030423903357
30
0
41
1
10
25.821227064658
20
-3.02290332101842
30
0
41
1
10
26.2234615789243
20
-3.21919327064958
30
0
41
1
10
27.0277815595664
20
-3.60052575587179
30
0
41
1
10
27.4298442563297
20
-3.78560305389746
30
0
41
1
10
28.0330896118901
20
-4.0543003056562
30
0
41
1
10
28.2341903691773
20
-4.14238778554682
30
0
41
1
10
28.6364438225999
20
-4.31554639443496
30
0
41
1
10
28.8376330119497
20
-4.40055988903319
30
0
41
1
10
29.4422830051185
20
-4.6496214453999
30
0
41
1
10
29.8466974354427
20
-4.80790166516374
30
0
41
1
10
30.4552862931319
20
-5.03366145535455
30
0
41
1
10
30.6584807624346
20
-5.10696353811906
30
0
41
1
10
30.9637898961925
20
-5.21393662301776
30
0
41
1
10
31.0656965146111
20
-5.24911434217498
30
0
41
1
10
31.2694539235854
20
-5.31838242749419
30
0
41
1
10
31.5747432610655
20
-5.42056449368576
30
0
41
1
10
31.8790156464185
20
-5.517575107575
30
0
41
1
10
32.2838740164817
20
-5.64225907775821
30
0
41
1
10
32.485905316046
20
-5.70223967410942
30
0
41
1
10
33.0916091950571
20
-5.87437516826623
30
0
41
1
10
33.4947988972624
20
-5.97887072487151
30
0
41
1
10
34.0985798853414
20
-6.12060590898304
30
0
41
1
10
34.2996782751307
20
-6.16533840573376
30
0
41
1
10
34.7016164243837
20
-6.24972916521472
30
0
41
1
10
34.9024618532674
20
-6.28938004573598
30
0
41
1
10
35.5050795930912
20
-6.40042116724192
30
0
41
1
10
35.9068976499466
20
-6.4639589336775
30
0
41
1
10
36.5097235284222
20
-6.54346129232817
30
0
41
1
10
36.7106869835877
20
-6.56731821802961
30
0
41
1
10
37.1128409427312
20
-6.60962714961983
30
0
41
1
10
37.3140303274986
20
-6.62807454170871
30
0
41
1
10
37.7171493193664
20
-6.65940713542602
30
0
41
1
10
37.9190838114074
20
-6.67230273958572
30
0
41
1
10
38.3234427912994
20
-6.69261221074069
30
0
41
1
10
38.5258663179482
20
-6.70002520822885
30
0
41
1
10
38.8818006215183
20
-6.70816410401554
30
0
41
1
10
39.0352417757832
20
-6.71007229862704
30
0
41
1
10
39.18885618763
20
-6.71035436463939
30
0
0
SPLINE
5
F5
100
AcDbEntity
8
1
62
256
6
ByLayer
370
18
48
1
60
0
100
AcDbSpline
70
4
71
3
72
129
73
125
40
0
40
0
40
0
40
0
40
0.0189749721958704
40
0.0189749721958704
40
0.0379499443917409
40
0.0379499443917409
40
0.0569249165876113
40
0.0569249165876113
40
0.0758998887834817
40
0.0758998887834817
40
0.113849833175223
40
0.113849833175223
40
0.132824805371094
40
0.132824805371094
40
0.151799777566964
40
0.151799777566964
40
0.161287263664899
40
0.161287263664899
40
0.170774749762834
40
0.170774749762834
40
0.189749721958705
40
0.189749721958705
40
0.194493465007673
40
0.194493465007673
40
0.199237208056641
40
0.199237208056641
40
0.208724694154577
40
0.208724694154577
40
0.227699666350448
40
0.227699666350448
40
0.246674638546319
40
0.246674638546319
40
0.265649610742191
40
0.265649610742191
40
0.284624582938062
40
0.284624582938062
40
0.303599555133933
40
0.303599555133933
40
0.341549499525676
40
0.341549499525676
40
0.360524471721547
40
0.360524471721547
40
0.370011957819483
40
0.370011957819483
40
0.379499443917419
40
0.379499443917419
40
0.388986930015355
40
0.388986930015355
40
0.393730673064322
40
0.393730673064322
40
0.398474416113289
40
0.398474416113289
40
0.417449388309159
40
0.417449388309159
40
0.436424360505029
40
0.436424360505029
40
0.455399332700899
40
0.455399332700899
40
0.474374304896769
40
0.474374304896769
40
0.483861790994704
40
0.483861790994704
40
0.493349277092639
40
0.493349277092639
40
0.512324249288509
40
0.512324249288509
40
0.531299221484379
40
0.531299221484379
40
0.550274193680248
40
0.550274193680248
40
0.569249165876118
40
0.569249165876118
40
0.578736651974054
40
0.583480395023021
40
0.583480395023021
40
0.588224138071989
40
0.588224138071989
40
0.607199110267859
40
0.607199110267859
40
0.645149054659599
40
0.645149054659599
40
0.664124026855468
40
0.664124026855468
40
0.683098999051338
40
0.683098999051338
40
0.702073971247207
40
0.702073971247207
40
0.721048943443077
40
0.721048943443077
40
0.758998887834816
40
0.758998887834816
40
0.777973860030685
40
0.777973860030685
40
0.782717603079654
40
0.782717603079654
40
0.787461346128622
40
0.787461346128622
40
0.796948832226557
40
0.796948832226557
40
0.806436318324494
40
0.806436318324494
40
0.81592380442243
40
0.81592380442243
40
0.834898776618301
40
0.834898776618301
40
0.872848721010044
40
0.872848721010044
40
0.891823693205915
40
0.891823693205915
40
0.910798665401786
40
0.910798665401786
40
0.929773637597658
40
0.929773637597658
40
0.948748609793529
40
0.948748609793529
40
0.9677235819894
40
0.9677235819894
40
0.977211068087336
40
0.977211068087336
40
0.981954811136304
40
0.981954811136304
40
0.986698554185272
40
0.986698554185272
40
1
40
1
40
1
40
1
41
1
10
6.79471077990024
20
6.31900034651028
30
0
41
1
10
7.07222237077588
20
6.27182097806411
30
0
41
1
10
7.34898591675662
20
6.21979319125418
30
0
41
1
10
7.90121819501314
20
6.10629555354799
30
0
41
1
10
8.17667220929016
20
6.04481272194374
30
0
41
1
10
8.72657179158108
20
5.91269197458141
30
0
41
1
10
9.00097959512215
20
5.84201534462596
30
0
41
1
10
9.54944929960516
20
5.69216969156912
30
0
41
1
10
9.82338826127966
20
5.61289457696921
30
0
41
1
10
10.6446115984639
20
5.36235874380048
30
0
41
1
10
11.1912820313806
20
5.17834697155783
30
0
41
1
10
12.0120642453913
20
4.8790830031505
30
0
41
1
10
12.2858201913488
20
4.77549918878549
30
0
41
1
10
12.8338324916151
20
4.56087243133175
30
0
41
1
10
13.1080684018647
20
4.44980063123054
30
0
41
1
10
13.5199746020481
20
4.27777817520658
30
0
41
1
10
13.6573533213526
20
4.21951164603311
30
0
41
1
10
13.9324226274458
20
4.10134995213355
30
0
41
1
10
14.0701149002911
20
4.04145918158491
30
0
41
1
10
14.4835792540457
20
3.85921544950983
30
0
41
1
10
14.7597814090582
20
3.7343545688633
30
0
41
1
10
15.1058803843731
20
3.57422418899597
30
0
41
1
10
15.1751429014297
20
3.54199598771166
30
0
41
1
10
15.3137595146964
20
3.47714308682646
30
0
41
1
10
15.3830825692596
20
3.44453276478174
30
0
41
1
10
15.5908318219934
20
3.34629295599646
30
0
41
1
10
15.7291445431664
20
3.28020525126453
30
0
41
1
10
16.1435839654376
20
3.08026861455741
30
0
41
1
10
16.4192047607917
20
2.94473357544072
30
0
41
1
10
16.9695020147038
20
2.66988836074245
30
0
41
1
10
17.2441790084599
20
2.53058031518117
30
0
41
1
10
17.7927115288065
20
2.24842308913247
30
0
41
1
10
18.0665719786509
20
2.10558157183965
30
0
41
1
10
18.6138166332251
20
1.81697103901962
30
0
41
1
10
18.8873551405376
20
1.67147776752711
30
0
41
1
10
19.4342034605194
20
1.37801810395305
30
0
41
1
10
19.7075399423192
20
1.23009833328834
30
0
41
1
10
20.5276971418971
20
0.783507973319672
30
0
41
1
10
21.0746915318756
20
0.482049511605226
30
0
41
1
10
21.8975741965024
20
0.0280150474287097
30
0
41
1
10
22.1722284320436
20
-0.123708541192911
30
0
41
1
10
22.5849131347682
20
-0.351572302648663
30
0
41
1
10
22.722594337949
20
-0.427568771330584
30
0
41
1
10
22.998229762222
20
-0.579585184641161
30
0
41
1
10
23.1361902397062
20
-0.655593352254812
30
0
41
1
10
23.4125265422117
20
-0.807362031553026
30
0
41
1
10
23.5508678491572
20
-0.883188987006832
30
0
41
1
10
23.758654863291
20
-0.996816792393275
30
0
41
1
10
23.8279748828242
20
-1.03467934585424
30
0
41
1
10
23.9664583280592
20
-1.11022073071953
30
0
41
1
10
24.035652422026
20
-1.14791635318542
30
0
41
1
10
24.3813938610655
20
-1.33600453523917
30
0
41
1
10
24.6572454035087
20
-1.48524338523387
30
0
41
1
10
25.2078132950265
20
-1.7806653406295
30
0
41
1
10
25.4825251938255
20
-1.92685661524556
30
0
41
1
10
26.0311553135084
20
-2.21561499706539
30
0
41
1
10
26.3051045700843
20
-2.35812847853987
30
0
41
1
10
26.8524487428519
20
-2.63915313839414
30
0
41
1
10
27.1258274030137
20
-2.77769131935284
30
0
41
1
10
27.535658124576
20
-2.98219811933265
30
0
41
1
10
27.672213832049
20
-3.04984123834438
30
0
41
1
10
27.9453757351452
20
-3.18381486069549
30
0
41
1
10
28.0819755800499
20
-3.25015673058041
30
0
41
1
10
28.4917711790058
20
-3.44734830625674
30
0
41
1
10
28.7649983406696
20
-3.57630645951531
30
0
41
1
10
29.3117328745565
20
-3.82885289815363
30
0
41
1
10
29.5852490397807
20
-3.9524265321329
30
0
41
1
10
30.1329101014782
20
-4.19364055874868
30
0
41
1
10
30.4070462715393
20
-4.31129328593988
30
0
41
1
10
30.9563196003682
20
-4.54008371570956
30
0
41
1
10
31.2314591905704
20
-4.65122074501923
30
0
41
1
10
31.645023811816
20
-4.81285054131894
30
0
41
1
10
31.8520254111975
20
-4.8923884350456
30
0
41
1
10
32.0593964073695
20
-4.9699438628096
30
0
41
1
10
32.1977300778672
20
-5.02119976426053
30
0
41
1
10
32.2669629166156
20
-5.04661464369403
30
0
41
1
10
32.6130905237691
20
-5.17242001619971
30
0
41
1
10
32.8893406557709
20
-5.26866515588012
30
0
41
1
10
33.7161421700445
20
-5.54446548927885
30
0
41
1
10
34.2648016357454
20
-5.7109863173101
30
0
41
1
10
35.085878945664
20
-5.93331922357348
30
0
41
1
10
35.3592670656415
20
-6.00284370373126
30
0
41
1
10
35.9057690802585
20
-6.13249982389507
30
0
41
1
10
36.1788461099021
20
-6.19266262683655
30
0
41
1
10
36.724866242061
20
-6.30350152737773
30
0
41
1
10
36.9977659613124
20
-6.35419731484004
30
0
41
1
10
37.5440344639257
20
-6.44571661105402
30
0
41
1
10
37.8173120475735
20
-6.48659974508345
30
0
41
1
10
38.6378825517775
20
-6.59440090690126
30
0
41
1
10
39.1858805111207
20
-6.64646489590641
30
0
41
1
10
40.011310215181
20
-6.6936214347723
30
0
41
1
10
40.2870583092422
20
-6.7041828417768
30
0
41
1
10
40.6326281207144
20
-6.710837092758
30
0
41
1
10
40.7017853118385
20
-6.71184049952899
30
0
41
1
10
40.8401904023234
20
-6.71318920017862
30
0
41
1
10
40.9094093031468
20
-6.71353390492104
30
0
41
1
10
41.1168381144739
20
-6.71357930133999
30
0
41
1
10
41.2549300039203
20
-6.71229253483165
30
0
41
1
10
41.5307603901945
20
-6.70710223151596
30
0
41
1
10
41.6684853865941
20
-6.7031964772907
30
0
41
1
10
41.9437041913824
20
-6.6927981812444
30
0
41
1
10
42.0811932704064
20
-6.6863068805431
30
0
41
1
10
42.4932557737287
20
-6.66297704987227
30
0
41
1
10
42.7674553877373
20
-6.64228729891352
30
0
41
1
10
43.5888713180565
20
-6.56502212768189
30
0
41
1
10
44.1349116896556
20
-6.49322947021329
30
0
41
1
10
44.9536855851141
20
-6.35627996603915
30
0
41
1
10
45.2265745210702
20
-6.30576781539722
30
0
41
1
10
45.7724109736192
20
-6.19509284848982
30
0
41
1
10
46.0453659304586
20
-6.13493178526801
30
0
41
1
10
46.5916497779613
20
-6.00512462082398
30
0
41
1
10
46.8651146262635
20
-5.93559208842782
30
0
41
1
10
47.4127207716517
20
-5.78725591862477
30
0
41
1
10
47.6868783932846
20
-5.70846256606885
30
0
41
1
10
48.2361743673733
20
-5.54177719841272
30
0
41
1
10
48.5113210432882
20
-5.45389267801158
30
0
41
1
10
48.9250386331864
20
-5.31542045233357
30
0
41
1
10
49.0631108992952
20
-5.2681556280057
30
0
41
1
10
49.2705085470439
20
-5.19563019246874
30
0
41
1
10
49.3397158785068
20
-5.17117417840359
30
0
41
1
10
49.4779981802587
20
-5.12180960417729
30
0
41
1
10
49.5470941087578
20
-5.09689347106138
30
0
41
1
10
49.809766647948
20
-5.00123067877428
30
0
41
1
10
50.0030339418896
20
-4.92888607284002
30
0
41
1
10
50.1959870388064
20
-4.85477442031072
30
0
0
SPLINE
5
F6
100
AcDbEntity
8
1
62
256
6
ByLayer
370
18
48
1
60
0
100
AcDbSpline
70
4
71
3
72
19
73
15
40
0
40
0
40
0
40
0
40
0.0273195406070517
40
0.0273195406070517
40
0.0696099953632682
40
0.154190904875701
40
0.154190904875701
40
0.323352723900561
40
0.323352723900561
40
0.492514542925422
40
0.492514542925422
40
0.661676361950283
40
0.661676361950283
40
1
40
1
40
1
40
1
41
1
10
3.72847166247317
20
6.64652597506978
30
0
41
1
10
3.75376005353613
20
6.64656950422244
30
0
41
1
10
3.77918170824617
20
6.646491454841
30
0
41
1
10
3.84416094971854
20
6.6459940498124
30
0
41
1
10
3.96327316534115
20
6.64424641660636
30
0
41
1
10
4.08431914069595
20
6.64013331681758
30
0
41
1
10
4.32874856706516
20
6.62910428457445
30
0
41
1
10
4.49480812694372
20
6.61802862564653
30
0
41
1
10
4.83217406802319
20
6.58985612397905
30
0
41
1
10
5.00348483353082
20
6.5727531386822
30
0
41
1
10
5.35067168509121
20
6.53354866479171
30
0
41
1
10
5.52655022856442
20
6.51144372393028
30
0
41
1
10
6.06026998852653
20
6.43879896517964
30
0
41
1
10
6.42415888026474
20
6.38198131632905
30
0
41
1
10
6.79471150678617
20
6.31900040721879
30
0
0
SPLINE
5
F7
100
AcDbEntity
8
1
62
256
6
ByLayer
370
18
48
1
60
0
100
AcDbSpline
70
4
71
3
72
23
73
19
40
0
40
0
40
0
40
0
40
0.12743724034051
40
0.12743724034051
40
0.25487448068102
40
0.25487448068102
40
0.318593100851275
40
0.350452410936401
40
0.350452410936401
40
0.382311721021528
40
0.382311721021528
40
0.509748961362036
40
0.509748961362036
40
0.764623442043053
40
0.764623442043053
40
0.89206068238356
40
0.89206068238356
40
1
40
1
40
1
40
1
41
1
10
20.4002948442661
20
6.66428244082425
30
0
41
1
10
20.046899075399
20
6.65185205168612
30
0
41
1
10
19.6931162033419
20
6.63090850720187
30
0
41
1
10
18.9842266535727
20
6.57197265445575
30
0
41
1
10
18.6291482564554
20
6.53396712009246
30
0
41
1
10
18.0950126732096
20
6.46417429735161
30
0
41
1
10
17.8275654050784
20
6.42608309259418
30
0
41
1
10
17.5594581305772
20
6.38320309559305
30
0
41
1
10
17.3805639274367
20
6.3535521915941
30
0
41
1
10
17.2909992890866
20
6.33818736880426
30
0
41
1
10
16.8435362865714
20
6.25884112323195
30
0
41
1
10
16.486363333266
20
6.18722969744996
30
0
41
1
10
15.4162386520032
20
5.94889268368678
30
0
41
1
10
14.7045108059676
20
5.75880925663773
30
0
41
1
10
13.6359521066444
20
5.43024962190603
30
0
41
1
10
13.2795662255276
20
5.31352532148026
30
0
41
1
10
12.620345457285
20
5.08523175391912
30
0
41
1
10
12.3176591710306
20
4.9756097469274
30
0
41
1
10
12.0144381442827
20
4.86119488196374
30
0
0
SPLINE
5
F8
100
AcDbEntity
8
1
62
256
6
ByLayer
370
18
48
1
60
0
100
AcDbSpline
70
4
71
3
72
108
73
104
40
0
40
0
40
0
40
0
40
0.0312500000000008
40
0.0312500000000008
40
0.0468750000000008
40
0.0468750000000008
40
0.0625000000000009
40
0.0781250000000009
40
0.0781250000000009
40
0.0937500000000009
40
0.0937500000000009
40
0.109375000000001
40
0.109375000000001
40
0.125000000000001
40
0.140625000000001
40
0.140625000000001
40
0.156250000000001
40
0.156250000000001
40
0.171875000000001
40
0.171875000000001
40
0.187500000000001
40
0.203125000000001
40
0.203125000000001
40
0.218750000000001
40
0.218750000000001
40
0.250000000000001
40
0.250000000000001
40
0.265625000000001
40
0.265625000000001
40
0.28125
40
0.28125
40
0.296875
40
0.296875
40
0.312499999999999
40
0.312499999999999
40
0.343749999999999
40
0.343749999999999
40
0.374999999999998
40
0.374999999999998
40
0.390624999999998
40
0.390624999999998
40
0.406249999999998
40
0.406249999999998
40
0.437499999999997
40
0.437499999999997
40
0.453124999999997
40
0.453124999999997
40
0.468749999999996
40
0.468749999999996
40
0.484374999999996
40
0.484374999999996
40
0.499999999999995
40
0.499999999999995
40
0.531249999999996
40
0.531249999999996
40
0.546874999999995
40
0.546874999999995
40
0.562499999999995
40
0.562499999999995
40
0.578124999999995
40
0.578124999999995
40
0.593749999999995
40
0.593749999999995
40
0.624999999999995
40
0.624999999999995
40
0.640624999999995
40
0.640624999999995
40
0.656249999999995
40
0.656249999999995
40
0.687499999999996
40
0.687499999999996
40
0.703124999999997
40
0.703124999999997
40
0.718749999999997
40
0.718749999999997
40
0.749999999999998
40
0.749999999999998
40
0.765624999999998
40
0.765624999999998
40
0.781249999999998
40
0.796874999999998
40
0.796874999999998
40
0.812499999999998
40
0.812499999999998
40
0.828124999999998
40
0.828124999999998
40
0.843749999999999
40
0.859374999999999
40
0.859374999999999
40
0.874999999999999
40
0.874999999999999
40
0.890624999999999
40
0.890624999999999
40
0.906249999999999
40
0.921874999999999
40
0.921874999999999
40
0.937499999999999
40
0.937499999999999
40
0.968749999999999
40
0.968749999999999
40
0.984375
40
0.984375
40
1
40
1
40
1
40
1
41
1
10
20.400294844277
20
6.65491653129075
30
0
41
1
10
20.8074938540639
20
6.67365061185313
30
0
41
1
10
21.2146788594268
20
6.68115601118808
30
0
41
1
10
21.8253737529839
20
6.67549638386896
30
0
41
1
10
22.0289665987872
20
6.67079021640345
30
0
41
1
10
22.435961019763
20
6.65575656254927
30
0
41
1
10
22.8428390030334
20
6.6351021518046
30
0
41
1
10
23.2497386966721
20
6.60324992538941
30
0
41
1
10
23.6567811923296
20
6.56582641883116
30
0
41
1
10
23.8603437443181
20
6.54433147937988
30
0
41
1
10
24.2674135546628
20
6.49584801916319
30
0
41
1
10
24.4709964128401
20
6.46884915631688
30
0
41
1
10
24.8780114439178
20
6.40943447089424
30
0
41
1
10
25.2848998179644
20
6.34460243844174
30
0
41
1
10
25.6917598993208
20
6.26905988503756
30
0
41
1
10
26.098722358445
20
6.18822577246291
30
0
41
1
10
26.3022695368209
20
6.14515842828874
30
0
41
1
10
26.7092564718537
20
6.05387763801309
30
0
41
1
10
26.9127723635323
20
6.00564758278014
30
0
41
1
10
27.3197228521976
20
5.90416117906037
30
0
41
1
10
27.726519311964
20
5.79766872581513
30
0
41
1
10
28.1332591362357
20
5.68138979619582
30
0
41
1
10
28.5400978306991
20
5.56033476173357
30
0
41
1
10
28.7436050887335
20
5.49740636655582
30
0
41
1
10
29.3540318888124
20
5.30178175270109
30
0
41
1
10
29.7610528443364
20
5.16218092601031
30
0
41
1
10
30.3712152863598
20
4.94013819686458
30
0
41
1
10
30.574575273203
20
4.8640079438467
30
0
41
1
10
30.9813559426805
20
4.70765465151408
30
0
41
1
10
31.1848158532497
20
4.62741559906721
30
0
41
1
10
31.5917120901608
20
4.46307278759292
30
0
41
1
10
31.7951254787616
20
4.37897925238951
30
0
41
1
10
32.2020059531405
20
4.20711275250824
30
0
41
1
10
32.4054103236606
20
4.11936583184365
30
0
41
1
10
33.0154334460098
20
3.85107172261925
30
0
41
1
10
33.4220209961526
20
3.6654011949775
30
0
41
1
10
34.2357195172207
20
3.28207490174785
30
0
41
1
10
34.642272612785
20
3.08470656066191
30
0
41
1
10
35.252322023683
20
2.78116552003448
30
0
41
1
10
35.4557487180851
20
2.67871447936054
30
0
41
1
10
35.8625586781569
20
2.47161178640315
30
0
41
1
10
36.065931157259
20
2.36696626940619
30
0
41
1
10
36.6761285491649
20
2.05004391972886
30
0
41
1
10
37.0826259694117
20
1.83498946334083
30
0
41
1
10
37.692448833049
20
1.50813979232015
30
0
41
1
10
37.8957719503522
20
1.39846007478752
30
0
41
1
10
38.3024853029485
20
1.17794524701236
30
0
41
1
10
38.5058040040328
20
1.06714922262219
30
0
41
1
10
38.9124914223489
20
0.844704639046483
30
0
41
1
10
39.115849201565
20
0.733062058085977
30
0
41
1
10
39.522518506396
20
0.509270035689525
30
0
41
1
10
39.7258994880233
20
0.397084042181689
30
0
41
1
10
40.3358444295661
20
0.0602344468754268
30
0
41
1
10
40.7422104771152
20
-0.164726750660264
30
0
41
1
10
41.3520592770612
20
-0.5015016933543
30
0
41
1
10
41.5554164922978
20
-0.613660995804992
30
0
41
1
10
41.962028084671
20
-0.83735833662945
30
0
41
1
10
42.1653397993585
20
-0.948927893480914
30
0
41
1
10
42.5719619101243
20
-1.17121423935515
30
0
41
1
10
42.775236095878
20
-1.2819112113819
30
0
41
1
10
43.1818339395541
20
-1.50219350358569
30
0
41
1
10
43.3851275776292
20
-1.61176217074234
30
0
41
1
10
43.9947770074082
20
-1.9382136918677
30
0
41
1
10
44.4010556559974
20
-2.15291885935699
30
0
41
1
10
45.0109357528875
20
-2.4693786240434
30
0
41
1
10
45.2141875305614
20
-2.57387035330194
30
0
41
1
10
45.6207071812174
20
-2.78065270866307
30
0
41
1
10
45.8239944588545
20
-2.88295245093107
30
0
41
1
10
46.4335772925003
20
-3.1860043972174
30
0
41
1
10
46.839753651637
20
-3.38299112167226
30
0
41
1
10
47.4494410352348
20
-3.66972009824386
30
0
41
1
10
47.6526817387199
20
-3.76380937373605
30
0
41
1
10
48.0590014329034
20
-3.9486896117123
30
0
41
1
10
48.2621257702521
20
-4.03950195858977
30
0
41
1
10
48.8715729942138
20
-4.30679365096503
30
0
41
1
10
49.278091817471
20
-4.47816672845062
30
0
41
1
10
49.8877566339369
20
-4.72356419191715
30
0
41
1
10
50.0909989521152
20
-4.80343774438816
30
0
41
1
10
50.4972929565965
20
-4.95904858503184
30
0
41
1
10
50.9034794510899
20
-5.11055714632502
30
0
41
1
10
51.3096926274361
20
-5.25356622918829
30
0
41
1
10
51.7160428971169
20
-5.39217592788282
30
0
41
1
10
51.9192269097702
20
-5.45925991768968
30
0
41
1
10
52.3255480655342
20
-5.58878790195337
30
0
41
1
10
52.5287499092112
20
-5.65125172076063
30
0
41
1
10
52.9349863040698
20
-5.77134069364223
30
0
41
1
10
53.3411075993905
20
-5.886609254881
30
0
41
1
10
53.7472466856765
20
-5.9920170521282
30
0
41
1
10
54.1535159161209
20
-6.09238826099423
30
0
41
1
10
54.3567132546786
20
-6.14005327503159
30
0
41
1
10
54.7630184463031
20
-6.23017659506604
30
0
41
1
10
54.9662083395894
20
-6.27265407084988
30
0
41
1
10
55.3724666172246
20
-6.35229935534139
30
0
41
1
10
55.7785783174447
20
-6.42663256949893
30
0
41
1
10
56.1846320483362
20
-6.49020723337242
30
0
41
1
10
56.5907782550183
20
-6.54833390035415
30
0
41
1
10
56.7939288041422
20
-6.57467593419352
30
0
41
1
10
57.40323263982
20
-6.64537740863085
30
0
41
1
10
57.8094387702685
20
-6.68143013534893
30
0
41
1
10
58.4186256809634
20
-6.71859368357678
30
0
41
1
10
58.6217306167524
20
-6.72816807076646
30
0
41
1
10
59.0279151636276
20
-6.74165829522437
30
0
41
1
10
59.2309641071183
20
-6.74557423636097
30
0
41
1
10
59.4340302330904
20
-6.74665906084218
30
0
0
SPLINE
5
F9
100
AcDbEntity
8
1
62
256
6
ByLayer
370
18
48
1
60
0
100
AcDbSpline
70
4
71
3
72
12
73
8
40
0
40
0
40
0
40
0
40
0.499999999999998
40
0.499999999999998
40
0.749999999999999
40
0.749999999999999
40
1
40
1
40
1
40
1
41
1
10
59.3852893516977
20
-6.68916496832884
30
0
41
1
10
59.3933911633274
20
-6.70738941658371
30
0
41
1
10
59.4014993388101
20
-6.72130266556542
30
0
41
1
10
59.413689647466
20
-6.73569372007148
30
0
41
1
10
59.4177597949278
20
-6.73941143803117
30
0
41
1
10
59.4259000911156
20
-6.744668192831
30
0
41
1
10
59.429966856821
20
-6.74620635221868
30
0
41
1
10
59.4340302330905
20
-6.74665906084218
30
0
0
SPLINE
5
FA
100
AcDbEntity
8
1
62
256
6
ByLayer
370
18
48
1
60
0
100
AcDbSpline
70
4
71
3
72
76
73
72
40
0
40
0
40
0
40
0
40
0.0333155648306124
40
0.0333155648306124
40
0.0416444560382652
40
0.0416444560382652
40
0.0499733472459181
40
0.0499733472459181
40
0.0666311296612239
40
0.0999466944918354
40
0.0999466944918354
40
0.133262259322447
40
0.133262259322447
40
0.149920041737753
40
0.149920041737753
40
0.158248932945405
40
0.158248932945405
40
0.166577824153057
40
0.166577824153057
40
0.199893388983665
40
0.199893388983665
40
0.233208953814272
40
0.233208953814272
40
0.266524518644879
40
0.266524518644879
40
0.283182301060182
40
0.283182301060182
40
0.299840083475486
40
0.333155648306092
40
0.333155648306092
40
0.399786777967304
40
0.399786777967304
40
0.433102342797909
40
0.433102342797909
40
0.466417907628514
40
0.466417907628514
40
0.49973347245912
40
0.49973347245912
40
0.508062363666771
40
0.508062363666771
40
0.516391254874423
40
0.533049037289725
40
0.533049037289725
40
0.566364602120328
40
0.566364602120328
40
0.599680166950932
40
0.599680166950932
40
0.66631129661214
40
0.66631129661214
40
0.699626861442744
40
0.699626861442744
40
0.732942426273349
40
0.732942426273349
40
0.749600208688651
40
0.749600208688651
40
0.766257991103954
40
0.766257991103954
40
0.799573555934559
40
0.799573555934559
40
0.832889120765164
40
0.832889120765164
40
0.849546903180466
40
0.849546903180466
40
0.857875794388117
40
0.857875794388117
40
0.866204685595768
40
0.932835815256974
40
0.932835815256974
40
0.999466944918179
40
0.999466944918179
40
1
40
1
40
1
40
1
41
1
10
59.3852893517004
20
-6.68916496832821
30
0
41
1
10
58.9779859029806
20
-6.65887468670402
30
0
41
1
10
58.5708562389895
20
-6.6172874296158
30
0
41
1
10
58.0616019952646
20
-6.55140739274171
30
0
41
1
10
57.9597339220166
20
-6.53753651886825
30
0
41
1
10
57.7559488901229
20
-6.50841047688917
30
0
41
1
10
57.6540061151886
20
-6.49315118612577
30
0
41
1
10
57.3482939396869
20
-6.4453385715814
30
0
41
1
10
56.7374412710955
20
-6.34159636571303
30
0
41
1
10
56.1277735462609
20
-6.2139261039809
30
0
41
1
10
55.3149941295454
20
-6.02317433607615
30
0
41
1
10
54.9086883148858
20
-5.91751086266035
30
0
41
1
10
54.2985491876956
20
-5.74422721257116
30
0
41
1
10
54.0950587655477
20
-5.68399990114713
30
0
41
1
10
53.7895811936463
20
-5.59001786523044
30
0
41
1
10
53.6877142009369
20
-5.55808440725144
30
0
41
1
10
53.4838801223312
20
-5.49302018954893
30
0
41
1
10
53.3819068384424
20
-5.45988712027471
30
0
41
1
10
52.8724365938694
20
-5.29149704475594
30
0
41
1
10
52.4655816828715
20
-5.14789281362593
30
0
41
1
10
51.6523712535815
20
-4.8441205602667
30
0
41
1
10
51.2460519982595
20
-4.68390461276144
30
0
41
1
10
50.4328678645361
20
-4.34825915578594
30
0
41
1
10
50.0260822043066
20
-4.17272416662715
30
0
41
1
10
49.4148011301917
20
-3.89891588502283
30
0
41
1
10
49.2106955539408
20
-3.80582652374136
30
0
41
1
10
48.8035370918428
20
-3.61703595751459
30
0
41
1
10
48.1939205880839
20
-3.32973640684315
30
0
41
1
10
47.5871431012803
20
-3.03102942526121
30
0
41
1
10
46.3760543259667
20
-2.42074799318849
30
0
41
1
10
45.5718392835524
20
-1.99691856251741
30
0
41
1
10
44.3646071380403
20
-1.34581634164542
30
0
41
1
10
43.9620405578402
20
-1.12623168383715
30
0
41
1
10
43.1557099391586
20
-0.683545352133024
30
0
41
1
10
42.7520043454348
20
-0.460334729679232
30
0
41
1
10
41.9424186237516
20
-0.0121436070478467
30
0
41
1
10
41.5365206784099
20
0.212801472283559
30
0
41
1
10
41.0272085231712
20
0.494042756451535
30
0
41
1
10
40.9252088539542
20
0.550315526527186
30
0
41
1
10
40.7211766528457
20
0.662741008101335
30
0
41
1
10
40.4154341447032
20
0.831003874862347
30
0
41
1
10
40.1105401288755
20
0.998024060066456
30
0
41
1
10
39.5017124490119
20
1.33011989740288
30
0
41
1
10
39.0971572131546
20
1.54901440028033
30
0
41
1
10
38.2895270019725
20
1.97976863586698
30
0
41
1
10
37.8864549697679
20
2.19163884303944
30
0
41
1
10
36.6782931893628
20
2.81478841779671
30
0
41
1
10
35.8742155358587
20
3.21351349628014
30
0
41
1
10
34.6643728954575
20
3.77695977605296
30
0
41
1
10
34.2604885401673
20
3.95903340942721
30
0
41
1
10
33.4506566651831
20
4.31026883735976
30
0
41
1
10
33.0446993234453
20
4.47941314062649
30
0
41
1
10
32.4333881502014
20
4.7221064244244
30
0
41
1
10
32.229061580072
20
4.80122769605592
30
0
41
1
10
31.8210899035839
20
4.95509005774116
30
0
41
1
10
31.6172936011283
20
5.02989063734134
30
0
41
1
10
31.0062152251601
20
5.24761610389839
30
0
41
1
10
30.599247211922
20
5.38387307508853
30
0
41
1
10
29.7852610481514
20
5.63771035795497
30
0
41
1
10
29.3782412394752
20
5.75528648543084
30
0
41
1
10
28.7669349915031
20
5.91689316090591
30
0
41
1
10
28.5630380005092
20
5.96830432666764
30
0
41
1
10
28.2569433645353
20
6.04166850662651
30
0
41
1
10
28.1548298735949
20
6.06550632197403
30
0
41
1
10
27.9506885991691
20
6.11186434080147
30
0
41
1
10
27.0328827896918
20
6.31444545351476
30
0
41
1
10
26.1216526493371
20
6.46245668339685
30
0
41
1
10
24.5049153500666
20
6.6379154477782
30
0
41
1
10
23.6981419143861
20
6.68176853780474
30
0
41
1
10
22.882731836624
20
6.68100122511061
30
0
41
1
10
22.8762601187964
20
6.68099228040975
30
0
41
1
10
22.8697882624636
20
6.68098048057254
30
0
0
SPLINE
5
FB
100
AcDbEntity
8
1
62
256
6
ByLayer
370
18
48
1
60
0
100
AcDbSpline
70
4
71
3
72
73
73
69
40
0
40
0
40
0
40
0
40
0.014880497560019
40
0.014880497560019
40
0.0408046949926476
40
0.0408046949926476
40
0.0667288924252762
40
0.0667288924252762
40
0.0926530898579048
40
0.0926530898579048
40
0.118577287290533
40
0.118577287290533
40
0.144501484723162
40
0.144501484723162
40
0.157463583439477
40
0.157463583439477
40
0.170425682155792
40
0.170425682155792
40
0.222274077021053
40
0.222274077021053
40
0.274122471886315
40
0.274122471886315
40
0.300046669318945
40
0.300046669318945
40
0.325970866751576
40
0.325970866751576
40
0.338932965467891
40
0.338932965467891
40
0.351895064184205
40
0.377819261616835
40
0.377819261616835
40
0.429667656482095
40
0.429667656482095
40
0.455591853914726
40
0.455591853914726
40
0.481516051347356
40
0.507440248779987
40
0.507440248779987
40
0.520402347496303
40
0.520402347496303
40
0.533364446212619
40
0.533364446212619
40
0.585212841077882
40
0.585212841077882
40
0.611137038510514
40
0.611137038510514
40
0.637061235943146
40
0.637061235943146
40
0.662985433375778
40
0.662985433375778
40
0.68890963080841
40
0.68890963080841
40
0.740758025673675
40
0.740758025673675
40
0.79260642053894
40
0.79260642053894
40
0.818530617971573
40
0.818530617971573
40
0.844454815404206
40
0.844454815404206
40
0.870379012836838
40
0.870379012836838
40
0.883341111553154
40
0.883341111553154
40
0.896303210269469
40
0.948151605134735
40
0.948151605134735
40
1
40
1
40
1
40
1
41
1
10
35.9627757645382
20
6.46872365716999
30
0
41
1
10
36.0781054967964
20
6.48566972997648
30
0
41
1
10
36.1934408203615
20
6.50174904640596
30
0
41
1
10
36.5097235284222
20
6.54346129232817
30
0
41
1
10
36.7106869835876
20
6.56731821802961
30
0
41
1
10
37.1128409427312
20
6.60962714961983
30
0
41
1
10
37.3140303274986
20
6.62807454170871
30
0
41
1
10
37.7171493193664
20
6.65940713542602
30
0
41
1
10
37.9190838114073
20
6.67230273958572
30
0
41
1
10
38.3234427912994
20
6.69261221074069
30
0
41
1
10
38.5258663179482
20
6.70002520822885
30
0
41
1
10
38.9310276618029
20
6.70928974362585
30
0
41
1
10
39.1337610650853
20
6.71113266492722
30
0
41
1
10
39.4383867235802
20
6.70961726238028
30
0
41
1
10
39.5400344849728
20
6.70839896879843
30
0
41
1
10
39.7434915619347
20
6.7045351179458
30
0
41
1
10
39.8451907069786
20
6.70189250986368
30
0
41
1
10
40.3536118307039
20
6.6851603608317
30
0
41
1
10
40.7600826816547
20
6.66054036926317
30
0
41
1
10
41.5725084014458
20
6.58919749306483
30
0
41
1
10
41.97850015212
20
6.5424871783645
30
0
41
1
10
42.5871111243156
20
6.4556363478045
30
0
41
1
10
42.7899144086174
20
6.42387338735438
30
0
41
1
10
43.1958841433508
20
6.35494458686506
30
0
41
1
10
43.3990555861978
20
6.31778654796145
30
0
41
1
10
43.704214680974
20
6.25809375754574
30
0
41
1
10
43.8060349623346
20
6.23753066303436
30
0
41
1
10
44.0096383777235
20
6.19512624507882
30
0
41
1
10
44.3149397027436
20
6.1296133308305
30
0
41
1
10
44.6199395033076
20
6.05841841956936
30
0
41
1
10
45.2295910208807
20
5.90853277589679
30
0
41
1
10
45.6355551241757
20
5.79863383943785
30
0
41
1
10
46.2436668815078
20
5.61852278953629
30
0
41
1
10
46.446219705166
20
5.55591604981083
30
0
41
1
10
46.8516887618116
20
5.42621751748877
30
0
41
1
10
47.2575514427873
20
5.29208114769827
30
0
41
1
10
47.6642953455502
20
5.14924455278717
30
0
41
1
10
47.9696888472972
20
5.03886460290195
30
0
41
1
10
48.0715710047194
20
5.00151810381499
30
0
41
1
10
48.2750513064145
20
4.92589229580261
30
0
41
1
10
48.3766952649606
20
4.88759672585505
30
0
41
1
10
48.8844470414697
20
4.69373238393004
30
0
41
1
10
49.2891460468974
20
4.53100943239281
30
0
41
1
10
49.8940356476069
20
4.2756496283842
30
0
41
1
10
50.0952932663404
20
4.1886269397942
30
0
41
1
10
50.4975391768771
20
4.0114742794058
30
0
41
1
10
50.6985470663717
20
3.92137720703644
30
0
41
1
10
51.1002827919633
20
3.73808719874754
30
0
41
1
10
51.3009929541515
20
3.64486467998526
30
0
41
1
10
51.7024117054802
20
3.45576201499424
30
0
41
1
10
51.9031358541416
20
3.35990841397654
30
0
41
1
10
52.5053732013844
20
3.06850164090906
30
0
41
1
10
52.9069294696789
20
2.86907125091526
30
0
41
1
10
53.7105985118403
20
2.46056600286712
30
0
41
1
10
54.1126958315054
20
2.25146243568523
30
0
41
1
10
54.7167123520873
20
1.93119516925219
30
0
41
1
10
54.9181884000783
20
1.82332016051254
30
0
41
1
10
55.3218030980397
20
1.60600930070848
30
0
41
1
10
55.5239660528467
20
1.49662046395773
30
0
41
1
10
55.9290638248083
20
1.27648079183166
30
0
41
1
10
56.1319914160147
20
1.16571637638194
30
0
41
1
10
56.4370004725751
20
0.998605206795219
30
0
41
1
10
56.5387959542587
20
0.942728556402301
30
0
41
1
10
56.7422248306585
20
0.830878475657784
30
0
41
1
10
57.2506139204239
20
0.550887638858541
30
0
41
1
10
57.7582275948003
20
0.269321433444844
30
0
41
1
10
58.5699737599698
20
-0.18219864600178
30
0
41
1
10
58.9756257975276
20
-0.408471554211445
30
0
41
1
10
59.3814245500502
20
-0.634596315918202
30
0
0
SPLINE
5
FC
100
AcDbEntity
8
1
62
256
6
ByLayer
370
18
48
1
60
0
100
AcDbSpline
70
4
71
3
72
8
73
4
40
0
40
0
40
0
40
0
40
1
40
1
40
1
40
1
41
1
10
59.3814245500432
20
-0.634596315915132
30
0
41
1
10
59.4122030615322
20
-0.338797261038252
30
0
41
1
10
59.4490101057466
20
-0.0441552426871965
30
0
41
1
10
59.493288535187
20
0.249130419274707
30
0
0
SPLINE
5
FD
100
AcDbEntity
8
1
62
256
6
ByLayer
370
18
48
1
60
0
100
AcDbSpline
70
4
71
3
72
18
73
14
40
0
40
0
40
0
40
0
40
0.157803390858117
40
0.157803390858117
40
0.315606781716234
40
0.315606781716234
40
0.47341017257435
40
0.47341017257435
40
0.631213563432467
40
0.631213563432467
40
0.946820345148701
40
0.946820345148701
40
1
40
1
40
1
40
1
41
1
10
6.79471077990871
20
-6.31900034650818
30
0
41
1
10
7.07222237078434
20
-6.27182097806201
30
0
41
1
10
7.34898591676407
20
-6.21979319125276
30
0
41
1
10
7.90121819502048
20
-6.1062955535464
30
0
41
1
10
8.17667220929744
20
-6.04481272194207
30
0
41
1
10
8.72657179158824
20
-5.91269197457962
30
0
41
1
10
9.00097959512925
20
-5.84201534462409
30
0
41
1
10
9.54944929961212
20
-5.69216969156713
30
0
41
1
10
9.8233882612866
20
-5.61289457696719
30
0
41
1
10
10.6446115984707
20
-5.36235874379827
30
0
41
1
10
11.1912820313873
20
-5.1783469715555
30
0
41
1
10
11.8306712237592
20
-4.94522039571135
30
0
41
1
10
11.9228906573355
20
-4.91116825990497
30
0
41
1
10
12.0151318553883
20
-4.87668506357733
30
0
0
SPLINE
5
FE
100
AcDbEntity
8
1
62
256
6
ByLayer
370
18
48
1
60
0
100
AcDbSpline
70
4
71
3
72
62
73
58
40
0
40
0
40
0
40
0
40
0.0019074549110297
40
0.0019074549110297
40
0.0240872892463425
40
0.0240872892463425
40
0.0462671235816554
40
0.0462671235816554
40
0.0684469579169682
40
0.0684469579169682
40
0.112806626587594
40
0.112806626587594
40
0.201525963928843
40
0.201525963928843
40
0.245885632599466
40
0.245885632599466
40
0.290245301270091
40
0.290245301270091
40
0.334604969940714
40
0.334604969940714
40
0.378964638611338
40
0.378964638611338
40
0.423324307281962
40
0.423324307281962
40
0.445504141617274
40
0.445504141617274
40
0.456594058784929
40
0.456594058784929
40
0.467683975952584
40
0.467683975952584
40
0.512043644623201
40
0.512043644623201
40
0.556403313293819
40
0.556403313293819
40
0.600762981964436
40
0.600762981964436
40
0.645122650635053
40
0.645122650635053
40
0.68948231930567
40
0.68948231930567
40
0.733841987976287
40
0.733841987976287
40
0.778201656646904
40
0.778201656646904
40
0.800381490982214
40
0.800381490982214
40
0.822561325317523
40
0.822561325317523
40
0.866920993988144
40
0.866920993988144
40
0.889100828323453
40
0.889100828323453
40
0.911280662658763
40
0.911280662658763
40
0.955640331329381
40
0.955640331329381
40
1
40
1
40
1
40
1
41
1
10
40.9428684153974
20
6.71351197865454
30
0
41
1
10
40.9547649578001
20
6.7135340816692
30
0
41
1
10
40.9666597226718
20
6.71354643434745
30
0
41
1
10
41.1168381144766
20
6.71357930133996
30
0
41
1
10
41.2549300039229
20
6.71229253483159
30
0
41
1
10
41.530760390197
20
6.70710223151588
30
0
41
1
10
41.6684853865966
20
6.70319647729062
30
0
41
1
10
41.9437041913849
20
6.69279818124429
30
0
41
1
10
42.0811932704089
20
6.68630688054296
30
0
41
1
10
42.4932557737311
20
6.6629770498721
30
0
41
1
10
42.7674553877396
20
6.64228729891335
30
0
41
1
10
43.5888713180587
20
6.56502212768163
30
0
41
1
10
44.1349116896577
20
6.49322947021301
30
0
41
1
10
44.953685585116
20
6.35627996603881
30
0
41
1
10
45.2265745210722
20
6.30576781539685
30
0
41
1
10
45.772410973621
20
6.19509284848942
30
0
41
1
10
46.0453659304604
20
6.13493178526758
30
0
41
1
10
46.591649777963
20
6.00512462082355
30
0
41
1
10
46.8651146262652
20
5.93559208842737
30
0
41
1
10
47.4127207716534
20
5.78725591862428
30
0
41
1
10
47.6868783932863
20
5.70846256606839
30
0
41
1
10
48.2361743673748
20
5.54177719841223
30
0
41
1
10
48.5113210432897
20
5.45389267801104
30
0
41
1
10
48.925038633188
20
5.31542045233306
30
0
41
1
10
49.0631108992968
20
5.26815562800519
30
0
41
1
10
49.2705085470454
20
5.19563019246823
30
0
41
1
10
49.3397158785083
20
5.17117417840305
30
0
41
1
10
49.4779981802602
20
5.12180960417675
30
0
41
1
10
49.5470941087593
20
5.09689347106087
30
0
41
1
10
49.8923526265143
20
4.97115366601244
30
0
41
1
10
50.1678399830598
20
4.86683822897305
30
0
41
1
10
50.7176042159293
20
4.6511243679027
30
0
41
1
10
50.9918405931506
20
4.53966679383728
30
0
41
1
10
51.5396842700186
20
4.31051905419096
30
0
41
1
10
51.8132159091949
20
4.19272735648616
30
0
41
1
10
52.359710648569
20
3.95105128526035
30
0
41
1
10
52.6326681750918
20
3.82715759193707
30
0
41
1
10
53.1783168595077
20
3.57374256595844
30
0
41
1
10
53.4510055235595
20
3.44421709413302
30
0
41
1
10
53.9964542633132
20
3.18006895720271
30
0
41
1
10
54.2692420066678
20
3.04549191710427
30
0
41
1
10
54.8151494130838
20
2.77165861086442
30
0
41
1
10
55.0882500559113
20
2.63237016288144
30
0
41
1
10
55.4983220139048
20
2.42018735498769
30
0
41
1
10
55.6350715983441
20
2.34889819021734
30
0
41
1
10
55.9088079390866
20
2.20539882884779
30
0
41
1
10
56.0458041904068
20
2.13320613835521
30
0
41
1
10
56.4571269110267
20
1.9152036415654
30
0
41
1
10
56.7318174262091
20
1.76802242183794
30
0
41
1
10
57.1447420569563
20
1.54474879456302
30
0
41
1
10
57.2825327340136
20
1.46990890733187
30
0
41
1
10
57.5584554724582
20
1.31946802946004
30
0
41
1
10
57.6966273877177
20
1.24384423643804
30
0
41
1
10
58.1114558265359
20
1.01607667058241
30
0
41
1
10
58.3878053452324
20
0.863364205620769
30
0
41
1
10
58.9405026312067
20
0.556925556351899
30
0
41
1
10
59.2168562929328
20
0.403210397049946
30
0
41
1
10
59.4932885351856
20
0.249130419264873
30
0
0
SPLINE
5
FF
100
AcDbEntity
8
1
62
256
6
ByLayer
370
18
48
1
60
0
100
AcDbSpline
70
4
71
3
72
23
73
19
40
0
40
0
40
0
40
0
40
0.125000000000015
40
0.125000000000015
40
0.250000000000029
40
0.250000000000029
40
0.312500000000035
40
0.343750000000036
40
0.343750000000036
40
0.375000000000035
40
0.375000000000035
40
0.500000000000029
40
0.500000000000029
40
0.750000000000015
40
0.750000000000015
40
0.875000000000008
40
0.875000000000008
40
1
40
1
40
1
40
1
41
1
10
20.4002948442644
20
-6.6642824408242
30
0
41
1
10
20.0468990753973
20
-6.65185205168601
30
0
41
1
10
19.6931162033402
20
-6.63090850720175
30
0
41
1
10
18.9842266535712
20
-6.57197265445561
30
0
41
1
10
18.629148256454
20
-6.53396712009229
30
0
41
1
10
18.0950126732084
20
-6.46417429735143
30
0
41
1
10
17.8275654050772
20
-6.42608309259401
30
0
41
1
10
17.559458130576
20
-6.38320309559285
30
0
41
1
10
17.3805639274356
20
-6.35355219159393
30
0
41
1
10
17.2909992890854
20
-6.33818736880406
30
0
41
1
10
16.8435362865704
20
-6.25884112323175
30
0
41
1
10
16.4863633332651
20
-6.18722969744977
30
0
41
1
10
15.4162386520025
20
-5.94889268368658
30
0
41
1
10
14.704510805967
20
-5.75880925663756
30
0
41
1
10
13.6359521066441
20
-5.43024962190589
30
0
41
1
10
13.2795662255272
20
-5.31352532148014
30
0
41
1
10
12.5657374890621
20
-5.06632056591738
30
0
41
1
10
12.2082935952448
20
-4.9358450941385
30
0
41
1
10
11.850065332557
20
-4.79872356757031
30
0
0
SPLINE
5
100
100
AcDbEntity
8
1
62
256
6
ByLayer
370
18
48
1
60
0
100
AcDbSpline
70
4
71
3
72
8
73
4
40
0
40
0
40
0
40
0
40
1
40
1
40
1
40
1
41
1
10
20.400294844277
20
-6.65491653129072
30
0
41
1
10
20.726257493247
20
-6.66991315549504
30
0
41
1
10
21.0522111681873
20
-6.67771444495318
30
0
41
1
10
21.3781348008617
20
-6.67829485273219
30
0
0
SPLINE
5
101
100
AcDbEntity
8
1
62
256
6
ByLayer
370
18
48
1
60
0
100
AcDbSpline
70
4
71
3
72
33
73
29
40
0
40
0
40
0
40
0
40
0.0106193888383458
40
0.0106193888383458
40
0.0765780962491233
40
0.142536803659901
40
0.142536803659901
40
0.208495511070679
40
0.208495511070679
40
0.274454218481457
40
0.274454218481457
40
0.340412925892234
40
0.406371633303012
40
0.406371633303012
40
0.472330340713789
40
0.472330340713789
40
0.538289048124567
40
0.538289048124567
40
0.604247755535345
40
0.670206462946122
40
0.670206462946122
40
0.7361651703569
40
0.7361651703569
40
0.868082585178452
40
0.868082585178452
40
0.934041292589226
40
0.934041292589226
40
1
40
1
40
1
40
1
41
1
10
50.1960186830301
20
4.84350278549715
30
0
41
1
10
50.2287299213569
20
4.85613612377821
30
0
41
1
10
50.2614391732072
20
4.86871644845732
30
0
41
1
10
50.4972929565965
20
4.95904858503181
30
0
41
1
10
50.9034794830608
20
5.11055707763728
30
0
41
1
10
51.3096926274361
20
5.25356622918829
30
0
41
1
10
51.7160428971172
20
5.3921759278829
30
0
41
1
10
51.9192269097704
20
5.45925991768971
30
0
41
1
10
52.3255480655344
20
5.58878790195342
30
0
41
1
10
52.5287499092114
20
5.65125172076068
30
0
41
1
10
52.9349863040698
20
5.7713406936422
30
0
41
1
10
53.3411076313883
20
5.88660926173594
30
0
41
1
10
53.7472466856765
20
5.9920170521282
30
0
41
1
10
54.1535159161211
20
6.09238826099428
30
0
41
1
10
54.3567132546788
20
6.14005327503162
30
0
41
1
10
54.7630184463033
20
6.23017659506607
30
0
41
1
10
54.9662083395896
20
6.27265407084994
30
0
41
1
10
55.3724666172246
20
6.35229935534139
30
0
41
1
10
55.7785783460131
20
6.42663249867755
30
0
41
1
10
56.1846320483362
20
6.49020723337242
30
0
41
1
10
56.5907782550184
20
6.54833390035418
30
0
41
1
10
56.7939288041424
20
6.57467593419355
30
0
41
1
10
57.4032326398202
20
6.64537740863085
30
0
41
1
10
57.8094387702686
20
6.68143013534893
30
0
41
1
10
58.4186256809634
20
6.71859368357678
30
0
41
1
10
58.6217306167525
20
6.72816807076646
30
0
41
1
10
59.0279151636276
20
6.74165829522437
30
0
41
1
10
59.2309641071182
20
6.74557423636097
30
0
41
1
10
59.4340302330905
20
6.74665906084218
30
0
0
SPLINE
5
102
100
AcDbEntity
8
1
62
256
6
ByLayer
370
18
48
1
60
0
100
AcDbSpline
70
4
71
3
72
107
73
103
40
0
40
0
40
0
40
0
40
0.0624999999999325
40
0.0624999999999325
40
0.124999999999865
40
0.124999999999865
40
0.187499999999797
40
0.187499999999797
40
0.24999999999973
40
0.24999999999973
40
0.281249999999696
40
0.281249999999696
40
0.312499999999662
40
0.312499999999662
40
0.328124999999646
40
0.328124999999646
40
0.335937499999638
40
0.335937499999638
40
0.336914062499636
40
0.336914062499636
40
0.337890624999635
40
0.337890624999635
40
0.339843749999631
40
0.339843749999631
40
0.340820312499629
40
0.340820312499629
40
0.341796874999627
40
0.341796874999627
40
0.342773437499625
40
0.342773437499625
40
0.343261718749624
40
0.343261718749624
40
0.343749999999624
40
0.374999999999641
40
0.374999999999641
40
0.406249999999658
40
0.406249999999658
40
0.414062499999662
40
0.414062499999662
40
0.421874999999666
40
0.437499999999675
40
0.437499999999675
40
0.468749999999692
40
0.468749999999692
40
0.499999999999709
40
0.499999999999709
40
0.507812499999713
40
0.507812499999713
40
0.515624999999718
40
0.515624999999718
40
0.531249999999726
40
0.531249999999726
40
0.546874999999734
40
0.546874999999734
40
0.562499999999742
40
0.562499999999742
40
0.570312499999746
40
0.570312499999746
40
0.578124999999751
40
0.578124999999751
40
0.593749999999759
40
0.593749999999759
40
0.609374999999768
40
0.609374999999768
40
0.617187499999772
40
0.621093749999775
40
0.621093749999775
40
0.624999999999777
40
0.624999999999777
40
0.656249999999795
40
0.656249999999795
40
0.671874999999804
40
0.671874999999804
40
0.687499999999813
40
0.687499999999813
40
0.703124999999822
40
0.703124999999822
40
0.718749999999831
40
0.718749999999831
40
0.726562499999836
40
0.726562499999836
40
0.730468749999838
40
0.730468749999838
40
0.734374999999841
40
0.749999999999851
40
0.749999999999851
40
0.781249999999871
40
0.781249999999871
40
0.812499999999891
40
0.812499999999891
40
0.820312499999895
40
0.820312499999895
40
0.8281249999999
40
0.843749999999909
40
0.843749999999909
40
0.874999999999927
40
0.874999999999927
40
0.906249999999945
40
0.906249999999945
40
0.937499999999963
40
0.937499999999963
40
1
40
1
40
1
40
1
41
1
10
11.8499209461188
20
-4.79866720740148
30
0
41
1
10
11.4801612537342
20
-4.65707908688194
30
0
41
1
10
11.1079685518749
20
-4.51268526771455
30
0
41
1
10
10.3565363329912
20
-4.22360935579397
30
0
41
1
10
9.97729465835098
20
-4.07893448993966
30
0
41
1
10
9.20980246192616
20
-3.79481636477408
30
0
41
1
10
8.82265525039512
20
-3.65580259477287
30
0
41
1
10
8.04034786884475
20
-3.38919505278994
30
0
41
1
10
7.64515933820675
20
-3.26157698978412
30
0
41
1
10
7.0455751576491
20
-3.08197184679102
30
0
41
1
10
6.84476824719175
20
-3.02412773940858
30
0
41
1
10
6.44137034481065
20
-2.91299048008662
30
0
41
1
10
6.23871093673131
20
-2.85967907607255
30
0
41
1
10
5.93346320257149
20
-2.78345499667404
30
0
41
1
10
5.831503722977
20
-2.75867002442555
30
0
41
1
10
5.67824954394962
20
-2.72246146268452
30
0
41
1
10
5.62711474800338
20
-2.71055331294181
30
0
41
1
10
5.56953205939561
20
-2.6973434197794
30
0
41
1
10
5.56313695453227
20
-2.6958644911156
30
0
41
1
10
5.5503287381452
20
-2.6929723419924
30
0
41
1
10
5.54390346414525
20
-2.69169419046085
30
0
41
1
10
5.52455595592778
20
-2.68883097990607
30
0
41
1
10
5.51155723531812
20
-2.68811868618508
30
0
41
1
10
5.49187311234289
20
-2.68926865649274
30
0
41
1
10
5.48526450573638
20
-2.69003090592378
30
0
41
1
10
5.47235310741377
20
-2.69240371425335
30
0
41
1
10
5.46600921208668
20
-2.69402073580343
30
0
41
1
10
5.45361437609495
20
-2.69838202405444
30
0
41
1
10
5.447671452001
20
-2.70109029742784
30
0
41
1
10
5.43915079094856
20
-2.70579518828811
30
0
41
1
10
5.43636516773293
20
-2.70744560732908
30
0
41
1
10
5.43077354484714
20
-2.71071406581879
30
0
41
1
10
5.2490797907152
20
-2.81696723136332
30
0
41
1
10
5.06952675886154
20
-2.92506438494152
30
0
41
1
10
4.72149332400278
20
-3.14139835153091
30
0
41
1
10
4.55018370216348
20
-3.25133137221891
30
0
41
1
10
4.33999314261692
20
-3.39122546541367
30
0
41
1
10
4.29814361493496
20
-3.41933524871968
30
0
41
1
10
4.21501448561889
20
-3.47570478551896
30
0
41
1
10
4.09112126578341
20
-3.56052030166219
30
0
41
1
10
3.96971610089861
20
-3.64613483196885
30
0
41
1
10
3.73049617108222
20
-3.81847946263719
30
0
41
1
10
3.57577905296358
20
-3.93485796919575
30
0
41
1
10
3.27780172397072
20
-4.17095178721812
30
0
41
1
10
3.13452061751769
20
-4.290662386516
30
0
41
1
10
2.96440987336115
20
-4.44275857056223
30
0
41
1
10
2.93084076296165
20
-4.47330147337135
30
0
41
1
10
2.86467139825476
20
-4.53464768773367
30
0
41
1
10
2.83205423350597
20
-4.56546935967708
30
0
41
1
10
2.73634510395431
20
-4.65777455934074
30
0
41
1
10
2.67519768877438
20
-4.71927488503124
30
0
41
1
10
2.55876794075954
20
-4.84215692429078
30
0
41
1
10
2.50348395873746
20
-4.90353866327155
30
0
41
1
10
2.39946873936361
20
-5.02613070088637
30
0
41
1
10
2.35073502275654
20
-5.08734107775408
30
0
41
1
10
2.28321614218649
20
-5.17898173313426
30
0
41
1
10
2.26160300269305
20
-5.20956259202509
30
0
41
1
10
2.22077079210092
20
-5.27005399757587
30
0
41
1
10
2.20150556445896
20
-5.30002207187366
30
0
41
1
10
2.14725465047422
20
-5.38906432631981
30
0
41
1
10
2.11580929914729
20
-5.44727749347752
30
0
41
1
10
2.06295040241747
20
-5.56123157052792
30
0
41
1
10
2.0415354613618
20
-5.61697278604194
30
0
41
1
10
2.0174951688582
20
-5.69857348149569
30
0
41
1
10
2.00749760554902
20
-5.73887060560293
30
0
41
1
10
2.0006601597542
20
-5.77837878878367
30
0
41
1
10
1.99681983527822
20
-5.80453809781312
30
0
41
1
10
1.9952582718237
20
-5.81754408215537
30
0
41
1
10
1.98456680524265
20
-5.93291060811444
30
0
41
1
10
1.99862461618287
20
-6.02487438155757
30
0
41
1
10
2.05243255738228
20
-6.14811662738788
30
0
41
1
10
2.07583896993688
20
-6.1867406370867
30
0
41
1
10
2.13333448633088
20
-6.25920610692236
30
0
41
1
10
2.1668703022263
20
-6.29236715177319
30
0
41
1
10
2.24238968123694
20
-6.35327413240034
30
0
41
1
10
2.28437818391137
20
-6.38102048516896
30
0
41
1
10
2.37595408055717
20
-6.43167837905273
30
0
41
1
10
2.42554344415922
20
-6.45458868003732
30
0
41
1
10
2.50512350499613
20
-6.4856736532472
30
0
41
1
10
2.53251744308523
20
-6.49548777581981
30
0
41
1
10
2.57485586798731
20
-6.50942483566379
30
0
41
1
10
2.58918486450662
20
-6.51394192552189
30
0
41
1
10
2.61813730966415
20
-6.52268757927598
30
0
41
1
10
2.69131885537175
20
-6.54385068628551
30
0
41
1
10
2.7683414297282
20
-6.56165849138543
30
0
41
1
10
2.9596454321032
20
-6.59882242637187
30
0
41
1
10
3.09573739857393
20
-6.61620521511483
30
0
41
1
10
3.38162510013731
20
-6.63942531763584
30
0
41
1
10
3.53144435884087
20
-6.64524135130944
30
0
41
1
10
3.72592244709881
20
-6.64661986100947
30
0
41
1
10
3.76520672318253
20
-6.64659843097198
30
0
41
1
10
3.84416094971968
20
-6.64599404981237
30
0
41
1
10
3.96327316534229
20
-6.64424641660634
30
0
41
1
10
4.08431914069712
20
-6.64013331681753
30
0
41
1
10
4.32874856706627
20
-6.62910428457437
30
0
41
1
10
4.49480812694486
20
-6.61802862564645
30
0
41
1
10
4.83217406802422
20
-6.58985612397896
30
0
41
1
10
5.00348483353179
20
-6.57275313868212
30
0
41
1
10
5.35067168509207
20
-6.5335486647916
30
0
41
1
10
5.52655022856521
20
-6.5114437239302
30
0
41
1
10
6.06026998852704
20
-6.43879896517959
30
0
41
1
10
6.424158880265
20
-6.38198131632902
30
0
41
1
10
6.79471150678617
20
-6.31900040721882
30
0
0
SPLINE
5
103
100
AcDbEntity
8
1
62
256
6
ByLayer
370
18
48
1
60
0
100
AcDbSpline
70
4
71
3
72
11
73
7
40
0
40
0
40
0
40
0
40
0.0412428591366261
40
0.418500473974358
40
0.79575808881209
40
1
40
1
40
1
40
1
41
1
10
11.173139800467
20
-4.52866228472556
30
0
41
1
10
11.1123875937609
20
-4.55195223387966
30
0
41
1
10
10.496150679916
20
-4.78883957302901
30
0
41
1
10
9.32882934395408
20
-5.25004638313254
30
0
41
1
10
7.93188008308096
20
-5.82903299091663
30
0
41
1
10
7.08983320892523
20
-6.19068371088468
30
0
41
1
10
6.79471077989913
20
-6.31900034651079
30
0
0
SPLINE
5
104
100
AcDbEntity
8
SK1
62
256
6
ByLayer
370
18
48
1
60
0
100
AcDbSpline
70
4
71
3
72
8
73
4
40
0
40
0
40
0
40
0
40
1
40
1
40
1
40
1
41
1
10
-44
20
-5.66452091474554
30
0
41
1
10
-44.3340971074118
20
-5.32706549739225
30
0
41
1
10
-44.6675858636996
20
-4.9890327288675
30
0
41
1
10
-45
20
-4.6499801001269
30
0
0
SPLINE
5
105
100
AcDbEntity
8
SK1
62
256
6
ByLayer
370
18
48
1
60
0
100
AcDbSpline
70
4
71
3
72
22
73
18
40
0
40
0
40
0
40
0
40
0.0624999999999986
40
0.0624999999999986
40
0.124999999999997
40
0.124999999999997
40
0.187499999999996
40
0.187499999999996
40
0.249999999999994
40
0.249999999999994
40
0.374999999999993
40
0.374999999999993
40
0.499999999999991
40
0.499999999999991
40
0.749999999999995
40
0.749999999999995
40
1
40
1
40
1
40
1
41
1
10
-43.9
20
-5.80039127227894
30
0
41
1
10
-43.9
20
-5.79897816500193
30
0
41
1
10
-43.9002571474035
20
-5.79732555717075
30
0
41
1
10
-43.9012483776125
20
-5.79357576865348
30
0
41
1
10
-43.9019843513023
20
-5.79148329959202
30
0
41
1
10
-43.9038359635905
20
-5.78703181772241
30
0
41
1
10
-43.9049554869821
20
-5.78465734751939
30
0
41
1
10
-43.9075371189045
20
-5.77964558712677
30
0
41
1
10
-43.9090098413739
20
-5.77699095912288
30
0
41
1
10
-43.9138179871196
20
-5.76880583792587
30
0
41
1
10
-43.9175198374798
20
-5.76307677641211
30
0
41
1
10
-43.9257004816946
20
-5.75119574591338
30
0
41
1
10
-43.9302200169575
20
-5.74499566454051
30
0
41
1
10
-43.9443936084027
20
-5.72639263857218
30
0
41
1
10
-43.9547462216613
20
-5.71382999954398
30
0
41
1
10
-43.9768688927873
20
-5.68860703543177
30
0
41
1
10
-43.9882652380084
20
-5.67637363336414
30
0
41
1
10
-44
20
-5.66452091474554
30
0
0
SPLINE
5
106
100
AcDbEntity
8
SK1
62
256
6
ByLayer
370
18
48
1
60
0
100
AcDbSpline
70
4
71
3
72
20
73
16
40
0
40
0
40
0
40
0
40
0.250000000000002
40
0.250000000000002
40
0.375000000000001
40
0.375000000000001
40
0.500000000000001
40
0.500000000000001
40
0.625000000000001
40
0.625000000000001
40
0.750000000000001
40
0.750000000000001
40
0.875
40
0.875
40
1
40
1
40
1
40
1
41
1
10
-44
20
-6.04591736306935
30
0
41
1
10
-43.9882624016387
20
-6.05777294656849
30
0
41
1
10
-43.9768728337101
20
-6.06938854297093
30
0
41
1
10
-43.9603029893906
20
-6.08644076124597
30
0
41
1
10
-43.9549192307105
20
-6.09200844215204
30
0
41
1
10
-43.9446385133001
20
-6.10269331300225
30
0
41
1
10
-43.9397103681262
20
-6.10784254223003
30
0
41
1
10
-43.9303270419096
20
-6.11770516629358
30
0
41
1
10
-43.9258538446687
20
-6.12243757897221
30
0
41
1
10
-43.9175707355638
20
-6.13127523998054
30
0
41
1
10
-43.9138512481045
20
-6.13528363720209
30
0
41
1
10
-43.9074484729559
20
-6.14228725054522
30
0
41
1
10
-43.9047693085045
20
-6.14527990709377
30
0
41
1
10
-43.9010616952338
20
-6.1496068021581
30
0
41
1
10
-43.9
20
-6.15098257328236
30
0
41
1
10
-43.9
20
-6.15127600473681
30
0
0
SPLINE
5
107
100
AcDbEntity
8
SK1
62
256
6
ByLayer
370
18
48
1
60
0
100
AcDbSpline
70
4
71
3
72
8
73
4
40
0
40
0
40
0
40
0
40
1
40
1
40
1
40
1
41
1
10
-45
20
-5.03137654845068
30
0
41
1
10
-44.6675859199489
20
-5.37042911981871
30
0
41
1
10
-44.3340971543868
20
-5.70846189826889
30
0
41
1
10
-44
20
-6.04591736306932
30
0
0
SPLINE
5
108
100
AcDbEntity
8
SK1
62
256
6
ByLayer
370
18
48
1
60
0
100
AcDbSpline
70
4
71
3
72
20
73
16
40
0
40
0
40
0
40
0
40
0.250000000000002
40
0.250000000000002
40
0.375000000000001
40
0.375000000000001
40
0.500000000000001
40
0.500000000000001
40
0.625000000000001
40
0.625000000000001
40
0.750000000000001
40
0.750000000000001
40
0.875
40
0.875
40
1
40
1
40
1
40
1
41
1
10
-44
20
6.04591736306932
30
0
41
1
10
-43.9882624016387
20
6.05777294656849
30
0
41
1
10
-43.9768728337101
20
6.06938854297093
30
0
41
1
10
-43.9603029893906
20
6.08644076124597
30
0
41
1
10
-43.9549192307105
20
6.09200844215204
30
0
41
1
10
-43.9446385133001
20
6.10269331300225
30
0
41
1
10
-43.9397103681262
20
6.10784254223003
30
0
41
1
10
-43.9303270419096
20
6.11770516629358
30
0
41
1
10
-43.9258538446687
20
6.12243757897221
30
0
41
1
10
-43.9175707355638
20
6.13127523998054
30
0
41
1
10
-43.9138512481045
20
6.13528363720209
30
0
41
1
10
-43.9074484729559
20
6.14228725054522
30
0
41
1
10
-43.9047693085045
20
6.14527990709377
30
0
41
1
10
-43.9010616952338
20
6.1496068021581
30
0
41
1
10
-43.9
20
6.15098257328236
30
0
41
1
10
-43.9
20
6.15127600473681
30
0
0
SPLINE
5
109
100
AcDbEntity
8
SK1
62
256
6
ByLayer
370
18
48
1
60
0
100
AcDbSpline
70
4
71
3
72
8
73
4
40
0
40
0
40
0
40
0
40
1
40
1
40
1
40
1
41
1
10
-45
20
5.03137654845068
30
0
41
1
10
-44.6675859199489
20
5.37042911981868
30
0
41
1
10
-44.3340971543868
20
5.70846189826889
30
0
41
1
10
-44
20
6.04591736306932
30
0
0
SPLINE
5
10A
100
AcDbEntity
8
1
62
256
6
ByLayer
370
18
48
1
60
0
100
AcDbSpline
70
4
71
3
72
28
73
24
40
0
40
0
40
0
40
0
40
0.0678089904835121
40
0.122794252685998
40
0.165020627347563
40
0.197875160090283
40
0.228000940711615
40
0.255602253981919
40
0.316655649874818
40
0.379284862360291
40
0.431282874127248
40
0.489671460430661
40
0.554670839973507
40
0.620799542606968
40
0.674133788461485
40
0.718184105728379
40
0.769827599535561
40
0.818383450667668
40
0.856759809969182
40
0.894837411718413
40
0.943796919027371
40
0.994247345959893
40
1
40
1
40
1
40
1
41
1
10
22.8696143519306
20
-6.4247168247598
30
0
41
1
10
23.1653814067734
20
-6.42520544829705
30
0
41
1
10
23.7011158277358
20
-6.42612481278206
30
0
41
1
10
24.4212125507238
20
-6.42725351450912
30
0
41
1
10
24.989251991268
20
-6.42846147691375
30
0
41
1
10
25.4476268694246
20
-6.42966851057349
30
0
41
1
10
25.8428399318541
20
-6.43044723885615
30
0
41
1
10
26.3612983568833
20
-6.43128125861168
30
0
41
1
10
27.0217059618403
20
-6.4320729100356
30
0
41
1
10
27.7885802985643
20
-6.43292005909666
30
0
41
1
10
28.5438260812965
20
-6.43466115038268
30
0
41
1
10
29.3094180521006
20
-6.4374501759952
30
0
41
1
10
30.1366980679897
20
-6.4380082735606
30
0
41
1
10
30.9419171584353
20
-6.43832492189065
30
0
41
1
10
31.6556788795427
20
-6.4390424723039
30
0
41
1
10
32.3062286365623
20
-6.44109728665688
30
0
41
1
10
32.9358406565014
20
-6.44338470324658
30
0
41
1
10
33.54097163905
20
-6.44397955412026
30
0
41
1
10
34.0856911760135
20
-6.444321824973
30
0
41
1
10
34.6327377312761
20
-6.44491017876533
30
0
41
1
10
35.2330645193401
20
-6.44648077149543
30
0
41
1
10
35.6915058227039
20
-6.44689897201306
30
0
41
1
10
35.9368887714591
20
-6.44719332864221
30
0
41
1
10
35.9620062750614
20
-6.4472242219579
30
0
0
SPLINE
5
10B
100
AcDbEntity
8
1
62
256
6
ByLayer
370
18
48
1
60
0
100
AcDbSpline
70
4
71
3
72
21
73
17
40
0
40
0
40
0
40
0
40
0.0498209657451078
40
0.158775990483144
40
0.285121803955766
40
0.351341458993915
40
0.408309214437571
40
0.455926336929873
40
0.494193359925889
40
0.523110035163598
40
0.557748650266385
40
0.611111745286305
40
0.684590554865206
40
0.778192805211942
40
0.891908635807817
40
1
40
1
40
1
40
1
41
1
10
58.9378971994943
20
1.64039402731109
30
0
41
1
10
58.8077384783362
20
1.68051151077771
30
0
41
1
10
58.3932823592768
20
1.80953734074404
30
0
41
1
10
57.651315165159
20
2.04917119380363
30
0
41
1
10
56.8691703462729
20
2.3103410939957
30
0
41
1
10
56.2239403606847
20
2.53253193345159
30
0
41
1
10
55.783206355719
20
2.6871220919443
30
0
41
1
10
55.4152538108099
20
2.81821520640605
30
0
41
1
10
55.1199798439961
20
2.92475063279446
30
0
41
1
10
54.8583664115887
20
3.02007029282211
30
0
41
1
10
54.5582158446696
20
3.1304403419494
30
0
41
1
10
54.1443014038172
20
3.28457644074075
30
0
41
1
10
53.5805159549381
20
3.49830541549281
30
0
41
1
10
52.8646110903969
20
3.77616741380371
30
0
41
1
10
52.0634263224258
20
4.09558815102204
30
0
41
1
10
51.5028436202644
20
4.32686293605957
30
0
41
1
10
51.2302851016643
20
4.44105410602663
30
0
0
SPLINE
5
10C
100
AcDbEntity
8
1
62
256
6
ByLayer
370
18
48
1
60
0
100
AcDbSpline
70
4
71
3
72
36
73
32
40
0
40
0
40
0
40
0
40
4.5994298022E-06
40
1.2029929894E-05
40
1.93511016315E-05
40
7.0827052852E-05
40
0.0001094081131098
40
0.0001776117699886
40
0.0003051827112286
40
0.000543629049835
40
0.0010062528020588
40
0.0019503995891564
40
0.0040193787409021
40
0.0088225842300434
40
0.0185920482976647
40
0.064999265765665
40
0.118651058581288
40
0.172754464385585
40
0.234233569638814
40
0.303377315110619
40
0.370127400107151
40
0.42044592257846
40
0.455969952930157
40
0.490450019367605
40
0.532485568985622
40
0.582409410488896
40
0.644671392634071
40
0.720669199139692
40
0.810419326694556
40
0.913931862241587
40
1
40
1
40
1
40
1
41
1
10
25.2524408419627
20
0.393586380594399
30
0
41
1
10
25.2524322368651
20
0.393588694230686
30
0
41
1
10
25.252406409693
20
0.393595569791501
30
0
41
1
10
25.2523500080154
20
0.393610293190306
30
0
41
1
10
25.2521106544886
20
0.393671870203747
30
0
41
1
10
25.2516870345049
20
0.393778783476535
30
0
41
1
10
25.2510861205165
20
0.393932748191787
30
0
41
1
10
25.2502484003304
20
0.394148239610928
30
0
41
1
10
25.2485460251301
20
0.394582930041196
30
0
41
1
10
25.2453878593419
20
0.395391022556112
30
0
41
1
10
25.2389483242379
20
0.397034949656046
30
0
41
1
10
25.2251982301522
20
0.40054214865944
30
0
41
1
10
25.1937128418091
20
0.408566840055443
30
0
41
1
10
25.1258950773233
20
0.425877126241005
30
0
41
1
10
24.8777222934667
20
0.48950491182066
30
0
41
1
10
24.4300966434429
20
0.606211166241593
30
0
41
1
10
23.8034806611633
20
0.77446739535165
30
0
41
1
10
23.1170461417551
20
0.964548884193221
30
0
41
1
10
22.3696683382223
20
1.17826451277395
30
0
41
1
10
21.5734210963204
20
1.41411906340937
30
0
41
1
10
20.8245261733386
20
1.64397118031476
30
0
41
1
10
20.212523560222
20
1.83747845248519
30
0
41
1
10
19.7309533856817
20
1.99302881336379
30
0
41
1
10
19.2833595130624
20
2.14009999989463
30
0
41
1
10
18.7792330491303
20
2.30882750065575
30
0
41
1
10
18.1658201821645
20
2.51864800186468
30
0
41
1
10
17.4194571680317
20
2.78068896993182
30
0
41
1
10
16.5184101231293
20
3.10704514191136
30
0
41
1
10
15.4592764495568
20
3.50521446845949
30
0
41
1
10
14.3661104042613
20
3.93231462795484
30
0
41
1
10
13.6293914370274
20
4.23439915038927
30
0
41
1
10
13.2958915512851
20
4.37385178244338
30
0
0
SPLINE
5
10D
100
AcDbEntity
8
1
62
256
6
ByLayer
370
18
48
1
60
0
100
AcDbSpline
70
4
71
2
72
6
73
3
40
0
40
0
40
0
40
1
40
1
40
1
41
1
10
41.9225664440687
20
-0.0011117514196712
30
0
41
1
10
41.9225429114027
20
-0.0010992060303181
30
0
41
1
10
41.9225193787239
20
-0.0010861772256874
30
0
0
SPLINE
5
10E
100
AcDbEntity
8
1
62
256
6
ByLayer
370
18
48
1
60
0
100
AcDbSpline
70
4
71
3
72
29
73
25
40
0
40
0
40
0
40
0
40
0.0617523005806391
40
0.11882271605142
40
0.170130890919755
40
0.206424232922532
40
0.226758261821954
40
0.254497770009613
40
0.292016886849436
40
0.333190659305542
40
0.373839317487392
40
0.406701859943793
40
0.444935899637876
40
0.491780192944497
40
0.538751176727301
40
0.579195984610699
40
0.633008373222671
40
0.699729921216891
40
0.765312021712656
40
0.824224063053484
40
0.876688238208153
40
0.930301332037802
40
0.98298224025825
40
1
40
1
40
1
40
1
41
1
10
39.1896647838095
20
6.45254149553753
30
0
41
1
10
38.9277557585314
20
6.45106840721999
30
0
41
1
10
38.4222285916136
20
6.4490558387312
30
0
41
1
10
37.6786732657654
20
6.45071036920601
30
0
41
1
10
37.0679465810903
20
6.45020518392582
30
0
41
1
10
36.6012850325291
20
6.44815649621819
30
0
41
1
10
36.2369620904923
20
6.44758458072587
30
0
41
1
10
35.8664233218564
20
6.44707832875923
30
0
41
1
10
35.4062543084949
20
6.4466551671772
30
0
41
1
10
34.8904533925728
20
6.44563392626827
30
0
41
1
10
34.3937789660099
20
6.4445297728048
30
0
41
1
10
33.9116265135106
20
6.44425183977984
30
0
41
1
10
33.4015680955159
20
6.44385178612004
30
0
41
1
10
32.8302398304139
20
6.44312593679223
30
0
41
1
10
32.2493851331804
20
6.44085485608161
30
0
41
1
10
31.6383746320587
20
6.43904107812992
30
0
41
1
10
30.9419160061754
20
6.43831882467472
30
0
41
1
10
30.136698327514
20
6.43801012662885
30
0
41
1
10
29.3094182381472
20
6.43744938995161
30
0
41
1
10
28.5438252595205
20
6.43466241974318
30
0
41
1
10
27.8300195471444
20
6.43301165219285
30
0
41
1
10
27.1431583220355
20
6.43220344323873
30
0
41
1
10
26.6096820299717
20
6.43158349720497
30
0
41
1
10
26.3081093600664
20
6.43116442605645
30
0
41
1
10
26.234479562017
20
6.43105656411103
30
0
0
LINE
5
82
100
AcDbEntity
8
SK4
62
256
6
ByLayer
370
18
48
0.05
60
0
100
AcDbLine
10
-48
20
0
30
0
11
65
21
0
31
0
39
0
210
0
220
0
230
1
0
LINE
5
84
100
AcDbEntity
8
81
62
256
6
ByLayer
370
18
48
1
60
0
100
AcDbLine
10
62
20
0
30
0
11
65
21
0
31
0
39
0
210
0
220
0
230
1
0
LINE
5
85
100
AcDbEntity
8
4
62
256
6
ByLayer
370
18
48
0.05
60
0
100
AcDbLine
10
0
20
0
30
0
11
62
21
0
31
0
39
0
210
0
220
0
230
1
0
LINE
5
87
100
AcDbEntity
8
80
62
256
6
ByLayer
370
18
48
1
60
0
100
AcDbLine
10
0
20
0
30
0
11
-3
21
0
31
0
39
0
210
0
220
0
230
1
0
LINE
5
88
100
AcDbEntity
8
1
62
256
6
ByLayer
370
18
48
1
60
0
100
AcDbLine
10
0
20
7
30
0
11
0
21
-7
31
0
39
0
210
0
220
0
230
1
0
LINE
5
89
100
AcDbEntity
8
1
62
256
6
ByLayer
370
13
48
1
60
0
100
AcDbLine
10
61.850928
20
0.692
30
0
11
60.484611
21
2.063485
31
0
39
0
210
0
220
0
230
1
0
LINE
5
8A
100
AcDbEntity
8
1
62
256
6
ByLayer
370
13
48
1
60
0
100
AcDbLine
10
0.504566
20
-6.820816
30
0
11
0.504566
21
6.820816
31
0
39
0
210
0
220
0
230
1
0
LINE
5
8B
100
AcDbEntity
8
1
62
256
6
ByLayer
370
18
48
1
60
0
100
AcDbLine
10
20.400295
20
-6.526344
30
0
11
20.400295
21
-0.313871
31
0
39
0
210
0
220
0
230
1
0
LINE
5
8C
100
AcDbEntity
8
1
62
256
6
ByLayer
370
18
48
1
60
0
100
AcDbLine
10
20.400295
20
-6.654917
30
0
11
20.400295
21
-6.664282
31
0
39
0
210
0
220
0
230
1
0
LINE
5
8D
100
AcDbEntity
8
1
62
256
6
ByLayer
370
13
48
1
60
0
100
AcDbLine
10
1.010573
20
-6.641634
30
0
11
1.010573
21
6.641634
31
0
39
0
210
0
220
0
230
1
0
LINE
5
8E
100
AcDbEntity
8
SK1
62
256
6
ByLayer
370
18
48
1
60
0
100
AcDbLine
10
-45
20
-4.649871
30
0
11
-45
21
-5.031377
31
0
39
0
210
0
220
0
230
1
0
LINE
5
90
100
AcDbEntity
8
SK1
62
256
6
ByLayer
370
13
48
1
60
0
100
AcDbLine
10
-44
20
-6.045917
30
0
11
-44
21
-5.664413
31
0
39
0
210
0
220
0
230
1
0
LINE
5
91
100
AcDbEntity
8
SK1
62
256
6
ByLayer
370
18
48
1
60
0
100
AcDbLine
10
0
20
7
30
0
11
0
21
-7
31
0
39
0
210
0
220
0
230
1
0
LINE
5
92
100
AcDbEntity
8
SK1
62
256
6
ByLayer
370
18
48
1
60
0
100
AcDbLine
10
-43.9
20
-6.155
30
0
11
-43.9
21
-5.800391
31
0
39
0
210
0
220
0
230
1
0
LINE
5
93
100
AcDbEntity
8
SK1
62
256
6
ByLayer
370
18
48
1
60
0
100
AcDbLine
10
-43.9
20
6.155
30
0
11
-43.9
21
6.151276
31
0
39
0
210
0
220
0
230
1
0
LINE
5
94
100
AcDbEntity
8
SK1
62
256
6
ByLayer
370
18
48
1
60
0
100
AcDbLine
10
-45
20
5.031377
30
0
11
-45
21
-4.64998
31
0
39
0
210
0
220
0
230
1
0
LINE
5
95
100
AcDbEntity
8
SK1
62
256
6
ByLayer
370
18
48
1
60
0
100
AcDbLine
10
-43.055
20
-7
30
0
11
-43.055
21
7
31
0
39
0
210
0
220
0
230
1
0
LINE
5
96
100
AcDbEntity
8
1
62
256
6
ByLayer
370
18
48
1
60
0
100
AcDbLine
10
1.010573
20
-6.641634
30
0
11
3.729284
21
-6.646528
31
0
39
0
210
0
220
0
230
1
0
LINE
5
97
100
AcDbEntity
8
1
62
256
6
ByLayer
370
18
48
1
60
0
100
AcDbLine
10
21.377521
20
-6.678294
30
0
11
22.869703
21
-6.68098
31
0
39
0
210
0
220
0
230
1
0
LINE
5
98
100
AcDbEntity
8
1
62
256
6
ByLayer
370
18
48
1
60
0
100
AcDbLine
10
39.187963
20
-6.710353
30
0
11
40.943757
21
-6.713514
31
0
39
0
210
0
220
0
230
1
0
LINE
5
99
100
AcDbEntity
8
1
62
256
6
ByLayer
370
18
48
1
60
0
100
AcDbLine
10
40.943757
20
6.713514
30
0
11
39.187963
21
6.710353
31
0
39
0
210
0
220
0
230
1
0
LINE
5
9A
100
AcDbEntity
8
1
62
256
6
ByLayer
370
18
48
1
60
0
100
AcDbLine
10
22.869703
20
6.68098
30
0
11
21.377521
21
6.678294
31
0
39
0
210
0
220
0
230
1
0
LINE
5
9B
100
AcDbEntity
8
1
62
256
6
ByLayer
370
18
48
1
60
0
100
AcDbLine
10
3.729284
20
6.646528
30
0
11
1.010573
21
6.641634
31
0
39
0
210
0
220
0
230
1
0
LINE
5
9C
100
AcDbEntity
8
SK1
62
256
6
ByLayer
370
18
48
1
60
0
100
AcDbLine
10
-43.055
20
-7
30
0
11
0
21
-7
31
0
39
0
210
0
220
0
230
1
0
LINE
5
9D
100
AcDbEntity
8
SK1
62
256
6
ByLayer
370
18
48
1
60
0
100
AcDbLine
10
0
20
7
30
0
11
-43.055
21
7
31
0
39
0
210
0
220
0
230
1
0
LINE
5
9E
100
AcDbEntity
8
SK1
62
256
6
ByLayer
370
18
48
1
60
0
100
AcDbLine
10
-43.9
20
-6.155
30
0
11
-43.055
21
-7
31
0
39
0
210
0
220
0
230
1
0
LINE
5
9F
100
AcDbEntity
8
SK1
62
256
6
ByLayer
370
18
48
1
60
0
100
AcDbLine
10
-43.055
20
7
30
0
11
-43.9
21
6.155
31
0
39
0
210
0
220
0
230
1
0
LINE
5
A0
100
AcDbEntity
8
2
62
256
6
ByLayer
370
13
48
1
60
0
100
AcDbLine
10
69.5
20
-6.747
30
0
11
69.5
21
37.653455
31
0
39
0
210
0
220
0
230
1
0
LINE
5
A2
100
AcDbEntity
8
2
62
256
6
ByLayer
370
13
48
1
60
0
100
AcDbLine
10
63.5875
20
6.747
30
0
11
71.5
21
6.747
31
0
39
0
210
0
220
0
230
1
0
LINE
5
A3
100
AcDbEntity
8
2
62
256
6
ByLayer
370
13
48
1
60
0
100
AcDbLine
10
63.5875
20
-6.747
30
0
11
71.5
21
-6.747
31
0
39
0
210
0
220
0
230
1
0
LINE
5
A4
100
AcDbEntity
8
1
62
256
6
ByLayer
370
18
48
1
60
1
100
AcDbLine
10
69.5
20
6.747
30
0
11
69.960784
21
3.247002
31
0
39
0
210
0
220
0
230
1
0
LINE
5
A5
100
AcDbEntity
8
1
62
256
6
ByLayer
370
18
48
1
60
1
100
AcDbLine
10
69.960784
20
3.247002
30
0
11
69.039216
21
3.246998
31
0
39
0
210
0
220
0
230
1
0
LINE
5
A6
100
AcDbEntity
8
1
62
256
6
ByLayer
370
18
48
1
60
1
100
AcDbLine
10
69.039216
20
3.246998
30
0
11
69.5
21
6.747
31
0
39
0
210
0
220
0
230
1
0
LINE
5
A7
100
AcDbEntity
8
1
62
256
6
ByLayer
370
18
48
1
60
1
100
AcDbLine
10
69.5
20
-6.747
30
0
11
69.039216
21
-3.247002
31
0
39
0
210
0
220
0
230
1
0
LINE
5
A8
100
AcDbEntity
8
1
62
256
6
ByLayer
370
18
48
1
60
1
100
AcDbLine
10
69.039216
20
-3.247002
30
0
11
69.960784
21
-3.246998
31
0
39
0
210
0
220
0
230
1
0
LINE
5
A9
100
AcDbEntity
8
1
62
256
6
ByLayer
370
18
48
1
60
1
100
AcDbLine
10
69.960784
20
-3.246998
30
0
11
69.5
21
-6.747
31
0
39
0
210
0
220
0
230
1
0
LINE
5
AA
100
AcDbEntity
8
SK2
62
256
6
ByLayer
370
13
48
1
60
0
100
AcDbLine
10
-53.5
20
-7
30
0
11
-53.5
21
15.649657
31
0
39
0
210
0
220
0
230
1
0
LINE
5
AC
100
AcDbEntity
8
SK2
62
256
6
ByLayer
370
13
48
1
60
0
100
AcDbLine
10
-46.5875
20
7
30
0
11
-55.5
21
7
31
0
39
0
210
0
220
0
230
1
0
LINE
5
AD
100
AcDbEntity
8
SK2
62
256
6
ByLayer
370
13
48
1
60
0
100
AcDbLine
10
-46.5875
20
-7
30
0
11
-55.5
21
-7
31
0
39
0
210
0
220
0
230
1
0
LINE
5
AE
100
AcDbEntity
8
1
62
256
6
ByLayer
370
18
48
1
60
1
100
AcDbLine
10
-53.5
20
7
30
0
11
-53.039216
21
3.500002
31
0
39
0
210
0
220
0
230
1
0
LINE
5
AF
100
AcDbEntity
8
1
62
256
6
ByLayer
370
18
48
1
60
1
100
AcDbLine
10
-53.039216
20
3.500002
30
0
11
-53.960784
21
3.499998
31
0
39
0
210
0
220
0
230
1
0
LINE
5
B0
100
AcDbEntity
8
1
62
256
6
ByLayer
370
18
48
1
60
1
100
AcDbLine
10
-53.960784
20
3.499998
30
0
11
-53.5
21
7
31
0
39
0
210
0
220
0
230
1
0
LINE
5
B1
100
AcDbEntity
8
1
62
256
6
ByLayer
370
18
48
1
60
1
100
AcDbLine
10
-53.5
20
-7
30
0
11
-53.960784
21
-3.500002
31
0
39
0
210
0
220
0
230
1
0
LINE
5
B2
100
AcDbEntity
8
1
62
256
6
ByLayer
370
18
48
1
60
1
100
AcDbLine
10
-53.960784
20
-3.500002
30
0
11
-53.039216
21
-3.499998
31
0
39
0
210
0
220
0
230
1
0
LINE
5
B3
100
AcDbEntity
8
1
62
256
6
ByLayer
370
18
48
1
60
1
100
AcDbLine
10
-53.039216
20
-3.499998
30
0
11
-53.5
21
-7
31
0
39
0
210
0
220
0
230
1
0
LINE
5
B4
100
AcDbEntity
8
SK2
62
256
6
ByLayer
370
13
48
1
60
0
100
AcDbLine
10
62.543014
20
1.491741
30
0
11
70.848527
21
24.30823
31
0
39
0
210
0
220
0
230
1
0
LINE
5
B5
100
AcDbEntity
8
SK2
62
256
6
ByLayer
370
13
48
1
60
0
100
AcDbLine
10
62.543014
20
-1.491741
30
0
11
70.848527
21
-24.30823
31
0
39
0
210
0
220
0
230
1
0
LINE
5
B6
100
AcDbEntity
8
1
62
256
6
ByLayer
370
18
48
1
60
1
100
AcDbLine
10
70.164415
20
22.428871
30
0
11
73.58064
21
21.539085
31
0
39
0
210
0
220
0
230
1
0
LINE
5
B7
100
AcDbEntity
8
1
62
256
6
ByLayer
370
18
48
1
60
1
100
AcDbLine
10
73.58064
20
21.539085
30
0
11
73.233944
21
20.685218
31
0
39
0
210
0
220
0
230
1
0
LINE
5
B8
100
AcDbEntity
8
1
62
256
6
ByLayer
370
18
48
1
60
1
100
AcDbLine
10
73.233944
20
20.685218
30
0
11
70.164415
21
22.428871
31
0
39
0
210
0
220
0
230
1
0
LINE
5
B9
100
AcDbEntity
8
1
62
256
6
ByLayer
370
18
48
1
60
1
100
AcDbLine
10
70.164415
20
-22.428871
30
0
11
73.233941
21
-20.685219
31
0
39
0
210
0
220
0
230
1
0
LINE
5
BA
100
AcDbEntity
8
1
62
256
6
ByLayer
370
18
48
1
60
1
100
AcDbLine
10
73.233941
20
-20.685219
30
0
11
73.580643
21
-21.539084
31
0
39
0
210
0
220
0
230
1
0
LINE
5
BB
100
AcDbEntity
8
1
62
256
6
ByLayer
370
18
48
1
60
1
100
AcDbLine
10
73.580643
20
-21.539084
30
0
11
70.164415
21
-22.428871
31
0
39
0
210
0
220
0
230
1
0
LINE
5
10F
100
AcDbEntity
8
1
62
256
6
ByLayer
370
13
48
0.05
60
0
100
AcDbLine
10
-51.5
20
0
30
0
11
66.054866
21
0
31
0
39
0
210
0
220
0
230
1
0
LINE
5
114
100
AcDbEntity
8
1
62
256
6
ByLayer
370
18
48
1
60
1
100
AcDbLine
10
69.5
20
6.747
30
0
11
69.960784
21
3.247002
31
0
39
0
210
0
220
0
230
1
0
LINE
5
115
100
AcDbEntity
8
1
62
256
6
ByLayer
370
18
48
1
60
1
100
AcDbLine
10
69.960784
20
3.247002
30
0
11
69.039216
21
3.246998
31
0
39
0
210
0
220
0
230
1
0
LINE
5
116
100
AcDbEntity
8
1
62
256
6
ByLayer
370
18
48
1
60
1
100
AcDbLine
10
69.039216
20
3.246998
30
0
11
69.5
21
6.747
31
0
39
0
210
0
220
0
230
1
0
LINE
5
118
100
AcDbEntity
8
1
62
256
6
ByLayer
370
18
48
1
60
1
100
AcDbLine
10
69.5
20
-6.747
30
0
11
69.039216
21
-3.247002
31
0
39
0
210
0
220
0
230
1
0
LINE
5
119
100
AcDbEntity
8
1
62
256
6
ByLayer
370
18
48
1
60
1
100
AcDbLine
10
69.039216
20
-3.247002
30
0
11
69.960784
21
-3.246998
31
0
39
0
210
0
220
0
230
1
0
LINE
5
11A
100
AcDbEntity
8
1
62
256
6
ByLayer
370
18
48
1
60
1
100
AcDbLine
10
69.960784
20
-3.246998
30
0
11
69.5
21
-6.747
31
0
39
0
210
0
220
0
230
1
0
LINE
5
11E
100
AcDbEntity
8
1
62
256
6
ByLayer
370
18
48
1
60
1
100
AcDbLine
10
-53.5
20
7
30
0
11
-53.039216
21
3.500002
31
0
39
0
210
0
220
0
230
1
0
LINE
5
11F
100
AcDbEntity
8
1
62
256
6
ByLayer
370
18
48
1
60
1
100
AcDbLine
10
-53.039216
20
3.500002
30
0
11
-53.960784
21
3.499998
31
0
39
0
210
0
220
0
230
1
0
LINE
5
120
100
AcDbEntity
8
1
62
256
6
ByLayer
370
18
48
1
60
1
100
AcDbLine
10
-53.960784
20
3.499998
30
0
11
-53.5
21
7
31
0
39
0
210
0
220
0
230
1
0
LINE
5
122
100
AcDbEntity
8
1
62
256
6
ByLayer
370
18
48
1
60
1
100
AcDbLine
10
-53.5
20
-7
30
0
11
-53.960784
21
-3.500002
31
0
39
0
210
0
220
0
230
1
0
LINE
5
123
100
AcDbEntity
8
1
62
256
6
ByLayer
370
18
48
1
60
1
100
AcDbLine
10
-53.960784
20
-3.500002
30
0
11
-53.039216
21
-3.499998
31
0
39
0
210
0
220
0
230
1
0
LINE
5
124
100
AcDbEntity
8
1
62
256
6
ByLayer
370
18
48
1
60
1
100
AcDbLine
10
-53.039216
20
-3.499998
30
0
11
-53.5
21
-7
31
0
39
0
210
0
220
0
230
1
0
LINE
5
127
100
AcDbEntity
8
1
62
256
6
ByLayer
370
18
48
1
60
1
100
AcDbLine
10
70.164415
20
22.428871
30
0
11
73.58064
21
21.539085
31
0
39
0
210
0
220
0
230
1
0
LINE
5
128
100
AcDbEntity
8
1
62
256
6
ByLayer
370
18
48
1
60
1
100
AcDbLine
10
73.58064
20
21.539085
30
0
11
73.233944
21
20.685218
31
0
39
0
210
0
220
0
230
1
0
LINE
5
129
100
AcDbEntity
8
1
62
256
6
ByLayer
370
18
48
1
60
1
100
AcDbLine
10
73.233944
20
20.685218
30
0
11
70.164415
21
22.428871
31
0
39
0
210
0
220
0
230
1
0
LINE
5
12B
100
AcDbEntity
8
1
62
256
6
ByLayer
370
18
48
1
60
1
100
AcDbLine
10
70.164415
20
-22.428871
30
0
11
73.233941
21
-20.685219
31
0
39
0
210
0
220
0
230
1
0
LINE
5
12C
100
AcDbEntity
8
1
62
256
6
ByLayer
370
18
48
1
60
1
100
AcDbLine
10
73.233941
20
-20.685219
30
0
11
73.580643
21
-21.539084
31
0
39
0
210
0
220
0
230
1
0
LINE
5
12D
100
AcDbEntity
8
1
62
256
6
ByLayer
370
18
48
1
60
1
100
AcDbLine
10
73.580643
20
-21.539084
30
0
11
70.164415
21
-22.428871
31
0
39
0
210
0
220
0
230
1
0
MTEXT
5
110
100
AcDbEntity
8
2
62
256
6
ByLayer
370
18
48
1
60
0
100
AcDbMText
10
68.158886
20
20.405438
30
0
210
0
220
0
230
1
1
%%c
40
3
41
0
44
1.084337
50
90
71
7
72
5
7
iso_b_vert
0
MTEXT
5
113
100
AcDbEntity
8
2
62
256
6
ByLayer
370
18
48
1
60
0
100
AcDbMText
10
68.158886
20
26.382
30
0
210
0
220
0
230
1
1
\W0.7383;13.494
40
3
41
0
44
1.084337
50
90
71
7
72
5
7
iso_b_vert
0
MTEXT
5
11C
100
AcDbEntity
8
SK2
62
256
6
ByLayer
370
18
48
1
60
0
100
AcDbMText
10
-54.841114
20
6.658437
30
0
210
0
220
0
230
1
1
%%c
40
3
41
0
44
1.084337
50
90
71
7
72
5
7
iso_b_vert
0
MTEXT
5
11D
100
AcDbEntity
8
SK2
62
256
6
ByLayer
370
18
48
1
60
0
100
AcDbMText
10
-54.841114
20
12.635
30
0
210
0
220
0
230
1
1
\W0.5785;14
40
3
41
0
44
1.084337
50
90
71
7
72
5
7
iso_b_vert
0
MTEXT
5
126
100
AcDbEntity
8
SK2
62
256
6
ByLayer
370
18
48
1
60
0
100
AcDbMText
10
82.427983
20
-2.114886
30
0
210
0
220
0
230
1
1
\W0.7071;140%%d
40
3
41
0
44
1.084337
50
0
71
7
72
5
7
iso_b_vert
0
MTEXT
5
12F
100
AcDbEntity
8
SK6
62
256
6
ByLayer
370
18
48
1
60
0
100
AcDbMText
10
-13.422448
20
-77.114886
30
0
210
0
220
0
230
1
1
\W0.7395;860.1-1349-041A1-SD S2BM
40
3
41
0
44
1.084337
50
0
71
7
72
5
7
iso_b_vert
0
HATCH
5
117
100
AcDbEntity
8
2
62
256
6
ByLayer
370
13
48
1
60
0
100
AcDbHatch
10
0
20
0
30
0
210
0
220
0
230
1
2
ANSI31
70
0
71
0
91
1
92
5
93
3
72
1
10
69.5
20
6.74700000000001
11
69.9607837415528
21
3.2470016925532
72
1
10
69.9607837415528
20
3.2470016925532
11
69.0392162584472
21
3.24699830744683
72
1
10
69.0392162584472
20
3.24699830744683
11
69.5
21
6.74700000000001
97
0
75
0
76
1
52
0
41
0.0062
77
0
78
1
53
45
43
0
44
0
45
-0.0139193969876572
46
0.0139193969876572
79
0
47
0
98
1
10
0
20
0
0
HATCH
5
11B
100
AcDbEntity
8
2
62
256
6
ByLayer
370
13
48
1
60
0
100
AcDbHatch
10
0
20
0
30
0
210
0
220
0
230
1
2
ANSI31
70
0
71
0
91
1
92
5
93
3
72
1
10
69.5
20
-6.74699999999999
11
69.0392162584472
21
-3.24700169255317
72
1
10
69.0392162584472
20
-3.24700169255317
11
69.9607837415528
21
-3.2469983074468
72
1
10
69.9607837415528
20
-3.2469983074468
11
69.5
21
-6.74699999999999
97
0
75
0
76
1
52
0
41
0.0062
77
0
78
1
53
45
43
0
44
0
45
-0.0139193969876572
46
0.0139193969876572
79
0
47
0
98
1
10
0
20
0
0
HATCH
5
121
100
AcDbEntity
8
SK2
62
256
6
ByLayer
370
13
48
1
60
0
100
AcDbHatch
10
0
20
0
30
0
210
0
220
0
230
1
2
ANSI31
70
0
71
0
91
1
92
5
93
3
72
1
10
-53.5
20
7
11
-53.0392162584472
21
3.50000169255318
72
1
10
-53.0392162584472
20
3.50000169255318
11
-53.9607837415528
21
3.49999830744682
72
1
10
-53.9607837415528
20
3.49999830744682
11
-53.5
21
7
97
0
75
0
76
1
52
0
41
0.0062
77
0
78
1
53
45
43
0
44
0
45
-0.0139193969876572
46
0.0139193969876572
79
0
47
0
98
1
10
0
20
0
0
HATCH
5
125
100
AcDbEntity
8
SK2
62
256
6
ByLayer
370
13
48
1
60
0
100
AcDbHatch
10
0
20
0
30
0
210
0
220
0
230
1
2
ANSI31
70
0
71
0
91
1
92
5
93
3
72
1
10
-53.5
20
-7
11
-53.9607837415528
21
-3.50000169255318
72
1
10
-53.9607837415528
20
-3.50000169255318
11
-53.0392162584472
21
-3.49999830744682
72
1
10
-53.0392162584472
20
-3.49999830744682
11
-53.5
21
-7
97
0
75
0
76
1
52
0
41
0.0062
77
0
78
1
53
45
43
0
44
0
45
-0.0139193969876572
46
0.0139193969876572
79
0
47
0
98
1
10
0
20
0
0
HATCH
5
12A
100
AcDbEntity
8
SK2
62
256
6
ByLayer
370
13
48
1
60
0
100
AcDbHatch
10
0
20
0
30
0
210
0
220
0
230
1
2
ANSI31
70
0
71
0
91
1
92
5
93
3
72
1
10
70.1644150258016
20
22.4288714084217
11
73.5806395616071
21
21.5390850691412
72
1
10
73.5806395616071
20
21.5390850691412
11
73.2339438008493
21
20.6852181735413
72
1
10
73.2339438008493
20
20.6852181735413
11
70.1644150258016
21
22.4288714084217
97
0
75
0
76
1
52
0
41
0.0062
77
0
78
1
53
45
43
0
44
0
45
-0.0139193969876572
46
0.0139193969876572
79
0
47
0
98
1
10
0
20
0
0
HATCH
5
12E
100
AcDbEntity
8
SK2
62
256
6
ByLayer
370
13
48
1
60
0
100
AcDbHatch
10
0
20
0
30
0
210
0
220
0
230
1
2
ANSI31
70
0
71
0
91
1
92
5
93
3
72
1
10
70.1644150258016
20
-22.4288714084217
11
73.2339406644257
21
-20.6852194470374
72
1
10
73.2339406644257
20
-20.6852194470374
11
73.5806426980307
21
-21.539083795645
72
1
10
73.5806426980307
20
-21.539083795645
11
70.1644150258016
21
-22.4288714084217
97
0
75
0
76
1
52
0
41
0.0062
77
0
78
1
53
45
43
0
44
0
45
-0.0139193969876572
46
0.0139193969876572
79
0
47
0
98
1
10
0
20
0
0
DIMENSION
5
132
100
AcDbEntity
8
SK2
62
256
6
ByLayer
370
18
48
1
60
0
100
AcDbDimension
2
_U0
10
20.4
20
-25.298792
30
0
11
41.2
21
-25.298792
31
0
70
32
71
1
72
1
41
1
210
0
220
0
230
1
3
Standard
100
AcDbAlignedDimension
13
62
23
-6.747
33
0
14
20.4
24
-6.747
34
0
50
0
100
AcDbRotatedDimension
1001
ACAD
1000
DSTYLE
1002
{
1070
   371
1070
    13
1070
   372
1070
    13
1070
   170
1070
     0
1070
   144
1040
1.0
1070
   277
1070
     2
1070
   284
1070
     8
1070
   278
1070
    46
1070
   146
1040
1.166667
1070
   345
1005
16
1070
   347
1005
16
1070
   346
1005
16
1070
   344
1005
0
1070
   343
1005
0
1070
   172
1070
     1
1070
    76
1070
     0
1070
    75
1070
     0
1070
   282
1070
     0
1070
   281
1070
     0
1070
     3
1000

1070
    71
1070
     0
1070
    74
1070
     0
1070
   279
1070
     0
1070
   173
1070
     1
1070
   340
1005
111
1070
   271
1070
     2
1070
   272
1070
     2
1070
    77
1070
     1
1070
    73
1070
     1
1070
   171
1070
     3
1070
   274
1070
     4
1070
   177
1070
     2
1070
   176
1070
     2
1070
   178
1070
     2
1070
    78
1070
     8
1070
    48
1040
-0.1
1070
    41
1040
3.5
1070
   147
1040
1.5
1070
    42
1040
1.5875
1070
    44
1040
2.0
1070
   140
1040
3.0
1002
}
1001
ACAD_DSTYLE_DIM_LINETYPE
1070
   380
1005
16
1001
ACAD_DSTYLE_DIM_EXT1_LINETYPE
1070
   381
1005
16
1001
ACAD_DSTYLE_DIM_EXT2_LINETYPE
1070
   382
1005
16
0
DIMENSION
5
14D
100
AcDbEntity
8
SK2
62
256
6
ByLayer
370
18
48
1
60
0
100
AcDbDimension
2
_U1
10
2
20
-35.298792
30
0
11
32
21
-35.298792
31
0
70
32
71
1
72
1
41
1
210
0
220
0
230
1
3
Standard
100
AcDbAlignedDimension
13
62
23
-6.747
33
0
14
2
24
-6.747
34
0
50
0
100
AcDbRotatedDimension
1001
ACAD
1000
DSTYLE
1002
{
1070
   371
1070
    13
1070
   372
1070
    13
1070
     3
1000

1070
   170
1070
     0
1070
   144
1040
1.0
1070
   277
1070
     2
1070
   284
1070
     8
1070
   278
1070
    46
1070
   146
1040
1.166667
1070
   345
1005
16
1070
   347
1005
16
1070
   346
1005
16
1070
   344
1005
0
1070
   343
1005
0
1070
   172
1070
     1
1070
    76
1070
     0
1070
    75
1070
     0
1070
   282
1070
     0
1070
   281
1070
     0
1070
    71
1070
     0
1070
    74
1070
     0
1070
   279
1070
     0
1070
   173
1070
     1
1070
   340
1005
111
1070
   271
1070
     2
1070
   272
1070
     2
1070
    77
1070
     1
1070
    73
1070
     1
1070
   171
1070
     3
1070
   274
1070
     4
1070
   177
1070
     2
1070
   176
1070
     2
1070
   178
1070
     2
1070
    78
1070
     8
1070
    48
1040
-0.1
1070
    41
1040
3.5
1070
   147
1040
1.5
1070
    42
1040
1.5875
1070
    44
1040
2.0
1070
   140
1040
3.0
1002
}
1001
ACAD_DSTYLE_DIM_LINETYPE
1070
   380
1005
16
1001
ACAD_DSTYLE_DIM_EXT1_LINETYPE
1070
   381
1005
16
1001
ACAD_DSTYLE_DIM_EXT2_LINETYPE
1070
   382
1005
16
0
DIMENSION
5
165
100
AcDbEntity
8
SK2
62
256
6
ByLayer
370
18
48
1
60
0
100
AcDbDimension
2
_U2
10
0
20
-43.298792
30
0
11
-22.5
21
-43.298792
31
0
70
32
71
1
72
1
41
1
210
0
220
0
230
1
3
Standard
100
AcDbAlignedDimension
13
-45
23
-7
33
0
14
0
24
-7
34
0
50
0
100
AcDbRotatedDimension
1001
ACAD
1000
DSTYLE
1002
{
1070
   371
1070
    13
1070
   372
1070
    13
1070
     3
1000

1070
   170
1070
     0
1070
   144
1040
1.0
1070
   277
1070
     2
1070
   284
1070
     8
1070
   278
1070
    46
1070
   146
1040
1.166667
1070
   345
1005
16
1070
   347
1005
16
1070
   346
1005
16
1070
   344
1005
0
1070
   343
1005
0
1070
   172
1070
     1
1070
    76
1070
     0
1070
    75
1070
     0
1070
   282
1070
     0
1070
   281
1070
     0
1070
    71
1070
     0
1070
    74
1070
     0
1070
   279
1070
     0
1070
   173
1070
     1
1070
   340
1005
111
1070
   271
1070
     2
1070
   272
1070
     2
1070
    77
1070
     1
1070
    73
1070
     1
1070
   171
1070
     3
1070
   274
1070
     4
1070
   177
1070
     2
1070
   176
1070
     2
1070
   178
1070
     2
1070
    78
1070
     8
1070
    48
1040
-0.1
1070
    41
1040
3.5
1070
   147
1040
1.5
1070
    42
1040
1.5875
1070
    44
1040
2.0
1070
   140
1040
3.0
1002
}
1001
ACAD_DSTYLE_DIM_LINETYPE
1070
   380
1005
16
1001
ACAD_DSTYLE_DIM_EXT1_LINETYPE
1070
   381
1005
16
1001
ACAD_DSTYLE_DIM_EXT2_LINETYPE
1070
   382
1005
16
0
DIMENSION
5
17D
100
AcDbEntity
8
SK2
62
256
6
ByLayer
370
18
48
1
60
0
100
AcDbDimension
2
_U3
10
62
20
-51.298792
30
0
11
8.5
21
-51.298792
31
0
70
32
71
1
72
1
41
1
210
0
220
0
230
1
3
Standard
100
AcDbAlignedDimension
13
-45
23
-7
33
0
14
62
24
-6.747
34
0
50
0
100
AcDbRotatedDimension
1001
ACAD
1000
DSTYLE
1002
{
1070
   371
1070
    13
1070
   372
1070
    13
1070
     3
1000

1070
   170
1070
     0
1070
   144
1040
1.0
1070
   277
1070
     2
1070
   284
1070
     8
1070
   278
1070
    46
1070
   146
1040
1.166667
1070
   345
1005
16
1070
   347
1005
16
1070
   346
1005
16
1070
   344
1005
0
1070
   343
1005
0
1070
   172
1070
     1
1070
    76
1070
     0
1070
    75
1070
     0
1070
   282
1070
     0
1070
   281
1070
     0
1070
    71
1070
     0
1070
    74
1070
     0
1070
   279
1070
     0
1070
   173
1070
     1
1070
   340
1005
111
1070
   271
1070
     2
1070
   272
1070
     2
1070
    77
1070
     1
1070
    73
1070
     1
1070
   171
1070
     3
1070
   274
1070
     4
1070
   177
1070
     2
1070
   176
1070
     2
1070
   178
1070
     2
1070
    78
1070
     8
1070
    48
1040
-0.1
1070
    41
1040
3.5
1070
   147
1040
1.5
1070
    42
1040
1.5875
1070
    44
1040
2.0
1070
   140
1040
3.0
1002
}
1001
ACAD_DSTYLE_DIM_LINETYPE
1070
   380
1005
16
1001
ACAD_DSTYLE_DIM_EXT1_LINETYPE
1070
   381
1005
16
1001
ACAD_DSTYLE_DIM_EXT2_LINETYPE
1070
   382
1005
16
0
DIMENSION
5
195
100
AcDbEntity
8
2
62
256
6
ByLayer
370
18
48
1
60
0
100
AcDbDimension
2
_U4
10
0
20
-43.298792
30
0
11
31
21
-43.298792
31
0
70
32
71
1
72
1
41
1
210
0
220
0
230
1
3
Standard
100
AcDbAlignedDimension
13
62
23
-6.747
33
0
14
0
24
-6.747
34
0
50
0
100
AcDbRotatedDimension
1001
ACAD
1000
DSTYLE
1002
{
1070
   371
1070
    13
1070
   372
1070
    13
1070
     3
1000

1070
   170
1070
     0
1070
   144
1040
1.0
1070
   277
1070
     2
1070
   284
1070
     8
1070
   278
1070
    46
1070
   146
1040
1.166667
1070
   345
1005
16
1070
   347
1005
16
1070
   346
1005
16
1070
   344
1005
0
1070
   343
1005
0
1070
   172
1070
     1
1070
    76
1070
     0
1070
    75
1070
     0
1070
   282
1070
     0
1070
   281
1070
     0
1070
    71
1070
     0
1070
    74
1070
     0
1070
   279
1070
     0
1070
   173
1070
     1
1070
   340
1005
111
1070
   271
1070
     2
1070
   272
1070
     2
1070
    77
1070
     1
1070
    73
1070
     1
1070
   171
1070
     3
1070
   274
1070
     4
1070
   177
1070
     2
1070
   176
1070
     2
1070
   178
1070
     2
1070
    78
1070
     8
1070
    48
1040
-0.1
1070
    41
1040
3.5
1070
   147
1040
1.5
1070
    42
1040
1.5875
1070
    44
1040
2.0
1070
   140
1040
3.0
1002
}
1001
ACAD_DSTYLE_DIM_LINETYPE
1070
   380
1005
16
1001
ACAD_DSTYLE_DIM_EXT1_LINETYPE
1070
   381
1005
16
1001
ACAD_DSTYLE_DIM_EXT2_LINETYPE
1070
   382
1005
16
0
ENDSEC
0
SECTION
2
OBJECTS
0
DICTIONARY
5
21d
330
0
100
AcDbDictionary
280
0
281
1
3
ACAD_GROUP
350
21e
3
ACAD_MLINESTYLE
350
21f
0
DICTIONARY
5
21e
330
0
100
AcDbDictionary
280
0
281
1
0
DICTIONARY
5
21f
330
0
100
AcDbDictionary
280
0
281
1
3
Standard
350
18
0
MLINESTYLE
5
18
330
21f
100
AcDbMlineStyle
2
Standard
70
0
3

62
256
51
90
52
90
71
2
49
-0.5
62
256
6
ByLayer
49
0.5
62
256
6
ByLayer
0
RASTERVARIABLES
5
20b
330

100
AcDbRasterVariables
90
0
70
1
71
1
72
1
0
ENDSEC
0
EOF
