0
SECTION
2
HEADER
9
$ACADVER
1
AC1015
9
$DWGCODEPAGE
3
ANSI_1252
9
$HANDSEED
5
226
9
$ANGBASE
50
0
9
$ANGDIR
70
0
9
$ATTMODE
70
1
9
$AUNITS
70
0
9
$AUPREC
70
0
9
$CECOLOR
62
256
9
$CELTSCALE
40
1
9
$CELTYPE
6
ByLayer
9
$CELWEIGHT
370
18
9
$CLAYER
8
0
9
$CMLJUST
70
0
9
$CMLSCALE
40
1
9
$CMLSTYLE
2
Standard
9
$DIMSTYLE
2
Standard
9
$TEXTSIZE
40
0.2
9
$TEXTSTYLE
7
Standard
9
$LUNITS
70
2
9
$LUPREC
70
4
9
$EXTNAMES
290
1
9
$INSUNITS
70
4
9
$LTSCALE
40
1
9
$LWDISPLAY
290
1
9
$PDMODE
70
0
9
$PDSIZE
40
0
9
$PLINEGEN
70
0
0
ENDSEC
0
SECTION
2
CLASSES
0
CLASS
1
RASTERVARIABLES
2
AcDbRasterVariables
3
ISM
90
0
280
0
281
0
0
ENDSEC
0
SECTION
2
TABLES
0
TABLE
2
VPORT
5
21c
100
AcDbSymbolTable
0
VPORT
5
1
100
AcDbSymbolTableRecord
100
AcDbViewportTableRecord
2
*Active
70
0
10
0
20
0
11
1
21
1
12
-1
22
1
13
0
23
0
14
0.5
24
0.5
15
10
25
10
16
0
26
0
36
1
17
0
27
0
37
0
0
ENDTAB
0
TABLE
2
LTYPE
5
21d
100
AcDbSymbolTable
0
LTYPE
5
14
100
AcDbSymbolTableRecord
100
AcDbLinetypeTableRecord
70
0
2
ByBlock
3

72
65
73
0
40
0
0
LTYPE
5
15
100
AcDbSymbolTableRecord
100
AcDbLinetypeTableRecord
70
0
2
ByLayer
3

72
65
73
0
40
0
0
LTYPE
5
16
100
AcDbSymbolTableRecord
100
AcDbLinetypeTableRecord
70
0
2
Continuous
3
Solid line
72
65
73
0
40
0
0
LTYPE
5
6E
100
AcDbSymbolTableRecord
100
AcDbLinetypeTableRecord
70
0
2
CENTER
3
____ _ ____ _ ____ _ ____
72
65
73
4
40
47.5
49
22
74
0
49
-8.5
74
0
49
8.5
74
0
49
-8.5
74
0
0
LTYPE
5
6F
100
AcDbSymbolTableRecord
100
AcDbLinetypeTableRecord
70
0
2
DASHED
3
__ __ __ __ __ __ __ __ __
72
65
73
2
40
25.72
49
12.86
74
0
49
-12.86
74
0
0
ENDTAB
0
TABLE
2
LAYER
5
21e
100
AcDbSymbolTable
0
LAYER
5
10
100
AcDbSymbolTableRecord
100
AcDbLayerTableRecord
2
0
70
0
62
7
6
Continuous
290
1
370
-3
390
0
0
LAYER
5
71
100
AcDbSymbolTableRecord
100
AcDbLayerTableRecord
2
80
70
0
62
-6
6
Continuous
290
1
370
-3
390
0
0
LAYER
5
73
100
AcDbSymbolTableRecord
100
AcDbLayerTableRecord
2
81
70
0
62
-3
6
Continuous
290
1
370
-3
390
0
0
LAYER
5
75
100
AcDbSymbolTableRecord
100
AcDbLayerTableRecord
2
1
70
0
62
4
6
Continuous
290
1
370
-3
390
0
0
LAYER
5
83
100
AcDbSymbolTableRecord
100
AcDbLayerTableRecord
2
4
70
0
62
-2
6
CENTER
290
1
370
-3
390
0
0
LAYER
5
A1
100
AcDbSymbolTableRecord
100
AcDbLayerTableRecord
2
2
70
0
62
7
6
Continuous
290
1
370
-3
390
0
0
LAYER
5
131
100
AcDbSymbolTableRecord
100
AcDbLayerTableRecord
2
Defpoints
70
0
62
7
6
Continuous
290
0
370
-3
390
0
0
LAYER
5
208
100
AcDbSymbolTableRecord
100
AcDbLayerTableRecord
2
SK4
70
0
62
2
6
CENTER
290
1
370
-3
390
0
0
LAYER
5
209
100
AcDbSymbolTableRecord
100
AcDbLayerTableRecord
2
SK1
70
0
62
4
6
Continuous
290
1
370
-3
390
0
0
LAYER
5
20a
100
AcDbSymbolTableRecord
100
AcDbLayerTableRecord
2
SK2
70
0
62
7
6
Continuous
290
1
370
-3
390
0
0
LAYER
5
20b
100
AcDbSymbolTableRecord
100
AcDbLayerTableRecord
2
SK6
70
0
62
5
6
Continuous
290
1
370
-3
390
0
0
ENDTAB
0
TABLE
2
STYLE
5
21f
100
AcDbSymbolTable
0
STYLE
5
11
100
AcDbSymbolTableRecord
100
AcDbTextStyleTableRecord
2
Standard
3
txt
70
0
71
0
40
0
41
1
42
0
50
0
0
STYLE
5
10D
100
AcDbSymbolTableRecord
100
AcDbTextStyleTableRecord
2
iso_b_vert
3
simplex.shx
70
0
71
0
40
0
41
1
42
0
50
0
0
STYLE
5
10E
100
AcDbSymbolTableRecord
100
AcDbTextStyleTableRecord
2
DWGDirectTextStyle
3
simplex
70
0
71
0
40
0
41
1
42
0
50
0
0
ENDTAB
0
TABLE
2
DIMSTYLE
5
220
100
AcDbSymbolTable
100
AcDbDimStyleTable
0
DIMSTYLE
105
27
100
AcDbSymbolTableRecord
100
AcDbDimStyleTableRecord
2
Standard
70
0
3
<>
41
0.18
42
0.0625
44
0.18
140
0.18
147
0.09
73
0
74
0
77
1
271
2
275
0
278
52
280
0
340
11
0
ENDTAB
0
TABLE
2
VIEW
5
221
100
AcDbSymbolTable
0
ENDTAB
0
TABLE
2
UCS
5
222
100
AcDbSymbolTable
0
ENDTAB
0
TABLE
2
APPID
5
223
100
AcDbSymbolTable
0
APPID
5
12
100
AcDbSymbolTableRecord
100
AcDbRegAppTableRecord
2
ACAD
70
0
0
APPID
5
12D
100
AcDbSymbolTableRecord
100
AcDbRegAppTableRecord
2
ACAD_DSTYLE_DIMBREAK
70
0
0
APPID
5
1C7
100
AcDbSymbolTableRecord
100
AcDbRegAppTableRecord
2
ACAD_DSTYLE_DIM_LINETYPE
70
0
0
APPID
5
1C8
100
AcDbSymbolTableRecord
100
AcDbRegAppTableRecord
2
ACAD_DSTYLE_DIM_EXT1_LINETYPE
70
0
0
APPID
5
1C9
100
AcDbSymbolTableRecord
100
AcDbRegAppTableRecord
2
ACAD_DSTYLE_DIM_EXT2_LINETYPE
70
0
0
APPID
5
204
100
AcDbSymbolTableRecord
100
AcDbRegAppTableRecord
2
ACAD_MLEADERVER
70
0
0
ENDTAB
0
TABLE
2
BLOCK_RECORD
5
224
100
AcDbSymbolTable
0
BLOCK_RECORD
5
1F
100
AcDbSymbolTableRecord
100
AcDbBlockTableRecord
2
*Model_Space
340
0
70
0
0
BLOCK_RECORD
5
1B
100
AcDbSymbolTableRecord
100
AcDbBlockTableRecord
2
*Paper_Space
340
0
70
0
0
BLOCK_RECORD
5
23
100
AcDbSymbolTableRecord
100
AcDbBlockTableRecord
2
*Paper_Space0
340
0
70
0
0
BLOCK_RECORD
5
132
100
AcDbSymbolTableRecord
100
AcDbBlockTableRecord
2
*D1
340
0
70
0
0
BLOCK_RECORD
5
13E
100
AcDbSymbolTableRecord
100
AcDbBlockTableRecord
2
_U0
340
0
70
0
0
BLOCK_RECORD
5
14C
100
AcDbSymbolTableRecord
100
AcDbBlockTableRecord
2
*D3
340
0
70
0
0
BLOCK_RECORD
5
158
100
AcDbSymbolTableRecord
100
AcDbBlockTableRecord
2
_U1
340
0
70
0
0
BLOCK_RECORD
5
164
100
AcDbSymbolTableRecord
100
AcDbBlockTableRecord
2
*D5
340
0
70
0
0
BLOCK_RECORD
5
170
100
AcDbSymbolTableRecord
100
AcDbBlockTableRecord
2
_U2
340
0
70
0
0
BLOCK_RECORD
5
17C
100
AcDbSymbolTableRecord
100
AcDbBlockTableRecord
2
*D7
340
0
70
0
0
BLOCK_RECORD
5
188
100
AcDbSymbolTableRecord
100
AcDbBlockTableRecord
2
_U3
340
0
70
0
0
BLOCK_RECORD
5
194
100
AcDbSymbolTableRecord
100
AcDbBlockTableRecord
2
*D9
340
0
70
0
0
BLOCK_RECORD
5
1A0
100
AcDbSymbolTableRecord
100
AcDbBlockTableRecord
2
_U4
340
0
70
0
0
ENDTAB
0
ENDSEC
0
SECTION
2
BLOCKS
0
BLOCK
5
20
100
AcDbEntity
8
0
100
AcDbBlockBegin
2
*Model_Space
70
0
10
0
20
0
30
0
3
*Model_Space
0
ENDBLK
5
21
100
AcDbEntity
8
0
100
AcDbBlockEnd
0
BLOCK
5
1C
100
AcDbEntity
8
0
100
AcDbBlockBegin
2
*Paper_Space
70
0
10
0
20
0
30
0
3
*Paper_Space
0
ENDBLK
5
1D
100
AcDbEntity
8
0
100
AcDbBlockEnd
0
BLOCK
5
24
100
AcDbEntity
8
0
100
AcDbBlockBegin
2
*Paper_Space0
70
0
10
0
20
0
30
0
3
*Paper_Space0
0
ENDBLK
5
25
100
AcDbEntity
8
0
100
AcDbBlockEnd
0
BLOCK
5
133
100
AcDbEntity
8
0
100
AcDbBlockBegin
2
*D1
70
1
10
0
20
0
30
0
3
*D1
0
LINE
5
135
100
AcDbEntity
8
0
62
256
6
ByLayer
370
-2
48
1
60
0
100
AcDbLine
10
79
20
-8.1375
30
0
11
79
21
-28.973091
31
0
39
0
210
0
220
0
230
1
0
LINE
5
136
100
AcDbEntity
8
0
62
256
6
ByLayer
370
-2
48
1
60
0
100
AcDbLine
10
20.1
20
-8.1375
30
0
11
20.1
21
-28.973091
31
0
39
0
210
0
220
0
230
1
0
LINE
5
137
100
AcDbEntity
8
0
62
256
6
ByLayer
370
-2
48
1
60
0
100
AcDbLine
10
75.5
20
-26.973091
30
0
11
23.6
21
-26.973091
31
0
39
0
210
0
220
0
230
1
0
SOLID
5
138
100
AcDbEntity
8
0
62
256
6
ByLayer
370
-1
48
1
60
0
100
AcDbTrace
10
75.5
20
-27.556425
30
0
11
75.5
21
-26.389758
31
0
12
79
22
-26.973091
32
0
13
79
23
-26.973091
33
0
39
0
210
0
220
0
230
1
0
SOLID
5
139
100
AcDbEntity
8
0
62
256
6
ByLayer
370
-1
48
1
60
0
100
AcDbTrace
10
23.6
20
-26.389758
30
0
11
23.6
21
-27.556425
31
0
12
20.1
22
-26.973091
32
0
13
20.1
23
-26.973091
33
0
39
0
210
0
220
0
230
1
0
MTEXT
5
13A
100
AcDbEntity
8
0
62
256
6
ByLayer
370
18
48
1
60
0
100
AcDbMText
10
49.55
20
-20.973091
30
0
210
0
220
0
230
1
1
\A1;58.9
40
3
41
0
44
1
50
0
71
5
72
5
7
iso_b_vert
0
POINT
5
13B
100
AcDbEntity
8
Defpoints
62
0
6
ByLayer
370
-1
48
1
60
0
100
AcDbPoint
10
79
20
-6.55
30
0
39
0
210
0
220
0
230
1
50
360
0
POINT
5
13C
100
AcDbEntity
8
Defpoints
62
0
6
ByLayer
370
-1
48
1
60
0
100
AcDbPoint
10
20.1
20
-6.55
30
0
39
0
210
0
220
0
230
1
50
360
0
POINT
5
13D
100
AcDbEntity
8
Defpoints
62
0
6
ByLayer
370
-1
48
1
60
0
100
AcDbPoint
10
20.1
20
-26.973091
30
0
39
0
210
0
220
0
230
1
50
360
0
ENDBLK
5
134
100
AcDbEntity
8
0
100
AcDbBlockEnd
0
BLOCK
5
147
100
AcDbEntity
8
0
100
AcDbBlockBegin
2
_U0
70
0
10
0
20
0
30
0
3
_U0
0
MTEXT
5
13F
100
AcDbEntity
8
SK2
62
256
6
ByLayer
370
18
48
1
60
0
100
AcDbMText
10
46.188544
20
-24.775477
30
0
210
0
220
0
230
1
1
\W0.7457;58.9
40
3
41
0
44
1.084337
50
0
71
7
72
5
7
iso_b_vert
0
MTEXT
5
140
100
AcDbEntity
8
SK2
62
256
6
ByLayer
370
18
48
1
60
0
100
AcDbMText
10
44.088544
20
-24.775477
30
0
210
0
220
0
230
1
1
\W1.1313;{\H1.88x;(}
40
3
41
0
44
1.084337
50
0
71
7
72
5
7
iso_b_vert
0
MTEXT
5
141
100
AcDbEntity
8
SK2
62
256
6
ByLayer
370
18
48
1
60
0
100
AcDbMText
10
53.229456
20
-24.775477
30
0
210
0
220
0
230
1
1
\W1.1313;{\H1.88x;)}
40
3
41
0
44
1.084337
50
0
71
7
72
5
7
iso_b_vert
0
LINE
5
142
100
AcDbEntity
8
SK2
62
256
6
ByLayer
370
13
48
1
60
0
100
AcDbLine
10
79
20
-8.1375
30
0
11
79
21
-28.973091
31
0
39
0
210
0
220
0
230
1
0
LINE
5
143
100
AcDbEntity
8
SK2
62
256
6
ByLayer
370
13
48
1
60
0
100
AcDbLine
10
20.1
20
-8.1375
30
0
11
20.1
21
-28.973091
31
0
39
0
210
0
220
0
230
1
0
LINE
5
144
100
AcDbEntity
8
SK2
62
256
6
ByLayer
370
13
48
1
60
0
100
AcDbLine
10
79
20
-26.973091
30
0
11
20.1
21
-26.973091
31
0
39
0
210
0
220
0
230
1
0
SOLID
5
145
100
AcDbEntity
8
SK2
62
256
6
ByLayer
370
18
48
1
60
0
100
AcDbTrace
10
79
20
-26.973091
30
0
11
75.500002
21
-27.433875
31
0
12
75.499998
22
-26.512307
32
0
13
75.499998
23
-26.512307
33
0
39
0
210
0
220
0
230
1
0
SOLID
5
146
100
AcDbEntity
8
SK2
62
256
6
ByLayer
370
18
48
1
60
0
100
AcDbTrace
10
20.1
20
-26.973091
30
0
11
23.599998
21
-26.512307
31
0
12
23.600002
22
-27.433875
32
0
13
23.600002
23
-27.433875
33
0
39
0
210
0
220
0
230
1
0
ENDBLK
5
148
100
AcDbEntity
8
0
100
AcDbBlockEnd
0
BLOCK
5
14D
100
AcDbEntity
8
0
100
AcDbBlockBegin
2
*D3
70
1
10
0
20
0
30
0
3
*D3
0
LINE
5
14F
100
AcDbEntity
8
0
62
256
6
ByLayer
370
-2
48
1
60
0
100
AcDbLine
10
79
20
-8.1375
30
0
11
79
21
-38.973091
31
0
39
0
210
0
220
0
230
1
0
LINE
5
150
100
AcDbEntity
8
0
62
256
6
ByLayer
370
-2
48
1
60
0
100
AcDbLine
10
2
20
-8.1375
30
0
11
2
21
-38.973091
31
0
39
0
210
0
220
0
230
1
0
LINE
5
151
100
AcDbEntity
8
0
62
256
6
ByLayer
370
-2
48
1
60
0
100
AcDbLine
10
75.5
20
-36.973091
30
0
11
5.5
21
-36.973091
31
0
39
0
210
0
220
0
230
1
0
SOLID
5
152
100
AcDbEntity
8
0
62
256
6
ByLayer
370
-1
48
1
60
0
100
AcDbTrace
10
75.5
20
-37.556425
30
0
11
75.5
21
-36.389758
31
0
12
79
22
-36.973091
32
0
13
79
23
-36.973091
33
0
39
0
210
0
220
0
230
1
0
SOLID
5
153
100
AcDbEntity
8
0
62
256
6
ByLayer
370
-1
48
1
60
0
100
AcDbTrace
10
5.5
20
-36.389758
30
0
11
5.5
21
-37.556425
31
0
12
2
22
-36.973091
32
0
13
2
23
-36.973091
33
0
39
0
210
0
220
0
230
1
0
MTEXT
5
154
100
AcDbEntity
8
0
62
256
6
ByLayer
370
18
48
1
60
0
100
AcDbMText
10
40.5
20
-30.973091
30
0
210
0
220
0
230
1
1
\A1;77
40
3
41
0
44
1
50
0
71
5
72
5
7
iso_b_vert
0
POINT
5
155
100
AcDbEntity
8
Defpoints
62
0
6
ByLayer
370
-1
48
1
60
0
100
AcDbPoint
10
79
20
-6.55
30
0
39
0
210
0
220
0
230
1
50
360
0
POINT
5
156
100
AcDbEntity
8
Defpoints
62
0
6
ByLayer
370
-1
48
1
60
0
100
AcDbPoint
10
2
20
-6.55
30
0
39
0
210
0
220
0
230
1
50
360
0
POINT
5
157
100
AcDbEntity
8
Defpoints
62
0
6
ByLayer
370
-1
48
1
60
0
100
AcDbPoint
10
2
20
-36.973091
30
0
39
0
210
0
220
0
230
1
50
360
0
ENDBLK
5
14E
100
AcDbEntity
8
0
100
AcDbBlockEnd
0
BLOCK
5
15F
100
AcDbEntity
8
0
100
AcDbBlockBegin
2
_U1
70
0
10
0
20
0
30
0
3
_U1
0
MTEXT
5
159
100
AcDbEntity
8
SK2
62
256
6
ByLayer
370
18
48
1
60
0
100
AcDbMText
10
38.867172
20
-36.087977
30
0
210
0
220
0
230
1
1
\W0.6740;77
40
3
41
0
44
1.084337
50
0
71
7
72
5
7
iso_b_vert
0
LINE
5
15A
100
AcDbEntity
8
SK2
62
256
6
ByLayer
370
13
48
1
60
0
100
AcDbLine
10
79
20
-8.1375
30
0
11
79
21
-38.973091
31
0
39
0
210
0
220
0
230
1
0
LINE
5
15B
100
AcDbEntity
8
SK2
62
256
6
ByLayer
370
13
48
1
60
0
100
AcDbLine
10
2
20
-8.1375
30
0
11
2
21
-38.973091
31
0
39
0
210
0
220
0
230
1
0
LINE
5
15C
100
AcDbEntity
8
SK2
62
256
6
ByLayer
370
13
48
1
60
0
100
AcDbLine
10
79
20
-36.973091
30
0
11
2
21
-36.973091
31
0
39
0
210
0
220
0
230
1
0
SOLID
5
15D
100
AcDbEntity
8
SK2
62
256
6
ByLayer
370
18
48
1
60
0
100
AcDbTrace
10
79
20
-36.973091
30
0
11
75.500002
21
-37.433875
31
0
12
75.499998
22
-36.512307
32
0
13
75.499998
23
-36.512307
33
0
39
0
210
0
220
0
230
1
0
SOLID
5
15E
100
AcDbEntity
8
SK2
62
256
6
ByLayer
370
18
48
1
60
0
100
AcDbTrace
10
2
20
-36.973091
30
0
11
5.499998
21
-36.512307
31
0
12
5.500002
22
-37.433875
32
0
13
5.500002
23
-37.433875
33
0
39
0
210
0
220
0
230
1
0
ENDBLK
5
160
100
AcDbEntity
8
0
100
AcDbBlockEnd
0
BLOCK
5
165
100
AcDbEntity
8
0
100
AcDbBlockBegin
2
*D5
70
1
10
0
20
0
30
0
3
*D5
0
LINE
5
167
100
AcDbEntity
8
0
62
256
6
ByLayer
370
-2
48
1
60
0
100
AcDbLine
10
-45
20
-8.5875
30
0
11
-45
21
-46.973091
31
0
39
0
210
0
220
0
230
1
0
LINE
5
168
100
AcDbEntity
8
0
62
256
6
ByLayer
370
-2
48
1
60
0
100
AcDbLine
10
0
20
-8.5875
30
0
11
0
21
-46.973091
31
0
39
0
210
0
220
0
230
1
0
LINE
5
169
100
AcDbEntity
8
0
62
256
6
ByLayer
370
-2
48
1
60
0
100
AcDbLine
10
-41.5
20
-44.973091
30
0
11
-3.5
21
-44.973091
31
0
39
0
210
0
220
0
230
1
0
SOLID
5
16A
100
AcDbEntity
8
0
62
256
6
ByLayer
370
-1
48
1
60
0
100
AcDbTrace
10
-41.5
20
-44.389758
30
0
11
-41.5
21
-45.556425
31
0
12
-45
22
-44.973091
32
0
13
-45
23
-44.973091
33
0
39
0
210
0
220
0
230
1
0
SOLID
5
16B
100
AcDbEntity
8
0
62
256
6
ByLayer
370
-1
48
1
60
0
100
AcDbTrace
10
-3.5
20
-45.556425
30
0
11
-3.5
21
-44.389758
31
0
12
0
22
-44.973091
32
0
13
0
23
-44.973091
33
0
39
0
210
0
220
0
230
1
0
MTEXT
5
16C
100
AcDbEntity
8
0
62
256
6
ByLayer
370
18
48
1
60
0
100
AcDbMText
10
-22.5
20
-38.973091
30
0
210
0
220
0
230
1
1
\A1;45
40
3
41
0
44
1
50
0
71
5
72
5
7
iso_b_vert
0
POINT
5
16D
100
AcDbEntity
8
Defpoints
62
0
6
ByLayer
370
-1
48
1
60
0
100
AcDbPoint
10
-45
20
-7
30
0
39
0
210
0
220
0
230
1
50
360
0
POINT
5
16E
100
AcDbEntity
8
Defpoints
62
0
6
ByLayer
370
-1
48
1
60
0
100
AcDbPoint
10
0
20
-7
30
0
39
0
210
0
220
0
230
1
50
360
0
POINT
5
16F
100
AcDbEntity
8
Defpoints
62
0
6
ByLayer
370
-1
48
1
60
0
100
AcDbPoint
10
0
20
-44.973091
30
0
39
0
210
0
220
0
230
1
50
360
0
ENDBLK
5
166
100
AcDbEntity
8
0
100
AcDbBlockEnd
0
BLOCK
5
177
100
AcDbEntity
8
0
100
AcDbBlockBegin
2
_U2
70
0
10
0
20
0
30
0
3
_U2
0
MTEXT
5
171
100
AcDbEntity
8
SK2
62
256
6
ByLayer
370
18
48
1
60
0
100
AcDbMText
10
-24.290771
20
-44.087977
30
0
210
0
220
0
230
1
1
\W0.7361;45
40
3
41
0
44
1.084337
50
0
71
7
72
5
7
iso_b_vert
0
LINE
5
172
100
AcDbEntity
8
SK2
62
256
6
ByLayer
370
13
48
1
60
0
100
AcDbLine
10
-45
20
-8.5875
30
0
11
-45
21
-46.973091
31
0
39
0
210
0
220
0
230
1
0
LINE
5
173
100
AcDbEntity
8
SK2
62
256
6
ByLayer
370
13
48
1
60
0
100
AcDbLine
10
0
20
-8.5875
30
0
11
0
21
-46.973091
31
0
39
0
210
0
220
0
230
1
0
LINE
5
174
100
AcDbEntity
8
SK2
62
256
6
ByLayer
370
13
48
1
60
0
100
AcDbLine
10
-45
20
-44.973091
30
0
11
0
21
-44.973091
31
0
39
0
210
0
220
0
230
1
0
SOLID
5
175
100
AcDbEntity
8
SK2
62
256
6
ByLayer
370
18
48
1
60
0
100
AcDbTrace
10
-45
20
-44.973091
30
0
11
-41.500002
21
-44.512307
31
0
12
-41.499998
22
-45.433875
32
0
13
-41.499998
23
-45.433875
33
0
39
0
210
0
220
0
230
1
0
SOLID
5
176
100
AcDbEntity
8
SK2
62
256
6
ByLayer
370
18
48
1
60
0
100
AcDbTrace
10
0
20
-44.973091
30
0
11
-3.499998
21
-45.433875
31
0
12
-3.500002
22
-44.512307
32
0
13
-3.500002
23
-44.512307
33
0
39
0
210
0
220
0
230
1
0
ENDBLK
5
178
100
AcDbEntity
8
0
100
AcDbBlockEnd
0
BLOCK
5
17D
100
AcDbEntity
8
0
100
AcDbBlockBegin
2
*D7
70
1
10
0
20
0
30
0
3
*D7
0
LINE
5
17F
100
AcDbEntity
8
0
62
256
6
ByLayer
370
-2
48
1
60
0
100
AcDbLine
10
-45
20
-8.5875
30
0
11
-45
21
-54.973091
31
0
39
0
210
0
220
0
230
1
0
LINE
5
180
100
AcDbEntity
8
0
62
256
6
ByLayer
370
-2
48
1
60
0
100
AcDbLine
10
79
20
-8.1375
30
0
11
79
21
-54.973091
31
0
39
0
210
0
220
0
230
1
0
LINE
5
181
100
AcDbEntity
8
0
62
256
6
ByLayer
370
-2
48
1
60
0
100
AcDbLine
10
-41.5
20
-52.973091
30
0
11
75.5
21
-52.973091
31
0
39
0
210
0
220
0
230
1
0
SOLID
5
182
100
AcDbEntity
8
0
62
256
6
ByLayer
370
-1
48
1
60
0
100
AcDbTrace
10
-41.5
20
-52.389758
30
0
11
-41.5
21
-53.556425
31
0
12
-45
22
-52.973091
32
0
13
-45
23
-52.973091
33
0
39
0
210
0
220
0
230
1
0
SOLID
5
183
100
AcDbEntity
8
0
62
256
6
ByLayer
370
-1
48
1
60
0
100
AcDbTrace
10
75.5
20
-53.556425
30
0
11
75.5
21
-52.389758
31
0
12
79
22
-52.973091
32
0
13
79
23
-52.973091
33
0
39
0
210
0
220
0
230
1
0
MTEXT
5
184
100
AcDbEntity
8
0
62
256
6
ByLayer
370
18
48
1
60
0
100
AcDbMText
10
17
20
-46.973091
30
0
210
0
220
0
230
1
1
\A1;124
40
3
41
0
44
1
50
0
71
5
72
5
7
iso_b_vert
0
POINT
5
185
100
AcDbEntity
8
Defpoints
62
0
6
ByLayer
370
-1
48
1
60
0
100
AcDbPoint
10
-45
20
-7
30
0
39
0
210
0
220
0
230
1
50
360
0
POINT
5
186
100
AcDbEntity
8
Defpoints
62
0
6
ByLayer
370
-1
48
1
60
0
100
AcDbPoint
10
79
20
-6.55
30
0
39
0
210
0
220
0
230
1
50
360
0
POINT
5
187
100
AcDbEntity
8
Defpoints
62
0
6
ByLayer
370
-1
48
1
60
0
100
AcDbPoint
10
79
20
-52.973091
30
0
39
0
210
0
220
0
230
1
50
360
0
ENDBLK
5
17E
100
AcDbEntity
8
0
100
AcDbBlockEnd
0
BLOCK
5
18F
100
AcDbEntity
8
0
100
AcDbBlockBegin
2
_U3
70
0
10
0
20
0
30
0
3
_U3
0
MTEXT
5
189
100
AcDbEntity
8
SK2
62
256
6
ByLayer
370
18
48
1
60
0
100
AcDbMText
10
14.463258
20
-52.087977
30
0
210
0
220
0
230
1
1
\W0.6506;124
40
3
41
0
44
1.084337
50
0
71
7
72
5
7
iso_b_vert
0
LINE
5
18A
100
AcDbEntity
8
SK2
62
256
6
ByLayer
370
13
48
1
60
0
100
AcDbLine
10
-45
20
-8.5875
30
0
11
-45
21
-54.973091
31
0
39
0
210
0
220
0
230
1
0
LINE
5
18B
100
AcDbEntity
8
SK2
62
256
6
ByLayer
370
13
48
1
60
0
100
AcDbLine
10
79
20
-8.1375
30
0
11
79
21
-54.973091
31
0
39
0
210
0
220
0
230
1
0
LINE
5
18C
100
AcDbEntity
8
SK2
62
256
6
ByLayer
370
13
48
1
60
0
100
AcDbLine
10
-45
20
-52.973091
30
0
11
79
21
-52.973091
31
0
39
0
210
0
220
0
230
1
0
SOLID
5
18D
100
AcDbEntity
8
SK2
62
256
6
ByLayer
370
18
48
1
60
0
100
AcDbTrace
10
-45
20
-52.973091
30
0
11
-41.500002
21
-52.512307
31
0
12
-41.499998
22
-53.433875
32
0
13
-41.499998
23
-53.433875
33
0
39
0
210
0
220
0
230
1
0
SOLID
5
18E
100
AcDbEntity
8
SK2
62
256
6
ByLayer
370
18
48
1
60
0
100
AcDbTrace
10
79
20
-52.973091
30
0
11
75.500002
21
-53.433875
31
0
12
75.499998
22
-52.512307
32
0
13
75.499998
23
-52.512307
33
0
39
0
210
0
220
0
230
1
0
ENDBLK
5
190
100
AcDbEntity
8
0
100
AcDbBlockEnd
0
BLOCK
5
195
100
AcDbEntity
8
0
100
AcDbBlockBegin
2
*D9
70
1
10
0
20
0
30
0
3
*D9
0
LINE
5
197
100
AcDbEntity
8
0
62
256
6
ByLayer
370
-2
48
1
60
0
100
AcDbLine
10
79
20
-8.1375
30
0
11
79
21
-46.973091
31
0
39
0
210
0
220
0
230
1
0
LINE
5
198
100
AcDbEntity
8
0
62
256
6
ByLayer
370
-2
48
1
60
0
100
AcDbLine
10
0
20
-8.1375
30
0
11
0
21
-46.973091
31
0
39
0
210
0
220
0
230
1
0
LINE
5
199
100
AcDbEntity
8
0
62
256
6
ByLayer
370
-2
48
1
60
0
100
AcDbLine
10
75.5
20
-44.973091
30
0
11
3.5
21
-44.973091
31
0
39
0
210
0
220
0
230
1
0
SOLID
5
19A
100
AcDbEntity
8
0
62
256
6
ByLayer
370
-1
48
1
60
0
100
AcDbTrace
10
75.5
20
-45.556425
30
0
11
75.5
21
-44.389758
31
0
12
79
22
-44.973091
32
0
13
79
23
-44.973091
33
0
39
0
210
0
220
0
230
1
0
SOLID
5
19B
100
AcDbEntity
8
0
62
256
6
ByLayer
370
-1
48
1
60
0
100
AcDbTrace
10
3.5
20
-44.389758
30
0
11
3.5
21
-45.556425
31
0
12
0
22
-44.973091
32
0
13
0
23
-44.973091
33
0
39
0
210
0
220
0
230
1
0
MTEXT
5
19C
100
AcDbEntity
8
0
62
256
6
ByLayer
370
18
48
1
60
0
100
AcDbMText
10
39.5
20
-38.973091
30
0
210
0
220
0
230
1
1
\A1;79
40
3
41
0
44
1
50
0
71
5
72
5
7
iso_b_vert
0
POINT
5
19D
100
AcDbEntity
8
Defpoints
62
0
6
ByLayer
370
-1
48
1
60
0
100
AcDbPoint
10
79
20
-6.55
30
0
39
0
210
0
220
0
230
1
50
360
0
POINT
5
19E
100
AcDbEntity
8
Defpoints
62
0
6
ByLayer
370
-1
48
1
60
0
100
AcDbPoint
10
0
20
-6.55
30
0
39
0
210
0
220
0
230
1
50
360
0
POINT
5
19F
100
AcDbEntity
8
Defpoints
62
0
6
ByLayer
370
-1
48
1
60
0
100
AcDbPoint
10
0
20
-44.973091
30
0
39
0
210
0
220
0
230
1
50
360
0
ENDBLK
5
196
100
AcDbEntity
8
0
100
AcDbBlockEnd
0
BLOCK
5
1A7
100
AcDbEntity
8
0
100
AcDbBlockBegin
2
_U4
70
0
10
0
20
0
30
0
3
_U4
0
MTEXT
5
1A1
100
AcDbEntity
8
2
62
256
6
ByLayer
370
18
48
1
60
0
100
AcDbMText
10
37.867172
20
-44.087977
30
0
210
0
220
0
230
1
1
\W0.6927;79
40
3
41
0
44
1.084337
50
0
71
7
72
5
7
iso_b_vert
0
LINE
5
1A2
100
AcDbEntity
8
2
62
256
6
ByLayer
370
13
48
1
60
0
100
AcDbLine
10
79
20
-8.1375
30
0
11
79
21
-46.973091
31
0
39
0
210
0
220
0
230
1
0
LINE
5
1A3
100
AcDbEntity
8
2
62
256
6
ByLayer
370
13
48
1
60
0
100
AcDbLine
10
0
20
-8.1375
30
0
11
0
21
-46.973091
31
0
39
0
210
0
220
0
230
1
0
LINE
5
1A4
100
AcDbEntity
8
2
62
256
6
ByLayer
370
13
48
1
60
0
100
AcDbLine
10
79
20
-44.973091
30
0
11
0
21
-44.973091
31
0
39
0
210
0
220
0
230
1
0
SOLID
5
1A5
100
AcDbEntity
8
2
62
256
6
ByLayer
370
18
48
1
60
0
100
AcDbTrace
10
79
20
-44.973091
30
0
11
75.500002
21
-45.433875
31
0
12
75.499998
22
-44.512307
32
0
13
75.499998
23
-44.512307
33
0
39
0
210
0
220
0
230
1
0
SOLID
5
1A6
100
AcDbEntity
8
2
62
256
6
ByLayer
370
18
48
1
60
0
100
AcDbTrace
10
0
20
-44.973091
30
0
11
3.499998
21
-44.512307
31
0
12
3.500002
22
-45.433875
32
0
13
3.500002
23
-45.433875
33
0
39
0
210
0
220
0
230
1
0
ENDBLK
5
1A8
100
AcDbEntity
8
0
100
AcDbBlockEnd
0
ENDSEC
0
SECTION
2
ENTITIES
0
ARC
5
BC
100
AcDbEntity
8
1
62
256
6
ByLayer
370
18
48
1
60
0
100
AcDbCircle
39
0
10
1.237403
20
-7.214314
30
0
40
0.800000000000004
210
0
220
0
230
1
100
AcDbArc
50
89.896868
51
140.658107
0
ARC
5
BD
100
AcDbEntity
8
1
62
256
6
ByLayer
370
18
48
1
60
0
100
AcDbCircle
39
0
10
1.237403
20
7.214314
30
0
40
0.800000000000004
210
0
220
0
230
1
100
AcDbArc
50
219.341893
51
270.103132
0
ARC
5
BE
100
AcDbEntity
8
1
62
256
6
ByLayer
370
18
48
1
60
0
100
AcDbCircle
39
0
10
0
20
-6.2
30
0
40
0.799999999999997
210
0
220
0
230
1
100
AcDbArc
50
270
51
320.658107
0
ARC
5
BF
100
AcDbEntity
8
1
62
256
6
ByLayer
370
18
48
1
60
0
100
AcDbCircle
39
0
10
0
20
6.2
30
0
40
0.799999999999997
210
0
220
0
230
1
100
AcDbArc
50
39.341893
51
90
0
ARC
5
C0
100
AcDbEntity
8
SK2
62
256
6
ByLayer
370
13
48
1
60
0
100
AcDbCircle
39
0
10
79
20
0
30
0
40
23.6477139293703
210
0
220
0
230
1
100
AcDbArc
50
7.288306
51
70.000039
0
ARC
5
C1
100
AcDbEntity
8
SK2
62
256
6
ByLayer
370
13
48
1
60
0
100
AcDbCircle
39
0
10
79
20
0
30
0
40
23.6477139293703
210
0
220
0
230
1
100
AcDbArc
50
289.999961
51
352.711694
0
ELLIPSE
5
C2
100
AcDbEntity
8
1
62
256
6
ByLayer
370
13
48
1
60
0
100
AcDbEllipse
10
20.200408
20
6.121953
30
0
11
-3.73456645774321E-05
21
0.00999993026482371
31
0
210
0
220
0
230
1
40
0.005266
41
-2.9731218583971
42
-1.40220180702591
0
ELLIPSE
5
C3
100
AcDbEntity
8
1
62
256
6
ByLayer
370
13
48
1
60
0
100
AcDbEllipse
10
20.241187
20
6.120453
30
0
11
-0.000824790845793756
21
-0.00996592795783187
31
0
210
0
220
0
230
1
40
0.451719
41
0.190884128209307
42
1.75834351437779
0
POINT
5
70
100
AcDbEntity
8
80
62
256
6
ByLayer
370
18
48
1
60
0
100
AcDbPoint
10
0
20
0
30
0
39
0
210
0
220
0
230
1
50
360
0
POINT
5
72
100
AcDbEntity
8
81
62
256
6
ByLayer
370
18
48
1
60
0
100
AcDbPoint
10
79
20
0
30
0
39
0
210
0
220
0
230
1
50
360
0
POINT
5
74
100
AcDbEntity
8
1
62
256
6
ByLayer
370
18
48
1
60
0
100
AcDbPoint
10
-199.351143
20
-200
30
0
39
0
210
0
220
0
230
1
50
360
0
POINT
5
76
100
AcDbEntity
8
1
62
256
6
ByLayer
370
13
48
1
60
1
100
AcDbPoint
10
-46.5
20
0
30
0
39
0
210
0
220
0
230
1
50
360
0
POINT
5
77
100
AcDbEntity
8
1
62
256
6
ByLayer
370
13
48
1
60
1
100
AcDbPoint
10
78.129559
20
0
30
0
39
0
210
0
220
0
230
1
50
360
0
POINT
5
78
100
AcDbEntity
8
1
62
256
6
ByLayer
370
18
48
1
60
1
100
AcDbPoint
10
79
20
-6.55
30
0
39
0
210
0
220
0
230
1
50
360
0
POINT
5
79
100
AcDbEntity
8
1
62
256
6
ByLayer
370
18
48
1
60
1
100
AcDbPoint
10
20.1
20
-6.55
30
0
39
0
210
0
220
0
230
1
50
360
0
POINT
5
7A
100
AcDbEntity
8
1
62
256
6
ByLayer
370
18
48
1
60
1
100
AcDbPoint
10
79
20
-6.55
30
0
39
0
210
0
220
0
230
1
50
360
0
POINT
5
7B
100
AcDbEntity
8
1
62
256
6
ByLayer
370
18
48
1
60
1
100
AcDbPoint
10
2
20
-6.55
30
0
39
0
210
0
220
0
230
1
50
360
0
POINT
5
7C
100
AcDbEntity
8
1
62
256
6
ByLayer
370
18
48
1
60
1
100
AcDbPoint
10
-45
20
-7
30
0
39
0
210
0
220
0
230
1
50
360
0
POINT
5
7D
100
AcDbEntity
8
1
62
256
6
ByLayer
370
18
48
1
60
1
100
AcDbPoint
10
0
20
-7
30
0
39
0
210
0
220
0
230
1
50
360
0
POINT
5
7E
100
AcDbEntity
8
1
62
256
6
ByLayer
370
18
48
1
60
1
100
AcDbPoint
10
-45
20
-7
30
0
39
0
210
0
220
0
230
1
50
360
0
POINT
5
7F
100
AcDbEntity
8
1
62
256
6
ByLayer
370
18
48
1
60
1
100
AcDbPoint
10
79
20
-6.55
30
0
39
0
210
0
220
0
230
1
50
360
0
POINT
5
80
100
AcDbEntity
8
1
62
256
6
ByLayer
370
18
48
1
60
1
100
AcDbPoint
10
79
20
-6.55
30
0
39
0
210
0
220
0
230
1
50
360
0
POINT
5
81
100
AcDbEntity
8
1
62
256
6
ByLayer
370
18
48
1
60
1
100
AcDbPoint
10
0
20
-6.55
30
0
39
0
210
0
220
0
230
1
50
360
0
SPLINE
5
C4
100
AcDbEntity
8
1
62
256
6
ByLayer
370
18
48
1
60
0
100
AcDbSpline
70
4
71
3
72
8
73
4
40
0
40
0
40
0
40
0
40
1
40
1
40
1
40
1
41
1
10
78.3476745299208
20
2.10584946310249
30
0
41
1
10
78.5182918986272
20
1.62832873232185
30
0
41
1
10
78.6875034303038
20
1.15031390554262
30
0
41
1
10
78.8552810467475
20
0.671795114389141
30
0
0
SPLINE
5
C5
100
AcDbEntity
8
1
62
256
6
ByLayer
370
18
48
1
60
0
100
AcDbSpline
70
4
71
3
72
24
73
20
40
0
40
0
40
0
40
0
40
0.124999999999896
40
0.124999999999896
40
0.187499999999845
40
0.187499999999845
40
0.249999999999793
40
0.249999999999793
40
0.312499999999742
40
0.312499999999742
40
0.374999999999691
40
0.374999999999691
40
0.499999999999739
40
0.499999999999739
40
0.749999999999839
40
0.749999999999839
40
0.87499999999992
40
0.87499999999992
40
1
40
1
40
1
40
1
41
1
10
20.20045377318
20
6.12363133544076
30
0
41
1
10
20.1926358981052
20
6.1236056572439
30
0
41
1
10
20.1850282068633
20
6.12423119859139
30
0
41
1
10
20.1739069724821
20
6.1260681711685
30
0
41
1
10
20.1702576956324
20
6.12683341680344
30
0
41
1
10
20.1632718676672
20
6.12860276963963
30
0
41
1
10
20.1599051422659
20
6.12961138252527
30
0
41
1
10
20.1534046273746
20
6.13185702059062
30
0
41
1
10
20.1502553924162
20
6.13310222874733
30
0
41
1
10
20.1443097987495
20
6.13574902434488
30
0
41
1
10
20.1414992952669
20
6.13715386923039
30
0
41
1
10
20.1335023976952
20
6.14158592503932
30
0
41
1
10
20.1287175953073
20
6.14485316934295
30
0
41
1
10
20.1160910659789
20
6.15524650967251
30
0
41
1
10
20.110096425555
20
6.16274941409816
30
0
41
1
10
20.1039928444179
20
6.17467652989887
30
0
41
1
10
20.1024969425112
20
6.17868834351333
30
0
41
1
10
20.100498579819
20
6.18677585314273
30
0
41
1
10
20.099997306515
20
6.19088133186108
30
0
41
1
10
20.099997306515
20
6.19495101872567
30
0
0
SPLINE
5
C6
100
AcDbEntity
8
1
62
256
6
ByLayer
370
13
48
1
60
0
100
AcDbSpline
70
4
71
3
72
10
73
6
40
0
40
0
40
0
40
0
40
0.5
40
0.5
40
1
40
1
40
1
40
1
41
1
10
20.2457637057255
20
6.12194510892883
30
0
41
1
10
20.238736090945
20
6.1225292659054
30
0
41
1
10
20.2314254977189
20
6.12295860373166
30
0
41
1
10
20.2162585544139
20
6.12352396523477
30
0
41
1
10
20.208357621542
20
6.12365729602112
30
0
41
1
10
20.20045377318
20
6.12363133544076
30
0
0
SPLINE
5
C7
100
AcDbEntity
8
1
62
256
6
ByLayer
370
18
48
1
60
0
100
AcDbSpline
70
4
71
3
72
8
73
4
40
0
40
0
40
0
40
0
40
1
40
1
40
1
40
1
41
1
10
78.8552810467476
20
0.671795114389141
30
0
41
1
10
78.9017566582335
20
0.539241953259818
30
0
41
1
10
78.9491481773137
20
0.407197419377297
30
0
41
1
10
78.9974535968769
20
0.275643436894455
30
0
0
SPLINE
5
C8
100
AcDbEntity
8
1
62
256
6
ByLayer
370
18
48
1
60
0
100
AcDbSpline
70
4
71
3
72
12
73
8
40
0
40
0
40
0
40
0
40
0.662924635734649
40
0.662924635734649
40
0.994386953601977
40
0.994386953601977
40
1
40
1
40
1
40
1
41
1
10
76.509161832365
20
6.54968577990621
30
0
41
1
10
76.5369066022149
20
6.50454425910777
30
0
41
1
10
76.5646602451995
20
6.45924238453995
30
0
41
1
10
76.6063261352581
20
6.39100334986989
30
0
41
1
10
76.6202251763729
20
6.36819970402567
30
0
41
1
10
76.6343496282969
20
6.34499611940348
30
0
41
1
10
76.6345848206908
20
6.34460974185313
30
0
41
1
10
76.6348200032805
20
6.34422337533758
30
0
0
SPLINE
5
C9
100
AcDbEntity
8
1
62
256
6
ByLayer
370
18
48
1
60
0
100
AcDbSpline
70
4
71
3
72
10
73
6
40
0
40
0
40
0
40
0
40
0.5
40
0.5
40
1
40
1
40
1
40
1
41
1
10
78.3476745299207
20
2.10584946310246
30
0
41
1
10
78.2092508048063
20
2.08788614319434
30
0
41
1
10
78.0706030638109
20
2.07186703754098
30
0
41
1
10
77.7929848145576
20
2.04263009509489
30
0
41
1
10
77.6540127512312
20
2.02942575460776
30
0
41
1
10
77.5149257279945
20
2.01721914113517
30
0
0
SPLINE
5
CA
100
AcDbEntity
8
1
62
256
6
ByLayer
370
18
48
1
60
0
100
AcDbSpline
70
4
71
3
72
28
73
24
40
0
40
0
40
0
40
0
40
0.125000000000001
40
0.125000000000001
40
0.250000000000002
40
0.250000000000002
40
0.281250000000002
40
0.281250000000002
40
0.312500000000003
40
0.375000000000007
40
0.375000000000007
40
0.406250000000008
40
0.406250000000008
40
0.421875000000009
40
0.421875000000009
40
0.43750000000001
40
0.50000000000001
40
0.50000000000001
40
0.625000000000008
40
0.625000000000008
40
0.750000000000005
40
0.750000000000005
40
1
40
1
40
1
40
1
41
1
10
78.3476745299207
20
2.10584946310246
30
0
41
1
10
78.2720371961339
20
2.24516871816269
30
0
41
1
10
78.198694774622
20
2.38989850546096
30
0
41
1
10
78.0559713048976
20
2.68986281505863
30
0
41
1
10
77.9865900279042
20
2.84508572495991
30
0
41
1
10
77.9019613013002
20
3.04586806126727
30
0
41
1
10
77.8851489245624
20
3.08634587172474
30
0
41
1
10
77.8519304923219
20
3.16747241896985
30
0
41
1
10
77.8026332787262
20
3.28960384676193
30
0
41
1
10
77.7548492382205
20
3.41302684554304
30
0
41
1
10
77.7079636873829
20
3.53726161573405
30
0
41
1
10
77.6924854068738
20
3.57880897424298
30
0
41
1
10
77.6694751019365
20
3.6413233231402
30
0
41
1
10
77.6618494563868
20
3.66218255357248
30
0
41
1
10
77.6465965954563
20
3.70389275241243
30
0
41
1
10
77.6085005926556
20
3.80817851309215
30
0
41
1
10
77.5705840312995
20
3.91251489518345
30
0
41
1
10
77.4799184563036
20
4.16301363586308
30
0
41
1
10
77.4199210089782
20
4.330135012677
30
0
41
1
10
77.300756875635
20
4.66458698434818
30
0
41
1
10
77.2415584350721
20
4.83200603961961
30
0
41
1
10
77.065373416041
20
5.33365538698672
30
0
41
1
10
76.9498193198165
20
5.66732696814199
30
0
41
1
10
76.8355658917036
20
5.99967647206219
30
0
0
SPLINE
5
CB
100
AcDbEntity
8
1
62
256
6
ByLayer
370
18
48
1
60
0
100
AcDbSpline
70
4
71
3
72
8
73
4
40
0
40
0
40
0
40
0
40
1
40
1
40
1
40
1
41
1
10
76.8355658917036
20
5.99967647206219
30
0
41
1
10
76.782240942693
20
6.09212603648893
30
0
41
1
10
76.7289440194354
20
6.18457820240238
30
0
41
1
10
76.6756832007912
20
6.27701600975604
30
0
0
SPLINE
5
CC
100
AcDbEntity
8
1
62
256
6
ByLayer
370
18
48
1
60
0
100
AcDbSpline
70
4
71
3
72
30
73
26
40
0
40
0
40
0
40
0
40
0.192326178956526
40
0.192326178956526
40
0.288489268434789
40
0.288489268434789
40
0.336570813173919
40
0.336570813173919
40
0.384652357913048
40
0.384652357913048
40
0.480815447391308
40
0.480815447391308
40
0.576978536869568
40
0.576978536869568
40
0.673141626347828
40
0.673141626347828
40
0.721223171086959
40
0.721223171086959
40
0.769304715826091
40
0.769304715826091
40
0.865467805304354
40
0.865467805304354
40
0.961630894782618
40
0.961630894782618
40
1
40
1
40
1
40
1
41
1
10
76.6756832007933
20
6.27701600974805
30
0
41
1
10
76.0863310973099
20
6.28288011838842
30
0
41
1
10
75.4976883373588
20
6.26647495089253
30
0
41
1
10
74.6139730008319
20
6.20920767571309
30
0
41
1
10
74.3193016068365
20
6.18466321271328
30
0
41
1
10
73.8768403187428
20
6.1396462396834
30
0
41
1
10
73.7292182042699
20
6.12326732724441
30
0
41
1
10
73.4340874683883
20
6.08781350893889
30
0
41
1
10
73.2866027100033
20
6.06874288277754
30
0
41
1
10
72.8443362911172
20
6.00751865637011
30
0
41
1
10
72.5497460365272
20
5.96135284078349
30
0
41
1
10
71.9607811045421
20
5.85836264579387
30
0
41
1
10
71.666411231549
20
5.80152336245914
30
0
41
1
10
71.0775658307222
20
5.67757349182094
30
0
41
1
10
70.7830630658015
20
5.61048183528243
30
0
41
1
10
70.3409023367816
20
5.50240162276717
30
0
41
1
10
70.1934494575808
20
5.46513337350669
30
0
41
1
10
69.8983734910526
20
5.38815429603255
30
0
41
1
10
69.7507464450994
20
5.34844132683864
30
0
41
1
10
69.3082597915785
20
5.22590603778229
30
0
41
1
10
69.013554119605
20
5.13963182084274
30
0
41
1
10
68.4244319361627
20
4.95833457621131
30
0
41
1
10
68.1300287678141
20
4.86329946451383
30
0
41
1
10
67.7180806219912
20
4.72451165373732
30
0
41
1
10
67.6005834092191
20
4.68426536596357
30
0
41
1
10
67.4830688052229
20
4.64336694924626
30
0
0
SPLINE
5
CD
100
AcDbEntity
8
1
62
256
6
ByLayer
370
18
48
1
60
0
100
AcDbSpline
70
4
71
3
72
16
73
12
40
0
40
0
40
0
40
0
40
0.028812002115086
40
0.028812002115086
40
0.35254133474339
40
0.35254133474339
40
0.676270667371696
40
0.676270667371696
40
0.838135333685847
40
0.838135333685847
40
1
40
1
40
1
40
1
41
1
10
22.8317425604153
20
-1.80948768854117
30
0
41
1
10
22.8055376504595
20
-1.79649328575019
30
0
41
1
10
22.7793329091008
20
-1.78348655937071
30
0
41
1
10
22.4586939704814
20
-1.62418993020998
30
0
41
1
10
22.1642669285444
20
-1.47638060883597
30
0
41
1
10
21.5751188276114
20
-1.17826835578134
30
0
41
1
10
21.2804005788035
20
-1.02795858543058
30
0
41
1
10
20.8378662113529
20
-0.801087324576372
30
0
41
1
10
20.6902516276773
20
-0.725215803559507
30
0
41
1
10
20.395110554752
20
-0.573205631276267
30
0
41
1
10
20.247558497272
20
-0.497049918404826
30
0
41
1
10
20.099997306515
20
-0.42079630711325
30
0
0
SPLINE
5
CE
100
AcDbEntity
8
1
62
256
6
ByLayer
370
18
48
1
60
0
100
AcDbSpline
70
4
71
3
72
20
73
16
40
0
40
0
40
0
40
0
40
0.132156307582011
40
0.132156307582011
40
0.240636769134264
40
0.240636769134264
40
0.349117230686517
40
0.349117230686517
40
0.45759769223877
40
0.45759769223877
40
0.566078153791024
40
0.566078153791024
40
0.783039076895512
40
0.783039076895512
40
1
40
1
40
1
40
1
41
1
10
76.1653578764861
20
1.49914301015895
30
0
41
1
10
76.2135103415385
20
1.4843260390642
30
0
41
1
10
76.2630654326543
20
1.46708088813543
30
0
41
1
10
76.3553110644716
20
1.4321947708126
30
0
41
1
10
76.3976715125075
20
1.41513596727867
30
0
41
1
10
76.4834883725364
20
1.37907770396964
30
0
41
1
10
76.5266762867839
20
1.36021190447048
30
0
41
1
10
76.6135140482866
20
1.32109745646795
30
0
41
1
10
76.6571836348216
20
1.30078971618425
30
0
41
1
10
76.7450912657208
20
1.25847249244103
30
0
41
1
10
76.7893329185171
20
1.23645220672921
30
0
41
1
10
76.9228628511699
20
1.16798156756684
30
0
41
1
10
77.012953663965
20
1.11912874047278
30
0
41
1
10
77.1948904015739
20
1.01616895880534
30
0
41
1
10
77.2867490503304
20
0.962023913662136
30
0
41
1
10
77.379289812286
20
0.905836885064502
30
0
0
SPLINE
5
CF
100
AcDbEntity
8
1
62
256
6
ByLayer
370
18
48
1
60
0
100
AcDbSpline
70
4
71
3
72
29
73
25
40
0
40
0
40
0
40
0
40
0.149599857366962
40
0.149599857366962
40
0.299199714733924
40
0.299199714733924
40
0.336599679075664
40
0.336599679075664
40
0.373999643417405
40
0.373999643417405
40
0.448799572100886
40
0.598399429467848
40
0.598399429467848
40
0.673199358151329
40
0.673199358151329
40
0.710599322493069
40
0.710599322493069
40
0.747999286834809
40
0.747999286834809
40
0.897599144201749
40
0.897599144201749
40
0.972399072885229
40
0.972399072885229
40
1
40
1
40
1
40
1
41
1
10
77.5149257279946
20
2.01721914113512
30
0
41
1
10
77.4376320196725
20
2.01043565839609
30
0
41
1
10
77.3612541649087
20
1.99952921499562
30
0
41
1
10
77.2103302273125
20
1.96951714565355
30
0
41
1
10
77.1357838829512
20
1.95041265842204
30
0
41
1
10
77.043696294392
20
1.92167232787145
30
0
41
1
10
77.0253333365269
20
1.91568226276703
30
0
41
1
10
76.9887143947544
20
1.90322907513857
30
0
41
1
10
76.9704596068347
20
1.89676491614438
30
0
41
1
10
76.9163295565915
20
1.87686678034083
30
0
41
1
10
76.8101184933282
20
1.83488468997285
30
0
41
1
10
76.7096171677735
20
1.78749129926317
30
0
41
1
10
76.6123056854475
20
1.73812264454341
30
0
41
1
10
76.5803998149309
20
1.72133829618906
30
0
41
1
10
76.5332673964939
20
1.69586676398231
30
0
41
1
10
76.5176492324021
20
1.68731097595386
30
0
41
1
10
76.4868119805438
20
1.67022499424115
30
0
41
1
10
76.4715942861085
20
1.66169624280443
30
0
41
1
10
76.3964560917042
20
1.6191987675887
30
0
41
1
10
76.3393658789958
20
1.58568731614378
30
0
41
1
10
76.2574693116755
20
1.53735338774982
30
0
41
1
10
76.2307975253339
20
1.52156076707877
30
0
41
1
10
76.1950868645779
20
1.5004856529288
30
0
41
1
10
76.1855386412683
20
1.49485766780842
30
0
41
1
10
76.1760692214365
20
1.48928781930576
30
0
0
SPLINE
5
D0
100
AcDbEntity
8
1
62
256
6
ByLayer
370
18
48
1
60
0
100
AcDbSpline
70
4
71
3
72
8
73
4
40
0
40
0
40
0
40
0
40
1
40
1
40
1
40
1
41
1
10
76.8355658917035
20
-5.99967647206242
30
0
41
1
10
76.7822409426942
20
-6.09212603648675
30
0
41
1
10
76.728944019438
20
-6.18457820239774
30
0
41
1
10
76.6756832007952
20
-6.27701600974899
30
0
0
SPLINE
5
D1
100
AcDbEntity
8
1
62
256
6
ByLayer
370
18
48
1
60
0
100
AcDbSpline
70
4
71
3
72
24
73
20
40
0
40
0
40
0
40
0
40
0.500000000000027
40
0.500000000000027
40
0.750000000000038
40
0.750000000000038
40
0.875000000000046
40
0.875000000000046
40
0.937500000000077
40
0.937500000000077
40
0.96875000000009
40
0.96875000000009
40
0.984375000000069
40
0.984375000000069
40
0.992187500000032
40
0.992187500000032
40
0.996093750000016
40
0.996093750000016
40
1
40
1
40
1
40
1
41
1
10
76.5091618323652
20
-6.54968577990584
30
0
41
1
10
76.5369066022156
20
-6.50454425910672
30
0
41
1
10
76.5646602452005
20
-6.45924238453821
30
0
41
1
10
76.6063261352598
20
-6.39100334986713
30
0
41
1
10
76.6202251763748
20
-6.36819970402254
30
0
41
1
10
76.6410590494625
20
-6.33397391318826
30
0
41
1
10
76.6479942540364
20
-6.32257680876239
30
0
41
1
10
76.6584215760804
20
-6.30541545829047
30
0
41
1
10
76.6619095938451
20
-6.29966656803597
30
0
41
1
10
76.6671256798232
20
-6.29107428680376
30
0
41
1
10
76.6688570942353
20
-6.28822522880969
30
0
41
1
10
76.6714424249952
20
-6.28397576569651
30
0
41
1
10
76.6723060247541
20
-6.28255534603866
30
0
41
1
10
76.6736193271353
20
-6.28038613285935
30
0
41
1
10
76.6740609602424
20
-6.27965464131952
30
0
41
1
10
76.6747247750909
20
-6.27855435238328
30
0
41
1
10
76.6749469597627
20
-6.27818628779309
30
0
41
1
10
76.6753642582358
20
-6.27750498188755
30
0
41
1
10
76.6755646589415
20
-6.27718467058091
30
0
41
1
10
76.6756832009055
20
-6.27701600966759
30
0
0
SPLINE
5
D2
100
AcDbEntity
8
1
62
256
6
ByLayer
370
18
48
1
60
0
100
AcDbSpline
70
4
71
3
72
82
73
78
40
0
40
0
40
0
40
0
40
0.0043727994883376
40
0.0043727994883376
40
0.0324036335970076
40
0.0324036335970076
40
0.0464190506513433
40
0.0464190506513433
40
0.060434467705679
40
0.060434467705679
40
0.116496135923021
40
0.116496135923021
40
0.144526970031693
40
0.144526970031693
40
0.158542387086028
40
0.158542387086028
40
0.172557804140364
40
0.172557804140364
40
0.200588638249034
40
0.200588638249034
40
0.228619472357704
40
0.228619472357704
40
0.256650306466374
40
0.256650306466374
40
0.284681140575045
40
0.284681140575045
40
0.340742808792386
40
0.340742808792386
40
0.368773642901057
40
0.368773642901057
40
0.382789059955392
40
0.382789059955392
40
0.396804477009728
40
0.396804477009728
40
0.4248353111184
40
0.4248353111184
40
0.452866145227072
40
0.452866145227072
40
0.508927813444414
40
0.508927813444414
40
0.52294323049875
40
0.52294323049875
40
0.536958647553086
40
0.536958647553086
40
0.564989481661759
40
0.564989481661759
40
0.621051149879104
40
0.621051149879104
40
0.649081983987778
40
0.649081983987778
40
0.663097401042114
40
0.663097401042114
40
0.67711281809645
40
0.67711281809645
40
0.705143652205123
40
0.705143652205123
40
0.733174486313795
40
0.733174486313795
40
0.78923615453114
40
0.78923615453114
40
0.803251571585476
40
0.803251571585476
40
0.817266988639813
40
0.817266988639813
40
0.845297822748487
40
0.845297822748487
40
0.901359490965832
40
0.901359490965832
40
0.929390325074506
40
0.929390325074506
40
0.943405742128842
40
0.943405742128842
40
0.957421159183178
40
0.957421159183178
40
0.985451993291849
40
0.985451993291849
40
1
40
1
40
1
40
1
41
1
10
60.8989197476661
20
-1.79327843008519
30
0
41
1
10
60.8528885397714
20
-1.77045765765914
30
0
41
1
10
60.8068553166895
20
-1.74759736183378
30
0
41
1
10
60.4657176341498
20
-1.57791072937098
30
0
41
1
10
60.1704651531078
20
-1.4295214329405
30
0
41
1
10
59.7276546588976
20
-1.20516520578772
30
0
41
1
10
59.5800519538218
20
-1.13007511632273
30
0
41
1
10
59.285077165635
20
-0.979491092139313
30
0
41
1
10
59.1376736340144
20
-0.903983595856573
30
0
41
1
10
58.400912639041
20
-0.525682930025056
30
0
41
1
10
57.8123150863334
20
-0.220619858697575
30
0
41
1
10
56.92868648454
20
0.236804227853554
30
0
41
1
10
56.6340283033298
20
0.389263509504445
30
0
41
1
10
56.1916555481057
20
0.617517380426591
30
0
41
1
10
56.0440913241335
20
0.693542001706703
30
0
41
1
10
55.7489616391834
20
0.845219454199764
30
0
41
1
10
55.6014307132019
20
0.920858282782376
30
0
41
1
10
55.1588815726412
20
1.14706261663662
30
0
41
1
10
54.8639074794012
20
1.2969146544084
30
0
41
1
10
54.2737700545888
20
1.59414854686966
30
0
41
1
10
53.9785522146127
20
1.74154355200886
30
0
41
1
10
53.3881880939142
20
2.03305146677525
30
0
41
1
10
53.0929296458908
20
2.17725023153662
30
0
41
1
10
52.503220331681
20
2.46101984762211
30
0
41
1
10
52.2086909742664
20
2.60064732122532
30
0
41
1
10
51.3256218638604
20
3.01195670139432
30
0
41
1
10
50.7375897467435
20
3.27610403310655
30
0
41
1
10
49.8547153090094
20
3.65434448037965
30
0
41
1
10
49.5602534845837
20
3.77735711608801
30
0
41
1
10
49.1180601854404
20
3.95685689373641
30
0
41
1
10
48.9705794196132
20
4.01585457311853
30
0
41
1
10
48.6754166962616
20
4.13211745657085
30
0
41
1
10
48.527877067449
20
4.18932578995742
30
0
41
1
10
48.0856023888025
20
4.35798446001886
30
0
41
1
10
47.7910901763599
20
4.46651726911512
30
0
41
1
10
47.2024604122738
20
4.67547595780752
30
0
41
1
10
46.9083343758438
20
4.77588686384732
30
0
41
1
10
46.0258887207102
20
5.06405943573932
30
0
41
1
10
45.4375499398462
20
5.23876812229693
30
0
41
1
10
44.7005425052059
20
5.43380790010548
30
0
41
1
10
44.5530638516052
20
5.471652467132
30
0
41
1
10
44.2579153208978
20
5.54497707487334
30
0
41
1
10
44.1104368802767
20
5.58040765980547
30
0
41
1
10
43.6682438086886
20
5.68290414409557
30
0
41
1
10
43.3737533745565
20
5.7461795701042
30
0
41
1
10
42.4907319251467
20
5.92053377366503
30
0
41
1
10
41.9026574866081
20
6.01614288381566
30
0
41
1
10
41.0197336783472
20
6.12738418730871
30
0
41
1
10
40.7252641102233
20
6.15909249881682
30
0
41
1
10
40.2830298834062
20
6.19840864519807
30
0
41
1
10
40.135510601953
20
6.21014283866711
30
0
41
1
10
39.8403508237292
20
6.23083243204678
30
0
41
1
10
39.6928725993457
20
6.2397769823645
30
0
41
1
10
39.2506791695812
20
6.26243333708771
30
0
41
1
10
38.956200553895
20
6.27196705349516
30
0
41
1
10
38.3675840872377
20
6.28000806189934
30
0
41
1
10
38.0734605100609
20
6.27852439832301
30
0
41
1
10
37.1909836448748
20
6.25752954578189
30
0
41
1
10
36.6025452302628
20
6.22150415888768
30
0
41
1
10
35.86536570253
20
6.14897044134545
30
0
41
1
10
35.7178063085437
20
6.13308457409985
30
0
41
1
10
35.4226792883575
20
6.09859678641541
30
0
41
1
10
35.2752231390276
20
6.08000878890121
30
0
41
1
10
34.8330931508674
20
6.0202564629619
30
0
41
1
10
34.5386439436362
20
5.97510077356299
30
0
41
1
10
33.6557147092862
20
5.82397060179866
30
0
41
1
10
33.067665700901
20
5.70228400084966
30
0
41
1
10
32.1846792168906
20
5.48972531466089
30
0
41
1
10
31.890195563068
20
5.41388342395965
30
0
41
1
10
31.4479095458966
20
5.29291128047103
30
0
41
1
10
31.3003338729648
20
5.25136825916886
30
0
41
1
10
31.00523493722
20
5.16599828761437
30
0
41
1
10
30.857779714432
20
5.12219220059404
30
0
41
1
10
30.4156422721536
20
4.98749141751188
30
0
41
1
10
30.1211834784184
20
4.89331964292953
30
0
41
1
10
29.6741352413849
20
4.74393014966086
30
0
41
1
10
29.5214385895539
20
4.69175572565086
30
0
41
1
10
29.3687611713657
20
4.63848565802621
30
0
0
SPLINE
5
D3
100
AcDbEntity
8
1
62
256
6
ByLayer
370
18
48
1
60
0
100
AcDbSpline
70
4
71
3
72
24
73
20
40
0
40
0
40
0
40
0
40
0.124999999999948
40
0.124999999999948
40
0.249999999999896
40
0.249999999999896
40
0.499999999999845
40
0.499999999999845
40
0.624999999999881
40
0.624999999999881
40
0.687499999999901
40
0.687499999999901
40
0.74999999999992
40
0.74999999999992
40
0.812499999999939
40
0.812499999999939
40
0.874999999999958
40
0.874999999999958
40
1
40
1
40
1
40
1
41
1
10
20.099997306515
20
6.19495101872565
30
0
41
1
10
20.099997306515
20
6.19021949544697
30
0
41
1
10
20.1004983910437
20
6.18544687590241
30
0
41
1
10
20.1024963372256
20
6.17604605521529
30
0
41
1
10
20.1039919973747
20
6.17138327112858
30
0
41
1
10
20.1100953433127
20
6.15752204970096
30
0
41
1
10
20.1160902971844
20
6.14880469484896
30
0
41
1
10
20.1287187566151
20
6.1367319697361
30
0
41
1
10
20.133504360272
20
6.13293741954985
30
0
41
1
10
20.1415023602622
20
6.12779089719515
30
0
41
1
10
20.1443132200556
20
6.12615973039149
30
0
41
1
10
20.1502594405721
20
6.12308678778308
30
0
41
1
10
20.1534089104756
20
6.12164125042904
30
0
41
1
10
20.1599096605317
20
6.11903456054298
30
0
41
1
10
20.1632764097145
20
6.1178638986425
30
0
41
1
10
20.1702620157018
20
6.11581042662047
30
0
41
1
10
20.17391101703
20
6.1149223950292
30
0
41
1
10
20.1850309410431
20
6.1127907996032
30
0
41
1
10
20.192637457636
20
6.11206506431628
30
0
41
1
10
20.20045377318
20
6.11209486207793
30
0
0
SPLINE
5
D4
100
AcDbEntity
8
1
62
256
6
ByLayer
370
18
48
1
60
0
100
AcDbSpline
70
2053
71
3
72
122
73
118
40
0
40
0
40
0
40
0
40
0.0312499999999963
40
0.0312499999999963
40
0.0624999999999927
40
0.0624999999999927
40
0.093749999999989
40
0.093749999999989
40
0.124999999999985
40
0.124999999999985
40
0.140624999999984
40
0.140624999999984
40
0.156249999999982
40
0.156249999999982
40
0.187499999999978
40
0.187499999999978
40
0.203124999999977
40
0.203124999999977
40
0.218749999999975
40
0.234374999999973
40
0.234374999999973
40
0.242187499999972
40
0.242187499999972
40
0.249999999999972
40
0.249999999999972
40
0.281249999999969
40
0.281249999999969
40
0.296874999999968
40
0.296874999999968
40
0.304687499999968
40
0.304687499999968
40
0.312499999999967
40
0.312499999999967
40
0.343749999999969
40
0.343749999999969
40
0.351562499999969
40
0.351562499999969
40
0.359374999999969
40
0.374999999999969
40
0.374999999999969
40
0.390624999999969
40
0.390624999999969
40
0.406249999999969
40
0.421874999999969
40
0.421874999999969
40
0.42968749999997
40
0.42968749999997
40
0.437499999999971
40
0.437499999999971
40
0.468749999999979
40
0.468749999999979
40
0.484374999999982
40
0.484374999999982
40
0.492187499999985
40
0.492187499999985
40
0.499999999999989
40
0.499999999999989
40
0.531249999999993
40
0.531249999999993
40
0.539062499999994
40
0.539062499999994
40
0.546874999999996
40
0.546874999999996
40
0.562499999999999
40
0.562499999999999
40
0.593750000000006
40
0.593750000000006
40
0.601562500000006
40
0.601562500000006
40
0.609375000000007
40
0.609375000000007
40
0.625000000000008
40
0.625000000000008
40
0.656250000000008
40
0.656250000000008
40
0.671875000000009
40
0.671875000000009
40
0.687500000000009
40
0.687500000000009
40
0.718750000000009
40
0.718750000000009
40
0.726562500000009
40
0.726562500000009
40
0.734375000000008
40
0.750000000000009
40
0.765625000000009
40
0.765625000000009
40
0.773437500000009
40
0.773437500000009
40
0.78125000000001
40
0.78125000000001
40
0.812500000000012
40
0.812500000000012
40
0.820312500000011
40
0.820312500000011
40
0.828125000000011
40
0.828125000000011
40
0.843750000000009
40
0.859375000000006
40
0.859375000000006
40
0.875000000000004
40
0.875000000000004
40
0.906250000000002
40
0.906250000000002
40
0.914062500000001
40
0.914062500000001
40
0.921875
40
0.9375
40
0.953125
40
0.953125
40
0.96875
40
0.96875
40
0.984375
40
0.984375
40
0.9921875
40
0.9921875
40
1
40
1
40
1
40
1
41
1
10
77.3971145697868
20
-2.63570209665891
30
0
41
1
10
77.3749311958772
20
-2.66288200013938
30
0
41
1
10
77.3537225208617
20
-2.685207319499
30
0
41
1
10
77.3130412983341
20
-2.72071628950368
30
0
41
1
10
77.2935698381604
20
-2.73389761002355
30
0
41
1
10
77.2562983219369
20
-2.75071052894609
30
0
41
1
10
77.2389977448314
20
-2.75410804412917
30
0
41
1
10
77.2069267344951
20
-2.75110121754068
30
0
41
1
10
77.1921407310621
20
-2.74470770511258
30
0
41
1
10
77.1718516206097
20
-2.72720908634042
30
0
41
1
10
77.1654878124936
20
-2.72011415565308
30
0
41
1
10
77.1535978260274
20
-2.70349994938633
30
0
41
1
10
77.1480600154958
20
-2.69397077689945
30
0
41
1
10
77.1326543882494
20
-2.66167814754246
30
0
41
1
10
77.123979882246
20
-2.63525125492825
30
0
41
1
10
77.1135390044907
20
-2.58745651262669
30
0
41
1
10
77.1105426756986
20
-2.57037898818569
30
0
41
1
10
77.1055373238455
20
-2.53413241976796
30
0
41
1
10
77.1015074748983
20
-2.49573608875451
30
0
41
1
10
77.0994557589346
20
-2.45296718845816
30
0
41
1
10
77.0986973578631
20
-2.41916968725789
30
0
41
1
10
77.0985749252592
20
-2.40761647453289
30
0
41
1
10
77.0986013745478
20
-2.38391389161671
30
0
41
1
10
77.0987517104742
20
-2.37172593571387
30
0
41
1
10
77.1001924793024
20
-2.31000870760971
30
0
41
1
10
77.1035114736396
20
-2.257815337717
30
0
41
1
10
77.1118902842499
20
-2.17524017544633
30
0
41
1
10
77.115254780707
20
-2.14699555870186
30
0
41
1
10
77.1212288132313
20
-2.10348665541059
30
0
41
1
10
77.1233703630036
20
-2.08883474454856
30
0
41
1
10
77.1279078295862
20
-2.05955724438073
30
0
41
1
10
77.1303099606701
20
-2.04488546391204
30
0
41
1
10
77.1429871268798
20
-1.97136541468481
30
0
41
1
10
77.1552381278553
20
-1.91203876042687
30
0
41
1
10
77.1734142079837
20
-1.8372544355226
30
0
41
1
10
77.1771867293566
20
-1.82230035514269
30
0
41
1
10
77.1849224798932
20
-1.79272464313368
30
0
41
1
10
77.1968471243569
20
-1.74871991272627
30
0
41
1
10
77.209722970194
20
-1.70576509431294
30
0
41
1
10
77.2277411732132
20
-1.64940972421212
30
0
41
1
10
77.2371812672239
20
-1.62167497640013
30
0
41
1
10
77.2569169781857
20
-1.5672009512337
30
0
41
1
10
77.2771772162385
20
-1.51462813715884
30
0
41
1
10
77.2984526298123
20
-1.46562306041346
30
0
41
1
10
77.3147856645132
20
-1.43016192375109
30
0
41
1
10
77.3202928385404
20
-1.41855740752948
30
0
41
1
10
77.3314331012963
20
-1.39577730014671
30
0
41
1
10
77.3370768624013
20
-1.38458131037032
30
0
41
1
10
77.3654886981956
20
-1.32991129770255
30
0
41
1
10
77.3885372209246
20
-1.29087177750785
30
0
41
1
10
77.4235477844476
20
-1.23864043970704
30
0
41
1
10
77.4352910164702
20
-1.22229355378329
30
0
41
1
10
77.4530107709251
20
-1.19934902620005
30
0
41
1
10
77.4589266475634
20
-1.19197588145192
30
0
41
1
10
77.4706909266837
20
-1.17787106330479
30
0
41
1
10
77.4765514672695
20
-1.17112346930719
30
0
41
1
10
77.5057464925312
20
-1.13886672849077
30
0
41
1
10
77.5287622887749
20
-1.11776241603587
30
0
41
1
10
77.5570668467475
20
-1.09698892661547
30
0
41
1
10
77.5627042283668
20
-1.09311694089567
30
0
41
1
10
77.5739298278903
20
-1.08594099160746
30
0
41
1
10
77.5795256389397
20
-1.08263384922705
30
0
41
1
10
77.5961030395984
20
-1.0736401917265
30
0
41
1
10
77.6069145051331
20
-1.06885111860711
30
0
41
1
10
77.6386259843634
20
-1.05798785126367
30
0
41
1
10
77.6588099732288
20
-1.05538759794945
30
0
41
1
10
77.682733618136
20
-1.05802030786538
30
0
41
1
10
77.6874524778652
20
-1.05884341824859
30
0
41
1
10
77.6967533410173
20
-1.06109490720206
30
0
41
1
10
77.7013448285601
20
-1.06252778459654
30
0
41
1
10
77.7147959659653
20
-1.06771243773943
30
0
41
1
10
77.7233554743225
20
-1.0723478084268
30
0
41
1
10
77.7477924368735
20
-1.08975974527655
30
0
41
1
10
77.7624403764142
20
-1.10600752616423
30
0
41
1
10
77.7816777974224
20
-1.13780309944784
30
0
41
1
10
77.7876317781338
20
-1.14964695199723
30
0
41
1
10
77.79853503933
20
-1.17602393166081
30
0
41
1
10
77.8034055540765
20
-1.19037441971761
30
0
41
1
10
77.8161854161467
20
-1.23680913769701
30
0
41
1
10
77.8223069473142
20
-1.27229348353097
30
0
41
1
10
77.8265940537067
20
-1.32295176237332
30
0
41
1
10
77.8272830170422
20
-1.33343646753033
30
0
41
1
10
77.828297599518
20
-1.35488753853031
30
0
41
1
10
77.8292749659702
20
-1.38773973448829
30
0
41
1
10
77.8282036004084
20
-1.44584740568268
30
0
41
1
10
77.8244382746388
20
-1.49596770410298
30
0
41
1
10
77.8204813713354
20
-1.53498801043551
30
0
41
1
10
77.8189732459565
20
-1.54823361790014
30
0
41
1
10
77.8155670128491
20
-1.57522042194952
30
0
41
1
10
77.8136634021774
20
-1.58899056075836
30
0
41
1
10
77.803301217408
20
-1.65808885747967
30
0
41
1
10
77.7922548705666
20
-1.71487710899942
30
0
41
1
10
77.7751599761724
20
-1.78775803108803
30
0
41
1
10
77.7715750649957
20
-1.80242998132692
30
0
41
1
10
77.7640709319427
20
-1.83196969730994
30
0
41
1
10
77.7601487369854
20
-1.84684391446481
30
0
41
1
10
77.7480490559211
20
-1.89115019493519
30
0
41
1
10
77.7309299518963
20
-1.94979374629838
30
0
41
1
10
77.7119784292987
20
-2.0076285495517
30
0
41
1
10
77.6921480792111
20
-2.06507192154939
30
0
41
1
10
77.6817496230483
20
-2.09369990028279
30
0
41
1
10
77.649988129759
20
-2.17712662963223
30
0
41
1
10
77.6278778425525
20
-2.23008507046975
30
0
41
1
10
77.5992389690389
20
-2.29321043503492
30
0
41
1
10
77.5934464355597
20
-2.30570947944509
30
0
41
1
10
77.5818343000125
20
-2.33024408313943
30
0
41
1
10
77.5643997659524
20
-2.36630016467998
30
0
41
1
10
77.5352761000831
20
-2.42281782889015
30
0
41
1
10
77.5119257778153
20
-2.46439165036412
30
0
41
1
10
77.48855418449
20
-2.50417553691253
30
0
41
1
10
77.4768167501882
20
-2.52323187872943
30
0
41
1
10
77.4536352617583
20
-2.55906057217098
30
0
41
1
10
77.4421674107391
20
-2.57588006752272
30
0
41
1
10
77.4251418684057
20
-2.59951179684876
30
0
41
1
10
77.4194960862505
20
-2.60712228828333
30
0
41
1
10
77.4082622534596
20
-2.62181150265661
30
0
41
1
10
77.4026604132642
20
-2.6289071207888
30
0
41
1
10
77.3971145697868
20
-2.63570209665891
30
0
0
SPLINE
5
D5
100
AcDbEntity
8
1
62
256
6
ByLayer
370
18
48
1
60
0
100
AcDbSpline
70
4
71
3
72
15
73
11
40
0
40
0
40
0
40
0
40
0.499999999999993
40
0.499999999999993
40
0.624999999999996
40
0.624999999999996
40
0.687499999999998
40
0.687499999999998
40
0.750000000000001
40
1
40
1
40
1
40
1
41
1
10
76.8355658917035
20
-5.99967647206233
30
0
41
1
10
76.7866085657122
20
-6.07240149409972
30
0
41
1
10
76.7418008811722
20
-6.13343761907299
30
0
41
1
10
76.6908911858423
20
-6.19369958851865
30
0
41
1
10
76.680963998869
20
-6.20494837848511
30
0
41
1
10
76.6664530112909
20
-6.22058288868712
30
0
41
1
10
76.6616826986571
20
-6.22558379839012
30
0
41
1
10
76.6523197582564
20
-6.23511691173456
30
0
41
1
10
76.6293236927602
20
-6.25781337283621
30
0
41
1
10
76.6083304647404
20
-6.27489774462939
30
0
41
1
10
76.5926962458118
20
-6.28510776637813
30
0
0
SPLINE
5
D6
100
AcDbEntity
8
1
62
256
6
ByLayer
370
18
48
1
60
0
100
AcDbSpline
70
4
71
3
72
28
73
24
40
0
40
0
40
0
40
0
40
0.124999999999987
40
0.124999999999987
40
0.249999999999975
40
0.249999999999975
40
0.281249999999972
40
0.281249999999972
40
0.312499999999969
40
0.374999999999962
40
0.374999999999962
40
0.40624999999996
40
0.40624999999996
40
0.421874999999959
40
0.421874999999959
40
0.437499999999958
40
0.499999999999963
40
0.499999999999963
40
0.624999999999971
40
0.624999999999971
40
0.74999999999998
40
0.74999999999998
40
1
40
1
40
1
40
1
41
1
10
78.3476745299207
20
-2.10584946310246
30
0
41
1
10
78.2720371961339
20
-2.2451687181626
30
0
41
1
10
78.1986947746221
20
-2.38989850546082
30
0
41
1
10
78.0559713048977
20
-2.68986281505841
30
0
41
1
10
77.9865900279043
20
-2.84508572495963
30
0
41
1
10
77.9019613013003
20
-3.04586806126699
30
0
41
1
10
77.8851489245625
20
-3.08634587172449
30
0
41
1
10
77.8519304923221
20
-3.16747241896957
30
0
41
1
10
77.8026332787263
20
-3.28960384676154
30
0
41
1
10
77.7548492382207
20
-3.41302684554265
30
0
41
1
10
77.707963687383
20
-3.5372616157336
30
0
41
1
10
77.6924854068741
20
-3.57880897424252
30
0
41
1
10
77.6694751019367
20
-3.64132332313974
30
0
41
1
10
77.6618494563869
20
-3.66218255357202
30
0
41
1
10
77.6465965954564
20
-3.70389275241197
30
0
41
1
10
77.6085005926557
20
-3.80817851309172
30
0
41
1
10
77.5705840312997
20
-3.91251489518305
30
0
41
1
10
77.4799184563038
20
-4.1630136358628
30
0
41
1
10
77.4199210089783
20
-4.33013501267672
30
0
41
1
10
77.3007568756351
20
-4.66458698434801
30
0
41
1
10
77.2415584350722
20
-4.83200603961953
30
0
41
1
10
77.0653734160411
20
-5.33365538698675
30
0
41
1
10
76.9498193198164
20
-5.66732696814214
30
0
41
1
10
76.8355658917035
20
-5.99967647206242
30
0
0
SPLINE
5
D7
100
AcDbEntity
8
1
62
256
6
ByLayer
370
18
48
1
60
0
100
AcDbSpline
70
4
71
3
72
8
73
4
40
0
40
0
40
0
40
0
40
1
40
1
40
1
40
1
41
1
10
78.3476745299208
20
-2.10584946310246
30
0
41
1
10
78.5182918986272
20
-1.6283287323219
30
0
41
1
10
78.6875034303037
20
-1.15031390554273
30
0
41
1
10
78.8552810467474
20
-0.671795114389312
30
0
0
SPLINE
5
D8
100
AcDbEntity
8
1
62
256
6
ByLayer
370
18
48
1
60
0
100
AcDbSpline
70
4
71
3
72
8
73
4
40
0
40
0
40
0
40
0
40
1
40
1
40
1
40
1
41
1
10
78.8552810467474
20
-0.671795114389283
30
0
41
1
10
78.9017566582333
20
-0.539241953259904
30
0
41
1
10
78.9491481773137
20
-0.407197419377383
30
0
41
1
10
78.9974535968769
20
-0.275643436894512
30
0
0
SPLINE
5
D9
100
AcDbEntity
8
1
62
256
6
ByLayer
370
18
48
1
60
0
100
AcDbSpline
70
4
71
3
72
8
73
4
40
0
40
0
40
0
40
0
40
1
40
1
40
1
40
1
41
1
10
78.9974535968769
20
0.275643436894512
30
0
41
1
10
79.000841937259
20
0.0922526414780691
30
0
41
1
10
79.0008556926868
20
-0.0915081416471253
30
0
41
1
10
78.9974535968769
20
-0.275643436894484
30
0
0
SPLINE
5
DA
100
AcDbEntity
8
1
62
256
6
ByLayer
370
18
48
1
60
0
100
AcDbSpline
70
4
71
3
72
59
73
55
40
0
40
0
40
0
40
0
40
0.0624999999999982
40
0.0624999999999982
40
0.0937499999999973
40
0.109374999999999
40
0.109374999999999
40
0.125000000000001
40
0.125000000000001
40
0.187499999999999
40
0.187499999999999
40
0.249999999999997
40
0.249999999999997
40
0.281249999999996
40
0.281249999999996
40
0.296874999999995
40
0.296874999999995
40
0.312499999999994
40
0.312499999999994
40
0.374999999999982
40
0.374999999999982
40
0.437499999999969
40
0.437499999999969
40
0.453124999999965
40
0.453124999999965
40
0.468749999999962
40
0.468749999999962
40
0.499999999999955
40
0.499999999999955
40
0.562499999999937
40
0.562499999999937
40
0.593749999999931
40
0.593749999999931
40
0.60937499999993
40
0.60937499999993
40
0.624999999999928
40
0.624999999999928
40
0.687499999999932
40
0.687499999999932
40
0.718749999999936
40
0.718749999999936
40
0.734374999999937
40
0.734374999999937
40
0.749999999999939
40
0.749999999999939
40
0.812499999999953
40
0.812499999999953
40
0.874999999999968
40
0.874999999999968
40
0.906249999999976
40
0.906249999999976
40
0.937499999999984
40
0.937499999999984
40
1
40
1
40
1
40
1
41
1
10
78.9974535968769
20
0.275643436894484
30
0
41
1
10
78.9735714152644
20
0.20643002803223
30
0
41
1
10
78.9484127601106
20
0.137819854578851
30
0
41
1
10
78.9087646781155
20
0.0358191899055385
30
0
41
1
10
78.888461934185
20
-0.0149519288557372
30
0
41
1
10
78.8674299712029
20
-0.0653715848336844
30
0
41
1
10
78.8532444019857
20
-0.0989052634958512
30
0
41
1
10
78.8460572514551
20
-0.11566049780248
30
0
41
1
10
78.8098602053891
20
-0.198877844936675
30
0
41
1
10
78.7802228911031
20
-0.263333468096988
30
0
41
1
10
78.7196935279191
20
-0.388024667175586
30
0
41
1
10
78.6888016726068
20
-0.448261345017585
30
0
41
1
10
78.6415386831609
20
-0.535308288036902
30
0
41
1
10
78.6256294894017
20
-0.56377088071028
30
0
41
1
10
78.6015285844043
20
-0.605599036356182
30
0
41
1
10
78.5934553789822
20
-0.619397325844773
30
0
41
1
10
78.5772283480749
20
-0.646697154096444
30
0
41
1
10
78.5690818021312
20
-0.660185257134032
30
0
41
1
10
78.5285145697035
20
-0.726270431834081
30
0
41
1
10
78.4963051612077
20
-0.775302527995194
30
0
41
1
10
78.4323805691651
20
-0.86573805300074
30
0
41
1
10
78.400665474322
20
-0.907143074093796
30
0
41
1
10
78.3613200711815
20
-0.953890387581112
30
0
41
1
10
78.3534658540021
20
-0.962988251239153
30
0
41
1
10
78.3377866276988
20
-0.980669810116353
30
0
41
1
10
78.3299465743432
20
-0.989268775177379
30
0
41
1
10
78.3066679168734
20
-1.01406752579342
30
0
41
1
10
78.2914222157233
20
-1.02932874904994
30
0
41
1
10
78.2464666712137
20
-1.07138381163296
30
0
41
1
10
78.2175362973066
20
-1.09446525736325
30
0
41
1
10
78.1755899462268
20
-1.12168320068216
30
0
41
1
10
78.1618499162959
20
-1.12951770009894
30
0
41
1
10
78.1415937450841
20
-1.13937844996926
30
0
41
1
10
78.1348874024066
20
-1.14235499130948
30
0
41
1
10
78.1216622058231
20
-1.14764111889437
30
0
41
1
10
78.1151493806333
20
-1.14994975366835
30
0
41
1
10
78.0830665564949
20
-1.15985483035155
30
0
41
1
10
78.058934145609
20
-1.1625582769577
30
0
41
1
10
78.0247820482428
20
-1.15916115486687
30
0
41
1
10
78.0137403607112
20
-1.15678250028529
30
0
41
1
10
77.9976694572846
20
-1.15135779226324
30
0
41
1
10
77.9923944887673
20
-1.14923987888932
30
0
41
1
10
77.9820056047601
20
-1.14438418979432
30
0
41
1
10
77.9768828705511
20
-1.14164065174785
30
0
41
1
10
77.9517982024755
20
-1.12645226710509
30
0
41
1
10
77.9334075610327
20
-1.10963785588282
30
0
41
1
10
77.8995324739333
20
-1.06742762560685
30
0
41
1
10
77.8840501189956
20
-1.04202744200717
30
0
41
1
10
77.8628035596722
20
-0.997741254198985
30
0
41
1
10
77.856040129407
20
-0.98190861431587
30
0
41
1
10
77.8432601803849
20
-0.948491963937585
30
0
41
1
10
77.8372311886247
20
-0.930888915081738
30
0
41
1
10
77.8201624808801
20
-0.875497874667417
30
0
41
1
10
77.8101368993532
20
-0.835135738292479
30
0
41
1
10
77.8013499706356
20
-0.791504488243049
30
0
0
SPLINE
5
DB
100
AcDbEntity
8
1
62
256
6
ByLayer
370
18
48
1
60
0
100
AcDbSpline
70
4
71
3
72
8
73
4
40
0
40
0
40
0
40
0
40
1
40
1
40
1
40
1
41
1
10
77.8013499706356
20
-0.791504488243078
30
0
41
1
10
77.6911005215803
20
-0.244063916668097
30
0
41
1
10
77.550538117862
20
0.321641635029039
30
0
41
1
10
77.3792898122826
20
0.905836885066492
30
0
0
SPLINE
5
DC
100
AcDbEntity
8
1
62
256
6
ByLayer
370
18
48
1
60
0
100
AcDbSpline
70
4
71
3
72
16
73
12
40
0
40
0
40
0
40
0
40
0.25
40
0.25
40
0.5
40
0.5
40
0.75
40
0.75
40
0.875
40
0.875
40
1
40
1
40
1
40
1
41
1
10
76.5695734436685
20
0.262261573816318
30
0
41
1
10
76.6342070731152
20
0.338486595011545
30
0
41
1
10
76.6997992556773
20
0.409064094588274
30
0
41
1
10
76.83254731731
20
0.539483094171572
30
0
41
1
10
76.8997052006979
20
0.599297247252565
30
0
41
1
10
77.0352057408948
20
0.707466730097195
30
0
41
1
10
77.103549272343
20
0.755816390174886
30
0
41
1
10
77.2066181346435
20
0.818939693952046
30
0
41
1
10
77.2410649461901
20
0.838385420451004
30
0
41
1
10
77.3100892128695
20
0.87427147288804
30
0
41
1
10
77.344669309707
20
0.890778333124217
30
0
41
1
10
77.3792898122821
20
0.905836885066293
30
0
0
SPLINE
5
DD
100
AcDbEntity
8
1
62
256
6
ByLayer
370
18
48
1
60
0
100
AcDbSpline
70
4
71
3
72
49
73
45
40
0
40
0
40
0
40
0
40
0.0373764100903484
40
0.0373764100903484
40
0.0827361123535113
40
0.0827361123535113
40
0.128095814616674
40
0.150775665748254
40
0.150775665748254
40
0.173455516879835
40
0.173455516879835
40
0.218815219142996
40
0.218815219142996
40
0.264174921406156
40
0.264174921406156
40
0.309534623669317
40
0.309534623669317
40
0.400254028195639
40
0.400254028195639
40
0.445613730458799
40
0.445613730458799
40
0.490973432721959
40
0.490973432721959
40
0.536333134985119
40
0.536333134985119
40
0.581692837248279
40
0.60437268837986
40
0.61571261394565
40
0.61571261394565
40
0.62705253951144
40
0.62705253951144
40
0.672412241774602
40
0.672412241774602
40
0.717771944037764
40
0.717771944037764
40
0.763131646300925
40
0.763131646300925
40
0.853851050827247
40
0.853851050827247
40
0.899210753090407
40
0.899210753090407
40
0.944570455353567
40
0.944570455353567
40
1
40
1
40
1
40
1
41
1
10
40.3121773261115
20
-6.24303224472001
30
0
41
1
10
40.0712784906867
20
-6.2464233984764
30
0
41
1
10
39.8302081789407
20
-6.24609043528463
30
0
41
1
10
39.2960049049826
20
-6.23716330360736
30
0
41
1
10
39.002750188666
20
-6.22682207846731
30
0
41
1
10
38.4151168513143
20
-6.19507138699552
30
0
41
1
10
37.9735478818062
20
-6.16295194993131
30
0
41
1
10
37.5304380514166
20
-6.11852315066443
30
0
41
1
10
37.2346410116932
20
-6.0861509430047
30
0
41
1
10
37.0864753607481
20
-6.06857671844301
30
0
41
1
10
36.642913863675
20
-6.01190959060193
30
0
41
1
10
36.3479633902327
20
-5.9688259350666
30
0
41
1
10
35.7592249993051
20
-5.87233912536018
30
0
41
1
10
35.465450534559
20
-5.81898366265537
30
0
41
1
10
34.8788272958929
20
-5.70239360691565
30
0
41
1
10
34.5859671760838
20
-5.63911532398083
30
0
41
1
10
33.7081803614441
20
-5.43498590017376
30
0
41
1
10
33.1240331601177
20
-5.27984237681184
30
0
41
1
10
32.2475218619439
20
-5.02049331631389
30
0
41
1
10
31.9553184266894
20
-4.92960705975389
30
0
41
1
10
31.3705814752793
20
-4.73929574315423
30
0
41
1
10
31.0780370528404
20
-4.63986610363608
30
0
41
1
10
30.4921981812864
20
-4.43288077942449
30
0
41
1
10
30.1989037370618
20
-4.32532385650137
30
0
41
1
10
29.6113348295991
20
-4.10243946937786
30
0
41
1
10
29.1699234079628
20
-3.92944936411897
30
0
41
1
10
28.6531374552433
20
-3.71802358646906
30
0
41
1
10
28.4312236762671
20
-3.62541393648849
30
0
41
1
10
28.2831794095159
20
-3.5632366619019
30
0
41
1
10
28.209079643967
20
-3.53191777998708
30
0
41
1
10
27.838908167409
20
-3.37450020336428
30
0
41
1
10
27.5434732709519
20
-3.24579096308184
30
0
41
1
10
26.95368429987
20
-2.98341981669304
30
0
41
1
10
26.6593414246055
20
-2.84973837150116
30
0
41
1
10
26.0714998694208
20
-2.57790254730782
30
0
41
1
10
25.7779962236128
20
-2.43976569762114
30
0
41
1
10
24.8981402054441
20
-2.0198186510398
30
0
41
1
10
24.3124409201032
20
-1.73244322749525
30
0
41
1
10
23.4333337546468
20
-1.2938311706267
30
0
41
1
10
23.1402003776304
20
-1.14637585185568
30
0
41
1
10
22.5534908001206
20
-0.849457285335177
30
0
41
1
10
22.2599177287174
20
-0.699988742781414
30
0
41
1
10
21.606668052663
20
-0.366468517752025
30
0
41
1
10
21.2467815370947
20
-0.182112331341045
30
0
41
1
10
20.8859739395427
20
0.0026173260446285
30
0
0
SPLINE
5
DE
100
AcDbEntity
8
1
62
256
6
ByLayer
370
18
48
1
60
0
100
AcDbSpline
70
4
71
3
72
8
73
4
40
0
40
0
40
0
40
0
40
1
40
1
40
1
40
1
41
1
10
76.4618739509689
20
-6.49427040690449
30
0
41
1
10
76.5054311892805
20
-6.4248558174699
30
0
41
1
10
76.549036654939
20
-6.35513455580679
30
0
41
1
10
76.5926962458117
20
-6.28510776637833
30
0
0
SPLINE
5
DF
100
AcDbEntity
8
1
62
256
6
ByLayer
370
18
48
1
60
0
100
AcDbSpline
70
4
71
3
72
8
73
4
40
0
40
0
40
0
40
0
40
1
40
1
40
1
40
1
41
1
10
76.5999115931582
20
-6.26658365655177
30
0
41
1
10
76.5975054801903
20
-6.27275903262679
30
0
41
1
10
76.5951003625781
20
-6.27893373436149
30
0
41
1
10
76.5926962458118
20
-6.28510776637836
30
0
0
SPLINE
5
E0
100
AcDbEntity
8
1
62
256
6
ByLayer
370
18
48
1
60
0
100
AcDbSpline
70
4
71
3
72
45
73
41
40
0
40
0
40
0
40
0
40
0.0499276060192607
40
0.0748914090288906
40
0.0748914090288906
40
0.0998552120385202
40
0.0998552120385202
40
0.199710424077043
40
0.199710424077043
40
0.249638030096303
40
0.249638030096303
40
0.274601833105934
40
0.274601833105934
40
0.299565636115565
40
0.299565636115565
40
0.399420848154095
40
0.399420848154095
40
0.499276060192625
40
0.499276060192625
40
0.54920366621189
40
0.54920366621189
40
0.574167469221521
40
0.574167469221521
40
0.586649370726336
40
0.586649370726336
40
0.599131272231151
40
0.599131272231151
40
0.698986484269679
40
0.698986484269679
40
0.798841696308207
40
0.798841696308207
40
0.848769302327471
40
0.848769302327471
40
0.898696908346734
40
0.898696908346734
40
0.948624514365998
40
0.948624514365998
40
0.998552120385262
40
0.998552120385262
40
1
40
1
40
1
40
1
41
1
10
76.5999115931581
20
-6.26658365655175
30
0
41
1
10
76.3045609471659
20
-6.24797854072315
30
0
41
1
10
75.861634698675
20
-6.21163753793107
30
0
41
1
10
75.4185115767627
20
-6.16281709410606
30
0
41
1
10
75.1230126514099
20
-6.12751346524269
30
0
41
1
10
74.9753841415495
20
-6.10850213193496
30
0
41
1
10
74.2383502402928
20
-6.00682667956391
30
0
41
1
10
73.6516550737655
20
-5.9042466304524
30
0
41
1
10
72.7740990495746
20
-5.72077954084335
30
0
41
1
10
72.4819975944365
20
-5.6546882496624
30
0
41
1
10
72.044164915418
20
-5.5483967703702
30
0
41
1
10
71.8982704164136
20
-5.51177011441254
30
0
41
1
10
71.6065882157502
20
-5.4362148607963
30
0
41
1
10
71.460806400675
20
-5.39729514325296
30
0
41
1
10
70.7320151287081
20
-5.19693136003912
30
0
41
1
10
70.1492896627326
20
-5.01804051092955
30
0
41
1
10
68.9820382136018
20
-4.62626424142545
30
0
41
1
10
68.3975025224307
20
-4.41340943945636
30
0
41
1
10
67.5174066234436
20
-4.07107937207158
30
0
41
1
10
67.223499081423
20
-3.95311094551542
30
0
41
1
10
66.7815645216993
20
-3.77070649236666
30
0
41
1
10
66.6340737511501
20
-3.70899755856638
30
0
41
1
10
66.4125370331738
20
-3.61510501679876
30
0
41
1
10
66.3386072504298
20
-3.58357120050346
30
0
41
1
10
66.190840191491
20
-3.52015063777174
30
0
41
1
10
66.1170065865768
20
-3.48826570769657
30
0
41
1
10
65.4529321105224
20
-3.19976786938634
30
0
41
1
10
64.8656876257338
20
-2.93241523881241
30
0
41
1
10
63.6946225248932
20
-2.38099884695222
30
0
41
1
10
63.1107835042601
20
-2.09698052906461
30
0
41
1
10
62.2356172947857
20
-1.66216332769531
30
0
41
1
10
61.9440023173955
20
-1.51573587736542
30
0
41
1
10
61.360704102965
20
-1.22049255165342
30
0
41
1
10
61.0690240325457
20
-1.07167434136125
30
0
41
1
10
60.4852438648024
20
-0.772288889744345
30
0
41
1
10
60.193142220747
20
-0.621719376933953
30
0
41
1
10
59.6081851473383
20
-0.319513629281147
30
0
41
1
10
59.3153267183119
20
-0.167882361936165
30
0
41
1
10
59.0134403044435
20
-0.0115711202721229
30
0
41
1
10
59.0049320169887
20
-0.0071656787664836
30
0
41
1
10
58.9964232928532
20
-0.0027600151713614
30
0
0
SPLINE
5
E1
100
AcDbEntity
8
1
62
256
6
ByLayer
370
18
48
1
60
0
100
AcDbSpline
70
4
71
3
72
14
73
10
40
0
40
0
40
0
40
0
40
0.25
40
0.25
40
0.5
40
0.5
40
0.75
40
0.75
40
1
40
1
40
1
40
1
41
1
10
76.6022685408081
20
-6.25545958626276
30
0
41
1
10
76.6024327515014
20
-6.25562697041735
30
0
41
1
10
76.6025258074185
20
-6.25598585131399
30
0
41
1
10
76.6025259740354
20
-6.25718295322247
30
0
41
1
10
76.6024277140956
20
-6.25801912414661
30
0
41
1
10
76.6020091270471
20
-6.26009726997631
30
0
41
1
10
76.6016825513836
20
-6.26135694605753
30
0
41
1
10
76.6008760629583
20
-6.26397694827355
30
0
41
1
10
76.6004005885186
20
-6.26532863224921
30
0
41
1
10
76.5999115931582
20
-6.26658365655177
30
0
0
SPLINE
5
E2
100
AcDbEntity
8
1
62
256
6
ByLayer
370
13
48
1
60
0
100
AcDbSpline
70
4
71
3
72
10
73
6
40
0
40
0
40
0
40
0
40
0.161489354115222
40
0.161489354115222
40
1
40
1
40
1
40
1
41
1
10
20.2471359156005
20
6.35695250974891
30
0
41
1
10
20.2470629467559
20
6.34430227592375
30
0
41
1
10
20.2469898332272
20
6.33165201607574
30
0
41
1
10
20.2465361915663
20
6.25331690757679
30
0
41
1
10
20.2461519046089
20
6.18763137747138
30
0
41
1
10
20.2457637057255
20
6.12194510892883
30
0
0
SPLINE
5
E3
100
AcDbEntity
8
1
62
256
6
ByLayer
370
18
48
1
60
0
100
AcDbSpline
70
4
71
3
72
49
73
45
40
0
40
0
40
0
40
0
40
0.103423309767095
40
0.103423309767095
40
0.155134964650643
40
0.155134964650643
40
0.206846619534191
40
0.206846619534191
40
0.258558274417738
40
0.258558274417738
40
0.310269929301286
40
0.310269929301286
40
0.361981584184834
40
0.361981584184834
40
0.413693239068381
40
0.413693239068381
40
0.465404893951929
40
0.465404893951929
40
0.478332807672815
40
0.478332807672815
40
0.491260721393703
40
0.517116548835476
40
0.517116548835476
40
0.568828203719022
40
0.568828203719022
40
0.620539858602568
40
0.620539858602568
40
0.672251513486114
40
0.672251513486114
40
0.72396316836966
40
0.72396316836966
40
0.775674823253205
40
0.775674823253205
40
0.827386478136751
40
0.827386478136751
40
0.879098133020297
40
0.879098133020297
40
0.904953960462071
40
0.904953960462071
40
0.930809787903845
40
0.930809787903845
40
0.982521442787393
40
0.982521442787393
40
1
40
1
40
1
40
1
41
1
10
20.2457637057256
20
6.12194510892883
30
0
41
1
10
20.8363044439591
20
6.07350031523438
30
0
41
1
10
21.4244115656862
20
6.00176192546277
30
0
41
1
10
22.3043957888057
20
5.86328588851796
30
0
41
1
10
22.5973451043332
20
5.81199053145525
30
0
41
1
10
23.1825014432417
20
5.69995887021921
30
0
41
1
10
23.4747371133863
20
5.63917350768361
30
0
41
1
10
24.0592480206389
20
5.50750825501154
30
0
41
1
10
24.3515099688236
20
5.43665666085471
30
0
41
1
10
24.9363403302187
20
5.28536559769799
30
0
41
1
10
25.2289038585369
20
5.20492807624171
30
0
41
1
10
25.8144158741666
20
5.03507955180928
30
0
41
1
10
26.1073943736937
20
4.94564937883274
30
0
41
1
10
26.6936703736427
20
4.75835673135597
30
0
41
1
10
26.9869288605474
20
4.6605235012041
30
0
41
1
10
27.5749713435033
20
4.45606044902524
30
0
41
1
10
27.8697685296193
20
4.34941618222973
30
0
41
1
10
28.23929751775
20
4.21094690643358
30
0
41
1
10
28.3132431535879
20
4.18299906964569
30
0
41
1
10
28.4609742577804
20
4.12669841523709
30
0
41
1
10
28.6824289988379
20
4.04160319880208
30
0
41
1
10
28.9034773653289
20
3.95462811711079
30
0
41
1
10
29.3450824820608
20
3.77830832731234
30
0
41
1
10
29.6388281308815
20
3.65759882840678
30
0
41
1
10
30.2251177108438
20
3.41033711782711
30
0
41
1
10
30.517669109168
20
3.28379034864588
30
0
41
1
10
31.1021401767569
20
3.02543431074696
30
0
41
1
10
31.3940523987792
20
2.89361951910689
30
0
41
1
10
31.977291386582
20
2.6251691083944
30
0
41
1
10
32.2686311008986
20
2.48853384089372
30
0
41
1
10
32.8516440331363
20
2.21143006140571
30
0
41
1
10
33.1433072524211
20
2.07096132176275
30
0
41
1
10
33.7269577157211
20
1.78657784599997
30
0
41
1
10
34.0189453402228
20
1.64266350896537
30
0
41
1
10
34.6033253176623
20
1.35179302688559
30
0
41
1
10
34.8957167300878
20
1.20483435420957
30
0
41
1
10
35.3344749261684
20
0.98210205310761
30
0
41
1
10
35.4807575174493
20
0.90747862776854
30
0
41
1
10
35.7736691832783
20
0.757802662604632
30
0
41
1
10
35.9202975022603
20
0.682748176744042
30
0
41
1
10
36.3607609212462
20
0.45706982532468
30
0
41
1
10
36.6551740052746
20
0.305929393405137
30
0
41
1
10
37.0501328253681
20
0.102964730843695
30
0
41
1
10
37.1500448053441
20
0.0516038619403218
30
0
41
1
10
37.2499144937503
20
0.0002673272180402
30
0
0
SPLINE
5
E4
100
AcDbEntity
8
1
62
256
6
ByLayer
370
18
48
1
60
0
100
AcDbSpline
70
4
71
3
72
49
73
45
40
0
40
0
40
0
40
0
40
0.0221642595188094
40
0.0221642595188094
40
0.0472369708131991
40
0.0472369708131991
40
0.0973823934019805
40
0.122455104696371
40
0.147527815990762
40
0.147527815990762
40
0.197673238579543
40
0.197673238579543
40
0.247818661168324
40
0.247818661168324
40
0.297964083757106
40
0.297964083757106
40
0.348109506345887
40
0.348109506345887
40
0.398254928934669
40
0.398254928934669
40
0.44840035152345
40
0.44840035152345
40
0.498545774112232
40
0.498545774112232
40
0.523618485406622
40
0.536154841053818
40
0.536154841053818
40
0.548691196701014
40
0.548691196701014
40
0.59883661928979
40
0.59883661928979
40
0.648982041878566
40
0.648982041878566
40
0.699127464467342
40
0.699127464467342
40
0.749272887056118
40
0.749272887056118
40
0.799418309644894
40
0.799418309644894
40
0.84956373223367
40
0.84956373223367
40
0.899709154822446
40
0.899709154822446
40
1
40
1
40
1
40
1
41
1
10
37.7822000848417
20
-0.283981717291596
30
0
41
1
10
37.6519763342838
20
-0.217248326227349
30
0
41
1
10
37.5216217047787
20
-0.150381478185068
30
0
41
1
10
37.2434917818945
20
-0.0076636430360111
30
0
41
1
10
37.0955801447858
20
0.068263502931984
30
0
41
1
10
36.6527507411137
20
0.295473440551234
30
0
41
1
10
36.2110790067765
20
0.521872719159518
30
0
41
1
10
35.6244924227712
20
0.821709397430652
30
0
41
1
10
35.3318875950514
20
0.970772020990239
30
0
41
1
10
34.8930675106828
20
1.19322877320721
30
0
41
1
10
34.6006358558296
20
1.34001581517546
30
0
41
1
10
34.0161769233967
20
1.63056746594316
30
0
41
1
10
33.7241506094537
20
1.77433456873928
30
0
41
1
10
33.1404235492305
20
2.05844661355897
30
0
41
1
10
32.8487226997917
20
2.19879178480369
30
0
41
1
10
32.2656350182461
20
2.47567221353373
30
0
41
1
10
31.9742563053235
20
2.61220360703564
30
0
41
1
10
31.390937605636
20
2.88045882650587
30
0
41
1
10
31.098987303473
20
3.01218774913562
30
0
41
1
10
30.5144436707921
20
3.27039641849251
30
0
41
1
10
30.2218558741052
20
3.39687784943158
30
0
41
1
10
29.6354954873252
20
3.64402616237717
30
0
41
1
10
29.3417170307166
20
3.7646906877456
30
0
41
1
10
28.9000663109787
20
3.94096039548049
30
0
41
1
10
28.6789960320341
20
4.02791475093733
30
0
41
1
10
28.4575207281871
20
4.11299573541703
30
0
41
1
10
28.309776214756
20
4.16928834509864
30
0
41
1
10
28.2358242738137
20
4.19723278788504
30
0
41
1
10
27.8662576417007
20
4.33569129552043
30
0
41
1
10
27.5714284952003
20
4.44234008371652
30
0
41
1
10
26.9833182612834
20
4.64683737057521
30
0
41
1
10
26.6900209489751
20
4.74469441090815
30
0
41
1
10
26.1036643364509
20
4.93205278906896
30
0
41
1
10
25.8106465323909
20
5.02152935477369
30
0
41
1
10
25.225055406837
20
5.19149361598471
30
0
41
1
10
24.9324523762244
20
5.27200059624465
30
0
41
1
10
24.3475425338625
20
5.42345273900307
30
0
41
1
10
24.0552402096497
20
5.49439546940687
30
0
41
1
10
23.4706478347841
20
5.62626355532186
30
0
41
1
10
23.1783696998917
20
5.68715918791614
30
0
41
1
10
22.5931268515931
20
5.79942786768925
30
0
41
1
10
22.3001354854891
20
5.85085170292686
30
0
41
1
10
21.4200302244273
20
5.98974415598852
30
0
41
1
10
20.8318460880025
20
6.06179890266145
30
0
41
1
10
20.241231368764
20
6.11059740265026
30
0
0
SPLINE
5
E5
100
AcDbEntity
8
1
62
256
6
ByLayer
370
13
48
1
60
0
100
AcDbSpline
70
4
71
3
72
10
73
6
40
0
40
0
40
0
40
0
40
0.5
40
0.5
40
1
40
1
40
1
40
1
41
1
10
20.241231368764
20
6.11059740265026
30
0
41
1
10
20.2349054370145
20
6.11112007160912
30
0
41
1
10
20.2283254272068
20
6.11150302865764
30
0
41
1
10
20.2146757001575
20
6.11200492832853
30
0
41
1
10
20.2075660237734
20
6.11212143514413
30
0
41
1
10
20.20045377318
20
6.11209486207793
30
0
0
SPLINE
5
E6
100
AcDbEntity
8
1
62
256
6
ByLayer
370
13
48
1
60
0
100
AcDbSpline
70
4
71
3
72
48
73
44
40
0
40
0
40
0
40
0
40
0.0625000000000003
40
0.0781250000000003
40
0.0781250000000003
40
0.0937500000000003
40
0.0937500000000003
40
0.125
40
0.125
40
0.187500000000001
40
0.250000000000001
40
0.312500000000001
40
0.328125000000001
40
0.328125000000001
40
0.343750000000001
40
0.343750000000001
40
0.375000000000001
40
0.375000000000001
40
0.4375
40
0.4375
40
0.46875
40
0.484375
40
0.484375
40
0.5
40
0.5
40
0.5625
40
0.625
40
0.6875
40
0.6875
40
0.71875
40
0.734375
40
0.734375
40
0.750000000000001
40
0.750000000000001
40
0.8125
40
0.8125
40
0.875
40
0.9375
40
0.9375
40
0.96875
40
0.984375
40
0.984375
40
1
40
1
40
1
40
1
41
1
10
20.20045377318
20
6.11209486207793
30
0
41
1
10
20.2004491949974
20
6.08277040362552
30
0
41
1
10
20.2004431106849
20
6.03710260108332
30
0
41
1
10
20.200436685098
20
5.98021579529356
30
0
41
1
10
20.2004340893414
20
5.95655882764521
30
0
41
1
10
20.200432777675
20
5.94426926641228
30
0
41
1
10
20.2004288175973
20
5.9061436056692
30
0
41
1
10
20.2004261436041
20
5.87904868814471
30
0
41
1
10
20.2004180438844
20
5.7928194121011
30
0
41
1
10
20.200407038544
20
5.66467899274997
30
0
41
1
10
20.2003902345695
20
5.43372305814546
30
0
41
1
10
20.2003775960283
20
5.23139915930307
30
0
41
1
10
20.2003706104927
20
5.10865843012758
30
0
41
1
10
20.2003678197406
20
5.0587249934008
30
0
41
1
10
20.2003664248558
20
5.03331634712919
30
0
41
1
10
20.2003622567163
20
4.95601297185718
30
0
41
1
10
20.2003595025211
20
4.90309170949433
30
0
41
1
10
20.2003513187621
20
4.74021098906704
30
0
41
1
10
20.2003459686974
20
4.62614182021346
30
0
41
1
10
20.2003381103205
20
4.44684232791286
30
0
41
1
10
20.2003342225583
20
4.35514092909503
30
0
41
1
10
20.2003303961435
20
4.2603423829953
30
0
41
1
10
20.2003278585833
20
4.19645115946733
30
0
41
1
10
20.2003265955695
20
4.16413457379511
30
0
41
1
10
20.2003203355932
20
4.00139871896269
30
0
41
1
10
20.200310644877
20
3.73296167634405
30
0
41
1
10
20.2002969363741
20
3.30682824372389
30
0
41
1
10
20.2002882177107
20
3.00721288401974
30
0
41
1
10
20.2002817735039
20
2.77660417862037
30
0
41
1
10
20.2002785748561
20
2.65982360067414
30
0
41
1
10
20.2002753973288
20
2.54079648353658
30
0
41
1
10
20.2002732819329
20
2.46094092795275
30
0
41
1
10
20.2002722244963
20
2.4207139404439
30
0
41
1
10
20.2002669612268
20
2.2191129440024
30
0
41
1
10
20.2002628206728
20
2.05610412847079
30
0
41
1
10
20.2002545523134
20
1.72673259659885
30
0
41
1
10
20.200246296969
20
1.39400670058629
30
0
41
1
10
20.2002377966521
20
1.05462997944534
30
0
41
1
10
20.2002312186673
20
0.797572559695766
30
0
41
1
10
20.200227878786
20
0.668411805905549
30
0
41
1
10
20.2002244398698
20
0.538289450730218
30
0
41
1
10
20.2002221225742
20
0.451325450843399
30
0
41
1
10
20.2002209508715
20
0.407709190703059
30
0
41
1
10
20.2002197674671
20
0.364057639519018
30
0
0
SPLINE
5
E7
100
AcDbEntity
8
1
62
256
6
ByLayer
370
18
48
1
60
0
100
AcDbSpline
70
4
71
3
72
50
73
46
40
0
40
0
40
0
40
0
40
0.0826594679968311
40
0.0826594679968311
40
0.127583098759406
40
0.127583098759406
40
0.172506729521982
40
0.172506729521982
40
0.262353991047133
40
0.262353991047133
40
0.307277621809709
40
0.307277621809709
40
0.352201252572285
40
0.352201252572285
40
0.397124883334861
40
0.397124883334861
40
0.408355791025505
40
0.408355791025505
40
0.419586698716149
40
0.44204851409744
40
0.44204851409744
40
0.486972144860019
40
0.486972144860019
40
0.531895775622599
40
0.531895775622599
40
0.576819406385178
40
0.576819406385178
40
0.621743037147757
40
0.621743037147757
40
0.711590298672914
40
0.711590298672914
40
0.756513929435492
40
0.756513929435492
40
0.80143756019807
40
0.80143756019807
40
0.846361190960648
40
0.846361190960648
40
0.868823006341936
40
0.868823006341936
40
0.891284821723225
40
0.936208452485804
40
0.936208452485804
40
0.981132083248383
40
0.981132083248383
40
1
40
1
40
1
40
1
41
1
10
20.3423842425115
20
0.29152901798949
30
0
41
1
10
20.8871343666053
20
0.01351309326094
30
0
41
1
10
21.429467815273
20
-0.264333073140762
30
0
41
1
10
22.2643558956728
20
-0.6899604849676
30
0
41
1
10
22.5579135443701
20
-0.839208047568349
30
0
41
1
10
23.1445949224702
20
-1.13570339489999
30
0
41
1
10
23.4377153665848
20
-1.28295679624463
30
0
41
1
10
24.3167846366236
20
-1.72099529016842
30
0
41
1
10
24.9024602470824
20
-2.0080301222898
30
0
41
1
10
25.782279764209
20
-2.4275286142921
30
0
41
1
10
26.0757714611206
20
-2.56552565281646
30
0
41
1
10
26.6635871734196
20
-2.83710450500294
30
0
41
1
10
26.9579167199722
20
-2.97066779297435
30
0
41
1
10
27.547675859897
20
-3.23282611799442
30
0
41
1
10
27.8430944956613
20
-3.3614402201384
30
0
41
1
10
28.213243653829
20
-3.51875284819411
30
0
41
1
10
28.2873390177518
20
-3.55005150510758
30
0
41
1
10
28.4353751650696
20
-3.6121901569829
30
0
41
1
10
28.6572771358106
20
-3.70474431564023
30
0
41
1
10
28.878746155302
20
-3.79530730628537
30
0
41
1
10
29.3211693820308
20
-3.97369825991691
30
0
41
1
10
29.6154321582118
20
-4.0889794662084
30
0
41
1
10
30.2029811371301
20
-4.31179802498664
30
0
41
1
10
30.4962670141398
20
-4.41933493159448
30
0
41
1
10
31.0820900452208
20
-4.62630558576635
30
0
41
1
10
31.374627423634
20
-4.72574016944881
30
0
41
1
10
31.9593516000147
20
-4.91608521849918
30
0
41
1
10
32.2515493916766
20
-5.0070002875575
30
0
41
1
10
33.1280409090947
20
-5.26647362312175
30
0
41
1
10
33.7121734052098
20
-5.42174625178865
30
0
41
1
10
34.5899349622341
20
-5.62613867880552
30
0
41
1
10
34.8827859779663
20
-5.68951645459006
30
0
41
1
10
35.4693897001176
20
-5.80632834472826
30
0
41
1
10
35.7631540642078
20
-5.85980599320294
30
0
41
1
10
36.3518654777887
20
-5.95656234191199
30
0
41
1
10
36.6468007003461
20
-5.99979157217675
30
0
41
1
10
37.0903362981715
20
-6.05669359123277
30
0
41
1
10
37.2384929432188
20
-6.07434893652964
30
0
41
1
10
37.5342751861054
20
-6.10688890091046
30
0
41
1
10
37.9773644131096
20
-6.15157720843507
30
0
41
1
10
38.418915754082
20
-6.18398041508718
30
0
41
1
10
39.0065287333806
20
-6.21612838728859
30
0
41
1
10
39.2997751707075
20
-6.22667752548523
30
0
41
1
10
39.715646169905
20
-6.23393592218571
30
0
41
1
10
39.8385831756496
20
-6.23512319063735
30
0
41
1
10
39.9614646818311
20
-6.23534759373066
30
0
0
SPLINE
5
E8
100
AcDbEntity
8
1
62
256
6
ByLayer
370
18
48
1
60
0
100
AcDbSpline
70
4
71
3
72
8
73
4
40
0
40
0
40
0
40
0
40
1
40
1
40
1
40
1
41
1
10
76.5430556014062
20
-0.61861160119517
30
0
41
1
10
76.5449600932342
20
-0.619068649674915
30
0
41
1
10
76.545981445628
20
-0.624184916646385
30
0
41
1
10
76.5453390606814
20
-0.630001561068809
30
0
0
SPLINE
5
E9
100
AcDbEntity
8
1
62
256
6
ByLayer
370
18
48
1
60
0
100
AcDbSpline
70
4
71
3
72
57
73
53
40
0
40
0
40
0
40
0
40
0.0079688663419622
40
0.0079688663419622
40
0.0308678818447175
40
0.042317389596095
40
0.042317389596095
40
0.0537668973474728
40
0.0537668973474728
40
0.145362959358494
40
0.145362959358494
40
0.168261974861248
40
0.168261974861248
40
0.191160990364002
40
0.191160990364002
40
0.23695902136951
40
0.23695902136951
40
0.282757052375017
40
0.282757052375017
40
0.328555083380524
40
0.328555083380524
40
0.374353114386031
40
0.374353114386031
40
0.420151145391538
40
0.420151145391538
40
0.511747207402552
40
0.511747207402552
40
0.52319671515393
40
0.52319671515393
40
0.534646222905307
40
0.534646222905307
40
0.557545238408064
40
0.557545238408064
40
0.603343269413576
40
0.603343269413576
40
0.649141300419089
40
0.649141300419089
40
0.694939331424601
40
0.694939331424601
40
0.786535393435627
40
0.786535393435627
40
0.809434408938384
40
0.809434408938384
40
0.832333424441141
40
0.832333424441141
40
0.878131455446653
40
0.878131455446653
40
0.969727517457678
40
0.969727517457678
40
0.992626532960435
40
0.992626532960435
40
1
40
1
40
1
40
1
41
1
10
56.1926127148547
20
6.27209627885162
30
0
41
1
10
56.2438115421159
20
6.27261687972333
30
0
41
1
10
56.2950218970584
20
6.27295439070667
30
0
41
1
10
56.4934618235091
20
6.27347962288371
30
0
41
1
10
56.7144845013236
20
6.27164136521051
30
0
41
1
10
56.935814735951
20
6.26634369959856
30
0
41
1
10
57.0834362895815
20
6.26206260408784
30
0
41
1
10
57.1573072097319
20
6.25954652578307
30
0
41
1
10
57.8218167023335
20
6.23363880525412
30
0
41
1
10
58.4094943070558
20
6.18745218655687
30
0
41
1
10
59.1410690939055
20
6.10571015613831
30
0
41
1
10
59.287230981478
20
6.08815568805014
30
0
41
1
10
59.5792789491633
20
6.05061642319728
30
0
41
1
10
59.7251776035066
20
6.03060378595234
30
0
41
1
10
60.1627986405039
20
5.96617161523389
30
0
41
1
10
60.4543998423132
20
5.91748586057938
30
0
41
1
10
61.0372938960076
20
5.81001616950675
30
0
41
1
10
61.3285964413075
20
5.75120577304941
30
0
41
1
10
61.9111997893891
20
5.62373773798492
30
0
41
1
10
62.2024876081595
20
5.55509295833818
30
0
41
1
10
62.7849070098797
20
5.40886455711856
30
0
41
1
10
63.0760686933443
20
5.33124934707124
30
0
41
1
10
63.6593845559655
20
5.16612091347139
30
0
41
1
10
63.9515170762738
20
5.07863546467934
30
0
41
1
10
64.8294966392957
20
4.80254607499234
30
0
41
1
10
65.4169213278119
20
4.60027061666636
30
0
41
1
10
66.0805762001332
20
4.35427669510438
30
0
41
1
10
66.1543724811486
20
4.32668110679469
30
0
41
1
10
66.3018030914374
20
4.27107419687638
30
0
41
1
10
66.3754668029268
20
4.24305210163308
30
0
41
1
10
66.5963154339133
20
4.1583379936869
30
0
41
1
10
66.7433582524554
20
4.10099803356658
30
0
41
1
10
67.1840109347151
20
3.92645005086206
30
0
41
1
10
67.4771359983136
20
3.80672211295646
30
0
41
1
10
68.0623055452729
20
3.56121633562253
30
0
41
1
10
68.3543616314521
20
3.43543907153366
30
0
41
1
10
68.9379201976591
20
3.17839415891123
30
0
41
1
10
69.2294122879123
20
3.04712675402237
30
0
41
1
10
70.1032955850344
20
2.646030347649
30
0
41
1
10
70.6850894101608
20
2.36888335180325
30
0
41
1
10
71.4120717212397
20
2.01239841823593
30
0
41
1
10
71.5574632278913
20
1.94060570282912
30
0
41
1
10
71.8484588796497
20
1.7962112153603
30
0
41
1
10
71.9940572938529
20
1.72360508566379
30
0
41
1
10
72.4311669593879
20
1.5046640446914
30
0
41
1
10
72.7229933366165
20
1.35720641110856
30
0
41
1
10
73.5999451018853
20
0.911113665726333
30
0
41
1
10
74.1865443640387
20
0.608756641313988
30
0
41
1
10
74.9228721845435
20
0.226556165758183
30
0
41
1
10
75.070361170185
20
0.149866830280644
30
0
41
1
10
75.265214610581
20
0.0484190405090033
30
0
41
1
10
75.3126688423324
20
0.0237024064547597
30
0
41
1
10
75.3601173410501
20
-0.0010203192883296
30
0
0
SPLINE
5
EA
100
AcDbEntity
8
1
62
256
6
ByLayer
370
18
48
1
60
0
100
AcDbSpline
70
4
71
3
72
8
73
4
40
0
40
0
40
0
40
0
40
1
40
1
40
1
40
1
41
1
10
76.4598741249993
20
-0.597008343738992
30
0
41
1
10
76.4875733516326
20
-0.604749830531404
30
0
41
1
10
76.5152966491999
20
-0.611949883502717
30
0
41
1
10
76.5430556014062
20
-0.61861160119517
30
0
0
SPLINE
5
EB
100
AcDbEntity
8
1
62
256
6
ByLayer
370
18
48
1
60
0
100
AcDbSpline
70
4
71
3
72
8
73
4
40
0
40
0
40
0
40
0
40
1
40
1
40
1
40
1
41
1
10
76.5453390606815
20
-0.630001561068809
30
0
41
1
10
76.5315044878564
20
-0.622784689546393
30
0
41
1
10
76.5176697580925
20
-0.61556769103251
30
0
41
1
10
76.5038348599953
20
-0.608350587201869
30
0
0
SPLINE
5
EC
100
AcDbEntity
8
1
62
256
6
ByLayer
370
18
48
1
60
0
100
AcDbSpline
70
4
71
3
72
57
73
53
40
0
40
0
40
0
40
0
40
0.0120034153213572
40
0.0343978259464239
40
0.0343978259464239
40
0.0567922365714906
40
0.0567922365714906
40
0.146369879071759
40
0.146369879071759
40
0.191158700321893
40
0.191158700321893
40
0.213553110946961
40
0.213553110946961
40
0.235947521572028
40
0.235947521572028
40
0.325525164072294
40
0.325525164072294
40
0.370313985322429
40
0.370313985322429
40
0.415102806572563
40
0.415102806572563
40
0.459891627822697
40
0.459891627822697
40
0.482286038447764
40
0.493483243760297
40
0.493483243760297
40
0.504680449072831
40
0.504680449072831
40
0.594258091573102
40
0.594258091573102
40
0.639046912823237
40
0.639046912823237
40
0.683835734073372
40
0.683835734073372
40
0.728624555323507
40
0.728624555323507
40
0.773413376573642
40
0.773413376573642
40
0.818202197823777
40
0.818202197823777
40
0.840596608448844
40
0.840596608448844
40
0.862991019073911
40
0.862991019073911
40
0.952568661574178
40
0.952568661574178
40
0.963765866886712
40
0.963765866886712
40
0.974963072199247
40
0.997357482824313
40
0.997357482824313
40
1
40
1
40
1
40
1
41
1
10
75.8987823306026
20
-0.292793632202688
30
0
41
1
10
75.819851955132
20
-0.251649407626161
30
0
41
1
10
75.5936323960389
20
-0.13376326281994
30
0
41
1
10
75.3673061994623
20
-0.015966345733915
30
0
41
1
10
75.0724917397625
20
0.137284884713949
30
0
41
1
10
74.9249841775006
20
0.213866559662648
30
0
41
1
10
74.1885519090787
20
0.595549457584355
30
0
41
1
10
73.6018679111998
20
0.897542047301187
30
0
41
1
10
72.7247875839076
20
1.34316052855183
30
0
41
1
10
72.4329184375773
20
1.4904731544525
30
0
41
1
10
71.9957445261049
20
1.70921569863236
30
0
41
1
10
71.8501247277274
20
1.78175905276331
30
0
41
1
10
71.5590868373318
20
1.92603603394198
30
0
41
1
10
71.4136742463756
20
1.99777197233959
30
0
41
1
10
70.6865875155658
20
2.35397727054294
30
0
41
1
10
70.104715348243
20
2.63094658401059
30
0
41
1
10
69.230723229768
20
3.03185051166014
30
0
41
1
10
68.9391967242109
20
3.16306694249943
30
0
41
1
10
68.3555732793717
20
3.42003717581713
30
0
41
1
10
68.0634859521378
20
3.54578786941741
30
0
41
1
10
67.4782578244919
20
3.79126047044974
30
0
41
1
10
67.1851061291178
20
3.91098456457721
30
0
41
1
10
66.7444178781588
20
4.08554789412031
30
0
41
1
10
66.5238366268991
20
4.17156968107162
30
0
41
1
10
66.3028296635383
20
4.25565234088748
30
0
41
1
10
66.1553886929512
20
4.31127145747848
30
0
41
1
10
66.0815861912294
20
4.33887418683184
30
0
41
1
10
65.4178421241969
20
4.58495025585538
30
0
41
1
10
64.8303367329041
20
4.78735371375359
30
0
41
1
10
63.9522323228886
20
5.06371224227598
30
0
41
1
10
63.6600579147436
20
5.15130120740506
30
0
41
1
10
63.0766581776462
20
5.31666454617388
30
0
41
1
10
62.785453844058
20
5.39440361512081
30
0
41
1
10
62.2029514169234
20
5.54088846127931
30
0
41
1
10
61.9116236294458
20
5.60967359985955
30
0
41
1
10
61.3289425804845
20
5.73745152173248
30
0
41
1
10
61.0376022270534
20
5.79642854372543
30
0
41
1
10
60.4546344927324
20
5.90425118366312
30
0
41
1
10
60.1629980025747
20
5.95312648751443
30
0
41
1
10
59.7253264970959
20
6.01786524265788
30
0
41
1
10
59.5794109181049
20
6.0379813137838
30
0
41
1
10
59.2873287273761
20
6.07572320381516
30
0
41
1
10
59.1411499879536
20
6.09337945139856
30
0
41
1
10
58.4094943678159
20
6.17564545629546
30
0
41
1
10
57.8217658834914
20
6.22229835546517
30
0
41
1
10
57.1572105111279
20
6.2487825997988
30
0
41
1
10
57.0833308564322
20
6.25136358807302
30
0
41
1
10
56.9356926686552
20
6.2557758672213
30
0
41
1
10
56.7143374380902
20
6.2612724196041
30
0
41
1
10
56.4932896728222
20
6.26331591289622
30
0
41
1
10
56.3286896919207
20
6.26303645873628
30
0
41
1
10
56.3113191984374
20
6.26298374849713
30
0
41
1
10
56.2939505905122
20
6.26290855038488
30
0
0
SPLINE
5
ED
100
AcDbEntity
8
1
62
256
6
ByLayer
370
18
48
1
60
0
100
AcDbSpline
70
4
71
3
72
44
73
40
40
0
40
0
40
0
40
0
40
0.0304440586615361
40
0.0304440586615361
40
0.0789218557284602
40
0.0789218557284602
40
0.127399652795384
40
0.127399652795384
40
0.175877449862308
40
0.175877449862308
40
0.224355246929232
40
0.224355246929232
40
0.32131084106308
40
0.32131084106308
40
0.418266435196928
40
0.43038588446366
40
0.43038588446366
40
0.442505333730391
40
0.442505333730391
40
0.466744232263853
40
0.466744232263853
40
0.515222029330776
40
0.515222029330776
40
0.61217762346462
40
0.61217762346462
40
0.709133217598465
40
0.709133217598465
40
0.733372116131926
40
0.733372116131926
40
0.757611014665387
40
0.757611014665387
40
0.80608881173231
40
0.80608881173231
40
0.903044405866154
40
0.903044405866154
40
0.927283304399615
40
0.927283304399615
40
0.951522202933076
40
1
40
1
40
1
40
1
41
1
10
58.4715132533413
20
0.279737132337004
30
0
41
1
10
58.6561977309814
20
0.18436985986321
30
0
41
1
10
58.8406366967953
20
0.0890228257431431
30
0
41
1
10
59.3182439533992
20
-0.157879920217027
30
0
41
1
10
59.6110962444235
20
-0.309273447818953
30
0
41
1
10
60.1960416730862
20
-0.611024128402534
30
0
41
1
10
60.4881370853214
20
-0.761377881566688
30
0
41
1
10
61.0719054454639
20
-1.06035107511889
30
0
41
1
10
61.3635802077941
20
-1.20897217844964
30
0
41
1
10
61.9468668232069
20
-1.50384251956603
30
0
41
1
10
62.2384753639715
20
-1.65009444885433
30
0
41
1
10
63.1136222224547
20
-2.08441329101663
30
0
41
1
10
63.6974472812858
20
-2.36813847852477
30
0
41
1
10
64.8684690407947
20
-2.91906102828696
30
0
41
1
10
65.5290880244866
20
-3.21960324710443
30
0
41
1
10
66.1935490101301
20
-3.50639283682406
30
0
41
1
10
66.3413065740024
20
-3.56977606095532
30
0
41
1
10
66.4152333183119
20
-3.60129268950925
30
0
41
1
10
66.6367613306277
20
-3.69513620617405
30
0
41
1
10
66.7842467611482
20
-3.7568157674543
30
0
41
1
10
67.2261662182046
20
-3.93914238965155
30
0
41
1
10
67.5200649381112
20
-4.05707264599153
30
0
41
1
10
68.4001378216382
20
-4.39932683542673
30
0
41
1
10
68.9846619110829
20
-4.61218316663695
30
0
41
1
10
70.1518899336081
20
-5.00406318526066
30
0
41
1
10
70.7346042043477
20
-5.18305584393769
30
0
41
1
10
71.4633825348502
20
-5.38360243455287
30
0
41
1
10
71.6091620121838
20
-5.42256097533553
30
0
41
1
10
71.9008381435017
20
-5.49820145307569
30
0
41
1
10
72.0467288407161
20
-5.53487474153565
30
0
41
1
10
72.4845492449766
20
-5.64131470952341
30
0
41
1
10
72.776641468411
20
-5.7075160886728
30
0
41
1
10
73.6541650910906
20
-5.89134790770638
30
0
41
1
10
74.2408325169033
20
-5.99421702034689
30
0
41
1
10
74.9778218550094
20
-6.09631219484626
30
0
41
1
10
75.1254390609526
20
-6.11541017577596
30
0
41
1
10
75.4209232434875
20
-6.15089402385826
30
0
41
1
10
75.8640248817876
20
-6.19999342223133
30
0
41
1
10
76.3069310598199
20
-6.23663938132808
30
0
41
1
10
76.6022685417259
20
-6.25545958632125
30
0
0
SPLINE
5
EE
100
AcDbEntity
8
1
62
256
6
ByLayer
370
18
48
1
60
0
100
AcDbSpline
70
4
71
3
72
42
73
38
40
0
40
0
40
0
40
0
40
0.0624999999999997
40
0.0624999999999997
40
0.124999999999999
40
0.187499999999999
40
0.187499999999999
40
0.218749999999999
40
0.234374999999999
40
0.234374999999999
40
0.249999999999999
40
0.249999999999999
40
0.312499999999999
40
0.312499999999999
40
0.375
40
0.4375
40
0.4375
40
0.46875
40
0.484375
40
0.484375
40
0.5
40
0.5
40
0.5625
40
0.625
40
0.6875
40
0.6875
40
0.71875
40
0.734375
40
0.734375
40
0.75
40
0.75
40
0.8125
40
0.8125
40
0.875
40
0.9375
40
0.9375
40
1
40
1
40
1
40
1
41
1
10
76.5453390606814
20
-0.630001561068809
30
0
41
1
10
76.5257631347091
20
-0.80725696100626
30
0
41
1
10
76.5087374755468
20
-0.982689114394788
30
0
41
1
10
76.4788828669784
20
-1.32994571749327
30
0
41
1
10
76.4532265794691
20
-1.67359427465763
30
0
41
1
10
76.434479444864
20
-2.00996689578218
30
0
41
1
10
76.4225505369322
20
-2.25944319228282
30
0
41
1
10
76.4171203999729
20
-2.38347972090906
30
0
41
1
10
76.4124182874787
20
-2.50644183054047
30
0
41
1
10
76.4094380256996
20
-2.5881747680674
30
0
41
1
10
76.4080235412532
20
-2.62896944670115
30
0
41
1
10
76.4013442204129
20
-2.83156338578473
30
0
41
1
10
76.3972438334257
20
-2.98933032969151
30
0
41
1
10
76.3909860201336
20
-3.29648934313673
30
0
41
1
10
76.3866726596671
20
-3.59527231541514
30
0
41
1
10
76.385521654802
20
-3.87742219087002
30
0
41
1
10
76.3856930150048
20
-4.08270957001449
30
0
41
1
10
76.3860392016036
20
-4.18376993456218
30
0
41
1
10
76.3867648157197
20
-4.28241924155333
30
0
41
1
10
76.3873328349697
20
-4.34764419591264
30
0
41
1
10
76.3876591230049
20
-4.37999138078274
30
0
41
1
10
76.3894918808113
20
-4.53959830085702
30
0
41
1
10
76.3937089928126
20
-4.78262889923775
30
0
41
1
10
76.4039430604851
20
-5.1111985001443
30
0
41
1
10
76.4137312328438
20
-5.30642990989597
30
0
41
1
10
76.4224435648585
20
-5.44379494468745
30
0
41
1
10
76.4271445101959
20
-5.51020983667595
30
0
41
1
10
76.4324304150349
20
-5.57317092463686
30
0
41
1
10
76.4360933215422
20
-5.61436955936358
30
0
41
1
10
76.4379928574908
20
-5.63456283301124
30
0
41
1
10
76.447809662969
20
-5.73309949797275
30
0
41
1
10
76.4567131450506
20
-5.80455103960645
30
0
41
1
10
76.4771020768333
20
-5.93316206725888
30
0
41
1
10
76.5000731347505
20
-6.04747879790597
30
0
41
1
10
76.5294121650564
20
-6.13352068056048
30
0
41
1
10
76.5626741695658
20
-6.20529568139963
30
0
41
1
10
76.5812654619192
20
-6.23405061142321
30
0
41
1
10
76.6022685408722
20
-6.2554595863281
30
0
0
SPLINE
5
EF
100
AcDbEntity
8
1
62
256
6
ByLayer
370
18
48
1
60
0
100
AcDbSpline
70
4
71
3
72
59
73
55
40
0
40
0
40
0
40
0
40
0.0072546959070978
40
0.0836197192988528
40
0.0836197192988528
40
0.102710975146792
40
0.102710975146792
40
0.121802230994731
40
0.121802230994731
40
0.159984742690608
40
0.159984742690608
40
0.236349766082363
40
0.236349766082363
40
0.274532277778241
40
0.274532277778241
40
0.29362353362618
40
0.29362353362618
40
0.312714789474119
40
0.312714789474119
40
0.38907981286588
40
0.38907981286588
40
0.46544483625764
40
0.46544483625764
40
0.484536092105581
40
0.484536092105581
40
0.503627347953521
40
0.503627347953521
40
0.541809859649402
40
0.541809859649402
40
0.579992371345283
40
0.579992371345283
40
0.618174883041164
40
0.618174883041164
40
0.656357394737045
40
0.656357394737045
40
0.675448650584986
40
0.675448650584986
40
0.694539906432927
40
0.694539906432927
40
0.732722418128811
40
0.732722418128811
40
0.770904929824695
40
0.770904929824695
40
0.809087441520579
40
0.809087441520579
40
0.828178697368522
40
0.828178697368522
40
0.847269953216464
40
0.847269953216464
40
0.885452464912348
40
0.885452464912348
40
0.923634976608232
40
0.923634976608232
40
1
40
1
40
1
40
1
41
1
10
43.219748396956
20
-6.25418288943177
30
0
41
1
10
43.1640754768492
20
-6.26204516074344
30
0
41
1
10
42.5223950533516
20
-6.3503768760049
30
0
41
1
10
41.8807917214318
20
-6.41222573012942
30
0
41
1
10
41.1467679510705
20
-6.45458162852287
30
0
41
1
10
40.9998860449277
20
-6.46164157568711
30
0
41
1
10
40.7059618475872
20
-6.47292509802031
30
0
41
1
10
40.5589163133658
20
-6.47714550384674
30
0
41
1
10
40.1182450447934
20
-6.4855089526213
30
0
41
1
10
39.8248140303946
20
-6.48536826302146
30
0
41
1
10
38.9450376423606
20
-6.46790233620698
30
0
41
1
10
38.3591634756249
20
-6.43354173747724
30
0
41
1
10
37.4794032097194
20
-6.34839395509505
30
0
41
1
10
37.1859966872186
20
-6.31440673142501
30
0
41
1
10
36.7453786186941
20
-6.25509203011998
30
0
41
1
10
36.5984213513093
20
-6.23393160906147
30
0
41
1
10
36.3042922779423
20
-6.18884657932929
30
0
41
1
10
36.1573039165294
20
-6.1649500196329
30
0
41
1
10
35.4228129415547
20
-6.03881611805653
30
0
41
1
10
34.8366137728429
20
-5.91649692130679
30
0
41
1
10
33.6639874043848
20
-5.63149662742862
30
0
41
1
10
33.0775246254828
20
-5.46886382770595
30
0
41
1
10
32.3426531347772
20
-5.24184273033751
30
0
41
1
10
32.1955237962399
20
-5.19522835056603
30
0
41
1
10
31.9014174076449
20
-5.09976501344786
30
0
41
1
10
31.7544669400878
20
-5.05092722107833
30
0
41
1
10
31.3138507445949
20
-4.90119066425729
30
0
41
1
10
31.0204186520236
20
-4.79706948140159
30
0
41
1
10
30.4337615532966
20
-4.58079743054824
30
0
41
1
10
30.1405421180582
20
-4.46864155298857
30
0
41
1
10
29.5540492457844
20
-4.23666875242173
30
0
41
1
10
29.2607713569336
20
-4.1168561276433
30
0
41
1
10
28.6737578415256
20
-3.87013254673721
30
0
41
1
10
28.3800239822221
20
-3.74321985217043
30
0
41
1
10
27.9388279432294
20
-3.54788834452489
30
0
41
1
10
27.7916321755963
20
-3.48193597258444
30
0
41
1
10
27.4975162569854
20
-3.34867406135069
30
0
41
1
10
27.3505352157586
20
-3.28133815846653
30
0
41
1
10
26.9097619627418
20
-3.0773207749618
30
0
41
1
10
26.6161520619592
20
-2.9386094221633
30
0
41
1
10
26.0291111835168
20
-2.65629785348821
30
0
41
1
10
25.7356783657864
20
-2.5126995694639
30
0
41
1
10
25.1485594668419
20
-2.221357424465
30
0
41
1
10
24.8548726863916
20
-2.07361591600181
30
0
41
1
10
24.4139211230347
20
-1.8492996186977
30
0
41
1
10
24.2668667615452
20
-1.77407727578293
30
0
41
1
10
23.9725717406439
20
-1.62281145702946
30
0
41
1
10
23.8254064520645
20
-1.54680656741476
30
0
41
1
10
23.3842771790335
20
-1.31805152888126
30
0
41
1
10
23.0904870246397
20
-1.16445974987587
30
0
41
1
10
22.5032118580635
20
-0.855638581004285
30
0
41
1
10
22.2097252697991
20
-0.700411878069474
30
0
41
1
10
21.3291107909709
20
-0.23342514248202
30
0
41
1
10
20.7418235938665
20
0.0796318681078958
30
0
41
1
10
20.153052442387
20
0.392024031647139
30
0
0
SPLINE
5
F0
100
AcDbEntity
8
1
62
256
6
ByLayer
370
18
48
1
60
0
100
AcDbSpline
70
4
71
3
72
16
73
12
40
0
40
0
40
0
40
0
40
0.249999999999999
40
0.249999999999999
40
0.374999999999998
40
0.374999999999998
40
0.499999999999997
40
0.499999999999997
40
0.749999999999999
40
0.749999999999999
40
1
40
1
40
1
40
1
41
1
10
20.153052442387
20
0.392024031647111
30
0
41
1
10
20.1450182626436
20
0.396286833562613
30
0
41
1
10
20.1377398198904
20
0.401526758270904
30
0
41
1
10
20.1279250894412
20
0.410811979326752
30
0
41
1
10
20.1248260829918
20
0.414170621174151
30
0
41
1
10
20.1191837539418
20
0.421186398574662
30
0
41
1
10
20.1166182985141
20
0.424859880116458
30
0
41
1
10
20.1096789264401
20
0.43637036278281
30
0
41
1
10
20.1060440580094
20
0.444801891547911
30
0
41
1
10
20.1012419051781
20
0.462053449967101
30
0
41
1
10
20.0999973065149
20
0.471040262632897
30
0
41
1
10
20.0999973065149
20
0.480114158529631
30
0
0
SPLINE
5
F1
100
AcDbEntity
8
1
62
256
6
ByLayer
370
18
48
1
60
0
100
AcDbSpline
70
4
71
3
72
27
73
23
40
0
40
0
40
0
40
0
40
0.124999999999999
40
0.124999999999999
40
0.187499999999999
40
0.187499999999999
40
0.25
40
0.3125
40
0.3125
40
0.375000000000001
40
0.375000000000001
40
0.5
40
0.5
40
0.625
40
0.625
40
0.6875
40
0.6875
40
0.75
40
0.75
40
0.875
40
0.875
40
1
40
1
40
1
40
1
41
1
10
20.099997306515
20
6.34128648990668
30
0
41
1
10
20.099997306515
20
6.34286036977909
30
0
41
1
10
20.1011075255591
20
6.34438470991913
30
0
41
1
10
20.104387509537
20
6.34660162466577
30
0
41
1
10
20.1057668165759
20
6.34733390839924
30
0
41
1
10
20.1090176988317
20
6.34874078220736
30
0
41
1
10
20.1127567860388
20
6.35009373295807
30
0
41
1
10
20.1174517814675
20
6.35134360351401
30
0
41
1
10
20.1226386166941
20
6.35254194963528
30
0
41
1
10
20.1254684142362
20
6.35311186753472
30
0
41
1
10
20.1344554628097
20
6.35469852314108
30
0
41
1
10
20.1412134315696
20
6.35561488271389
30
0
41
1
10
20.1560562036653
20
6.35713657341037
30
0
41
1
10
20.1639019834414
20
6.3577201672968
30
0
41
1
10
20.1762970994606
20
6.35834101075588
30
0
41
1
10
20.1805559047211
20
6.35850497300953
30
0
41
1
10
20.1890521113625
20
6.35873724508045
30
0
41
1
10
20.1933148192169
20
6.35880727070838
30
0
41
1
10
20.2061461574763
20
6.35888132904168
30
0
41
1
10
20.2148701637329
20
6.35874413327247
30
0
41
1
10
20.2314944418128
20
6.35811373629593
30
0
41
1
10
20.2394840131851
20
6.3576257578726
30
0
41
1
10
20.2471359156005
20
6.35695250974891
30
0
0
SPLINE
5
F2
100
AcDbEntity
8
1
62
256
6
ByLayer
370
18
48
1
60
0
100
AcDbSpline
70
4
71
3
72
108
73
104
40
0
40
0
40
0
40
0
40
0.0487495728642996
40
0.0487495728642996
40
0.0609369660803752
40
0.0609369660803752
40
0.0731243592964507
40
0.0731243592964507
40
0.0974991457286019
40
0.0974991457286019
40
0.121873932160753
40
0.121873932160753
40
0.146248718592904
40
0.146248718592904
40
0.170623505025055
40
0.170623505025055
40
0.18281089824113
40
0.18281089824113
40
0.194998291457206
40
0.194998291457206
40
0.243747864321507
40
0.243747864321507
40
0.268122650753658
40
0.268122650753658
40
0.292497437185808
40
0.292497437185808
40
0.304684830401884
40
0.304684830401884
40
0.316872223617959
40
0.316872223617959
40
0.341247010050111
40
0.341247010050111
40
0.365621796482262
40
0.365621796482262
40
0.389996582914414
40
0.389996582914414
40
0.414371369346565
40
0.414371369346565
40
0.426558762562642
40
0.426558762562642
40
0.438746155778718
40
0.438746155778718
40
0.46312094221087
40
0.46312094221087
40
0.487495728643021
40
0.487495728643021
40
0.511870515075173
40
0.511870515075173
40
0.524057908291249
40
0.524057908291249
40
0.536245301507326
40
0.536245301507326
40
0.560620087939479
40
0.560620087939479
40
0.572807481155556
40
0.572807481155556
40
0.584994874371632
40
0.609369660803787
40
0.609369660803787
40
0.633744447235941
40
0.633744447235941
40
0.645931840452018
40
0.645931840452018
40
0.658119233668094
40
0.658119233668094
40
0.670306626884171
40
0.670306626884171
40
0.682494020100248
40
0.682494020100248
40
0.706868806532402
40
0.706868806532402
40
0.731243592964556
40
0.731243592964556
40
0.743430986180634
40
0.743430986180634
40
0.755618379396712
40
0.767805772612789
40
0.767805772612789
40
0.779993165828867
40
0.779993165828867
40
0.804367952261022
40
0.804367952261022
40
0.828742738693177
40
0.828742738693177
40
0.853117525125332
40
0.853117525125332
40
0.877492311557487
40
0.877492311557487
40
0.889679704773566
40
0.889679704773566
40
0.901867097989643
40
0.901867097989643
40
0.926241884421799
40
0.926241884421799
40
0.950616670853956
40
0.950616670853956
40
0.974991457286112
40
0.974991457286112
40
0.987178850502189
40
0.987178850502189
40
0.999366243718267
40
0.999366243718267
40
1
40
1
40
1
40
1
41
1
10
20.2471359156005
20
6.35695250974891
30
0
41
1
10
20.8341689103477
20
6.30530275772674
30
0
41
1
10
21.4212414504302
20
6.23144522615866
30
0
41
1
10
22.1559057054644
20
6.11213924050082
30
0
41
1
10
22.3029301036279
20
6.08691482889216
30
0
41
1
10
22.5967539603333
20
6.03379962312766
30
0
41
1
10
22.7435434665878
20
6.00591035387828
30
0
41
1
10
23.1835602782919
20
5.91825326003647
30
0
41
1
10
23.4764711856776
20
5.85451025598076
30
0
41
1
10
24.0622547424097
20
5.71710002197565
30
0
41
1
10
24.3551045987008
20
5.64342471420977
30
0
41
1
10
24.9409944892313
20
5.48644424895875
30
0
41
1
10
25.2340265284679
20
5.4031347675558
30
0
41
1
10
25.8203693943581
20
5.2269553336667
30
0
41
1
10
26.113710458008
20
5.13412080061568
30
0
41
1
10
26.5539601554022
20
4.98762055748321
30
0
41
1
10
26.7007965162848
20
4.93756053727211
30
0
41
1
10
26.9941501038825
20
4.83535102032886
30
0
41
1
10
27.1407268487986
20
4.78318550804684
30
0
41
1
10
27.8735143291135
20
4.51759918651311
30
0
41
1
10
28.4593159847587
20
4.28980825706202
30
0
41
1
10
29.338144006685
20
3.92653298710613
30
0
41
1
10
29.6311134262409
20
3.80184365358434
30
0
41
1
10
30.2171848587093
20
3.54531997474083
30
0
41
1
10
30.5103027024567
20
3.41350087834348
30
0
41
1
10
30.9506410726426
20
3.21124634846399
30
0
41
1
10
31.0974830803044
20
3.14308973857737
30
0
41
1
10
31.3908384526388
20
3.00551407741449
30
0
41
1
10
31.5374155756182
20
2.93606551555453
30
0
41
1
10
31.976858117987
20
2.72575940841725
30
0
41
1
10
32.2694613297052
20
2.58298105924055
30
0
41
1
10
32.8549345565565
20
2.29400508519598
30
0
41
1
10
33.1477773653356
20
2.14776792358248
30
0
41
1
10
33.7336289336056
20
1.85174303449904
30
0
41
1
10
34.026639484543
20
1.70195717760856
30
0
41
1
10
34.6129584023032
20
1.39904748020476
30
0
41
1
10
34.906261614707
20
1.24591544018742
30
0
41
1
10
35.3464203480041
20
1.01361902104048
30
0
41
1
10
35.4929752448354
20
0.935878338641686
30
0
41
1
10
35.7860083822615
20
0.780269302962608
30
0
41
1
10
35.9324821522093
20
0.70239024178295
30
0
41
1
10
36.3718245640956
20
0.468622448747738
30
0
41
1
10
36.6646086766475
20
0.312592483364597
30
0
41
1
10
37.2500073094897
20
0.0002606277098209
30
0
41
1
10
37.5426293966612
20
-0.156026988854734
30
0
41
1
10
38.1281460313888
20
-0.468042488725502
30
0
41
1
10
38.4210321507327
20
-0.623786261483701
30
0
41
1
10
38.8605925457828
20
-0.856931410528233
30
0
41
1
10
39.0071535607971
20
-0.934563619539574
30
0
41
1
10
39.3004340257732
20
-1.08951812924934
30
0
41
1
10
39.4472178180813
20
-1.16687400359785
30
0
41
1
10
39.8874161861349
20
-1.39801792532367
30
0
41
1
10
40.1804938050135
20
-1.55082183205909
30
0
41
1
10
40.6194659074736
20
-1.77820220854056
30
0
41
1
10
40.7656908575166
20
-1.85367456142964
30
0
41
1
10
41.0582126693141
20
-2.00349241682395
30
0
41
1
10
41.4970833329803
20
-2.22656765106106
30
0
41
1
10
41.9361087597734
20
-2.44492182973369
30
0
41
1
10
42.5216580471656
20
-2.73179803992937
30
0
41
1
10
42.8145231175646
20
-2.87310517899695
30
0
41
1
10
43.2540559203372
20
-3.08167118724799
30
0
41
1
10
43.4006070283865
20
-3.15062543079017
30
0
41
1
10
43.6938181404344
20
-3.28734234802005
30
0
41
1
10
43.8405320686144
20
-3.35512963989922
30
0
41
1
10
44.1335815638965
20
-3.48921311681369
30
0
41
1
10
44.2799743751384
20
-3.55552013507395
30
0
41
1
10
44.5727841710858
20
-3.68621961105197
30
0
41
1
10
44.7191931118792
20
-3.75062714387693
30
0
41
1
10
45.1583714772551
20
-3.94114594579838
30
0
41
1
10
45.4510934160527
20
-4.06455447314681
30
0
41
1
10
46.0363998818463
20
-4.30422301198902
30
0
41
1
10
46.3289836970752
20
-4.42048254862084
30
0
41
1
10
46.7678237021622
20
-4.5893692791833
30
0
41
1
10
46.9140978928303
20
-4.64474706327204
30
0
41
1
10
47.2066270437887
20
-4.75365951275464
30
0
41
1
10
47.4991456166169
20
-4.86071484656901
30
0
41
1
10
47.791992520573
20
-4.9635837653573
30
0
41
1
10
48.0851730255775
20
-5.06415364043974
30
0
41
1
10
48.2318831667099
20
-5.11327988409249
30
0
41
1
10
48.6716670851901
20
-5.25700277556788
30
0
41
1
10
48.9646512986178
20
-5.34803716662307
30
0
41
1
10
49.55028855942
20
-5.52056889142352
30
0
41
1
10
49.8429368166155
20
-5.60207406809511
30
0
41
1
10
50.4278147686774
20
-5.7555900887719
30
0
41
1
10
50.72006231703
20
-5.82756927892004
30
0
41
1
10
51.3048794080216
20
-5.96128934462121
30
0
41
1
10
51.5974409114498
20
-6.02304395179704
30
0
41
1
10
52.0367638661492
20
-6.10779035539784
30
0
41
1
10
52.1832930507407
20
-6.13472712734867
30
0
41
1
10
52.47648789678
20
-6.18594542299263
30
0
41
1
10
52.6229646757896
20
-6.21019072134183
30
0
41
1
10
53.0622553745429
20
-6.27872948415191
30
0
41
1
10
53.3549607671237
20
-6.31881698255788
30
0
41
1
10
53.9402614800636
20
-6.38785463761209
30
0
41
1
10
54.2328209614723
20
-6.4168226083321
30
0
41
1
10
54.8177999076205
20
-6.46365217710925
30
0
41
1
10
55.1102187597931
20
-6.48151196282075
30
0
41
1
10
55.5488426908276
20
-6.49985029852917
30
0
41
1
10
55.6950506250385
20
-6.50455411542509
30
0
41
1
10
55.987439299477
20
-6.51111422051494
30
0
41
1
10
56.1336212679514
20
-6.51296593849565
30
0
41
1
10
56.2875840548287
20
-6.51339962700388
30
0
41
1
10
56.2951951619975
20
-6.51341717970914
30
0
41
1
10
56.302806875794
20
-6.51343084947737
30
0
0
SPLINE
5
F3
100
AcDbEntity
8
1
62
256
6
ByLayer
370
18
48
1
60
0
100
AcDbSpline
70
4
71
3
72
114
73
110
40
0
40
0
40
0
40
0
40
0.0218357814016334
40
0.0218357814016334
40
0.0448692952365081
40
0.0448692952365081
40
0.0679028090713828
40
0.0679028090713828
40
0.0909363229062576
40
0.0909363229062576
40
0.113969836741132
40
0.113969836741132
40
0.137003350576007
40
0.137003350576007
40
0.160036864410882
40
0.160036864410882
40
0.171553621328319
40
0.171553621328319
40
0.183070378245756
40
0.183070378245756
40
0.206103892080631
40
0.206103892080631
40
0.229137405915506
40
0.229137405915506
40
0.25217091975038
40
0.25217091975038
40
0.275204433585255
40
0.275204433585255
40
0.280962812043974
40
0.280962812043974
40
0.286721190502692
40
0.286721190502692
40
0.29823794742013
40
0.29823794742013
40
0.321271461255004
40
0.321271461255004
40
0.344304975089879
40
0.344304975089879
40
0.367338488924754
40
0.367338488924754
40
0.390372002759628
40
0.390372002759628
40
0.413405516594503
40
0.413405516594503
40
0.42492227351194
40
0.42492227351194
40
0.436439030429378
40
0.436439030429378
40
0.459472544264251
40
0.459472544264251
40
0.465230922722971
40
0.465230922722971
40
0.470989301181689
40
0.470989301181689
40
0.482506058099127
40
0.482506058099127
40
0.505539571934004
40
0.505539571934004
40
0.528573085768881
40
0.528573085768881
40
0.551606599603757
40
0.551606599603757
40
0.574640113438634
40
0.574640113438634
40
0.59767362727351
40
0.59767362727351
40
0.620707141108387
40
0.620707141108387
40
0.643740654943264
40
0.643740654943264
40
0.649499033401983
40
0.649499033401983
40
0.655257411860702
40
0.666774168778139
40
0.666774168778139
40
0.678290925695576
40
0.678290925695576
40
0.689807682613014
40
0.689807682613014
40
0.712841196447888
40
0.712841196447888
40
0.735874710282761
40
0.735874710282761
40
0.758908224117635
40
0.758908224117635
40
0.781941737952509
40
0.781941737952509
40
0.804975251787383
40
0.804975251787383
40
0.828008765622257
40
0.828008765622257
40
0.833767144080975
40
0.833767144080975
40
0.839525522539694
40
0.85104227945713
40
0.85104227945713
40
0.874075793292003
40
0.874075793292003
40
0.920142820961749
40
0.920142820961749
40
0.931659577879185
40
0.931659577879185
40
0.943176334796622
40
0.943176334796622
40
0.966209848631495
40
0.966209848631495
40
0.989243362466368
40
0.989243362466368
40
1
40
1
40
1
40
1
41
1
10
20.0655435043003
20
6.4482037953027
30
0
41
1
10
20.4083587622409
20
6.44882277404997
30
0
41
1
10
20.7511646868115
20
6.44167937796098
30
0
41
1
10
21.4560411284852
20
6.41100832932509
30
0
41
1
10
21.8180994899368
20
6.38658367625882
30
0
41
1
10
22.543662605905
20
6.32048640088485
30
0
41
1
10
22.907156286154
20
6.27882883594253
30
0
41
1
10
23.6359633858509
20
6.17824435647148
30
0
41
1
10
24.0012888315738
20
6.11931787001728
30
0
41
1
10
24.7344007209705
20
5.98417220407597
30
0
41
1
10
25.0996341705495
20
5.90842292838545
30
0
41
1
10
25.8283283911981
20
5.74167452809402
30
0
41
1
10
26.1917241127324
20
5.65060736234455
30
0
41
1
10
26.9171175561474
20
5.4537228816823
30
0
41
1
10
27.2791142875056
20
5.34790146467398
30
0
41
1
10
27.8215315359831
20
5.17864840488863
30
0
41
1
10
28.0022491984215
20
5.12048579959244
30
0
41
1
10
28.3636575295248
20
5.00085474491792
30
0
41
1
10
28.5443435545294
20
4.93938208575295
30
0
41
1
10
29.0863864443233
20
4.75005041603825
30
0
41
1
10
29.4477350380497
20
4.61728600509676
30
0
41
1
10
30.1709332495375
20
4.33931131993171
30
0
41
1
10
30.5327564058095
20
4.19405845073354
30
0
41
1
10
31.2576577871201
20
3.89205659299731
30
0
41
1
10
31.6208346257292
20
3.73546619476031
30
0
41
1
10
32.3490556910464
20
3.411619242124
30
0
41
1
10
32.7140996953822
20
3.24435910184573
30
0
41
1
10
33.1719382626285
20
3.02906177073297
30
0
41
1
10
33.2635304309989
20
2.98571499316739
30
0
41
1
10
33.4464604861004
20
2.89861698817373
30
0
41
1
10
33.5378442328958
20
2.85484406889864
30
0
41
1
10
33.8117693093224
20
2.72288643688603
30
0
41
1
10
33.9940897039523
20
2.6340721698609
30
0
41
1
10
34.5403920780729
20
2.36552886522367
30
0
41
1
10
34.9036762049669
20
2.18362967449974
30
0
41
1
10
35.6288273423547
20
1.81489051667182
30
0
41
1
10
35.9907048383352
20
1.62806919699526
30
0
41
1
10
36.7136419605984
20
1.25060872656263
30
0
41
1
10
37.0747087059932
20
1.0599813644323
30
0
41
1
10
37.7970174084971
20
0.676782221663387
30
0
41
1
10
38.1581728455468
20
0.484048681332268
30
0
41
1
10
38.8809747687655
20
0.0972364836916881
30
0
41
1
10
39.2426212349395
20
-0.0968426668353288
30
0
41
1
10
39.78592409334
20
-0.38809506519064
30
0
41
1
10
39.9671709310176
20
-0.485188025289744
30
0
41
1
10
40.3301089920706
20
-0.679097964359869
30
0
41
1
10
40.5117965409738
20
-0.775921858574861
30
0
41
1
10
41.0575604804448
20
-1.06591612771288
30
0
41
1
10
41.4223439217147
20
-1.258597828239
30
0
41
1
10
41.8798535132643
20
-1.49797202791382
30
0
41
1
10
41.9714368726897
20
-1.54577448084797
30
0
41
1
10
42.1543295495534
20
-1.64098639594576
30
0
41
1
10
42.2456932005487
20
-1.68842477859172
30
0
41
1
10
42.5195536349781
20
-1.83020704417811
30
0
41
1
10
42.7018137520766
20
-1.92402941482484
30
0
41
1
10
43.2478656188195
20
-2.20302699156886
30
0
41
1
10
43.6109917224668
20
-2.38562033179147
30
0
41
1
10
44.3358608727031
20
-2.74336573471405
30
0
41
1
10
44.6976040480256
20
-2.91851522658936
30
0
41
1
10
45.420259767096
20
-3.26047247611353
30
0
41
1
10
45.7811322352245
20
-3.42734022671402
30
0
41
1
10
46.5029762128095
20
-3.75122984847636
30
0
41
1
10
46.8639397246586
20
-3.90827402348449
30
0
41
1
10
47.5863503745126
20
-4.21193308557818
30
0
41
1
10
47.9478084333709
20
-4.35852911361405
30
0
41
1
10
48.6718034802982
20
-4.64032517891317
30
0
41
1
10
49.0343407761561
20
-4.77551772049452
30
0
41
1
10
49.7615015869797
20
-5.03302335540067
30
0
41
1
10
50.1260424159206
20
-5.15545185306061
30
0
41
1
10
50.5832483849882
20
-5.30005167788732
30
0
41
1
10
50.6747989724907
20
-5.32855850724437
30
0
41
1
10
50.8576407505888
20
-5.38458396768797
30
0
41
1
10
51.1316571862565
20
-5.46718573655318
30
0
41
1
10
51.4049727030029
20
-5.54545667148673
30
0
41
1
10
51.7688597251137
20
-5.64590680417945
30
0
41
1
10
51.9505408472254
20
-5.69417089083433
30
0
41
1
10
52.3135334923582
20
-5.78666663300962
30
0
41
1
10
52.4948410340004
20
-5.83090369151654
30
0
41
1
10
53.0382475741318
20
-5.95758784411734
30
0
41
1
10
53.3998375747929
20
-6.03400181157386
30
0
41
1
10
54.1221923449218
20
-6.1704653075569
30
0
41
1
10
54.4829313606974
20
-6.23052519661445
30
0
41
1
10
55.2043058321122
20
-6.33386363883633
30
0
41
1
10
55.5650441818468
20
-6.3771003733109
30
0
41
1
10
56.2870559908083
20
-6.44653390354918
30
0
41
1
10
56.648326864351
20
-6.47272856976139
30
0
41
1
10
57.3719492762136
20
-6.50777356850011
30
0
41
1
10
57.7342596951248
20
-6.51661812184855
30
0
41
1
10
58.4608817010452
20
-6.51663379783369
30
0
41
1
10
58.8251985873649
20
-6.50782189467304
30
0
41
1
10
59.2821265643369
20
-6.48561784935933
30
0
41
1
10
59.3736335660986
20
-6.48061419829435
30
0
41
1
10
59.5564081248044
20
-6.46950906142584
30
0
41
1
10
59.8303247507007
20
-6.45120089587766
30
0
41
1
10
60.1035447835222
20
-6.42797231328535
30
0
41
1
10
60.6491709513157
20
-6.37503693764339
30
0
41
1
10
61.011830674763
20
-6.3310965676626
30
0
41
1
10
62.0980693027892
20
-6.17437254360036
30
0
41
1
10
62.8195470247551
20
-6.03656767968513
30
0
41
1
10
63.7207852112205
20
-5.82484615323125
30
0
41
1
10
63.9010097514541
20
-5.78053190588369
30
0
41
1
10
64.2615677590037
20
-5.68809999459077
30
0
41
1
10
64.4418999766213
20
-5.63998275728136
30
0
41
1
10
64.9831038495252
20
-5.48997063795335
30
0
41
1
10
65.3441877136018
20
-5.38242021267786
30
0
41
1
10
66.0674530689635
20
-5.15266539303903
30
0
41
1
10
66.4296127761195
20
-5.03043091907662
30
0
41
1
10
66.9622272972871
20
-4.84080900872152
30
0
41
1
10
67.1319985398861
20
-4.77894554549218
30
0
41
1
10
67.3020157375223
20
-4.71560378131841
30
0
0
SPLINE
5
F4
100
AcDbEntity
8
1
62
256
6
ByLayer
370
18
48
1
60
0
100
AcDbSpline
70
4
71
3
72
96
73
92
40
0
40
0
40
0
40
0
40
0.0124284909963116
40
0.0217452033454021
40
0.0217452033454021
40
0.0310619156944925
40
0.0310619156944925
40
0.0683287650908556
40
0.0683287650908556
40
0.0869621897890375
40
0.0869621897890375
40
0.0962789021381285
40
0.0962789021381285
40
0.105595614487219
40
0.180129313279946
40
0.180129313279946
40
0.184787669454492
40
0.184787669454492
40
0.189446025629038
40
0.189446025629038
40
0.19876273797813
40
0.217396162676313
40
0.254663012072679
40
0.254663012072679
40
0.329196710865413
40
0.329196710865413
40
0.36646356026178
40
0.36646356026178
40
0.375780272610872
40
0.375780272610872
40
0.385096984959963
40
0.403730409658148
40
0.403730409658148
40
0.440997259054516
40
0.440997259054516
40
0.4596306837527
40
0.4596306837527
40
0.468947396101792
40
0.468947396101792
40
0.478264108450885
40
0.478264108450885
40
0.496897533149068
40
0.496897533149068
40
0.50621424549816
40
0.50621424549816
40
0.515530957847252
40
0.515530957847252
40
0.552797807243619
40
0.552797807243619
40
0.571431231941803
40
0.571431231941803
40
0.590064656639986
40
0.590064656639986
40
0.60869808133817
40
0.60869808133817
40
0.627331506036353
40
0.627331506036353
40
0.66459835543272
40
0.66459835543272
40
0.683231780130902
40
0.683231780130902
40
0.692548492479994
40
0.692548492479994
40
0.701865204829086
40
0.720498629527269
40
0.72981534187636
40
0.72981534187636
40
0.739132054225451
40
0.739132054225451
40
0.776398903621815
40
0.776398903621815
40
0.813665753018179
40
0.813665753018179
40
0.82298246536727
40
0.82298246536727
40
0.832299177716361
40
0.832299177716361
40
0.850932602414543
40
0.869566027112725
40
0.869566027112725
40
0.888199451810907
40
0.888199451810907
40
0.925466301207272
40
0.925466301207272
40
0.934783013556363
40
0.934783013556363
40
0.944099725905454
40
0.944099725905454
40
0.962733150603636
40
0.962733150603636
40
1
40
1
40
1
40
1
41
1
10
29.2330757806988
20
4.69009651461965
30
0
41
1
10
29.4294416728704
20
4.76231546237491
30
0
41
1
10
29.7730682498288
20
4.8855121135885
30
0
41
1
10
30.1169562625227
20
5.002965093364
30
0
41
1
10
30.4117739261993
20
5.10144102627319
30
0
41
1
10
30.5592419098818
20
5.14958961878204
30
0
41
1
10
31.2959599636398
20
5.38442423912997
30
0
41
1
10
31.8842062017968
20
5.55366840516021
30
0
41
1
10
32.7670551012826
20
5.77749504887649
30
0
41
1
10
33.0614181288756
20
5.84709906935854
30
0
41
1
10
33.503352343697
20
5.94375235691436
30
0
41
1
10
33.6507669939144
20
5.97468586761562
30
0
41
1
10
33.9455941325654
20
6.03389849952816
30
0
41
1
10
35.2714008463243
20
6.28823843498515
30
0
41
1
10
36.5905739521118
20
6.43275268203999
30
0
41
1
10
37.8423578460011
20
6.47229674680227
30
0
41
1
10
37.9160140520677
20
6.47426660351701
30
0
41
1
10
38.0633757118008
20
6.47749173731225
30
0
41
1
10
38.1370773110188
20
6.47874660387319
30
0
41
1
10
38.3579509378899
20
6.4814346793394
30
0
41
1
10
38.799085624772
20
6.48251252060462
30
0
41
1
10
39.8245822420741
20
6.45515850131724
30
0
41
1
10
40.6986090682107
20
6.38128953829695
30
0
41
1
10
42.4440436650573
20
6.16852722151805
30
0
41
1
10
43.6042351075771
20
5.93999414144542
30
0
41
1
10
45.3548495649848
20
5.4766234287593
30
0
41
1
10
45.9401289701732
20
5.30209424691481
30
0
41
1
10
46.6756148092635
20
5.06000203845304
30
0
41
1
10
46.8229972060666
20
5.01035496348368
30
0
41
1
10
47.117439428876
20
4.90896394928677
30
0
41
1
10
47.5588074404274
20
4.75367457302883
30
0
41
1
10
47.9994895661648
20
4.58905276682273
30
0
41
1
10
48.8804772339694
20
4.24812026450655
30
0
41
1
10
49.467301509343
20
4.00525032075413
30
0
41
1
10
50.3487645320324
20
3.620380657574
30
0
41
1
10
50.6427922933944
20
3.48866651042314
30
0
41
1
10
51.0844095163234
20
3.28634100633366
30
0
41
1
10
51.2317197874251
20
3.21810241182223
30
0
41
1
10
51.5261543837375
20
3.0803074220828
30
0
41
1
10
51.6733313250548
20
3.01072714600073
30
0
41
1
10
52.1148085007886
20
2.80005135078216
30
0
41
1
10
52.4090578136771
20
2.65702548954465
30
0
41
1
10
52.8505783354175
20
2.43904557882496
30
0
41
1
10
52.9977758432691
20
2.36581135311809
30
0
41
1
10
53.2922603824564
20
2.21826439511125
30
0
41
1
10
53.4395258314914
20
2.14396223951169
30
0
41
1
10
54.175489459739
20
1.77029239639188
30
0
41
1
10
54.7636169465829
20
1.46417558076558
30
0
41
1
10
55.6469678376472
20
0.998049054938292
30
0
41
1
10
55.941286917858
20
0.841682158578777
30
0
41
1
10
56.5296986023177
20
0.527749352613853
30
0
41
1
10
56.8238398255208
20
0.370158118491645
30
0
41
1
10
57.4123481994598
20
0.0543854181250083
30
0
41
1
10
57.7068763900114
20
-0.103881810923014
30
0
41
1
10
58.2949510185685
20
-0.419475630692404
30
0
41
1
10
58.5886532826603
20
-0.57688504422066
30
0
41
1
10
59.4693078117831
20
-1.04692995718753
30
0
41
1
10
60.0558385163986
20
-1.35732680785551
30
0
41
1
10
60.9366406165614
20
-1.81503997025621
30
0
41
1
10
61.2304085141803
20
-1.96629786407726
30
0
41
1
10
61.671563105949
20
-2.19075005920863
30
0
41
1
10
61.8187499636627
20
-2.26518705185632
30
0
41
1
10
62.1130547656541
20
-2.41302679812301
30
0
41
1
10
62.5543571013869
20
-2.63321017166035
30
0
41
1
10
63.1424081384937
20
-2.9200255127214
30
0
41
1
10
63.5835927270382
20
-3.12936947736722
30
0
41
1
10
63.8777946142645
20
-3.26757275425146
30
0
41
1
10
64.0249806938487
20
-3.33601545334514
30
0
41
1
10
64.7602798290044
20
-3.67420672335013
30
0
41
1
10
65.3470166242672
20
-3.93209381575903
30
0
41
1
10
66.5202624192274
20
-4.41857627591091
30
0
41
1
10
67.1067204202522
20
-4.64724895398496
30
0
41
1
10
67.8412306029816
20
-4.91251859133956
30
0
41
1
10
67.988205373442
20
-4.96454278756306
30
0
41
1
10
68.282344666595
20
-5.06646878663142
30
0
41
1
10
68.4294774824225
20
-5.11635868565764
30
0
41
1
10
68.8706082061019
20
-5.2625517320692
30
0
41
1
10
69.4584590913175
20
-5.44834100218691
30
0
41
1
10
70.0463934100424
20
-5.61507404613056
30
0
41
1
10
70.6347361315535
20
-5.77189664030322
30
0
41
1
10
70.9286513436119
20
-5.84522834028485
30
0
41
1
10
71.8098538979848
20
-6.04951709853432
30
0
41
1
10
72.396754125887
20
-6.16479465349119
30
0
41
1
10
73.1313132542462
20
-6.28162742938164
30
0
41
1
10
73.27827087253
20
-6.30363113154505
30
0
41
1
10
73.5723190045622
20
-6.34488379507337
30
0
41
1
10
73.7194381972441
20
-6.36413524857943
30
0
41
1
10
74.1604283705736
20
-6.41764192734982
30
0
41
1
10
74.4541258132762
20
-6.44767889776395
30
0
41
1
10
75.3348569447852
20
-6.52074976499949
30
0
41
1
10
75.9215287110889
20
-6.54673636508468
30
0
41
1
10
76.5091618323652
20
-6.54968577990641
30
0
0
SPLINE
5
F5
100
AcDbEntity
8
1
62
256
6
ByLayer
370
18
48
1
60
0
100
AcDbSpline
70
4
71
3
72
12
73
8
40
0
40
0
40
0
40
0
40
0.5
40
0.5
40
0.75
40
0.75
40
1
40
1
40
1
40
1
41
1
10
76.4618739509685
20
-6.4942704069064
30
0
41
1
10
76.4697342362443
20
-6.51188561107347
30
0
41
1
10
76.4776007750985
20
-6.52532083848087
30
0
41
1
10
76.4894278219434
20
-6.53919172853929
30
0
41
1
10
76.4933767493549
20
-6.54276886732464
30
0
41
1
10
76.5012742120688
20
-6.54781049421635
30
0
41
1
10
76.5052196664875
20
-6.54927432887897
30
0
41
1
10
76.5091618323649
20
-6.54968577990641
30
0
0
SPLINE
5
F6
100
AcDbEntity
8
1
62
256
6
ByLayer
370
18
48
1
60
0
100
AcDbSpline
70
4
71
3
72
82
73
78
40
0
40
0
40
0
40
0
40
0.0240766599817442
40
0.0240766599817442
40
0.0361149899726163
40
0.0361149899726163
40
0.0481533199634884
40
0.0481533199634884
40
0.0963066399269759
40
0.0963066399269759
40
0.144459959890463
40
0.144459959890463
40
0.156498289881335
40
0.156498289881335
40
0.168536619872207
40
0.168536619872207
40
0.19261327985395
40
0.19261327985395
40
0.240766599817437
40
0.240766599817437
40
0.26484325979918
40
0.26484325979918
40
0.276881589790052
40
0.276881589790052
40
0.288919919780923
40
0.288919919780923
40
0.337073239744407
40
0.337073239744407
40
0.385226559707891
40
0.385226559707891
40
0.397264889698763
40
0.397264889698763
40
0.409303219689634
40
0.409303219689634
40
0.433379879671378
40
0.433379879671378
40
0.481533199634866
40
0.481533199634866
40
0.50560985961661
40
0.50560985961661
40
0.517648189607482
40
0.517648189607482
40
0.529686519598354
40
0.529686519598354
40
0.577839839561843
40
0.577839839561843
40
0.625993159525333
40
0.625993159525333
40
0.638031489516205
40
0.638031489516205
40
0.650069819507078
40
0.650069819507078
40
0.674146479488822
40
0.674146479488822
40
0.72229979945231
40
0.72229979945231
40
0.746376459434055
40
0.746376459434055
40
0.770453119415799
40
0.770453119415799
40
0.818606439379288
40
0.818606439379288
40
0.842683099361033
40
0.854721429351906
40
0.854721429351906
40
0.866759759342778
40
0.866759759342778
40
0.890836419324522
40
0.890836419324522
40
0.914913079306266
40
0.963066399269754
40
0.963066399269754
40
0.975104729260626
40
0.975104729260626
40
0.987143059251498
40
0.987143059251498
40
1
40
1
40
1
40
1
41
1
10
76.4618739509706
20
-6.49427040690588
30
0
41
1
10
76.1687607010921
20
-6.47316541691421
30
0
41
1
10
75.8757012712388
20
-6.44637870452627
30
0
41
1
10
75.4359648090948
20
-6.39777476429026
30
0
41
1
10
75.2893613275107
20
-6.38016935859156
30
0
41
1
10
74.9960657229163
20
-6.34216587190042
30
0
41
1
10
74.8493234766442
20
-6.32176017231657
30
0
41
1
10
74.1159446291149
20
-6.21288688620513
30
0
41
1
10
73.5307737474892
20
-6.10396942412774
30
0
41
1
10
72.3608912850357
20
-5.8445550183387
30
0
41
1
10
71.7760716568156
20
-5.69414360800874
30
0
41
1
10
71.0436323711822
20
-5.48152052684486
30
0
41
1
10
70.8970649313108
20
-5.43777395353774
30
0
41
1
10
70.6037316634711
20
-5.3478703691589
30
0
41
1
10
70.456926760417
20
-5.30169974624101
30
0
41
1
10
70.0169683795214
20
-5.15989224895483
30
0
41
1
10
69.7240235622833
20
-5.06088617275014
30
0
41
1
10
68.8457756205176
20
-4.75112051870983
30
0
41
1
10
68.2610408627131
20
-4.52763212808185
30
0
41
1
10
67.3830139418414
20
-4.16970097490355
30
0
41
1
10
67.0901876648328
20
-4.04660282539419
30
0
41
1
10
66.6504453295921
20
-3.85665277041505
30
0
41
1
10
66.5037807934772
20
-3.79245232298089
30
0
41
1
10
66.2102418260815
20
-3.66234219148126
30
0
41
1
10
66.0634693642616
20
-3.59647720356244
30
0
41
1
10
65.3302604417313
20
-3.26362175034709
30
0
41
1
10
64.7450314105132
20
-2.98570189537682
30
0
41
1
10
63.5745675826526
20
-2.41114423673866
30
0
41
1
10
62.9893038080017
20
-2.11455255921058
30
0
41
1
10
62.2559040962167
20
-1.73523656197528
30
0
41
1
10
62.1090845997203
20
-1.65891501998652
30
0
41
1
10
61.815462359152
20
-1.50559482638417
30
0
41
1
10
61.6687521557614
20
-1.42864472570329
30
0
41
1
10
61.2288652275373
20
-1.19703443040447
30
0
41
1
10
60.9359296776847
20
-1.041618810063
30
0
41
1
10
60.0575417639464
20
-0.573366847062744
30
0
41
1
10
59.4724801524441
20
-0.258577268140613
30
0
41
1
10
58.5936294199996
20
0.213705981986124
30
0
41
1
10
58.3004750082549
20
0.371160576002097
30
0
41
1
10
57.8601760074303
20
0.606894991662614
30
0
41
1
10
57.71325550355
20
0.685430213348383
30
0
41
1
10
57.4196855512618
20
0.842002238874528
30
0
41
1
10
57.2729932287477
20
0.920062079795258
30
0
41
1
10
56.5398889473777
20
1.30903906140375
30
0
41
1
10
55.9545665511166
20
1.61601923171077
30
0
41
1
10
54.7833424831232
20
2.21635438115985
30
0
41
1
10
54.1974960506799
20
2.5098093400467
30
0
41
1
10
53.4631336993766
20
2.86509049183374
30
0
41
1
10
53.3162050323798
20
2.93554940074844
30
0
41
1
10
53.02266484922
20
3.07501657037767
30
0
41
1
10
52.8759881724615
20
3.14405342805725
30
0
41
1
10
52.4361511530899
20
3.34893615252227
30
0
41
1
10
52.1431770882165
20
3.48254341916427
30
0
41
1
10
51.2644921084649
20
3.87364462620542
30
0
41
1
10
50.6790724722262
20
4.12149654482459
30
0
41
1
10
49.7993369529716
20
4.47071270195352
30
0
41
1
10
49.5057694616877
20
4.58337290400686
30
0
41
1
10
48.9179899903245
20
4.80062823851463
30
0
41
1
10
48.6245053590507
20
4.90495106285462
30
0
41
1
10
47.7447307124712
20
5.20443273221437
30
0
41
1
10
47.1592328623946
20
5.38622904433663
30
0
41
1
10
46.2802646656398
20
5.62975931747815
30
0
41
1
10
45.8405987523034
20
5.74423642713862
30
0
41
1
10
45.400262267021
20
5.84738905598488
30
0
41
1
10
45.1065120271515
20
5.91359902637038
30
0
41
1
10
44.959471728019
20
5.94543835551292
30
0
41
1
10
44.5186613135979
20
6.0369225238843
30
0
41
1
10
44.225201310625
20
6.09258892853128
30
0
41
1
10
43.6387533405554
20
6.19308113236977
30
0
41
1
10
42.7597001989018
20
6.32750129135633
30
0
41
1
10
41.8807917214318
20
6.41222573012942
30
0
41
1
10
41.1467679510705
20
6.45458162852287
30
0
41
1
10
40.9998860449278
20
6.46164157568711
30
0
41
1
10
40.7059618475872
20
6.47292509802031
30
0
41
1
10
40.5589163133657
20
6.47714550384674
30
0
41
1
10
40.2551468662057
20
6.48291070886867
30
0
41
1
10
40.0983675984689
20
6.48425805298808
30
0
41
1
10
39.9416610415632
20
6.48398068753295
30
0
0
SPLINE
5
F7
100
AcDbEntity
8
1
62
256
6
ByLayer
370
18
48
1
60
0
100
AcDbSpline
70
4
71
3
72
71
73
67
40
0
40
0
40
0
40
0
40
0.0238774495886724
40
0.0238774495886724
40
0.0614206246044907
40
0.0614206246044907
40
0.098963799620309
40
0.098963799620309
40
0.117735387128218
40
0.117735387128218
40
0.136506974636127
40
0.136506974636127
40
0.155278562144037
40
0.155278562144037
40
0.174050149651946
40
0.174050149651946
40
0.211593324667766
40
0.211593324667766
40
0.249136499683585
40
0.249136499683585
40
0.267908087191495
40
0.267908087191495
40
0.286679674699405
40
0.286679674699405
40
0.324222849715225
40
0.324222849715225
40
0.342994437223134
40
0.342994437223134
40
0.361766024731044
40
0.361766024731044
40
0.399309199746865
40
0.399309199746865
40
0.436852374762687
40
0.436852374762687
40
0.474395549778508
40
0.474395549778508
40
0.511938724794329
40
0.511938724794329
40
0.53071031230224
40
0.53071031230224
40
0.54948189981015
40
0.54948189981015
40
0.587025074825971
40
0.587025074825971
40
0.624568249841793
40
0.624568249841793
40
0.662111424857614
40
0.662111424857614
40
0.680883012365524
40
0.680883012365524
40
0.699654599873433
40
0.699654599873433
40
0.774740949905076
40
0.774740949905076
40
0.793512537412987
40
0.793512537412987
40
0.812284124920897
40
0.812284124920897
40
0.849827299936718
40
0.849827299936718
40
0.868598887444628
40
0.868598887444628
40
0.887370474952539
40
0.924913649968359
40
0.924913649968359
40
1
40
1
40
1
40
1
41
1
10
53.0891419497091
20
6.28070705558747
30
0
41
1
10
53.2753377598524
20
6.30717537608541
30
0
41
1
10
53.4614855726573
20
6.33138184471602
30
0
41
1
10
53.9402614800636
20
6.38785463761209
30
0
41
1
10
54.2328209614723
20
6.4168226083321
30
0
41
1
10
54.8177999076205
20
6.46365217710925
30
0
41
1
10
55.110218759793
20
6.48151196282075
30
0
41
1
10
55.5488426908276
20
6.49985029852917
30
0
41
1
10
55.6950506250386
20
6.50455411542509
30
0
41
1
10
55.9874392994769
20
6.51111422051494
30
0
41
1
10
56.1336212679513
20
6.51296593849565
30
0
41
1
10
56.4263259157891
20
6.51379044060192
30
0
41
1
10
56.5729164743292
20
6.51276607747585
30
0
41
1
10
56.8660395145892
20
6.50786990676747
30
0
41
1
10
57.0125545216519
20
6.5039999702079
30
0
41
1
10
57.4519532971387
20
6.4881629863217
30
0
41
1
10
57.7446889746223
20
6.47197379478786
30
0
41
1
10
58.3297650958606
20
6.42839988774458
30
0
41
1
10
58.6221047912456
20
6.4010126722003
30
0
41
1
10
59.0603906609234
20
6.35149011746131
30
0
41
1
10
59.2064496625361
20
6.33357491340593
30
0
41
1
10
59.4985242358786
20
6.29492007438415
30
0
41
1
10
59.6445367988922
20
6.27417619023774
30
0
41
1
10
60.0829260989697
20
6.20790436747671
30
0
41
1
10
60.3756645565939
20
6.15836399309723
30
0
41
1
10
60.815350220271
20
6.07596394705368
30
0
41
1
10
60.9620448960658
20
6.04713809127333
30
0
41
1
10
61.2551270595667
20
5.98691830728748
30
0
41
1
10
61.4015775611759
20
5.95551333098842
30
0
41
1
10
61.8407186596095
20
5.85747238132325
30
0
41
1
10
62.133198282939
20
5.78701829006803
30
0
41
1
10
62.7174899915151
20
5.63579561855164
30
0
41
1
10
63.0093046221574
20
5.55500576781841
30
0
41
1
10
63.5933930479275
20
5.38413757598934
30
0
41
1
10
63.885663209568
20
5.29407512028436
30
0
41
1
10
64.4707561537296
20
5.10484676387668
30
0
41
1
10
64.7635805282892
20
5.00568208383115
30
0
41
1
10
65.2033372853938
20
4.85018340018655
30
0
41
1
10
65.3499207417967
20
4.797255819947
30
0
41
1
10
65.6427658224129
20
4.68936242787399
30
0
41
1
10
65.7890786399529
20
4.63437854406371
30
0
41
1
10
66.2277275396485
20
4.46636526317465
30
0
41
1
10
66.5197755957524
20
4.3502698063414
30
0
41
1
10
67.1038644099516
20
4.11097311620159
30
0
41
1
10
67.3959006980869
20
3.98777481568118
30
0
41
1
10
67.9800542936932
20
3.73443040797113
30
0
41
1
10
68.2721745965108
20
3.60428169203391
30
0
41
1
10
68.7108748221706
20
3.40453969300242
30
0
41
1
10
68.8571947197086
20
3.33720682209659
30
0
41
1
10
69.150020327888
20
3.20105588724863
30
0
41
1
10
69.2965619069985
20
3.13222059624636
30
0
41
1
10
70.0293856096832
20
2.78457802888144
30
0
41
1
10
70.6141024469648
20
2.49623424960294
30
0
41
1
10
71.3440788094739
20
2.1246828945323
30
0
41
1
10
71.4900249223299
20
2.04980929269942
30
0
41
1
10
71.7820503120477
20
1.89934401380248
30
0
41
1
10
71.9281364023455
20
1.82376530737261
30
0
41
1
10
72.3666137070971
20
1.59599638091072
30
0
41
1
10
72.6592166464244
20
1.44276096877263
30
0
41
1
10
73.0986567055164
20
1.2110234486089
30
0
41
1
10
73.2452717456204
20
1.1334410685661
30
0
41
1
10
73.5382313748171
20
0.977936156290525
30
0
41
1
10
73.9774116955912
20
0.74409349987971
30
0
41
1
10
74.4159116621646
20
0.508675232198868
30
0
41
1
10
75.2923386534005
20
0.0363561135145005
30
0
41
1
10
75.875850978654
20
-0.280515771343573
30
0
41
1
10
76.4598741249984
20
-0.597008343740214
30
0
0
SPLINE
5
F8
100
AcDbEntity
8
1
62
256
6
ByLayer
370
18
48
1
60
0
100
AcDbSpline
70
4
71
3
72
8
73
4
40
0
40
0
40
0
40
0
40
1
40
1
40
1
40
1
41
1
10
76.4598741249927
20
-0.597008343737883
30
0
41
1
10
76.4900548109729
20
-0.309510459651079
30
0
41
1
10
76.5261446486503
20
-0.0230207884169715
30
0
41
1
10
76.5695734436686
20
0.262261573816289
30
0
0
SPLINE
5
F9
100
AcDbEntity
8
1
62
256
6
ByLayer
370
18
48
1
60
0
100
AcDbSpline
70
4
71
3
72
52
73
48
40
0
40
0
40
0
40
0
40
0.0488543641488376
40
0.0488543641488376
40
0.0977087282976753
40
0.0977087282976753
40
0.146563092446513
40
0.146563092446513
40
0.195417456595351
40
0.195417456595351
40
0.244271820744188
40
0.244271820744188
40
0.293126184893026
40
0.293126184893026
40
0.341980549041863
40
0.341980549041863
40
0.390834913190701
40
0.390834913190701
40
0.41526209526512
40
0.41526209526512
40
0.439689277339538
40
0.439689277339538
40
0.488543641488375
40
0.488543641488375
40
0.537398005637211
40
0.537398005637211
40
0.586252369786046
40
0.586252369786046
40
0.635106733934881
40
0.635106733934881
40
0.683961098083717
40
0.683961098083717
40
0.732815462232552
40
0.732815462232552
40
0.781669826381388
40
0.781669826381388
40
0.830524190530223
40
0.830524190530223
40
0.879378554679059
40
0.879378554679059
40
0.928232918827894
40
0.928232918827894
40
0.952660100902311
40
0.952660100902311
40
0.977087282976728
40
0.977087282976728
40
1
40
1
40
1
40
1
41
1
10
6.92569181203845
20
-2.9910889200626
30
0
41
1
10
7.29277592118876
20
-3.16378180620598
30
0
41
1
10
7.65855029785791
20
-3.33179937116049
30
0
41
1
10
8.38805291348845
20
-3.65770622602616
30
0
41
1
10
8.75174947440692
20
-3.81564276594571
30
0
41
1
10
9.47783563062544
20
-4.12032722686936
30
0
41
1
10
9.84019087250138
20
-4.26712594144939
30
0
41
1
10
10.5644154279406
20
-4.54844175789066
30
0
41
1
10
10.9262900544296
20
-4.68296258423769
30
0
41
1
10
11.6499298887453
20
-4.93928387955984
30
0
41
1
10
12.0117077198274
20
-5.06106375042529
30
0
41
1
10
12.7357570452545
20
-5.2910867040361
30
0
41
1
10
13.098036662252
20
-5.39931160424794
30
0
41
1
10
13.8240938334734
20
-5.60103979442377
30
0
41
1
10
14.1877805370877
20
-5.69464647907054
30
0
41
1
10
14.9169624739374
20
-5.86669097277436
30
0
41
1
10
15.2824583525329
20
-5.94512474119594
30
0
41
1
10
15.8325615901451
20
-6.05075973454166
30
0
41
1
10
16.0156066481441
20
-6.08383899486842
30
0
41
1
10
16.3811791159358
20
-6.14567493151844
30
0
41
1
10
16.56370713721
20
-6.17443701295923
30
0
41
1
10
17.1105589951871
20
-6.25429902461008
30
0
41
1
10
17.4741579109919
20
-6.29897004721016
30
0
41
1
10
18.1999613303031
20
-6.37113018901732
30
0
41
1
10
18.5621381294071
20
-6.39862062321762
30
0
41
1
10
19.285863703053
20
-6.43629833829613
30
0
41
1
10
19.647510133297
20
-6.44648074118558
30
0
41
1
10
20.3707523770218
20
-6.44958301447684
30
0
41
1
10
20.7323488491523
20
-6.44249810509953
30
0
41
1
10
21.4560411284977
20
-6.41100832932435
30
0
41
1
10
21.8180994899492
20
-6.38658367625791
30
0
41
1
10
22.5436626059174
20
-6.32048640088354
30
0
41
1
10
22.9071562861664
20
-6.27882883594103
30
0
41
1
10
23.6359633858633
20
-6.17824435646958
30
0
41
1
10
24.001288831586
20
-6.11931787001521
30
0
41
1
10
24.7344007209827
20
-5.98417220407353
30
0
41
1
10
25.0996341705615
20
-5.90842292838289
30
0
41
1
10
25.8283283912097
20
-5.74167452809115
30
0
41
1
10
26.191724112744
20
-5.65060736234159
30
0
41
1
10
26.9171175561587
20
-5.45372288167906
30
0
41
1
10
27.2791142875169
20
-5.34790146467063
30
0
41
1
10
27.8215315359942
20
-5.17864840488511
30
0
41
1
10
28.0022491984326
20
-5.12048579958886
30
0
41
1
10
28.3636575295357
20
-5.00085474491425
30
0
41
1
10
28.5443435545404
20
-4.9393820857492
30
0
41
1
10
28.8945034110379
20
-4.81707377482746
30
0
41
1
10
29.0639793715691
20
-4.75643674760792
30
0
41
1
10
29.2334796181532
20
-4.69439349712675
30
0
0
SPLINE
5
FA
100
AcDbEntity
8
1
62
256
6
ByLayer
370
18
48
1
60
0
100
AcDbSpline
70
4
71
3
72
50
73
46
40
0
40
0
40
0
40
0
40
0.0021717362621667
40
0.0021717362621667
40
0.0608675164820389
40
0.0608675164820389
40
0.0755414615370073
40
0.0755414615370073
40
0.0902154065919754
40
0.119563296701912
40
0.119563296701912
40
0.178259076921786
40
0.178259076921786
40
0.295650637361534
40
0.295650637361534
40
0.324998527471471
40
0.324998527471471
40
0.354346417581408
40
0.354346417581408
40
0.41304219780128
40
0.41304219780128
40
0.471737978021152
40
0.471737978021152
40
0.530433758241024
40
0.530433758241024
40
0.545107703295992
40
0.545107703295992
40
0.559781648350959
40
0.589129538460896
40
0.589129538460896
40
0.647825318680769
40
0.647825318680769
40
0.706521098900641
40
0.706521098900641
40
0.765216879120513
40
0.765216879120513
40
0.823912659340385
40
0.823912659340385
40
0.882608439560257
40
0.882608439560257
40
0.941304219780129
40
0.941304219780129
40
0.970652109890065
40
0.970652109890065
40
1
40
1
40
1
40
1
41
1
10
58.0572474019718
20
6.51658880573331
30
0
41
1
10
58.0706871478182
20
6.51661328245311
30
0
41
1
10
58.0841282380589
20
6.5166256698364
30
0
41
1
10
58.4608817010497
20
6.51663379783361
30
0
41
1
10
58.8251985873693
20
6.5078218946729
30
0
41
1
10
59.2821265643414
20
6.48561784935907
30
0
41
1
10
59.373633566103
20
6.48061419829409
30
0
41
1
10
59.5564081248088
20
6.46950906142555
30
0
41
1
10
59.8303247507049
20
6.45120089587732
30
0
41
1
10
60.1035447835263
20
6.42797231328498
30
0
41
1
10
60.6491709513196
20
6.37503693764296
30
0
41
1
10
61.0118306747669
20
6.33109656766212
30
0
41
1
10
62.0980693027927
20
6.17437254359973
30
0
41
1
10
62.8195470247585
20
6.03656767968451
30
0
41
1
10
63.7207852112237
20
5.82484615323048
30
0
41
1
10
63.9010097514572
20
5.78053190588292
30
0
41
1
10
64.2615677590067
20
5.68809999458998
30
0
41
1
10
64.4418999766242
20
5.63998275728054
30
0
41
1
10
64.9831038495281
20
5.48997063795252
30
0
41
1
10
65.3441877136046
20
5.382420212677
30
0
41
1
10
66.0674530689662
20
5.15266539303815
30
0
41
1
10
66.4296127761221
20
5.03043091907571
30
0
41
1
10
67.1557405645524
20
4.77191423781397
30
0
41
1
10
67.5198160466847
20
4.63577844233794
30
0
41
1
10
67.9764858819388
20
4.45727689119747
30
0
41
1
10
68.0679462498914
20
4.42114024595691
30
0
41
1
10
68.2506340547064
20
4.34820044361064
30
0
41
1
10
68.5244161303326
20
4.23775194631779
30
0
41
1
10
68.7974931257876
20
4.12426247566654
30
0
41
1
10
69.3428153958949
20
3.89341544724814
30
0
41
1
10
69.7052116113601
20
3.73428924067054
30
0
41
1
10
70.4286931381593
20
3.40724237549472
30
0
41
1
10
70.7897930917751
20
3.23935154768961
30
0
41
1
10
71.5111324896668
20
2.89559747459546
30
0
41
1
10
71.8713828634477
20
2.71975104202002
30
0
41
1
10
72.5915993636228
20
2.36107554763555
30
0
41
1
10
72.9515504501079
20
2.17821538023028
30
0
41
1
10
73.6721588737609
20
1.80725619638335
30
0
41
1
10
74.0327437658981
20
1.61903192861186
30
0
41
1
10
74.7549679580851
20
1.23795450528021
30
0
41
1
10
75.1166101222033
20
1.04510580989373
30
0
41
1
10
75.6603145667131
20
0.75313960709272
30
0
41
1
10
75.8417575943885
20
0.655370696582366
30
0
41
1
10
76.2052203803028
20
0.459238982850508
30
0
41
1
10
76.3872420181561
20
0.360880584437695
30
0
41
1
10
76.5695734436686
20
0.26226157381646
30
0
0
SPLINE
5
FB
100
AcDbEntity
8
1
62
256
6
ByLayer
370
18
48
1
60
0
100
AcDbSpline
70
4
71
3
72
22
73
18
40
0
40
0
40
0
40
0
40
0.250000000000006
40
0.250000000000006
40
0.37500000000001
40
0.37500000000001
40
0.43750000000001
40
0.43750000000001
40
0.468750000000011
40
0.468750000000011
40
0.500000000000011
40
0.500000000000011
40
0.625000000000009
40
0.625000000000009
40
0.750000000000006
40
0.750000000000006
40
1
40
1
40
1
40
1
41
1
10
20.0999973065043
20
-0.488637852993065
30
0
41
1
10
19.3718710404347
20
-0.10190749536028
30
0
41
1
10
18.6431465505115
20
0.287219664171033
30
0
41
1
10
17.5455689807928
20
0.86762056275353
30
0
41
1
10
17.1790011658369
20
1.06061781338079
30
0
41
1
10
16.6274671571997
20
1.34821621510369
30
0
41
1
10
16.4433407535833
20
1.4437632963656
30
0
41
1
10
16.1666676124295
20
1.58648800822624
30
0
41
1
10
16.0743215627456
20
1.63398462896021
30
0
41
1
10
15.8896792351076
20
1.72864808979111
30
0
41
1
10
15.7974006102023
20
1.77580627298062
30
0
41
1
10
15.3361969719001
20
2.01069013457152
30
0
41
1
10
14.9678284984327
20
2.19567356444841
30
0
41
1
10
14.2317031848939
20
2.55880910666264
30
0
41
1
10
13.8639565725897
20
2.73697557801898
30
0
41
1
10
12.7603704494795
20
3.2590651214029
30
0
41
1
10
12.0242512052398
20
3.59071465885194
30
0
41
1
10
11.2853976394362
20
3.90198238276019
30
0
0
SPLINE
5
FC
100
AcDbEntity
8
1
62
256
6
ByLayer
370
18
48
1
60
0
100
AcDbSpline
70
4
71
3
72
46
73
42
40
0
40
0
40
0
40
0
40
0.0240778189787712
40
0.0240778189787712
40
0.0481556379575424
40
0.0481556379575424
40
0.0963112759150848
40
0.0963112759150848
40
0.192622551830168
40
0.192622551830168
40
0.216700370808938
40
0.216700370808938
40
0.240778189787709
40
0.288933827745248
40
0.337089465702786
40
0.337089465702786
40
0.361167284681557
40
0.361167284681557
40
0.385245103660327
40
0.385245103660327
40
0.481556379575407
40
0.481556379575407
40
0.529712017532946
40
0.553789836511715
40
0.553789836511715
40
0.577867655490483
40
0.577867655490483
40
0.674178931405561
40
0.674178931405561
40
0.722334569363101
40
0.722334569363101
40
0.746412388341871
40
0.746412388341871
40
0.770490207320641
40
0.963112759150799
40
0.963112759150799
40
0.975151668640185
40
0.975151668640185
40
0.987190578129571
40
0.987190578129571
40
1
40
1
40
1
40
1
41
1
10
20.099997306515
20
-0.382659594736026
30
0
41
1
10
20.2475046899053
20
-0.460977956712668
30
0
41
1
10
20.3950462375098
20
-0.539247537483192
30
0
41
1
10
20.6899513233303
20
-0.695436517809213
30
0
41
1
10
20.8373295678281
20
-0.77336375300581
30
0
41
1
10
21.2793207720638
20
-1.00649657460374
30
0
41
1
10
21.5738012145025
20
-1.16103269889857
30
0
41
1
10
22.4572064820041
20
-1.6210579875162
30
0
41
1
10
23.0460562175101
20
-1.92303754588627
30
0
41
1
10
23.7835790368693
20
-2.29174016171638
30
0
41
1
10
23.9310846924123
20
-2.36500367155892
30
0
41
1
10
24.2258829427869
20
-2.51037490883206
30
0
41
1
10
24.667878107847
20
-2.72675628785848
30
0
41
1
10
25.4038521780322
20
-3.07846051257531
30
0
41
1
10
25.9926369618683
20
-3.34906374595676
30
0
41
1
10
26.4345185564146
20
-3.54750273685627
30
0
41
1
10
26.5818607287259
20
-3.61289787125367
30
0
41
1
10
26.8766792403619
20
-3.74212409110049
30
0
41
1
10
27.024207962978
20
-3.8059774119738
30
0
41
1
10
27.7615800480626
20
-4.12087515247248
30
0
41
1
10
28.3502481838662
20
-4.35868642467437
30
0
41
1
10
29.2333571708821
20
-4.69154014698387
30
0
41
1
10
29.6749407554228
20
-4.85199723028214
30
0
41
1
10
30.1169562625227
20
-5.002965093364
30
0
41
1
10
30.4117739261993
20
-5.10144102627316
30
0
41
1
10
30.5592419098818
20
-5.14958961878202
30
0
41
1
10
31.2959599636398
20
-5.38442423912997
30
0
41
1
10
31.8842062017969
20
-5.55366840516021
30
0
41
1
10
32.7670551012827
20
-5.77749504887649
30
0
41
1
10
33.0614181288756
20
-5.84709906935854
30
0
41
1
10
33.5033523436969
20
-5.94375235691436
30
0
41
1
10
33.6507669939144
20
-5.97468586761562
30
0
41
1
10
33.9455941325654
20
-6.03389849952816
30
0
41
1
10
35.2714008463243
20
-6.28823843498515
30
0
41
1
10
36.5905739521118
20
-6.43275268203999
30
0
41
1
10
37.8423578460012
20
-6.47229674680227
30
0
41
1
10
37.9160140520678
20
-6.47426660351701
30
0
41
1
10
38.0633757118008
20
-6.47749173731225
30
0
41
1
10
38.1370773110188
20
-6.47874660387319
30
0
41
1
10
38.2890385019107
20
-6.4805960014443
30
0
41
1
10
38.3673173599377
20
-6.48114386419095
30
0
41
1
10
38.4455417995455
20
-6.48128778882349
30
0
0
SPLINE
5
FD
100
AcDbEntity
8
1
62
256
6
ByLayer
370
18
48
1
60
0
100
AcDbSpline
70
4
71
3
72
27
73
23
40
0
40
0
40
0
40
0
40
0.0426041301111712
40
0.0426041301111712
40
0.0904739236056121
40
0.0904739236056121
40
0.138343717100054
40
0.138343717100054
40
0.234083304088936
40
0.329822891077819
40
0.329822891077819
40
0.425562478066702
40
0.425562478066702
40
0.617041652044463
40
0.617041652044463
40
0.664911445538906
40
0.664911445538906
40
0.712781239033348
40
0.712781239033348
40
0.808520826022232
40
0.808520826022232
40
1
40
1
40
1
40
1
41
1
10
67.3022563337299
20
4.71538726255241
30
0
41
1
10
67.4328997954759
20
4.76421391884415
30
0
41
1
10
67.5635857112503
20
4.81224665301298
30
0
41
1
10
67.8412306029816
20
4.91251859133956
30
0
41
1
10
67.988205373442
20
4.96454278756306
30
0
41
1
10
68.282344666595
20
5.06646878663142
30
0
41
1
10
68.4294774824225
20
5.11635868565764
30
0
41
1
10
68.8706082061019
20
5.26255173206917
30
0
41
1
10
69.4584590913174
20
5.44834100218691
30
0
41
1
10
70.0463934100424
20
5.61507404613056
30
0
41
1
10
70.6347361315534
20
5.77189664030322
30
0
41
1
10
70.9286513436119
20
5.84522834028485
30
0
41
1
10
71.8098538979849
20
6.04951709853432
30
0
41
1
10
72.396754125887
20
6.16479465349116
30
0
41
1
10
73.1313132542462
20
6.28162742938164
30
0
41
1
10
73.27827087253
20
6.30363113154505
30
0
41
1
10
73.5723190045623
20
6.34488379507337
30
0
41
1
10
73.7194381972441
20
6.36413524857943
30
0
41
1
10
74.1604283705735
20
6.41764192734982
30
0
41
1
10
74.4541258132762
20
6.44767889776395
30
0
41
1
10
75.3348569447852
20
6.52074976499949
30
0
41
1
10
75.9215287110889
20
6.54673636508468
30
0
41
1
10
76.5091618323652
20
6.54968577990644
30
0
0
SPLINE
5
FE
100
AcDbEntity
8
1
62
256
6
ByLayer
370
18
48
1
60
0
100
AcDbSpline
70
4
71
3
72
115
73
111
40
0
40
0
40
0
40
0
40
0.0624999999999398
40
0.0624999999999398
40
0.12499999999988
40
0.12499999999988
40
0.140624999999865
40
0.140624999999865
40
0.15624999999985
40
0.18749999999982
40
0.18749999999982
40
0.249999999999759
40
0.249999999999759
40
0.28124999999973
40
0.28124999999973
40
0.3124999999997
40
0.3124999999997
40
0.316406249999696
40
0.318359374999695
40
0.318359374999695
40
0.320312499999693
40
0.320312499999693
40
0.322265624999691
40
0.322265624999691
40
0.323242187499691
40
0.323242187499691
40
0.32421874999969
40
0.32421874999969
40
0.32519531249969
40
0.32519531249969
40
0.326171874999689
40
0.326171874999689
40
0.32666015624969
40
0.32666015624969
40
0.32714843749969
40
0.32714843749969
40
0.32812499999969
40
0.343749999999698
40
0.343749999999698
40
0.374999999999714
40
0.374999999999714
40
0.390624999999722
40
0.390624999999722
40
0.40624999999973
40
0.40624999999973
40
0.437499999999745
40
0.437499999999745
40
0.468749999999761
40
0.468749999999761
40
0.484374999999769
40
0.484374999999769
40
0.492187499999773
40
0.492187499999773
40
0.499999999999777
40
0.499999999999777
40
0.531249999999794
40
0.531249999999794
40
0.546874999999803
40
0.546874999999803
40
0.562499999999811
40
0.562499999999811
40
0.578124999999819
40
0.578124999999819
40
0.593749999999827
40
0.593749999999827
40
0.59765624999983
40
0.59765624999983
40
0.601562499999832
40
0.609374999999836
40
0.624999999999844
40
0.640624999999852
40
0.640624999999852
40
0.644531249999854
40
0.644531249999854
40
0.648437499999856
40
0.648437499999856
40
0.65624999999986
40
0.65624999999986
40
0.671874999999868
40
0.671874999999868
40
0.687499999999877
40
0.687499999999877
40
0.691406249999879
40
0.691406249999879
40
0.695312499999881
40
0.703124999999884
40
0.703124999999884
40
0.718749999999891
40
0.718749999999891
40
0.749999999999904
40
0.749999999999904
40
0.757812499999907
40
0.757812499999907
40
0.76562499999991
40
0.76562499999991
40
0.781249999999916
40
0.781249999999916
40
0.812499999999929
40
0.812499999999929
40
0.843749999999942
40
0.843749999999942
40
0.874999999999955
40
0.874999999999955
40
0.890624999999961
40
0.890624999999961
40
0.906249999999967
40
0.906249999999967
40
0.937499999999978
40
0.937499999999978
40
1
40
1
40
1
40
1
41
1
10
11.2853960217851
20
3.90198293523619
30
0
41
1
10
10.9262799360597
20
4.05329681610161
30
0
41
1
10
10.564778339875
20
4.19489177988103
30
0
41
1
10
9.83511903741353
20
4.45783783441891
30
0
41
1
10
9.46696518492979
20
4.57919879775005
30
0
41
1
10
9.00156809918846
20
4.71822576736054
30
0
41
1
10
8.90822190529966
20
4.74540169611498
30
0
41
1
10
8.72117726836311
20
4.79844286570463
30
0
41
1
10
8.44001206687969
20
4.87605798029861
30
0
41
1
10
8.15696945266612
20
4.94790488245033
30
0
41
1
10
7.58819492292267
20
5.08416641982444
30
0
41
1
10
7.20541585474766
20
5.16508372240364
30
0
41
1
10
6.62523867476216
20
5.27281999142267
30
0
41
1
10
6.43082441178714
20
5.30646412644785
30
0
41
1
10
6.04047318114127
20
5.36936236079643
30
0
41
1
10
5.84447522880362
20
5.39862831969421
30
0
41
1
10
5.62312642510418
20
5.42922896140743
30
0
41
1
10
5.58621638474449
20
5.43428077698812
30
0
41
1
10
5.54928029780049
20
5.43926050447237
30
0
41
1
10
5.5246504105325
20
5.44256431805934
30
0
41
1
10
5.51234237328694
20
5.44423985678742
30
0
41
1
10
5.48767891516363
20
5.44743919288575
30
0
41
1
10
5.47519969494633
20
5.44857585953301
30
0
41
1
10
5.45610800008566
20
5.44911672489718
30
0
41
1
10
5.44971231090088
20
5.44910956974527
30
0
41
1
10
5.43709840396858
20
5.44870828129558
30
0
41
1
10
5.43084651106787
20
5.44831357916905
30
0
41
1
10
5.41846975820371
20
5.44707573912993
30
0
41
1
10
5.41234449352223
20
5.4462340689831
30
0
41
1
10
5.40026816030033
20
5.44393402909057
30
0
41
1
10
5.39441388759101
20
5.44249505327969
30
0
41
1
10
5.38604828014851
20
5.43996153620722
30
0
41
1
10
5.38332263921657
20
5.43904963533967
30
0
41
1
10
5.37788669580098
20
5.43721473872941
30
0
41
1
10
5.37517096169168
20
5.43629482783408
30
0
41
1
10
5.36702274228261
20
5.43353419892856
30
0
41
1
10
5.27470916727006
20
5.40218036734459
30
0
41
1
10
5.18294915813391
20
5.36967609864234
30
0
41
1
10
4.92559642903947
20
5.27465508466793
30
0
41
1
10
4.75633874397934
20
5.20700142003616
30
0
41
1
10
4.50645403302767
20
5.0978852753245
30
0
41
1
10
4.42394988679516
20
5.06028859806642
30
0
41
1
10
4.26085534988286
20
4.9825414021762
30
0
41
1
10
4.18023186442784
20
4.94237680588458
30
0
41
1
10
3.94134907419334
20
4.81766746739794
30
0
41
1
10
3.786059731846
20
4.7289346317921
30
0
41
1
10
3.48491872237705
20
4.53791375957002
30
0
41
1
10
3.3390527542679
20
4.43564759210773
30
0
41
1
10
3.12900377883545
20
4.26947391100148
30
0
41
1
10
3.06045264717025
20
4.21194304104324
30
0
41
1
10
2.96012339263521
20
4.12197216966706
30
0
41
1
10
2.92706235280929
20
4.09133237288177
30
0
41
1
10
2.86218880147277
20
4.02908048690276
30
0
41
1
10
2.83033987511902
20
3.99743791161023
30
0
41
1
10
2.67417798750736
20
3.8365070803257
30
0
41
1
10
2.55902439652425
20
3.69914574053675
30
0
41
1
10
2.40465109337276
20
3.47673741960634
30
0
41
1
10
2.35626920069865
20
3.39985870300504
30
0
41
1
10
2.26656218716613
20
3.23977954204128
30
0
41
1
10
2.22584866954639
20
3.15764737086317
30
0
41
1
10
2.15337545518986
20
2.98903088731052
30
0
41
1
10
2.1216009302394
20
2.90252334977978
30
0
41
1
10
2.06772404901503
20
2.72472328271158
30
0
41
1
10
2.04561958358477
20
2.63343177738662
30
0
41
1
10
2.02462841683081
20
2.51602371139739
30
0
41
1
10
2.02075708792557
20
2.49233501941927
30
0
41
1
10
2.01373606183429
20
2.44489756547529
30
0
41
1
10
2.00427709669935
20
2.37362077181487
30
0
41
1
10
1.98967176337479
20
2.20646760889059
30
0
41
1
10
1.98991939731749
20
1.96529446051053
30
0
41
1
10
2.01236872532567
20
1.76983964119046
30
0
41
1
10
2.03333423566858
20
1.64689699395018
30
0
41
1
10
2.03787432016645
20
1.62226927622595
30
0
41
1
10
2.04764897422939
20
1.57293546249369
30
0
41
1
10
2.05288339130104
20
1.54823706047151
30
0
41
1
10
2.06951293872061
20
1.47449999014671
30
0
41
1
10
2.08186424770665
20
1.42565971186787
30
0
41
1
10
2.12251915375228
20
1.28004408966564
30
0
41
1
10
2.15441741134387
20
1.18417233914536
30
0
41
1
10
2.22694732831056
20
0.994628435524788
30
0
41
1
10
2.26758081562022
20
0.900956751166603
30
0
41
1
10
2.32341173747326
20
0.785139726580098
30
0
41
1
10
2.33484353450407
20
0.762014352509425
30
0
41
1
10
2.35811516666391
20
0.716059447465398
30
0
41
1
10
2.39364319148083
20
0.647549122076725
30
0
41
1
10
2.43096270679709
20
0.580257203427266
30
0
41
1
10
2.50782640553231
20
0.447186585860948
30
0
41
1
10
2.56202949788289
20
0.36048666268573
30
0
41
1
10
2.73245331276144
20
0.105703992598222
30
0
41
1
10
2.85643807709698
20
-0.0570959696790965
30
0
41
1
10
3.02190908201746
20
-0.253452958588099
30
0
41
1
10
3.05553202726659
20
-0.292364325547965
30
0
41
1
10
3.12378865303489
20
-0.369498688094495
30
0
41
1
10
3.15846193787249
20
-0.407762907823553
30
0
41
1
10
3.26342308745021
20
-0.521022868067405
30
0
41
1
10
3.33476741135445
20
-0.594630345978572
30
0
41
1
10
3.55244221753173
20
-0.81041578659358
30
0
41
1
10
3.70239328188023
20
-0.94758657515095
30
0
41
1
10
4.0101741626016
20
-1.21108241937415
30
0
41
1
10
4.16801456501847
20
-1.33739263683321
30
0
41
1
10
4.49038297731062
20
-1.58085320577001
30
0
41
1
10
4.65491644170075
20
-1.69799590776282
30
0
41
1
10
4.90609029952935
20
-1.86775155936238
30
0
41
1
10
4.99054604018252
20
-1.92334065081639
30
0
41
1
10
5.16083330691208
20
-2.03264962593371
30
0
41
1
10
5.2465185159254
20
-2.08627479682261
30
0
41
1
10
5.50482888390516
20
-2.24411287824205
30
0
41
1
10
5.67882276968086
20
-2.3453717305924
30
0
41
1
10
6.20555856855626
20
-2.63872395500334
30
0
41
1
10
6.56302590584963
20
-2.82046166111061
30
0
41
1
10
6.92569386818892
20
-2.9910884232979
30
0
0
SPLINE
5
FF
100
AcDbEntity
8
1
62
256
6
ByLayer
370
18
48
1
60
0
100
AcDbSpline
70
4
71
3
72
132
73
128
40
0
40
0
40
0
40
0
40
0.0024842619775821
40
0.018868228920463
40
0.0352521958633438
40
0.0516361628062246
40
0.0598281462776649
40
0.0680201297491053
40
0.0762121132205456
40
0.0844040966919862
40
0.0885000884277065
40
0.0925960801634266
40
0.0966920718991468
40
0.100788063634867
40
0.104884055370587
40
0.108980047106307
40
0.111028042974168
40
0.113076038842027
40
0.114100036775957
40
0.115124034709888
40
0.116148032643818
40
0.117172030577748
40
0.118196028511678
40
0.118708027478643
40
0.118964026962125
40
0.119220026445608
40
0.11947602592909
40
0.119604025670832
40
0.119732025412573
40
0.119796025283443
40
0.119860025154314
40
0.119988024896055
40
0.120244024379538
40
0.120756023346503
40
0.121268022313468
40
0.121780021280433
40
0.122292020247398
40
0.123316018181328
40
0.125364014049188
40
0.127412009917048
40
0.129460005784908
40
0.131508001652768
40
0.133555997520628
40
0.137651989256349
40
0.141747980992069
40
0.145843972727789
40
0.149939964463509
40
0.15813194793495
40
0.16632393140639
40
0.182707898349271
40
0.199091865292152
40
0.215475832235033
40
0.231859799177913
40
0.248243766120794
40
0.264627733063675
40
0.281011700006556
40
0.313779633892317
40
0.346547567778079
40
0.36293153472096
40
0.37931550166384
40
0.395699468606721
40
0.412083435549602
40
0.428467402492483
40
0.444851369435364
40
0.453043352906804
40
0.461235336378244
40
0.469427319849685
40
0.477619303321125
40
0.485811286792566
40
0.489907278528286
40
0.494003270264006
40
0.498099261999726
40
0.502195253735446
40
0.506291245471167
40
0.508339241339027
40
0.510387237206887
40
0.512435233074747
40
0.514483228942607
40
0.515507226876537
40
0.516531224810467
40
0.517555222744397
40
0.518579220678327
40
0.519091219645292
40
0.519603218612257
40
0.51985921809574
40
0.520115217579222
40
0.520371217062705
40
0.520627216546187
40
0.520755216287929
40
0.520819216158799
40
0.52088321602967
40
0.52094721590054
40
0.521011215771411
40
0.521139215513152
40
0.521395214996635
40
0.521651214480117
40
0.522163213447082
40
0.522675212414047
40
0.523699210347977
40
0.524723208281907
40
0.525747206215837
40
0.526771204149767
40
0.528819200017628
40
0.530867195885488
40
0.532915191753348
40
0.534963187621208
40
0.539059179356928
40
0.543155171092648
40
0.551347154564089
40
0.559539138035529
40
0.567731121506969
40
0.57592310497841
40
0.58411508844985
40
0.592307071921291
40
0.608691038864171
40
0.625075005807052
40
0.641458972749933
40
0.657842939692814
40
0.674226906635695
40
0.706994840521456
40
0.739762774407218
40
0.772530708292979
40
0.805298642178741
40
0.838066576064503
40
0.903602443836026
40
0.969138311607549
40
1
40
1
40
1
40
1
41
1
10
11.2853976394376
20
3.90198238276102
30
0
41
1
10
11.2790142598757
20
3.89823060614299
30
0
41
1
10
11.230052042603
20
3.86914788251133
30
0
41
1
10
11.132317284703
20
3.80612255869411
30
0
41
1
10
10.9836517204558
20
3.69519039725716
30
0
41
1
10
10.8540740682961
20
3.58410510041858
30
0
41
1
10
10.747421388311
20
3.48349408501218
30
0
41
1
10
10.6635316635648
20
3.40367658712495
30
0
41
1
10
10.5766184217993
20
3.31897197225612
30
0
41
1
10
10.5017960074931
20
3.24422910587526
30
0
41
1
10
10.4407032939702
20
3.18179521230715
30
0
41
1
10
10.394149817505
20
3.1337235472291
30
0
41
1
10
10.3468419443228
20
3.08436676123802
30
0
41
1
10
10.2989270659013
20
3.03380610641912
30
0
41
1
10
10.2504796431661
20
2.98206755523765
30
0
41
1
10
10.2096817399842
20
2.93794450658822
30
0
41
1
10
10.1768054611818
20
2.90203338251655
30
0
41
1
10
10.1561617772315
20
2.8793316034249
30
0
41
1
10
10.1395905253046
20
2.86101391717582
30
0
41
1
10
10.1271360692454
20
2.84719913692914
30
0
41
1
10
10.1146567503707
20
2.83330808139061
30
0
41
1
10
10.102152214343
20
2.81934052327958
30
0
41
1
10
10.0917132250378
20
2.80763628160199
30
0
41
1
10
10.0843923293152
20
2.79941054554146
30
0
41
1
10
10.0802111030131
20
2.79469898121886
30
0
41
1
10
10.0770596259372
20
2.79116489602234
30
0
41
1
10
10.0744771826796
20
2.78820181810886
30
0
41
1
10
10.0723096301716
20
2.78586035154436
30
0
41
1
10
10.071184349153
20
2.78432443260903
30
0
41
1
10
10.0697578111473
20
2.78325884892598
30
0
41
1
10
10.0702521497289
20
2.78159491593033
30
0
41
1
10
10.0736145629911
20
2.77932880419891
30
0
41
1
10
10.0795241278507
20
2.77493290875415
30
0
41
1
10
10.0888467980698
20
2.76897584762324
30
0
41
1
10
10.0998682342836
20
2.76189405746717
30
0
41
1
10
10.1110221370197
20
2.75488375926744
30
0
41
1
10
10.1259142195628
20
2.74558035523828
30
0
41
1
10
10.1520696583368
20
2.72938660977371
30
0
41
1
10
10.1895451227087
20
2.70637198655496
30
0
41
1
10
10.234600935205
20
2.6788347849309
30
0
41
1
10
10.2797084535823
20
2.65134409272784
30
0
41
1
10
10.324850937015
20
2.62388189750863
30
0
41
1
10
10.385075941613
20
2.58729018684318
30
0
41
1
10
10.4604080767696
20
2.54157994344303
30
0
41
1
10
10.5508608228132
20
2.48674383193111
30
0
41
1
10
10.6413479352412
20
2.43190042049241
30
0
41
1
10
10.762026483495
20
2.35875136642309
30
0
41
1
10
10.9129124534586
20
2.26724735414365
30
0
41
1
10
11.1543626181924
20
2.12064312729362
30
0
41
1
10
11.4562039950235
20
1.93694173817494
30
0
41
1
10
11.818320278613
20
1.71588054067252
30
0
41
1
10
12.1803509739188
20
1.49420121789808
30
0
41
1
10
12.5422787681746
20
1.27188332580633
30
0
41
1
10
12.9040885029637
20
1.04890446704024
30
0
41
1
10
13.2657631957998
20
0.825238966115307
30
0
41
1
10
13.747803916478
20
0.526081827992186
30
0
41
1
10
14.3500421067779
20
0.150444664834197
30
0
41
1
10
14.951947208831
20
-0.227326604826601
30
0
41
1
10
15.4332979606068
20
-0.530784548995342
30
0
41
1
10
15.7942401330329
20
-0.758973868265969
30
0
41
1
10
16.1551320556523
20
-0.987725385374119
30
0
41
1
10
16.5159812111921
20
-1.21702592905734
30
0
41
1
10
16.8767596129981
20
-1.44691730099413
30
0
41
1
10
17.1773319935079
20
-1.63902092593861
30
0
41
1
10
17.4176450534351
20
-1.7929991361938
30
0
41
1
10
17.5978136597484
20
-1.9086392059823
30
0
41
1
10
17.7779131755138
20
-2.02443544619953
30
0
41
1
10
17.9579422017949
20
-2.14039155820026
30
0
41
1
10
18.1079082653212
20
-2.23715370854981
30
0
41
1
10
18.2278362724846
20
-2.31465871674982
30
0
41
1
10
18.3177548357062
20
-2.37284314252423
30
0
41
1
10
18.4076400799932
20
-2.43109287953124
30
0
41
1
10
18.4974825268523
20
-2.48942263645875
30
0
41
1
10
18.5723005075699
20
-2.53811487521514
30
0
41
1
10
18.6321099474284
20
-2.57714268518194
30
0
41
1
10
18.6769374961644
20
-2.6064614683375
30
0
41
1
10
18.7217241146163
20
-2.63584615609295
30
0
41
1
10
18.758999535594
20
-2.66040794349749
30
0
41
1
10
18.7887761533451
20
-2.68012719751209
30
0
41
1
10
18.8110785696815
20
-2.69496309867435
30
0
41
1
10
18.8333362090059
20
-2.70986607374451
30
0
41
1
10
18.8518281398043
20
-2.72237072995307
30
0
41
1
10
18.866557795989
20
-2.73246877207296
30
0
41
1
10
18.8757268661903
20
-2.73884005403346
30
0
41
1
10
18.8830139607177
20
-2.74399895660253
30
0
41
1
10
18.8884586217345
20
-2.74791167850054
30
0
41
1
10
18.8938047110643
20
-2.75190047880361
30
0
41
1
10
18.8983218019366
20
-2.75532329646299
30
0
41
1
10
18.9010686228566
20
-2.75790926654102
30
0
41
1
10
18.9028956424183
20
-2.75952466460822
30
0
41
1
10
18.9026564547456
20
-2.76113294073184
30
0
41
1
10
18.9006680373474
20
-2.76089196396629
30
0
41
1
10
18.8986043450944
20
-2.76110464767507
30
0
41
1
10
18.8947192100855
20
-2.76122802912113
30
0
41
1
10
18.8893118977877
20
-2.76153395278993
30
0
41
1
10
18.8805805581065
20
-2.76195061595587
30
0
41
1
10
18.8696940187339
20
-2.76249575802828
30
0
41
1
10
18.8522609441007
20
-2.76335298795155
30
0
41
1
10
18.8304760833669
20
-2.76442719524459
30
0
41
1
10
18.8043339863785
20
-2.76571085260255
30
0
41
1
10
18.7781944945501
20
-2.7669917051916
30
0
41
1
10
18.7433443044324
20
-2.76869484889409
30
0
41
1
10
18.6997866532644
20
-2.77081546388814
30
0
41
1
10
18.6475254637494
20
-2.77334676186723
30
0
41
1
10
18.5952723010309
20
-2.77586465185775
30
0
41
1
10
18.525612116321
20
-2.77920394314739
30
0
41
1
10
18.438556861346
20
-2.78334450422349
30
0
41
1
10
18.2993116157195
20
-2.78989775337493
30
0
41
1
10
18.1253375632257
20
-2.79795482748344
30
0
41
1
10
17.9167003011022
20
-2.80740792007333
30
0
41
1
10
17.7081940067111
20
-2.81664540478974
30
0
41
1
10
17.4998210106781
20
-2.82566693306506
30
0
41
1
10
17.2915929339376
20
-2.83447177924208
30
0
41
1
10
17.0141450029319
20
-2.84592253960025
30
0
41
1
10
16.667691763897
20
-2.85969344096256
30
0
41
1
10
16.252517034802
20
-2.87534869698135
30
0
41
1
10
15.8379109863558
20
-2.89013227950318
30
0
41
1
10
15.4238717168287
20
-2.90404230621627
30
0
41
1
10
14.8725790410429
20
-2.92142156800526
30
0
41
1
10
14.1848503442636
20
-2.94095219965624
30
0
41
1
10
13.3623151931943
20
-2.96085062714039
30
0
41
1
10
12.5424477864247
20
-2.97720066833074
30
0
41
1
10
11.7252561552245
20
-2.98998867895122
30
0
41
1
10
10.6392161086288
20
-3.00227103621324
30
0
41
1
10
9.28831872044114
20
-3.008649858647
30
0
41
1
10
7.96180218634825
20
-3.00301086292137
30
0
41
1
10
7.17661736228561
20
-2.9943898902645
30
0
41
1
10
6.9256918120204
20
-2.99108892006078
30
0
0
SPLINE
5
100
100
AcDbEntity
8
SK1
62
256
6
ByLayer
370
18
48
1
60
0
100
AcDbSpline
70
4
71
3
72
8
73
4
40
0
40
0
40
0
40
0
40
1
40
1
40
1
40
1
41
1
10
-44
20
1.10952874029718
30
0
41
1
10
-44.3340982508957
20
1.117604434128
30
0
41
1
10
-44.6675872329322
20
1.12569392272681
30
0
41
1
10
-45
20
1.13380777845941
30
0
0
SPLINE
5
101
100
AcDbEntity
8
SK1
62
256
6
ByLayer
370
18
48
1
60
0
100
AcDbSpline
70
4
71
3
72
22
73
18
40
0
40
0
40
0
40
0
40
0.0624999999999989
40
0.0624999999999989
40
0.124999999999998
40
0.124999999999998
40
0.187499999999997
40
0.187499999999997
40
0.249999999999996
40
0.249999999999996
40
0.374999999999994
40
0.374999999999994
40
0.499999999999992
40
0.499999999999992
40
0.749999999999996
40
0.749999999999996
40
1
40
1
40
1
40
1
41
1
10
-43.9
20
1.00667027959187
30
0
41
1
10
-43.9
20
1.01083761442018
30
0
41
1
10
-43.9002571469355
20
1.0149417613184
30
0
41
1
10
-43.9012483835253
20
1.02303277705633
30
0
41
1
10
-43.9019843556157
20
1.02700004398901
30
0
41
1
10
-43.9038359680824
20
1.03458349341059
30
0
41
1
10
-43.9049554933943
20
1.03823363503557
30
0
41
1
10
-43.9075371366113
20
1.04528363609964
30
0
41
1
10
-43.9090098712764
20
1.04870286205295
30
0
41
1
10
-43.9138180081128
20
1.05844771345272
30
0
41
1
10
-43.9175198606348
20
1.06426425190196
30
0
41
1
10
-43.9257005361925
20
1.07483641234424
30
0
41
1
10
-43.9302200865512
20
1.07961233018872
30
0
41
1
10
-43.9443936613409
20
1.09215088869624
30
0
41
1
10
-43.9547464093512
20
1.09833634930678
30
0
41
1
10
-43.9768690024478
20
1.10695769419084
30
0
41
1
10
-43.9882652984639
20
1.10924509362576
30
0
41
1
10
-44
20
1.10952874029718
30
0
0
SPLINE
5
102
100
AcDbEntity
8
SK1
62
256
6
ByLayer
370
18
48
1
60
0
100
AcDbSpline
70
4
71
3
72
20
73
16
40
0
40
0
40
0
40
0
40
0.25
40
0.25
40
0.375
40
0.375
40
0.5
40
0.5
40
0.625
40
0.625
40
0.75
40
0.75
40
0.875
40
0.875
40
1
40
1
40
1
40
1
41
1
10
-44
20
-1.38977195352902
30
0
41
1
10
-43.9882624499766
20
-1.390055669053
30
0
41
1
10
-43.9768728652908
20
-1.38833794235973
30
0
41
1
10
-43.9603029144173
20
-1.38274437655198
30
0
41
1
10
-43.9549192380518
20
-1.38037621533238
30
0
41
1
10
-43.9446385503254
20
-1.37468475064068
30
0
41
1
10
-43.939710400316
20
-1.3713528172573
30
0
41
1
10
-43.9303270310238
20
-1.36359842805302
30
0
41
1
10
-43.9258537171355
20
-1.35915995132785
30
0
41
1
10
-43.9175707048936
20
-1.34898996759861
30
0
41
1
10
-43.9138512313552
20
-1.3433779590307
30
0
41
1
10
-43.9074484414431
20
-1.3308559062184
30
0
41
1
10
-43.904769301989
20
-1.32389805803953
30
0
41
1
10
-43.9010616930766
20
-1.30904438642705
30
0
41
1
10
-43.9
20
-1.30093477101872
30
0
41
1
10
-43.9
20
-1.29268635872819
30
0
0
SPLINE
5
103
100
AcDbEntity
8
SK1
62
256
6
ByLayer
370
18
48
1
60
0
100
AcDbSpline
70
4
71
3
72
8
73
4
40
0
40
0
40
0
40
0
40
1
40
1
40
1
40
1
41
1
10
-45
20
-1.36549291536676
30
0
41
1
10
-44.6675984489064
20
-1.37360649732889
30
0
41
1
10
-44.3341076183139
20
-1.38169603327256
30
0
41
1
10
-44
20
-1.38977195352899
30
0
0
SPLINE
5
104
100
AcDbEntity
8
SK1
62
256
6
ByLayer
370
18
48
1
60
0
100
AcDbSpline
70
4
71
3
72
8
73
4
40
0
40
0
40
0
40
0
40
1
40
1
40
1
40
1
41
1
10
-44
20
-1.10952874029715
30
0
41
1
10
-44.3340982508957
20
-1.11760443412797
30
0
41
1
10
-44.6675872329322
20
-1.12569392272678
30
0
41
1
10
-45
20
-1.13380777845938
30
0
0
SPLINE
5
105
100
AcDbEntity
8
SK1
62
256
6
ByLayer
370
18
48
1
60
0
100
AcDbSpline
70
4
71
3
72
22
73
18
40
0
40
0
40
0
40
0
40
0.0624999999999975
40
0.0624999999999975
40
0.124999999999995
40
0.124999999999995
40
0.187499999999993
40
0.187499999999993
40
0.24999999999999
40
0.24999999999999
40
0.374999999999992
40
0.374999999999992
40
0.499999999999993
40
0.499999999999993
40
0.749999999999997
40
0.749999999999997
40
1
40
1
40
1
40
1
41
1
10
-43.9
20
-1.00667027959187
30
0
41
1
10
-43.9
20
-1.01083761442018
30
0
41
1
10
-43.9002571469355
20
-1.0149417613184
30
0
41
1
10
-43.9012483835253
20
-1.0230327770563
30
0
41
1
10
-43.9019843556157
20
-1.02700004398898
30
0
41
1
10
-43.9038359680824
20
-1.03458349341057
30
0
41
1
10
-43.9049554933943
20
-1.03823363503554
30
0
41
1
10
-43.9075371366113
20
-1.04528363609964
30
0
41
1
10
-43.9090098712764
20
-1.04870286205295
30
0
41
1
10
-43.9138180081128
20
-1.05844771345269
30
0
41
1
10
-43.9175198606348
20
-1.06426425190193
30
0
41
1
10
-43.9257005361925
20
-1.07483641234421
30
0
41
1
10
-43.9302200865512
20
-1.0796123301887
30
0
41
1
10
-43.9443936613409
20
-1.09215088869621
30
0
41
1
10
-43.9547464093512
20
-1.09833634930678
30
0
41
1
10
-43.9768690024478
20
-1.10695769419084
30
0
41
1
10
-43.9882652984639
20
-1.10924509362573
30
0
41
1
10
-44
20
-1.10952874029718
30
0
0
SPLINE
5
106
100
AcDbEntity
8
1
62
256
6
ByLayer
370
18
48
1
60
0
100
AcDbSpline
70
4
71
3
72
15
73
11
40
0
40
0
40
0
40
0
40
0.0321544790156025
40
0.182431314559969
40
0.331860091024064
40
0.447728610025495
40
0.562526136790367
40
0.692675483813952
40
0.847869605201912
40
1
40
1
40
1
40
1
41
1
10
76.1668945445439
20
1.4999612182109
30
0
41
1
10
76.0840555015345
20
1.52488309677912
30
0
41
1
10
75.6143737677188
20
1.6672408613714
30
0
41
1
10
74.7643523517812
20
1.93991247357911
30
0
41
1
10
73.7036944028696
20
2.29231645956074
30
0
41
1
10
72.7380518938687
20
2.62725893329116
30
0
41
1
10
71.8248597532057
20
2.95461643164239
30
0
41
1
10
70.8165478968346
20
3.32907959363348
30
0
41
1
10
69.7195893683697
20
3.75217917520067
30
0
41
1
10
68.9540395974053
20
4.06141745451868
30
0
41
1
10
68.5762423798625
20
4.21730314893332
30
0
0
SPLINE
5
107
100
AcDbEntity
8
1
62
256
6
ByLayer
370
18
48
1
60
0
100
AcDbSpline
70
4
71
3
72
42
73
38
40
0
40
0
40
0
40
0
40
1.3036275397E-05
40
2.09904791739E-05
40
2.79747782236E-05
40
3.43690123276E-05
40
4.06235569471E-05
40
5.37912364542E-05
40
0.0001270712490928
40
0.0001777842196248
40
0.0002714511084989
40
0.0004413066186673
40
0.0007450967215901
40
0.0013001303670246
40
0.002325519784145
40
0.0042677062280739
40
0.0080915828677075
40
0.0160601026296031
40
0.0824165831140539
40
0.157695863117768
40
0.213344798885937
40
0.264519354593981
40
0.325381718722691
40
0.395925847222815
40
0.471111629449597
40
0.509395538198158
40
0.542966550580535
40
0.571826182188014
40
0.595975306387811
40
0.615743945045719
40
0.641690326554457
40
0.678876917748091
40
0.7273066244563
40
0.786985944161355
40
0.857923116609498
40
0.940110105611366
40
1
40
1
40
1
40
1
41
1
10
41.9344493059146
20
0.406738632625888
30
0
41
1
10
41.9344579085912
20
0.406737938532501
30
0
41
1
10
41.9344656170818
20
0.406738391031183
30
0
41
1
10
41.9344550424529
20
0.406744234391681
30
0
41
1
10
41.9344291396148
20
0.406753073039795
30
0
41
1
10
41.9343869018557
20
0.406765572943698
30
0
41
1
10
41.9343119105285
20
0.406786411861134
30
0
41
1
10
41.9339738338936
20
0.40687551241416
30
0
41
1
10
41.9334200061539
20
0.407014324521157
30
0
41
1
10
41.9326515755623
20
0.407218441277394
30
0
41
1
10
41.9314730755244
20
0.407524162646496
30
0
41
1
10
41.9293675550829
20
0.408072671174722
30
0
41
1
10
41.9255646519696
20
0.409064775854404
30
0
41
1
10
41.9185566763624
20
0.410889192754297
30
0
41
1
10
41.9054434970568
20
0.414302644983366
30
0
41
1
10
41.8800329879324
20
0.420908088438438
30
0
41
1
10
41.8283344435195
20
0.434333112032419
30
0
41
1
10
41.5316593001852
20
0.51135883560994
30
0
41
1
10
40.9559820344975
20
0.663316061101909
30
0
41
1
10
40.1998243114049
20
0.871098170785501
30
0
41
1
10
39.5029926171987
20
1.06925317129807
30
0
41
1
10
38.8627655911936
20
1.25640694483982
30
0
41
1
10
38.1674114144134
20
1.46547294417871
30
0
41
1
10
37.3829341469794
20
1.7090413201685
30
0
41
1
10
36.6865548360615
20
1.93287429659412
30
0
41
1
10
36.1315734990425
20
2.11600305619817
30
0
41
1
10
35.7520934359848
20
2.24328228127564
30
0
41
1
10
35.4263614468344
20
2.35407478674611
30
0
41
1
10
35.1529065344122
20
2.44818641000646
30
0
41
1
10
34.8906768199874
20
2.53931032570981
30
0
41
1
10
34.5798233339887
20
2.64841329913008
30
0
41
1
10
34.1621437629831
20
2.79702034479379
30
0
41
1
10
33.619344181286
20
2.99370912942408
30
0
41
1
10
32.9523052361813
20
3.24090891716151
30
0
41
1
10
32.162329038751
20
3.54185597497323
30
0
41
1
10
31.3745194313675
20
3.85040375656564
30
0
41
1
10
30.8519071716493
20
4.06286814597021
30
0
41
1
10
30.6320485416289
20
4.15347352978347
30
0
0
SPLINE
5
108
100
AcDbEntity
8
1
62
256
6
ByLayer
370
18
48
1
60
0
100
AcDbSpline
70
4
71
2
72
6
73
3
40
0
40
0
40
0
40
1
40
1
40
1
41
1
10
58.9965678984388
20
-0.0028349326552757
30
0
41
1
10
58.9965322269989
20
-0.0028141942349862
30
0
41
1
10
58.9964965551583
20
-0.0027927658725275
30
0
0
SPLINE
5
109
100
AcDbEntity
8
1
62
256
6
ByLayer
370
18
48
1
60
0
100
AcDbSpline
70
4
71
3
72
29
73
25
40
0
40
0
40
0
40
0
40
0.0564422520227857
40
0.100834114701008
40
0.134716862897517
40
0.164272539591883
40
0.191145723918974
40
0.217149015778884
40
0.26799427221497
40
0.323847731263078
40
0.379530559196225
40
0.441247109482027
40
0.502119472909322
40
0.555432987520204
40
0.599962653949961
40
0.650178700397019
40
0.690833579578232
40
0.720850338467159
40
0.759436338082967
40
0.81051365341232
40
0.861727534782173
40
0.909042638008873
40
0.95934993559775
40
1
40
1
40
1
40
1
41
1
10
39.9443463699522
20
-6.23531997678438
30
0
41
1
10
40.1879807126295
20
-6.23528472812586
30
0
41
1
10
40.6245417838514
20
-6.23563375514465
30
0
41
1
10
41.2195780398859
20
-6.23581229526695
30
0
41
1
10
41.6855791479215
20
-6.23836022629675
30
0
41
1
10
42.0762937364657
20
-6.23902623419906
30
0
41
1
10
42.4383543240984
20
-6.23938427040369
30
0
41
1
10
42.8932671587198
20
-6.24000280926711
30
0
41
1
10
43.4757055570914
20
-6.24061705952531
30
0
41
1
10
44.1883142283946
20
-6.24250838373504
30
0
41
1
10
44.9486644132745
20
-6.24422473885423
30
0
41
1
10
45.731031536383
20
-6.2447598575416
30
0
41
1
10
46.5030120943064
20
-6.24534028738725
30
0
41
1
10
47.1995357529791
20
-6.24657528159332
30
0
41
1
10
47.8493789496029
20
-6.24949990615175
30
0
41
1
10
48.4433203064366
20
-6.25047844778783
30
0
41
1
10
48.9739652021044
20
-6.25075035094446
30
0
41
1
10
49.4531236823963
20
-6.25083293999629
30
0
41
1
10
49.9782740433558
20
-6.25072738824704
30
0
41
1
10
50.5965500694137
20
-6.25175004018669
30
0
41
1
10
51.2531089870266
20
-6.25357210370919
30
0
41
1
10
51.9063086359906
20
-6.25502930958802
30
0
41
1
10
52.5130914531967
20
-6.2568169529801
30
0
41
1
10
52.9123608317154
20
-6.25804682012904
30
0
41
1
10
53.0907011031132
20
-6.25835361505966
30
0
0
SPLINE
5
10A
100
AcDbEntity
8
1
62
256
6
ByLayer
370
18
48
1
60
0
100
AcDbSpline
70
4
71
3
72
33
73
29
40
0
40
0
40
0
40
0
40
0.0198042727013627
40
0.0389443673385998
40
0.0582573852539139
40
0.0963252534099491
40
0.134729954947178
40
0.170810429788012
40
0.204602477918118
40
0.23504521541987
40
0.256491825022439
40
0.281384004844785
40
0.314920768887938
40
0.352220001032663
40
0.386061913414936
40
0.449394060274063
40
0.50477629050755
40
0.557846666492962
40
0.615238102027755
40
0.673059593933163
40
0.719631893414213
40
0.763447291631439
40
0.820402511889413
40
0.87122976262503
40
0.924278529993721
40
0.962706881113257
40
0.994835158788476
40
1
40
1
40
1
40
1
41
1
10
56.3040050006287
20
6.26296066519731
30
0
41
1
10
56.2338836577658
20
6.26227081736499
30
0
41
1
10
56.0886788598931
20
6.26068338617293
30
0
41
1
10
55.8462245490941
20
6.25626170034232
30
0
41
1
10
55.5096904737971
20
6.25318267981768
30
0
41
1
10
55.0943089280987
20
6.25640571589986
30
0
41
1
10
54.6143979148381
20
6.25818570606074
30
0
41
1
10
54.1428096674377
20
6.2586043295095
30
0
41
1
10
53.7033189641443
20
6.25868208393567
30
0
41
1
10
53.3272672709689
20
6.25863848645807
30
0
41
1
10
52.9906285138955
20
6.25822348101897
30
0
41
1
10
52.6404121453595
20
6.2572807957132
30
0
41
1
10
52.2203622994464
20
6.2558283938969
30
0
41
1
10
51.7611334804523
20
6.25474876646143
30
0
41
1
10
51.1711572108885
20
6.25335099368758
30
0
41
1
10
50.501860850143
20
6.25140845351157
30
0
41
1
10
49.7481920802855
20
6.25066533719789
30
0
41
1
10
49.0205897210696
20
6.25088791391485
30
0
41
1
10
48.28228255852
20
6.25052081987775
30
0
41
1
10
47.5724917072507
20
6.24825389726814
30
0
41
1
10
46.9222609354458
20
6.24586193030933
30
0
41
1
10
46.2758266028831
20
6.24520960515073
30
0
41
1
10
45.6107248645273
20
6.24467003713485
30
0
41
1
10
44.9051150238514
20
6.24410947354267
30
0
41
1
10
44.2807838752005
20
6.24279318429845
30
0
41
1
10
43.7385058631973
20
6.24118499518789
30
0
41
1
10
43.4062941118721
20
6.24067781956413
30
0
41
1
10
43.2428319121237
20
6.24042578969622
30
0
41
1
10
43.220194879257
20
6.24039104911964
30
0
0
LINE
5
82
100
AcDbEntity
8
4
62
256
6
ByLayer
370
18
48
0.05
60
0
100
AcDbLine
10
0
20
0
30
0
11
79
21
0
31
0
39
0
210
0
220
0
230
1
0
LINE
5
84
100
AcDbEntity
8
81
62
256
6
ByLayer
370
18
48
1
60
0
100
AcDbLine
10
79
20
0
30
0
11
82
21
0
31
0
39
0
210
0
220
0
230
1
0
LINE
5
85
100
AcDbEntity
8
80
62
256
6
ByLayer
370
18
48
1
60
0
100
AcDbLine
10
0
20
0
30
0
11
-3
21
0
31
0
39
0
210
0
220
0
230
1
0
LINE
5
86
100
AcDbEntity
8
SK4
62
256
6
ByLayer
370
18
48
0.05
60
0
100
AcDbLine
10
-48
20
0
30
0
11
82
21
0
31
0
39
0
210
0
220
0
230
1
0
LINE
5
88
100
AcDbEntity
8
1
62
256
6
ByLayer
370
18
48
1
60
0
100
AcDbLine
10
0
20
7
30
0
11
0
21
-7
31
0
39
0
210
0
220
0
230
1
0
LINE
5
89
100
AcDbEntity
8
1
62
256
6
ByLayer
370
13
48
1
60
0
100
AcDbLine
10
78.855281
20
0.671795
30
0
11
77.514926
21
2.017219
31
0
39
0
210
0
220
0
230
1
0
LINE
5
8A
100
AcDbEntity
8
1
62
256
6
ByLayer
370
13
48
1
60
0
100
AcDbLine
10
0.618702
20
-6.707157
30
0
11
0.618702
21
6.707157
31
0
39
0
210
0
220
0
230
1
0
LINE
5
8B
100
AcDbEntity
8
1
62
256
6
ByLayer
370
18
48
1
60
0
100
AcDbLine
10
20.099997
20
0.480114
30
0
11
20.099997
21
6.341286
31
0
39
0
210
0
220
0
230
1
0
LINE
5
8C
100
AcDbEntity
8
1
62
256
6
ByLayer
370
18
48
1
60
0
100
AcDbLine
10
20.099997
20
-0.38266
30
0
11
20.099997
21
-0.488638
31
0
39
0
210
0
220
0
230
1
0
LINE
5
8D
100
AcDbEntity
8
1
62
256
6
ByLayer
370
13
48
1
60
0
100
AcDbLine
10
1.238843
20
-6.414316
30
0
11
1.238843
21
6.414316
31
0
39
0
210
0
220
0
230
1
0
LINE
5
8E
100
AcDbEntity
8
SK1
62
256
6
ByLayer
370
18
48
1
60
0
100
AcDbLine
10
-45
20
-1.133808
30
0
11
-45
21
-1.365493
31
0
39
0
210
0
220
0
230
1
0
LINE
5
90
100
AcDbEntity
8
SK1
62
256
6
ByLayer
370
13
48
1
60
0
100
AcDbLine
10
-44
20
-1.389772
30
0
11
-44
21
-1.109529
31
0
39
0
210
0
220
0
230
1
0
LINE
5
91
100
AcDbEntity
8
SK1
62
256
6
ByLayer
370
18
48
1
60
0
100
AcDbLine
10
-43.9
20
-1.292686
30
0
11
-43.9
21
1.00667
31
0
39
0
210
0
220
0
230
1
0
LINE
5
92
100
AcDbEntity
8
SK1
62
256
6
ByLayer
370
18
48
1
60
0
100
AcDbLine
10
-45
20
-5.055
30
0
11
-45
21
-1.365493
31
0
39
0
210
0
220
0
230
1
0
LINE
5
93
100
AcDbEntity
8
SK1
62
256
6
ByLayer
370
18
48
1
60
0
100
AcDbLine
10
-45
20
5.055
30
0
11
-45
21
1.133808
31
0
39
0
210
0
220
0
230
1
0
LINE
5
94
100
AcDbEntity
8
SK1
62
256
6
ByLayer
370
18
48
1
60
0
100
AcDbLine
10
0
20
7
30
0
11
0
21
-7
31
0
39
0
210
0
220
0
230
1
0
LINE
5
95
100
AcDbEntity
8
SK1
62
256
6
ByLayer
370
18
48
1
60
0
100
AcDbLine
10
-43.055
20
-7
30
0
11
-43.055
21
7
31
0
39
0
210
0
220
0
230
1
0
LINE
5
96
100
AcDbEntity
8
1
62
256
6
ByLayer
370
18
48
1
60
0
100
AcDbLine
10
1.238843
20
-6.414316
30
0
11
20.065285
21
-6.448203
31
0
39
0
210
0
220
0
230
1
0
LINE
5
97
100
AcDbEntity
8
1
62
256
6
ByLayer
370
18
48
1
60
0
100
AcDbLine
10
38.445688
20
-6.481288
30
0
11
39.940911
21
-6.483979
31
0
39
0
210
0
220
0
230
1
0
LINE
5
98
100
AcDbEntity
8
1
62
256
6
ByLayer
370
18
48
1
60
0
100
AcDbLine
10
56.302647
20
-6.513431
30
0
11
58.057597
21
-6.516589
31
0
39
0
210
0
220
0
230
1
0
LINE
5
99
100
AcDbEntity
8
1
62
256
6
ByLayer
370
18
48
1
60
0
100
AcDbLine
10
58.057597
20
6.516589
30
0
11
56.302647
21
6.513431
31
0
39
0
210
0
220
0
230
1
0
LINE
5
9A
100
AcDbEntity
8
1
62
256
6
ByLayer
370
18
48
1
60
0
100
AcDbLine
10
39.940911
20
6.483979
30
0
11
38.445688
21
6.481288
31
0
39
0
210
0
220
0
230
1
0
LINE
5
9B
100
AcDbEntity
8
1
62
256
6
ByLayer
370
18
48
1
60
0
100
AcDbLine
10
20.065285
20
6.448203
30
0
11
1.238843
21
6.414316
31
0
39
0
210
0
220
0
230
1
0
LINE
5
9C
100
AcDbEntity
8
SK1
62
256
6
ByLayer
370
18
48
1
60
0
100
AcDbLine
10
-45
20
-5.055
30
0
11
-43.055
21
-7
31
0
39
0
210
0
220
0
230
1
0
LINE
5
9D
100
AcDbEntity
8
SK1
62
256
6
ByLayer
370
18
48
1
60
0
100
AcDbLine
10
-43.055
20
7
30
0
11
-45
21
5.055
31
0
39
0
210
0
220
0
230
1
0
LINE
5
9E
100
AcDbEntity
8
SK1
62
256
6
ByLayer
370
18
48
1
60
0
100
AcDbLine
10
-43.055
20
-7
30
0
11
0
21
-7
31
0
39
0
210
0
220
0
230
1
0
LINE
5
9F
100
AcDbEntity
8
SK1
62
256
6
ByLayer
370
18
48
1
60
0
100
AcDbLine
10
0
20
7
30
0
11
-43.055
21
7
31
0
39
0
210
0
220
0
230
1
0
LINE
5
A0
100
AcDbEntity
8
2
62
256
6
ByLayer
370
13
48
1
60
0
100
AcDbLine
10
86.5
20
-6.55
30
0
11
86.5
21
31.591141
31
0
39
0
210
0
220
0
230
1
0
LINE
5
A2
100
AcDbEntity
8
2
62
256
6
ByLayer
370
13
48
1
60
0
100
AcDbLine
10
80.5875
20
6.55
30
0
11
88.5
21
6.55
31
0
39
0
210
0
220
0
230
1
0
LINE
5
A3
100
AcDbEntity
8
2
62
256
6
ByLayer
370
13
48
1
60
0
100
AcDbLine
10
80.5875
20
-6.55
30
0
11
88.5
21
-6.55
31
0
39
0
210
0
220
0
230
1
0
LINE
5
A4
100
AcDbEntity
8
1
62
256
6
ByLayer
370
18
48
1
60
1
100
AcDbLine
10
86.5
20
6.55
30
0
11
86.960784
21
3.050002
31
0
39
0
210
0
220
0
230
1
0
LINE
5
A5
100
AcDbEntity
8
1
62
256
6
ByLayer
370
18
48
1
60
1
100
AcDbLine
10
86.960784
20
3.050002
30
0
11
86.039216
21
3.049998
31
0
39
0
210
0
220
0
230
1
0
LINE
5
A6
100
AcDbEntity
8
1
62
256
6
ByLayer
370
18
48
1
60
1
100
AcDbLine
10
86.039216
20
3.049998
30
0
11
86.5
21
6.55
31
0
39
0
210
0
220
0
230
1
0
LINE
5
A7
100
AcDbEntity
8
1
62
256
6
ByLayer
370
18
48
1
60
1
100
AcDbLine
10
86.5
20
-6.55
30
0
11
86.039216
21
-3.050002
31
0
39
0
210
0
220
0
230
1
0
LINE
5
A8
100
AcDbEntity
8
1
62
256
6
ByLayer
370
18
48
1
60
1
100
AcDbLine
10
86.039216
20
-3.050002
30
0
11
86.960784
21
-3.049998
31
0
39
0
210
0
220
0
230
1
0
LINE
5
A9
100
AcDbEntity
8
1
62
256
6
ByLayer
370
18
48
1
60
1
100
AcDbLine
10
86.960784
20
-3.049998
30
0
11
86.5
21
-6.55
31
0
39
0
210
0
220
0
230
1
0
LINE
5
AA
100
AcDbEntity
8
SK2
62
256
6
ByLayer
370
13
48
1
60
0
100
AcDbLine
10
-53.5
20
-7
30
0
11
-53.5
21
15.649657
31
0
39
0
210
0
220
0
230
1
0
LINE
5
AC
100
AcDbEntity
8
SK2
62
256
6
ByLayer
370
13
48
1
60
0
100
AcDbLine
10
-46.5875
20
7
30
0
11
-55.5
21
7
31
0
39
0
210
0
220
0
230
1
0
LINE
5
AD
100
AcDbEntity
8
SK2
62
256
6
ByLayer
370
13
48
1
60
0
100
AcDbLine
10
-46.5875
20
-7
30
0
11
-55.5
21
-7
31
0
39
0
210
0
220
0
230
1
0
LINE
5
AE
100
AcDbEntity
8
1
62
256
6
ByLayer
370
18
48
1
60
1
100
AcDbLine
10
-53.5
20
7
30
0
11
-53.039216
21
3.500002
31
0
39
0
210
0
220
0
230
1
0
LINE
5
AF
100
AcDbEntity
8
1
62
256
6
ByLayer
370
18
48
1
60
1
100
AcDbLine
10
-53.039216
20
3.500002
30
0
11
-53.960784
21
3.499998
31
0
39
0
210
0
220
0
230
1
0
LINE
5
B0
100
AcDbEntity
8
1
62
256
6
ByLayer
370
18
48
1
60
1
100
AcDbLine
10
-53.960784
20
3.499998
30
0
11
-53.5
21
7
31
0
39
0
210
0
220
0
230
1
0
LINE
5
B1
100
AcDbEntity
8
1
62
256
6
ByLayer
370
18
48
1
60
1
100
AcDbLine
10
-53.5
20
-7
30
0
11
-53.960784
21
-3.500002
31
0
39
0
210
0
220
0
230
1
0
LINE
5
B2
100
AcDbEntity
8
1
62
256
6
ByLayer
370
18
48
1
60
1
100
AcDbLine
10
-53.960784
20
-3.500002
30
0
11
-53.039216
21
-3.499998
31
0
39
0
210
0
220
0
230
1
0
LINE
5
B3
100
AcDbEntity
8
1
62
256
6
ByLayer
370
18
48
1
60
1
100
AcDbLine
10
-53.039216
20
-3.499998
30
0
11
-53.5
21
-7
31
0
39
0
210
0
220
0
230
1
0
LINE
5
B4
100
AcDbEntity
8
SK2
62
256
6
ByLayer
370
13
48
1
60
0
100
AcDbLine
10
79.542956
20
1.491762
30
0
11
87.772018
21
24.100973
31
0
39
0
210
0
220
0
230
1
0
LINE
5
B5
100
AcDbEntity
8
SK2
62
256
6
ByLayer
370
13
48
1
60
0
100
AcDbLine
10
79.542956
20
-1.491762
30
0
11
87.772018
21
-24.100973
31
0
39
0
210
0
220
0
230
1
0
LINE
5
B6
100
AcDbEntity
8
1
62
256
6
ByLayer
370
18
48
1
60
1
100
AcDbLine
10
87.087979
20
22.221588
30
0
11
90.503935
21
21.330771
31
0
39
0
210
0
220
0
230
1
0
LINE
5
B7
100
AcDbEntity
8
1
62
256
6
ByLayer
370
18
48
1
60
1
100
AcDbLine
10
90.503935
20
21.330771
30
0
11
90.156982
21
20.477009
31
0
39
0
210
0
220
0
230
1
0
LINE
5
B8
100
AcDbEntity
8
1
62
256
6
ByLayer
370
18
48
1
60
1
100
AcDbLine
10
90.156982
20
20.477009
30
0
11
87.087979
21
22.221588
31
0
39
0
210
0
220
0
230
1
0
LINE
5
B9
100
AcDbEntity
8
1
62
256
6
ByLayer
370
18
48
1
60
1
100
AcDbLine
10
87.087979
20
-22.221588
30
0
11
90.156979
21
-20.47701
31
0
39
0
210
0
220
0
230
1
0
LINE
5
BA
100
AcDbEntity
8
1
62
256
6
ByLayer
370
18
48
1
60
1
100
AcDbLine
10
90.156979
20
-20.47701
30
0
11
90.503939
21
-21.33077
31
0
39
0
210
0
220
0
230
1
0
LINE
5
BB
100
AcDbEntity
8
1
62
256
6
ByLayer
370
18
48
1
60
1
100
AcDbLine
10
90.503939
20
-21.33077
30
0
11
87.087979
21
-22.221588
31
0
39
0
210
0
220
0
230
1
0
LINE
5
10B
100
AcDbEntity
8
1
62
256
6
ByLayer
370
13
48
0.05
60
0
100
AcDbLine
10
-51.5
20
0
30
0
11
83.129559
21
0
31
0
39
0
210
0
220
0
230
1
0
LINE
5
110
100
AcDbEntity
8
1
62
256
6
ByLayer
370
18
48
1
60
1
100
AcDbLine
10
86.5
20
6.55
30
0
11
86.960784
21
3.050002
31
0
39
0
210
0
220
0
230
1
0
LINE
5
111
100
AcDbEntity
8
1
62
256
6
ByLayer
370
18
48
1
60
1
100
AcDbLine
10
86.960784
20
3.050002
30
0
11
86.039216
21
3.049998
31
0
39
0
210
0
220
0
230
1
0
LINE
5
112
100
AcDbEntity
8
1
62
256
6
ByLayer
370
18
48
1
60
1
100
AcDbLine
10
86.039216
20
3.049998
30
0
11
86.5
21
6.55
31
0
39
0
210
0
220
0
230
1
0
LINE
5
114
100
AcDbEntity
8
1
62
256
6
ByLayer
370
18
48
1
60
1
100
AcDbLine
10
86.5
20
-6.55
30
0
11
86.039216
21
-3.050002
31
0
39
0
210
0
220
0
230
1
0
LINE
5
115
100
AcDbEntity
8
1
62
256
6
ByLayer
370
18
48
1
60
1
100
AcDbLine
10
86.039216
20
-3.050002
30
0
11
86.960784
21
-3.049998
31
0
39
0
210
0
220
0
230
1
0
LINE
5
116
100
AcDbEntity
8
1
62
256
6
ByLayer
370
18
48
1
60
1
100
AcDbLine
10
86.960784
20
-3.049998
30
0
11
86.5
21
-6.55
31
0
39
0
210
0
220
0
230
1
0
LINE
5
11A
100
AcDbEntity
8
1
62
256
6
ByLayer
370
18
48
1
60
1
100
AcDbLine
10
-53.5
20
7
30
0
11
-53.039216
21
3.500002
31
0
39
0
210
0
220
0
230
1
0
LINE
5
11B
100
AcDbEntity
8
1
62
256
6
ByLayer
370
18
48
1
60
1
100
AcDbLine
10
-53.039216
20
3.500002
30
0
11
-53.960784
21
3.499998
31
0
39
0
210
0
220
0
230
1
0
LINE
5
11C
100
AcDbEntity
8
1
62
256
6
ByLayer
370
18
48
1
60
1
100
AcDbLine
10
-53.960784
20
3.499998
30
0
11
-53.5
21
7
31
0
39
0
210
0
220
0
230
1
0
LINE
5
11E
100
AcDbEntity
8
1
62
256
6
ByLayer
370
18
48
1
60
1
100
AcDbLine
10
-53.5
20
-7
30
0
11
-53.960784
21
-3.500002
31
0
39
0
210
0
220
0
230
1
0
LINE
5
11F
100
AcDbEntity
8
1
62
256
6
ByLayer
370
18
48
1
60
1
100
AcDbLine
10
-53.960784
20
-3.500002
30
0
11
-53.039216
21
-3.499998
31
0
39
0
210
0
220
0
230
1
0
LINE
5
120
100
AcDbEntity
8
1
62
256
6
ByLayer
370
18
48
1
60
1
100
AcDbLine
10
-53.039216
20
-3.499998
30
0
11
-53.5
21
-7
31
0
39
0
210
0
220
0
230
1
0
LINE
5
123
100
AcDbEntity
8
1
62
256
6
ByLayer
370
18
48
1
60
1
100
AcDbLine
10
87.087979
20
22.221588
30
0
11
90.503935
21
21.330771
31
0
39
0
210
0
220
0
230
1
0
LINE
5
124
100
AcDbEntity
8
1
62
256
6
ByLayer
370
18
48
1
60
1
100
AcDbLine
10
90.503935
20
21.330771
30
0
11
90.156982
21
20.477009
31
0
39
0
210
0
220
0
230
1
0
LINE
5
125
100
AcDbEntity
8
1
62
256
6
ByLayer
370
18
48
1
60
1
100
AcDbLine
10
90.156982
20
20.477009
30
0
11
87.087979
21
22.221588
31
0
39
0
210
0
220
0
230
1
0
LINE
5
127
100
AcDbEntity
8
1
62
256
6
ByLayer
370
18
48
1
60
1
100
AcDbLine
10
87.087979
20
-22.221588
30
0
11
90.156979
21
-20.47701
31
0
39
0
210
0
220
0
230
1
0
LINE
5
128
100
AcDbEntity
8
1
62
256
6
ByLayer
370
18
48
1
60
1
100
AcDbLine
10
90.156979
20
-20.47701
30
0
11
90.503939
21
-21.33077
31
0
39
0
210
0
220
0
230
1
0
LINE
5
129
100
AcDbEntity
8
1
62
256
6
ByLayer
370
18
48
1
60
1
100
AcDbLine
10
90.503939
20
-21.33077
30
0
11
87.087979
21
-22.221588
31
0
39
0
210
0
220
0
230
1
0
MTEXT
5
10C
100
AcDbEntity
8
2
62
256
6
ByLayer
370
18
48
1
60
0
100
AcDbMText
10
85.158886
20
20.208438
30
0
210
0
220
0
230
1
1
%%c
40
3
41
0
44
1.084337
50
90
71
7
72
5
7
iso_b_vert
0
MTEXT
5
10F
100
AcDbEntity
8
2
62
256
6
ByLayer
370
18
48
1
60
0
100
AcDbMText
10
85.158886
20
26.185
30
0
210
0
220
0
230
1
1
\W0.6347;13.1
40
3
41
0
44
1.084337
50
90
71
7
72
5
7
iso_b_vert
0
MTEXT
5
118
100
AcDbEntity
8
SK2
62
256
6
ByLayer
370
18
48
1
60
0
100
AcDbMText
10
-54.841114
20
6.658437
30
0
210
0
220
0
230
1
1
%%c
40
3
41
0
44
1.084337
50
90
71
7
72
5
7
iso_b_vert
0
MTEXT
5
119
100
AcDbEntity
8
SK2
62
256
6
ByLayer
370
18
48
1
60
0
100
AcDbMText
10
-54.841114
20
12.635
30
0
210
0
220
0
230
1
1
\W0.5785;14
40
3
41
0
44
1.084337
50
90
71
7
72
5
7
iso_b_vert
0
MTEXT
5
122
100
AcDbEntity
8
SK2
62
256
6
ByLayer
370
18
48
1
60
0
100
AcDbMText
10
99.207057
20
-2.114886
30
0
210
0
220
0
230
1
1
\W0.7071;140%%d
40
3
41
0
44
1.084337
50
0
71
7
72
5
7
iso_b_vert
0
MTEXT
5
12B
100
AcDbEntity
8
SK6
62
256
6
ByLayer
370
18
48
1
60
0
100
AcDbMText
10
-4.717025
20
-77.114886
30
0
210
0
220
0
230
1
1
\W0.7307;860.1-1310-058A1-SD S2BM
40
3
41
0
44
1.084337
50
0
71
7
72
5
7
iso_b_vert
0
HATCH
5
113
100
AcDbEntity
8
2
62
256
6
ByLayer
370
13
48
1
60
0
100
AcDbHatch
10
0
20
0
30
0
210
0
220
0
230
1
2
ANSI31
70
0
71
0
91
1
92
5
93
3
72
1
10
86.5
20
6.55000000000001
11
86.9607837415528
21
3.0500016925532
72
1
10
86.9607837415528
20
3.0500016925532
11
86.0392162584472
21
3.04999830744683
72
1
10
86.0392162584472
20
3.04999830744683
11
86.5
21
6.55000000000001
97
0
75
0
76
1
52
0
41
0.0062
77
0
78
1
53
45
43
0
44
0
45
-0.0139193969876572
46
0.0139193969876572
79
0
47
0
98
1
10
0
20
0
0
HATCH
5
117
100
AcDbEntity
8
2
62
256
6
ByLayer
370
13
48
1
60
0
100
AcDbHatch
10
0
20
0
30
0
210
0
220
0
230
1
2
ANSI31
70
0
71
0
91
1
92
5
93
3
72
1
10
86.5
20
-6.54999999999998
11
86.0392162584472
21
-3.05000169255317
72
1
10
86.0392162584472
20
-3.05000169255317
11
86.9607837415528
21
-3.0499983074468
72
1
10
86.9607837415528
20
-3.0499983074468
11
86.5
21
-6.54999999999998
97
0
75
0
76
1
52
0
41
0.0062
77
0
78
1
53
45
43
0
44
0
45
-0.0139193969876572
46
0.0139193969876572
79
0
47
0
98
1
10
0
20
0
0
HATCH
5
11D
100
AcDbEntity
8
SK2
62
256
6
ByLayer
370
13
48
1
60
0
100
AcDbHatch
10
0
20
0
30
0
210
0
220
0
230
1
2
ANSI31
70
0
71
0
91
1
92
5
93
3
72
1
10
-53.5
20
7
11
-53.0392162584472
21
3.50000169255318
72
1
10
-53.0392162584472
20
3.50000169255318
11
-53.9607837415528
21
3.49999830744682
72
1
10
-53.9607837415528
20
3.49999830744682
11
-53.5
21
7
97
0
75
0
76
1
52
0
41
0.0062
77
0
78
1
53
45
43
0
44
0
45
-0.0139193969876572
46
0.0139193969876572
79
0
47
0
98
1
10
0
20
0
0
HATCH
5
121
100
AcDbEntity
8
SK2
62
256
6
ByLayer
370
13
48
1
60
0
100
AcDbHatch
10
0
20
0
30
0
210
0
220
0
230
1
2
ANSI31
70
0
71
0
91
1
92
5
93
3
72
1
10
-53.5
20
-7
11
-53.9607837415528
21
-3.50000169255318
72
1
10
-53.9607837415528
20
-3.50000169255318
11
-53.0392162584472
21
-3.49999830744682
72
1
10
-53.0392162584472
20
-3.49999830744682
11
-53.5
21
-7
97
0
75
0
76
1
52
0
41
0.0062
77
0
78
1
53
45
43
0
44
0
45
-0.0139193969876572
46
0.0139193969876572
79
0
47
0
98
1
10
0
20
0
0
HATCH
5
126
100
AcDbEntity
8
SK2
62
256
6
ByLayer
370
13
48
1
60
0
100
AcDbHatch
10
0
20
0
30
0
210
0
220
0
230
1
2
ANSI31
70
0
71
0
91
1
92
5
93
3
72
1
10
87.0879794255155
20
22.221587767254
11
90.503935419186
21
21.330771030817
72
1
10
90.503935419186
20
21.330771030817
11
90.1569821218712
21
20.4770087480875
72
1
10
90.1569821218712
20
20.4770087480875
11
87.0879794255155
21
22.221587767254
97
0
75
0
76
1
52
0
41
0.0062
77
0
78
1
53
45
43
0
44
0
45
-0.0139193969876572
46
0.0139193969876572
79
0
47
0
98
1
10
0
20
0
0
HATCH
5
12A
100
AcDbEntity
8
SK2
62
256
6
ByLayer
370
13
48
1
60
0
100
AcDbHatch
10
0
20
0
30
0
210
0
220
0
230
1
2
ANSI31
70
0
71
0
91
1
92
5
93
3
72
1
10
87.0879794255157
20
-22.2215877672539
11
90.1569789858322
21
-20.4770100225296
72
1
10
90.1569789858322
20
-20.4770100225296
11
90.5039385552255
21
-21.3307697563747
72
1
10
90.5039385552255
20
-21.3307697563747
11
87.0879794255157
21
-22.2215877672539
97
0
75
0
76
1
52
0
41
0.0062
77
0
78
1
53
45
43
0
44
0
45
-0.0139193969876572
46
0.0139193969876572
79
0
47
0
98
1
10
0
20
0
0
DIMENSION
5
12E
100
AcDbEntity
8
SK2
62
256
6
ByLayer
370
18
48
1
60
0
100
AcDbDimension
2
_U0
10
20.1
20
-26.973091
30
0
11
49.55
21
-26.973091
31
0
70
32
71
1
72
1
41
1
210
0
220
0
230
1
3
Standard
100
AcDbAlignedDimension
13
79
23
-6.55
33
0
14
20.1
24
-6.55
34
0
50
0
100
AcDbRotatedDimension
1001
ACAD
1000
DSTYLE
1002
{
1070
   371
1070
    13
1070
   372
1070
    13
1070
   170
1070
     0
1070
   144
1040
1.0
1070
   277
1070
     2
1070
   284
1070
     8
1070
   278
1070
    46
1070
   146
1040
1.166667
1070
   345
1005
16
1070
   347
1005
16
1070
   346
1005
16
1070
   344
1005
0
1070
   343
1005
0
1070
   172
1070
     1
1070
    76
1070
     0
1070
    75
1070
     0
1070
   282
1070
     0
1070
   281
1070
     0
1070
     3
1000

1070
    71
1070
     0
1070
    74
1070
     0
1070
   279
1070
     0
1070
   173
1070
     1
1070
   340
1005
10D
1070
   271
1070
     2
1070
   272
1070
     2
1070
    77
1070
     1
1070
    73
1070
     1
1070
   171
1070
     3
1070
   274
1070
     4
1070
   177
1070
     2
1070
   176
1070
     2
1070
   178
1070
     2
1070
    78
1070
     8
1070
    48
1040
-0.1
1070
    41
1040
3.5
1070
   147
1040
1.5
1070
    42
1040
1.5875
1070
    44
1040
2.0
1070
   140
1040
3.0
1002
}
1001
ACAD_DSTYLE_DIM_LINETYPE
1070
   380
1005
16
1001
ACAD_DSTYLE_DIM_EXT1_LINETYPE
1070
   381
1005
16
1001
ACAD_DSTYLE_DIM_EXT2_LINETYPE
1070
   382
1005
16
0
DIMENSION
5
149
100
AcDbEntity
8
SK2
62
256
6
ByLayer
370
18
48
1
60
0
100
AcDbDimension
2
_U1
10
2
20
-36.973091
30
0
11
40.5
21
-36.973091
31
0
70
32
71
1
72
1
41
1
210
0
220
0
230
1
3
Standard
100
AcDbAlignedDimension
13
79
23
-6.55
33
0
14
2
24
-6.55
34
0
50
0
100
AcDbRotatedDimension
1001
ACAD
1000
DSTYLE
1002
{
1070
   371
1070
    13
1070
   372
1070
    13
1070
     3
1000

1070
   170
1070
     0
1070
   144
1040
1.0
1070
   277
1070
     2
1070
   284
1070
     8
1070
   278
1070
    46
1070
   146
1040
1.166667
1070
   345
1005
16
1070
   347
1005
16
1070
   346
1005
16
1070
   344
1005
0
1070
   343
1005
0
1070
   172
1070
     1
1070
    76
1070
     0
1070
    75
1070
     0
1070
   282
1070
     0
1070
   281
1070
     0
1070
    71
1070
     0
1070
    74
1070
     0
1070
   279
1070
     0
1070
   173
1070
     1
1070
   340
1005
10D
1070
   271
1070
     2
1070
   272
1070
     2
1070
    77
1070
     1
1070
    73
1070
     1
1070
   171
1070
     3
1070
   274
1070
     4
1070
   177
1070
     2
1070
   176
1070
     2
1070
   178
1070
     2
1070
    78
1070
     8
1070
    48
1040
-0.1
1070
    41
1040
3.5
1070
   147
1040
1.5
1070
    42
1040
1.5875
1070
    44
1040
2.0
1070
   140
1040
3.0
1002
}
1001
ACAD_DSTYLE_DIM_LINETYPE
1070
   380
1005
16
1001
ACAD_DSTYLE_DIM_EXT1_LINETYPE
1070
   381
1005
16
1001
ACAD_DSTYLE_DIM_EXT2_LINETYPE
1070
   382
1005
16
0
DIMENSION
5
161
100
AcDbEntity
8
SK2
62
256
6
ByLayer
370
18
48
1
60
0
100
AcDbDimension
2
_U2
10
0
20
-44.973091
30
0
11
-22.5
21
-44.973091
31
0
70
32
71
1
72
1
41
1
210
0
220
0
230
1
3
Standard
100
AcDbAlignedDimension
13
-45
23
-7
33
0
14
0
24
-7
34
0
50
0
100
AcDbRotatedDimension
1001
ACAD
1000
DSTYLE
1002
{
1070
   371
1070
    13
1070
   372
1070
    13
1070
     3
1000

1070
   170
1070
     0
1070
   144
1040
1.0
1070
   277
1070
     2
1070
   284
1070
     8
1070
   278
1070
    46
1070
   146
1040
1.166667
1070
   345
1005
16
1070
   347
1005
16
1070
   346
1005
16
1070
   344
1005
0
1070
   343
1005
0
1070
   172
1070
     1
1070
    76
1070
     0
1070
    75
1070
     0
1070
   282
1070
     0
1070
   281
1070
     0
1070
    71
1070
     0
1070
    74
1070
     0
1070
   279
1070
     0
1070
   173
1070
     1
1070
   340
1005
10D
1070
   271
1070
     2
1070
   272
1070
     2
1070
    77
1070
     1
1070
    73
1070
     1
1070
   171
1070
     3
1070
   274
1070
     4
1070
   177
1070
     2
1070
   176
1070
     2
1070
   178
1070
     2
1070
    78
1070
     8
1070
    48
1040
-0.1
1070
    41
1040
3.5
1070
   147
1040
1.5
1070
    42
1040
1.5875
1070
    44
1040
2.0
1070
   140
1040
3.0
1002
}
1001
ACAD_DSTYLE_DIM_LINETYPE
1070
   380
1005
16
1001
ACAD_DSTYLE_DIM_EXT1_LINETYPE
1070
   381
1005
16
1001
ACAD_DSTYLE_DIM_EXT2_LINETYPE
1070
   382
1005
16
0
DIMENSION
5
179
100
AcDbEntity
8
SK2
62
256
6
ByLayer
370
18
48
1
60
0
100
AcDbDimension
2
_U3
10
79
20
-52.973091
30
0
11
17
21
-52.973091
31
0
70
32
71
1
72
1
41
1
210
0
220
0
230
1
3
Standard
100
AcDbAlignedDimension
13
-45
23
-7
33
0
14
79
24
-6.55
34
0
50
0
100
AcDbRotatedDimension
1001
ACAD
1000
DSTYLE
1002
{
1070
   371
1070
    13
1070
   372
1070
    13
1070
     3
1000

1070
   170
1070
     0
1070
   144
1040
1.0
1070
   277
1070
     2
1070
   284
1070
     8
1070
   278
1070
    46
1070
   146
1040
1.166667
1070
   345
1005
16
1070
   347
1005
16
1070
   346
1005
16
1070
   344
1005
0
1070
   343
1005
0
1070
   172
1070
     1
1070
    76
1070
     0
1070
    75
1070
     0
1070
   282
1070
     0
1070
   281
1070
     0
1070
    71
1070
     0
1070
    74
1070
     0
1070
   279
1070
     0
1070
   173
1070
     1
1070
   340
1005
10D
1070
   271
1070
     2
1070
   272
1070
     2
1070
    77
1070
     1
1070
    73
1070
     1
1070
   171
1070
     3
1070
   274
1070
     4
1070
   177
1070
     2
1070
   176
1070
     2
1070
   178
1070
     2
1070
    78
1070
     8
1070
    48
1040
-0.1
1070
    41
1040
3.5
1070
   147
1040
1.5
1070
    42
1040
1.5875
1070
    44
1040
2.0
1070
   140
1040
3.0
1002
}
1001
ACAD_DSTYLE_DIM_LINETYPE
1070
   380
1005
16
1001
ACAD_DSTYLE_DIM_EXT1_LINETYPE
1070
   381
1005
16
1001
ACAD_DSTYLE_DIM_EXT2_LINETYPE
1070
   382
1005
16
0
DIMENSION
5
191
100
AcDbEntity
8
2
62
256
6
ByLayer
370
18
48
1
60
0
100
AcDbDimension
2
_U4
10
0
20
-44.973091
30
0
11
39.5
21
-44.973091
31
0
70
32
71
1
72
1
41
1
210
0
220
0
230
1
3
Standard
100
AcDbAlignedDimension
13
79
23
-6.55
33
0
14
0
24
-6.55
34
0
50
0
100
AcDbRotatedDimension
1001
ACAD
1000
DSTYLE
1002
{
1070
   371
1070
    13
1070
   372
1070
    13
1070
     3
1000

1070
   170
1070
     0
1070
   144
1040
1.0
1070
   277
1070
     2
1070
   284
1070
     8
1070
   278
1070
    46
1070
   146
1040
1.166667
1070
   345
1005
16
1070
   347
1005
16
1070
   346
1005
16
1070
   344
1005
0
1070
   343
1005
0
1070
   172
1070
     1
1070
    76
1070
     0
1070
    75
1070
     0
1070
   282
1070
     0
1070
   281
1070
     0
1070
    71
1070
     0
1070
    74
1070
     0
1070
   279
1070
     0
1070
   173
1070
     1
1070
   340
1005
10D
1070
   271
1070
     2
1070
   272
1070
     2
1070
    77
1070
     1
1070
    73
1070
     1
1070
   171
1070
     3
1070
   274
1070
     4
1070
   177
1070
     2
1070
   176
1070
     2
1070
   178
1070
     2
1070
    78
1070
     8
1070
    48
1040
-0.1
1070
    41
1040
3.5
1070
   147
1040
1.5
1070
    42
1040
1.5875
1070
    44
1040
2.0
1070
   140
1040
3.0
1002
}
1001
ACAD_DSTYLE_DIM_LINETYPE
1070
   380
1005
16
1001
ACAD_DSTYLE_DIM_EXT1_LINETYPE
1070
   381
1005
16
1001
ACAD_DSTYLE_DIM_EXT2_LINETYPE
1070
   382
1005
16
0
ENDSEC
0
SECTION
2
OBJECTS
0
DICTIONARY
5
219
330
0
100
AcDbDictionary
280
0
281
1
3
ACAD_GROUP
350
21a
3
ACAD_MLINESTYLE
350
21b
0
DICTIONARY
5
21a
330
0
100
AcDbDictionary
280
0
281
1
0
DICTIONARY
5
21b
330
0
100
AcDbDictionary
280
0
281
1
3
Standard
350
18
0
MLINESTYLE
5
18
330
21b
100
AcDbMlineStyle
2
Standard
70
0
3

62
256
51
90
52
90
71
2
49
-0.5
62
256
6
ByLayer
49
0.5
62
256
6
ByLayer
0
RASTERVARIABLES
5
207
330

100
AcDbRasterVariables
90
0
70
1
71
1
72
1
0
ENDSEC
0
EOF
