0
SECTION
2
HEADER
9
$ACADVER
1
AC1015
9
$DWGCODEPAGE
3
ANSI_1252
9
$HANDSEED
5
228
9
$ANGBASE
50
0
9
$ANGDIR
70
0
9
$ATTMODE
70
1
9
$AUNITS
70
0
9
$AUPREC
70
0
9
$CECOLOR
62
256
9
$CELTSCALE
40
1
9
$CELTYPE
6
ByLayer
9
$CELWEIGHT
370
18
9
$CLAYER
8
0
9
$CMLJUST
70
0
9
$CMLSCALE
40
1
9
$CMLSTYLE
2
Standard
9
$DIMSTYLE
2
Standard
9
$TEXTSIZE
40
0.2
9
$TEXTSTYLE
7
Standard
9
$LUNITS
70
2
9
$LUPREC
70
4
9
$EXTNAMES
290
1
9
$INSUNITS
70
4
9
$LTSCALE
40
1
9
$LWDISPLAY
290
1
9
$PDMODE
70
0
9
$PDSIZE
40
0
9
$PLINEGEN
70
0
0
ENDSEC
0
SECTION
2
CLASSES
0
CLASS
1
RASTERVARIABLES
2
AcDbRasterVariables
3
ISM
90
0
280
0
281
0
0
ENDSEC
0
SECTION
2
TABLES
0
TABLE
2
VPORT
5
21e
100
AcDbSymbolTable
0
VPORT
5
1
100
AcDbSymbolTableRecord
100
AcDbViewportTableRecord
2
*Active
70
0
10
0
20
0
11
1
21
1
12
-1
22
1
13
0
23
0
14
0.5
24
0.5
15
10
25
10
16
0
26
0
36
1
17
0
27
0
37
0
0
ENDTAB
0
TABLE
2
LTYPE
5
21f
100
AcDbSymbolTable
0
LTYPE
5
14
100
AcDbSymbolTableRecord
100
AcDbLinetypeTableRecord
70
0
2
ByBlock
3

72
65
73
0
40
0
0
LTYPE
5
15
100
AcDbSymbolTableRecord
100
AcDbLinetypeTableRecord
70
0
2
ByLayer
3

72
65
73
0
40
0
0
LTYPE
5
16
100
AcDbSymbolTableRecord
100
AcDbLinetypeTableRecord
70
0
2
Continuous
3
Solid line
72
65
73
0
40
0
0
LTYPE
5
6E
100
AcDbSymbolTableRecord
100
AcDbLinetypeTableRecord
70
0
2
CENTER
3
____ _ ____ _ ____ _ ____
72
65
73
4
40
47.5
49
22
74
0
49
-8.5
74
0
49
8.5
74
0
49
-8.5
74
0
0
LTYPE
5
6F
100
AcDbSymbolTableRecord
100
AcDbLinetypeTableRecord
70
0
2
DASHED
3
__ __ __ __ __ __ __ __ __
72
65
73
2
40
25.72
49
12.86
74
0
49
-12.86
74
0
0
ENDTAB
0
TABLE
2
LAYER
5
220
100
AcDbSymbolTable
0
LAYER
5
10
100
AcDbSymbolTableRecord
100
AcDbLayerTableRecord
2
0
70
0
62
7
6
Continuous
290
1
370
-3
390
0
0
LAYER
5
71
100
AcDbSymbolTableRecord
100
AcDbLayerTableRecord
2
80
70
0
62
-6
6
Continuous
290
1
370
-3
390
0
0
LAYER
5
73
100
AcDbSymbolTableRecord
100
AcDbLayerTableRecord
2
81
70
0
62
-3
6
Continuous
290
1
370
-3
390
0
0
LAYER
5
75
100
AcDbSymbolTableRecord
100
AcDbLayerTableRecord
2
1
70
0
62
4
6
Continuous
290
1
370
-3
390
0
0
LAYER
5
83
100
AcDbSymbolTableRecord
100
AcDbLayerTableRecord
2
4
70
0
62
-2
6
CENTER
290
1
370
-3
390
0
0
LAYER
5
A1
100
AcDbSymbolTableRecord
100
AcDbLayerTableRecord
2
2
70
0
62
7
6
Continuous
290
1
370
-3
390
0
0
LAYER
5
133
100
AcDbSymbolTableRecord
100
AcDbLayerTableRecord
2
Defpoints
70
0
62
7
6
Continuous
290
0
370
-3
390
0
0
LAYER
5
20a
100
AcDbSymbolTableRecord
100
AcDbLayerTableRecord
2
SK4
70
0
62
2
6
CENTER
290
1
370
-3
390
0
0
LAYER
5
20b
100
AcDbSymbolTableRecord
100
AcDbLayerTableRecord
2
SK1
70
0
62
4
6
Continuous
290
1
370
-3
390
0
0
LAYER
5
20c
100
AcDbSymbolTableRecord
100
AcDbLayerTableRecord
2
SK2
70
0
62
7
6
Continuous
290
1
370
-3
390
0
0
LAYER
5
20d
100
AcDbSymbolTableRecord
100
AcDbLayerTableRecord
2
SK6
70
0
62
5
6
Continuous
290
1
370
-3
390
0
0
ENDTAB
0
TABLE
2
STYLE
5
221
100
AcDbSymbolTable
0
STYLE
5
11
100
AcDbSymbolTableRecord
100
AcDbTextStyleTableRecord
2
Standard
3
txt
70
0
71
0
40
0
41
1
42
0
50
0
0
STYLE
5
10F
100
AcDbSymbolTableRecord
100
AcDbTextStyleTableRecord
2
iso_b_vert
3
simplex.shx
70
0
71
0
40
0
41
1
42
0
50
0
0
STYLE
5
110
100
AcDbSymbolTableRecord
100
AcDbTextStyleTableRecord
2
DWGDirectTextStyle
3
simplex
70
0
71
0
40
0
41
1
42
0
50
0
0
ENDTAB
0
TABLE
2
DIMSTYLE
5
222
100
AcDbSymbolTable
100
AcDbDimStyleTable
0
DIMSTYLE
105
27
100
AcDbSymbolTableRecord
100
AcDbDimStyleTableRecord
2
Standard
70
0
3
<>
41
0.18
42
0.0625
44
0.18
140
0.18
147
0.09
73
0
74
0
77
1
271
2
275
0
278
52
280
0
340
11
0
ENDTAB
0
TABLE
2
VIEW
5
223
100
AcDbSymbolTable
0
ENDTAB
0
TABLE
2
UCS
5
224
100
AcDbSymbolTable
0
ENDTAB
0
TABLE
2
APPID
5
225
100
AcDbSymbolTable
0
APPID
5
12
100
AcDbSymbolTableRecord
100
AcDbRegAppTableRecord
2
ACAD
70
0
0
APPID
5
12F
100
AcDbSymbolTableRecord
100
AcDbRegAppTableRecord
2
ACAD_DSTYLE_DIMBREAK
70
0
0
APPID
5
1C9
100
AcDbSymbolTableRecord
100
AcDbRegAppTableRecord
2
ACAD_DSTYLE_DIM_LINETYPE
70
0
0
APPID
5
1CA
100
AcDbSymbolTableRecord
100
AcDbRegAppTableRecord
2
ACAD_DSTYLE_DIM_EXT1_LINETYPE
70
0
0
APPID
5
1CB
100
AcDbSymbolTableRecord
100
AcDbRegAppTableRecord
2
ACAD_DSTYLE_DIM_EXT2_LINETYPE
70
0
0
APPID
5
206
100
AcDbSymbolTableRecord
100
AcDbRegAppTableRecord
2
ACAD_MLEADERVER
70
0
0
ENDTAB
0
TABLE
2
BLOCK_RECORD
5
226
100
AcDbSymbolTable
0
BLOCK_RECORD
5
1F
100
AcDbSymbolTableRecord
100
AcDbBlockTableRecord
2
*Model_Space
340
0
70
0
0
BLOCK_RECORD
5
1B
100
AcDbSymbolTableRecord
100
AcDbBlockTableRecord
2
*Paper_Space
340
0
70
0
0
BLOCK_RECORD
5
23
100
AcDbSymbolTableRecord
100
AcDbBlockTableRecord
2
*Paper_Space0
340
0
70
0
0
BLOCK_RECORD
5
134
100
AcDbSymbolTableRecord
100
AcDbBlockTableRecord
2
*D1
340
0
70
0
0
BLOCK_RECORD
5
140
100
AcDbSymbolTableRecord
100
AcDbBlockTableRecord
2
_U0
340
0
70
0
0
BLOCK_RECORD
5
14E
100
AcDbSymbolTableRecord
100
AcDbBlockTableRecord
2
*D3
340
0
70
0
0
BLOCK_RECORD
5
15A
100
AcDbSymbolTableRecord
100
AcDbBlockTableRecord
2
_U1
340
0
70
0
0
BLOCK_RECORD
5
166
100
AcDbSymbolTableRecord
100
AcDbBlockTableRecord
2
*D5
340
0
70
0
0
BLOCK_RECORD
5
172
100
AcDbSymbolTableRecord
100
AcDbBlockTableRecord
2
_U2
340
0
70
0
0
BLOCK_RECORD
5
17E
100
AcDbSymbolTableRecord
100
AcDbBlockTableRecord
2
*D7
340
0
70
0
0
BLOCK_RECORD
5
18A
100
AcDbSymbolTableRecord
100
AcDbBlockTableRecord
2
_U3
340
0
70
0
0
BLOCK_RECORD
5
196
100
AcDbSymbolTableRecord
100
AcDbBlockTableRecord
2
*D9
340
0
70
0
0
BLOCK_RECORD
5
1A2
100
AcDbSymbolTableRecord
100
AcDbBlockTableRecord
2
_U4
340
0
70
0
0
ENDTAB
0
ENDSEC
0
SECTION
2
BLOCKS
0
BLOCK
5
20
100
AcDbEntity
8
0
100
AcDbBlockBegin
2
*Model_Space
70
0
10
0
20
0
30
0
3
*Model_Space
0
ENDBLK
5
21
100
AcDbEntity
8
0
100
AcDbBlockEnd
0
BLOCK
5
1C
100
AcDbEntity
8
0
100
AcDbBlockBegin
2
*Paper_Space
70
0
10
0
20
0
30
0
3
*Paper_Space
0
ENDBLK
5
1D
100
AcDbEntity
8
0
100
AcDbBlockEnd
0
BLOCK
5
24
100
AcDbEntity
8
0
100
AcDbBlockBegin
2
*Paper_Space0
70
0
10
0
20
0
30
0
3
*Paper_Space0
0
ENDBLK
5
25
100
AcDbEntity
8
0
100
AcDbBlockEnd
0
BLOCK
5
135
100
AcDbEntity
8
0
100
AcDbBlockBegin
2
*D1
70
1
10
0
20
0
30
0
3
*D1
0
LINE
5
137
100
AcDbEntity
8
0
62
256
6
ByLayer
370
-2
48
1
60
0
100
AcDbLine
10
79
20
-8.0375
30
0
11
79
21
-28.981979
31
0
39
0
210
0
220
0
230
1
0
LINE
5
138
100
AcDbEntity
8
0
62
256
6
ByLayer
370
-2
48
1
60
0
100
AcDbLine
10
20
20
-8.0375
30
0
11
20
21
-28.981979
31
0
39
0
210
0
220
0
230
1
0
LINE
5
139
100
AcDbEntity
8
0
62
256
6
ByLayer
370
-2
48
1
60
0
100
AcDbLine
10
75.5
20
-26.981979
30
0
11
23.5
21
-26.981979
31
0
39
0
210
0
220
0
230
1
0
SOLID
5
13A
100
AcDbEntity
8
0
62
256
6
ByLayer
370
-1
48
1
60
0
100
AcDbTrace
10
75.5
20
-27.565312
30
0
11
75.5
21
-26.398646
31
0
12
79
22
-26.981979
32
0
13
79
23
-26.981979
33
0
39
0
210
0
220
0
230
1
0
SOLID
5
13B
100
AcDbEntity
8
0
62
256
6
ByLayer
370
-1
48
1
60
0
100
AcDbTrace
10
23.5
20
-26.398646
30
0
11
23.5
21
-27.565312
31
0
12
20
22
-26.981979
32
0
13
20
23
-26.981979
33
0
39
0
210
0
220
0
230
1
0
MTEXT
5
13C
100
AcDbEntity
8
0
62
256
6
ByLayer
370
18
48
1
60
0
100
AcDbMText
10
49.5
20
-20.981979
30
0
210
0
220
0
230
1
1
\A1;59
40
3
41
0
44
1
50
0
71
5
72
5
7
iso_b_vert
0
POINT
5
13D
100
AcDbEntity
8
Defpoints
62
0
6
ByLayer
370
-1
48
1
60
0
100
AcDbPoint
10
79
20
-6.45
30
0
39
0
210
0
220
0
230
1
50
360
0
POINT
5
13E
100
AcDbEntity
8
Defpoints
62
0
6
ByLayer
370
-1
48
1
60
0
100
AcDbPoint
10
20
20
-6.45
30
0
39
0
210
0
220
0
230
1
50
360
0
POINT
5
13F
100
AcDbEntity
8
Defpoints
62
0
6
ByLayer
370
-1
48
1
60
0
100
AcDbPoint
10
20
20
-26.981979
30
0
39
0
210
0
220
0
230
1
50
360
0
ENDBLK
5
136
100
AcDbEntity
8
0
100
AcDbBlockEnd
0
BLOCK
5
149
100
AcDbEntity
8
0
100
AcDbBlockBegin
2
_U0
70
0
10
0
20
0
30
0
3
_U0
0
MTEXT
5
141
100
AcDbEntity
8
SK2
62
256
6
ByLayer
370
18
48
1
60
0
100
AcDbMText
10
47.867172
20
-24.784365
30
0
210
0
220
0
230
1
1
\W0.6927;59
40
3
41
0
44
1.084337
50
0
71
7
72
5
7
iso_b_vert
0
MTEXT
5
142
100
AcDbEntity
8
SK2
62
256
6
ByLayer
370
18
48
1
60
0
100
AcDbMText
10
45.767172
20
-24.784365
30
0
210
0
220
0
230
1
1
\W1.1313;{\H1.88x;(}
40
3
41
0
44
1.084337
50
0
71
7
72
5
7
iso_b_vert
0
MTEXT
5
143
100
AcDbEntity
8
SK2
62
256
6
ByLayer
370
18
48
1
60
0
100
AcDbMText
10
51.450828
20
-24.784365
30
0
210
0
220
0
230
1
1
\W1.1313;{\H1.88x;)}
40
3
41
0
44
1.084337
50
0
71
7
72
5
7
iso_b_vert
0
LINE
5
144
100
AcDbEntity
8
SK2
62
256
6
ByLayer
370
13
48
1
60
0
100
AcDbLine
10
79
20
-8.0375
30
0
11
79
21
-28.981979
31
0
39
0
210
0
220
0
230
1
0
LINE
5
145
100
AcDbEntity
8
SK2
62
256
6
ByLayer
370
13
48
1
60
0
100
AcDbLine
10
20
20
-8.0375
30
0
11
20
21
-28.981979
31
0
39
0
210
0
220
0
230
1
0
LINE
5
146
100
AcDbEntity
8
SK2
62
256
6
ByLayer
370
13
48
1
60
0
100
AcDbLine
10
79
20
-26.981979
30
0
11
20
21
-26.981979
31
0
39
0
210
0
220
0
230
1
0
SOLID
5
147
100
AcDbEntity
8
SK2
62
256
6
ByLayer
370
18
48
1
60
0
100
AcDbTrace
10
79
20
-26.981979
30
0
11
75.500002
21
-27.442763
31
0
12
75.499998
22
-26.521195
32
0
13
75.499998
23
-26.521195
33
0
39
0
210
0
220
0
230
1
0
SOLID
5
148
100
AcDbEntity
8
SK2
62
256
6
ByLayer
370
18
48
1
60
0
100
AcDbTrace
10
20
20
-26.981979
30
0
11
23.499998
21
-26.521195
31
0
12
23.500002
22
-27.442763
32
0
13
23.500002
23
-27.442763
33
0
39
0
210
0
220
0
230
1
0
ENDBLK
5
14A
100
AcDbEntity
8
0
100
AcDbBlockEnd
0
BLOCK
5
14F
100
AcDbEntity
8
0
100
AcDbBlockBegin
2
*D3
70
1
10
0
20
0
30
0
3
*D3
0
LINE
5
151
100
AcDbEntity
8
0
62
256
6
ByLayer
370
-2
48
1
60
0
100
AcDbLine
10
79
20
-8.0375
30
0
11
79
21
-38.981979
31
0
39
0
210
0
220
0
230
1
0
LINE
5
152
100
AcDbEntity
8
0
62
256
6
ByLayer
370
-2
48
1
60
0
100
AcDbLine
10
2
20
-8.0375
30
0
11
2
21
-38.981979
31
0
39
0
210
0
220
0
230
1
0
LINE
5
153
100
AcDbEntity
8
0
62
256
6
ByLayer
370
-2
48
1
60
0
100
AcDbLine
10
75.5
20
-36.981979
30
0
11
5.5
21
-36.981979
31
0
39
0
210
0
220
0
230
1
0
SOLID
5
154
100
AcDbEntity
8
0
62
256
6
ByLayer
370
-1
48
1
60
0
100
AcDbTrace
10
75.5
20
-37.565312
30
0
11
75.5
21
-36.398646
31
0
12
79
22
-36.981979
32
0
13
79
23
-36.981979
33
0
39
0
210
0
220
0
230
1
0
SOLID
5
155
100
AcDbEntity
8
0
62
256
6
ByLayer
370
-1
48
1
60
0
100
AcDbTrace
10
5.5
20
-36.398646
30
0
11
5.5
21
-37.565312
31
0
12
2
22
-36.981979
32
0
13
2
23
-36.981979
33
0
39
0
210
0
220
0
230
1
0
MTEXT
5
156
100
AcDbEntity
8
0
62
256
6
ByLayer
370
18
48
1
60
0
100
AcDbMText
10
40.5
20
-30.981979
30
0
210
0
220
0
230
1
1
\A1;77
40
3
41
0
44
1
50
0
71
5
72
5
7
iso_b_vert
0
POINT
5
157
100
AcDbEntity
8
Defpoints
62
0
6
ByLayer
370
-1
48
1
60
0
100
AcDbPoint
10
79
20
-6.45
30
0
39
0
210
0
220
0
230
1
50
360
0
POINT
5
158
100
AcDbEntity
8
Defpoints
62
0
6
ByLayer
370
-1
48
1
60
0
100
AcDbPoint
10
2
20
-6.45
30
0
39
0
210
0
220
0
230
1
50
360
0
POINT
5
159
100
AcDbEntity
8
Defpoints
62
0
6
ByLayer
370
-1
48
1
60
0
100
AcDbPoint
10
2
20
-36.981979
30
0
39
0
210
0
220
0
230
1
50
360
0
ENDBLK
5
150
100
AcDbEntity
8
0
100
AcDbBlockEnd
0
BLOCK
5
161
100
AcDbEntity
8
0
100
AcDbBlockBegin
2
_U1
70
0
10
0
20
0
30
0
3
_U1
0
MTEXT
5
15B
100
AcDbEntity
8
SK2
62
256
6
ByLayer
370
18
48
1
60
0
100
AcDbMText
10
38.867172
20
-36.096865
30
0
210
0
220
0
230
1
1
\W0.6740;77
40
3
41
0
44
1.084337
50
0
71
7
72
5
7
iso_b_vert
0
LINE
5
15C
100
AcDbEntity
8
SK2
62
256
6
ByLayer
370
13
48
1
60
0
100
AcDbLine
10
79
20
-8.0375
30
0
11
79
21
-38.981979
31
0
39
0
210
0
220
0
230
1
0
LINE
5
15D
100
AcDbEntity
8
SK2
62
256
6
ByLayer
370
13
48
1
60
0
100
AcDbLine
10
2
20
-8.0375
30
0
11
2
21
-38.981979
31
0
39
0
210
0
220
0
230
1
0
LINE
5
15E
100
AcDbEntity
8
SK2
62
256
6
ByLayer
370
13
48
1
60
0
100
AcDbLine
10
79
20
-36.981979
30
0
11
2
21
-36.981979
31
0
39
0
210
0
220
0
230
1
0
SOLID
5
15F
100
AcDbEntity
8
SK2
62
256
6
ByLayer
370
18
48
1
60
0
100
AcDbTrace
10
79
20
-36.981979
30
0
11
75.500002
21
-37.442763
31
0
12
75.499998
22
-36.521195
32
0
13
75.499998
23
-36.521195
33
0
39
0
210
0
220
0
230
1
0
SOLID
5
160
100
AcDbEntity
8
SK2
62
256
6
ByLayer
370
18
48
1
60
0
100
AcDbTrace
10
2
20
-36.981979
30
0
11
5.499998
21
-36.521195
31
0
12
5.500002
22
-37.442763
32
0
13
5.500002
23
-37.442763
33
0
39
0
210
0
220
0
230
1
0
ENDBLK
5
162
100
AcDbEntity
8
0
100
AcDbBlockEnd
0
BLOCK
5
167
100
AcDbEntity
8
0
100
AcDbBlockBegin
2
*D5
70
1
10
0
20
0
30
0
3
*D5
0
LINE
5
169
100
AcDbEntity
8
0
62
256
6
ByLayer
370
-2
48
1
60
0
100
AcDbLine
10
-45
20
-8.5875
30
0
11
-45
21
-46.981979
31
0
39
0
210
0
220
0
230
1
0
LINE
5
16A
100
AcDbEntity
8
0
62
256
6
ByLayer
370
-2
48
1
60
0
100
AcDbLine
10
0
20
-8.5875
30
0
11
0
21
-46.981979
31
0
39
0
210
0
220
0
230
1
0
LINE
5
16B
100
AcDbEntity
8
0
62
256
6
ByLayer
370
-2
48
1
60
0
100
AcDbLine
10
-41.5
20
-44.981979
30
0
11
-3.5
21
-44.981979
31
0
39
0
210
0
220
0
230
1
0
SOLID
5
16C
100
AcDbEntity
8
0
62
256
6
ByLayer
370
-1
48
1
60
0
100
AcDbTrace
10
-41.5
20
-44.398646
30
0
11
-41.5
21
-45.565312
31
0
12
-45
22
-44.981979
32
0
13
-45
23
-44.981979
33
0
39
0
210
0
220
0
230
1
0
SOLID
5
16D
100
AcDbEntity
8
0
62
256
6
ByLayer
370
-1
48
1
60
0
100
AcDbTrace
10
-3.5
20
-45.565312
30
0
11
-3.5
21
-44.398646
31
0
12
0
22
-44.981979
32
0
13
0
23
-44.981979
33
0
39
0
210
0
220
0
230
1
0
MTEXT
5
16E
100
AcDbEntity
8
0
62
256
6
ByLayer
370
18
48
1
60
0
100
AcDbMText
10
-22.5
20
-38.981979
30
0
210
0
220
0
230
1
1
\A1;45
40
3
41
0
44
1
50
0
71
5
72
5
7
iso_b_vert
0
POINT
5
16F
100
AcDbEntity
8
Defpoints
62
0
6
ByLayer
370
-1
48
1
60
0
100
AcDbPoint
10
-45
20
-7
30
0
39
0
210
0
220
0
230
1
50
360
0
POINT
5
170
100
AcDbEntity
8
Defpoints
62
0
6
ByLayer
370
-1
48
1
60
0
100
AcDbPoint
10
0
20
-7
30
0
39
0
210
0
220
0
230
1
50
360
0
POINT
5
171
100
AcDbEntity
8
Defpoints
62
0
6
ByLayer
370
-1
48
1
60
0
100
AcDbPoint
10
0
20
-44.981979
30
0
39
0
210
0
220
0
230
1
50
360
0
ENDBLK
5
168
100
AcDbEntity
8
0
100
AcDbBlockEnd
0
BLOCK
5
179
100
AcDbEntity
8
0
100
AcDbBlockBegin
2
_U2
70
0
10
0
20
0
30
0
3
_U2
0
MTEXT
5
173
100
AcDbEntity
8
SK2
62
256
6
ByLayer
370
18
48
1
60
0
100
AcDbMText
10
-24.290771
20
-44.096865
30
0
210
0
220
0
230
1
1
\W0.7361;45
40
3
41
0
44
1.084337
50
0
71
7
72
5
7
iso_b_vert
0
LINE
5
174
100
AcDbEntity
8
SK2
62
256
6
ByLayer
370
13
48
1
60
0
100
AcDbLine
10
-45
20
-8.5875
30
0
11
-45
21
-46.981979
31
0
39
0
210
0
220
0
230
1
0
LINE
5
175
100
AcDbEntity
8
SK2
62
256
6
ByLayer
370
13
48
1
60
0
100
AcDbLine
10
0
20
-8.5875
30
0
11
0
21
-46.981979
31
0
39
0
210
0
220
0
230
1
0
LINE
5
176
100
AcDbEntity
8
SK2
62
256
6
ByLayer
370
13
48
1
60
0
100
AcDbLine
10
-45
20
-44.981979
30
0
11
0
21
-44.981979
31
0
39
0
210
0
220
0
230
1
0
SOLID
5
177
100
AcDbEntity
8
SK2
62
256
6
ByLayer
370
18
48
1
60
0
100
AcDbTrace
10
-45
20
-44.981979
30
0
11
-41.500002
21
-44.521195
31
0
12
-41.499998
22
-45.442763
32
0
13
-41.499998
23
-45.442763
33
0
39
0
210
0
220
0
230
1
0
SOLID
5
178
100
AcDbEntity
8
SK2
62
256
6
ByLayer
370
18
48
1
60
0
100
AcDbTrace
10
0
20
-44.981979
30
0
11
-3.499998
21
-45.442763
31
0
12
-3.500002
22
-44.521195
32
0
13
-3.500002
23
-44.521195
33
0
39
0
210
0
220
0
230
1
0
ENDBLK
5
17A
100
AcDbEntity
8
0
100
AcDbBlockEnd
0
BLOCK
5
17F
100
AcDbEntity
8
0
100
AcDbBlockBegin
2
*D7
70
1
10
0
20
0
30
0
3
*D7
0
LINE
5
181
100
AcDbEntity
8
0
62
256
6
ByLayer
370
-2
48
1
60
0
100
AcDbLine
10
-45
20
-8.5875
30
0
11
-45
21
-54.981979
31
0
39
0
210
0
220
0
230
1
0
LINE
5
182
100
AcDbEntity
8
0
62
256
6
ByLayer
370
-2
48
1
60
0
100
AcDbLine
10
79
20
-8.0375
30
0
11
79
21
-54.981979
31
0
39
0
210
0
220
0
230
1
0
LINE
5
183
100
AcDbEntity
8
0
62
256
6
ByLayer
370
-2
48
1
60
0
100
AcDbLine
10
-41.5
20
-52.981979
30
0
11
75.5
21
-52.981979
31
0
39
0
210
0
220
0
230
1
0
SOLID
5
184
100
AcDbEntity
8
0
62
256
6
ByLayer
370
-1
48
1
60
0
100
AcDbTrace
10
-41.5
20
-52.398646
30
0
11
-41.5
21
-53.565312
31
0
12
-45
22
-52.981979
32
0
13
-45
23
-52.981979
33
0
39
0
210
0
220
0
230
1
0
SOLID
5
185
100
AcDbEntity
8
0
62
256
6
ByLayer
370
-1
48
1
60
0
100
AcDbTrace
10
75.5
20
-53.565312
30
0
11
75.5
21
-52.398646
31
0
12
79
22
-52.981979
32
0
13
79
23
-52.981979
33
0
39
0
210
0
220
0
230
1
0
MTEXT
5
186
100
AcDbEntity
8
0
62
256
6
ByLayer
370
18
48
1
60
0
100
AcDbMText
10
17
20
-46.981979
30
0
210
0
220
0
230
1
1
\A1;124
40
3
41
0
44
1
50
0
71
5
72
5
7
iso_b_vert
0
POINT
5
187
100
AcDbEntity
8
Defpoints
62
0
6
ByLayer
370
-1
48
1
60
0
100
AcDbPoint
10
-45
20
-7
30
0
39
0
210
0
220
0
230
1
50
360
0
POINT
5
188
100
AcDbEntity
8
Defpoints
62
0
6
ByLayer
370
-1
48
1
60
0
100
AcDbPoint
10
79
20
-6.45
30
0
39
0
210
0
220
0
230
1
50
360
0
POINT
5
189
100
AcDbEntity
8
Defpoints
62
0
6
ByLayer
370
-1
48
1
60
0
100
AcDbPoint
10
79
20
-52.981979
30
0
39
0
210
0
220
0
230
1
50
360
0
ENDBLK
5
180
100
AcDbEntity
8
0
100
AcDbBlockEnd
0
BLOCK
5
191
100
AcDbEntity
8
0
100
AcDbBlockBegin
2
_U3
70
0
10
0
20
0
30
0
3
_U3
0
MTEXT
5
18B
100
AcDbEntity
8
SK2
62
256
6
ByLayer
370
18
48
1
60
0
100
AcDbMText
10
14.463258
20
-52.096865
30
0
210
0
220
0
230
1
1
\W0.6506;124
40
3
41
0
44
1.084337
50
0
71
7
72
5
7
iso_b_vert
0
LINE
5
18C
100
AcDbEntity
8
SK2
62
256
6
ByLayer
370
13
48
1
60
0
100
AcDbLine
10
-45
20
-8.5875
30
0
11
-45
21
-54.981979
31
0
39
0
210
0
220
0
230
1
0
LINE
5
18D
100
AcDbEntity
8
SK2
62
256
6
ByLayer
370
13
48
1
60
0
100
AcDbLine
10
79
20
-8.0375
30
0
11
79
21
-54.981979
31
0
39
0
210
0
220
0
230
1
0
LINE
5
18E
100
AcDbEntity
8
SK2
62
256
6
ByLayer
370
13
48
1
60
0
100
AcDbLine
10
-45
20
-52.981979
30
0
11
79
21
-52.981979
31
0
39
0
210
0
220
0
230
1
0
SOLID
5
18F
100
AcDbEntity
8
SK2
62
256
6
ByLayer
370
18
48
1
60
0
100
AcDbTrace
10
-45
20
-52.981979
30
0
11
-41.500002
21
-52.521195
31
0
12
-41.499998
22
-53.442763
32
0
13
-41.499998
23
-53.442763
33
0
39
0
210
0
220
0
230
1
0
SOLID
5
190
100
AcDbEntity
8
SK2
62
256
6
ByLayer
370
18
48
1
60
0
100
AcDbTrace
10
79
20
-52.981979
30
0
11
75.500002
21
-53.442763
31
0
12
75.499998
22
-52.521195
32
0
13
75.499998
23
-52.521195
33
0
39
0
210
0
220
0
230
1
0
ENDBLK
5
192
100
AcDbEntity
8
0
100
AcDbBlockEnd
0
BLOCK
5
197
100
AcDbEntity
8
0
100
AcDbBlockBegin
2
*D9
70
1
10
0
20
0
30
0
3
*D9
0
LINE
5
199
100
AcDbEntity
8
0
62
256
6
ByLayer
370
-2
48
1
60
0
100
AcDbLine
10
79
20
-8.0375
30
0
11
79
21
-46.981979
31
0
39
0
210
0
220
0
230
1
0
LINE
5
19A
100
AcDbEntity
8
0
62
256
6
ByLayer
370
-2
48
1
60
0
100
AcDbLine
10
0
20
-8.0375
30
0
11
0
21
-46.981979
31
0
39
0
210
0
220
0
230
1
0
LINE
5
19B
100
AcDbEntity
8
0
62
256
6
ByLayer
370
-2
48
1
60
0
100
AcDbLine
10
75.5
20
-44.981979
30
0
11
3.5
21
-44.981979
31
0
39
0
210
0
220
0
230
1
0
SOLID
5
19C
100
AcDbEntity
8
0
62
256
6
ByLayer
370
-1
48
1
60
0
100
AcDbTrace
10
75.5
20
-45.565312
30
0
11
75.5
21
-44.398646
31
0
12
79
22
-44.981979
32
0
13
79
23
-44.981979
33
0
39
0
210
0
220
0
230
1
0
SOLID
5
19D
100
AcDbEntity
8
0
62
256
6
ByLayer
370
-1
48
1
60
0
100
AcDbTrace
10
3.5
20
-44.398646
30
0
11
3.5
21
-45.565312
31
0
12
0
22
-44.981979
32
0
13
0
23
-44.981979
33
0
39
0
210
0
220
0
230
1
0
MTEXT
5
19E
100
AcDbEntity
8
0
62
256
6
ByLayer
370
18
48
1
60
0
100
AcDbMText
10
39.5
20
-38.981979
30
0
210
0
220
0
230
1
1
\A1;79
40
3
41
0
44
1
50
0
71
5
72
5
7
iso_b_vert
0
POINT
5
19F
100
AcDbEntity
8
Defpoints
62
0
6
ByLayer
370
-1
48
1
60
0
100
AcDbPoint
10
79
20
-6.45
30
0
39
0
210
0
220
0
230
1
50
360
0
POINT
5
1A0
100
AcDbEntity
8
Defpoints
62
0
6
ByLayer
370
-1
48
1
60
0
100
AcDbPoint
10
0
20
-6.45
30
0
39
0
210
0
220
0
230
1
50
360
0
POINT
5
1A1
100
AcDbEntity
8
Defpoints
62
0
6
ByLayer
370
-1
48
1
60
0
100
AcDbPoint
10
0
20
-44.981979
30
0
39
0
210
0
220
0
230
1
50
360
0
ENDBLK
5
198
100
AcDbEntity
8
0
100
AcDbBlockEnd
0
BLOCK
5
1A9
100
AcDbEntity
8
0
100
AcDbBlockBegin
2
_U4
70
0
10
0
20
0
30
0
3
_U4
0
MTEXT
5
1A3
100
AcDbEntity
8
2
62
256
6
ByLayer
370
18
48
1
60
0
100
AcDbMText
10
37.867172
20
-44.096865
30
0
210
0
220
0
230
1
1
\W0.6927;79
40
3
41
0
44
1.084337
50
0
71
7
72
5
7
iso_b_vert
0
LINE
5
1A4
100
AcDbEntity
8
2
62
256
6
ByLayer
370
13
48
1
60
0
100
AcDbLine
10
79
20
-8.0375
30
0
11
79
21
-46.981979
31
0
39
0
210
0
220
0
230
1
0
LINE
5
1A5
100
AcDbEntity
8
2
62
256
6
ByLayer
370
13
48
1
60
0
100
AcDbLine
10
0
20
-8.0375
30
0
11
0
21
-46.981979
31
0
39
0
210
0
220
0
230
1
0
LINE
5
1A6
100
AcDbEntity
8
2
62
256
6
ByLayer
370
13
48
1
60
0
100
AcDbLine
10
79
20
-44.981979
30
0
11
0
21
-44.981979
31
0
39
0
210
0
220
0
230
1
0
SOLID
5
1A7
100
AcDbEntity
8
2
62
256
6
ByLayer
370
18
48
1
60
0
100
AcDbTrace
10
79
20
-44.981979
30
0
11
75.500002
21
-45.442763
31
0
12
75.499998
22
-44.521195
32
0
13
75.499998
23
-44.521195
33
0
39
0
210
0
220
0
230
1
0
SOLID
5
1A8
100
AcDbEntity
8
2
62
256
6
ByLayer
370
18
48
1
60
0
100
AcDbTrace
10
0
20
-44.981979
30
0
11
3.499998
21
-44.521195
31
0
12
3.500002
22
-45.442763
32
0
13
3.500002
23
-45.442763
33
0
39
0
210
0
220
0
230
1
0
ENDBLK
5
1AA
100
AcDbEntity
8
0
100
AcDbBlockEnd
0
ENDSEC
0
SECTION
2
ENTITIES
0
ARC
5
BC
100
AcDbEntity
8
1
62
256
6
ByLayer
370
18
48
1
60
0
100
AcDbCircle
39
0
10
1.312974
20
-7.114385
30
0
40
0.800000000000004
210
0
220
0
230
1
100
AcDbArc
50
89.896868
51
145.145766
0
ARC
5
BD
100
AcDbEntity
8
1
62
256
6
ByLayer
370
18
48
1
60
0
100
AcDbCircle
39
0
10
1.312974
20
7.114385
30
0
40
0.800000000000004
210
0
220
0
230
1
100
AcDbArc
50
214.854234
51
270.103132
0
ARC
5
BE
100
AcDbEntity
8
1
62
256
6
ByLayer
370
18
48
1
60
0
100
AcDbCircle
39
0
10
0
20
-6.2
30
0
40
0.799999999999997
210
0
220
0
230
1
100
AcDbArc
50
270
51
325.145766
0
ARC
5
BF
100
AcDbEntity
8
1
62
256
6
ByLayer
370
18
48
1
60
0
100
AcDbCircle
39
0
10
0
20
6.2
30
0
40
0.799999999999997
210
0
220
0
230
1
100
AcDbArc
50
34.854234
51
90
0
ARC
5
C0
100
AcDbEntity
8
SK2
62
256
6
ByLayer
370
13
48
1
60
0
100
AcDbCircle
39
0
10
79
20
0
30
0
40
23.4793592680033
210
0
220
0
230
1
100
AcDbArc
50
7.340852
51
69.996925
0
ARC
5
C1
100
AcDbEntity
8
SK2
62
256
6
ByLayer
370
13
48
1
60
0
100
AcDbCircle
39
0
10
79
20
0
30
0
40
23.4793592680033
210
0
220
0
230
1
100
AcDbArc
50
290.003075
51
352.659148
0
ELLIPSE
5
C2
100
AcDbEntity
8
1
62
256
6
ByLayer
370
13
48
1
60
0
100
AcDbEllipse
10
20.100806
20
6.03946
30
0
11
-3.80570593895298E-05
21
0.00999992758274932
31
0
210
0
220
0
230
1
40
0.005224
41
-2.98588185375325
42
-1.41500562734462
0
ELLIPSE
5
C3
100
AcDbEntity
8
1
62
256
6
ByLayer
370
13
48
1
60
0
100
AcDbEllipse
10
20.141078
20
6.038124
30
0
11
-0.000747988526925924
21
-0.00997198642014655
31
0
210
0
220
0
230
1
40
0.447069
41
0.176045927837908
42
1.74349940286081
0
POINT
5
70
100
AcDbEntity
8
80
62
256
6
ByLayer
370
18
48
1
60
0
100
AcDbPoint
10
0
20
0
30
0
39
0
210
0
220
0
230
1
50
360
0
POINT
5
72
100
AcDbEntity
8
81
62
256
6
ByLayer
370
18
48
1
60
0
100
AcDbPoint
10
79
20
0
30
0
39
0
210
0
220
0
230
1
50
360
0
POINT
5
74
100
AcDbEntity
8
1
62
256
6
ByLayer
370
18
48
1
60
0
100
AcDbPoint
10
-199.43532
20
-200
30
0
39
0
210
0
220
0
230
1
50
360
0
POINT
5
76
100
AcDbEntity
8
1
62
256
6
ByLayer
370
13
48
1
60
1
100
AcDbPoint
10
-46.5
20
0
30
0
39
0
210
0
220
0
230
1
50
360
0
POINT
5
77
100
AcDbEntity
8
1
62
256
6
ByLayer
370
13
48
1
60
1
100
AcDbPoint
10
78.167209
20
0
30
0
39
0
210
0
220
0
230
1
50
360
0
POINT
5
78
100
AcDbEntity
8
1
62
256
6
ByLayer
370
18
48
1
60
1
100
AcDbPoint
10
79
20
-6.45
30
0
39
0
210
0
220
0
230
1
50
360
0
POINT
5
79
100
AcDbEntity
8
1
62
256
6
ByLayer
370
18
48
1
60
1
100
AcDbPoint
10
20
20
-6.45
30
0
39
0
210
0
220
0
230
1
50
360
0
POINT
5
7A
100
AcDbEntity
8
1
62
256
6
ByLayer
370
18
48
1
60
1
100
AcDbPoint
10
79
20
-6.45
30
0
39
0
210
0
220
0
230
1
50
360
0
POINT
5
7B
100
AcDbEntity
8
1
62
256
6
ByLayer
370
18
48
1
60
1
100
AcDbPoint
10
2
20
-6.45
30
0
39
0
210
0
220
0
230
1
50
360
0
POINT
5
7C
100
AcDbEntity
8
1
62
256
6
ByLayer
370
18
48
1
60
1
100
AcDbPoint
10
-45
20
-7
30
0
39
0
210
0
220
0
230
1
50
360
0
POINT
5
7D
100
AcDbEntity
8
1
62
256
6
ByLayer
370
18
48
1
60
1
100
AcDbPoint
10
0
20
-7
30
0
39
0
210
0
220
0
230
1
50
360
0
POINT
5
7E
100
AcDbEntity
8
1
62
256
6
ByLayer
370
18
48
1
60
1
100
AcDbPoint
10
-45
20
-7
30
0
39
0
210
0
220
0
230
1
50
360
0
POINT
5
7F
100
AcDbEntity
8
1
62
256
6
ByLayer
370
18
48
1
60
1
100
AcDbPoint
10
79
20
-6.45
30
0
39
0
210
0
220
0
230
1
50
360
0
POINT
5
80
100
AcDbEntity
8
1
62
256
6
ByLayer
370
18
48
1
60
1
100
AcDbPoint
10
79
20
-6.45
30
0
39
0
210
0
220
0
230
1
50
360
0
POINT
5
81
100
AcDbEntity
8
1
62
256
6
ByLayer
370
18
48
1
60
1
100
AcDbPoint
10
0
20
-6.45
30
0
39
0
210
0
220
0
230
1
50
360
0
SPLINE
5
C4
100
AcDbEntity
8
1
62
256
6
ByLayer
370
18
48
1
60
0
100
AcDbSpline
70
4
71
3
72
8
73
4
40
0
40
0
40
0
40
0
40
1
40
1
40
1
40
1
41
1
10
78.3554805101282
20
2.07972515152761
30
0
41
1
10
78.5242226149538
20
1.60749029297136
30
0
41
1
10
78.6915686115849
20
1.13476475666573
30
0
41
1
10
78.8574904964134
20
0.661538700431208
30
0
0
SPLINE
5
C5
100
AcDbEntity
8
1
62
256
6
ByLayer
370
18
48
1
60
0
100
AcDbSpline
70
4
71
3
72
24
73
20
40
0
40
0
40
0
40
0
40
0.124999999999975
40
0.124999999999975
40
0.187499999999962
40
0.187499999999962
40
0.249999999999949
40
0.249999999999949
40
0.312499999999937
40
0.312499999999937
40
0.374999999999924
40
0.374999999999924
40
0.499999999999893
40
0.499999999999893
40
0.749999999999946
40
0.749999999999946
40
0.874999999999973
40
0.874999999999973
40
1
40
1
40
1
40
1
41
1
10
20.1008514773867
20
6.04101199259284
30
0
41
1
10
20.0930339385916
20
6.04098577049095
30
0
41
1
10
20.0854265537795
20
6.04162379691175
30
0
41
1
10
20.0743057373967
20
6.04349748550314
30
0
41
1
10
20.0706565639633
20
6.04427803634286
30
0
41
1
10
20.0636709172755
20
6.04608279078317
30
0
41
1
10
20.0603042694256
20
6.04711158968527
30
0
41
1
10
20.0538038843138
20
6.04940218352328
30
0
41
1
10
20.0506546899374
20
6.05067232910147
30
0
41
1
10
20.0447091069701
20
6.05337217003304
30
0
41
1
10
20.0418985968526
20
6.05480517799154
30
0
41
1
10
20.0339016465681
20
6.05932611132687
30
0
41
1
10
20.0291167960365
20
6.06265888052016
30
0
41
1
10
20.0164897429777
20
6.07326105669392
30
0
41
1
10
20.0104946899841
20
6.0809149009666
30
0
41
1
10
20.0043905599958
20
6.09308234702178
30
0
41
1
10
20.0028944627939
20
6.09717514262678
30
0
41
1
10
20.0008958522807
20
6.10542593055646
30
0
41
1
10
20.0003945039497
20
6.10961436330223
30
0
41
1
10
20.0003945039497
20
6.11376631706787
30
0
0
SPLINE
5
C6
100
AcDbEntity
8
1
62
256
6
ByLayer
370
13
48
1
60
0
100
AcDbSpline
70
4
71
3
72
10
73
6
40
0
40
0
40
0
40
0
40
0.5
40
0.5
40
1
40
1
40
1
40
1
41
1
10
20.1455983660235
20
6.03950860958281
30
0
41
1
10
20.1386424249228
20
6.04003289423883
30
0
41
1
10
20.1314164339427
20
6.04041715899595
30
0
41
1
10
20.1164439447329
20
6.04092090456604
30
0
41
1
10
20.1086495167252
20
6.04103814928837
30
0
41
1
10
20.1008514773867
20
6.04101199259284
30
0
0
SPLINE
5
C7
100
AcDbEntity
8
1
62
256
6
ByLayer
370
18
48
1
60
0
100
AcDbSpline
70
4
71
3
72
8
73
4
40
0
40
0
40
0
40
0
40
1
40
1
40
1
40
1
41
1
10
78.8574904964133
20
0.66153870043118
30
0
41
1
10
78.9032565346246
20
0.531009314301343
30
0
41
1
10
78.9499245190135
20
0.400980724807937
30
0
41
1
10
78.9974924732589
20
0.271435140148242
30
0
0
SPLINE
5
C8
100
AcDbEntity
8
1
62
256
6
ByLayer
370
18
48
1
60
0
100
AcDbSpline
70
4
71
3
72
10
73
6
40
0
40
0
40
0
40
0
40
0.671057604944735
40
0.671057604944735
40
1
40
1
40
1
40
1
41
1
10
76.547300959232
20
6.4496990292543
30
0
41
1
10
76.5745865069558
20
6.40527394704995
30
0
41
1
10
76.6018859226576
20
6.36068280052413
30
0
41
1
10
76.6425870740377
20
6.29399031903725
30
0
41
1
10
76.6559783479316
20
6.27201368545448
30
0
41
1
10
76.6693724694528
20
6.24999873254245
30
0
0
SPLINE
5
C9
100
AcDbEntity
8
1
62
256
6
ByLayer
370
18
48
1
60
0
100
AcDbSpline
70
4
71
3
72
10
73
6
40
0
40
0
40
0
40
0
40
0.5
40
0.5
40
1
40
1
40
1
40
1
41
1
10
78.3554805101282
20
2.07972515152761
30
0
41
1
10
78.2181795269686
20
2.0623881974922
30
0
41
1
10
78.0807343347901
20
2.04687540283376
30
0
41
1
10
77.8056335038891
20
2.0185118386749
30
0
41
1
10
77.6679771929153
20
2.00566957276038
30
0
41
1
10
77.5302436123804
20
1.9938047214016
30
0
0
SPLINE
5
CA
100
AcDbEntity
8
1
62
256
6
ByLayer
370
18
48
1
60
0
100
AcDbSpline
70
4
71
3
72
31
73
27
40
0
40
0
40
0
40
0
40
0.124999999999988
40
0.124999999999988
40
0.249999999999976
40
0.249999999999976
40
0.281249999999976
40
0.281249999999976
40
0.312499999999975
40
0.374999999999971
40
0.374999999999971
40
0.40624999999997
40
0.40624999999997
40
0.421874999999969
40
0.421874999999969
40
0.437499999999969
40
0.437499999999969
40
0.499999999999971
40
0.499999999999971
40
0.624999999999978
40
0.624999999999978
40
0.749999999999985
40
0.749999999999985
40
0.874999999999993
40
0.874999999999993
40
1
40
1
40
1
40
1
41
1
10
78.3554805101282
20
2.07972515152761
30
0
41
1
10
78.2806532631481
20
2.21765081931099
30
0
41
1
10
78.2081178184331
20
2.36076452421568
30
0
41
1
10
78.0670066528385
20
2.65704208014822
30
0
41
1
10
77.9984332487996
20
2.81020454206958
30
0
41
1
10
77.914824883695
20
3.00812054154179
30
0
41
1
10
77.8981774334538
20
3.04810446534543
30
0
41
1
10
77.865277665791
20
3.12824966329197
30
0
41
1
10
77.8165067718789
20
3.24875739321249
30
0
41
1
10
77.7693817992613
20
3.37009874082696
30
0
41
1
10
77.7232322328862
20
3.49194666098174
30
0
41
1
10
77.7080117188725
20
3.5326471180087
30
0
41
1
10
77.6854085939121
20
3.59381775373913
30
0
41
1
10
77.6779123489944
20
3.61422805808485
30
0
41
1
10
77.6629906294813
20
3.65508624492816
30
0
41
1
10
77.6555582613407
20
3.67553047065886
30
0
41
1
10
77.6183849136672
20
3.77774544602082
30
0
41
1
10
77.5887456022301
20
3.85957020235369
30
0
41
1
10
77.5001138819435
20
4.1052019552246
30
0
41
1
10
77.4413989208625
20
4.26919258950676
30
0
41
1
10
77.3247018638154
20
4.59748042537211
30
0
41
1
10
77.2667784314105
20
4.76161111366289
30
0
41
1
10
77.1516997647842
20
5.08976734968186
30
0
41
1
10
77.0945487213986
20
5.25379293588284
30
0
41
1
10
76.9808949916485
20
5.58164428037395
30
0
41
1
10
76.9244387329838
20
5.74532998159239
30
0
41
1
10
76.8683224923864
20
5.90856405443162
30
0
0
SPLINE
5
CB
100
AcDbEntity
8
1
62
256
6
ByLayer
370
18
48
1
60
0
100
AcDbSpline
70
4
71
3
72
8
73
4
40
0
40
0
40
0
40
0
40
1
40
1
40
1
40
1
41
1
10
76.8683224923866
20
5.90856405443165
30
0
41
1
10
76.8158922391414
20
5.99947792576509
30
0
41
1
10
76.7634875548204
20
6.09039315261302
30
0
41
1
10
76.7111163624493
20
6.18129462918165
30
0
0
SPLINE
5
CC
100
AcDbEntity
8
1
62
256
6
ByLayer
370
18
48
1
60
0
100
AcDbSpline
70
4
71
3
72
34
73
30
40
0
40
0
40
0
40
0
40
0.193012934761009
40
0.193012934761009
40
0.241266168451264
40
0.241266168451264
40
0.289519402141519
40
0.289519402141519
40
0.386025869522032
40
0.386025869522032
40
0.434279103212289
40
0.434279103212289
40
0.482532336902545
40
0.482532336902545
40
0.579038804283062
40
0.579038804283062
40
0.675545271663579
40
0.675545271663579
40
0.723798505353835
40
0.723798505353835
40
0.772051739044092
40
0.772051739044092
40
0.868558206424602
40
0.868558206424602
40
0.916811440114859
40
0.916811440114859
40
0.965064673805116
40
0.965064673805116
40
1
40
1
40
1
40
1
41
1
10
76.7111163624854
20
6.18129462927413
30
0
41
1
10
76.1199514846841
20
6.18721137550168
30
0
41
1
10
75.5294331470292
20
6.17094890798984
30
0
41
1
10
74.7905772860765
20
6.12338850809968
30
0
41
1
10
74.6427380547892
20
6.11251383706139
30
0
41
1
10
74.3471444920639
20
6.08807784542054
30
0
41
1
10
74.1993983436636
20
6.07451965879289
30
0
41
1
10
73.7562358602144
20
6.02982896222611
30
0
41
1
10
73.4608794658267
20
5.99466140195221
30
0
41
1
10
73.0177187385988
20
5.93392747161724
30
0
41
1
10
72.869978408743
20
5.9123537214293
30
0
41
1
10
72.5744224318746
20
5.86656265263534
30
0
41
1
10
72.4265733429354
20
5.8423394387618
30
0
41
1
10
71.9831694183027
20
5.76576721557478
30
0
41
1
10
71.687749441565
20
5.7094961977339
30
0
41
1
10
71.0969888750178
20
5.58686542092028
30
0
41
1
10
70.8016465518589
20
5.52052685743558
30
0
41
1
10
70.3583617212203
20
5.41366000025022
30
0
41
1
10
70.2105249576903
20
5.37680306921183
30
0
41
1
10
69.9149486840103
20
5.30073753760871
30
0
41
1
10
69.767199311342
20
5.26152742347793
30
0
41
1
10
69.3240119458836
20
5.14045262064559
30
0
41
1
10
69.0286313956761
20
5.05514453522366
30
0
41
1
10
68.5854576786065
20
4.9205954058736
30
0
41
1
10
68.4377170969583
20
4.87464719276809
30
0
41
1
10
68.1421727342774
20
4.78059358681449
30
0
41
1
10
67.9943374385725
20
4.73247741540271
30
0
41
1
10
67.7395625660347
20
4.64776653883223
30
0
41
1
10
67.6325881341929
20
4.61165591074641
30
0
41
1
10
67.5256258833539
20
4.57501801068389
30
0
0
SPLINE
5
CD
100
AcDbEntity
8
1
62
256
6
ByLayer
370
18
48
1
60
0
100
AcDbSpline
70
4
71
3
72
10
73
6
40
0
40
0
40
0
40
0
40
0.332665946023214
40
0.332665946023214
40
1
40
1
40
1
40
1
41
1
10
22.6583358818076
20
-1.6792746355531
30
0
41
1
10
22.3636506552207
20
-1.53468365603598
30
0
41
1
10
22.0689851583985
20
-1.38864168801402
30
0
41
1
10
21.1829228727036
20
-0.946138504393872
30
0
41
1
10
20.5916285324547
20
-0.646328926640479
30
0
41
1
10
20.0003945039462
20
-0.345231734296021
30
0
0
SPLINE
5
CE
100
AcDbEntity
8
1
62
256
6
ByLayer
370
18
48
1
60
0
100
AcDbSpline
70
4
71
3
72
20
73
16
40
0
40
0
40
0
40
0
40
0.105645801913411
40
0.105645801913411
40
0.217440076674231
40
0.217440076674231
40
0.273337214054642
40
0.273337214054642
40
0.329234351435052
40
0.329234351435052
40
0.441028626195874
40
0.441028626195874
40
0.552822900956695
40
0.552822900956695
40
1
40
1
40
1
40
1
41
1
10
76.2720271741068
20
1.42988035579876
30
0
41
1
10
76.308119189923
20
1.41884244448246
30
0
41
1
10
76.3450179825523
20
1.40640905539098
30
0
41
1
10
76.4223294930966
20
1.37845511700377
30
0
41
1
10
76.4628469294639
20
1.36275343673032
30
0
41
1
10
76.5244768738975
20
1.33772412027625
30
0
41
1
10
76.5451496464334
20
1.32913911106502
30
0
41
1
10
76.5865821774449
20
1.31161310577539
30
0
41
1
10
76.6073606344833
20
1.30266948129173
30
0
41
1
10
76.6698754302408
20
1.27531750782271
30
0
41
1
10
76.711800147165
20
1.25636205513533
30
0
41
1
10
76.7962197673835
20
1.21679516692493
30
0
41
1
10
76.8387198645071
20
1.19616864704957
30
0
41
1
10
77.0525995780355
20
1.08903037888791
30
0
41
1
10
77.2280768252274
20
0.990617949344539
30
0
41
1
10
77.4063774656943
20
0.88400558545564
30
0
0
SPLINE
5
CF
100
AcDbEntity
8
1
62
256
6
ByLayer
370
18
48
1
60
0
100
AcDbSpline
70
4
71
3
72
32
73
28
40
0
40
0
40
0
40
0
40
0.145761945752117
40
0.145761945752117
40
0.291523891504234
40
0.291523891504234
40
0.32796437794225
40
0.32796437794225
40
0.364404864380267
40
0.364404864380267
40
0.4372858372563
40
0.4372858372563
40
0.583047783008366
40
0.583047783008366
40
0.655928755884411
40
0.655928755884411
40
0.692369242322433
40
0.692369242322433
40
0.728809728760455
40
0.728809728760455
40
0.874571674512483
40
0.874571674512483
40
0.947452647388506
40
0.947452647388506
40
0.983893133826526
40
0.983893133826526
40
1
40
1
40
1
40
1
41
1
10
77.5302436123804
20
1.99380472140157
30
0
41
1
10
77.4544271065122
20
1.98727362296373
30
0
41
1
10
77.3794987485653
20
1.97669616689689
30
0
41
1
10
77.2314281073762
20
1.94744213238917
30
0
41
1
10
77.1582860903475
20
1.92876426014234
30
0
41
1
10
77.0679317646882
20
1.90058578976692
30
0
41
1
10
77.0499143873017
20
1.89470936576663
30
0
41
1
10
77.0139847900011
20
1.88248438778234
30
0
41
1
10
76.996087569847
20
1.87613962962055
30
0
41
1
10
76.943018585747
20
1.8565966584365
30
0
41
1
10
76.9083130843587
20
1.84283736523895
30
0
41
1
10
76.806090813635
20
1.79971124269019
30
0
41
1
10
76.7404704470731
20
1.76848943390394
30
0
41
1
10
76.6452677033508
20
1.71947301576108
30
0
41
1
10
76.6140710538584
20
1.70277150474357
30
0
41
1
10
76.5680131979162
20
1.67736993457996
30
0
41
1
10
76.5527572341637
20
1.66882939812615
30
0
41
1
10
76.5226763781147
20
1.65177499709998
30
0
41
1
10
76.5078374222552
20
1.64325386152697
30
0
41
1
10
76.4345971006663
20
1.60075093356664
30
0
41
1
10
76.3790418029251
20
1.56709067650883
30
0
41
1
10
76.2994742408633
20
1.51831165861805
30
0
41
1
10
76.2735831903564
20
1.50233384525831
30
0
41
1
10
76.2356297806033
20
1.4789136671159
30
0
41
1
10
76.223126056481
20
1.47119790203652
30
0
41
1
10
76.2053028830287
20
1.46021613460854
30
0
41
1
10
76.1998636490006
20
1.45686701898967
30
0
41
1
10
76.1944551170631
20
1.45354000148134
30
0
0
SPLINE
5
D0
100
AcDbEntity
8
1
62
256
6
ByLayer
370
18
48
1
60
0
100
AcDbSpline
70
4
71
3
72
8
73
4
40
0
40
0
40
0
40
0
40
1
40
1
40
1
40
1
41
1
10
76.8683224923866
20
-5.90856405443157
30
0
41
1
10
76.8158922391235
20
-5.99947792579616
30
0
41
1
10
76.7634875547845
20
-6.09039315267529
30
0
41
1
10
76.7111163623955
20
-6.18129462927507
30
0
0
SPLINE
5
D1
100
AcDbEntity
8
1
62
256
6
ByLayer
370
18
48
1
60
0
100
AcDbSpline
70
4
71
3
72
19
73
15
40
0
40
0
40
0
40
0
40
0.500000000000025
40
0.500000000000025
40
0.750000000000009
40
0.875000000000029
40
0.937500000000039
40
0.968750000000017
40
0.968750000000017
40
0.984375000000005
40
0.984375000000005
40
0.992187500000003
40
0.992187500000003
40
1
40
1
40
1
40
1
41
1
10
76.5473009592321
20
-6.44969902925422
30
0
41
1
10
76.5745865069448
20
-6.4052739470678
30
0
41
1
10
76.6018859226355
20
-6.36068280056006
30
0
41
1
10
76.6428551483646
20
-6.29355105524573
30
0
41
1
10
76.6633443490962
20
-6.25992486425648
30
0
41
1
10
76.6872561889456
20
-6.22058966941026
30
0
41
1
10
76.6992140896922
20
-6.20089588753584
30
0
41
1
10
76.7043393209042
20
-6.19245010657266
30
0
41
1
10
76.7069020053807
20
-6.18822628612676
30
0
41
1
10
76.7077546146758
20
-6.18682176495912
30
0
41
1
10
76.7090570285058
20
-6.18466388555169
30
0
41
1
10
76.7094965405699
20
-6.18393285196927
30
0
41
1
10
76.7103557913242
20
-6.18251362243186
30
0
41
1
10
76.7108021259132
20
-6.18177680566089
30
0
41
1
10
76.7111163624171
20
-6.18129462926353
30
0
0
SPLINE
5
D2
100
AcDbEntity
8
1
62
256
6
ByLayer
370
18
48
1
60
0
100
AcDbSpline
70
4
71
3
72
82
73
78
40
0
40
0
40
0
40
0
40
0.0281901179809397
40
0.0423275907140796
40
0.0423275907140796
40
0.0564650634472193
40
0.0564650634472193
40
0.084740008913499
40
0.084740008913499
40
0.113014954379779
40
0.113014954379779
40
0.141289899846058
40
0.141289899846058
40
0.155427372579198
40
0.155427372579198
40
0.169564845312338
40
0.169564845312338
40
0.226114736244897
40
0.226114736244897
40
0.240252208978037
40
0.240252208978037
40
0.254389681711177
40
0.254389681711177
40
0.282664627177458
40
0.282664627177458
40
0.310939572643738
40
0.310939572643738
40
0.339214518110018
40
0.339214518110018
40
0.367489463576299
40
0.367489463576299
40
0.395764409042579
40
0.395764409042579
40
0.424039354508859
40
0.424039354508859
40
0.438176827241999
40
0.438176827241999
40
0.452314299975138
40
0.452314299975138
40
0.480589245441417
40
0.480589245441417
40
0.494726718174557
40
0.494726718174557
40
0.508864190907697
40
0.508864190907697
40
0.56541408184026
40
0.56541408184026
40
0.621963972772822
40
0.621963972772822
40
0.650238918239103
40
0.650238918239103
40
0.678513863705385
40
0.678513863705385
40
0.692651336438526
40
0.692651336438526
40
0.706788809171668
40
0.706788809171668
40
0.735063754637951
40
0.735063754637951
40
0.791613645570516
40
0.791613645570516
40
0.8198885910368
40
0.8198885910368
40
0.848163536503083
40
0.848163536503083
40
0.876438481969366
40
0.876438481969366
40
0.904713427435649
40
0.904713427435649
40
0.932988372901933
40
0.932988372901933
40
0.947125845635074
40
0.947125845635074
40
0.961263318368215
40
0.961263318368215
40
0.989538263834497
40
1
40
1
40
1
40
1
41
1
10
60.7597955504979
20
-1.68018010522235
30
0
41
1
10
60.4652277487937
20
-1.53577568245203
30
0
41
1
10
60.0230492643821
20
-1.31677336423326
30
0
41
1
10
59.5807199796166
20
-1.09509320371896
30
0
41
1
10
59.2851784651372
20
-0.946469988857956
30
0
41
1
10
59.1373610569472
20
-0.871878947230925
30
0
41
1
10
58.6940266105201
20
-0.647608298022504
30
0
41
1
10
58.3985177405749
20
-0.497406114686925
30
0
41
1
10
57.8072851260147
20
-0.196350830876355
30
0
41
1
10
57.5116118282483
20
-0.0455170141999872
30
0
41
1
10
56.9205797942959
20
0.255764633336014
30
0
41
1
10
56.6251757162662
20
0.406225047109217
30
0
41
1
10
56.1820429292288
20
0.631269572251398
30
0
41
1
10
56.03432851296
20
0.706178539024847
30
0
41
1
10
55.7388369084782
20
0.855672924479506
30
0
41
1
10
55.5910330923668
20
0.930265854864246
30
0
41
1
10
54.8520283884206
20
1.30204615526512
30
0
41
1
10
54.2614468720539
20
1.5953831419242
30
0
41
1
10
53.5224976411507
20
1.95417355558183
30
0
41
1
10
53.3746603658476
20
2.02554737279689
30
0
41
1
10
53.0791271812272
20
2.1673359328156
30
0
41
1
10
52.9314012129065
20
2.23776279324068
30
0
41
1
10
52.4882562700895
20
2.44745761928141
30
0
41
1
10
52.1928693793204
20
2.5851359986996
30
0
41
1
10
51.601876490517
20
2.85566624566215
30
0
41
1
10
51.3061310883617
20
2.98858270196848
30
0
41
1
10
50.7155100509834
20
3.24847376389053
30
0
41
1
10
50.4204955093233
20
3.37552108740604
30
0
41
1
10
49.8307661732175
20
3.62345355262596
30
0
41
1
10
49.5360318852387
20
3.74427768758679
30
0
41
1
10
48.9464520389062
20
3.97900603410119
30
0
41
1
10
48.6516125090419
20
4.09293425106074
30
0
41
1
10
48.0615499720416
20
4.3135002994338
30
0
41
1
10
47.7663233507334
20
4.42012321778873
30
0
41
1
10
47.3229887868777
20
4.57423205019163
30
0
41
1
10
47.1751625969552
20
4.62462661443843
30
0
41
1
10
46.879664473107
20
4.72329720253606
30
0
41
1
10
46.7319479475742
20
4.7715833901749
30
0
41
1
10
46.2888141210184
20
4.91317042744535
30
0
41
1
10
45.9934174766994
20
5.00321162325849
30
0
41
1
10
45.5501315526514
20
5.13149064117607
30
0
41
1
10
45.4023028989102
20
5.17313122893549
30
0
41
1
10
45.1067136684786
20
5.25406621714956
30
0
41
1
10
44.9590083091591
20
5.29334601039022
30
0
41
1
10
44.2208336295865
20
5.48376218890002
30
0
41
1
10
43.6314804130743
20
5.61713237885843
30
0
41
1
10
42.452238220902
20
5.84297861190382
30
0
41
1
10
41.8623790663151
20
5.93552959682697
30
0
41
1
10
40.9755349996663
20
6.04263416702997
30
0
41
1
10
40.6800762465104
20
6.07300485908007
30
0
41
1
10
40.0892191935259
20
6.12276747322312
30
0
41
1
10
39.7938019485523
20
6.1421840461673
30
0
41
1
10
39.350470352388
20
6.16308079609203
30
0
41
1
10
39.2026125874212
20
6.16867414284829
30
0
41
1
10
38.9070814311259
20
6.17710505221763
30
0
41
1
10
38.7594019966891
20
6.17994458487985
30
0
41
1
10
38.3165685931126
20
6.18436505661015
30
0
41
1
10
38.0216354380998
20
6.18187410527062
30
0
41
1
10
37.1371171637931
20
6.15801378150192
30
0
41
1
10
36.5477630603127
20
6.12017627528544
30
0
41
1
10
35.6624418899106
20
6.03084686245774
30
0
41
1
10
35.3670670170627
20
5.99564203792167
30
0
41
1
10
34.7758358642347
20
5.91460723719439
30
0
41
1
10
34.4803046258926
20
5.86880281508968
30
0
41
1
10
33.8890358183034
20
5.76675474033891
30
0
41
1
10
33.5933353633066
20
5.71052472867586
30
0
41
1
10
33.0023831605232
20
5.58808893893664
30
0
41
1
10
32.7070361098153
20
5.52186186944326
30
0
41
1
10
32.1163205784567
20
5.37971687606816
30
0
41
1
10
31.8209670068867
20
5.30380345780694
30
0
41
1
10
31.3776116796325
20
5.18287096539086
30
0
41
1
10
31.2297742874396
20
5.14138252993956
30
0
41
1
10
30.9342487457849
20
5.05618009170198
30
0
41
1
10
30.7865236742846
20
5.01245632982793
30
0
41
1
10
30.343406430716
20
4.87799498307086
30
0
41
1
10
29.9387992076152
20
4.74917910466456
30
0
41
1
10
29.5340589838277
20
4.61248266169437
30
0
41
1
10
29.4247339552835
20
4.57499832244858
30
0
0
SPLINE
5
D3
100
AcDbEntity
8
1
62
256
6
ByLayer
370
18
48
1
60
0
100
AcDbSpline
70
4
71
3
72
24
73
20
40
0
40
0
40
0
40
0
40
0.125000000000004
40
0.125000000000004
40
0.250000000000009
40
0.250000000000009
40
0.500000000000012
40
0.500000000000012
40
0.625000000000071
40
0.625000000000071
40
0.687500000000023
40
0.687500000000023
40
0.749999999999975
40
0.749999999999975
40
0.812499999999928
40
0.812499999999928
40
0.87499999999988
40
0.87499999999988
40
1
40
1
40
1
40
1
41
1
10
20.0003945039497
20
6.11376631706784
30
0
41
1
10
20.0003945039497
20
6.10895851160419
30
0
41
1
10
20.0008956605543
20
6.1041089790786
30
0
41
1
10
20.0028938480181
20
6.09455678385567
30
0
41
1
10
20.0043896996798
20
6.089818918763
30
0
41
1
10
20.0104935906614
20
6.07573495572311
30
0
41
1
10
20.0164889617993
20
6.06687775068801
30
0
41
1
10
20.0291179749734
20
6.05461159662241
30
0
41
1
10
20.0339036391535
20
6.05075638840628
30
0
41
1
10
20.0419017089639
20
6.04552760230501
30
0
41
1
10
20.0447125809263
20
6.04387037196366
30
0
41
1
10
20.0506588004897
20
6.04074834582713
30
0
41
1
10
20.0538082334276
20
6.03927974041198
30
0
41
1
10
20.0603088573907
20
6.03663147280471
30
0
41
1
10
20.0636755294104
20
6.03544214501122
30
0
41
1
10
20.07066095071
20
6.03335594269006
30
0
41
1
10
20.0743098443266
20
6.03245376420301
30
0
41
1
10
20.0854293301626
20
6.0302882398168
30
0
41
1
10
20.093035522207
20
6.02955097406144
30
0
41
1
10
20.1008514773867
20
6.02958128162445
30
0
0
SPLINE
5
D4
100
AcDbEntity
8
1
62
256
6
ByLayer
370
18
48
1
60
0
100
AcDbSpline
70
2053
71
3
72
120
73
116
40
0
40
0
40
0
40
0
40
0.0312500000000028
40
0.0312500000000028
40
0.0625000000000055
40
0.0625000000000055
40
0.0937500000000083
40
0.0937500000000083
40
0.125000000000011
40
0.125000000000011
40
0.140625000000013
40
0.140625000000013
40
0.156250000000015
40
0.156250000000015
40
0.187500000000018
40
0.187500000000018
40
0.20312500000002
40
0.20312500000002
40
0.218750000000022
40
0.234375000000024
40
0.234375000000024
40
0.242187500000025
40
0.242187500000025
40
0.250000000000026
40
0.250000000000026
40
0.281250000000029
40
0.281250000000029
40
0.296875000000031
40
0.296875000000031
40
0.304687500000031
40
0.304687500000031
40
0.312500000000031
40
0.312500000000031
40
0.343750000000033
40
0.343750000000033
40
0.351562500000033
40
0.351562500000033
40
0.359375000000034
40
0.375000000000035
40
0.375000000000035
40
0.390625000000036
40
0.390625000000036
40
0.406250000000037
40
0.421875000000038
40
0.421875000000038
40
0.437500000000039
40
0.437500000000039
40
0.468750000000043
40
0.468750000000043
40
0.484375000000045
40
0.484375000000045
40
0.492187500000046
40
0.492187500000046
40
0.500000000000047
40
0.500000000000047
40
0.531250000000046
40
0.531250000000046
40
0.539062500000044
40
0.539062500000044
40
0.546875000000041
40
0.546875000000041
40
0.562500000000034
40
0.562500000000034
40
0.59375000000002
40
0.59375000000002
40
0.601562500000017
40
0.601562500000017
40
0.609375000000015
40
0.609375000000015
40
0.625000000000012
40
0.625000000000012
40
0.656250000000005
40
0.656250000000005
40
0.671875000000002
40
0.671875000000002
40
0.687499999999999
40
0.687499999999999
40
0.718749999999993
40
0.718749999999993
40
0.726562499999992
40
0.726562499999992
40
0.73437499999999
40
0.749999999999988
40
0.765624999999985
40
0.765624999999985
40
0.773437499999984
40
0.773437499999984
40
0.781249999999982
40
0.781249999999982
40
0.812499999999977
40
0.812499999999977
40
0.820312499999976
40
0.820312499999976
40
0.828124999999976
40
0.828124999999976
40
0.843749999999976
40
0.859374999999977
40
0.859374999999977
40
0.874999999999978
40
0.874999999999978
40
0.906249999999982
40
0.906249999999982
40
0.914062499999983
40
0.914062499999983
40
0.921874999999985
40
0.937499999999988
40
0.953124999999991
40
0.953124999999991
40
0.968749999999994
40
0.968749999999994
40
0.984374999999997
40
0.984374999999997
40
0.992187499999999
40
0.992187499999999
40
1
40
1
40
1
40
1
41
1
10
77.4008321869036
20
-2.64641446834239
30
0
41
1
10
77.3787173189877
20
-2.67386487007104
30
0
41
1
10
77.3575724639997
20
-2.69646362569517
30
0
41
1
10
77.3170092905528
20
-2.73252626364649
30
0
41
1
10
77.2975920678708
20
-2.74598778600895
30
0
41
1
10
77.2604172716062
20
-2.76336830796473
30
0
41
1
10
77.2431615032941
20
-2.76704475023175
30
0
41
1
10
77.211159605009
20
-2.76459054057403
30
0
41
1
10
77.1963997512164
20
-2.75847008491533
30
0
41
1
10
77.1761335953807
20
-2.74137646304905
30
0
41
1
10
77.16977710307
20
-2.73441688719399
30
0
41
1
10
77.1578926174385
20
-2.71806619050454
30
0
41
1
10
77.1523542619692
20
-2.70866642349648
30
0
41
1
10
77.1369363340968
20
-2.67675499247704
30
0
41
1
10
77.1282395594624
20
-2.65057288825312
30
0
41
1
10
77.1177388345376
20
-2.60313108483791
30
0
41
1
10
77.1147200103422
20
-2.5861763901132
30
0
41
1
10
77.1096587563587
20
-2.55015728091962
30
0
41
1
10
77.1055633419994
20
-2.51198024452958
30
0
41
1
10
77.1034268720111
20
-2.46941182450445
30
0
41
1
10
77.1025970972457
20
-2.43575741510577
30
0
41
1
10
77.1024495696472
20
-2.42425068641106
30
0
41
1
10
77.1024230982291
20
-2.40063855917441
30
0
41
1
10
77.102545518396
20
-2.38849591288957
30
0
41
1
10
77.103840910136
20
-2.32700424624554
30
0
41
1
10
77.1070250454936
20
-2.27496028770452
30
0
41
1
10
77.1151747674574
20
-2.19255975682023
30
0
41
1
10
77.1184584084007
20
-2.16436504758809
30
0
41
1
10
77.1243043345147
20
-2.12091754002597
30
0
41
1
10
77.126402141755
20
-2.10628390362936
30
0
41
1
10
77.1308512087548
20
-2.07703734522789
30
0
41
1
10
77.1332085340147
20
-2.0623784034874
30
0
41
1
10
77.145658897942
20
-1.98890953275395
30
0
41
1
10
77.1577195795977
20
-1.92958259809387
30
0
41
1
10
77.1756505813141
20
-1.85474447663154
30
0
41
1
10
77.1793749268222
20
-1.83977255135147
30
0
41
1
10
77.1870145825886
20
-1.81015864238358
30
0
41
1
10
77.1987956964738
20
-1.76608968492067
30
0
41
1
10
77.2115302237648
20
-1.72305060863039
30
0
41
1
10
77.2293627077001
20
-1.66656583166963
30
0
41
1
10
77.2387084024221
20
-1.63876571601506
30
0
41
1
10
77.2582705585787
20
-1.58411154077527
30
0
41
1
10
77.2783635284723
20
-1.53134944004111
30
0
41
1
10
77.2994840601981
20
-1.48213592395541
30
0
41
1
10
77.3211130336502
20
-1.4346370963508
30
0
41
1
10
77.3322046391361
20
-1.41170091391078
30
0
41
1
10
77.3661036536117
20
-1.34573209029116
30
0
41
1
10
77.3890376729811
20
-1.306445250228
30
0
41
1
10
77.4238987233879
20
-1.25383503974629
30
0
41
1
10
77.4355958428308
20
-1.23736055129689
30
0
41
1
10
77.453252012595
20
-1.21422242001376
30
0
41
1
10
77.4591479648545
20
-1.2067840782309
30
0
41
1
10
77.4708742293626
20
-1.19254967996088
30
0
41
1
10
77.4767167293734
20
-1.18573744083514
30
0
41
1
10
77.5058262693352
20
-1.15315795135584
30
0
41
1
10
77.5287886917245
20
-1.13179691942486
30
0
41
1
10
77.5570443116843
20
-1.11070112021002
30
0
41
1
10
77.562672799673
20
-1.10676460418844
30
0
41
1
10
77.5738823950122
20
-1.09945938046266
30
0
41
1
10
77.5794705783954
20
-1.09608773137663
30
0
41
1
10
77.5960269570484
20
-1.08690193278903
30
0
41
1
10
77.6068281742498
20
-1.08198542262153
30
0
41
1
10
77.6385196955467
20
-1.07074091776534
30
0
41
1
10
77.6587046913846
20
-1.06788793308624
30
0
41
1
10
77.6826468855887
20
-1.07020394930714
30
0
41
1
10
77.68737032538
20
-1.07096368255941
30
0
41
1
10
77.696682097705
20
-1.07308827556187
30
0
41
1
10
77.7012793729107
20
-1.07445739194304
30
0
41
1
10
77.7147475326314
20
-1.07945034784262
30
0
41
1
10
77.7233222402551
20
-1.08395858338113
30
0
41
1
10
77.7478157513007
20
-1.10099106970574
30
0
41
1
10
77.7625159031646
20
-1.11698846340144
30
0
41
1
10
77.7818526330904
20
-1.14841259019491
30
0
41
1
10
77.7878432363841
20
-1.16013332221596
30
0
41
1
10
77.7988269469068
20
-1.18626558978406
30
0
41
1
10
77.8037368389624
20
-1.20048487499531
30
0
41
1
10
77.8166515563271
20
-1.24655002712691
30
0
41
1
10
77.822876494678
20
-1.28179852881374
30
0
41
1
10
77.8273083670337
20
-1.33217977269612
30
0
41
1
10
77.8280271603648
20
-1.34261019118748
30
0
41
1
10
77.8291022590863
20
-1.3639499747641
30
0
41
1
10
77.8301717998203
20
-1.39664028509998
30
0
41
1
10
77.8292625099469
20
-1.45450036947742
30
0
41
1
10
77.8256335860958
20
-1.50444955700698
30
0
41
1
10
77.8217813174653
20
-1.5433524325596
30
0
41
1
10
77.8203084607928
20
-1.55656071718192
30
0
41
1
10
77.8169735177138
20
-1.58347672567737
30
0
41
1
10
77.8151059008435
20
-1.59721412515179
30
0
41
1
10
77.804922434845
20
-1.66616278560477
30
0
41
1
10
77.7940178140298
20
-1.72286824550537
30
0
41
1
10
77.7770982277022
20
-1.79569224560106
30
0
41
1
10
77.7735482910884
20
-1.81035516302237
30
0
41
1
10
77.7661139461125
20
-1.8398816241494
30
0
41
1
10
77.7622256662423
20
-1.85475516657382
30
0
41
1
10
77.7502259925067
20
-1.89906701620416
30
0
41
1
10
77.7332363236591
20
-1.95773560173276
30
0
41
1
10
77.7144087478607
20
-2.0156297301138
30
0
41
1
10
77.6947000494661
20
-2.07314944798841
30
0
41
1
10
77.6843599373755
20
-2.10182880177558
30
0
41
1
10
77.6527642291592
20
-2.18543693490017
30
0
41
1
10
77.6307577143676
20
-2.23854223341104
30
0
41
1
10
77.6022433866498
20
-2.30188285961177
30
0
41
1
10
77.5964758082726
20
-2.31442615187996
30
0
41
1
10
77.5849102944238
20
-2.33905717024538
30
0
41
1
10
77.5675446580442
20
-2.37526143890065
30
0
41
1
10
77.5385309495855
20
-2.43204030977316
30
0
41
1
10
77.5152645126191
20
-2.47383995642227
30
0
41
1
10
77.4919750745217
20
-2.51385805178555
30
0
41
1
10
77.4802776896089
20
-2.53303666385949
30
0
41
1
10
77.4571729045703
20
-2.56911617370528
30
0
41
1
10
77.4457423725247
20
-2.58606351956175
30
0
41
1
10
77.4287713857909
20
-2.60989076556422
30
0
41
1
10
77.4231435506441
20
-2.61756705275622
30
0
41
1
10
77.4119451444652
20
-2.63238912032071
30
0
41
1
10
77.4063609038826
20
-2.63955186791023
30
0
41
1
10
77.4008321869036
20
-2.64641446834239
30
0
0
SPLINE
5
D5
100
AcDbEntity
8
1
62
256
6
ByLayer
370
18
48
1
60
0
100
AcDbSpline
70
4
71
3
72
14
73
10
40
0
40
0
40
0
40
0
40
0.500000000000006
40
0.500000000000006
40
0.625000000000001
40
0.625000000000001
40
0.749999999999997
40
0.749999999999997
40
1
40
1
40
1
40
1
41
1
10
76.8683224923865
20
-5.90856405443182
30
0
41
1
10
76.8202002867341
20
-5.98003056827804
30
0
41
1
10
76.7761423191027
20
-6.04003450511553
30
0
41
1
10
76.7260699634368
20
-6.09929849997087
30
0
41
1
10
76.7163052596704
20
-6.11036232634163
30
0
41
1
10
76.6972724679821
20
-6.13086799215446
30
0
41
1
10
76.6880604626471
20
-6.14024788798983
30
0
41
1
10
76.6614034344982
20
-6.1657042755314
30
0
41
1
10
76.6448883498688
20
-6.17915197615642
30
0
41
1
10
76.629511293141
20
-6.1892059119196
30
0
0
SPLINE
5
D6
100
AcDbEntity
8
1
62
256
6
ByLayer
370
18
48
1
60
0
100
AcDbSpline
70
4
71
3
72
31
73
27
40
0
40
0
40
0
40
0
40
0.125000000000007
40
0.125000000000007
40
0.250000000000013
40
0.250000000000013
40
0.281250000000013
40
0.281250000000013
40
0.312500000000013
40
0.375000000000013
40
0.375000000000013
40
0.406250000000011
40
0.406250000000011
40
0.42187500000001
40
0.42187500000001
40
0.437500000000009
40
0.437500000000009
40
0.500000000000008
40
0.500000000000008
40
0.625000000000006
40
0.625000000000006
40
0.750000000000004
40
0.750000000000004
40
0.875000000000002
40
0.875000000000002
40
1
40
1
40
1
40
1
41
1
10
78.3554805101282
20
-2.07972515152761
30
0
41
1
10
78.2806532631482
20
-2.21765081931096
30
0
41
1
10
78.2081178184331
20
-2.3607645242156
30
0
41
1
10
78.0670066528385
20
-2.65704208014816
30
0
41
1
10
77.9984332487996
20
-2.81020454206953
30
0
41
1
10
77.914824883695
20
-3.00812054154179
30
0
41
1
10
77.8981774334538
20
-3.04810446534543
30
0
41
1
10
77.8652776657909
20
-3.12824966329197
30
0
41
1
10
77.8165067718791
20
-3.24875739321246
30
0
41
1
10
77.7693817992614
20
-3.3700987408269
30
0
41
1
10
77.7232322328863
20
-3.49194666098165
30
0
41
1
10
77.7080117188726
20
-3.53264711800864
30
0
41
1
10
77.6854085939121
20
-3.5938177537391
30
0
41
1
10
77.6779123489945
20
-3.61422805808485
30
0
41
1
10
77.6629906294812
20
-3.65508624492807
30
0
41
1
10
77.6555582613407
20
-3.6755304706588
30
0
41
1
10
77.6183849136672
20
-3.77774544602076
30
0
41
1
10
77.5887456022301
20
-3.85957020235364
30
0
41
1
10
77.5001138819436
20
-4.10520195522454
30
0
41
1
10
77.4413989208625
20
-4.2691925895067
30
0
41
1
10
77.3247018638154
20
-4.59748042537203
30
0
41
1
10
77.2667784314106
20
-4.76161111366287
30
0
41
1
10
77.1516997647842
20
-5.08976734968181
30
0
41
1
10
77.0945487213987
20
-5.25379293588279
30
0
41
1
10
76.9808949916486
20
-5.58164428037389
30
0
41
1
10
76.9244387329838
20
-5.74532998159233
30
0
41
1
10
76.8683224923864
20
-5.90856405443157
30
0
0
SPLINE
5
D7
100
AcDbEntity
8
1
62
256
6
ByLayer
370
18
48
1
60
0
100
AcDbSpline
70
4
71
3
72
8
73
4
40
0
40
0
40
0
40
0
40
1
40
1
40
1
40
1
41
1
10
78.3554805101282
20
-2.07972515152758
30
0
41
1
10
78.5242226149538
20
-1.60749029297136
30
0
41
1
10
78.6915686115848
20
-1.13476475666576
30
0
41
1
10
78.8574904964133
20
-0.661538700431237
30
0
0
SPLINE
5
D8
100
AcDbEntity
8
1
62
256
6
ByLayer
370
18
48
1
60
0
100
AcDbSpline
70
4
71
3
72
8
73
4
40
0
40
0
40
0
40
0
40
1
40
1
40
1
40
1
41
1
10
78.8574904964133
20
-0.661538700431237
30
0
41
1
10
78.9032565346245
20
-0.531009314301372
30
0
41
1
10
78.9499245190135
20
-0.400980724807937
30
0
41
1
10
78.9974924732589
20
-0.271435140148242
30
0
0
SPLINE
5
D9
100
AcDbEntity
8
1
62
256
6
ByLayer
370
18
48
1
60
0
100
AcDbSpline
70
4
71
3
72
8
73
4
40
0
40
0
40
0
40
0
40
1
40
1
40
1
40
1
41
1
10
78.9974924732589
20
0.271435140148242
30
0
41
1
10
79.0008291126063
20
0.0908426155164079
30
0
41
1
10
79.0008425990839
20
-0.0901126723665584
30
0
41
1
10
78.9974924732589
20
-0.271435140148213
30
0
0
SPLINE
5
DA
100
AcDbEntity
8
1
62
256
6
ByLayer
370
18
48
1
60
0
100
AcDbSpline
70
4
71
3
72
59
73
55
40
0
40
0
40
0
40
0
40
0.0624999999999975
40
0.0624999999999975
40
0.0937499999999962
40
0.109374999999996
40
0.109374999999996
40
0.124999999999995
40
0.124999999999995
40
0.187499999999993
40
0.187499999999993
40
0.24999999999999
40
0.24999999999999
40
0.281249999999989
40
0.281249999999989
40
0.296874999999988
40
0.296874999999988
40
0.312499999999987
40
0.312499999999987
40
0.374999999999985
40
0.374999999999985
40
0.437499999999982
40
0.437499999999982
40
0.453124999999981
40
0.453124999999981
40
0.468749999999979
40
0.468749999999979
40
0.499999999999975
40
0.499999999999975
40
0.562499999999962
40
0.562499999999962
40
0.593749999999959
40
0.593749999999959
40
0.609374999999959
40
0.609374999999959
40
0.624999999999959
40
0.624999999999959
40
0.687499999999968
40
0.687499999999968
40
0.718749999999972
40
0.718749999999972
40
0.734374999999974
40
0.734374999999974
40
0.749999999999977
40
0.749999999999977
40
0.812499999999982
40
0.812499999999982
40
0.874999999999987
40
0.874999999999987
40
0.90624999999999
40
0.90624999999999
40
0.937499999999993
40
0.937499999999993
40
1
40
1
40
1
40
1
41
1
10
78.9974924732589
20
0.271435140148242
30
0
41
1
10
78.9739749051063
20
0.203278424551087
30
0
41
1
10
78.9492003515579
20
0.135715734661915
30
0
41
1
10
78.9101575837918
20
0.0352723320446842
30
0
41
1
10
78.8901648054174
20
-0.0147236551324283
30
0
41
1
10
78.8694539411068
20
-0.0643735453702732
30
0
41
1
10
78.8554849454654
20
-0.0973952594726768
30
0
41
1
10
78.8484075224238
20
-0.113894688675401
30
0
41
1
10
78.8127631030153
20
-0.195841541960192
30
0
41
1
10
78.7835782668102
20
-0.259313109805049
30
0
41
1
10
78.7239730160412
20
-0.382100626454928
30
0
41
1
10
78.6935527921078
20
-0.4414176603604
30
0
41
1
10
78.6470113750198
20
-0.527135642417591
30
0
41
1
10
78.6313450697149
20
-0.555163691691348
30
0
41
1
10
78.6076121174656
20
-0.596353249541124
30
0
41
1
10
78.5996621670881
20
-0.609940878121449
30
0
41
1
10
78.5836828771106
20
-0.636823915102099
30
0
41
1
10
78.5756607059142
20
-0.650106092902519
30
0
41
1
10
78.5357128205466
20
-0.715182333637642
30
0
41
1
10
78.5039951587453
20
-0.763465848177958
30
0
41
1
10
78.441046514673
20
-0.852520678145225
30
0
41
1
10
78.4098156197511
20
-0.893293561511626
30
0
41
1
10
78.3710709097883
20
-0.939327175556372
30
0
41
1
10
78.3633366043216
20
-0.948286140532559
30
0
41
1
10
78.3478967555191
20
-0.96569775194601
30
0
41
1
10
78.3401763976345
20
-0.974165435097717
30
0
41
1
10
78.3172531395155
20
-0.99858557883411
30
0
41
1
10
78.3022401971616
20
-1.0136138063157
30
0
41
1
10
78.257970996843
20
-1.05502680687454
30
0
41
1
10
78.2294823080338
20
-1.07775586412038
30
0
41
1
10
78.1881763592605
20
-1.10455826631988
30
0
41
1
10
78.174646100779
20
-1.11227315505852
30
0
41
1
10
78.1546991840895
20
-1.12198335912927
30
0
41
1
10
78.1480952283231
20
-1.12491445709028
30
0
41
1
10
78.1350719431379
20
-1.13011988043726
30
0
41
1
10
78.1286585503936
20
-1.13239326887887
30
0
41
1
10
78.0970655403643
20
-1.14214712301725
30
0
41
1
10
78.0733015632325
20
-1.14480929562933
30
0
41
1
10
78.039670871933
20
-1.14146403799788
30
0
41
1
10
78.0287977597835
20
-1.13912169875346
30
0
41
1
10
78.0129722136612
20
-1.13377981070121
30
0
41
1
10
78.0077777790143
20
-1.13169423188259
30
0
41
1
10
77.9975475039233
20
-1.12691267544554
30
0
41
1
10
77.9925029793969
20
-1.12421102347616
30
0
41
1
10
77.967801283353
20
-1.10925452256836
30
0
41
1
10
77.9496914150619
20
-1.09269681991435
30
0
41
1
10
77.9163335048648
20
-1.05113102063495
30
0
41
1
10
77.9010875217581
20
-1.02611862609783
30
0
41
1
10
77.8801653373863
20
-0.982508563294346
30
0
41
1
10
77.8735051655984
20
-0.966917643104154
30
0
41
1
10
77.8609203303019
20
-0.934011170594204
30
0
41
1
10
77.8549833842173
20
-0.916676870575856
30
0
41
1
10
77.8381752674307
20
-0.862131494900666
30
0
41
1
10
77.8283027482174
20
-0.822385574348232
30
0
41
1
10
77.8196499710832
20
-0.779420450253753
30
0
0
SPLINE
5
DB
100
AcDbEntity
8
1
62
256
6
ByLayer
370
18
48
1
60
0
100
AcDbSpline
70
4
71
3
72
8
73
4
40
0
40
0
40
0
40
0
40
1
40
1
40
1
40
1
41
1
10
77.8196499710832
20
-0.779420450253838
30
0
41
1
10
77.711587429604
20
-0.242838907398578
30
0
41
1
10
77.5739510531699
20
0.311563449247643
30
0
41
1
10
77.4063774656913
20
0.884005585457487
30
0
0
SPLINE
5
DC
100
AcDbEntity
8
1
62
256
6
ByLayer
370
18
48
1
60
0
100
AcDbSpline
70
4
71
3
72
16
73
12
40
0
40
0
40
0
40
0
40
0.25
40
0.25
40
0.500000000000001
40
0.500000000000001
40
0.750000000000001
40
0.750000000000001
40
0.875
40
0.875
40
1
40
1
40
1
40
1
41
1
10
76.6080346598071
20
0.267145099875364
30
0
41
1
10
76.6718961343449
20
0.340938543075708
30
0
41
1
10
76.7366735624011
20
0.409160070250493
30
0
41
1
10
76.8677075594271
20
0.534978939016526
30
0
41
1
10
76.9339659153435
20
0.592538138422469
30
0
41
1
10
77.06757746296
20
0.696270225777937
30
0
41
1
10
77.1349314394693
20
0.742433859979258
30
0
41
1
10
77.2364426340748
20
0.802314484938478
30
0
41
1
10
77.2703578403937
20
0.820685758447553
30
0
41
1
10
77.3382966175349
20
0.854482588086796
30
0
41
1
10
77.3723234607573
20
0.869979587250981
30
0
41
1
10
77.4063774656908
20
0.88400558545726
30
0
0
SPLINE
5
DD
100
AcDbEntity
8
1
62
256
6
ByLayer
370
18
48
1
60
0
100
AcDbSpline
70
4
71
3
72
49
73
45
40
0
40
0
40
0
40
0
40
0.0403042025712573
40
0.0403042025712573
40
0.0858456916737716
40
0.0858456916737716
40
0.131387180776287
40
0.154157925327543
40
0.16554329760317
40
0.16554329760317
40
0.176928669878798
40
0.176928669878798
40
0.222470158981309
40
0.222470158981309
40
0.26801164808382
40
0.26801164808382
40
0.313553137186331
40
0.313553137186331
40
0.404636115391352
40
0.404636115391352
40
0.450177604493863
40
0.450177604493863
40
0.495719093596374
40
0.495719093596374
40
0.541260582698885
40
0.541260582698885
40
0.586802071801396
40
0.632343560903907
40
0.643728933179535
40
0.643728933179535
40
0.655114305455162
40
0.677885050006419
40
0.677885050006419
40
0.723426539108932
40
0.723426539108932
40
0.768968028211444
40
0.768968028211444
40
0.860051006416472
40
0.860051006416472
40
0.905592495518986
40
0.905592495518986
40
0.951133984621501
40
0.951133984621501
40
1
40
1
40
1
40
1
41
1
10
40.3173748783156
20
-6.14726954492949
30
0
41
1
10
40.05807728777
20
-6.15052938437486
30
0
41
1
10
39.7985982913145
20
-6.1495358776676
30
0
41
1
10
39.2453118633993
20
-6.13843141098829
30
0
41
1
10
38.9514255959688
20
-6.1271552052018
30
0
41
1
10
38.3625644815625
20
-6.093666904478
30
0
41
1
10
37.920100783461
20
-6.06034249019854
30
0
41
1
10
37.4021495245225
20
-6.00728815905015
30
0
41
1
10
37.1797439545848
20
-5.98149520963869
30
0
41
1
10
37.0313727449809
20
-5.96361839336026
30
0
41
1
10
36.9571505902396
20
-5.95434055738602
30
0
41
1
10
36.586442294908
20
-5.90633269178875
30
0
41
1
10
36.2906430754136
20
-5.86268662769089
30
0
41
1
10
35.7002338328807
20
-5.76521316943914
30
0
41
1
10
35.4056362521834
20
-5.71143076003116
30
0
41
1
10
34.8173965738898
20
-5.59412907745337
30
0
41
1
10
34.5237435516143
20
-5.53056580315743
30
0
41
1
10
33.6436334227878
20
-5.32580453587727
30
0
41
1
10
33.058011040679
20
-5.17053789378753
30
0
41
1
10
32.1794298134179
20
-4.91149607853384
30
0
41
1
10
31.8865594128676
20
-4.82079341394117
30
0
41
1
10
31.300540394304
20
-4.63101968061534
30
0
41
1
10
31.0073812948679
20
-4.53194435265277
30
0
41
1
10
30.4203735379032
20
-4.32584934803921
30
0
41
1
10
30.1265244994134
20
-4.21882860385765
30
0
41
1
10
29.5379108985203
20
-3.99720433848699
30
0
41
1
10
28.9483829145164
20
-3.76799809035353
30
0
41
1
10
28.2822353655218
20
-3.49412323239008
30
0
41
1
10
27.9108804596781
20
-3.33674646388892
30
0
41
1
10
27.7624863219585
20
-3.27349366012297
30
0
41
1
10
27.5400203242012
20
-3.17812128947963
30
0
41
1
10
27.3179073036295
20
-3.08131218161836
30
0
41
1
10
26.8740927873637
20
-2.88588933423938
30
0
41
1
10
26.5787749693736
20
-2.75318348849089
30
0
41
1
10
25.9890023869115
20
-2.48344051066493
30
0
41
1
10
25.6945427909901
20
-2.34642049711118
30
0
41
1
10
24.8118557760548
20
-1.93004314397305
30
0
41
1
10
24.2243178483074
20
-1.6453414802956
30
0
41
1
10
23.3425542992029
20
-1.21119471814544
30
0
41
1
10
23.048552242185
20
-1.06530414256161
30
0
41
1
10
22.460142785255
20
-0.771668135943742
30
0
41
1
10
22.1657385553257
20
-0.623917172696025
30
0
41
1
10
21.5546172592094
20
-0.316482271015161
30
0
41
1
10
21.2378376137043
20
-0.15671975608754
30
0
41
1
10
20.9204047243184
20
0.0032935849814635
30
0
0
SPLINE
5
DE
100
AcDbEntity
8
1
62
256
6
ByLayer
370
18
48
1
60
0
100
AcDbSpline
70
4
71
3
72
8
73
4
40
0
40
0
40
0
40
0
40
1
40
1
40
1
40
1
41
1
10
76.5007464485833
20
-6.39533195472836
30
0
41
1
10
76.543620078695
20
-6.32691723613885
30
0
41
1
10
76.5865398191711
20
-6.2582081828877
30
0
41
1
10
76.629511293141
20
-6.18920591191966
30
0
0
SPLINE
5
DF
100
AcDbEntity
8
1
62
256
6
ByLayer
370
18
48
1
60
0
100
AcDbSpline
70
4
71
3
72
8
73
4
40
0
40
0
40
0
40
0
40
1
40
1
40
1
40
1
41
1
10
76.6365495636207
20
-6.17111136652835
30
0
41
1
10
76.6342025201839
20
-6.17714351336406
30
0
41
1
10
76.6318564282859
20
-6.18317502705372
30
0
41
1
10
76.629511293141
20
-6.18920591191966
30
0
0
SPLINE
5
E0
100
AcDbEntity
8
1
62
256
6
ByLayer
370
18
48
1
60
0
100
AcDbSpline
70
4
71
3
72
42
73
38
40
0
40
0
40
0
40
0
40
0.0500400307835486
40
0.0500400307835486
40
0.0750600461753238
40
0.0750600461753238
40
0.100080061567099
40
0.100080061567099
40
0.200160123134202
40
0.200160123134202
40
0.250200153917754
40
0.250200153917754
40
0.275220169309529
40
0.275220169309529
40
0.300240184701304
40
0.300240184701304
40
0.400320246268405
40
0.400320246268405
40
0.500400307835506
40
0.500400307835506
40
0.550440338619056
40
0.550440338619056
40
0.575460354010832
40
0.575460354010832
40
0.600480369402607
40
0.600480369402607
40
0.700560430969717
40
0.700560430969717
40
0.800640492536826
40
0.800640492536826
40
0.85068052332038
40
0.85068052332038
40
0.900720554103935
40
0.900720554103935
40
0.950760584887489
40
0.950760584887489
40
1
40
1
40
1
40
1
41
1
10
76.6365495636207
20
-6.17111136652835
30
0
41
1
10
76.3404705421369
20
-6.15274747530714
30
0
41
1
10
76.0444324834485
20
-6.12881732140937
30
0
41
1
10
75.6002098003488
20
-6.08468302151243
30
0
41
1
10
75.4520515303196
20
-6.06859048211595
30
0
41
1
10
75.1562378699444
20
-6.03375016086432
30
0
41
1
10
75.0085205614685
20
-6.01499727318887
30
0
41
1
10
74.2707823509164
20
-5.9146715264643
30
0
41
1
10
73.6833054115509
20
-5.81342690232685
30
0
41
1
10
72.804296938315
20
-5.63226557492519
30
0
41
1
10
72.5116647013045
20
-5.56699355672822
30
0
41
1
10
72.0729700548033
20
-5.46199793239273
30
0
41
1
10
71.9267771533938
20
-5.42581430137392
30
0
41
1
10
71.6344769964967
20
-5.35116639192938
30
0
41
1
10
71.4883758181135
20
-5.31271119241077
30
0
41
1
10
70.757937653157
20
-5.11472237899798
30
0
41
1
10
70.1737314143274
20
-4.93789357132883
30
0
41
1
10
69.0032389405518
20
-4.55051475563778
30
0
41
1
10
68.4169428515911
20
-4.339995678458
30
0
41
1
10
67.534023007096
20
-4.00135144492234
30
0
41
1
10
67.2391438342345
20
-3.88464200541685
30
0
41
1
10
66.7957095613157
20
-3.70417113095567
30
0
41
1
10
66.6476696283632
20
-3.64309662408024
30
0
41
1
10
66.3513521834559
20
-3.51926419007097
30
0
41
1
10
66.2033925549333
20
-3.45663931627976
30
0
41
1
10
65.4644971093114
20
-3.14014027087975
30
0
41
1
10
64.8762708354706
20
-2.87613468448151
30
0
41
1
10
63.7029941765123
20
-2.33157165314185
30
0
41
1
10
63.1179253022011
20
-2.05106027957186
30
0
41
1
10
62.2407627312871
20
-1.62160642347061
30
0
41
1
10
61.9484569951744
20
-1.47698358149671
30
0
41
1
10
61.3637327403915
20
-1.18538040793922
30
0
41
1
10
61.0713174915954
20
-1.03839764095017
30
0
41
1
10
60.4860278120301
20
-0.742713353931663
30
0
41
1
10
60.1931516881327
20
-0.594009636733517
30
0
41
1
10
59.6113048848291
20
-0.297951851626323
30
0
41
1
10
59.3223434694504
20
-0.150619861886639
30
0
41
1
10
59.0328654603392
20
-0.0030339215178117
30
0
0
SPLINE
5
E1
100
AcDbEntity
8
1
62
256
6
ByLayer
370
18
48
1
60
0
100
AcDbSpline
70
4
71
3
72
14
73
10
40
0
40
0
40
0
40
0
40
0.25
40
0.25
40
0.5
40
0.5
40
0.75
40
0.75
40
1
40
1
40
1
40
1
41
1
10
76.6389085904358
20
-6.15999024856521
30
0
41
1
10
76.6390725735462
20
-6.16015731981722
30
0
41
1
10
76.6391649999038
20
-6.16051731489591
30
0
41
1
10
76.6391632439559
20
-6.16171680543187
30
0
41
1
10
76.6390637378036
20
-6.16255479443998
30
0
41
1
10
76.6386436928778
20
-6.16463341514668
30
0
41
1
10
76.6383170279347
20
-6.16589174289868
30
0
41
1
10
76.6375117521856
20
-6.16850791084741
30
0
41
1
10
76.6370375994379
20
-6.1698570634922
30
0
41
1
10
76.6365495636169
20
-6.17111136653804
30
0
0
SPLINE
5
E2
100
AcDbEntity
8
1
62
256
6
ByLayer
370
13
48
1
60
0
100
AcDbSpline
70
4
71
3
72
10
73
6
40
0
40
0
40
0
40
0
40
0.14791626116925
40
0.14791626116925
40
1
40
1
40
1
40
1
41
1
10
20.1469623503744
20
6.27126753124131
30
0
41
1
10
20.1468958952239
20
6.25984069746343
30
0
41
1
10
20.1468293223233
20
6.24841384371882
30
0
41
1
10
20.1463784543974
20
6.17116152706708
30
0
41
1
10
20.1459903676187
20
6.10533541651691
30
0
41
1
10
20.1455983660235
20
6.03950860958281
30
0
0
SPLINE
5
E3
100
AcDbEntity
8
1
62
256
6
ByLayer
370
18
48
1
60
0
100
AcDbSpline
70
4
71
3
72
51
73
47
40
0
40
0
40
0
40
0
40
0.102965405209179
40
0.102965405209179
40
0.154448107813767
40
0.154448107813767
40
0.205930810418356
40
0.205930810418356
40
0.257413513022944
40
0.257413513022944
40
0.308896215627532
40
0.308896215627532
40
0.360378918232121
40
0.360378918232121
40
0.411861620836709
40
0.411861620836709
40
0.437602972139003
40
0.450473647790151
40
0.450473647790151
40
0.463344323441299
40
0.463344323441299
40
0.514827026045893
40
0.514827026045893
40
0.566309728650488
40
0.566309728650488
40
0.617792431255082
40
0.617792431255082
40
0.669275133859676
40
0.669275133859676
40
0.72075783646427
40
0.72075783646427
40
0.772240539068864
40
0.772240539068864
40
0.823723241673459
40
0.823723241673459
40
0.875205944278053
40
0.875205944278053
40
0.900947295580349
40
0.900947295580349
40
0.926688646882645
40
0.926688646882645
40
0.978171349487236
40
0.978171349487236
40
0.991042025138385
40
0.991042025138385
40
1
40
1
40
1
40
1
41
1
10
20.1455983660235
20
6.03950860958281
30
0
41
1
10
20.7376384235103
20
5.99553269228588
30
0
41
1
10
21.3273546753617
20
5.92838240943686
30
0
41
1
10
22.2098829369924
20
5.7969317647659
30
0
41
1
10
22.503701979069
20
5.7480028544843
30
0
41
1
10
23.0906366390189
20
5.64075283474983
30
0
41
1
10
23.3837811932054
20
5.58238074522143
30
0
41
1
10
23.970143442153
20
5.45555803983981
30
0
41
1
10
24.2633476117575
20
5.3871372013449
30
0
41
1
10
24.8500918625707
20
5.24071874111607
30
0
41
1
10
25.1436267725812
20
5.16272350171741
30
0
41
1
10
25.7311059067815
20
4.99777193187447
30
0
41
1
10
26.0250802766009
20
4.91079519674952
30
0
41
1
10
26.6133664903883
20
4.72842459508422
30
0
41
1
10
26.9076425408044
20
4.63305851284852
30
0
41
1
10
27.3502170272811
20
4.48339409725961
30
0
41
1
10
27.5717977478405
20
4.40690419005813
30
0
41
1
10
27.7938320290219
20
4.32800653294024
30
0
41
1
10
27.9419571916721
20
4.27488193770466
30
0
41
1
10
28.0160908450225
20
4.24804909227777
30
0
41
1
10
28.3863810178147
20
4.11282656830846
30
0
41
1
10
28.6818634419821
20
4.0011008581572
30
0
41
1
10
29.2715908134994
20
3.77129044338449
30
0
41
1
10
29.5658325409068
20
3.65320023850532
30
0
41
1
10
30.1531774514136
20
3.41113082317295
30
0
41
1
10
30.4462893376403
20
3.28715701962094
30
0
41
1
10
31.0319438836043
20
3.03387826781381
30
0
41
1
10
31.3244778636454
20
2.9045678789407
30
0
41
1
10
31.909013710011
20
2.64106123000087
30
0
41
1
10
32.2010301483849
20
2.50686515295152
30
0
41
1
10
32.7854447267044
20
2.23454840331908
30
0
41
1
10
33.077831321888
20
2.09642692253905
30
0
41
1
10
33.6629693642712
20
1.8166520651877
30
0
41
1
10
33.9557213477848
20
1.67499911736567
30
0
41
1
10
34.5416664725215
20
1.38856887878066
30
0
41
1
10
34.834858033751
20
1.24378796468869
30
0
41
1
10
35.2748415823498
20
1.02426283757961
30
0
41
1
10
35.4215382992201
20
0.950700147260449
30
0
41
1
10
35.7152867616481
20
0.803121698113415
30
0
41
1
10
35.8623365657331
20
0.72910292757274
30
0
41
1
10
36.3040740459621
20
0.506494510229032
30
0
41
1
10
36.599348446714
20
0.357349847159497
30
0
41
1
10
36.9694193859514
20
0.170167880920928
30
0
41
1
10
37.0435161456755
20
0.132677252817075
30
0
41
1
10
37.1690904124834
20
0.069132999900404
30
0
41
1
10
37.2205994024576
20
0.043065758169007
30
0
41
1
10
37.2720856411729
20
0.0170105491795312
30
0
0
SPLINE
5
E4
100
AcDbEntity
8
1
62
256
6
ByLayer
370
18
48
1
60
0
100
AcDbSpline
70
4
71
3
72
53
73
49
40
0
40
0
40
0
40
0
40
0.0033884872633062
40
0.0033884872633062
40
0.0283037750817226
40
0.0407614189909319
40
0.0407614189909319
40
0.0532190629001412
40
0.0532190629001412
40
0.103049638536974
40
0.127964926355391
40
0.127964926355391
40
0.152880214173807
40
0.152880214173807
40
0.202710789810642
40
0.202710789810642
40
0.252541365447477
40
0.252541365447477
40
0.302371941084312
40
0.302371941084312
40
0.352202516721147
40
0.352202516721147
40
0.402033092357982
40
0.402033092357982
40
0.451863667994817
40
0.451863667994817
40
0.501694243631652
40
0.501694243631652
40
0.551524819268486
40
0.551524819268486
40
0.563982463177695
40
0.563982463177695
40
0.576440107086904
40
0.601355394905321
40
0.601355394905321
40
0.651185970542156
40
0.651185970542156
40
0.701016546178991
40
0.701016546178991
40
0.750847121815826
40
0.750847121815826
40
0.80067769745266
40
0.80067769745266
40
0.850508273089496
40
0.850508273089496
40
0.90033884872633
40
0.90033884872633
40
1
40
1
40
1
40
1
41
1
10
37.8406037103386
20
-0.281273216503138
30
0
41
1
10
37.8205410449281
20
-0.271152959231927
30
0
41
1
10
37.80047544105
20
-0.261029790688383
30
0
41
1
10
37.6328442615273
20
-0.176447396429779
30
0
41
1
10
37.4112610736459
20
-0.0645236320648621
30
0
41
1
10
37.1892648195345
20
0.0476453244725406
30
0
41
1
10
37.0411693576158
20
0.122466206115689
30
0
41
1
10
36.9670647564245
20
0.159901431712399
30
0
41
1
10
36.5969526102528
20
0.346810493380047
30
0
41
1
10
36.1539898463516
20
0.570217649109537
30
0
41
1
10
35.7127855103694
20
0.791988590984431
30
0
41
1
10
35.419000313176
20
0.939383522422077
30
0
41
1
10
35.2722840464132
20
1.01285493609859
30
0
41
1
10
34.8322394279976
20
1.23210710026157
30
0
41
1
10
34.5390079872365
20
1.37671801266242
30
0
41
1
10
33.9529845210088
20
1.66283314879237
30
0
41
1
10
33.6601940607426
20
1.80434086204556
30
0
41
1
10
33.0749796732549
20
2.08384854323651
30
0
41
1
10
32.7825554696267
20
2.221848683779
30
0
41
1
10
32.1980660015074
20
2.49394677276752
30
0
41
1
10
31.9060104964542
20
2.62804157723193
30
0
41
1
10
31.3213947982707
20
2.89135863402416
30
0
41
1
10
31.028822540701
20
3.02058596609859
30
0
41
1
10
30.4430949077734
20
3.27372328341443
30
0
41
1
10
30.149946356936
20
3.39763494070235
30
0
41
1
10
29.5625299862805
20
3.63959751603792
30
0
41
1
10
29.2682550175751
20
3.75764605080224
30
0
41
1
10
28.6784658646398
20
3.98739654231446
30
0
41
1
10
28.382954848238
20
4.09910387939922
30
0
41
1
10
28.0126318455241
20
4.2343179913924
30
0
41
1
10
27.9384915120519
20
4.26114997817245
30
0
41
1
10
27.7903514720674
20
4.31427495899976
30
0
41
1
10
27.5682945125813
20
4.39317565344001
30
0
41
1
10
27.3466900177844
20
4.46967589523072
30
0
41
1
10
26.9040664954888
20
4.6193705194988
30
0
41
1
10
26.6097528660753
20
4.71476378536167
30
0
41
1
10
26.0213884309761
20
4.89720698337567
30
0
41
1
10
25.7273758350544
20
4.98423350447979
30
0
41
1
10
25.1398197187326
20
5.14930788987985
30
0
41
1
10
24.8462463192761
20
5.22737619717716
30
0
41
1
10
24.2594245228102
20
5.3739631134105
30
0
41
1
10
23.9661809072293
20
5.44247886924572
30
0
41
1
10
23.3797389798856
20
5.56951211811403
30
0
41
1
10
23.0865528687565
20
5.6279984719032
30
0
41
1
10
22.4995335376266
20
5.73549369322569
30
0
41
1
10
22.2056733269889
20
5.78455520296387
30
0
41
1
10
21.3230265519738
20
5.91643468218513
30
0
41
1
10
20.733234874637
20
5.98390976880941
30
0
41
1
10
20.1411223468564
20
6.02824796825257
30
0
0
SPLINE
5
E5
100
AcDbEntity
8
1
62
256
6
ByLayer
370
13
48
1
60
0
100
AcDbSpline
70
4
71
3
72
10
73
6
40
0
40
0
40
0
40
0
40
0.5
40
0.5
40
1
40
1
40
1
40
1
41
1
10
20.1411223468564
20
6.02824796825257
30
0
41
1
10
20.1348609480583
20
6.02871683039564
30
0
41
1
10
20.1283570947412
20
6.02905930791104
30
0
41
1
10
20.1148823620774
20
6.02950590515053
30
0
41
1
10
20.1078685193754
20
6.02960799740043
30
0
41
1
10
20.1008514773867
20
6.02958128162445
30
0
0
SPLINE
5
E6
100
AcDbEntity
8
1
62
256
6
ByLayer
370
13
48
1
60
0
100
AcDbSpline
70
4
71
3
72
44
73
40
40
0
40
0
40
0
40
0
40
0.0624999999999999
40
0.125
40
0.125
40
0.15625
40
0.15625
40
0.1875
40
0.1875
40
0.21875
40
0.234375
40
0.234375
40
0.25
40
0.25
40
0.3125
40
0.375
40
0.4375
40
0.4375
40
0.46875
40
0.484375
40
0.484375
40
0.5
40
0.5
40
0.5625
40
0.625
40
0.625
40
0.656249999999999
40
0.656249999999999
40
0.687499999999999
40
0.687499999999999
40
0.749999999999999
40
0.749999999999999
40
0.781249999999999
40
0.781249999999999
40
0.812499999999999
40
0.812499999999999
40
0.875
40
0.9375
40
1
40
1
40
1
40
1
41
1
10
20.1008514773867
20
6.02958128162445
30
0
41
1
10
20.1008470297248
20
6.00291236778793
30
0
41
1
10
20.1008375730756
20
5.93548158838789
30
0
41
1
10
20.1008272762982
20
5.84032382780325
30
0
41
1
10
20.1008193261523
20
5.75850654073008
30
0
41
1
10
20.100816638024
20
5.72949036712163
30
0
41
1
10
20.1008111982887
20
5.66793387746276
30
0
41
1
10
20.1008084519295
20
5.63545063753961
30
0
41
1
10
20.1008029308128
20
5.56722662708822
30
0
41
1
10
20.1007987658566
20
5.51358383287564
30
0
41
1
10
20.1007945770795
20
5.45622731924846
30
0
41
1
10
20.1007917804745
20
5.41716212971957
30
0
41
1
10
20.1007903794046
20
5.39720472500733
30
0
41
1
10
20.1007833880268
20
5.29565606168114
30
0
41
1
10
20.1007722637035
20
5.1215256305714
30
0
41
1
10
20.1007559321161
20
4.82637856734218
30
0
41
1
10
20.1007453480551
20
4.60715738125413
30
0
41
1
10
20.1007375333957
20
4.43421112440259
30
0
41
1
10
20.1007336566745
20
4.34560261849066
30
0
41
1
10
20.1007298254063
20
4.25374432072377
30
0
41
1
10
20.100727281115
20
4.19177615919321
30
0
41
1
10
20.1007260127955
20
4.16039878100435
30
0
41
1
10
20.1007197157239
20
4.002188025712
30
0
41
1
10
20.1007099100951
20
3.74021677088467
30
0
41
1
10
20.1007005591018
20
3.46079239379691
30
0
41
1
10
20.1006936704256
20
3.24461948036674
30
0
41
1
10
20.1006913924735
20
3.17137980743473
30
0
41
1
10
20.1006868911624
20
3.02343864706819
30
0
41
1
10
20.1006846654172
20
2.94866588320784
30
0
41
1
10
20.1006780454669
20
2.72195727554569
30
0
41
1
10
20.100673709073
20
2.56763532917171
30
0
41
1
10
20.1006672414173
20
2.33136639336769
30
0
41
1
10
20.1006650915626
20
2.25181136138272
30
0
41
1
10
20.1006607891504
20
2.09108902248147
30
0
41
1
10
20.1006586460156
20
2.01027446652566
30
0
41
1
10
20.1006522240717
20
1.76675449272557
30
0
41
1
10
20.1006436757132
20
1.43896410700742
30
0
41
1
10
20.1006304997479
20
0.938134810301364
30
0
41
1
10
20.1006211960971
20
0.598121765237607
30
0
41
1
10
20.100616335634
20
0.426542805133124
30
0
0
SPLINE
5
E7
100
AcDbEntity
8
1
62
256
6
ByLayer
370
18
48
1
60
0
100
AcDbSpline
70
4
71
3
72
51
73
47
40
0
40
0
40
0
40
0
40
0.0764382879321024
40
0.0764382879321024
40
0.12145494430434
40
0.12145494430434
40
0.166471600676578
40
0.166471600676578
40
0.256504913421053
40
0.256504913421053
40
0.30152156979329
40
0.30152156979329
40
0.346538226165529
40
0.346538226165529
40
0.369046554351648
40
0.380300718444707
40
0.380300718444707
40
0.391554882537766
40
0.391554882537766
40
0.436571538910009
40
0.481588195282252
40
0.481588195282252
40
0.526604851654495
40
0.526604851654495
40
0.571621508026738
40
0.571621508026738
40
0.616638164398981
40
0.616638164398981
40
0.706671477143468
40
0.706671477143468
40
0.751688133515712
40
0.751688133515712
40
0.796704789887956
40
0.796704789887956
40
0.8417214462602
40
0.8417214462602
40
0.85297561035326
40
0.85297561035326
40
0.86422977444632
40
0.88673810263244
40
0.88673810263244
40
0.93175475900468
40
0.93175475900468
40
0.976771415376921
40
0.976771415376921
40
1
40
1
40
1
40
1
41
1
10
20.3695081953735
20
0.291541195441539
30
0
41
1
10
20.8731095676552
20
0.0385167692441541
30
0
41
1
10
21.3747970478322
20
-0.21446332682649
30
0
41
1
10
22.1701235774857
20
-0.613959555536638
30
0
41
1
10
22.4645126948531
20
-0.761486681670988
30
0
41
1
10
23.0528944701039
20
-1.05469360629502
30
0
41
1
10
23.3468838058857
20
-1.20037925589395
30
0
41
1
10
24.2286099521821
20
-1.63394333592342
30
0
41
1
10
24.8161243183063
20
-1.9182982480489
30
0
41
1
10
25.6987746884969
20
-2.33421774056984
30
0
41
1
10
25.9932222123931
20
-2.47109485289357
30
0
41
1
10
26.5829686117022
20
-2.74057464607725
30
0
41
1
10
26.8782728602527
20
-2.87315923527348
30
0
41
1
10
27.3220645827304
20
-3.06841782686081
30
0
41
1
10
27.5441656774054
20
-3.16514905408911
30
0
41
1
10
27.7666188889694
20
-3.26044987867345
30
0
41
1
10
27.9150043026245
20
-3.32365639173187
30
0
41
1
10
27.9892703056625
20
-3.35510925356059
30
0
41
1
10
28.3603507308179
20
-3.51133369785956
30
0
41
1
10
28.9524531612205
20
-3.75463229900879
30
0
41
1
10
29.5419596820427
20
-3.9837428119753
30
0
41
1
10
30.1305547751754
20
-4.20529655321957
30
0
41
1
10
30.4243958986727
20
-4.31229491269426
30
0
41
1
10
31.0113890142821
20
-4.51837054536668
30
0
41
1
10
31.3045416066146
20
-4.61744849618322
30
0
41
1
10
31.8905488098148
20
-4.8072513644226
30
0
41
1
10
32.1834139663147
20
-4.89798059102762
30
0
41
1
10
33.0619765305039
20
-5.15714002733384
30
0
41
1
10
33.6475847694516
20
-5.31253156982723
30
0
41
1
10
34.5276700961566
20
-5.51754999494037
30
0
41
1
10
34.8213141048222
20
-5.58121088711607
30
0
41
1
10
35.4095343165571
20
-5.69873077967443
30
0
41
1
10
35.7041217122041
20
-5.7526336576058
30
0
41
1
10
36.2945037819158
20
-5.85037338151991
30
0
41
1
10
36.5902876019485
20
-5.89416347144842
30
0
41
1
10
36.9609740419451
20
-5.94236526658582
30
0
41
1
10
37.0351914919162
20
-5.9516825699165
30
0
41
1
10
37.1835550386145
20
-5.96963986226839
30
0
41
1
10
37.4059495150588
20
-5.99555553480641
30
0
41
1
10
37.6279185415785
20
-6.01842164179587
30
0
41
1
10
38.0713598097749
20
-6.06011227636094
30
0
41
1
10
38.3663243177443
20
-6.08251646602213
30
0
41
1
10
38.9551659931424
20
-6.11639966249339
30
0
41
1
10
39.2490444211537
20
-6.12788267079202
30
0
41
1
10
39.6940108463195
20
-6.13714126014077
30
0
41
1
10
39.8453664023677
20
-6.13886056113859
30
0
41
1
10
39.9966455634054
20
-6.13914106137256
30
0
0
SPLINE
5
E8
100
AcDbEntity
8
1
62
256
6
ByLayer
370
18
48
1
60
0
100
AcDbSpline
70
4
71
3
72
8
73
4
40
0
40
0
40
0
40
0
40
1
40
1
40
1
40
1
41
1
10
76.5814574085762
20
-0.600653618175386
30
0
41
1
10
76.5833601938044
20
-0.601103567803705
30
0
41
1
10
76.5843862016212
20
-0.606201337908658
30
0
41
1
10
76.5837426530597
20
-0.612006187700047
30
0
0
SPLINE
5
E9
100
AcDbEntity
8
1
62
256
6
ByLayer
370
18
48
1
60
0
100
AcDbSpline
70
4
71
3
72
54
73
50
40
0
40
0
40
0
40
0
40
0.0125688717456208
40
0.0125688717456208
40
0.0581082870676385
40
0.0581082870676385
40
0.103647702389656
40
0.103647702389656
40
0.149187117711674
40
0.149187117711674
40
0.171956825372683
40
0.171956825372683
40
0.194726533033692
40
0.194726533033692
40
0.24026594835571
40
0.24026594835571
40
0.285805363677728
40
0.285805363677728
40
0.331344778999745
40
0.331344778999745
40
0.376884194321763
40
0.376884194321763
40
0.422423609643781
40
0.422423609643781
40
0.513502440287816
40
0.513502440287816
40
0.536272147948826
40
0.536272147948826
40
0.559041855609835
40
0.559041855609835
40
0.604581270931855
40
0.604581270931855
40
0.650120686253874
40
0.650120686253874
40
0.695660101575894
40
0.695660101575894
40
0.786738932219934
40
0.786738932219934
40
0.809508639880945
40
0.809508639880945
40
0.832278347541956
40
0.832278347541956
40
0.877817762863975
40
0.877817762863975
40
0.968896593508014
40
0.968896593508014
40
0.991666301169025
40
0.991666301169025
40
1
40
1
40
1
40
1
41
1
10
56.0929081963766
20
6.1740894892219
30
0
41
1
10
56.174293372421
20
6.17545622013725
30
0
41
1
10
56.2556956685908
20
6.17639386874291
30
0
41
1
10
56.6322470752222
20
6.17840182388971
30
0
41
1
10
56.9278789239576
20
6.17358411257558
30
0
41
1
10
57.5201835200697
20
6.15239766420356
30
0
41
1
10
57.8156798865444
20
6.13605609232471
30
0
41
1
10
58.4051983426529
20
6.09289583721247
30
0
41
1
10
58.6992717908904
20
6.06607739595012
30
0
41
1
10
59.1394609264553
20
6.01870329003805
30
0
41
1
10
59.2860352148287
20
6.0017172074198
30
0
41
1
10
59.5789039440011
20
5.96533348654674
30
0
41
1
10
59.7252110980727
20
5.94590663897378
30
0
41
1
10
60.1640408334009
20
5.88326539473968
30
0
41
1
10
60.4564253286959
20
5.8358237764844
30
0
41
1
10
61.0408492697177
20
5.73093541930393
30
0
41
1
10
61.3328985316176
20
5.67346058948519
30
0
41
1
10
61.9169500360035
20
5.54876275280108
30
0
41
1
10
62.2089386954962
20
5.48155383364553
30
0
41
1
10
62.7927209140622
20
5.33829112994397
30
0
41
1
10
63.0845463094843
20
5.26220211943979
30
0
41
1
10
63.6691329370239
20
5.10021504667023
30
0
41
1
10
63.9618711965747
20
5.01434816224128
30
0
41
1
10
64.8415746643079
20
4.74326892769218
30
0
41
1
10
65.430023954902
20
4.54453765277901
30
0
41
1
10
66.1685239892043
20
4.27590728859843
30
0
41
1
10
66.3165027438604
20
4.22112020778269
30
0
41
1
10
66.6119639514181
20
4.10986423432971
30
0
41
1
10
66.7594988837932
20
4.05337788541377
30
0
41
1
10
67.201606664414
20
3.88140789810728
30
0
41
1
10
67.4956737063331
20
3.76342179224832
30
0
41
1
10
68.0826723369826
20
3.52144669190523
30
0
41
1
10
68.3756156293185
20
3.39745829271436
30
0
41
1
10
68.9608838337199
20
3.14404499727505
30
0
41
1
10
69.2531982371714
20
3.01462041893654
30
0
41
1
10
70.129451146312
20
2.61913269239929
30
0
41
1
10
70.7126938147478
20
2.34582983176767
30
0
41
1
10
71.4413106192003
20
1.99426310227383
30
0
41
1
10
71.5870210011249
20
1.92346051250703
30
0
41
1
10
71.8786332634688
20
1.78106421826862
30
0
41
1
10
72.0245288026509
20
1.70946566158099
30
0
41
1
10
72.4624960154702
20
1.49357131221845
30
0
41
1
10
72.7548491431354
20
1.34817678392815
30
0
41
1
10
73.633245140189
20
0.908364194754881
30
0
41
1
10
74.2206256709669
20
0.610314376249136
30
0
41
1
10
74.9576797539755
20
0.233611599360159
30
0
41
1
10
75.1052315360087
20
0.158063969172957
30
0
41
1
10
75.3069977382715
20
0.0546186942655709
30
0
41
1
10
75.3610640617531
20
0.02688529768281
30
0
41
1
10
75.4151293637447
20
-0.0008595995272742
30
0
0
SPLINE
5
EA
100
AcDbEntity
8
1
62
256
6
ByLayer
370
18
48
1
60
0
100
AcDbSpline
70
4
71
3
72
8
73
4
40
0
40
0
40
0
40
0
40
1
40
1
40
1
40
1
41
1
10
76.4995179573928
20
-0.57968630758819
30
0
41
1
10
76.526804209253
20
-0.587199546387779
30
0
41
1
10
76.5541136164464
20
-0.594187660313935
30
0
41
1
10
76.5814574085762
20
-0.600653618175414
30
0
0
SPLINE
5
EB
100
AcDbEntity
8
1
62
256
6
ByLayer
370
18
48
1
60
0
100
AcDbSpline
70
4
71
3
72
8
73
4
40
0
40
0
40
0
40
0
40
1
40
1
40
1
40
1
41
1
10
76.5837426530599
20
-0.612006187700047
30
0
41
1
10
76.5695808828449
20
-0.604728282278643
30
0
41
1
10
76.5554188940072
20
-0.59745027535493
30
0
41
1
10
76.5412566748307
20
-0.590172189488158
30
0
0
SPLINE
5
EC
100
AcDbEntity
8
1
62
256
6
ByLayer
370
18
48
1
60
0
100
AcDbSpline
70
4
71
3
72
54
73
50
40
0
40
0
40
0
40
0
40
0.0131047274684167
40
0.0131047274684167
40
0.0355443643858236
40
0.0355443643858236
40
0.0579840013032305
40
0.0579840013032305
40
0.147742548972857
40
0.147742548972857
40
0.192621822807671
40
0.192621822807671
40
0.215061459725076
40
0.215061459725076
40
0.237501096642482
40
0.237501096642482
40
0.327259644312105
40
0.327259644312105
40
0.372138918146917
40
0.372138918146917
40
0.41701819198173
40
0.41701819198173
40
0.461897465816542
40
0.461897465816542
40
0.484337102733948
40
0.484337102733948
40
0.506776739651355
40
0.506776739651355
40
0.596535287320974
40
0.596535287320974
40
0.641414561155784
40
0.641414561155784
40
0.686293834990593
40
0.686293834990593
40
0.731173108825402
40
0.731173108825402
40
0.776052382660211
40
0.776052382660211
40
0.820931656495021
40
0.820931656495021
40
0.843371293412424
40
0.843371293412424
40
0.865810930329828
40
0.865810930329828
40
0.910690204164634
40
0.910690204164634
40
0.955569477999439
40
0.955569477999439
40
1
40
1
40
1
40
1
41
1
10
75.9569015855877
20
-0.289963761649233
30
0
41
1
10
75.8706959305642
20
-0.245701404138089
30
0
41
1
10
75.7844757895667
20
-0.201447604420935
30
0
41
1
10
75.550571745061
20
-0.0814536185518477
30
0
41
1
10
75.4028104232146
20
-0.0057172798269107
30
0
41
1
10
75.1073572999945
20
0.145521296840201
30
0
41
1
10
74.9597847702624
20
0.220962451523633
30
0
41
1
10
74.2226265482931
20
0.597147406054461
30
0
41
1
10
73.6351617877108
20
0.894832209332719
30
0
41
1
10
72.7566382539374
20
1.33416924795512
30
0
41
1
10
72.4642427415698
20
1.47941824654185
30
0
41
1
10
72.0262119285489
20
1.69511322840674
30
0
41
1
10
71.8802952280829
20
1.76664868881474
30
0
41
1
10
71.5886411920356
20
1.90892681791189
30
0
41
1
10
71.4429099669226
20
1.97967242537644
30
0
41
1
10
70.7141899406687
20
2.33095861869202
30
0
41
1
10
70.1308701199624
20
2.60408280427103
30
0
41
1
10
69.254510572042
20
2.99937680963717
30
0
41
1
10
68.9621625379469
20
3.12874999959055
30
0
41
1
10
68.3768311573895
20
3.38208786915172
30
0
41
1
10
68.0838575431497
20
3.50604943630754
30
0
41
1
10
67.4968022938085
20
3.74799098143237
30
0
41
1
10
67.2027096663943
20
3.86597307571236
30
0
41
1
10
66.7605680133981
20
4.03795827238014
30
0
41
1
10
66.6130223223789
20
4.09445251524767
30
0
41
1
10
66.3175404984568
20
4.20572834855281
30
0
41
1
10
66.1695447549283
20
4.26053037586684
30
0
41
1
10
65.4309460468547
20
4.52925271914765
30
0
41
1
10
64.8424164980659
20
4.72811247589644
30
0
41
1
10
63.9625889554696
20
4.99946177513681
30
0
41
1
10
63.6698090755476
20
5.0854324934981
30
0
41
1
10
63.0851391301839
20
5.24765520939079
30
0
41
1
10
62.7932713715472
20
5.32386872058987
30
0
41
1
10
62.2094067118653
20
5.46738928054378
30
0
41
1
10
61.9173783934214
20
5.53473911097146
30
0
41
1
10
61.333249874199
20
5.65974800404891
30
0
41
1
10
61.0411631810634
20
5.71739016163471
30
0
41
1
10
60.4566663741201
20
5.8226330449256
30
0
41
1
10
60.1642470012491
20
5.8702649328101
30
0
41
1
10
59.7253674520517
20
5.93321385485663
30
0
41
1
10
59.5790436279931
20
5.95274467855776
30
0
41
1
10
59.2861412055152
20
5.989332246858
30
0
41
1
10
59.1395503289003
20
6.00642068375427
30
0
41
1
10
58.6993135152672
20
6.05411093822397
30
0
41
1
10
58.4052115836079
20
6.08115154848755
30
0
41
1
10
57.8156425896332
20
6.12478037733007
30
0
41
1
10
57.5201362067929
20
6.14136755525556
30
0
41
1
10
56.9307279399009
20
6.16296121384312
30
0
41
1
10
56.6380141889949
20
6.16805382345828
30
0
41
1
10
56.3458187087768
20
6.16689961644212
30
0
0
SPLINE
5
ED
100
AcDbEntity
8
1
62
256
6
ByLayer
370
18
48
1
60
0
100
AcDbSpline
70
4
71
3
72
8
73
4
40
0
40
0
40
0
40
0
40
1
40
1
40
1
40
1
41
1
10
39.8479796362057
20
6.13840267495678
30
0
41
1
10
39.8990101423364
20
6.13881482853384
30
0
41
1
10
39.9500311810179
20
6.13906362690071
30
0
41
1
10
40.001043555863
20
6.13914881076386
30
0
0
SPLINE
5
EE
100
AcDbEntity
8
1
62
256
6
ByLayer
370
18
48
1
60
0
100
AcDbSpline
70
4
71
3
72
43
73
39
40
0
40
0
40
0
40
0
40
0.0296914205490043
40
0.0296914205490043
40
0.0782068495215508
40
0.0782068495215508
40
0.126722278494097
40
0.126722278494097
40
0.175237707466644
40
0.175237707466644
40
0.223753136439191
40
0.223753136439191
40
0.320783994384286
40
0.320783994384286
40
0.41781485232938
40
0.41781485232938
40
0.442072566815655
40
0.442072566815655
40
0.466330281301929
40
0.466330281301929
40
0.514845710274479
40
0.514845710274479
40
0.611876568219579
40
0.611876568219579
40
0.708907426164679
40
0.708907426164679
40
0.733165140650955
40
0.733165140650955
40
0.75742285513723
40
0.75742285513723
40
0.805938284109783
40
0.805938284109783
40
0.902969142054889
40
0.927226856541166
40
0.927226856541166
40
0.951484571027444
40
0.951484571027444
40
1
40
1
40
1
40
1
41
1
10
58.4808749819697
20
0.289026702718104
30
0
41
1
10
58.6613556335634
20
0.197272070525003
30
0
41
1
10
58.8415995580784
20
0.105533323892303
30
0
41
1
10
59.3158400415564
20
-0.135858346446469
30
0
41
1
10
59.6095001805676
20
-0.285355049613855
30
0
41
1
10
60.1960278337976
20
-0.583342822507205
30
0
41
1
10
60.48889798606
20
-0.73182962829614
30
0
41
1
10
61.0741765288467
20
-1.02709947543394
30
0
41
1
10
61.3665868603674
20
-1.17388413678233
30
0
41
1
10
61.9513004488385
20
-1.46511249287389
30
0
41
1
10
62.2436003033721
20
-1.60955895890461
30
0
41
1
10
63.1207454217405
20
-2.03851205628243
30
0
41
1
10
63.7058018444843
20
-2.31872907213605
30
0
41
1
10
64.879038834164
20
-2.86279631231196
30
0
41
1
10
65.4672396236889
20
-3.12659720845178
30
0
41
1
10
66.206093286518
20
-3.4428953505635
30
0
41
1
10
66.3540440905103
20
-3.50548272982596
30
0
41
1
10
66.6503426765842
20
-3.62924588443937
30
0
41
1
10
66.7983796887462
20
-3.69029159652069
30
0
41
1
10
67.2417980945042
20
-3.8706831015345
30
0
41
1
10
67.5366680741284
20
-3.98735347729317
30
0
41
1
10
68.4195641767689
20
-4.32591950899746
30
0
41
1
10
69.0058486836271
20
-4.53643906360344
30
0
41
1
10
70.1763187275064
20
-4.92392021195866
30
0
41
1
10
70.7605147348211
20
-5.1008504984535
30
0
41
1
10
71.4909417453565
20
-5.2990219023886
30
0
41
1
10
71.6370409609358
20
-5.33751590627134
30
0
41
1
10
71.9293358541029
20
-5.41224905838033
30
0
41
1
10
72.0755253947314
20
-5.44847933894818
30
0
41
1
10
72.5142091912791
20
-5.5536234789675
30
0
41
1
10
72.8068332671718
20
-5.61900560758934
30
0
41
1
10
73.6858129118262
20
-5.80053171415688
30
0
41
1
10
74.4201279835964
20
-5.92744883601605
30
0
41
1
10
75.158671655389
20
-6.02165030306315
30
0
41
1
10
75.4544672603882
20
-6.05667013142025
30
0
41
1
10
75.6026168412654
20
-6.07285554314274
30
0
41
1
10
76.0468182363731
20
-6.11727753435142
30
0
41
1
10
76.3428427927062
20
-6.14141110162146
30
0
41
1
10
76.6389085908821
20
-6.15999024858672
30
0
0
SPLINE
5
EF
100
AcDbEntity
8
1
62
256
6
ByLayer
370
18
48
1
60
0
100
AcDbSpline
70
4
71
3
72
42
73
38
40
0
40
0
40
0
40
0
40
0.0625000000000002
40
0.0625000000000002
40
0.125
40
0.187500000000001
40
0.187500000000001
40
0.218750000000001
40
0.234375000000001
40
0.234375000000001
40
0.250000000000001
40
0.250000000000001
40
0.312500000000001
40
0.312500000000001
40
0.375000000000001
40
0.437500000000001
40
0.437500000000001
40
0.46875
40
0.484375
40
0.484375
40
0.5
40
0.5
40
0.5625
40
0.625
40
0.6875
40
0.6875
40
0.71875
40
0.734375
40
0.734375
40
0.75
40
0.75
40
0.8125
40
0.8125
40
0.875
40
0.9375
40
0.9375
40
1
40
1
40
1
40
1
41
1
10
76.5837426530597
20
-0.612006187700018
30
0
41
1
10
76.5643691058256
20
-0.786756841119598
30
0
41
1
10
76.5475175797229
20
-0.959719844667688
30
0
41
1
10
76.5179653252233
20
-1.3021077653691
30
0
41
1
10
76.4925654613093
20
-1.64095726439794
30
0
41
1
10
76.4739999387165
20
-1.97266943868971
30
0
41
1
10
76.4621842887711
20
-2.21870305543374
30
0
41
1
10
76.456805023815
20
-2.34103142232416
30
0
41
1
10
76.4521459362891
20
-2.4623053988393
30
0
41
1
10
76.449192690248
20
-2.54291740397829
30
0
41
1
10
76.4477909155219
20
-2.58315275033516
30
0
41
1
10
76.4411717274392
20
-2.78294601644663
30
0
41
1
10
76.4371059079988
20
-2.9385392025537
30
0
41
1
10
76.4308956737487
20
-3.24147959029187
30
0
41
1
10
76.4266083192518
20
-3.53617284546709
30
0
41
1
10
76.4254469266752
20
-3.81448659059348
30
0
41
1
10
76.4255979549235
20
-4.01699212335348
30
0
41
1
10
76.4259308185655
20
-4.11668540427462
30
0
41
1
10
76.4266383858705
20
-4.21400366056528
30
0
41
1
10
76.4271933117575
20
-4.27834930281165
30
0
41
1
10
76.4275124409879
20
-4.31025251235229
30
0
41
1
10
76.4293067423654
20
-4.46766928444893
30
0
41
1
10
76.4334455190855
20
-4.70737576656339
30
0
41
1
10
76.4435088829601
20
-5.0314775822695
30
0
41
1
10
76.4531424399736
20
-5.22406829585668
30
0
41
1
10
76.4617202550984
20
-5.35957884250743
30
0
41
1
10
76.4663492837732
20
-5.42509803305973
30
0
41
1
10
76.4715554960664
20
-5.48721091502227
30
0
41
1
10
76.4751634458171
20
-5.52785467467655
30
0
41
1
10
76.4770335550248
20
-5.54776470866071
30
0
41
1
10
76.4867000400197
20
-5.64493434615849
30
0
41
1
10
76.4954684753084
20
-5.71539447380377
30
0
41
1
10
76.515551652664
20
-5.84221937073517
30
0
41
1
10
76.5381812929389
20
-5.95494669909002
30
0
41
1
10
76.5670929253274
20
-6.03978479780054
30
0
41
1
10
76.5998758646492
20
-6.11054824103059
30
0
41
1
10
76.6182017987487
20
-6.13889350504485
30
0
41
1
10
76.6389085904756
20
-6.15999024858999
30
0
0
SPLINE
5
F0
100
AcDbEntity
8
1
62
256
6
ByLayer
370
18
48
1
60
0
100
AcDbSpline
70
4
71
3
72
58
73
54
40
0
40
0
40
0
40
0
40
0.0082392392285418
40
0.0845285285186464
40
0.0845285285186464
40
0.122673173163699
40
0.122673173163699
40
0.141745495486225
40
0.141745495486225
40
0.160817817808751
40
0.160817817808751
40
0.237107107098857
40
0.237107107098857
40
0.27525175174391
40
0.27525175174391
40
0.294324074066437
40
0.294324074066437
40
0.313396396388964
40
0.313396396388964
40
0.389685685679073
40
0.389685685679073
40
0.465974974969182
40
0.465974974969182
40
0.48504729729171
40
0.48504729729171
40
0.504119619614237
40
0.504119619614237
40
0.542264264259294
40
0.542264264259294
40
0.580408908904352
40
0.580408908904352
40
0.618553553549409
40
0.618553553549409
40
0.656698198194466
40
0.675770520516995
40
0.675770520516995
40
0.694842842839525
40
0.694842842839525
40
0.732987487484584
40
0.732987487484584
40
0.771132132129642
40
0.771132132129642
40
0.809276776774701
40
0.809276776774701
40
0.828349099097231
40
0.828349099097231
40
0.847421421419761
40
0.847421421419761
40
0.885566066064821
40
0.885566066064821
40
0.923710710709881
40
0.923710710709881
40
1
40
1
40
1
40
1
41
1
10
43.2006347388844
20
-6.16538390764288
30
0
41
1
10
43.1371741054569
20
-6.17405992819471
30
0
41
1
10
42.4861694788241
20
-6.26045366034677
30
0
41
1
10
41.8355283785127
20
-6.31993216872271
30
0
41
1
10
40.9531572583776
20
-6.36691068392159
30
0
41
1
10
40.6588268086763
20
-6.37698970735553
30
0
41
1
10
40.2167457630117
20
-6.38363134366844
30
0
41
1
10
40.0694317932226
20
-6.3844294070667
30
0
41
1
10
39.7750184546488
20
-6.38320194376149
30
0
41
1
10
39.6278926119911
20
-6.38117682573946
30
0
41
1
10
38.8925575546141
20
-6.36402297267719
30
0
41
1
10
38.3051856600674
20
-6.32781644614712
30
0
41
1
10
37.4235893225548
20
-6.24036548517492
30
0
41
1
10
37.1296395419723
20
-6.20568808218258
30
0
41
1
10
36.6883147529401
20
-6.1454706213475
30
0
41
1
10
36.5411399490316
20
-6.12403137150989
30
0
41
1
10
36.2466128654391
20
-6.07843560326941
30
0
41
1
10
36.0992155379822
20
-6.0542713412035
30
0
41
1
10
35.362183653582
20
-5.92678721784529
30
0
41
1
10
34.7742244055004
20
-5.80368116421823
30
0
41
1
10
33.5986714251159
20
-5.5178485137335
30
0
41
1
10
33.0110414355416
20
-5.35517135275362
30
0
41
1
10
32.2751115148162
20
-5.12865608479058
30
0
41
1
10
32.1278573806147
20
-5.08219293245432
30
0
41
1
10
31.8331822055506
20
-4.98697275754282
30
0
41
1
10
31.6856917178547
20
-4.93819304408873
30
0
41
1
10
31.2435288980088
20
-4.78870257142279
30
0
41
1
10
30.9491428239679
20
-4.68483983698704
30
0
41
1
10
30.36073707816
20
-4.46929223634916
30
0
41
1
10
30.0667226347342
20
-4.35760253817247
30
0
41
1
10
29.4788031123558
20
-4.12678464041164
30
0
41
1
10
29.1848938447599
20
-4.0076605953314
30
0
41
1
10
28.5967884939239
20
-3.76255239166446
30
0
41
1
10
28.1554968507
20
-3.57357366045076
30
0
41
1
10
27.7135126204541
20
-3.37743516470246
30
0
41
1
10
27.4186614810899
20
-3.24514723697658
30
0
41
1
10
27.2711031482534
20
-3.17822230000704
30
0
41
1
10
26.8288127446269
20
-2.97558680555284
30
0
41
1
10
26.5342521447821
20
-2.83789677017606
30
0
41
1
10
25.9454371577537
20
-2.55783378975568
30
0
41
1
10
25.6511811173127
20
-2.41546259686851
30
0
41
1
10
25.0625493019035
20
-2.12679029700669
30
0
41
1
10
24.7681725726481
20
-1.98049193982308
30
0
41
1
10
24.3262906044533
20
-1.75850647416286
30
0
41
1
10
24.1789435522029
20
-1.68408873000229
30
0
41
1
10
23.8840988372964
20
-1.53448827192383
30
0
41
1
10
23.7365433065739
20
-1.45927592598497
30
0
41
1
10
23.294073310155
20
-1.2328611027016
30
0
41
1
10
22.999406654698
20
-1.08090631582178
30
0
41
1
10
22.4104178026908
20
-0.775512982171392
30
0
41
1
10
22.1160942150182
20
-0.622076877438019
30
0
41
1
10
21.2330380584223
20
-0.160692571382384
30
0
41
1
10
20.6442151363648
20
0.148321396847649
30
0
41
1
10
20.0540212165756
20
0.456362286425588
30
0
0
SPLINE
5
F1
100
AcDbEntity
8
1
62
256
6
ByLayer
370
18
48
1
60
0
100
AcDbSpline
70
4
71
3
72
16
73
12
40
0
40
0
40
0
40
0
40
0.249999999999691
40
0.249999999999691
40
0.374999999999675
40
0.374999999999675
40
0.49999999999966
40
0.49999999999966
40
0.74999999999983
40
0.74999999999983
40
1
40
1
40
1
40
1
41
1
10
20.0540212165757
20
0.456362286425559
30
0
41
1
10
20.0459118148521
20
0.460594839891655
30
0
41
1
10
20.0385605545624
20
0.465820071004884
30
0
41
1
10
20.0286406535264
20
0.475106524493413
30
0
41
1
10
20.0255082683081
20
0.478468616167021
30
0
41
1
10
20.0198052027299
20
0.485495598334921
30
0
41
1
10
20.0172111308249
20
0.489178023981481
30
0
41
1
10
20.0101919054341
20
0.500725726024569
30
0
41
1
10
20.0065146661932
20
0.509191441741422
30
0
41
1
10
20.0016556098016
20
0.526519682175859
30
0
41
1
10
20.0003945039497
20
0.535559864683478
30
0
41
1
10
20.0003945039497
20
0.544679197436096
30
0
0
SPLINE
5
F2
100
AcDbEntity
8
1
62
256
6
ByLayer
370
18
48
1
60
0
100
AcDbSpline
70
4
71
3
72
27
73
23
40
0
40
0
40
0
40
0
40
0.124999999999998
40
0.124999999999998
40
0.187499999999998
40
0.187499999999998
40
0.249999999999999
40
0.312499999999999
40
0.312499999999999
40
0.375
40
0.375
40
0.500000000000001
40
0.500000000000001
40
0.625000000000002
40
0.625000000000002
40
0.687500000000001
40
0.687500000000001
40
0.750000000000001
40
0.750000000000001
40
0.875000000000001
40
0.875000000000001
40
1
40
1
40
1
40
1
41
1
10
20.0003945039497
20
6.2566545595638
30
0
41
1
10
20.0003945039497
20
6.25811660445621
30
0
41
1
10
20.0014977111019
20
6.25953143951259
30
0
41
1
10
20.0047566340737
20
6.26158751225179
30
0
41
1
10
20.0061269999562
20
6.26226641463435
30
0
41
1
10
20.0093580112785
20
6.26357075952731
30
0
41
1
10
20.0130743105189
20
6.26482470858511
30
0
41
1
10
20.0177404015813
20
6.26598255652152
30
0
41
1
10
20.022894762419
20
6.26709251445274
30
0
41
1
10
20.0257092409901
20
6.26762082793422
30
0
41
1
10
20.0346462302396
20
6.26909141811802
30
0
41
1
10
20.0413596217779
20
6.26994021456306
30
0
41
1
10
20.0561325918096
20
6.27135421450251
30
0
41
1
10
20.0639414316771
20
6.27189759103936
30
0
41
1
10
20.076276357658
20
6.27247900969081
30
0
41
1
10
20.0805174822138
20
6.27263353068864
30
0
41
1
10
20.0889843323151
20
6.27285469864469
30
0
41
1
10
20.0932322894118
20
6.27292286952067
30
0
41
1
10
20.1060190840147
20
6.27300255441057
30
0
41
1
10
20.1147171252565
20
6.27288474967759
30
0
41
1
10
20.1313234601918
20
6.27232059806846
30
0
41
1
10
20.1393088441699
20
6.27187936197075
30
0
41
1
10
20.1469623503743
20
6.27126753124131
30
0
0
SPLINE
5
F3
100
AcDbEntity
8
1
62
256
6
ByLayer
370
18
48
1
60
0
100
AcDbSpline
70
4
71
3
72
106
73
102
40
0
40
0
40
0
40
0
40
0.0486594332396986
40
0.0486594332396986
40
0.0608242915496233
40
0.0608242915496233
40
0.0729891498595479
40
0.0729891498595479
40
0.0973188664793982
40
0.0973188664793982
40
0.121648583099248
40
0.121648583099248
40
0.145978299719099
40
0.145978299719099
40
0.170308016338949
40
0.170308016338949
40
0.182472874648873
40
0.182472874648873
40
0.194637732958798
40
0.194637732958798
40
0.2432971661985
40
0.2432971661985
40
0.26762688281835
40
0.26762688281835
40
0.291956599438201
40
0.291956599438201
40
0.304121457748127
40
0.304121457748127
40
0.316286316058053
40
0.316286316058053
40
0.340616032677904
40
0.340616032677904
40
0.364945749297756
40
0.364945749297756
40
0.389275465917607
40
0.389275465917607
40
0.413605182537459
40
0.413605182537459
40
0.425770040847385
40
0.425770040847385
40
0.43793489915731
40
0.43793489915731
40
0.462264615777161
40
0.462264615777161
40
0.486594332397012
40
0.486594332397012
40
0.510924049016862
40
0.510924049016862
40
0.535253765636713
40
0.535253765636713
40
0.547418623946639
40
0.547418623946639
40
0.559583482256565
40
0.559583482256565
40
0.571748340566491
40
0.571748340566491
40
0.583913198876416
40
0.608242915496269
40
0.608242915496269
40
0.632572632116121
40
0.632572632116121
40
0.656902348735974
40
0.656902348735974
40
0.6690672070459
40
0.6690672070459
40
0.681232065355826
40
0.681232065355826
40
0.705561781975679
40
0.705561781975679
40
0.729891498595531
40
0.729891498595531
40
0.742056356905457
40
0.742056356905457
40
0.754221215215383
40
0.76638607352531
40
0.76638607352531
40
0.778550931835236
40
0.778550931835236
40
0.802880648455087
40
0.802880648455087
40
0.827210365074939
40
0.827210365074939
40
0.851540081694791
40
0.851540081694791
40
0.875869798314642
40
0.875869798314642
40
0.888034656624568
40
0.888034656624568
40
0.900199514934494
40
0.900199514934494
40
0.924529231554346
40
0.924529231554346
40
0.948858948174198
40
0.948858948174198
40
0.973188664794049
40
0.973188664794049
40
0.985353523103975
40
0.985353523103975
40
0.997518381413901
40
0.997518381413901
40
1
40
1
40
1
40
1
41
1
10
20.1469623503743
20
6.27126753124131
30
0
41
1
10
20.7354452932784
20
6.22422347867297
30
0
41
1
10
21.3239731916999
20
6.15513920353516
30
0
41
1
10
22.0604438938987
20
6.04199152138213
30
0
41
1
10
22.2078285456909
20
6.01800893593634
30
0
41
1
10
22.5023693488495
20
5.96739445676965
30
0
41
1
10
22.6495184454411
20
5.9407635329498
30
0
41
1
10
23.0906168884896
20
5.85690448037354
30
0
41
1
10
23.3842523640318
20
5.79572341517928
30
0
41
1
10
23.9714795427111
20
5.66347925566092
30
0
41
1
10
24.2650486976237
20
5.59240855231337
30
0
41
1
10
24.8523685336984
20
5.44067658898368
30
0
41
1
10
25.146111168774
20
5.36001106728383
30
0
41
1
10
25.7338630515136
20
5.18915640936257
30
0
41
1
10
26.0279023379864
20
5.09900247747646
30
0
41
1
10
26.4691877244902
20
4.95654862041224
30
0
41
1
10
26.6163836502543
20
4.90783701699593
30
0
41
1
10
26.9104947944672
20
4.80830985621358
30
0
41
1
10
27.0574491486418
20
4.75748580963293
30
0
41
1
10
27.7921136734502
20
4.49860399312286
30
0
41
1
10
28.3793811753426
20
4.27616662773627
30
0
41
1
10
29.2603375947623
20
3.92089991605019
30
0
41
1
10
29.5540045039813
20
3.7988761881476
30
0
41
1
10
30.1414421361777
20
3.54767061913878
30
0
41
1
10
30.4352290514205
20
3.4185045886392
30
0
41
1
10
30.8765444313046
20
3.22022081075116
30
0
41
1
10
31.0237843581013
20
3.15335100763801
30
0
41
1
10
31.3179295969951
20
3.01833641551264
30
0
41
1
10
31.4648985146252
20
2.95016304273975
30
0
41
1
10
31.9055065060354
20
2.74366596212553
30
0
41
1
10
32.1988730887305
20
2.60340476057621
30
0
41
1
10
32.7858303629723
20
2.31941263718565
30
0
41
1
10
33.0793941196183
20
2.17564216209138
30
0
41
1
10
33.6666464149058
20
1.88450260202725
30
0
41
1
10
33.9603367461287
20
1.7371354198996
30
0
41
1
10
34.5479712056703
20
1.439014437878
30
0
41
1
10
34.8419100870266
20
1.28825215583262
30
0
41
1
10
35.2829879193609
20
1.05947223651793
30
0
41
1
10
35.4300264788399
20
0.982800403488056
30
0
41
1
10
35.723881339655
20
0.829377681070241
30
0
41
1
10
35.8707595394661
20
0.752581537027567
30
0
41
1
10
36.3112967376427
20
0.522034714116387
30
0
41
1
10
36.6048525720744
20
0.368114582990927
30
0
41
1
10
37.1917432229978
20
0.0599252888364958
30
0
41
1
10
37.485085696055
20
-0.094329179883033
30
0
41
1
10
38.0719845477622
20
-0.40235589000585
30
0
41
1
10
38.3655324022089
20
-0.556144476162331
30
0
41
1
10
38.9528755991302
20
-0.863174949969221
30
0
41
1
10
39.2466835057137
20
-1.01639276069406
30
0
41
1
10
39.6880335192769
20
-1.24494470543169
30
0
41
1
10
39.835143303206
20
-1.32086448872298
30
0
41
1
10
40.1290558047083
20
-1.47206289747399
30
0
41
1
10
40.2759012032781
20
-1.54736412468455
30
0
41
1
10
40.5693656888099
20
-1.69737664605151
30
0
41
1
10
40.7159917958763
20
-1.77207378686137
30
0
41
1
10
41.0092976497461
20
-1.92036380404687
30
0
41
1
10
41.4493165553614
20
-2.14118267235085
30
0
41
1
10
41.889410234681
20
-2.35738633395144
30
0
41
1
10
42.4763112087692
20
-2.6414937318514
30
0
41
1
10
42.7698157991496
20
-2.78146573289942
30
0
41
1
10
43.3570623270099
20
-3.05698674682162
30
0
41
1
10
43.6508300569416
20
-3.1925424677583
30
0
41
1
10
44.0917667747676
20
-3.39216763274007
30
0
41
1
10
44.2386048927849
20
-3.45798827342651
30
0
41
1
10
44.5322836071792
20
-3.58773869635056
30
0
41
1
10
44.6791161604808
20
-3.65168390617157
30
0
41
1
10
45.1195340590636
20
-3.84085414901549
30
0
41
1
10
45.4130406983102
20
-3.96341470269053
30
0
41
1
10
45.9998337742
20
-4.20149561391739
30
0
41
1
10
46.2931195025251
20
-4.31701547519646
30
0
41
1
10
46.732948618784
20
-4.48487852982922
30
0
41
1
10
46.8795418398642
20
-4.53992945757398
30
0
41
1
10
47.1726873271952
20
-4.64821835050819
30
0
41
1
10
47.4658005564092
20
-4.75467994206576
30
0
41
1
10
47.759192881477
20
-4.85701428368864
30
0
41
1
10
48.0528915861018
20
-4.9570789544014
30
0
41
1
10
48.1999470649633
20
-5.00600161877998
30
0
41
1
10
48.6411279358701
20
-5.14928120808713
30
0
41
1
10
48.9349953616259
20
-5.24007012267032
30
0
41
1
10
49.5223029100674
20
-5.41221883473236
30
0
41
1
10
49.8157382482224
20
-5.49358663944699
30
0
41
1
10
50.4020943971295
20
-5.64694695614668
30
0
41
1
10
50.6950330037338
20
-5.71890721332198
30
0
41
1
10
51.2811248089687
20
-5.85271023734509
30
0
41
1
10
51.574270016692
20
-5.91456696248037
30
0
41
1
10
52.0143831921891
20
-5.99956454629799
30
0
41
1
10
52.161152890819
20
-6.02659988701822
30
0
41
1
10
52.454835118964
20
-6.07805580996174
30
0
41
1
10
52.6018185116267
20
-6.10248371715792
30
0
41
1
10
53.0425492670277
20
-6.17159576323019
30
0
41
1
10
53.3361567444876
20
-6.21211373405995
30
0
41
1
10
53.9231444739347
20
-6.28211878843169
30
0
41
1
10
54.2164896518046
20
-6.31162403202936
30
0
41
1
10
54.8029238043243
20
-6.35964763682014
30
0
41
1
10
55.096012163926
20
-6.37816415870563
30
0
41
1
10
55.5355505388872
20
-6.39758656296269
30
0
41
1
10
55.6820482645142
20
-6.402668239115
30
0
41
1
10
55.9749866492967
20
-6.41001925425721
30
0
41
1
10
56.1214286640878
20
-6.41228400886567
30
0
41
1
10
56.2979282567609
20
-6.41329777913495
30
0
41
1
10
56.3278396972006
20
-6.41341051880937
30
0
41
1
10
56.3577573901438
20
-6.41346430353113
30
0
0
SPLINE
5
F4
100
AcDbEntity
8
1
62
256
6
ByLayer
370
18
48
1
60
0
100
AcDbSpline
70
4
71
3
72
116
73
112
40
0
40
0
40
0
40
0
40
0.0218332491696793
40
0.0218332491696793
40
0.0448641106079672
40
0.0448641106079672
40
0.0678949720462551
40
0.0678949720462551
40
0.090925833484543
40
0.090925833484543
40
0.0966835488441148
40
0.0966835488441148
40
0.102441264203687
40
0.102441264203687
40
0.11395669492283
40
0.11395669492283
40
0.136987556361115
40
0.136987556361115
40
0.1600184177994
40
0.1600184177994
40
0.171533848518542
40
0.171533848518542
40
0.183049279237684
40
0.183049279237684
40
0.206080140675969
40
0.206080140675969
40
0.229111002114255
40
0.229111002114255
40
0.25214186355254
40
0.25214186355254
40
0.275172724990825
40
0.275172724990825
40
0.280930440350397
40
0.280930440350397
40
0.286688155709969
40
0.286688155709969
40
0.298203586429112
40
0.298203586429112
40
0.321234447867399
40
0.321234447867399
40
0.344265309305685
40
0.344265309305685
40
0.367296170743972
40
0.367296170743972
40
0.390327032182259
40
0.390327032182259
40
0.413357893620545
40
0.413357893620545
40
0.424873324339688
40
0.424873324339688
40
0.436388755058831
40
0.436388755058831
40
0.459419616497117
40
0.459419616497117
40
0.47093504721626
40
0.47093504721626
40
0.482450477935403
40
0.482450477935403
40
0.505481339373689
40
0.505481339373689
40
0.528512200811975
40
0.528512200811975
40
0.551543062250261
40
0.551543062250261
40
0.574573923688546
40
0.574573923688546
40
0.597604785126832
40
0.597604785126832
40
0.620635646565118
40
0.620635646565118
40
0.643666508003404
40
0.643666508003404
40
0.655181938722547
40
0.655181938722547
40
0.660939654082119
40
0.660939654082119
40
0.66669736944169
40
0.66669736944169
40
0.678212800160832
40
0.678212800160832
40
0.689728230879974
40
0.689728230879974
40
0.712759092318258
40
0.712759092318258
40
0.735789953756542
40
0.735789953756542
40
0.758820815194825
40
0.758820815194825
40
0.781851676633109
40
0.781851676633109
40
0.804882538071393
40
0.804882538071393
40
0.827913399509677
40
0.827913399509677
40
0.839428830228818
40
0.839428830228818
40
0.85094426094796
40
0.85094426094796
40
0.873975122386242
40
0.873975122386242
40
0.920036845262807
40
0.920036845262807
40
0.931552275981948
40
0.931552275981948
40
0.943067706701089
40
0.943067706701089
40
0.966098568139372
40
0.966098568139372
40
0.989129429577654
40
0.989129429577654
40
1
40
1
40
1
40
1
41
1
10
20.1212027501445
20
6.34823844662557
30
0
41
1
10
20.4638245769175
20
6.34884083443498
30
0
41
1
10
20.8063950059114
20
6.3418101662713
30
0
41
1
10
21.5106843682968
20
6.3116493560743
30
0
41
1
10
21.8723845039284
20
6.28763712294784
30
0
41
1
10
22.5970946613135
20
6.22268139962921
30
0
41
1
10
22.9600990264879
20
6.18175494439319
30
0
41
1
10
23.687778648513
20
6.08297252557301
30
0
41
1
10
24.0524663929388
20
6.02511729145235
30
0
41
1
10
24.5097548851766
20
5.94221499858622
30
0
41
1
10
24.6013234225532
20
5.92509830707809
30
0
41
1
10
24.7844377112806
20
5.88984356488339
30
0
41
1
10
24.8759122705509
20
5.87172000097721
30
0
41
1
10
25.1501215778571
20
5.81589363344114
30
0
41
1
10
25.3326482448164
20
5.7767405510551
30
0
41
1
10
25.8795068470189
20
5.6536315895558
30
0
41
1
10
26.2430727309882
20
5.56398967473737
30
0
41
1
10
26.9686792206645
20
5.37020600348697
30
0
41
1
10
27.3307194343086
20
5.26606078997833
30
0
41
1
10
27.8730910957893
20
5.0995108853798
30
0
41
1
10
28.0537741922188
20
5.04227989534192
30
0
41
1
10
28.4150750331189
20
4.92457811131723
30
0
41
1
10
28.5956890891104
20
4.86410419818046
30
0
41
1
10
29.1374577621644
20
4.67787063632693
30
0
41
1
10
29.4985454508285
20
4.54730711365309
30
0
41
1
10
30.2210463980089
20
4.27400960631516
30
0
41
1
10
30.5824342729706
20
4.13123434288212
30
0
41
1
10
31.3062587530756
20
3.83445494591439
30
0
41
1
10
31.6687983994402
20
3.68061736806678
30
0
41
1
10
32.3955348896405
20
3.36257596892307
30
0
41
1
10
32.7597297523996
20
3.1983659007773
30
0
41
1
10
33.2163563940787
20
2.98706508872632
30
0
41
1
10
33.307750690525
20
2.9445025610232
30
0
41
1
10
33.4906887811478
20
2.8587888076465
30
0
41
1
10
33.5822634982984
20
2.81562271622366
30
0
41
1
10
33.8566021024593
20
2.68556394636102
30
0
41
1
10
34.0391739970801
20
2.59803031338177
30
0
41
1
10
34.5861605978806
20
2.33338659927108
30
0
41
1
10
34.9498129057944
20
2.15417264566824
30
0
41
1
10
35.6755072774334
20
1.79095593929992
30
0
41
1
10
36.0375604607515
20
1.60697361554313
30
0
41
1
10
36.7606384015523
20
1.23533363807331
30
0
41
1
10
37.1216656385026
20
1.0476794835779
30
0
41
1
10
37.8436745478648
20
0.670584609057187
30
0
41
1
10
38.2045708836687
20
0.480981316482001
30
0
41
1
10
38.9266148406628
20
0.10056393920857
30
0
41
1
10
39.2877632179671
20
-0.0902490205285176
30
0
41
1
10
39.8301198697037
20
-0.37652038284179
30
0
41
1
10
40.0110166866811
20
-0.471942013609521
30
0
41
1
10
40.3731854815796
20
-0.662483199411355
30
0
41
1
10
40.5544555803406
20
-0.757606259880646
30
0
41
1
10
41.0988630783473
20
-1.04245680584356
30
0
41
1
10
41.4626026534888
20
-1.23165586127161
30
0
41
1
10
42.0098172600962
20
-1.51362570409702
30
0
41
1
10
42.1924899566745
20
-1.60731035524614
30
0
41
1
10
42.5584483703756
20
-1.79391990831567
30
0
41
1
10
42.7411010134388
20
-1.88653164593356
30
0
41
1
10
43.2882018127732
20
-2.16188659746962
30
0
41
1
10
43.651899075965
20
-2.34203644408473
30
0
41
1
10
44.3776581070744
20
-2.6948693551148
30
0
41
1
10
44.7397173194452
20
-2.86755477311536
30
0
41
1
10
45.462732249868
20
-3.20459830170066
30
0
41
1
10
45.8236466308943
20
-3.36901955087257
30
0
41
1
10
46.5452730968206
20
-3.68807021695369
30
0
41
1
10
46.9059880053049
20
-3.84270540582389
30
0
41
1
10
47.6275981475306
20
-4.14162088009368
30
0
41
1
10
47.988505107706
20
-4.28588062428241
30
0
41
1
10
48.7110704882775
20
-4.56312483023984
30
0
41
1
10
49.0727230406356
20
-4.69610969120913
30
0
41
1
10
49.797769003234
20
-4.94935582627269
30
0
41
1
10
50.1610820329841
20
-5.06973113955783
30
0
41
1
10
50.707605798653
20
-5.24033702104472
30
0
41
1
10
50.8900417671491
20
-5.29554281072382
30
0
41
1
10
51.1641414862664
20
-5.37577199157417
30
0
41
1
10
51.2556273275553
20
-5.40209787894486
30
0
41
1
10
51.438365204011
20
-5.45376392026151
30
0
41
1
10
51.5296519181111
20
-5.47911457341013
30
0
41
1
10
51.8032811636969
20
-5.55370957589406
30
0
41
1
10
51.9853954647509
20
-5.60149300287816
30
0
41
1
10
52.3491711271883
20
-5.69305451837536
30
0
41
1
10
52.5308310099035
20
-5.73683593407389
30
0
41
1
10
53.0751740452833
20
-5.86219960308114
30
0
41
1
10
53.437226642118
20
-5.93779580314447
30
0
41
1
10
54.1601697133349
20
-6.0727967911622
30
0
41
1
10
54.5210367357386
20
-6.13221113292656
30
0
41
1
10
55.242297700568
20
-6.23448558229509
30
0
41
1
10
55.6028003046386
20
-6.27729902541302
30
0
41
1
10
56.3239815873986
20
-6.34615284587423
30
0
41
1
10
56.6846545813159
20
-6.37219254941897
30
0
41
1
10
57.4066923616511
20
-6.40725559400141
30
0
41
1
10
57.7680154732971
20
-6.41627381829773
30
0
41
1
10
58.4922292752751
20
-6.41702179595092
30
0
41
1
10
58.8551407358485
20
-6.40876829853025
30
0
41
1
10
59.4010154332604
20
-6.38330057785638
30
0
41
1
10
59.583228122398
20
-6.3726291286861
30
0
41
1
10
59.9482352092997
20
-6.34689173483196
30
0
41
1
10
60.1311932834625
20
-6.33180630148939
30
0
41
1
10
60.6786281362397
20
-6.28016032184638
30
0
41
1
10
61.0422914046022
20
-6.2371648451853
30
0
41
1
10
62.1309498045413
20
-6.08361709186937
30
0
41
1
10
62.8532703128303
20
-5.94839464964937
30
0
41
1
10
63.7545152680786
20
-5.74070350544821
30
0
41
1
10
63.9346862989365
20
-5.69723335644775
30
0
41
1
10
64.2950282242787
20
-5.60657372834112
30
0
41
1
10
64.4752003674861
20
-5.55938696026976
30
0
41
1
10
65.0157650911253
20
-5.41230809150397
30
0
41
1
10
65.3762086578242
20
-5.30690003606733
30
0
41
1
10
66.0977411987614
20
-5.08184570470365
30
0
41
1
10
66.4588115970631
20
-4.96217374121861
30
0
41
1
10
66.9912696499697
20
-4.77599346828845
30
0
41
1
10
67.1621743489361
20
-4.71481119570433
30
0
41
1
10
67.3332757247196
20
-4.65217186448456
30
0
0
SPLINE
5
F5
100
AcDbEntity
8
1
62
256
6
ByLayer
370
18
48
1
60
0
100
AcDbSpline
70
4
71
3
72
122
73
118
40
0
40
0
40
0
40
0
40
0.0095309279818375
40
0.0095309279818375
40
0.0282190236802927
40
0.0282190236802927
40
0.0469071193787479
40
0.0469071193787479
40
0.0655952150772032
40
0.0655952150772032
40
0.102971406474114
40
0.102971406474114
40
0.121659502172569
40
0.121659502172569
40
0.140347597871024
40
0.140347597871024
40
0.159035693569479
40
0.159035693569479
40
0.177723789267935
40
0.177723789267935
40
0.19641188496639
40
0.19641188496639
40
0.215099980664845
40
0.215099980664845
40
0.2337880763633
40
0.2337880763633
40
0.252476172061755
40
0.261820219910983
40
0.261820219910983
40
0.27116426776021
40
0.27116426776021
40
0.289852363458665
40
0.289852363458665
40
0.299196411307892
40
0.299196411307892
40
0.308540459157119
40
0.308540459157119
40
0.327228554855574
40
0.336572602704801
40
0.336572602704801
40
0.345916650554029
40
0.345916650554029
40
0.364604746252483
40
0.364604746252483
40
0.383292841950937
40
0.383292841950937
40
0.401980937649392
40
0.401980937649392
40
0.41132498549862
40
0.41132498549862
40
0.420669033347847
40
0.420669033347847
40
0.439357129046302
40
0.439357129046302
40
0.458045224744758
40
0.458045224744758
40
0.476733320443213
40
0.476733320443213
40
0.495421416141668
40
0.495421416141668
40
0.514109511840123
40
0.514109511840123
40
0.532797607538578
40
0.532797607538578
40
0.551485703237033
40
0.551485703237033
40
0.570173798935489
40
0.570173798935489
40
0.588861894633944
40
0.588861894633944
40
0.607549990332399
40
0.607549990332399
40
0.626238086030854
40
0.626238086030854
40
0.644926181729309
40
0.644926181729309
40
0.654270229578537
40
0.654270229578537
40
0.663614277427765
40
0.682302373126222
40
0.682302373126222
40
0.69164642097545
40
0.69164642097545
40
0.700990468824679
40
0.719678564523136
40
0.719678564523136
40
0.729022612372365
40
0.729022612372365
40
0.738366660221594
40
0.757054755920052
40
0.757054755920052
40
0.766398803769281
40
0.766398803769281
40
0.77574285161851
40
0.794430947316968
40
0.794430947316968
40
0.803774995166197
40
0.803774995166197
40
0.813119043015426
40
0.831807138713884
40
0.831807138713884
40
0.841151186563113
40
0.841151186563113
40
0.850495234412342
40
0.869183330110799
40
0.869183330110799
40
0.887871425809256
40
0.887871425809256
40
0.906559521507714
40
0.906559521507714
40
0.925247617206171
40
0.925247617206171
40
0.962623808603085
40
0.962623808603085
40
0.981311904301543
40
0.981311904301543
40
1
40
1
40
1
40
1
41
1
10
29.2831271747299
20
4.62346910621187
30
0
41
1
10
29.4335069659033
20
4.67784970948705
30
0
41
1
10
29.5838668497186
20
4.73116460026182
30
0
41
1
10
30.0289990396027
20
4.88575668003509
30
0
41
1
10
30.3237663645244
20
4.98392090175724
30
0
41
1
10
30.9135849718501
20
5.17140666949049
30
0
41
1
10
31.2083947163187
20
5.26064964055328
30
0
41
1
10
31.797891389642
20
5.42969353854511
30
0
41
1
10
32.0926202210209
20
5.50950765525178
30
0
41
1
10
32.9772620478499
20
5.7342920012228
30
0
41
1
10
33.5664081527244
20
5.86427783372204
30
0
41
1
10
34.4509756992367
20
6.02776176896134
30
0
41
1
10
34.7456596491311
20
6.07695186365572
30
0
41
1
10
35.335025626105
20
6.16452954682296
30
0
41
1
10
35.6297420130879
20
6.20292075878365
30
0
41
1
10
36.219374467731
20
6.26870063881458
30
0
41
1
10
36.5140326224692
20
6.29606157846555
30
0
41
1
10
37.1033561385404
20
6.33963060825195
30
0
41
1
10
37.3980766339051
20
6.35584049037288
30
0
41
1
10
37.987615546032
20
6.37700384793197
30
0
41
1
10
38.2822244308923
20
6.38195179075154
30
0
41
1
10
38.8714639321815
20
6.38056812646323
30
0
41
1
10
39.1661500960295
20
6.37423406404082
30
0
41
1
10
39.7556379266744
20
6.35029647110986
30
0
41
1
10
40.050376789871
20
6.33269517959101
30
0
41
1
10
40.6397732285086
20
6.28632394058084
30
0
41
1
10
41.0816009148596
20
6.24318525033692
30
0
41
1
10
41.5234865625681
20
6.18765327258953
30
0
41
1
10
41.8181332329683
20
6.14789570341614
30
0
41
1
10
41.9655109346579
20
6.12664456688509
30
0
41
1
10
42.407508952232
20
6.05885799895256
30
0
41
1
10
42.7020381804491
20
6.0082844339934
30
0
41
1
10
43.1438724137466
20
5.92450648366133
30
0
41
1
10
43.2911573454576
20
5.89526097957832
30
0
41
1
10
43.5857829730116
20
5.8341581737678
30
0
41
1
10
43.7331447104102
20
5.80229578353342
30
0
41
1
10
44.1750677928138
20
5.70290508576932
30
0
41
1
10
44.6167889817362
20
5.59588361534327
30
0
41
1
10
45.0585952009464
20
5.47775911884438
30
0
41
1
10
45.3531947592531
20
5.39658149814093
30
0
41
1
10
45.5005349115432
20
5.35477566422094
30
0
41
1
10
45.9424677295086
20
5.22584826225577
30
0
41
1
10
46.2371042901044
20
5.13517664411737
30
0
41
1
10
46.8263153821055
20
4.94489500607969
30
0
41
1
10
47.1209660439599
20
4.84525965802902
30
0
41
1
10
47.7100354594116
20
4.63764434570837
30
0
41
1
10
48.004456802362
20
4.52967026139649
30
0
41
1
10
48.4461604702813
20
4.36177939859303
30
0
41
1
10
48.5934068024047
20
4.304827244927
30
0
41
1
10
48.8879643092788
20
4.18900053004117
30
0
41
1
10
49.0352591118489
20
4.13013203058381
30
0
41
1
10
49.4769782223559
20
3.95086417942798
30
0
41
1
10
49.7713400116442
20
3.8277613722513
30
0
41
1
10
50.3601791423899
20
3.57489912232364
30
0
41
1
10
50.6547601447863
20
3.44509214759347
30
0
41
1
10
51.2436327270809
20
3.17971915398127
30
0
41
1
10
51.5379744560194
20
3.04413466895269
30
0
41
1
10
52.1268255581241
20
2.76776459323412
30
0
41
1
10
52.4214271862912
20
2.62692924196122
30
0
41
1
10
53.0102995740638
20
2.34095822698384
30
0
41
1
10
53.3046393941518
20
2.19579190216859
30
0
41
1
10
53.8934528762086
20
1.90167390843769
30
0
41
1
10
54.1880084224002
20
1.75267981942506
30
0
41
1
10
54.7767610434212
20
1.45194030292473
30
0
41
1
10
55.0710431755277
20
1.30015470333311
30
0
41
1
10
55.6597632645537
20
0.994386554080535
30
0
41
1
10
55.9542477207049
20
0.840372824664939
30
0
41
1
10
56.5430552281452
20
0.531092296246527
30
0
41
1
10
56.8374926979367
20
0.375766271767191
30
0
41
1
10
57.4260507457332
20
0.0647926479580576
30
0
41
1
10
57.7202476330716
20
-0.0908943390841728
30
0
41
1
10
58.3088393709689
20
-0.401983079994494
30
0
41
1
10
58.6032684840412
20
-0.557401747311133
30
0
41
1
10
59.1918094093867
20
-0.866797220508971
30
0
41
1
10
59.4860325616901
20
-1.02082491067122
30
0
41
1
10
59.9275496377511
20
-1.25038775032826
30
0
41
1
10
60.0747783924152
20
-1.32667927839003
30
0
41
1
10
60.369173148356
20
-1.47862566854511
30
0
41
1
10
60.8106577923941
20
-1.70558293198854
30
0
41
1
10
61.2519888782403
20
-1.92934476470103
30
0
41
1
10
61.6934581791559
20
-2.15053592153109
30
0
41
1
10
61.8406647112585
20
-2.22385076409029
30
0
41
1
10
62.1349820673807
20
-2.36945525785157
30
0
41
1
10
62.5763413014508
20
-2.58633787873586
30
0
41
1
10
63.0175423093907
20
-2.79831099018574
30
0
41
1
10
63.458902329775
20
-3.00655093003752
30
0
41
1
10
63.6060715995859
20
-3.07535226199127
30
0
41
1
10
63.9003039495034
20
-3.21153893756531
30
0
41
1
10
64.3415493998622
20
-3.41372231991502
30
0
41
1
10
64.7826887846493
20
-3.60928713093111
30
0
41
1
10
65.2240268799989
20
-3.80001036054699
30
0
41
1
10
65.3711874697058
20
-3.86278386820985
30
0
41
1
10
65.6654024409562
20
-3.98655737222157
30
0
41
1
10
66.106641578963
20
-4.16958879926702
30
0
41
1
10
66.5478205124794
20
-4.34446374008476
30
0
41
1
10
66.9891884641284
20
-4.51357189082213
30
0
41
1
10
67.1363461307689
20
-4.5689805732211
30
0
41
1
10
67.4305431707829
20
-4.67773654788527
30
0
41
1
10
67.871744511984
20
-4.83781046503603
30
0
41
1
10
68.3128478589642
20
-4.98846701979409
30
0
41
1
10
68.7541421160607
20
-5.13251980420938
30
0
41
1
10
68.9012603825852
20
-5.17943233672878
30
0
41
1
10
69.1953840815978
20
-5.2709352700476
30
0
41
1
10
69.6364807335843
20
-5.40473314394904
30
0
41
1
10
70.0775090003081
20
-5.52794932461444
30
0
41
1
10
70.6658397224378
20
-5.68246431074613
30
0
41
1
10
70.9599873155602
20
-5.7547903338511
30
0
41
1
10
71.5483456087875
20
-5.88921094669786
30
0
41
1
10
71.8424125329065
20
-5.95127284046293
30
0
41
1
10
72.4304644233946
20
-6.06482309301839
30
0
41
1
10
72.7244785548512
20
-6.11632054332424
30
0
41
1
10
73.6069703843793
20
-6.25464776249271
30
0
41
1
10
74.1946474014434
20
-6.32510864228749
30
0
41
1
10
75.0770185733345
20
-6.39721690170148
30
0
41
1
10
75.371030854264
20
-6.41563641502756
30
0
41
1
10
75.9591810706098
20
-6.44116653123578
30
0
41
1
10
76.2532630470689
20
-6.44827239202368
30
0
41
1
10
76.5473009592321
20
-6.44969902925433
30
0
0
SPLINE
5
F6
100
AcDbEntity
8
1
62
256
6
ByLayer
370
18
48
1
60
0
100
AcDbSpline
70
4
71
3
72
12
73
8
40
0
40
0
40
0
40
0
40
0.5
40
0.5
40
0.75
40
0.75
40
1
40
1
40
1
40
1
41
1
10
76.500746448583
20
-6.39533195473004
30
0
41
1
10
76.5084848288732
20
-6.41264053672586
30
0
41
1
10
76.5162294057491
20
-6.42583500679407
30
0
41
1
10
76.5278731045491
20
-6.43944357859698
30
0
41
1
10
76.5317608482522
20
-6.44294974486203
30
0
41
1
10
76.5395357467109
20
-6.44788257383397
30
0
41
1
10
76.5434199719435
20
-6.44930869418099
30
0
41
1
10
76.547300959232
20
-6.44969902925433
30
0
0
SPLINE
5
F7
100
AcDbEntity
8
1
62
256
6
ByLayer
370
18
48
1
60
0
100
AcDbSpline
70
4
71
3
72
81
73
77
40
0
40
0
40
0
40
0
40
0.0241330212851129
40
0.0241330212851129
40
0.0361995319276693
40
0.0361995319276693
40
0.0482660425702257
40
0.0482660425702257
40
0.0965320851404496
40
0.0965320851404496
40
0.144798127710674
40
0.144798127710674
40
0.15686463835323
40
0.15686463835323
40
0.168931148995786
40
0.168931148995786
40
0.193064170280898
40
0.193064170280898
40
0.241330212851121
40
0.241330212851121
40
0.265463234136234
40
0.265463234136234
40
0.27752974477879
40
0.27752974477879
40
0.289596255421346
40
0.289596255421346
40
0.337862297991574
40
0.337862297991574
40
0.386128340561802
40
0.386128340561802
40
0.398194851204358
40
0.398194851204358
40
0.410261361846915
40
0.410261361846915
40
0.434394383132029
40
0.434394383132029
40
0.482660425702258
40
0.482660425702258
40
0.506793446987373
40
0.506793446987373
40
0.51885995762993
40
0.51885995762993
40
0.530926468272487
40
0.530926468272487
40
0.579192510842715
40
0.579192510842715
40
0.627458553412943
40
0.627458553412943
40
0.6395250640555
40
0.6395250640555
40
0.651591574698057
40
0.651591574698057
40
0.675724595983171
40
0.675724595983171
40
0.723990638553399
40
0.723990638553399
40
0.748123659838514
40
0.748123659838514
40
0.760190170481071
40
0.760190170481071
40
0.772256681123628
40
0.772256681123628
40
0.820522723693857
40
0.820522723693857
40
0.868788766264086
40
0.868788766264086
40
0.880855276906644
40
0.880855276906644
40
0.892921787549201
40
0.892921787549201
40
0.917054808834315
40
0.965320851404542
40
0.965320851404542
40
0.989453872689656
40
0.989453872689656
40
1
40
1
40
1
40
1
41
1
10
76.5007464485849
20
-6.39533195472958
30
0
41
1
10
76.2069141487352
20
-6.374529104022
30
0
41
1
10
75.9131345739268
20
-6.34810349028581
30
0
41
1
10
75.4723201108801
20
-6.30012945177006
30
0
41
1
10
75.3253576668571
20
-6.28274873094034
30
0
41
1
10
75.0313455494933
20
-6.2452241205757
30
0
41
1
10
74.8842458894853
20
-6.22507273688313
30
0
41
1
10
74.1490891566676
20
-6.11754433777077
30
0
41
1
10
73.5624840633981
20
-6.00992953813255
30
0
41
1
10
72.3897536122342
20
-5.75356724885197
30
0
41
1
10
71.803519351872
20
-5.60490750546575
30
0
41
1
10
71.069352912745
20
-5.39476141168674
30
0
41
1
10
70.9224422049188
20
-5.35152467973327
30
0
41
1
10
70.6284274755726
20
-5.26266993814298
30
0
41
1
10
70.4812652871526
20
-5.2170327322406
30
0
41
1
10
70.0401867915712
20
-5.07684607814724
30
0
41
1
10
69.7465006956368
20
-4.97897122205251
30
0
41
1
10
68.8660539289351
20
-4.67275138507711
30
0
41
1
10
68.2798855896657
20
-4.45183095201952
30
0
41
1
10
67.3997897582519
20
-4.09807098617574
30
0
41
1
10
67.1062876324937
20
-3.97641616434777
30
0
41
1
10
66.6655563913338
20
-3.78871350046308
30
0
41
1
10
66.5185663698755
20
-3.72527591755409
30
0
41
1
10
66.2243856411379
20
-3.59671915206144
30
0
41
1
10
66.0771987053548
20
-3.5316006897784
30
0
41
1
10
65.3420448280978
20
-3.20257853980547
30
0
41
1
10
64.7553150516401
20
-2.92790111439632
30
0
41
1
10
63.5820038991569
20
-2.36019113555926
30
0
41
1
10
62.9953928739234
20
-2.06720674162139
30
0
41
1
10
62.260434828552
20
-1.69263872602949
30
0
41
1
10
62.1133604186114
20
-1.61730498022058
30
0
41
1
10
61.8190087020114
20
-1.46586234212035
30
0
41
1
10
61.6718511450968
20
-1.38981484254694
30
0
41
1
10
61.2307576704977
20
-1.16100044225408
30
0
41
1
10
60.9370396772763
20
-1.00748452504399
30
0
41
1
10
60.0563783170596
20
-0.545040731075943
30
0
41
1
10
59.4699002156427
20
-0.234268346162878
30
0
41
1
10
58.5891047907419
20
0.231767857175129
30
0
41
1
10
58.2953328792344
20
0.387104757463163
30
0
41
1
10
57.8541583909097
20
0.619610453438526
30
0
41
1
10
57.7069809828876
20
0.697046456754862
30
0
41
1
10
57.4125546751661
20
0.851595866074945
30
0
41
1
10
57.2654414418483
20
0.928638051349623
30
0
41
1
10
56.5302704227245
20
1.31249536945256
30
0
41
1
10
55.9434156410382
20
1.61527942503145
30
0
41
1
10
54.769408960523
20
2.20703501588235
30
0
41
1
10
54.1823155636041
20
2.49611398602903
30
0
41
1
10
53.4466048861846
20
2.84584091188214
30
0
41
1
10
53.2993032624431
20
2.91523910011369
30
0
41
1
10
53.0048801100281
20
3.05265219888617
30
0
41
1
10
52.8577711622531
20
3.12065913242392
30
0
41
1
10
52.4166663654306
20
3.32244458412316
30
0
41
1
10
52.1228855234323
20
3.45397630300175
30
0
41
1
10
51.2419026560941
20
3.83882826340718
30
0
41
1
10
50.6551154720984
20
4.08248625461235
30
0
41
1
10
49.7736121469785
20
4.42542467239423
30
0
41
1
10
49.4795531525926
20
4.53597565278801
30
0
41
1
10
49.0379013071494
20
4.69582338133486
30
0
41
1
10
48.8905402422301
20
4.74812532112443
30
0
41
1
10
48.5961059242254
20
4.8504913599196
30
0
41
1
10
48.4489788313517
20
4.90057556403963
30
0
41
1
10
47.7136854931831
20
5.14538983394479
30
0
41
1
10
47.1266546731044
20
5.32341836025682
30
0
41
1
10
45.9520475254306
20
5.64075999398048
30
0
41
1
10
45.3644658497593
20
5.78007585600054
30
0
41
1
10
44.6279218065242
20
5.92839926209635
30
0
41
1
10
44.4805357266949
20
5.95676954123778
30
0
41
1
10
44.1861094034306
20
6.010827005789
30
0
41
1
10
44.0389986932136
20
6.03652482017282
30
0
41
1
10
43.5978583437618
20
6.10956041351861
30
0
41
1
10
42.7163602348499
20
6.23941071854094
30
0
41
1
10
41.8355283785127
20
6.31993216872271
30
0
41
1
10
40.9531572583776
20
6.36691068392156
30
0
41
1
10
40.6588268086762
20
6.37698970735553
30
0
41
1
10
40.2353132034597
20
6.38335239439448
30
0
41
1
10
40.1065557229589
20
6.38420581712134
30
0
41
1
10
39.9778743430636
20
6.38398041715371
30
0
0
SPLINE
5
F8
100
AcDbEntity
8
1
62
256
6
ByLayer
370
18
48
1
60
0
100
AcDbSpline
70
4
71
3
72
73
73
69
40
0
40
0
40
0
40
0
40
0.0219313142383741
40
0.0219313142383741
40
0.0595493406138168
40
0.0595493406138168
40
0.0971673669892597
40
0.0971673669892597
40
0.115976380176981
40
0.115976380176981
40
0.134785393364702
40
0.134785393364702
40
0.153594406552424
40
0.153594406552424
40
0.172403419740145
40
0.172403419740145
40
0.210021446115589
40
0.210021446115589
40
0.247639472491033
40
0.247639472491033
40
0.266448485678756
40
0.266448485678756
40
0.285257498866479
40
0.285257498866479
40
0.322875525241926
40
0.322875525241926
40
0.34168453842965
40
0.34168453842965
40
0.360493551617373
40
0.360493551617373
40
0.398111577992822
40
0.398111577992822
40
0.43572960436827
40
0.43572960436827
40
0.473347630743719
40
0.473347630743719
40
0.510965657119167
40
0.510965657119167
40
0.529774670306891
40
0.529774670306891
40
0.548583683494614
40
0.548583683494614
40
0.586201709870061
40
0.586201709870061
40
0.623819736245508
40
0.623819736245508
40
0.661437762620955
40
0.661437762620955
40
0.699055788996402
40
0.699055788996402
40
0.717864802184126
40
0.717864802184126
40
0.73667381537185
40
0.7742918417473
40
0.7742918417473
40
0.793100854935026
40
0.793100854935026
40
0.811909868122751
40
0.811909868122751
40
0.849527894498202
40
0.849527894498202
40
0.868336907685927
40
0.868336907685927
40
0.887145920873652
40
0.887145920873652
40
0.924763947249102
40
0.924763947249102
40
1
40
1
40
1
40
1
41
1
10
53.1161941795082
20
6.18026472882803
30
0
41
1
10
53.2873980713488
20
6.20442866604435
30
0
41
1
10
53.4585436481482
20
6.226709783373
30
0
41
1
10
53.9231444739347
20
6.28211878843169
30
0
41
1
10
54.2164896518046
20
6.31162403202936
30
0
41
1
10
54.8029238043244
20
6.35964763682014
30
0
41
1
10
55.096012163926
20
6.37816415870563
30
0
41
1
10
55.5355505388871
20
6.39758656296269
30
0
41
1
10
55.6820482645142
20
6.402668239115
30
0
41
1
10
55.9749866492967
20
6.41001925425721
30
0
41
1
10
56.1214286640878
20
6.41228400886567
30
0
41
1
10
56.4146176066395
20
6.4139680140735
30
0
41
1
10
56.5613639211061
20
6.41339160582527
30
0
41
1
10
56.8551445608853
20
6.40941917428034
30
0
41
1
10
57.0022227389949
20
6.406020484831
30
0
41
1
10
57.4430879030462
20
6.39163288666131
30
0
41
1
10
57.7367359370511
20
6.3764578082496
30
0
41
1
10
58.3235075282614
20
6.335021764538
30
0
41
1
10
58.6166303290934
20
6.30875826293615
30
0
41
1
10
59.0559922678969
20
6.26101370484358
30
0
41
1
10
59.2023935046884
20
6.24370656965218
30
0
41
1
10
59.4951192984536
20
6.20630055040431
30
0
41
1
10
59.6414410823821
20
6.18619756008886
30
0
41
1
10
60.0807015287788
20
6.12189669945067
30
0
41
1
10
60.3739445836172
20
6.0737339776833
30
0
41
1
10
60.8142756249404
20
5.99351058774641
30
0
41
1
10
60.9611310913593
20
5.96543721862091
30
0
41
1
10
61.2550380159599
20
5.90664444942036
30
0
41
1
10
61.4020735572675
20
5.87592677220206
30
0
41
1
10
61.8427103051584
20
5.78002305332359
30
0
41
1
10
62.136113320489
20
5.71104099355122
30
0
41
1
10
62.7221066814484
20
5.56287092952022
30
0
41
1
10
63.0146997536962
20
5.48366202957087
30
0
41
1
10
63.6001889383472
20
5.31607943323655
30
0
41
1
10
63.8930812077524
20
5.22772126050464
30
0
41
1
10
64.479257020149
20
5.04203569152378
30
0
41
1
10
64.7725421776164
20
4.94470953011191
30
0
41
1
10
65.2128641106753
20
4.79207771174129
30
0
41
1
10
65.3597042558256
20
4.74009318220524
30
0
41
1
10
65.6535395016234
20
4.6339235221925
30
0
41
1
10
65.800422797206
20
4.57977808375855
30
0
41
1
10
66.2405946891686
20
4.41436071596092
30
0
41
1
10
66.5335772289241
20
4.30004186665406
30
0
41
1
10
67.11936690346
20
4.06440818005007
30
0
41
1
10
67.4121695847858
20
3.94309598856418
30
0
41
1
10
67.9976832072332
20
3.69363921373537
30
0
41
1
10
68.2903971713205
20
3.56549230034534
30
0
41
1
10
68.8763406097548
20
3.30330549350083
30
0
41
1
10
69.1695668415013
20
3.16926701416065
30
0
41
1
10
69.6098755938657
20
2.96392341598946
30
0
41
1
10
69.7567426047424
20
2.89475343591627
30
0
41
1
10
70.0505783668251
20
2.75504815036356
30
0
41
1
10
70.4910328135749
20
2.54365940681504
30
0
41
1
10
70.9306845524281
20
2.32694350919607
30
0
41
1
10
71.3699684799766
20
2.10695418288003
30
0
41
1
10
71.5163302501468
20
2.03306926115511
30
0
41
1
10
71.8091532419129
20
1.88460475495165
30
0
41
1
10
71.9556212025179
20
1.81003812594935
30
0
41
1
10
72.3951916209825
20
1.58533792862588
30
0
41
1
10
72.6884534196855
20
1.43419163000121
30
0
41
1
10
73.1287735050325
20
1.20565278051632
30
0
41
1
10
73.2756190331067
20
1.12917142757598
30
0
41
1
10
73.5694736423026
20
0.97563899640943
30
0
41
1
10
73.7163320826768
20
0.898666480119942
30
0
41
1
10
74.1566349581759
20
0.667244608206175
30
0
41
1
10
74.4498484687464
20
0.512264926204267
30
0
41
1
10
75.3288494688899
20
0.0458425780038283
30
0
41
1
10
75.9139892840721
20
-0.267098773279457
30
0
41
1
10
76.4995179573921
20
-0.579686307589299
30
0
0
SPLINE
5
F9
100
AcDbEntity
8
1
62
256
6
ByLayer
370
18
48
1
60
0
100
AcDbSpline
70
4
71
3
72
8
73
4
40
0
40
0
40
0
40
0
40
1
40
1
40
1
40
1
41
1
10
76.4995179573868
20
-0.579686307587224
30
0
41
1
10
76.5293704651971
20
-0.296410375383005
30
0
41
1
10
76.5650684728637
20
-0.0140670516283876
30
0
41
1
10
76.6080346598072
20
0.267145099875336
30
0
0
SPLINE
5
FA
100
AcDbEntity
8
1
62
256
6
ByLayer
370
18
48
1
60
0
100
AcDbSpline
70
4
71
3
72
59
73
55
40
0
40
0
40
0
40
0
40
0.048856752678566
40
0.048856752678566
40
0.097713505357132
40
0.097713505357132
40
0.122141881696415
40
0.122141881696415
40
0.146570258035698
40
0.146570258035698
40
0.195427010714264
40
0.195427010714264
40
0.24428376339283
40
0.24428376339283
40
0.293140516071396
40
0.293140516071396
40
0.341997268749962
40
0.341997268749962
40
0.390854021428528
40
0.390854021428528
40
0.40306820959817
40
0.40306820959817
40
0.415282397767811
40
0.439710774107094
40
0.439710774107094
40
0.488567526785658
40
0.488567526785658
40
0.537424279464223
40
0.537424279464223
40
0.586281032142787
40
0.586281032142787
40
0.635137784821352
40
0.635137784821352
40
0.683994537499917
40
0.683994537499917
40
0.732851290178481
40
0.732851290178481
40
0.781708042857046
40
0.781708042857046
40
0.793922231026686
40
0.793922231026686
40
0.806136419196327
40
0.806136419196327
40
0.830564795535607
40
0.830564795535607
40
0.879421548214169
40
0.879421548214169
40
0.928278300892731
40
0.928278300892731
40
0.952706677232011
40
0.952706677232011
40
0.977135053571291
40
0.977135053571291
40
1
40
1
40
1
40
1
41
1
10
6.98815378122163
20
-2.94827307128429
30
0
41
1
10
7.35501907866782
20
-3.11812133872959
30
0
41
1
10
7.72059475913687
20
-3.28337452243952
30
0
41
1
10
8.44972161306472
20
-3.60392328855619
30
0
41
1
10
8.81324156486346
20
-3.75926623816991
30
0
41
1
10
9.35754135555891
20
-3.98402576806333
30
0
41
1
10
9.53881552149301
20
-4.05756441156683
30
0
41
1
10
9.90110069698122
20
-4.20180790592772
30
0
41
1
10
10.0821163885289
20
-4.27250472043448
30
0
41
1
10
10.6250066506033
20
-4.48001636505967
30
0
41
1
10
10.9866892329617
20
-4.61231109022569
30
0
41
1
10
11.7099151651152
20
-4.86437936307692
30
0
41
1
10
12.0714712769971
20
-4.98413185259636
30
0
41
1
10
12.7950275031733
20
-5.21031617285661
30
0
41
1
10
13.1570339522517
20
-5.31673138029319
30
0
41
1
10
13.882480349088
20
-5.51506281059102
30
0
41
1
10
14.2458299549208
20
-5.60708364456212
30
0
41
1
10
14.9742543262737
20
-5.7762049978916
30
0
41
1
10
15.339329953661
20
-5.85330130192969
30
0
41
1
10
15.797156354856
20
-5.93983017041847
30
0
41
1
10
15.8888207939017
20
-5.95664670569863
30
0
41
1
10
16.0719027013649
20
-5.9892010925364
30
0
41
1
10
16.3463042251646
20
-6.03644355953105
30
0
41
1
10
16.6201147538931
20
-6.07890538493237
30
0
41
1
10
17.1669869820603
20
-6.15750121317538
30
0
41
1
10
17.5305770837576
20
-6.20145665005541
30
0
41
1
10
18.2563007837657
20
-6.27245136122619
30
0
41
1
10
18.6184071130032
20
-6.29949200790756
30
0
41
1
10
19.3419059037577
20
-6.33654510694242
30
0
41
1
10
19.7033988547402
20
-6.346551716107
30
0
41
1
10
20.426243287082
20
-6.34958912748689
30
0
41
1
10
20.7875945533979
20
-6.34261528545977
30
0
41
1
10
21.5106843682968
20
-6.3116493560743
30
0
41
1
10
21.8723845039285
20
-6.28763712294784
30
0
41
1
10
22.5970946613134
20
-6.22268139962921
30
0
41
1
10
22.9600990264879
20
-6.18175494439319
30
0
41
1
10
23.687778648513
20
-6.08297252557301
30
0
41
1
10
24.0524663929388
20
-6.02511729145235
30
0
41
1
10
24.5097548851766
20
-5.94221499858622
30
0
41
1
10
24.6013234225533
20
-5.92509830707809
30
0
41
1
10
24.7844377112806
20
-5.88984356488339
30
0
41
1
10
24.8759122705509
20
-5.87172000097721
30
0
41
1
10
25.1501215778571
20
-5.81589363344111
30
0
41
1
10
25.3326482448163
20
-5.77674055105507
30
0
41
1
10
25.8795068470187
20
-5.65363158955577
30
0
41
1
10
26.2430727309882
20
-5.5639896747374
30
0
41
1
10
26.9686792206645
20
-5.37020600348697
30
0
41
1
10
27.3307194343086
20
-5.26606078997833
30
0
41
1
10
27.8730910957892
20
-5.09951088537983
30
0
41
1
10
28.0537741922188
20
-5.04227989534192
30
0
41
1
10
28.4150750331189
20
-4.92457811131726
30
0
41
1
10
28.5956890891105
20
-4.86410419818046
30
0
41
1
10
28.9453103705861
20
-4.74392150806295
30
0
41
1
10
29.1143220697586
20
-4.6844132083713
30
0
41
1
10
29.2833398017792
20
-4.62353451097397
30
0
0
SPLINE
5
FB
100
AcDbEntity
8
1
62
256
6
ByLayer
370
18
48
1
60
0
100
AcDbSpline
70
4
71
3
72
50
73
46
40
0
40
0
40
0
40
0
40
0.0009989974099376
40
0.0009989974099376
40
0.0597637622681732
40
0.0597637622681732
40
0.0891461446972921
40
0.0891461446972921
40
0.118528527126411
40
0.118528527126411
40
0.177293291984649
40
0.177293291984649
40
0.294822821701129
40
0.294822821701129
40
0.324205204130249
40
0.324205204130249
40
0.353587586559368
40
0.353587586559368
40
0.412352351417606
40
0.412352351417606
40
0.471117116275844
40
0.471117116275844
40
0.529881881134082
40
0.529881881134082
40
0.559264263563201
40
0.559264263563201
40
0.573955454777761
40
0.573955454777761
40
0.58864664599232
40
0.58864664599232
40
0.64741141085056
40
0.64741141085056
40
0.7061761757088
40
0.7061761757088
40
0.76494094056704
40
0.76494094056704
40
0.82370570542528
40
0.82370570542528
40
0.88247047028352
40
0.88247047028352
40
0.94123523514176
40
0.94123523514176
40
0.97061761757088
40
0.97061761757088
40
1
40
1
40
1
40
1
41
1
10
58.1116556659336
20
6.41662123990778
30
0
41
1
10
58.1178110104417
20
6.41663259338387
30
0
41
1
10
58.1239665791072
20
6.41664144933713
30
0
41
1
10
58.4922292752751
20
6.41702179595092
30
0
41
1
10
58.8551407358485
20
6.40876829853025
30
0
41
1
10
59.4010154332604
20
6.38330057785638
30
0
41
1
10
59.583228122398
20
6.3726291286861
30
0
41
1
10
59.9482352092996
20
6.34689173483196
30
0
41
1
10
60.1311932834624
20
6.33180630148939
30
0
41
1
10
60.6786281362397
20
6.28016032184638
30
0
41
1
10
61.0422914046022
20
6.2371648451853
30
0
41
1
10
62.1309498045413
20
6.0836170918694
30
0
41
1
10
62.8532703128303
20
5.9483946496494
30
0
41
1
10
63.7545152680786
20
5.74070350544821
30
0
41
1
10
63.9346862989365
20
5.69723335644775
30
0
41
1
10
64.2950282242787
20
5.60657372834115
30
0
41
1
10
64.475200367486
20
5.55938696026979
30
0
41
1
10
65.0157650911253
20
5.412308091504
30
0
41
1
10
65.3762086578242
20
5.30690003606733
30
0
41
1
10
66.0977411987615
20
5.08184570470365
30
0
41
1
10
66.458811597063
20
4.96217374121863
30
0
41
1
10
67.1822599569201
20
4.7092114423975
30
0
41
1
10
67.5447509148407
20
4.57607295663786
30
0
41
1
10
68.0900062748627
20
4.36675139746836
30
0
41
1
10
68.2720093855548
20
4.29537191416617
30
0
41
1
10
68.5454408128824
20
4.18593986123557
30
0
41
1
10
68.6366559268647
20
4.14906893738311
30
0
41
1
10
68.8192380346412
20
4.07454871091173
30
0
41
1
10
68.9106323716292
20
4.03688765885224
30
0
41
1
10
69.3669901113656
20
3.84708248873275
30
0
41
1
10
69.7308211477617
20
3.69006485778436
30
0
41
1
10
70.4569362811386
20
3.36732719198824
30
0
41
1
10
70.8192531270356
20
3.20166669345673
30
0
41
1
10
71.5428117705747
20
2.86251793659136
30
0
41
1
10
71.9040651560777
20
2.68904791162319
30
0
41
1
10
72.6260610801454
20
2.33527214799435
30
0
41
1
10
72.986782417821
20
2.15492423351856
30
0
41
1
10
73.7086984687866
20
1.78915503767342
30
0
41
1
10
74.0698244277381
20
1.60361388568396
30
0
41
1
10
74.7928855793228
20
1.22806650764747
30
0
41
1
10
75.1548244324858
20
1.03806631308243
30
0
41
1
10
75.6987757273583
20
0.750489265493343
30
0
41
1
10
75.8802664537329
20
0.654199831059032
30
0
41
1
10
76.2437551627027
20
0.461062946473021
30
0
41
1
10
76.4257567639909
20
0.364223287216248
30
0
41
1
10
76.6080346598072
20
0.267145099875535
30
0
0
SPLINE
5
FC
100
AcDbEntity
8
1
62
256
6
ByLayer
370
18
48
1
60
0
100
AcDbSpline
70
4
71
3
72
20
73
16
40
0
40
0
40
0
40
0
40
0.125
40
0.125
40
0.25
40
0.25
40
0.375
40
0.375
40
0.5
40
0.5
40
0.625
40
0.625
40
0.75
40
0.75
40
1
40
1
40
1
40
1
41
1
10
20.0003945039637
20
-0.408925623417758
30
0
41
1
10
19.6242671902239
20
-0.212099696130565
30
0
41
1
10
19.2493768995083
20
-0.0154403333944231
30
0
41
1
10
18.5013445142104
20
0.376160041012724
30
0
41
1
10
18.128218342505
20
0.571134104317025
30
0
41
1
10
17.3831275751658
20
0.95825938142346
30
0
41
1
10
17.0112033955972
20
1.15048860258483
30
0
41
1
10
16.2677880848695
20
1.53073531569447
30
0
41
1
10
15.8962741750892
20
1.71871077672984
30
0
41
1
10
15.1530330868063
20
2.0892436193576
30
0
41
1
10
14.7813020235467
20
2.2717939936287
30
0
41
1
10
14.0370479363048
20
2.63038834008333
30
0
41
1
10
13.664544815333
20
2.80646585846955
30
0
41
1
10
12.5445718079719
20
3.32257588505294
30
0
41
1
10
11.7947173882041
20
3.65064359111977
30
0
41
1
10
11.0392473297861
20
3.95820166233599
30
0
0
SPLINE
5
FD
100
AcDbEntity
8
1
62
256
6
ByLayer
370
18
48
1
60
0
100
AcDbSpline
70
4
71
3
72
47
73
43
40
0
40
0
40
0
40
0
40
0.0478652103711643
40
0.0478652103711643
40
0.0957304207423286
40
0.0957304207423286
40
0.119663025927912
40
0.119663025927912
40
0.143595631113495
40
0.143595631113495
40
0.167528236299078
40
0.167528236299078
40
0.191460841484661
40
0.239326051855827
40
0.239326051855827
40
0.263258657041409
40
0.263258657041409
40
0.287191262226991
40
0.287191262226991
40
0.382921682969316
40
0.382921682969316
40
0.478652103711641
40
0.478652103711641
40
0.526517314082803
40
0.526517314082803
40
0.574382524453964
40
0.574382524453964
40
0.622247734825126
40
0.622247734825126
40
0.670112945196287
40
0.670112945196287
40
0.765843365938611
40
0.765843365938611
40
0.813708576309772
40
0.813708576309772
40
0.861573786680934
40
0.861573786680934
40
0.909438997052096
40
0.909438997052096
40
0.957304207423257
40
0.957304207423257
40
1
40
1
40
1
40
1
41
1
10
20.0003945039497
20
-0.306801929754499
30
0
41
1
10
20.29539943746
20
-0.461101987401776
30
0
41
1
10
20.590412203094
20
-0.615195023585869
30
0
41
1
10
21.1802055658519
20
-0.921844557436827
30
0
41
1
10
21.4750813461525
20
-1.07442077876942
30
0
41
1
10
21.9176020233779
20
-1.30171369195233
30
0
41
1
10
22.0651611075838
20
-1.37722834574509
30
0
41
1
10
22.3602385513903
20
-1.52759824403429
30
0
41
1
10
22.5077666254466
20
-1.60245856795433
30
0
41
1
10
22.8028386071634
20
-1.75146117594005
30
0
41
1
10
22.9503997154121
20
-1.82561199085617
30
0
41
1
10
23.2454259874248
20
-1.97304962257607
30
0
41
1
10
23.6878617496965
20
-2.19292991596984
30
0
41
1
10
24.1301622034302
20
-2.40866380604382
30
0
41
1
10
24.5726218068704
20
-2.62118307055272
30
0
41
1
10
24.7201466884895
20
-2.69149210869304
30
0
41
1
10
25.0151333361633
20
-2.83088440506731
30
0
41
1
10
25.1626133382258
20
-2.89997650790073
30
0
41
1
10
25.9000591612567
20
-3.24222334235102
30
0
41
1
10
26.4899851071414
20
-3.50557213147107
30
0
41
1
10
27.6698703507938
20
-4.00577454892314
30
0
41
1
10
28.2597375430503
20
-4.24264773462099
30
0
41
1
10
29.1445641721117
20
-4.57438450641746
30
0
41
1
10
29.4394199629299
20
-4.68099895249938
30
0
41
1
10
30.0289990396027
20
-4.88575668003509
30
0
41
1
10
30.3237663645244
20
-4.98392090175722
30
0
41
1
10
30.9135849718501
20
-5.17140666949047
30
0
41
1
10
31.2083947163187
20
-5.26064964055325
30
0
41
1
10
31.7978913896419
20
-5.42969353854508
30
0
41
1
10
32.0926202210208
20
-5.50950765525178
30
0
41
1
10
32.9772620478499
20
-5.73429200122277
30
0
41
1
10
33.5664081527244
20
-5.86427783372201
30
0
41
1
10
34.4509756992367
20
-6.02776176896131
30
0
41
1
10
34.7456596491311
20
-6.07695186365572
30
0
41
1
10
35.3350256261049
20
-6.16452954682293
30
0
41
1
10
35.6297420130879
20
-6.20292075878365
30
0
41
1
10
36.219374467731
20
-6.26870063881458
30
0
41
1
10
36.5140326224692
20
-6.29606157846555
30
0
41
1
10
37.1033561385404
20
-6.33963060825195
30
0
41
1
10
37.3980766339051
20
-6.35584049037286
30
0
41
1
10
37.9557805982775
20
-6.37586103213417
30
0
41
1
10
38.2185873457114
20
-6.38081732899323
30
0
41
1
10
38.4813880068489
20
-6.38128677364614
30
0
0
SPLINE
5
FE
100
AcDbEntity
8
1
62
256
6
ByLayer
370
18
48
1
60
0
100
AcDbSpline
70
4
71
3
72
26
73
22
40
0
40
0
40
0
40
0
40
0.0424207854290686
40
0.138178706886164
40
0.138178706886164
40
0.186057667614711
40
0.186057667614711
40
0.233936628343259
40
0.329694549800351
40
0.329694549800351
40
0.425452471257442
40
0.425452471257442
40
0.521210392714534
40
0.521210392714534
40
0.616968314171626
40
0.616968314171626
40
0.808484157085812
40
0.808484157085812
40
0.904242078542906
40
0.904242078542906
40
1
40
1
40
1
40
1
41
1
10
67.3337509088602
20
4.64191593585977
30
0
41
1
10
67.464074170113
20
4.68988850859918
30
0
41
1
10
67.8885063586376
20
4.8435353866117
30
0
41
1
10
68.3128478589642
20
4.98846701979406
30
0
41
1
10
68.7541421160607
20
5.13251980420938
30
0
41
1
10
68.9012603825852
20
5.17943233672878
30
0
41
1
10
69.1953840815978
20
5.2709352700476
30
0
41
1
10
69.6364807335843
20
5.40473314394904
30
0
41
1
10
70.0775090003081
20
5.52794932461444
30
0
41
1
10
70.6658397224378
20
5.68246431074613
30
0
41
1
10
70.9599873155602
20
5.7547903338511
30
0
41
1
10
71.5483456087876
20
5.88921094669786
30
0
41
1
10
71.8424125329065
20
5.95127284046293
30
0
41
1
10
72.4304644233947
20
6.06482309301839
30
0
41
1
10
72.7244785548513
20
6.11632054332424
30
0
41
1
10
73.6069703843793
20
6.25464776249271
30
0
41
1
10
74.1946474014434
20
6.32510864228749
30
0
41
1
10
75.0770185733345
20
6.39721690170148
30
0
41
1
10
75.371030854264
20
6.41563641502754
30
0
41
1
10
75.9591810706098
20
6.44116653123578
30
0
41
1
10
76.2532630470689
20
6.44827239202371
30
0
41
1
10
76.5473009592321
20
6.44969902925433
30
0
0
SPLINE
5
FF
100
AcDbEntity
8
1
62
256
6
ByLayer
370
18
48
1
60
0
100
AcDbSpline
70
4
71
3
72
120
73
116
40
0
40
0
40
0
40
0
40
0.0625000000000427
40
0.0625000000000427
40
0.125000000000085
40
0.125000000000085
40
0.140625000000096
40
0.140625000000096
40
0.156250000000106
40
0.187500000000127
40
0.187500000000127
40
0.250000000000171
40
0.250000000000171
40
0.281250000000193
40
0.281250000000193
40
0.296875000000204
40
0.296875000000204
40
0.304687500000209
40
0.308593750000212
40
0.308593750000212
40
0.310546875000214
40
0.310546875000214
40
0.311523437500215
40
0.311523437500215
40
0.312500000000216
40
0.312500000000216
40
0.314453125000216
40
0.314453125000216
40
0.315429687500216
40
0.315429687500216
40
0.316406250000216
40
0.316406250000216
40
0.317382812500216
40
0.317382812500216
40
0.318359375000216
40
0.320312500000215
40
0.328125000000213
40
0.328125000000213
40
0.343750000000209
40
0.343750000000209
40
0.359375000000205
40
0.359375000000205
40
0.375000000000201
40
0.375000000000201
40
0.406250000000192
40
0.406250000000192
40
0.421875000000187
40
0.421875000000187
40
0.429687500000185
40
0.429687500000185
40
0.437500000000183
40
0.437500000000183
40
0.468750000000174
40
0.468750000000174
40
0.500000000000164
40
0.500000000000164
40
0.51562500000016
40
0.51562500000016
40
0.523437500000158
40
0.523437500000158
40
0.531250000000156
40
0.531250000000156
40
0.546875000000151
40
0.546875000000151
40
0.562500000000147
40
0.562500000000147
40
0.570312500000145
40
0.574218750000143
40
0.574218750000143
40
0.578125000000142
40
0.578125000000142
40
0.593750000000136
40
0.593750000000136
40
0.625000000000124
40
0.625000000000124
40
0.628906250000123
40
0.628906250000123
40
0.632812500000121
40
0.640625000000118
40
0.640625000000118
40
0.656250000000113
40
0.656250000000113
40
0.66406250000011
40
0.667968750000108
40
0.667968750000108
40
0.671875000000107
40
0.671875000000107
40
0.687500000000101
40
0.687500000000101
40
0.703125000000095
40
0.703125000000095
40
0.718750000000089
40
0.718750000000089
40
0.734375000000083
40
0.734375000000083
40
0.74218750000008
40
0.74218750000008
40
0.750000000000078
40
0.750000000000078
40
0.781250000000068
40
0.781250000000068
40
0.812500000000058
40
0.812500000000058
40
0.843750000000048
40
0.843750000000048
40
0.851562500000045
40
0.851562500000045
40
0.859375000000043
40
0.875000000000038
40
0.875000000000038
40
0.906250000000029
40
0.906250000000029
40
0.937500000000019
40
0.937500000000019
40
1
40
1
40
1
40
1
41
1
10
11.0392461144634
20
3.95820464316768
30
0
41
1
10
10.6827667107647
20
4.10334291958014
30
0
41
1
10
10.3239020413329
20
4.23879233613278
30
0
41
1
10
9.5996201235028
20
4.48972710295962
30
0
41
1
10
9.23418315588461
20
4.60518726465384
30
0
41
1
10
8.77230394952952
20
4.73712971660558
30
0
41
1
10
8.67965843857641
20
4.76290371878804
30
0
41
1
10
8.49401980822668
20
4.81317493846615
30
0
41
1
10
8.21498136304177
20
4.88668408190901
30
0
41
1
10
7.93412899678614
20
4.95458961654924
30
0
41
1
10
7.36983041210777
20
5.08320365060226
30
0
41
1
10
6.99016464599879
20
5.15934062342538
30
0
41
1
10
6.41489994408124
20
5.26044144063974
30
0
41
1
10
6.22214146125248
20
5.29196642126067
30
0
41
1
10
5.93190650837175
20
5.33610326421481
30
0
41
1
10
5.83496046986326
20
5.35029378126123
30
0
41
1
10
5.68925813684393
20
5.37081793813869
30
0
41
1
10
5.61633715612197
20
5.38088947727357
30
0
41
1
10
5.54331075824996
20
5.39067986482073
30
0
41
1
10
5.50678062214888
20
5.39552844641915
30
0
41
1
10
5.49460324297013
20
5.39714210009609
30
0
41
1
10
5.47632642374992
20
5.39953501325238
30
0
41
1
10
5.47020889720656
20
5.40027419363949
30
0
41
1
10
5.45782674459676
20
5.40141489052249
30
0
41
1
10
5.45158551796561
20
5.40183764571458
30
0
41
1
10
5.43294129223938
20
5.40257038773731
30
0
41
1
10
5.42053151721936
20
5.402389730447
30
0
41
1
10
5.4019532503151
20
5.40088193897148
30
0
41
1
10
5.3957438294654
20
5.4001637232424
30
0
41
1
10
5.38374408152123
20
5.3982105152644
30
0
41
1
10
5.37789850589274
20
5.39696256637785
30
0
41
1
10
5.36663319750252
20
5.39394701967589
30
0
41
1
10
5.3613051578283
20
5.39214732114903
30
0
41
1
10
5.35059470211431
20
5.38861085585165
30
0
41
1
10
5.3345343234277
20
5.3832948872172
30
0
41
1
10
5.27570902185124
20
5.36367574141457
30
0
41
1
10
5.222420483039
20
5.34545087079456
30
0
41
1
10
5.09492600374062
20
5.30094251134423
30
0
41
1
10
5.01045550829326
20
5.27024472431532
30
0
41
1
10
4.84263963041946
20
5.20662765742676
30
0
41
1
10
4.75933324887421
20
5.17372207618109
30
0
41
1
10
4.59422183561529
20
5.10562219364732
30
0
41
1
10
4.51238639912765
20
5.07041673562043
30
0
41
1
10
4.26920265319077
20
4.96103465135434
30
0
41
1
10
4.11016427714776
20
4.88311503169967
30
0
41
1
10
3.87706676968648
20
4.75720539401419
30
0
41
1
10
3.80028042939586
20
4.71372540321008
30
0
41
1
10
3.68660772090991
20
4.64598882021423
30
0
41
1
10
3.64896822582091
20
4.62299003436542
30
0
41
1
10
3.57421870670439
20
4.57610397264622
30
0
41
1
10
3.53708592625455
20
4.5522016163161
30
0
41
1
10
3.35307725085019
20
4.43050423403608
30
0
41
1
10
3.2119652542994
20
4.32675440495174
30
0
41
1
10
2.94431142533813
20
4.10374314519316
30
0
41
1
10
2.81774403651588
20
3.98451009898457
30
0
41
1
10
2.64152638168531
20
3.79095698077734
30
0
41
1
10
2.58507123154891
20
3.72397552876376
30
0
41
1
10
2.50431253904105
20
3.61924665831805
30
0
41
1
10
2.47804831679926
20
3.58362610234917
30
0
41
1
10
2.42693304976399
20
3.51084797184339
30
0
41
1
10
2.40203639879093
20
3.47361202829916
30
0
41
1
10
2.33027750151359
20
3.36043625285495
30
0
41
1
10
2.28616705341995
20
3.28281090686619
30
0
41
1
10
2.20606419801228
20
3.12280278661154
30
0
41
1
10
2.17006994566219
20
3.04042108595272
30
0
41
1
10
2.12279218738868
20
2.91289868529702
30
0
41
1
10
2.10083401949373
20
2.84814867254636
30
0
41
1
10
2.08153916059482
20
2.78182920252394
30
0
41
1
10
2.06928559631331
20
2.73725668767
30
0
41
1
10
2.06345537401631
20
2.71475458096813
30
0
41
1
10
2.03602537696435
20
2.60196157184245
30
0
41
1
10
2.01950289138497
20
2.51059722389428
30
0
41
1
10
1.98630905976799
20
2.23307819363319
30
0
41
1
10
1.98595502688619
20
2.04350721461716
30
0
41
1
10
2.01108946242945
20
1.82488241104201
30
0
41
1
10
2.01423753682607
20
1.80053234433245
30
0
41
1
10
2.02119485242187
20
1.75201948089892
30
0
41
1
10
2.0326362319492
20
1.67940696135133
30
0
41
1
10
2.04702492457372
20
1.60725414429274
30
0
41
1
10
2.07956812786804
20
1.46353639362516
30
0
41
1
10
2.10627941118113
20
1.36850752990148
30
0
41
1
10
2.15332377591059
20
1.22705659958001
30
0
41
1
10
2.17859241214691
20
1.15660457251119
30
0
41
1
10
2.20639520408318
20
1.08655011561714
30
0
41
1
10
2.22548505754395
20
1.03993426372185
30
0
41
1
10
2.23532018195218
20
1.01664096509484
30
0
41
1
10
2.28564425999241
20
0.900881587951488
30
0
41
1
10
2.3296174991508
20
0.810374324038492
30
0
41
1
10
2.42402331135219
20
0.633014965446847
30
0
41
1
10
2.47445880281865
20
0.546164521326631
30
0
41
1
10
2.58105768278659
20
0.375707547339374
30
0
41
1
10
2.63722290422447
20
0.292102053838619
30
0
41
1
10
2.75470889842711
20
0.127813615786664
30
0
41
1
10
2.81603087436238
20
0.0471313513386917
30
0
41
1
10
2.91153755603241
20
-0.0718923989776954
30
0
41
1
10
2.94389435754138
20
-0.111147751530012
30
0
41
1
10
3.0093546924048
20
-0.188594199073606
30
0
41
1
10
3.04249408529265
20
-0.226830115774135
30
0
41
1
10
3.21010817095376
20
-0.415728277276003
30
0
41
1
10
3.35028857431334
20
-0.559600986898431
30
0
41
1
10
3.64037284786249
20
-0.835809430804574
30
0
41
1
10
3.79029333047549
20
-0.968125260072895
30
0
41
1
10
4.0982790528619
20
-1.22312407451622
30
0
41
1
10
4.25635245478333
20
-1.3457972758753
30
0
41
1
10
4.45834073388835
20
-1.4939571040145
30
0
41
1
10
4.49897894545666
20
-1.52334276153118
30
0
41
1
10
4.58050713400951
20
-1.58148744362612
30
0
41
1
10
4.70322501515318
20
-1.66780033209102
30
0
41
1
10
4.82716761109836
20
-1.75151820558793
30
0
41
1
10
5.07656651470489
20
-1.91576317493659
30
0
41
1
10
5.24484631771756
20
-2.02101530555947
30
0
41
1
10
5.58493061923099
20
-2.22416996317725
30
0
41
1
10
5.75673677329891
20
-2.32206880191376
30
0
41
1
10
6.27687814992407
20
-2.60602492375028
30
0
41
1
10
6.62990978705068
20
-2.78240110730661
30
0
41
1
10
6.98815552158015
20
-2.94827264541058
30
0
0
SPLINE
5
100
100
AcDbEntity
8
1
62
256
6
ByLayer
370
18
48
1
60
0
100
AcDbSpline
70
4
71
3
72
130
73
126
40
0
40
0
40
0
40
0
40
0.0019773281385573
40
0.0183790471005398
40
0.0347807660625221
40
0.0429816255435134
40
0.0511824850245046
40
0.0593833445054958
40
0.067584203986487
40
0.0757850634674782
40
0.0839859229484695
40
0.0921867824294607
40
0.0962872121699564
40
0.100387641910452
40
0.104488071650947
40
0.108588501391443
40
0.112688931131939
40
0.114739146002187
40
0.11576425343731
40
0.116789360872434
40
0.117814468307558
40
0.11832702202512
40
0.118839575742682
40
0.119352129460244
40
0.119608406319025
40
0.11967247553372
40
0.119736544748416
40
0.119864683177806
40
0.119992821607197
40
0.120120960036587
40
0.120377236895368
40
0.120633513754149
40
0.12088979061293
40
0.121402344330492
40
0.121914898048054
40
0.122940005483178
40
0.123965112918302
40
0.124990220353426
40
0.127040435223674
40
0.129090650093921
40
0.131140864964169
40
0.133191079834417
40
0.137291509574912
40
0.141391939315408
40
0.145492369055904
40
0.149592798796399
40
0.15779365827739
40
0.165994517758382
40
0.182396236720364
40
0.198797955682347
40
0.215199674644329
40
0.231601393606311
40
0.248003112568294
40
0.264404831530276
40
0.280806550492259
40
0.313609988416224
40
0.346413426340189
40
0.362815145302171
40
0.379216864264154
40
0.395618583226136
40
0.412020302188118
40
0.428422021150101
40
0.444823740112083
40
0.461225459074066
40
0.469426318555057
40
0.477627178036048
40
0.485828037517039
40
0.49402889699803
40
0.502229756479022
40
0.506330186219517
40
0.510430615960013
40
0.514531045700509
40
0.516581260570756
40
0.518631475441004
40
0.519656582876128
40
0.520681690311252
40
0.521706797746376
40
0.5227319051815
40
0.523757012616624
40
0.524269566334186
40
0.524782120051748
40
0.525038396910529
40
0.52529467376931
40
0.5254228121987
40
0.525550950628091
40
0.525615019842786
40
0.525679089057481
40
0.525743158272176
40
0.525807227486871
40
0.525935365916262
40
0.526063504345653
40
0.526319781204433
40
0.526576058063214
40
0.526832334921996
40
0.527344888639558
40
0.527857442357119
40
0.528882549792243
40
0.529907657227367
40
0.530932764662491
40
0.532982979532739
40
0.535033194402987
40
0.537083409273234
40
0.539133624143482
40
0.543234053883978
40
0.547334483624473
40
0.551434913364969
40
0.555535343105465
40
0.55963577284596
40
0.567836632326951
40
0.576037491807943
40
0.584238351288934
40
0.592439210769925
40
0.600640070250916
40
0.608840929731908
40
0.62524264869389
40
0.641644367655873
40
0.658046086617855
40
0.674447805579838
40
0.707251243503802
40
0.740054681427767
40
0.772858119351732
40
0.838464995199662
40
0.904071871047592
40
0.969678746895521
40
1
40
1
40
1
40
1
41
1
10
11.0392473297655
20
3.9582016623217
30
0
41
1
10
11.0344126605102
20
3.95484392374968
30
0
41
1
10
10.9891596155445
20
3.92322057415942
30
0
41
1
10
10.8981734564931
20
3.85599593508076
30
0
41
1
10
10.782033542277
20
3.75967106436661
30
0
41
1
10
10.6847418737233
20
3.67163738611876
30
0
41
1
10
10.6099058071055
20
3.59965246253151
30
0
41
1
10
10.5330247015213
20
3.52276371552594
30
0
41
1
10
10.4526142180216
20
3.44196325980482
30
0
41
1
10
10.3694971069864
20
3.35678239193766
30
0
41
1
10
10.2838669489263
20
3.26712495679664
30
0
41
1
10
10.210594963592
20
3.18856683951802
30
0
41
1
10
10.1506252647937
20
3.12352725616719
30
0
41
1
10
10.1050489634373
20
3.07360234174271
30
0
41
1
10
10.0588892612165
20
3.02251496335566
30
0
41
1
10
10.0122709750855
20
2.97034547061045
30
0
41
1
10
9.97305142968926
20
2.92594207746868
30
0
41
1
10
9.94541773053115
20
2.89436651922114
30
0
41
1
10
9.9295760790769
20
2.87618093065842
30
0
41
1
10
9.91767331147378
20
2.86247168474051
30
0
41
1
10
9.90772954134101
20
2.85098946617649
30
0
41
1
10
9.89977595943296
20
2.84176704612841
30
0
41
1
10
9.89377048044162
20
2.8348365122358
30
0
41
1
10
9.88887173244157
20
2.8290339062635
30
0
41
1
10
9.88548423860857
20
2.82527786038375
30
0
41
1
10
9.88413172020421
20
2.8235189611195
30
0
41
1
10
9.88270756037929
20
2.82240522300546
30
0
41
1
10
9.88522932711814
20
2.82032297322314
30
0
41
1
10
9.88761164083752
20
2.81849683092895
30
0
41
1
10
9.89119684838309
20
2.81597154913138
30
0
41
1
10
9.89566280819221
20
2.81295942952244
30
0
41
1
10
9.90112134475811
20
2.80937660609445
30
0
41
1
10
9.9084302317857
20
2.80465442794403
30
0
41
1
10
9.91762587171894
20
2.79880327622249
30
0
41
1
10
9.9323987466006
20
2.78950540944487
30
0
41
1
10
9.95093421258653
20
2.77796123554055
30
0
41
1
10
9.97323191804486
20
2.76416946877058
30
0
41
1
10
10.0030080272565
20
2.74582982829446
30
0
41
1
10
10.0402861374008
20
2.72296566258802
30
0
41
1
10
10.0850731768783
20
2.69557964076907
30
0
41
1
10
10.1298969283535
20
2.66822542363912
30
0
41
1
10
10.1896978910268
20
2.63178052384978
30
0
41
1
10
10.2645009103265
20
2.58625770855088
30
0
41
1
10
10.3543199128316
20
2.53165182706894
30
0
41
1
10
10.4441740965696
20
2.47704351278509
30
0
41
1
10
10.5640116482459
20
2.40421133804279
30
0
41
1
10
10.7138499704961
20
2.31310970822551
30
0
41
1
10
10.9536353947047
20
2.16715984953308
30
0
41
1
10
11.2533859376761
20
1.98430657252015
30
0
41
1
10
11.6130577933075
20
1.76425474672365
30
0
41
1
10
11.9727176957161
20
1.54357314312554
30
0
41
1
10
12.3323479500126
20
1.3222438549258
30
0
41
1
10
12.6919309608222
20
1.10024567932257
30
0
41
1
10
13.0514614757258
20
0.87754848921665
30
0
41
1
10
13.5306978076919
20
0.579691739561895
30
0
41
1
10
14.129282979969
20
0.20584345716648
30
0
41
1
10
14.7273988259372
20
-0.169951889447845
30
0
41
1
10
15.2056253085624
20
-0.471711157594768
30
0
41
1
10
15.5641773567953
20
-0.698571939185484
30
0
41
1
10
15.922630415975
20
-0.925943043428106
30
0
41
1
10
16.2809986015227
20
-1.15380065214984
30
0
41
1
10
16.639258941302
20
-1.38218187340934
30
0
41
1
10
16.9973856895709
20
-1.61112078976396
30
0
41
1
10
17.2956945448234
20
-1.80242242386524
30
0
41
1
10
17.5342317221609
20
-1.95577730215075
30
0
41
1
10
17.7130588138431
20
-2.07093815579125
30
0
41
1
10
17.8918149324028
20
-2.1862483017797
30
0
41
1
10
18.070493228217
20
-2.30171532331633
30
0
41
1
10
18.2193021839392
20
-2.39810886261179
30
0
41
1
10
18.3382669951008
20
-2.475371104837
30
0
41
1
10
18.4274353583253
20
-2.53341552592528
30
0
41
1
10
18.5016741532314
20
-2.58189639881351
30
0
41
1
10
18.5609922810334
20
-2.62079610996685
30
0
41
1
10
18.598023844094
20
-2.64517486217832
30
0
41
1
10
18.6276114996728
20
-2.66473675704614
30
0
41
1
10
18.6497774693449
20
-2.67944666602085
30
0
41
1
10
18.6719103801629
20
-2.69420882051057
30
0
41
1
10
18.6939913035881
20
-2.70904905649792
30
0
41
1
10
18.7123239026346
20
-2.72151665168141
30
0
41
1
10
18.726906446374
20
-2.73161303888637
30
0
41
1
10
18.7359629369357
20
-2.73801050845651
30
0
41
1
10
18.7431354711075
20
-2.7432282396928
30
0
41
1
10
18.7475495230727
20
-2.74657535206359
30
0
41
1
10
18.7510304796311
20
-2.74932920633546
30
0
41
1
10
18.7530716394992
20
-2.75120415971571
30
0
41
1
10
18.7547128371682
20
-2.75267170502247
30
0
41
1
10
18.7552627310114
20
-2.75450598246491
30
0
41
1
10
18.7531233365181
20
-2.75434309388626
30
0
41
1
10
18.7511286025554
20
-2.75452275797824
30
0
41
1
10
18.7483414985322
20
-2.75461141763944
30
0
41
1
10
18.7440463250551
20
-2.75482915050577
30
0
41
1
10
18.7386211146356
20
-2.75507512756019
30
0
41
1
10
18.7321350907978
20
-2.75538124273021
30
0
41
1
10
18.7234788018764
20
-2.75578521950641
30
0
41
1
10
18.7126616287719
20
-2.75629099758794
30
0
41
1
10
18.695353192889
20
-2.75709837268309
30
0
41
1
10
18.6737194286785
20
-2.75810573918548
30
0
41
1
10
18.6477606380961
20
-2.75931109587051
30
0
41
1
10
18.613151616645
20
-2.76091377781182
30
0
41
1
10
18.5698952244456
20
-2.76290868061451
30
0
41
1
10
18.5179953888638
20
-2.76528906964111
30
0
41
1
10
18.4661034975813
20
-2.76765594767971
30
0
41
1
10
18.3969250399414
20
-2.77079376231964
30
0
41
1
10
18.3104720202413
20
-2.77468223093243
30
0
41
1
10
18.2067604833573
20
-2.77929428562933
30
0
41
1
10
18.1030810313762
20
-2.78385220415802
30
0
41
1
10
17.9994335936528
20
-2.78835596054782
30
0
41
1
10
17.8612799758951
20
-2.79428870272722
30
0
41
1
10
17.6886664063056
20
-2.8015691442009
30
0
41
1
10
17.4816689763129
20
-2.81008810944906
30
0
41
1
10
17.2748110513402
20
-2.81838927940137
30
0
41
1
10
17.0680923072463
20
-2.8264724560909
30
0
41
1
10
16.8615126844816
20
-2.83433742764768
30
0
41
1
10
16.5862585117722
20
-2.84453283158137
30
0
41
1
10
16.2425380179851
20
-2.85673049623759
30
0
41
1
10
15.8306280873297
20
-2.87049136486792
30
0
41
1
10
15.4192721212656
20
-2.88337403364653
30
0
41
1
10
14.8715344865061
20
-2.89937751751532
30
0
41
1
10
14.1882465667705
20
-2.91717621842505
30
0
41
1
10
13.3709977715759
20
-2.9349798512556
30
0
41
1
10
12.2848044688282
20
-2.95396592037218
30
0
41
1
10
10.9336008264559
20
-2.96875445763658
30
0
41
1
10
9.32254518577435
20
-2.97208215706595
30
0
41
1
10
8.00879165166094
20
-2.96286733546674
30
0
41
1
10
7.23295606107882
20
-2.95217540658359
30
0
41
1
10
6.9881537812214
20
-2.94827307128429
30
0
0
SPLINE
5
101
100
AcDbEntity
8
SK1
62
256
6
ByLayer
370
18
48
1
60
0
100
AcDbSpline
70
4
71
3
72
8
73
4
40
0
40
0
40
0
40
0
40
1
40
1
40
1
40
1
41
1
10
-44
20
1.08298712241435
30
0
41
1
10
-44.3340982529541
20
1.09258419214984
30
0
41
1
10
-44.667587235397
20
1.10219765539591
30
0
41
1
10
-45
20
1.1118400762038
30
0
0
SPLINE
5
102
100
AcDbEntity
8
SK1
62
256
6
ByLayer
370
18
48
1
60
0
100
AcDbSpline
70
4
71
3
72
22
73
18
40
0
40
0
40
0
40
0
40
0.0625000000000034
40
0.0625000000000034
40
0.125000000000007
40
0.125000000000007
40
0.18750000000001
40
0.18750000000001
40
0.250000000000013
40
0.250000000000013
40
0.375000000000012
40
0.375000000000012
40
0.500000000000011
40
0.500000000000011
40
0.750000000000006
40
0.750000000000006
40
1
40
1
40
1
40
1
41
1
10
-43.9
20
0.979596422461327
30
0
41
1
10
-43.9
20
0.983766795215359
30
0
41
1
10
-43.9002571469355
20
0.987875115381087
30
0
41
1
10
-43.9012483835253
20
0.995976585154807
30
0
41
1
10
-43.9019843556157
20
0.999950127213339
30
0
41
1
10
-43.9038359680824
20
1.00754761685488
30
0
41
1
10
-43.9049554933943
20
1.01120556616487
30
0
41
1
10
-43.9075371366113
20
1.018272574413
30
0
41
1
10
-43.9090098712764
20
1.02170106276753
30
0
41
1
10
-43.9138180081128
20
1.0314751161952
30
0
41
1
10
-43.9175198606349
20
1.0373129039925
30
0
41
1
10
-43.9257005361925
20
1.04793033348412
30
0
41
1
10
-43.9302200865513
20
1.052730472408
30
0
41
1
10
-43.9443936613409
20
1.06534314902044
30
0
41
1
10
-43.9547464093512
20
1.07158050229714
30
0
41
1
10
-43.9768690024478
20
1.08030909621206
30
0
41
1
10
-43.9882652984639
20
1.08265003969103
30
0
41
1
10
-44
20
1.08298712241435
30
0
0
SPLINE
5
103
100
AcDbEntity
8
SK1
62
256
6
ByLayer
370
18
48
1
60
0
100
AcDbSpline
70
4
71
3
72
20
73
16
40
0
40
0
40
0
40
0
40
0.250000000000001
40
0.250000000000001
40
0.375
40
0.375
40
0.5
40
0.5
40
0.625
40
0.625
40
0.75
40
0.75
40
0.875
40
0.875
40
1
40
1
40
1
40
1
41
1
10
-44
20
-1.4160252117801
30
0
41
1
10
-43.9882624499766
20
-1.41636237632704
30
0
41
1
10
-43.9768728652908
20
-1.41469862613874
30
0
41
1
10
-43.9603029144173
20
-1.4091867775129
30
0
41
1
10
-43.9549192380518
20
-1.40684573390692
30
0
41
1
10
-43.9446385503254
20
-1.40120723553545
30
0
41
1
10
-43.939710400316
20
-1.39790130265769
30
0
41
1
10
-43.9303270310238
20
-1.39019782060845
30
0
41
1
10
-43.9258537171356
20
-1.38578434993579
30
0
41
1
10
-43.9175707048936
20
-1.3756625797127
30
0
41
1
10
-43.9138512313552
20
-1.37007324469451
30
0
41
1
10
-43.9074484414431
20
-1.35759299846887
30
0
41
1
10
-43.904769301989
20
-1.35065431001365
30
0
41
1
10
-43.9010616930766
20
-1.33583220562033
30
0
41
1
10
-43.9
20
-1.32773535802048
30
0
41
1
10
-43.9
20
-1.31949492499754
30
0
0
SPLINE
5
104
100
AcDbEntity
8
SK1
62
256
6
ByLayer
370
18
48
1
60
0
100
AcDbSpline
70
4
71
3
72
8
73
4
40
0
40
0
40
0
40
0
40
1
40
1
40
1
40
1
41
1
10
-45
20
-1.38717225799061
30
0
41
1
10
-44.667598463506
20
-1.39681435310058
30
0
41
1
10
-44.334107630508
20
-1.4064278726716
30
0
41
1
10
-44
20
-1.41602521178007
30
0
0
SPLINE
5
105
100
AcDbEntity
8
SK1
62
256
6
ByLayer
370
18
48
1
60
0
100
AcDbSpline
70
4
71
3
72
8
73
4
40
0
40
0
40
0
40
0
40
1
40
1
40
1
40
1
41
1
10
-44
20
-1.08298712241432
30
0
41
1
10
-44.3340982529541
20
-1.09258419214984
30
0
41
1
10
-44.667587235397
20
-1.10219765539588
30
0
41
1
10
-45
20
-1.1118400762038
30
0
0
SPLINE
5
106
100
AcDbEntity
8
SK1
62
256
6
ByLayer
370
18
48
1
60
0
100
AcDbSpline
70
4
71
3
72
22
73
18
40
0
40
0
40
0
40
0
40
0.0624999999999987
40
0.0624999999999987
40
0.124999999999997
40
0.124999999999997
40
0.187499999999996
40
0.187499999999996
40
0.249999999999995
40
0.249999999999995
40
0.374999999999996
40
0.374999999999996
40
0.499999999999998
40
0.499999999999998
40
0.749999999999999
40
0.749999999999999
40
1
40
1
40
1
40
1
41
1
10
-43.9
20
-0.979596422461299
30
0
41
1
10
-43.9
20
-0.983766795215331
30
0
41
1
10
-43.9002571469355
20
-0.987875115381058
30
0
41
1
10
-43.9012483835253
20
-0.995976585154807
30
0
41
1
10
-43.9019843556157
20
-0.999950127213339
30
0
41
1
10
-43.9038359680824
20
-1.00754761685485
30
0
41
1
10
-43.9049554933943
20
-1.01120556616487
30
0
41
1
10
-43.9075371366113
20
-1.018272574413
30
0
41
1
10
-43.9090098712764
20
-1.0217010627675
30
0
41
1
10
-43.9138180081128
20
-1.03147511619517
30
0
41
1
10
-43.9175198606349
20
-1.0373129039925
30
0
41
1
10
-43.9257005361925
20
-1.04793033348409
30
0
41
1
10
-43.9302200865513
20
-1.052730472408
30
0
41
1
10
-43.9443936613409
20
-1.06534314902041
30
0
41
1
10
-43.9547464093512
20
-1.07158050229711
30
0
41
1
10
-43.9768690024478
20
-1.08030909621206
30
0
41
1
10
-43.9882652984639
20
-1.082650039691
30
0
41
1
10
-44
20
-1.08298712241435
30
0
0
SPLINE
5
107
100
AcDbEntity
8
1
62
256
6
ByLayer
370
18
48
1
60
0
100
AcDbSpline
70
4
71
3
72
18
73
14
40
0
40
0
40
0
40
0
40
0.141580929299963
40
0.233703744268738
40
0.312454349848091
40
0.377839575033583
40
0.433488793220043
40
0.486178932260402
40
0.557242059766573
40
0.646687463357697
40
0.754529049636176
40
0.880757502466683
40
1
40
1
40
1
40
1
41
1
10
76.2730696770645
20
1.43010472249091
30
0
41
1
10
75.9108804925464
20
1.54024791002939
30
0
41
1
10
75.3143446123452
20
1.72604204587861
30
0
41
1
10
74.5197344423594
20
1.98342651629821
30
0
41
1
10
73.920472888849
20
2.18263622550364
30
0
41
1
10
73.4148956242626
20
2.35442571837137
30
0
41
1
10
72.9761373989623
20
2.5062156032443
30
0
41
1
10
72.5238944791142
20
2.66517587775476
30
0
41
1
10
71.98758479052
20
2.85709188890951
30
0
41
1
10
71.314397348126
20
3.10353054927333
30
0
41
1
10
70.5056728501384
20
3.40793780940535
30
0
41
1
10
69.6260170335901
20
3.74929573068886
30
0
41
1
10
69.0180890600377
20
3.99415092616181
30
0
41
1
10
68.7234867342461
20
4.11481312715151
30
0
0
SPLINE
5
108
100
AcDbEntity
8
1
62
256
6
ByLayer
370
18
48
1
60
0
100
AcDbSpline
70
4
71
3
72
38
73
34
40
0
40
0
40
0
40
0
40
2.85044478048E-05
40
4.44625271966E-05
40
5.20650303084E-05
40
5.97419722534E-05
40
7.62450928449E-05
40
0.0001754286996944
40
0.0002514723219417
40
0.0003773679339436
40
0.0006133231767567
40
0.0010354032735441
40
0.0018067178771316
40
0.0032343279067757
40
0.005845163166712
40
0.0105334308956283
40
0.0189884291122608
40
0.0343515780404844
40
0.0885391273959593
40
0.143197619568737
40
0.20424519766915
40
0.273004954709484
40
0.344599111718822
40
0.4007258654393
40
0.43985313694889
40
0.473502964232205
40
0.515387900339216
40
0.565552995040379
40
0.628351639260302
40
0.706649058233507
40
0.800461413948495
40
0.909802282421741
40
1
40
1
40
1
40
1
41
1
10
42.1229533228016
20
0.324572560966317
30
0
41
1
10
42.1229797189706
20
0.324567166623325
30
0
41
1
10
42.1230015648083
20
0.324563674613302
30
0
41
1
10
42.122955803605
20
0.324577564499037
30
0
41
1
10
42.1228935738746
20
0.324594489797818
30
0
41
1
10
42.1228087929654
20
0.324616940404127
30
0
41
1
10
42.1223870706418
20
0.324726201683973
30
0
41
1
10
42.1216052007139
20
0.32492333241467
30
0
41
1
10
42.1204529331129
20
0.325216043279198
30
0
41
1
10
42.1187726583369
20
0.325643722894199
30
0
41
1
10
42.1157467645192
20
0.326412041340319
30
0
41
1
10
42.1102477672321
20
0.327810468562461
30
0
41
1
10
42.100145791195
20
0.330379006017893
30
0
41
1
10
42.0816059192026
20
0.335097281524327
30
0
41
1
10
42.0479545766124
20
0.343670844438293
30
0
41
1
10
41.9872290489402
20
0.359174826398942
30
0
41
1
10
41.8773848342712
20
0.387324668632516
30
0
41
1
10
41.5770518789432
20
0.464813933115835
30
0
41
1
10
41.0995781244389
20
0.590445389459575
30
0
41
1
10
40.4478399298075
20
0.767151876138058
30
0
41
1
10
39.7418878212761
20
0.964589029219553
30
0
41
1
10
38.9732148274716
20
1.18696008126162
30
0
41
1
10
38.2256064121719
20
1.41104071248134
30
0
41
1
10
37.5925401675848
20
1.60682369258029
30
0
41
1
10
37.1044790711785
20
1.76124393571848
30
0
41
1
10
36.671065721336
20
1.90074199135284
30
0
41
1
10
36.1967810814149
20
2.0560914446292
30
0
41
1
10
35.6138433126948
20
2.25107577569722
30
0
41
1
10
34.8956412645906
20
2.49745781413037
30
0
41
1
10
34.0163981305581
20
2.80846091447543
30
0
41
1
10
32.9675232754627
20
3.19356176186525
30
0
41
1
10
31.879554590259
20
3.6088182026007
30
0
41
1
10
31.1445405492958
20
3.90356881689127
30
0
41
1
10
30.8132085812167
20
4.03909823605375
30
0
0
SPLINE
5
109
100
AcDbEntity
8
1
62
256
6
ByLayer
370
18
48
1
60
0
100
AcDbSpline
70
4
71
2
72
6
73
3
40
0
40
0
40
0
40
1
40
1
40
1
41
1
10
20.9198161777434
20
0.0035906987999965
30
0
41
1
10
20.9198069229583
20
0.0036122437574591
30
0
41
1
10
20.9197976682154
20
0.0036339448385547
30
0
0
SPLINE
5
10A
100
AcDbEntity
8
1
62
256
6
ByLayer
370
18
48
1
60
0
100
AcDbSpline
70
4
71
2
72
6
73
3
40
0
40
0
40
0
40
1
40
1
40
1
41
1
10
59.0325717369417
20
-0.0028841969493385
30
0
41
1
10
59.0325367506605
20
-0.0028643691993011
30
0
41
1
10
59.0325017640083
20
-0.0028438674548568
30
0
0
SPLINE
5
10B
100
AcDbEntity
8
1
62
256
6
ByLayer
370
18
48
1
60
0
100
AcDbSpline
70
4
71
3
72
26
73
22
40
0
40
0
40
0
40
0
40
0.0520660346552677
40
0.0940359937700965
40
0.127420494761219
40
0.157579185739112
40
0.186038009344253
40
0.213642984137698
40
0.287723378882525
40
0.372793283512111
40
0.431562942869232
40
0.491650656485643
40
0.549762687873478
40
0.597593189706772
40
0.659569029559055
40
0.734271964764801
40
0.796205808483959
40
0.85068396101142
40
0.90927010938722
40
0.973947537509231
40
1
40
1
40
1
40
1
41
1
10
39.9801701779404
20
-6.13911476131017
30
0
41
1
10
40.2033005879902
20
-6.13898373913494
30
0
41
1
10
40.608299491787
20
-6.13918341463435
30
0
41
1
10
41.1708496460819
20
-6.13898789847656
30
0
41
1
10
41.6267610993492
20
-6.14181501049586
30
0
41
1
10
42.0239416783431
20
-6.14269247984154
30
0
41
1
10
42.402055558117
20
-6.14309364624899
30
0
41
1
10
42.9729053393598
20
-6.14381371549783
30
0
41
1
10
43.7920119840767
20
-6.14486205991003
30
0
41
1
10
44.747882342009
20
-6.14779975680761
30
0
41
1
10
45.6423582475804
20
-6.14839593201026
30
0
41
1
10
46.4185936025935
20
-6.14900192842995
30
0
41
1
10
47.1468471413415
20
-6.15016372868922
30
0
41
1
10
47.8833734657102
20
-6.15345092286802
30
0
41
1
10
48.692681389117
20
-6.15455317196307
30
0
41
1
10
49.5638486174184
20
-6.15434832908764
30
0
41
1
10
50.4021326641288
20
-6.154946425253
30
0
41
1
10
51.1697113802983
20
-6.1571782931203
30
0
41
1
10
51.949353620768
20
-6.15877792189625
30
0
41
1
10
52.6042232115571
20
-6.16103469965537
30
0
41
1
10
53.0022779193202
20
-6.16192353528808
30
0
41
1
10
53.1165268414027
20
-6.16209754188966
30
0
0
SPLINE
5
10C
100
AcDbEntity
8
1
62
256
6
ByLayer
370
18
48
1
60
0
100
AcDbSpline
70
4
71
3
72
29
73
25
40
0
40
0
40
0
40
0
40
0.0430026400096879
40
0.0779283694099325
40
0.116204115973397
40
0.153804240592351
40
0.190103779501978
40
0.222716769569732
40
0.248652154161173
40
0.287018594688945
40
0.333896679923909
40
0.374275977572903
40
0.41871400171187
40
0.485628945210415
40
0.553016823662846
40
0.611633945789207
40
0.679533032752722
40
0.732694873214411
40
0.793938450344039
40
0.859846290503276
40
0.922585486815899
40
0.961653897787967
40
0.994795607049034
40
1
40
1
40
1
40
1
41
1
10
56.3589526299723
20
6.16695740602225
30
0
41
1
10
56.1890826736774
20
6.16422209781842
30
0
41
1
10
55.8718656543894
20
6.16071326382897
30
0
41
1
10
55.3477161986361
20
6.15794229264407
30
0
41
1
10
54.8767304935549
20
6.16170595711523
30
0
41
1
10
54.3878038228399
20
6.16209386633614
30
0
41
1
10
53.9190137365797
20
6.16235434123254
30
0
41
1
10
53.5011608101925
20
6.16243126380394
30
0
41
1
10
53.0742813425137
20
6.16219729674498
30
0
41
1
10
52.584475585546
20
6.16086220464626
30
0
41
1
10
52.0315263699469
20
6.15901885016467
30
0
41
1
10
51.4511958149898
20
6.15769922310216
30
0
41
1
10
50.7835264556531
20
6.15611481570625
30
0
41
1
10
49.995936850214
20
6.15421605437396
30
0
41
1
10
49.1462133839493
20
6.15460930396637
30
0
41
1
10
48.2920607092116
20
6.15429696667536
30
0
41
1
10
47.5006029924625
20
6.15169922473888
30
0
41
1
10
46.6975674118674
20
6.14913734765787
30
0
41
1
10
45.903300031873
20
6.14864657179106
30
0
41
1
10
45.0668510828138
20
6.14800414394912
30
0
41
1
10
44.3280608236088
20
6.14675707854948
30
0
41
1
10
43.7336601705725
20
6.14492882088288
30
0
41
1
10
43.3926025967206
20
6.14440904933744
30
0
41
1
10
43.2239667058951
20
6.14413066572979
30
0
41
1
10
43.2010818419286
20
6.14409286204719
30
0
0
LINE
5
82
100
AcDbEntity
8
4
62
256
6
ByLayer
370
18
48
0.05
60
0
100
AcDbLine
10
0
20
0
30
0
11
79
21
0
31
0
39
0
210
0
220
0
230
1
0
LINE
5
84
100
AcDbEntity
8
81
62
256
6
ByLayer
370
18
48
1
60
0
100
AcDbLine
10
79
20
0
30
0
11
82
21
0
31
0
39
0
210
0
220
0
230
1
0
LINE
5
85
100
AcDbEntity
8
80
62
256
6
ByLayer
370
18
48
1
60
0
100
AcDbLine
10
0
20
0
30
0
11
-3
21
0
31
0
39
0
210
0
220
0
230
1
0
LINE
5
86
100
AcDbEntity
8
SK4
62
256
6
ByLayer
370
18
48
0.05
60
0
100
AcDbLine
10
-48
20
0
30
0
11
82
21
0
31
0
39
0
210
0
220
0
230
1
0
LINE
5
88
100
AcDbEntity
8
1
62
256
6
ByLayer
370
18
48
1
60
0
100
AcDbLine
10
0
20
7
30
0
11
0
21
-7
31
0
39
0
210
0
220
0
230
1
0
LINE
5
89
100
AcDbEntity
8
1
62
256
6
ByLayer
370
13
48
1
60
0
100
AcDbLine
10
78.85749
20
0.661539
30
0
11
77.530244
21
1.993805
31
0
39
0
210
0
220
0
230
1
0
LINE
5
8A
100
AcDbEntity
8
1
62
256
6
ByLayer
370
13
48
1
60
0
100
AcDbLine
10
0.656487
20
-6.657192
30
0
11
0.656487
21
6.657192
31
0
39
0
210
0
220
0
230
1
0
LINE
5
8B
100
AcDbEntity
8
1
62
256
6
ByLayer
370
18
48
1
60
0
100
AcDbLine
10
20.000395
20
0.544679
30
0
11
20.000395
21
6.256655
31
0
39
0
210
0
220
0
230
1
0
LINE
5
8C
100
AcDbEntity
8
1
62
256
6
ByLayer
370
18
48
1
60
0
100
AcDbLine
10
20.000395
20
-0.306802
30
0
11
20.000395
21
-0.408926
31
0
39
0
210
0
220
0
230
1
0
LINE
5
8D
100
AcDbEntity
8
1
62
256
6
ByLayer
370
13
48
1
60
0
100
AcDbLine
10
1.314414
20
-6.314386
30
0
11
1.314414
21
6.314386
31
0
39
0
210
0
220
0
230
1
0
LINE
5
8E
100
AcDbEntity
8
SK1
62
256
6
ByLayer
370
18
48
1
60
0
100
AcDbLine
10
-45
20
-1.11184
30
0
11
-45
21
-1.387172
31
0
39
0
210
0
220
0
230
1
0
LINE
5
90
100
AcDbEntity
8
SK1
62
256
6
ByLayer
370
13
48
1
60
0
100
AcDbLine
10
-44
20
-1.416025
30
0
11
-44
21
-1.082987
31
0
39
0
210
0
220
0
230
1
0
LINE
5
91
100
AcDbEntity
8
SK1
62
256
6
ByLayer
370
18
48
1
60
0
100
AcDbLine
10
-43.9
20
-1.319495
30
0
11
-43.9
21
0.979596
31
0
39
0
210
0
220
0
230
1
0
LINE
5
92
100
AcDbEntity
8
SK1
62
256
6
ByLayer
370
18
48
1
60
0
100
AcDbLine
10
-45
20
-5.055
30
0
11
-45
21
-1.387172
31
0
39
0
210
0
220
0
230
1
0
LINE
5
93
100
AcDbEntity
8
SK1
62
256
6
ByLayer
370
18
48
1
60
0
100
AcDbLine
10
-45
20
5.055
30
0
11
-45
21
1.11184
31
0
39
0
210
0
220
0
230
1
0
LINE
5
94
100
AcDbEntity
8
SK1
62
256
6
ByLayer
370
18
48
1
60
0
100
AcDbLine
10
0
20
7
30
0
11
0
21
-7
31
0
39
0
210
0
220
0
230
1
0
LINE
5
95
100
AcDbEntity
8
SK1
62
256
6
ByLayer
370
18
48
1
60
0
100
AcDbLine
10
-43.055
20
-7
30
0
11
-43.055
21
7
31
0
39
0
210
0
220
0
230
1
0
LINE
5
96
100
AcDbEntity
8
1
62
256
6
ByLayer
370
18
48
1
60
0
100
AcDbLine
10
1.314414
20
-6.314386
30
0
11
20.120403
21
-6.348237
31
0
39
0
210
0
220
0
230
1
0
LINE
5
97
100
AcDbEntity
8
1
62
256
6
ByLayer
370
18
48
1
60
0
100
AcDbLine
10
38.480814
20
-6.381286
30
0
11
39.977016
21
-6.383979
31
0
39
0
210
0
220
0
230
1
0
LINE
5
98
100
AcDbEntity
8
1
62
256
6
ByLayer
370
18
48
1
60
0
100
AcDbLine
10
56.358379
20
-6.413465
30
0
11
58.112155
21
-6.416622
31
0
39
0
210
0
220
0
230
1
0
LINE
5
99
100
AcDbEntity
8
1
62
256
6
ByLayer
370
18
48
1
60
0
100
AcDbLine
10
58.112155
20
6.416622
30
0
11
56.358379
21
6.413465
31
0
39
0
210
0
220
0
230
1
0
LINE
5
9A
100
AcDbEntity
8
1
62
256
6
ByLayer
370
18
48
1
60
0
100
AcDbLine
10
39.977016
20
6.383979
30
0
11
38.480814
21
6.381286
31
0
39
0
210
0
220
0
230
1
0
LINE
5
9B
100
AcDbEntity
8
1
62
256
6
ByLayer
370
18
48
1
60
0
100
AcDbLine
10
20.120403
20
6.348237
30
0
11
1.314414
21
6.314386
31
0
39
0
210
0
220
0
230
1
0
LINE
5
9C
100
AcDbEntity
8
SK1
62
256
6
ByLayer
370
18
48
1
60
0
100
AcDbLine
10
-45
20
-5.055
30
0
11
-43.055
21
-7
31
0
39
0
210
0
220
0
230
1
0
LINE
5
9D
100
AcDbEntity
8
SK1
62
256
6
ByLayer
370
18
48
1
60
0
100
AcDbLine
10
-43.055
20
7
30
0
11
-45
21
5.055
31
0
39
0
210
0
220
0
230
1
0
LINE
5
9E
100
AcDbEntity
8
SK1
62
256
6
ByLayer
370
18
48
1
60
0
100
AcDbLine
10
-43.055
20
-7
30
0
11
0
21
-7
31
0
39
0
210
0
220
0
230
1
0
LINE
5
9F
100
AcDbEntity
8
SK1
62
256
6
ByLayer
370
18
48
1
60
0
100
AcDbLine
10
0
20
7
30
0
11
-43.055
21
7
31
0
39
0
210
0
220
0
230
1
0
LINE
5
A0
100
AcDbEntity
8
2
62
256
6
ByLayer
370
13
48
1
60
0
100
AcDbLine
10
86.5
20
-6.45
30
0
11
86.5
21
32.241027
31
0
39
0
210
0
220
0
230
1
0
LINE
5
A2
100
AcDbEntity
8
2
62
256
6
ByLayer
370
13
48
1
60
0
100
AcDbLine
10
80.5875
20
6.45
30
0
11
88.5
21
6.45
31
0
39
0
210
0
220
0
230
1
0
LINE
5
A3
100
AcDbEntity
8
2
62
256
6
ByLayer
370
13
48
1
60
0
100
AcDbLine
10
80.5875
20
-6.45
30
0
11
88.5
21
-6.45
31
0
39
0
210
0
220
0
230
1
0
LINE
5
A4
100
AcDbEntity
8
1
62
256
6
ByLayer
370
18
48
1
60
1
100
AcDbLine
10
86.5
20
6.45
30
0
11
86.960784
21
2.950002
31
0
39
0
210
0
220
0
230
1
0
LINE
5
A5
100
AcDbEntity
8
1
62
256
6
ByLayer
370
18
48
1
60
1
100
AcDbLine
10
86.960784
20
2.950002
30
0
11
86.039216
21
2.949998
31
0
39
0
210
0
220
0
230
1
0
LINE
5
A6
100
AcDbEntity
8
1
62
256
6
ByLayer
370
18
48
1
60
1
100
AcDbLine
10
86.039216
20
2.949998
30
0
11
86.5
21
6.45
31
0
39
0
210
0
220
0
230
1
0
LINE
5
A7
100
AcDbEntity
8
1
62
256
6
ByLayer
370
18
48
1
60
1
100
AcDbLine
10
86.5
20
-6.45
30
0
11
86.039216
21
-2.950002
31
0
39
0
210
0
220
0
230
1
0
LINE
5
A8
100
AcDbEntity
8
1
62
256
6
ByLayer
370
18
48
1
60
1
100
AcDbLine
10
86.039216
20
-2.950002
30
0
11
86.960784
21
-2.949998
31
0
39
0
210
0
220
0
230
1
0
LINE
5
A9
100
AcDbEntity
8
1
62
256
6
ByLayer
370
18
48
1
60
1
100
AcDbLine
10
86.960784
20
-2.949998
30
0
11
86.5
21
-6.45
31
0
39
0
210
0
220
0
230
1
0
LINE
5
AA
100
AcDbEntity
8
SK2
62
256
6
ByLayer
370
13
48
1
60
0
100
AcDbLine
10
-53.5
20
-7
30
0
11
-53.5
21
15.649657
31
0
39
0
210
0
220
0
230
1
0
LINE
5
AC
100
AcDbEntity
8
SK2
62
256
6
ByLayer
370
13
48
1
60
0
100
AcDbLine
10
-46.5875
20
7
30
0
11
-55.5
21
7
31
0
39
0
210
0
220
0
230
1
0
LINE
5
AD
100
AcDbEntity
8
SK2
62
256
6
ByLayer
370
13
48
1
60
0
100
AcDbLine
10
-46.5875
20
-7
30
0
11
-55.5
21
-7
31
0
39
0
210
0
220
0
230
1
0
LINE
5
AE
100
AcDbEntity
8
1
62
256
6
ByLayer
370
18
48
1
60
1
100
AcDbLine
10
-53.5
20
7
30
0
11
-53.039216
21
3.500002
31
0
39
0
210
0
220
0
230
1
0
LINE
5
AF
100
AcDbEntity
8
1
62
256
6
ByLayer
370
18
48
1
60
1
100
AcDbLine
10
-53.039216
20
3.500002
30
0
11
-53.960784
21
3.499998
31
0
39
0
210
0
220
0
230
1
0
LINE
5
B0
100
AcDbEntity
8
1
62
256
6
ByLayer
370
18
48
1
60
1
100
AcDbLine
10
-53.960784
20
3.499998
30
0
11
-53.5
21
7
31
0
39
0
210
0
220
0
230
1
0
LINE
5
B1
100
AcDbEntity
8
1
62
256
6
ByLayer
370
18
48
1
60
1
100
AcDbLine
10
-53.5
20
-7
30
0
11
-53.960784
21
-3.500002
31
0
39
0
210
0
220
0
230
1
0
LINE
5
B2
100
AcDbEntity
8
1
62
256
6
ByLayer
370
18
48
1
60
1
100
AcDbLine
10
-53.960784
20
-3.500002
30
0
11
-53.039216
21
-3.499998
31
0
39
0
210
0
220
0
230
1
0
LINE
5
B3
100
AcDbEntity
8
1
62
256
6
ByLayer
370
18
48
1
60
1
100
AcDbLine
10
-53.039216
20
-3.499998
30
0
11
-53.5
21
-7
31
0
39
0
210
0
220
0
230
1
0
LINE
5
B4
100
AcDbEntity
8
SK2
62
256
6
ByLayer
370
13
48
1
60
0
100
AcDbLine
10
79.543037
20
1.491733
30
0
11
87.715739
21
23.942298
31
0
39
0
210
0
220
0
230
1
0
LINE
5
B5
100
AcDbEntity
8
SK2
62
256
6
ByLayer
370
13
48
1
60
0
100
AcDbLine
10
79.543037
20
-1.491733
30
0
11
87.715739
21
-23.942298
31
0
39
0
210
0
220
0
230
1
0
LINE
5
B6
100
AcDbEntity
8
1
62
256
6
ByLayer
370
18
48
1
60
1
100
AcDbLine
10
87.031598
20
22.06295
30
0
11
90.44727
21
21.171046
31
0
39
0
210
0
220
0
230
1
0
LINE
5
B7
100
AcDbEntity
8
1
62
256
6
ByLayer
370
18
48
1
60
1
100
AcDbLine
10
90.44727
20
21.171046
30
0
11
90.100045
21
20.317394
31
0
39
0
210
0
220
0
230
1
0
LINE
5
B8
100
AcDbEntity
8
1
62
256
6
ByLayer
370
18
48
1
60
1
100
AcDbLine
10
90.100045
20
20.317394
30
0
11
87.031598
21
22.06295
31
0
39
0
210
0
220
0
230
1
0
LINE
5
B9
100
AcDbEntity
8
1
62
256
6
ByLayer
370
18
48
1
60
1
100
AcDbLine
10
87.031598
20
-22.06295
30
0
11
90.100042
21
-20.317395
31
0
39
0
210
0
220
0
230
1
0
LINE
5
BA
100
AcDbEntity
8
1
62
256
6
ByLayer
370
18
48
1
60
1
100
AcDbLine
10
90.100042
20
-20.317395
30
0
11
90.447273
21
-21.171045
31
0
39
0
210
0
220
0
230
1
0
LINE
5
BB
100
AcDbEntity
8
1
62
256
6
ByLayer
370
18
48
1
60
1
100
AcDbLine
10
90.447273
20
-21.171045
30
0
11
87.031598
21
-22.06295
31
0
39
0
210
0
220
0
230
1
0
LINE
5
10D
100
AcDbEntity
8
1
62
256
6
ByLayer
370
13
48
0.05
60
0
100
AcDbLine
10
-51.5
20
0
30
0
11
83.167209
21
0
31
0
39
0
210
0
220
0
230
1
0
LINE
5
112
100
AcDbEntity
8
1
62
256
6
ByLayer
370
18
48
1
60
1
100
AcDbLine
10
86.5
20
6.45
30
0
11
86.960784
21
2.950002
31
0
39
0
210
0
220
0
230
1
0
LINE
5
113
100
AcDbEntity
8
1
62
256
6
ByLayer
370
18
48
1
60
1
100
AcDbLine
10
86.960784
20
2.950002
30
0
11
86.039216
21
2.949998
31
0
39
0
210
0
220
0
230
1
0
LINE
5
114
100
AcDbEntity
8
1
62
256
6
ByLayer
370
18
48
1
60
1
100
AcDbLine
10
86.039216
20
2.949998
30
0
11
86.5
21
6.45
31
0
39
0
210
0
220
0
230
1
0
LINE
5
116
100
AcDbEntity
8
1
62
256
6
ByLayer
370
18
48
1
60
1
100
AcDbLine
10
86.5
20
-6.45
30
0
11
86.039216
21
-2.950002
31
0
39
0
210
0
220
0
230
1
0
LINE
5
117
100
AcDbEntity
8
1
62
256
6
ByLayer
370
18
48
1
60
1
100
AcDbLine
10
86.039216
20
-2.950002
30
0
11
86.960784
21
-2.949998
31
0
39
0
210
0
220
0
230
1
0
LINE
5
118
100
AcDbEntity
8
1
62
256
6
ByLayer
370
18
48
1
60
1
100
AcDbLine
10
86.960784
20
-2.949998
30
0
11
86.5
21
-6.45
31
0
39
0
210
0
220
0
230
1
0
LINE
5
11C
100
AcDbEntity
8
1
62
256
6
ByLayer
370
18
48
1
60
1
100
AcDbLine
10
-53.5
20
7
30
0
11
-53.039216
21
3.500002
31
0
39
0
210
0
220
0
230
1
0
LINE
5
11D
100
AcDbEntity
8
1
62
256
6
ByLayer
370
18
48
1
60
1
100
AcDbLine
10
-53.039216
20
3.500002
30
0
11
-53.960784
21
3.499998
31
0
39
0
210
0
220
0
230
1
0
LINE
5
11E
100
AcDbEntity
8
1
62
256
6
ByLayer
370
18
48
1
60
1
100
AcDbLine
10
-53.960784
20
3.499998
30
0
11
-53.5
21
7
31
0
39
0
210
0
220
0
230
1
0
LINE
5
120
100
AcDbEntity
8
1
62
256
6
ByLayer
370
18
48
1
60
1
100
AcDbLine
10
-53.5
20
-7
30
0
11
-53.960784
21
-3.500002
31
0
39
0
210
0
220
0
230
1
0
LINE
5
121
100
AcDbEntity
8
1
62
256
6
ByLayer
370
18
48
1
60
1
100
AcDbLine
10
-53.960784
20
-3.500002
30
0
11
-53.039216
21
-3.499998
31
0
39
0
210
0
220
0
230
1
0
LINE
5
122
100
AcDbEntity
8
1
62
256
6
ByLayer
370
18
48
1
60
1
100
AcDbLine
10
-53.039216
20
-3.499998
30
0
11
-53.5
21
-7
31
0
39
0
210
0
220
0
230
1
0
LINE
5
125
100
AcDbEntity
8
1
62
256
6
ByLayer
370
18
48
1
60
1
100
AcDbLine
10
87.031598
20
22.06295
30
0
11
90.44727
21
21.171046
31
0
39
0
210
0
220
0
230
1
0
LINE
5
126
100
AcDbEntity
8
1
62
256
6
ByLayer
370
18
48
1
60
1
100
AcDbLine
10
90.44727
20
21.171046
30
0
11
90.100045
21
20.317394
31
0
39
0
210
0
220
0
230
1
0
LINE
5
127
100
AcDbEntity
8
1
62
256
6
ByLayer
370
18
48
1
60
1
100
AcDbLine
10
90.100045
20
20.317394
30
0
11
87.031598
21
22.06295
31
0
39
0
210
0
220
0
230
1
0
LINE
5
129
100
AcDbEntity
8
1
62
256
6
ByLayer
370
18
48
1
60
1
100
AcDbLine
10
87.031598
20
-22.06295
30
0
11
90.100042
21
-20.317395
31
0
39
0
210
0
220
0
230
1
0
LINE
5
12A
100
AcDbEntity
8
1
62
256
6
ByLayer
370
18
48
1
60
1
100
AcDbLine
10
90.100042
20
-20.317395
30
0
11
90.447273
21
-21.171045
31
0
39
0
210
0
220
0
230
1
0
LINE
5
12B
100
AcDbEntity
8
1
62
256
6
ByLayer
370
18
48
1
60
1
100
AcDbLine
10
90.447273
20
-21.171045
30
0
11
87.031598
21
-22.06295
31
0
39
0
210
0
220
0
230
1
0
MTEXT
5
10E
100
AcDbEntity
8
2
62
256
6
ByLayer
370
18
48
1
60
0
100
AcDbMText
10
85.158886
20
20.108437
30
0
210
0
220
0
230
1
1
%%c
40
3
41
0
44
1.084337
50
90
71
7
72
5
7
iso_b_vert
0
MTEXT
5
111
100
AcDbEntity
8
2
62
256
6
ByLayer
370
18
48
1
60
0
100
AcDbMText
10
85.158886
20
26.085
30
0
210
0
220
0
230
1
1
\W0.6662;12.9
40
3
41
0
44
1.084337
50
90
71
7
72
5
7
iso_b_vert
0
MTEXT
5
11A
100
AcDbEntity
8
SK2
62
256
6
ByLayer
370
18
48
1
60
0
100
AcDbMText
10
-54.841114
20
6.658437
30
0
210
0
220
0
230
1
1
%%c
40
3
41
0
44
1.084337
50
90
71
7
72
5
7
iso_b_vert
0
MTEXT
5
11B
100
AcDbEntity
8
SK2
62
256
6
ByLayer
370
18
48
1
60
0
100
AcDbMText
10
-54.841114
20
12.635
30
0
210
0
220
0
230
1
1
\W0.5785;14
40
3
41
0
44
1.084337
50
90
71
7
72
5
7
iso_b_vert
0
MTEXT
5
124
100
AcDbEntity
8
SK2
62
256
6
ByLayer
370
18
48
1
60
0
100
AcDbMText
10
99.038703
20
-2.114886
30
0
210
0
220
0
230
1
1
\W0.7071;140%%d
40
3
41
0
44
1.084337
50
0
71
7
72
5
7
iso_b_vert
0
MTEXT
5
12D
100
AcDbEntity
8
SK6
62
256
6
ByLayer
370
18
48
1
60
0
100
AcDbMText
10
-5.176145
20
-77.114886
30
0
210
0
220
0
230
1
1
\W0.7415;860.1-1290-059A1-SD S2BM
40
3
41
0
44
1.084337
50
0
71
7
72
5
7
iso_b_vert
0
HATCH
5
115
100
AcDbEntity
8
2
62
256
6
ByLayer
370
13
48
1
60
0
100
AcDbHatch
10
0
20
0
30
0
210
0
220
0
230
1
2
ANSI31
70
0
71
0
91
1
92
5
93
3
72
1
10
86.5
20
6.44999999999999
11
86.9607837415528
21
2.95000169255317
72
1
10
86.9607837415528
20
2.95000169255317
11
86.0392162584472
21
2.9499983074468
72
1
10
86.0392162584472
20
2.9499983074468
11
86.5
21
6.44999999999999
97
0
75
0
76
1
52
0
41
0.0062
77
0
78
1
53
45
43
0
44
0
45
-0.0139193969876572
46
0.0139193969876572
79
0
47
0
98
1
10
0
20
0
0
HATCH
5
119
100
AcDbEntity
8
2
62
256
6
ByLayer
370
13
48
1
60
0
100
AcDbHatch
10
0
20
0
30
0
210
0
220
0
230
1
2
ANSI31
70
0
71
0
91
1
92
5
93
3
72
1
10
86.5
20
-6.45000000000002
11
86.0392162584472
21
-2.9500016925532
72
1
10
86.0392162584472
20
-2.9500016925532
11
86.9607837415528
21
-2.94999830744683
72
1
10
86.9607837415528
20
-2.94999830744683
11
86.5
21
-6.45000000000002
97
0
75
0
76
1
52
0
41
0.0062
77
0
78
1
53
45
43
0
44
0
45
-0.0139193969876572
46
0.0139193969876572
79
0
47
0
98
1
10
0
20
0
0
HATCH
5
11F
100
AcDbEntity
8
SK2
62
256
6
ByLayer
370
13
48
1
60
0
100
AcDbHatch
10
0
20
0
30
0
210
0
220
0
230
1
2
ANSI31
70
0
71
0
91
1
92
5
93
3
72
1
10
-53.5
20
7
11
-53.0392162584472
21
3.50000169255318
72
1
10
-53.0392162584472
20
3.50000169255318
11
-53.9607837415528
21
3.49999830744682
72
1
10
-53.9607837415528
20
3.49999830744682
11
-53.5
21
7
97
0
75
0
76
1
52
0
41
0.0062
77
0
78
1
53
45
43
0
44
0
45
-0.0139193969876572
46
0.0139193969876572
79
0
47
0
98
1
10
0
20
0
0
HATCH
5
123
100
AcDbEntity
8
SK2
62
256
6
ByLayer
370
13
48
1
60
0
100
AcDbHatch
10
0
20
0
30
0
210
0
220
0
230
1
2
ANSI31
70
0
71
0
91
1
92
5
93
3
72
1
10
-53.5
20
-7
11
-53.9607837415528
21
-3.50000169255318
72
1
10
-53.9607837415528
20
-3.50000169255318
11
-53.0392162584472
21
-3.49999830744682
72
1
10
-53.0392162584472
20
-3.49999830744682
11
-53.5
21
-7
97
0
75
0
76
1
52
0
41
0.0062
77
0
78
1
53
45
43
0
44
0
45
-0.0139193969876572
46
0.0139193969876572
79
0
47
0
98
1
10
0
20
0
0
HATCH
5
128
100
AcDbEntity
8
SK2
62
256
6
ByLayer
370
13
48
1
60
0
100
AcDbHatch
10
0
20
0
30
0
210
0
220
0
230
1
2
ANSI31
70
0
71
0
91
1
92
5
93
3
72
1
10
87.0315978040721
20
22.0629496747283
11
90.4472701676717
21
21.1710460290622
72
1
10
90.4472701676717
20
21.1710460290622
11
90.1000452214805
21
20.3173941898025
72
1
10
90.1000452214805
20
20.3173941898025
11
87.0315978040721
21
22.0629496747283
97
0
75
0
76
1
52
0
41
0.0062
77
0
78
1
53
45
43
0
44
0
45
-0.0139193969876572
46
0.0139193969876572
79
0
47
0
98
1
10
0
20
0
0
HATCH
5
12C
100
AcDbEntity
8
SK2
62
256
6
ByLayer
370
13
48
1
60
0
100
AcDbHatch
10
0
20
0
30
0
210
0
220
0
230
1
2
ANSI31
70
0
71
0
91
1
92
5
93
3
72
1
10
87.0315978040721
20
-22.0629496747283
11
90.1000420858469
21
-20.3173954652424
72
1
10
90.1000420858469
20
-20.3173954652424
11
90.4472733033052
21
-21.1710447536223
72
1
10
90.4472733033052
20
-21.1710447536223
11
87.0315978040721
21
-22.0629496747283
97
0
75
0
76
1
52
0
41
0.0062
77
0
78
1
53
45
43
0
44
0
45
-0.0139193969876572
46
0.0139193969876572
79
0
47
0
98
1
10
0
20
0
0
DIMENSION
5
130
100
AcDbEntity
8
SK2
62
256
6
ByLayer
370
18
48
1
60
0
100
AcDbDimension
2
_U0
10
20
20
-26.981979
30
0
11
49.5
21
-26.981979
31
0
70
32
71
1
72
1
41
1
210
0
220
0
230
1
3
Standard
100
AcDbAlignedDimension
13
79
23
-6.45
33
0
14
20
24
-6.45
34
0
50
0
100
AcDbRotatedDimension
1001
ACAD
1000
DSTYLE
1002
{
1070
   371
1070
    13
1070
   372
1070
    13
1070
   170
1070
     0
1070
   144
1040
1.0
1070
   277
1070
     2
1070
   284
1070
     8
1070
   278
1070
    46
1070
   146
1040
1.166667
1070
   345
1005
16
1070
   347
1005
16
1070
   346
1005
16
1070
   344
1005
0
1070
   343
1005
0
1070
   172
1070
     1
1070
    76
1070
     0
1070
    75
1070
     0
1070
   282
1070
     0
1070
   281
1070
     0
1070
     3
1000

1070
    71
1070
     0
1070
    74
1070
     0
1070
   279
1070
     0
1070
   173
1070
     1
1070
   340
1005
10F
1070
   271
1070
     2
1070
   272
1070
     2
1070
    77
1070
     1
1070
    73
1070
     1
1070
   171
1070
     3
1070
   274
1070
     4
1070
   177
1070
     2
1070
   176
1070
     2
1070
   178
1070
     2
1070
    78
1070
     8
1070
    48
1040
-0.1
1070
    41
1040
3.5
1070
   147
1040
1.5
1070
    42
1040
1.5875
1070
    44
1040
2.0
1070
   140
1040
3.0
1002
}
1001
ACAD_DSTYLE_DIM_LINETYPE
1070
   380
1005
16
1001
ACAD_DSTYLE_DIM_EXT1_LINETYPE
1070
   381
1005
16
1001
ACAD_DSTYLE_DIM_EXT2_LINETYPE
1070
   382
1005
16
0
DIMENSION
5
14B
100
AcDbEntity
8
SK2
62
256
6
ByLayer
370
18
48
1
60
0
100
AcDbDimension
2
_U1
10
2
20
-36.981979
30
0
11
40.5
21
-36.981979
31
0
70
32
71
1
72
1
41
1
210
0
220
0
230
1
3
Standard
100
AcDbAlignedDimension
13
79
23
-6.45
33
0
14
2
24
-6.45
34
0
50
0
100
AcDbRotatedDimension
1001
ACAD
1000
DSTYLE
1002
{
1070
   371
1070
    13
1070
   372
1070
    13
1070
     3
1000

1070
   170
1070
     0
1070
   144
1040
1.0
1070
   277
1070
     2
1070
   284
1070
     8
1070
   278
1070
    46
1070
   146
1040
1.166667
1070
   345
1005
16
1070
   347
1005
16
1070
   346
1005
16
1070
   344
1005
0
1070
   343
1005
0
1070
   172
1070
     1
1070
    76
1070
     0
1070
    75
1070
     0
1070
   282
1070
     0
1070
   281
1070
     0
1070
    71
1070
     0
1070
    74
1070
     0
1070
   279
1070
     0
1070
   173
1070
     1
1070
   340
1005
10F
1070
   271
1070
     2
1070
   272
1070
     2
1070
    77
1070
     1
1070
    73
1070
     1
1070
   171
1070
     3
1070
   274
1070
     4
1070
   177
1070
     2
1070
   176
1070
     2
1070
   178
1070
     2
1070
    78
1070
     8
1070
    48
1040
-0.1
1070
    41
1040
3.5
1070
   147
1040
1.5
1070
    42
1040
1.5875
1070
    44
1040
2.0
1070
   140
1040
3.0
1002
}
1001
ACAD_DSTYLE_DIM_LINETYPE
1070
   380
1005
16
1001
ACAD_DSTYLE_DIM_EXT1_LINETYPE
1070
   381
1005
16
1001
ACAD_DSTYLE_DIM_EXT2_LINETYPE
1070
   382
1005
16
0
DIMENSION
5
163
100
AcDbEntity
8
SK2
62
256
6
ByLayer
370
18
48
1
60
0
100
AcDbDimension
2
_U2
10
0
20
-44.981979
30
0
11
-22.5
21
-44.981979
31
0
70
32
71
1
72
1
41
1
210
0
220
0
230
1
3
Standard
100
AcDbAlignedDimension
13
-45
23
-7
33
0
14
0
24
-7
34
0
50
0
100
AcDbRotatedDimension
1001
ACAD
1000
DSTYLE
1002
{
1070
   371
1070
    13
1070
   372
1070
    13
1070
     3
1000

1070
   170
1070
     0
1070
   144
1040
1.0
1070
   277
1070
     2
1070
   284
1070
     8
1070
   278
1070
    46
1070
   146
1040
1.166667
1070
   345
1005
16
1070
   347
1005
16
1070
   346
1005
16
1070
   344
1005
0
1070
   343
1005
0
1070
   172
1070
     1
1070
    76
1070
     0
1070
    75
1070
     0
1070
   282
1070
     0
1070
   281
1070
     0
1070
    71
1070
     0
1070
    74
1070
     0
1070
   279
1070
     0
1070
   173
1070
     1
1070
   340
1005
10F
1070
   271
1070
     2
1070
   272
1070
     2
1070
    77
1070
     1
1070
    73
1070
     1
1070
   171
1070
     3
1070
   274
1070
     4
1070
   177
1070
     2
1070
   176
1070
     2
1070
   178
1070
     2
1070
    78
1070
     8
1070
    48
1040
-0.1
1070
    41
1040
3.5
1070
   147
1040
1.5
1070
    42
1040
1.5875
1070
    44
1040
2.0
1070
   140
1040
3.0
1002
}
1001
ACAD_DSTYLE_DIM_LINETYPE
1070
   380
1005
16
1001
ACAD_DSTYLE_DIM_EXT1_LINETYPE
1070
   381
1005
16
1001
ACAD_DSTYLE_DIM_EXT2_LINETYPE
1070
   382
1005
16
0
DIMENSION
5
17B
100
AcDbEntity
8
SK2
62
256
6
ByLayer
370
18
48
1
60
0
100
AcDbDimension
2
_U3
10
79
20
-52.981979
30
0
11
17
21
-52.981979
31
0
70
32
71
1
72
1
41
1
210
0
220
0
230
1
3
Standard
100
AcDbAlignedDimension
13
-45
23
-7
33
0
14
79
24
-6.45
34
0
50
0
100
AcDbRotatedDimension
1001
ACAD
1000
DSTYLE
1002
{
1070
   371
1070
    13
1070
   372
1070
    13
1070
     3
1000

1070
   170
1070
     0
1070
   144
1040
1.0
1070
   277
1070
     2
1070
   284
1070
     8
1070
   278
1070
    46
1070
   146
1040
1.166667
1070
   345
1005
16
1070
   347
1005
16
1070
   346
1005
16
1070
   344
1005
0
1070
   343
1005
0
1070
   172
1070
     1
1070
    76
1070
     0
1070
    75
1070
     0
1070
   282
1070
     0
1070
   281
1070
     0
1070
    71
1070
     0
1070
    74
1070
     0
1070
   279
1070
     0
1070
   173
1070
     1
1070
   340
1005
10F
1070
   271
1070
     2
1070
   272
1070
     2
1070
    77
1070
     1
1070
    73
1070
     1
1070
   171
1070
     3
1070
   274
1070
     4
1070
   177
1070
     2
1070
   176
1070
     2
1070
   178
1070
     2
1070
    78
1070
     8
1070
    48
1040
-0.1
1070
    41
1040
3.5
1070
   147
1040
1.5
1070
    42
1040
1.5875
1070
    44
1040
2.0
1070
   140
1040
3.0
1002
}
1001
ACAD_DSTYLE_DIM_LINETYPE
1070
   380
1005
16
1001
ACAD_DSTYLE_DIM_EXT1_LINETYPE
1070
   381
1005
16
1001
ACAD_DSTYLE_DIM_EXT2_LINETYPE
1070
   382
1005
16
0
DIMENSION
5
193
100
AcDbEntity
8
2
62
256
6
ByLayer
370
18
48
1
60
0
100
AcDbDimension
2
_U4
10
0
20
-44.981979
30
0
11
39.5
21
-44.981979
31
0
70
32
71
1
72
1
41
1
210
0
220
0
230
1
3
Standard
100
AcDbAlignedDimension
13
79
23
-6.45
33
0
14
0
24
-6.45
34
0
50
0
100
AcDbRotatedDimension
1001
ACAD
1000
DSTYLE
1002
{
1070
   371
1070
    13
1070
   372
1070
    13
1070
     3
1000

1070
   170
1070
     0
1070
   144
1040
1.0
1070
   277
1070
     2
1070
   284
1070
     8
1070
   278
1070
    46
1070
   146
1040
1.166667
1070
   345
1005
16
1070
   347
1005
16
1070
   346
1005
16
1070
   344
1005
0
1070
   343
1005
0
1070
   172
1070
     1
1070
    76
1070
     0
1070
    75
1070
     0
1070
   282
1070
     0
1070
   281
1070
     0
1070
    71
1070
     0
1070
    74
1070
     0
1070
   279
1070
     0
1070
   173
1070
     1
1070
   340
1005
10F
1070
   271
1070
     2
1070
   272
1070
     2
1070
    77
1070
     1
1070
    73
1070
     1
1070
   171
1070
     3
1070
   274
1070
     4
1070
   177
1070
     2
1070
   176
1070
     2
1070
   178
1070
     2
1070
    78
1070
     8
1070
    48
1040
-0.1
1070
    41
1040
3.5
1070
   147
1040
1.5
1070
    42
1040
1.5875
1070
    44
1040
2.0
1070
   140
1040
3.0
1002
}
1001
ACAD_DSTYLE_DIM_LINETYPE
1070
   380
1005
16
1001
ACAD_DSTYLE_DIM_EXT1_LINETYPE
1070
   381
1005
16
1001
ACAD_DSTYLE_DIM_EXT2_LINETYPE
1070
   382
1005
16
0
ENDSEC
0
SECTION
2
OBJECTS
0
DICTIONARY
5
21b
330
0
100
AcDbDictionary
280
0
281
1
3
ACAD_GROUP
350
21c
3
ACAD_MLINESTYLE
350
21d
0
DICTIONARY
5
21c
330
0
100
AcDbDictionary
280
0
281
1
0
DICTIONARY
5
21d
330
0
100
AcDbDictionary
280
0
281
1
3
Standard
350
18
0
MLINESTYLE
5
18
330
21d
100
AcDbMlineStyle
2
Standard
70
0
3

62
256
51
90
52
90
71
2
49
-0.5
62
256
6
ByLayer
49
0.5
62
256
6
ByLayer
0
RASTERVARIABLES
5
209
330

100
AcDbRasterVariables
90
0
70
1
71
1
72
1
0
ENDSEC
0
EOF
