0
SECTION
2
HEADER
9
$ACADVER
1
AC1015
9
$DWGCODEPAGE
3
ANSI_1252
9
$HANDSEED
5
237
9
$ANGBASE
50
0
9
$ANGDIR
70
0
9
$ATTMODE
70
1
9
$AUNITS
70
0
9
$AUPREC
70
0
9
$CECOLOR
62
256
9
$CELTSCALE
40
1
9
$CELTYPE
6
ByLayer
9
$CELWEIGHT
370
18
9
$CLAYER
8
0
9
$CMLJUST
70
0
9
$CMLSCALE
40
1
9
$CMLSTYLE
2
Standard
9
$DIMSTYLE
2
Standard
9
$TEXTSIZE
40
0.2
9
$TEXTSTYLE
7
Standard
9
$LUNITS
70
2
9
$LUPREC
70
4
9
$EXTNAMES
290
1
9
$INSUNITS
70
4
9
$LTSCALE
40
1
9
$LWDISPLAY
290
1
9
$PDMODE
70
0
9
$PDSIZE
40
0
9
$PLINEGEN
70
0
0
ENDSEC
0
SECTION
2
CLASSES
0
CLASS
1
RASTERVARIABLES
2
AcDbRasterVariables
3
ISM
90
0
280
0
281
0
0
ENDSEC
0
SECTION
2
TABLES
0
TABLE
2
VPORT
5
22d
100
AcDbSymbolTable
0
VPORT
5
1
100
AcDbSymbolTableRecord
100
AcDbViewportTableRecord
2
*Active
70
0
10
0
20
0
11
1
21
1
12
-1
22
1
13
0
23
0
14
0.5
24
0.5
15
10
25
10
16
0
26
0
36
1
17
0
27
0
37
0
0
ENDTAB
0
TABLE
2
LTYPE
5
22e
100
AcDbSymbolTable
0
LTYPE
5
14
100
AcDbSymbolTableRecord
100
AcDbLinetypeTableRecord
70
0
2
ByBlock
3

72
65
73
0
40
0
0
LTYPE
5
15
100
AcDbSymbolTableRecord
100
AcDbLinetypeTableRecord
70
0
2
ByLayer
3

72
65
73
0
40
0
0
LTYPE
5
16
100
AcDbSymbolTableRecord
100
AcDbLinetypeTableRecord
70
0
2
Continuous
3
Solid line
72
65
73
0
40
0
0
LTYPE
5
6E
100
AcDbSymbolTableRecord
100
AcDbLinetypeTableRecord
70
0
2
CENTER
3
____ _ ____ _ ____ _ ____
72
65
73
4
40
47.5
49
22
74
0
49
-8.5
74
0
49
8.5
74
0
49
-8.5
74
0
0
LTYPE
5
6F
100
AcDbSymbolTableRecord
100
AcDbLinetypeTableRecord
70
0
2
DASHED
3
__ __ __ __ __ __ __ __ __
72
65
73
2
40
25.72
49
12.86
74
0
49
-12.86
74
0
0
ENDTAB
0
TABLE
2
LAYER
5
22f
100
AcDbSymbolTable
0
LAYER
5
10
100
AcDbSymbolTableRecord
100
AcDbLayerTableRecord
2
0
70
0
62
7
6
Continuous
290
1
370
-3
390
0
0
LAYER
5
71
100
AcDbSymbolTableRecord
100
AcDbLayerTableRecord
2
80
70
0
62
-6
6
Continuous
290
1
370
-3
390
0
0
LAYER
5
73
100
AcDbSymbolTableRecord
100
AcDbLayerTableRecord
2
81
70
0
62
-3
6
Continuous
290
1
370
-3
390
0
0
LAYER
5
75
100
AcDbSymbolTableRecord
100
AcDbLayerTableRecord
2
1
70
0
62
4
6
Continuous
290
1
370
-3
390
0
0
LAYER
5
83
100
AcDbSymbolTableRecord
100
AcDbLayerTableRecord
2
4
70
0
62
-2
6
CENTER
290
1
370
-3
390
0
0
LAYER
5
A8
100
AcDbSymbolTableRecord
100
AcDbLayerTableRecord
2
2
70
0
62
7
6
Continuous
290
1
370
-3
390
0
0
LAYER
5
142
100
AcDbSymbolTableRecord
100
AcDbLayerTableRecord
2
Defpoints
70
0
62
7
6
Continuous
290
0
370
-3
390
0
0
LAYER
5
219
100
AcDbSymbolTableRecord
100
AcDbLayerTableRecord
2
SK4
70
0
62
2
6
CENTER
290
1
370
-3
390
0
0
LAYER
5
21a
100
AcDbSymbolTableRecord
100
AcDbLayerTableRecord
2
SK1
70
0
62
4
6
Continuous
290
1
370
-3
390
0
0
LAYER
5
21b
100
AcDbSymbolTableRecord
100
AcDbLayerTableRecord
2
SK2
70
0
62
7
6
Continuous
290
1
370
-3
390
0
0
LAYER
5
21c
100
AcDbSymbolTableRecord
100
AcDbLayerTableRecord
2
SK6
70
0
62
5
6
Continuous
290
1
370
-3
390
0
0
ENDTAB
0
TABLE
2
STYLE
5
230
100
AcDbSymbolTable
0
STYLE
5
11
100
AcDbSymbolTableRecord
100
AcDbTextStyleTableRecord
2
Standard
3
txt
70
0
71
0
40
0
41
1
42
0
50
0
0
STYLE
5
11E
100
AcDbSymbolTableRecord
100
AcDbTextStyleTableRecord
2
iso_b_vert
3
simplex.shx
70
0
71
0
40
0
41
1
42
0
50
0
0
STYLE
5
11F
100
AcDbSymbolTableRecord
100
AcDbTextStyleTableRecord
2
DWGDirectTextStyle
3
simplex
70
0
71
0
40
0
41
1
42
0
50
0
0
ENDTAB
0
TABLE
2
DIMSTYLE
5
231
100
AcDbSymbolTable
100
AcDbDimStyleTable
0
DIMSTYLE
105
27
100
AcDbSymbolTableRecord
100
AcDbDimStyleTableRecord
2
Standard
70
0
3
<>
41
0.18
42
0.0625
44
0.18
140
0.18
147
0.09
73
0
74
0
77
1
271
2
275
0
278
52
280
0
340
11
0
ENDTAB
0
TABLE
2
VIEW
5
232
100
AcDbSymbolTable
0
ENDTAB
0
TABLE
2
UCS
5
233
100
AcDbSymbolTable
0
ENDTAB
0
TABLE
2
APPID
5
234
100
AcDbSymbolTable
0
APPID
5
12
100
AcDbSymbolTableRecord
100
AcDbRegAppTableRecord
2
ACAD
70
0
0
APPID
5
13E
100
AcDbSymbolTableRecord
100
AcDbRegAppTableRecord
2
ACAD_DSTYLE_DIMBREAK
70
0
0
APPID
5
1D8
100
AcDbSymbolTableRecord
100
AcDbRegAppTableRecord
2
ACAD_DSTYLE_DIM_LINETYPE
70
0
0
APPID
5
1D9
100
AcDbSymbolTableRecord
100
AcDbRegAppTableRecord
2
ACAD_DSTYLE_DIM_EXT1_LINETYPE
70
0
0
APPID
5
1DA
100
AcDbSymbolTableRecord
100
AcDbRegAppTableRecord
2
ACAD_DSTYLE_DIM_EXT2_LINETYPE
70
0
0
APPID
5
215
100
AcDbSymbolTableRecord
100
AcDbRegAppTableRecord
2
ACAD_MLEADERVER
70
0
0
ENDTAB
0
TABLE
2
BLOCK_RECORD
5
235
100
AcDbSymbolTable
0
BLOCK_RECORD
5
1F
100
AcDbSymbolTableRecord
100
AcDbBlockTableRecord
2
*Model_Space
340
0
70
0
0
BLOCK_RECORD
5
1B
100
AcDbSymbolTableRecord
100
AcDbBlockTableRecord
2
*Paper_Space
340
0
70
0
0
BLOCK_RECORD
5
23
100
AcDbSymbolTableRecord
100
AcDbBlockTableRecord
2
*Paper_Space0
340
0
70
0
0
BLOCK_RECORD
5
143
100
AcDbSymbolTableRecord
100
AcDbBlockTableRecord
2
*D1
340
0
70
0
0
BLOCK_RECORD
5
14F
100
AcDbSymbolTableRecord
100
AcDbBlockTableRecord
2
_U0
340
0
70
0
0
BLOCK_RECORD
5
15D
100
AcDbSymbolTableRecord
100
AcDbBlockTableRecord
2
*D3
340
0
70
0
0
BLOCK_RECORD
5
169
100
AcDbSymbolTableRecord
100
AcDbBlockTableRecord
2
_U1
340
0
70
0
0
BLOCK_RECORD
5
175
100
AcDbSymbolTableRecord
100
AcDbBlockTableRecord
2
*D5
340
0
70
0
0
BLOCK_RECORD
5
181
100
AcDbSymbolTableRecord
100
AcDbBlockTableRecord
2
_U2
340
0
70
0
0
BLOCK_RECORD
5
18D
100
AcDbSymbolTableRecord
100
AcDbBlockTableRecord
2
*D7
340
0
70
0
0
BLOCK_RECORD
5
199
100
AcDbSymbolTableRecord
100
AcDbBlockTableRecord
2
_U3
340
0
70
0
0
BLOCK_RECORD
5
1A5
100
AcDbSymbolTableRecord
100
AcDbBlockTableRecord
2
*D9
340
0
70
0
0
BLOCK_RECORD
5
1B1
100
AcDbSymbolTableRecord
100
AcDbBlockTableRecord
2
_U4
340
0
70
0
0
ENDTAB
0
ENDSEC
0
SECTION
2
BLOCKS
0
BLOCK
5
20
100
AcDbEntity
8
0
100
AcDbBlockBegin
2
*Model_Space
70
0
10
0
20
0
30
0
3
*Model_Space
0
ENDBLK
5
21
100
AcDbEntity
8
0
100
AcDbBlockEnd
0
BLOCK
5
1C
100
AcDbEntity
8
0
100
AcDbBlockBegin
2
*Paper_Space
70
0
10
0
20
0
30
0
3
*Paper_Space
0
ENDBLK
5
1D
100
AcDbEntity
8
0
100
AcDbBlockEnd
0
BLOCK
5
24
100
AcDbEntity
8
0
100
AcDbBlockBegin
2
*Paper_Space0
70
0
10
0
20
0
30
0
3
*Paper_Space0
0
ENDBLK
5
25
100
AcDbEntity
8
0
100
AcDbBlockEnd
0
BLOCK
5
144
100
AcDbEntity
8
0
100
AcDbBlockBegin
2
*D1
70
1
10
0
20
0
30
0
3
*D1
0
LINE
5
146
100
AcDbEntity
8
0
62
256
6
ByLayer
370
-2
48
1
60
0
100
AcDbLine
10
157
20
-7.739
30
0
11
157
21
-27.699638
31
0
39
0
210
0
220
0
230
1
0
LINE
5
147
100
AcDbEntity
8
0
62
256
6
ByLayer
370
-2
48
1
60
0
100
AcDbLine
10
56.4
20
-7.739
30
0
11
56.4
21
-27.699638
31
0
39
0
210
0
220
0
230
1
0
LINE
5
148
100
AcDbEntity
8
0
62
256
6
ByLayer
370
-2
48
1
60
0
100
AcDbLine
10
153.5
20
-25.699638
30
0
11
59.9
21
-25.699638
31
0
39
0
210
0
220
0
230
1
0
SOLID
5
149
100
AcDbEntity
8
0
62
256
6
ByLayer
370
-1
48
1
60
0
100
AcDbTrace
10
153.5
20
-26.282971
30
0
11
153.5
21
-25.116304
31
0
12
157
22
-25.699638
32
0
13
157
23
-25.699638
33
0
39
0
210
0
220
0
230
1
0
SOLID
5
14A
100
AcDbEntity
8
0
62
256
6
ByLayer
370
-1
48
1
60
0
100
AcDbTrace
10
59.9
20
-25.116304
30
0
11
59.9
21
-26.282971
31
0
12
56.4
22
-25.699638
32
0
13
56.4
23
-25.699638
33
0
39
0
210
0
220
0
230
1
0
MTEXT
5
14B
100
AcDbEntity
8
0
62
256
6
ByLayer
370
18
48
1
60
0
100
AcDbMText
10
106.7
20
-19.699638
30
0
210
0
220
0
230
1
1
\A1;100.6
40
3
41
0
44
1
50
0
71
5
72
5
7
iso_b_vert
0
POINT
5
14C
100
AcDbEntity
8
Defpoints
62
0
6
ByLayer
370
-1
48
1
60
0
100
AcDbPoint
10
157
20
-6.1515
30
0
39
0
210
0
220
0
230
1
50
360
0
POINT
5
14D
100
AcDbEntity
8
Defpoints
62
0
6
ByLayer
370
-1
48
1
60
0
100
AcDbPoint
10
56.4
20
-6.1515
30
0
39
0
210
0
220
0
230
1
50
360
0
POINT
5
14E
100
AcDbEntity
8
Defpoints
62
0
6
ByLayer
370
-1
48
1
60
0
100
AcDbPoint
10
56.4
20
-25.699638
30
0
39
0
210
0
220
0
230
1
50
360
0
ENDBLK
5
145
100
AcDbEntity
8
0
100
AcDbBlockEnd
0
BLOCK
5
158
100
AcDbEntity
8
0
100
AcDbBlockBegin
2
_U0
70
0
10
0
20
0
30
0
3
_U0
0
MTEXT
5
150
100
AcDbEntity
8
SK2
62
256
6
ByLayer
370
18
48
1
60
0
100
AcDbMText
10
102.592572
20
-23.502023
30
0
210
0
220
0
230
1
1
\W0.6864;100.6
40
3
41
0
44
1.084337
50
0
71
7
72
5
7
iso_b_vert
0
MTEXT
5
151
100
AcDbEntity
8
SK2
62
256
6
ByLayer
370
18
48
1
60
0
100
AcDbMText
10
100.492572
20
-23.502023
30
0
210
0
220
0
230
1
1
\W1.1313;{\H1.88x;(}
40
3
41
0
44
1.084337
50
0
71
7
72
5
7
iso_b_vert
0
MTEXT
5
152
100
AcDbEntity
8
SK2
62
256
6
ByLayer
370
18
48
1
60
0
100
AcDbMText
10
111.125428
20
-23.502023
30
0
210
0
220
0
230
1
1
\W1.1313;{\H1.88x;)}
40
3
41
0
44
1.084337
50
0
71
7
72
5
7
iso_b_vert
0
LINE
5
153
100
AcDbEntity
8
SK2
62
256
6
ByLayer
370
13
48
1
60
0
100
AcDbLine
10
157
20
-7.739
30
0
11
157
21
-27.699638
31
0
39
0
210
0
220
0
230
1
0
LINE
5
154
100
AcDbEntity
8
SK2
62
256
6
ByLayer
370
13
48
1
60
0
100
AcDbLine
10
56.4
20
-7.739
30
0
11
56.4
21
-27.699638
31
0
39
0
210
0
220
0
230
1
0
LINE
5
155
100
AcDbEntity
8
SK2
62
256
6
ByLayer
370
13
48
1
60
0
100
AcDbLine
10
157
20
-25.699638
30
0
11
56.4
21
-25.699638
31
0
39
0
210
0
220
0
230
1
0
SOLID
5
156
100
AcDbEntity
8
SK2
62
256
6
ByLayer
370
18
48
1
60
0
100
AcDbTrace
10
157
20
-25.699638
30
0
11
153.500002
21
-26.160422
31
0
12
153.499998
22
-25.238854
32
0
13
153.499998
23
-25.238854
33
0
39
0
210
0
220
0
230
1
0
SOLID
5
157
100
AcDbEntity
8
SK2
62
256
6
ByLayer
370
18
48
1
60
0
100
AcDbTrace
10
56.4
20
-25.699638
30
0
11
59.899998
21
-25.238854
31
0
12
59.900002
22
-26.160422
32
0
13
59.900002
23
-26.160422
33
0
39
0
210
0
220
0
230
1
0
ENDBLK
5
159
100
AcDbEntity
8
0
100
AcDbBlockEnd
0
BLOCK
5
15E
100
AcDbEntity
8
0
100
AcDbBlockBegin
2
*D3
70
1
10
0
20
0
30
0
3
*D3
0
LINE
5
160
100
AcDbEntity
8
0
62
256
6
ByLayer
370
-2
48
1
60
0
100
AcDbLine
10
157
20
-7.739
30
0
11
157
21
-37.699638
31
0
39
0
210
0
220
0
230
1
0
LINE
5
161
100
AcDbEntity
8
0
62
256
6
ByLayer
370
-2
48
1
60
0
100
AcDbLine
10
6
20
-7.739
30
0
11
6
21
-37.699638
31
0
39
0
210
0
220
0
230
1
0
LINE
5
162
100
AcDbEntity
8
0
62
256
6
ByLayer
370
-2
48
1
60
0
100
AcDbLine
10
153.5
20
-35.699638
30
0
11
9.5
21
-35.699638
31
0
39
0
210
0
220
0
230
1
0
SOLID
5
163
100
AcDbEntity
8
0
62
256
6
ByLayer
370
-1
48
1
60
0
100
AcDbTrace
10
153.5
20
-36.282971
30
0
11
153.5
21
-35.116304
31
0
12
157
22
-35.699638
32
0
13
157
23
-35.699638
33
0
39
0
210
0
220
0
230
1
0
SOLID
5
164
100
AcDbEntity
8
0
62
256
6
ByLayer
370
-1
48
1
60
0
100
AcDbTrace
10
9.5
20
-35.116304
30
0
11
9.5
21
-36.282971
31
0
12
6
22
-35.699638
32
0
13
6
23
-35.699638
33
0
39
0
210
0
220
0
230
1
0
MTEXT
5
165
100
AcDbEntity
8
0
62
256
6
ByLayer
370
18
48
1
60
0
100
AcDbMText
10
81.5
20
-29.699638
30
0
210
0
220
0
230
1
1
\A1;151
40
3
41
0
44
1
50
0
71
5
72
5
7
iso_b_vert
0
POINT
5
166
100
AcDbEntity
8
Defpoints
62
0
6
ByLayer
370
-1
48
1
60
0
100
AcDbPoint
10
157
20
-6.1515
30
0
39
0
210
0
220
0
230
1
50
360
0
POINT
5
167
100
AcDbEntity
8
Defpoints
62
0
6
ByLayer
370
-1
48
1
60
0
100
AcDbPoint
10
6
20
-6.1515
30
0
39
0
210
0
220
0
230
1
50
360
0
POINT
5
168
100
AcDbEntity
8
Defpoints
62
0
6
ByLayer
370
-1
48
1
60
0
100
AcDbPoint
10
6
20
-35.699638
30
0
39
0
210
0
220
0
230
1
50
360
0
ENDBLK
5
15F
100
AcDbEntity
8
0
100
AcDbBlockEnd
0
BLOCK
5
170
100
AcDbEntity
8
0
100
AcDbBlockBegin
2
_U1
70
0
10
0
20
0
30
0
3
_U1
0
MTEXT
5
16A
100
AcDbEntity
8
SK2
62
256
6
ByLayer
370
18
48
1
60
0
100
AcDbMText
10
79.496143
20
-34.814523
30
0
210
0
220
0
230
1
1
\W0.5919;151
40
3
41
0
44
1.084337
50
0
71
7
72
5
7
iso_b_vert
0
LINE
5
16B
100
AcDbEntity
8
SK2
62
256
6
ByLayer
370
13
48
1
60
0
100
AcDbLine
10
157
20
-7.739
30
0
11
157
21
-37.699638
31
0
39
0
210
0
220
0
230
1
0
LINE
5
16C
100
AcDbEntity
8
SK2
62
256
6
ByLayer
370
13
48
1
60
0
100
AcDbLine
10
6
20
-7.739
30
0
11
6
21
-37.699638
31
0
39
0
210
0
220
0
230
1
0
LINE
5
16D
100
AcDbEntity
8
SK2
62
256
6
ByLayer
370
13
48
1
60
0
100
AcDbLine
10
157
20
-35.699638
30
0
11
6
21
-35.699638
31
0
39
0
210
0
220
0
230
1
0
SOLID
5
16E
100
AcDbEntity
8
SK2
62
256
6
ByLayer
370
18
48
1
60
0
100
AcDbTrace
10
157
20
-35.699638
30
0
11
153.500002
21
-36.160422
31
0
12
153.499998
22
-35.238854
32
0
13
153.499998
23
-35.238854
33
0
39
0
210
0
220
0
230
1
0
SOLID
5
16F
100
AcDbEntity
8
SK2
62
256
6
ByLayer
370
18
48
1
60
0
100
AcDbTrace
10
6
20
-35.699638
30
0
11
9.499998
21
-35.238854
31
0
12
9.500002
22
-36.160422
32
0
13
9.500002
23
-36.160422
33
0
39
0
210
0
220
0
230
1
0
ENDBLK
5
171
100
AcDbEntity
8
0
100
AcDbBlockEnd
0
BLOCK
5
176
100
AcDbEntity
8
0
100
AcDbBlockBegin
2
*D5
70
1
10
0
20
0
30
0
3
*D5
0
LINE
5
178
100
AcDbEntity
8
0
62
256
6
ByLayer
370
-2
48
1
60
0
100
AcDbLine
10
-45
20
-8.5875
30
0
11
-45
21
-45.699638
31
0
39
0
210
0
220
0
230
1
0
LINE
5
179
100
AcDbEntity
8
0
62
256
6
ByLayer
370
-2
48
1
60
0
100
AcDbLine
10
0
20
-8.5875
30
0
11
0
21
-45.699638
31
0
39
0
210
0
220
0
230
1
0
LINE
5
17A
100
AcDbEntity
8
0
62
256
6
ByLayer
370
-2
48
1
60
0
100
AcDbLine
10
-41.5
20
-43.699638
30
0
11
-3.5
21
-43.699638
31
0
39
0
210
0
220
0
230
1
0
SOLID
5
17B
100
AcDbEntity
8
0
62
256
6
ByLayer
370
-1
48
1
60
0
100
AcDbTrace
10
-41.5
20
-43.116304
30
0
11
-41.5
21
-44.282971
31
0
12
-45
22
-43.699638
32
0
13
-45
23
-43.699638
33
0
39
0
210
0
220
0
230
1
0
SOLID
5
17C
100
AcDbEntity
8
0
62
256
6
ByLayer
370
-1
48
1
60
0
100
AcDbTrace
10
-3.5
20
-44.282971
30
0
11
-3.5
21
-43.116304
31
0
12
0
22
-43.699638
32
0
13
0
23
-43.699638
33
0
39
0
210
0
220
0
230
1
0
MTEXT
5
17D
100
AcDbEntity
8
0
62
256
6
ByLayer
370
18
48
1
60
0
100
AcDbMText
10
-22.5
20
-37.699638
30
0
210
0
220
0
230
1
1
\A1;45
40
3
41
0
44
1
50
0
71
5
72
5
7
iso_b_vert
0
POINT
5
17E
100
AcDbEntity
8
Defpoints
62
0
6
ByLayer
370
-1
48
1
60
0
100
AcDbPoint
10
-45
20
-7
30
0
39
0
210
0
220
0
230
1
50
360
0
POINT
5
17F
100
AcDbEntity
8
Defpoints
62
0
6
ByLayer
370
-1
48
1
60
0
100
AcDbPoint
10
0
20
-7
30
0
39
0
210
0
220
0
230
1
50
360
0
POINT
5
180
100
AcDbEntity
8
Defpoints
62
0
6
ByLayer
370
-1
48
1
60
0
100
AcDbPoint
10
0
20
-43.699638
30
0
39
0
210
0
220
0
230
1
50
360
0
ENDBLK
5
177
100
AcDbEntity
8
0
100
AcDbBlockEnd
0
BLOCK
5
188
100
AcDbEntity
8
0
100
AcDbBlockBegin
2
_U2
70
0
10
0
20
0
30
0
3
_U2
0
MTEXT
5
182
100
AcDbEntity
8
SK2
62
256
6
ByLayer
370
18
48
1
60
0
100
AcDbMText
10
-24.290771
20
-42.814523
30
0
210
0
220
0
230
1
1
\W0.7361;45
40
3
41
0
44
1.084337
50
0
71
7
72
5
7
iso_b_vert
0
LINE
5
183
100
AcDbEntity
8
SK2
62
256
6
ByLayer
370
13
48
1
60
0
100
AcDbLine
10
-45
20
-8.5875
30
0
11
-45
21
-45.699638
31
0
39
0
210
0
220
0
230
1
0
LINE
5
184
100
AcDbEntity
8
SK2
62
256
6
ByLayer
370
13
48
1
60
0
100
AcDbLine
10
0
20
-8.5875
30
0
11
0
21
-45.699638
31
0
39
0
210
0
220
0
230
1
0
LINE
5
185
100
AcDbEntity
8
SK2
62
256
6
ByLayer
370
13
48
1
60
0
100
AcDbLine
10
-45
20
-43.699638
30
0
11
0
21
-43.699638
31
0
39
0
210
0
220
0
230
1
0
SOLID
5
186
100
AcDbEntity
8
SK2
62
256
6
ByLayer
370
18
48
1
60
0
100
AcDbTrace
10
-45
20
-43.699638
30
0
11
-41.500002
21
-43.238854
31
0
12
-41.499998
22
-44.160422
32
0
13
-41.499998
23
-44.160422
33
0
39
0
210
0
220
0
230
1
0
SOLID
5
187
100
AcDbEntity
8
SK2
62
256
6
ByLayer
370
18
48
1
60
0
100
AcDbTrace
10
0
20
-43.699638
30
0
11
-3.499998
21
-44.160422
31
0
12
-3.500002
22
-43.238854
32
0
13
-3.500002
23
-43.238854
33
0
39
0
210
0
220
0
230
1
0
ENDBLK
5
189
100
AcDbEntity
8
0
100
AcDbBlockEnd
0
BLOCK
5
18E
100
AcDbEntity
8
0
100
AcDbBlockBegin
2
*D7
70
1
10
0
20
0
30
0
3
*D7
0
LINE
5
190
100
AcDbEntity
8
0
62
256
6
ByLayer
370
-2
48
1
60
0
100
AcDbLine
10
-45
20
-8.5875
30
0
11
-45
21
-53.699638
31
0
39
0
210
0
220
0
230
1
0
LINE
5
191
100
AcDbEntity
8
0
62
256
6
ByLayer
370
-2
48
1
60
0
100
AcDbLine
10
157
20
-7.739
30
0
11
157
21
-53.699638
31
0
39
0
210
0
220
0
230
1
0
LINE
5
192
100
AcDbEntity
8
0
62
256
6
ByLayer
370
-2
48
1
60
0
100
AcDbLine
10
-41.5
20
-51.699638
30
0
11
153.5
21
-51.699638
31
0
39
0
210
0
220
0
230
1
0
SOLID
5
193
100
AcDbEntity
8
0
62
256
6
ByLayer
370
-1
48
1
60
0
100
AcDbTrace
10
-41.5
20
-51.116304
30
0
11
-41.5
21
-52.282971
31
0
12
-45
22
-51.699638
32
0
13
-45
23
-51.699638
33
0
39
0
210
0
220
0
230
1
0
SOLID
5
194
100
AcDbEntity
8
0
62
256
6
ByLayer
370
-1
48
1
60
0
100
AcDbTrace
10
153.5
20
-52.282971
30
0
11
153.5
21
-51.116304
31
0
12
157
22
-51.699638
32
0
13
157
23
-51.699638
33
0
39
0
210
0
220
0
230
1
0
MTEXT
5
195
100
AcDbEntity
8
0
62
256
6
ByLayer
370
18
48
1
60
0
100
AcDbMText
10
56
20
-45.699638
30
0
210
0
220
0
230
1
1
\A1;202
40
3
41
0
44
1
50
0
71
5
72
5
7
iso_b_vert
0
POINT
5
196
100
AcDbEntity
8
Defpoints
62
0
6
ByLayer
370
-1
48
1
60
0
100
AcDbPoint
10
-45
20
-7
30
0
39
0
210
0
220
0
230
1
50
360
0
POINT
5
197
100
AcDbEntity
8
Defpoints
62
0
6
ByLayer
370
-1
48
1
60
0
100
AcDbPoint
10
157
20
-6.1515
30
0
39
0
210
0
220
0
230
1
50
360
0
POINT
5
198
100
AcDbEntity
8
Defpoints
62
0
6
ByLayer
370
-1
48
1
60
0
100
AcDbPoint
10
157
20
-51.699638
30
0
39
0
210
0
220
0
230
1
50
360
0
ENDBLK
5
18F
100
AcDbEntity
8
0
100
AcDbBlockEnd
0
BLOCK
5
1A0
100
AcDbEntity
8
0
100
AcDbBlockBegin
2
_U3
70
0
10
0
20
0
30
0
3
_U3
0
MTEXT
5
19A
100
AcDbEntity
8
SK2
62
256
6
ByLayer
370
18
48
1
60
0
100
AcDbMText
10
53.246258
20
-50.814523
30
0
210
0
220
0
230
1
1
\W0.7138;202
40
3
41
0
44
1.084337
50
0
71
7
72
5
7
iso_b_vert
0
LINE
5
19B
100
AcDbEntity
8
SK2
62
256
6
ByLayer
370
13
48
1
60
0
100
AcDbLine
10
-45
20
-8.5875
30
0
11
-45
21
-53.699638
31
0
39
0
210
0
220
0
230
1
0
LINE
5
19C
100
AcDbEntity
8
SK2
62
256
6
ByLayer
370
13
48
1
60
0
100
AcDbLine
10
157
20
-7.739
30
0
11
157
21
-53.699638
31
0
39
0
210
0
220
0
230
1
0
LINE
5
19D
100
AcDbEntity
8
SK2
62
256
6
ByLayer
370
13
48
1
60
0
100
AcDbLine
10
-45
20
-51.699638
30
0
11
157
21
-51.699638
31
0
39
0
210
0
220
0
230
1
0
SOLID
5
19E
100
AcDbEntity
8
SK2
62
256
6
ByLayer
370
18
48
1
60
0
100
AcDbTrace
10
-45
20
-51.699638
30
0
11
-41.500002
21
-51.238854
31
0
12
-41.499998
22
-52.160422
32
0
13
-41.499998
23
-52.160422
33
0
39
0
210
0
220
0
230
1
0
SOLID
5
19F
100
AcDbEntity
8
SK2
62
256
6
ByLayer
370
18
48
1
60
0
100
AcDbTrace
10
157
20
-51.699638
30
0
11
153.500002
21
-52.160422
31
0
12
153.499998
22
-51.238854
32
0
13
153.499998
23
-51.238854
33
0
39
0
210
0
220
0
230
1
0
ENDBLK
5
1A1
100
AcDbEntity
8
0
100
AcDbBlockEnd
0
BLOCK
5
1A6
100
AcDbEntity
8
0
100
AcDbBlockBegin
2
*D9
70
1
10
0
20
0
30
0
3
*D9
0
LINE
5
1A8
100
AcDbEntity
8
0
62
256
6
ByLayer
370
-2
48
1
60
0
100
AcDbLine
10
157
20
-7.739
30
0
11
157
21
-45.699638
31
0
39
0
210
0
220
0
230
1
0
LINE
5
1A9
100
AcDbEntity
8
0
62
256
6
ByLayer
370
-2
48
1
60
0
100
AcDbLine
10
0
20
-7.739
30
0
11
0
21
-45.699638
31
0
39
0
210
0
220
0
230
1
0
LINE
5
1AA
100
AcDbEntity
8
0
62
256
6
ByLayer
370
-2
48
1
60
0
100
AcDbLine
10
153.5
20
-43.699638
30
0
11
3.5
21
-43.699638
31
0
39
0
210
0
220
0
230
1
0
SOLID
5
1AB
100
AcDbEntity
8
0
62
256
6
ByLayer
370
-1
48
1
60
0
100
AcDbTrace
10
153.5
20
-44.282971
30
0
11
153.5
21
-43.116304
31
0
12
157
22
-43.699638
32
0
13
157
23
-43.699638
33
0
39
0
210
0
220
0
230
1
0
SOLID
5
1AC
100
AcDbEntity
8
0
62
256
6
ByLayer
370
-1
48
1
60
0
100
AcDbTrace
10
3.5
20
-43.116304
30
0
11
3.5
21
-44.282971
31
0
12
0
22
-43.699638
32
0
13
0
23
-43.699638
33
0
39
0
210
0
220
0
230
1
0
MTEXT
5
1AD
100
AcDbEntity
8
0
62
256
6
ByLayer
370
18
48
1
60
0
100
AcDbMText
10
78.5
20
-37.699638
30
0
210
0
220
0
230
1
1
\A1;157
40
3
41
0
44
1
50
0
71
5
72
5
7
iso_b_vert
0
POINT
5
1AE
100
AcDbEntity
8
Defpoints
62
0
6
ByLayer
370
-1
48
1
60
0
100
AcDbPoint
10
157
20
-6.1515
30
0
39
0
210
0
220
0
230
1
50
360
0
POINT
5
1AF
100
AcDbEntity
8
Defpoints
62
0
6
ByLayer
370
-1
48
1
60
0
100
AcDbPoint
10
0
20
-6.1515
30
0
39
0
210
0
220
0
230
1
50
360
0
POINT
5
1B0
100
AcDbEntity
8
Defpoints
62
0
6
ByLayer
370
-1
48
1
60
0
100
AcDbPoint
10
0
20
-43.699638
30
0
39
0
210
0
220
0
230
1
50
360
0
ENDBLK
5
1A7
100
AcDbEntity
8
0
100
AcDbBlockEnd
0
BLOCK
5
1B8
100
AcDbEntity
8
0
100
AcDbBlockBegin
2
_U4
70
0
10
0
20
0
30
0
3
_U4
0
MTEXT
5
1B2
100
AcDbEntity
8
2
62
256
6
ByLayer
370
18
48
1
60
0
100
AcDbMText
10
76.121201
20
-42.814523
30
0
210
0
220
0
230
1
1
\W0.6217;157
40
3
41
0
44
1.084337
50
0
71
7
72
5
7
iso_b_vert
0
LINE
5
1B3
100
AcDbEntity
8
2
62
256
6
ByLayer
370
13
48
1
60
0
100
AcDbLine
10
157
20
-7.739
30
0
11
157
21
-45.699638
31
0
39
0
210
0
220
0
230
1
0
LINE
5
1B4
100
AcDbEntity
8
2
62
256
6
ByLayer
370
13
48
1
60
0
100
AcDbLine
10
0
20
-7.739
30
0
11
0
21
-45.699638
31
0
39
0
210
0
220
0
230
1
0
LINE
5
1B5
100
AcDbEntity
8
2
62
256
6
ByLayer
370
13
48
1
60
0
100
AcDbLine
10
157
20
-43.699638
30
0
11
0
21
-43.699638
31
0
39
0
210
0
220
0
230
1
0
SOLID
5
1B6
100
AcDbEntity
8
2
62
256
6
ByLayer
370
18
48
1
60
0
100
AcDbTrace
10
157
20
-43.699638
30
0
11
153.500002
21
-44.160422
31
0
12
153.499998
22
-43.238854
32
0
13
153.499998
23
-43.238854
33
0
39
0
210
0
220
0
230
1
0
SOLID
5
1B7
100
AcDbEntity
8
2
62
256
6
ByLayer
370
18
48
1
60
0
100
AcDbTrace
10
0
20
-43.699638
30
0
11
3.499998
21
-43.238854
31
0
12
3.500002
22
-44.160422
32
0
13
3.500002
23
-44.160422
33
0
39
0
210
0
220
0
230
1
0
ENDBLK
5
1B9
100
AcDbEntity
8
0
100
AcDbBlockEnd
0
ENDSEC
0
SECTION
2
ENTITIES
0
ARC
5
C3
100
AcDbEntity
8
1
62
256
6
ByLayer
370
18
48
1
60
0
100
AcDbCircle
39
0
10
1.527656
20
-6.675676
30
0
40
0.799999999999996
210
0
220
0
230
1
100
AcDbArc
50
89.896868
51
162.704651
0
ARC
5
C4
100
AcDbEntity
8
1
62
256
6
ByLayer
370
18
48
1
60
0
100
AcDbCircle
39
0
10
1.527656
20
6.675676
30
0
40
0.799999999999996
210
0
220
0
230
1
100
AcDbArc
50
197.295349
51
270.103132
0
ARC
5
C5
100
AcDbEntity
8
1
62
256
6
ByLayer
370
18
48
1
60
0
100
AcDbCircle
39
0
10
0
20
-6.2
30
0
40
0.799999999999996
210
0
220
0
230
1
100
AcDbArc
50
270
51
342.704651
0
ARC
5
C6
100
AcDbEntity
8
1
62
256
6
ByLayer
370
18
48
1
60
0
100
AcDbCircle
39
0
10
0
20
6.2
30
0
40
0.799999999999996
210
0
220
0
230
1
100
AcDbArc
50
17.295349
51
90
0
ARC
5
C7
100
AcDbEntity
8
SK2
62
256
6
ByLayer
370
13
48
1
60
0
100
AcDbCircle
39
0
10
157
20
0
30
0
40
23.4016153321394
210
0
220
0
230
1
100
AcDbArc
50
7.365375
51
69.999695
0
ARC
5
C8
100
AcDbEntity
8
SK2
62
256
6
ByLayer
370
13
48
1
60
0
100
AcDbCircle
39
0
10
157
20
0
30
0
40
23.4016153321394
210
0
220
0
230
1
100
AcDbArc
50
290.000305
51
352.634625
0
ELLIPSE
5
C9
100
AcDbEntity
8
1
62
256
6
ByLayer
370
13
48
1
60
0
100
AcDbEllipse
10
95.585516
20
5.809698
30
0
11
-5.61889527961291E-05
21
0.00999984213883318
31
0
210
0
220
0
230
1
40
0.004943
41
3.07769283368209
42
-1.63475522407537
0
ELLIPSE
5
CA
100
AcDbEntity
8
1
62
256
6
ByLayer
370
13
48
1
60
0
100
AcDbEllipse
10
95.624215
20
5.810465
30
0
11
0.000352538069256922
21
-0.00999378391349966
31
0
210
0
220
0
230
1
40
0.434131
41
-0.0692200863224446
42
1.497904800098
0
ELLIPSE
5
CB
100
AcDbEntity
8
1
62
256
6
ByLayer
370
18
48
1
60
0
100
AcDbEllipse
10
95.58504
20
5.910033
30
0
11
-0.1
21
1.22460635382238E-17
31
0
210
0
220
0
230
1
40
0.999739
41
0.0308575856830055
42
1.55831466276432
0
POINT
5
70
100
AcDbEntity
8
80
62
256
6
ByLayer
370
18
48
1
60
0
100
AcDbPoint
10
0
20
0
30
0
39
0
210
0
220
0
230
1
50
360
0
POINT
5
72
100
AcDbEntity
8
81
62
256
6
ByLayer
370
18
48
1
60
0
100
AcDbPoint
10
157
20
0
30
0
39
0
210
0
220
0
230
1
50
360
0
POINT
5
74
100
AcDbEntity
8
1
62
256
6
ByLayer
370
18
48
1
60
0
100
AcDbPoint
10
-160.474192
20
-200
30
0
39
0
210
0
220
0
230
1
50
360
0
POINT
5
76
100
AcDbEntity
8
1
62
256
6
ByLayer
370
13
48
1
60
1
100
AcDbPoint
10
-46.5
20
0
30
0
39
0
210
0
220
0
230
1
50
360
0
POINT
5
77
100
AcDbEntity
8
1
62
256
6
ByLayer
370
13
48
1
60
1
100
AcDbPoint
10
156.278346
20
0
30
0
39
0
210
0
220
0
230
1
50
360
0
POINT
5
78
100
AcDbEntity
8
1
62
256
6
ByLayer
370
18
48
1
60
1
100
AcDbPoint
10
157
20
-6.1515
30
0
39
0
210
0
220
0
230
1
50
360
0
POINT
5
79
100
AcDbEntity
8
1
62
256
6
ByLayer
370
18
48
1
60
1
100
AcDbPoint
10
56.4
20
-6.1515
30
0
39
0
210
0
220
0
230
1
50
360
0
POINT
5
7A
100
AcDbEntity
8
1
62
256
6
ByLayer
370
18
48
1
60
1
100
AcDbPoint
10
157
20
-6.1515
30
0
39
0
210
0
220
0
230
1
50
360
0
POINT
5
7B
100
AcDbEntity
8
1
62
256
6
ByLayer
370
18
48
1
60
1
100
AcDbPoint
10
6
20
-6.1515
30
0
39
0
210
0
220
0
230
1
50
360
0
POINT
5
7C
100
AcDbEntity
8
1
62
256
6
ByLayer
370
18
48
1
60
1
100
AcDbPoint
10
-45
20
-7
30
0
39
0
210
0
220
0
230
1
50
360
0
POINT
5
7D
100
AcDbEntity
8
1
62
256
6
ByLayer
370
18
48
1
60
1
100
AcDbPoint
10
0
20
-7
30
0
39
0
210
0
220
0
230
1
50
360
0
POINT
5
7E
100
AcDbEntity
8
1
62
256
6
ByLayer
370
18
48
1
60
1
100
AcDbPoint
10
-45
20
-7
30
0
39
0
210
0
220
0
230
1
50
360
0
POINT
5
7F
100
AcDbEntity
8
1
62
256
6
ByLayer
370
18
48
1
60
1
100
AcDbPoint
10
157
20
-6.1515
30
0
39
0
210
0
220
0
230
1
50
360
0
POINT
5
80
100
AcDbEntity
8
1
62
256
6
ByLayer
370
18
48
1
60
1
100
AcDbPoint
10
157
20
-6.1515
30
0
39
0
210
0
220
0
230
1
50
360
0
POINT
5
81
100
AcDbEntity
8
1
62
256
6
ByLayer
370
18
48
1
60
1
100
AcDbPoint
10
0
20
-6.1515
30
0
39
0
210
0
220
0
230
1
50
360
0
SPLINE
5
CC
100
AcDbEntity
8
1
62
256
6
ByLayer
370
13
48
1
60
0
100
AcDbSpline
70
4
71
3
72
10
73
6
40
0
40
0
40
0
40
0
40
0.5
40
0.5
40
1
40
1
40
1
40
1
41
1
10
95.6285678341478
20
5.80989021882954
30
0
41
1
10
95.6218396738005
20
5.80965582981619
30
0
41
1
10
95.6148782690012
20
5.80946846103637
30
0
41
1
10
95.6005066431027
20
5.80918879202633
30
0
41
1
10
95.5930424816534
20
5.80909675053573
30
0
41
1
10
95.5855693562032
20
5.80905870546482
30
0
0
SPLINE
5
CD
100
AcDbEntity
8
1
62
256
6
ByLayer
370
18
48
1
60
0
100
AcDbSpline
70
4
71
3
72
8
73
4
40
0
40
0
40
0
40
0
40
1
40
1
40
1
40
1
41
1
10
156.378631881177
20
2.00215928068604
30
0
41
1
10
156.541827293639
20
1.54556475270479
30
0
41
1
10
156.703654509523
20
1.08848935389926
30
0
41
1
10
156.864085703681
20
0.630923304751661
30
0
0
SPLINE
5
CE
100
AcDbEntity
8
1
62
256
6
ByLayer
370
18
48
1
60
0
100
AcDbSpline
70
4
71
3
72
8
73
4
40
0
40
0
40
0
40
0
40
1
40
1
40
1
40
1
41
1
10
156.864085703681
20
0.63092330475169
30
0
41
1
10
156.907733673628
20
0.506434864290327
30
0
41
1
10
156.95224190698
20
0.382423869780382
30
0
41
1
10
156.997608519269
20
0.258873374360917
30
0
0
SPLINE
5
CF
100
AcDbEntity
8
1
62
256
6
ByLayer
370
18
48
1
60
0
100
AcDbSpline
70
4
71
3
72
8
73
4
40
0
40
0
40
0
40
0
40
1
40
1
40
1
40
1
41
1
10
154.966166901384
20
-5.63651034555684
30
0
41
1
10
154.916570056482
20
-5.72256118748081
30
0
41
1
10
154.866993941625
20
-5.80860983095874
30
0
41
1
10
154.817444522882
20
-5.89464494026606
30
0
0
SPLINE
5
D0
100
AcDbEntity
8
1
62
256
6
ByLayer
370
18
48
1
60
0
100
AcDbSpline
70
4
71
3
72
10
73
6
40
0
40
0
40
0
40
0
40
0.5
40
0.5
40
1
40
1
40
1
40
1
41
1
10
156.378631881177
20
2.00215928068604
30
0
41
1
10
156.244816950557
20
1.9868059442534
30
0
41
1
10
156.110882351503
20
1.9730308753696
30
0
41
1
10
155.842846258312
20
1.94768186180963
30
0
41
1
10
155.708744827826
20
1.93610707767309
30
0
41
1
10
155.574585170126
20
1.92530023307245
30
0
0
SPLINE
5
D1
100
AcDbEntity
8
1
62
256
6
ByLayer
370
18
48
1
60
0
100
AcDbSpline
70
4
71
3
72
27
73
23
40
0
40
0
40
0
40
0
40
0.125000000000031
40
0.125000000000031
40
0.250000000000063
40
0.250000000000063
40
0.312500000000074
40
0.312500000000074
40
0.343750000000076
40
0.343750000000076
40
0.375000000000078
40
0.437500000000082
40
0.437500000000082
40
0.46875000000008
40
0.46875000000008
40
0.500000000000078
40
0.500000000000078
40
0.750000000000035
40
0.750000000000035
40
0.875000000000018
40
0.875000000000018
40
1
40
1
40
1
40
1
41
1
10
156.378631881177
20
2.00215928068602
30
0
41
1
10
156.307345394577
20
2.13386179119945
30
0
41
1
10
156.238360096207
20
2.26989679517368
30
0
41
1
10
156.104386886434
20
2.55029379642028
30
0
41
1
10
156.039399333762
20
2.69465401073273
30
0
41
1
10
155.944451799859
20
2.91734305030073
30
0
41
1
10
155.913224954374
20
2.9925998200427
30
0
41
1
10
155.866959874601
20
3.10703920063358
30
0
41
1
10
155.851620254558
20
3.14548147099501
30
0
41
1
10
155.82131584096
20
3.22239281876642
30
0
41
1
10
155.776353204013
20
3.3379659421436
30
0
41
1
10
155.732795881373
20
3.45412868833054
30
0
41
1
10
155.690068442216
20
3.57064416177448
30
0
41
1
10
155.675966239819
20
3.60954227970342
30
0
41
1
10
155.6480072067
20
3.68744361180586
30
0
41
1
10
155.634064266976
20
3.7264100439341
30
0
41
1
10
155.508690566208
20
4.07715807327125
30
0
41
1
10
155.398482946432
20
4.38969200737972
30
0
41
1
10
155.235102564155
20
4.85782383809871
30
0
41
1
10
155.18094698273
20
5.01379314696882
30
0
41
1
10
155.073157177368
20
5.32549564400742
30
0
41
1
10
155.019530103917
20
5.48120927260223
30
0
41
1
10
154.966166901384
20
5.63651034555676
30
0
0
SPLINE
5
D2
100
AcDbEntity
8
1
62
256
6
ByLayer
370
18
48
1
60
0
100
AcDbSpline
70
4
71
3
72
8
73
4
40
0
40
0
40
0
40
0
40
1
40
1
40
1
40
1
41
1
10
154.966166901384
20
5.63651034555676
30
0
41
1
10
154.916570056488
20
5.72256118747057
30
0
41
1
10
154.866993941637
20
5.80860983093837
30
0
41
1
10
154.8174445229
20
5.89464494023554
30
0
0
SPLINE
5
D3
100
AcDbEntity
8
1
62
256
6
ByLayer
370
18
48
1
60
0
100
AcDbSpline
70
4
71
3
72
18
73
14
40
0
40
0
40
0
40
0
40
0.222168474384325
40
0.222168474384325
40
0.351807061986945
40
0.351807061986945
40
0.481445649589565
40
0.481445649589565
40
0.611084237192186
40
0.611084237192186
40
0.740722824794806
40
0.740722824794806
40
1
40
1
40
1
40
1
41
1
10
154.614671889507
20
1.21418484456331
30
0
41
1
10
154.673311710703
20
1.1967240386416
30
0
41
1
10
154.734189391804
20
1.1753351755689
30
0
41
1
10
154.833469882074
20
1.13641078734054
30
0
41
1
10
154.870665257128
20
1.12099909682652
30
0
41
1
10
154.946104181922
20
1.08831797050223
30
0
41
1
10
154.984083741254
20
1.07115606129173
30
0
41
1
10
155.060431453424
20
1.03560512445327
30
0
41
1
10
155.098799017836
20
1.01721795497946
30
0
41
1
10
155.175845376306
20
0.97946080076656
30
0
41
1
10
155.214533917086
20
0.960060037376138
30
0
41
1
10
155.331154029502
20
0.900106752980406
30
0
41
1
10
155.409668399969
20
0.857713843056899
30
0
41
1
10
155.488880574194
20
0.813117376374692
30
0
0
SPLINE
5
D4
100
AcDbEntity
8
1
62
256
6
ByLayer
370
18
48
1
60
0
100
AcDbSpline
70
4
71
3
72
28
73
24
40
0
40
0
40
0
40
0
40
0.130650628544957
40
0.130650628544957
40
0.261301257089913
40
0.261301257089913
40
0.326626571362392
40
0.326626571362392
40
0.39195188563487
40
0.39195188563487
40
0.522602514179781
40
0.522602514179781
40
0.587927828452216
40
0.587927828452216
40
0.653253142724651
40
0.653253142724651
40
0.783903771269482
40
0.783903771269482
40
0.849229085541915
40
0.849229085541915
40
0.914554399814348
40
0.914554399814348
40
1
40
1
40
1
40
1
41
1
10
155.574585170126
20
1.92530023307242
30
0
41
1
10
155.502723393725
20
1.91951161476786
30
0
41
1
10
155.431687318575
20
1.9098299044245
30
0
41
1
10
155.291318320479
20
1.88244870342203
30
0
41
1
10
155.221987041287
20
1.86474137554663
30
0
41
1
10
155.119255156422
20
1.83223936447874
30
0
41
1
10
155.085100231166
20
1.82036663728891
30
0
41
1
10
155.018341188019
20
1.79517232586827
30
0
41
1
10
154.985621722534
20
1.78182233511742
30
0
41
1
10
154.889317301603
20
1.73985000791256
30
0
41
1
10
154.827581935293
20
1.70931106870921
30
0
41
1
10
154.738203986281
20
1.66099254199054
30
0
41
1
10
154.708949749087
20
1.64446686734758
30
0
41
1
10
154.651447850536
20
1.6107911127803
30
0
41
1
10
154.623485217595
20
1.59380850235689
30
0
41
1
10
154.541989453882
20
1.54290795672526
30
0
41
1
10
154.490713280917
20
1.50898219823179
30
0
41
1
10
154.417719925015
20
1.45912693193455
30
0
41
1
10
154.394046716553
20
1.44267707305684
30
0
41
1
10
154.347950455734
20
1.41025717851065
30
0
41
1
10
154.325490892886
20
1.39425986238234
30
0
41
1
10
154.275736105821
20
1.35854244199038
30
0
41
1
10
154.248942934648
20
1.33909633624091
30
0
41
1
10
154.223445793396
20
1.32054569570255
30
0
0
SPLINE
5
D5
100
AcDbEntity
8
1
62
256
6
ByLayer
370
18
48
1
60
0
100
AcDbSpline
70
4
71
3
72
26
73
22
40
0
40
0
40
0
40
0
40
0.499999999999938
40
0.499999999999938
40
0.749999999999852
40
0.749999999999852
40
0.8124999999998
40
0.8124999999998
40
0.874999999999748
40
0.874999999999748
40
0.937499999999696
40
0.937499999999696
40
0.968749999999727
40
0.968749999999727
40
0.984374999999804
40
0.984374999999804
40
0.992187499999839
40
0.992187499999839
40
0.99609374999992
40
0.99609374999992
40
1
40
1
40
1
40
1
41
1
10
154.661079463134
20
-6.15123049228063
30
0
41
1
10
154.687129042981
20
-6.10873712614693
30
0
41
1
10
154.713217494439
20
-6.06603596211264
30
0
41
1
10
154.752303196752
20
-6.0019068509977
30
0
41
1
10
154.76530236608
20
-5.98056400927021
30
0
41
1
10
154.781615754377
20
-5.95370690383254
30
0
41
1
10
154.7848823827
20
-5.94832502397603
30
0
41
1
10
154.791426810975
20
-5.93753331273334
30
0
41
1
10
154.794706965534
20
-5.93211838622031
30
0
41
1
10
154.801244307729
20
-5.92133485078762
30
0
41
1
10
154.804502101821
20
-5.9159652241834
30
0
41
1
10
154.809328714982
20
-5.90803529395623
30
0
41
1
10
154.810930543802
20
-5.90540657026853
30
0
41
1
10
154.813376082534
20
-5.90137105430776
30
0
41
1
10
154.814198174154
20
-5.90001095122173
30
0
41
1
10
154.815443262426
20
-5.89794420491396
30
0
41
1
10
154.815860144738
20
-5.89725110303186
30
0
41
1
10
154.816488308818
20
-5.89620499455847
30
0
41
1
10
154.81669984394
20
-5.89585167434106
30
0
41
1
10
154.817111240566
20
-5.89517013101172
30
0
41
1
10
154.817349067929
20
-5.89477508119609
30
0
41
1
10
154.817444522881
20
-5.89464494026794
30
0
0
SPLINE
5
D6
100
AcDbEntity
8
1
62
256
6
ByLayer
370
18
48
1
60
0
100
AcDbSpline
70
4
71
3
72
84
73
80
40
0
40
0
40
0
40
0
40
0.0225394753225428
40
0.0225394753225428
40
0.0521576966099901
40
0.0521576966099901
40
0.0817759178974374
40
0.0817759178974374
40
0.111394139184885
40
0.111394139184885
40
0.141012360472332
40
0.141012360472332
40
0.170630581759779
40
0.170630581759779
40
0.200248803047227
40
0.200248803047227
40
0.229867024334674
40
0.229867024334674
40
0.259485245622121
40
0.259485245622121
40
0.274294356265844
40
0.274294356265844
40
0.289103466909566
40
0.289103466909566
40
0.318721688197011
40
0.318721688197011
40
0.348339909484457
40
0.348339909484457
40
0.363149020128181
40
0.363149020128181
40
0.377958130771904
40
0.377958130771904
40
0.407576352059351
40
0.407576352059351
40
0.437194573346799
40
0.437194573346799
40
0.466812794634246
40
0.466812794634246
40
0.496431015921693
40
0.496431015921693
40
0.526049237209141
40
0.526049237209141
40
0.555667458496588
40
0.555667458496588
40
0.570476569140313
40
0.570476569140313
40
0.585285679784037
40
0.585285679784037
40
0.614903901071485
40
0.614903901071485
40
0.644522122358932
40
0.644522122358932
40
0.674140343646379
40
0.674140343646379
40
0.703758564933826
40
0.703758564933826
40
0.733376786221274
40
0.733376786221274
40
0.762995007508721
40
0.762995007508721
40
0.792613228796168
40
0.792613228796168
40
0.822231450083616
40
0.822231450083616
40
0.851849671371063
40
0.851849671371063
40
0.88146789265851
40
0.88146789265851
40
0.911086113945957
40
0.911086113945957
40
0.92589522458968
40
0.92589522458968
40
0.940704335233403
40
0.940704335233403
40
0.970322556520848
40
0.970322556520848
40
0.999940777808293
40
0.999940777808293
40
1
40
1
40
1
40
1
41
1
10
138.835728132086
20
-1.58750312016014
30
0
41
1
10
138.600476093347
20
-1.47741344191607
30
0
41
1
10
138.365280110518
20
-1.36643535368975
30
0
41
1
10
137.821015614548
20
-1.10783889563166
30
0
41
1
10
137.51187860069
20
-0.959645680198747
30
0
41
1
10
136.893508988628
20
-0.661788622383028
30
0
41
1
10
136.584277442073
20
-0.512091069768758
30
0
41
1
10
135.965880460195
20
-0.212076511934299
30
0
41
1
10
135.656963157758
20
-0.0618886095613504
30
0
41
1
10
135.039419346051
20
0.238286324909723
30
0
41
1
10
134.730819547171
20
0.388328250795098
30
0
41
1
10
134.113459240901
20
0.687277673556792
30
0
41
1
10
133.804704425795
20
0.836196629688544
30
0
41
1
10
133.186743498337
20
1.1323024360259
30
0
41
1
10
132.877433440453
20
1.27954337468435
30
0
41
1
10
132.259226964758
20
1.57113649250817
30
0
41
1
10
131.950236082439
20
1.71560012494166
30
0
41
1
10
131.33200714527
20
2.00097247444489
30
0
41
1
10
131.022771816486
20
2.14182512368512
30
0
41
1
10
130.558944109145
20
2.34969931699914
30
0
41
1
10
130.404355999948
20
2.41841846272422
30
0
41
1
10
130.095356164
20
2.55457263639943
30
0
41
1
10
129.94091904551
20
2.62201736053868
30
0
41
1
10
129.47774222133
20
2.82235935096529
30
0
41
1
10
129.169151627028
20
2.95329263755667
30
0
41
1
10
128.552024706338
20
3.20925671535736
30
0
41
1
10
128.243448662837
20
3.33419239249068
30
0
41
1
10
127.780299885307
20
3.51659125424678
30
0
41
1
10
127.625870284433
20
3.57656022965787
30
0
41
1
10
127.316882326046
20
3.69478343390131
30
0
41
1
10
127.162294141632
20
3.75304758812413
30
0
41
1
10
126.69848217168
20
3.92508483695198
30
0
41
1
10
126.389434549779
20
4.03602769302984
30
0
41
1
10
125.771386182974
20
4.24992348598369
30
0
41
1
10
125.462289430163
20
4.35283385555633
30
0
41
1
10
124.843896582169
20
4.54986799582284
30
0
41
1
10
124.534595594136
20
4.64401432256128
30
0
41
1
10
123.916609446735
20
4.82296112834581
30
0
41
1
10
123.607838882366
20
4.9077839938677
30
0
41
1
10
122.99048798154
20
5.06788658530033
30
0
41
1
10
122.681894143162
20
5.14315199947308
30
0
41
1
10
122.064416759126
20
5.2834475068608
30
0
41
1
10
121.755547041201
20
5.34851151860568
30
0
41
1
10
121.291820644882
20
5.43831746648689
30
0
41
1
10
121.137179364095
20
5.46695070789966
30
0
41
1
10
120.828026830021
20
5.52152174776069
30
0
41
1
10
120.673477287498
20
5.54746685440077
30
0
41
1
10
120.20986394748
20
5.6212293583373
30
0
41
1
10
119.900830250945
20
5.6649918510245
30
0
41
1
10
119.282438939584
20
5.7412927894176
30
0
41
1
10
118.973222826065
20
5.77380571647655
30
0
41
1
10
118.354769350672
20
5.82752033501441
30
0
41
1
10
118.045822891766
20
5.84871159729281
30
0
41
1
10
117.428239437198
20
5.87976001334397
30
0
41
1
10
117.119625952774
20
5.88962033811035
30
0
41
1
10
116.502282529895
20
5.89785513672518
30
0
41
1
10
116.193547847611
20
5.89620671210795
30
0
41
1
10
115.575637316309
20
5.88140408034809
30
0
41
1
10
115.266333345354
20
5.86825331102742
30
0
41
1
10
114.648075477527
20
5.83059016150906
30
0
41
1
10
114.339051569917
20
5.80607530166719
30
0
41
1
10
113.72081742738
20
5.74582019386241
30
0
41
1
10
113.411568048471
20
5.71002584573438
30
0
41
1
10
112.793109567331
20
5.6272936508534
30
0
41
1
10
112.483867440914
20
5.5803844016082
30
0
41
1
10
111.865669202469
20
5.47590412775432
30
0
41
1
10
111.556652701455
20
5.41831367038819
30
0
41
1
10
110.938478000407
20
5.29263538904996
30
0
41
1
10
110.629244442618
20
5.22454646792482
30
0
41
1
10
110.165405977123
20
5.11482496155838
30
0
41
1
10
110.010776096995
20
5.07698681745686
30
0
41
1
10
109.701707628618
20
4.99890995170347
30
0
41
1
10
109.547242679248
20
4.9586651088803
30
0
41
1
10
109.083993735506
20
4.83440036500616
30
0
41
1
10
108.775355084979
20
4.74685299655781
30
0
41
1
10
108.158204228743
20
4.56269072897805
30
0
41
1
10
107.84966261533
20
4.46611331130504
30
0
41
1
10
107.540323966714
20
4.36505496223702
30
0
41
1
10
107.539706671879
20
4.36485328027825
30
0
41
1
10
107.539089376375
20
4.36465158120364
30
0
0
SPLINE
5
D7
100
AcDbEntity
8
1
62
256
6
ByLayer
370
18
48
1
60
0
100
AcDbSpline
70
4
71
3
72
26
73
22
40
0
40
0
40
0
40
0
40
0.499999999999997
40
0.499999999999997
40
0.749999999999935
40
0.749999999999935
40
0.812499999999949
40
0.812499999999949
40
0.874999999999962
40
0.874999999999962
40
0.937499999999975
40
0.937499999999975
40
0.96875000000004
40
0.96875000000004
40
0.984375000000014
40
0.984375000000014
40
0.992187500000004
40
0.992187500000004
40
0.996093750000002
40
0.996093750000002
40
1
40
1
40
1
40
1
41
1
10
154.66107946313
20
6.15123049228777
30
0
41
1
10
154.687129042985
20
6.10873712613912
30
0
41
1
10
154.713217494453
20
6.06603596208973
30
0
41
1
10
154.75230319678
20
6.00190685095214
30
0
41
1
10
154.765302366112
20
5.98056400921709
30
0
41
1
10
154.781615754415
20
5.95370690376961
30
0
41
1
10
154.78488238274
20
5.94832502391108
30
0
41
1
10
154.791426811017
20
5.93753331266439
30
0
41
1
10
154.794706965577
20
5.93211838614943
30
0
41
1
10
154.801244307775
20
5.92133485071335
30
0
41
1
10
154.804502101867
20
5.91596522410788
30
0
41
1
10
154.809328715029
20
5.9080352938789
30
0
41
1
10
154.81093054385
20
5.90540657018965
30
0
41
1
10
154.813376082584
20
5.90137105422573
30
0
41
1
10
154.814198174205
20
5.90001095113846
30
0
41
1
10
154.815443262477
20
5.89794420482889
30
0
41
1
10
154.815860144789
20
5.89725110294629
30
0
41
1
10
154.81648830887
20
5.89620499447202
30
0
41
1
10
154.816699843992
20
5.895851674254
30
0
41
1
10
154.817111240616
20
5.89517013092961
30
0
41
1
10
154.817349067986
20
5.89477508110204
30
0
41
1
10
154.817444522905
20
5.89464494023551
30
0
0
SPLINE
5
D8
100
AcDbEntity
8
1
62
256
6
ByLayer
370
18
48
1
60
0
100
AcDbSpline
70
4
71
3
72
36
73
32
40
0
40
0
40
0
40
0
40
0.0450288166597071
40
0.0450288166597071
40
0.0900576333194148
40
0.0900576333194148
40
0.180115266638823
40
0.180115266638823
40
0.27017289995823
40
0.27017289995823
40
0.315201716617931
40
0.315201716617931
40
0.360230533277632
40
0.360230533277632
40
0.45028816659704
40
0.45028816659704
40
0.540345799916448
40
0.540345799916448
40
0.630403433235857
40
0.630403433235857
40
0.675432249895561
40
0.675432249895561
40
0.720461066555265
40
0.720461066555265
40
0.810518699874679
40
0.810518699874679
40
0.900576333194094
40
0.900576333194094
40
0.990633966513508
40
0.990633966513508
40
1
40
1
40
1
40
1
41
1
10
154.817444522943
20
5.89464494026569
30
0
41
1
10
154.662912044714
20
5.89611090348282
30
0
41
1
10
154.508365690278
20
5.89613507577769
30
0
41
1
10
154.199205568044
20
5.89330544779685
30
0
41
1
10
154.044584106908
20
5.8904513979453
30
0
41
1
10
153.580870797846
20
5.87759599791545
30
0
41
1
10
153.271824277051
20
5.86329676454523
30
0
41
1
10
152.653642311426
20
5.82335798063298
30
0
41
1
10
152.344471401494
20
5.79774226621129
30
0
41
1
10
151.880685442411
20
5.75079811321223
30
0
41
1
10
151.726084687863
20
5.73373371995143
30
0
41
1
10
151.416874382386
20
5.69682403238599
30
0
41
1
10
151.262244970008
20
5.67697741325395
30
0
41
1
10
150.798603094466
20
5.61337879158484
30
0
41
1
10
150.489760740123
20
5.56556664233443
30
0
41
1
10
149.872317599359
20
5.45915057731281
30
0
41
1
10
149.5637506598
20
5.40048095315427
30
0
41
1
10
148.946414273384
20
5.27273852405219
30
0
41
1
10
148.637638786262
20
5.20366619080198
30
0
41
1
10
148.174079370004
20
5.09249428183904
30
0
41
1
10
148.01945726428
20
5.0541681917461
30
0
41
1
10
147.710288642207
20
4.97510753702562
30
0
41
1
10
147.555732657096
20
4.93437178920178
30
0
41
1
10
147.092095494177
20
4.8086238450409
30
0
41
1
10
146.783063778341
20
4.72005869468626
30
0
41
1
10
146.164735899541
20
4.53390453233237
30
0
41
1
10
145.855510685978
20
4.43633274082836
30
0
41
1
10
145.237057711556
20
4.232750155107
30
0
41
1
10
144.927821723112
20
4.12674855828885
30
0
41
1
10
144.5865748883
20
4.00539748349274
30
0
41
1
10
144.554429207266
20
3.99392277263561
30
0
41
1
10
144.522284223145
20
3.98240532151775
30
0
0
SPLINE
5
D9
100
AcDbEntity
8
1
62
256
6
ByLayer
370
18
48
1
60
0
100
AcDbSpline
70
4
71
3
72
8
73
4
40
0
40
0
40
0
40
0
40
1
40
1
40
1
40
1
41
1
10
117.904720729624
20
-5.8552492080118
30
0
41
1
10
117.865496697962
20
-5.85748130618933
30
0
41
1
10
117.826275528458
20
-5.85962200410557
30
0
41
1
10
117.787056963949
20
-5.86167129969729
30
0
0
SPLINE
5
DA
100
AcDbEntity
8
1
62
256
6
ByLayer
370
18
48
1
60
0
100
AcDbSpline
70
4
71
3
72
16
73
12
40
0
40
0
40
0
40
0
40
0.148501348848968
40
0.148501348848968
40
0.318801079079172
40
0.318801079079172
40
0.65940053953958
40
0.65940053953958
40
0.82970026976979
40
0.82970026976979
40
1
40
1
40
1
40
1
41
1
10
100.930775560644
20
-1.67847969979749
30
0
41
1
10
100.661146471297
20
-1.55283026453361
30
0
41
1
10
100.39159884247
20
-1.42597087976262
30
0
41
1
10
99.8129913933959
20
-1.15155761546418
30
0
41
1
10
99.5039082267685
20
-1.00362144307835
30
0
41
1
10
98.5763263773229
20
-0.557266919547885
30
0
41
1
10
97.9577853215013
20
-0.256619562212194
30
0
41
1
10
97.0300953553502
20
0.194186238804292
30
0
41
1
10
96.7208096289421
20
0.344520614722114
30
0
41
1
10
96.1025632656023
20
0.644192246281563
30
0
41
1
10
95.7937386442447
20
0.793349070558065
30
0
41
1
10
95.4850401761775
20
0.941477128947497
30
0
0
SPLINE
5
DB
100
AcDbEntity
8
1
62
256
6
ByLayer
370
18
48
1
60
0
100
AcDbSpline
70
2053
71
3
72
116
73
112
40
0
40
0
40
0
40
0
40
0.0312500000000076
40
0.0312500000000076
40
0.0625000000000152
40
0.0625000000000152
40
0.0937500000000227
40
0.0937500000000227
40
0.12500000000003
40
0.12500000000003
40
0.156250000000038
40
0.156250000000038
40
0.187500000000045
40
0.187500000000045
40
0.218750000000053
40
0.218750000000053
40
0.234375000000056
40
0.234375000000056
40
0.242187500000058
40
0.242187500000058
40
0.250000000000059
40
0.250000000000059
40
0.281250000000065
40
0.281250000000065
40
0.296875000000068
40
0.296875000000068
40
0.304687500000069
40
0.304687500000069
40
0.31250000000007
40
0.31250000000007
40
0.343750000000066
40
0.343750000000066
40
0.351562500000064
40
0.351562500000064
40
0.359375000000062
40
0.375000000000059
40
0.390625000000055
40
0.390625000000055
40
0.406250000000052
40
0.406250000000052
40
0.421875000000048
40
0.421875000000048
40
0.437500000000045
40
0.437500000000045
40
0.468750000000038
40
0.468750000000038
40
0.484375000000034
40
0.484375000000034
40
0.492187500000032
40
0.492187500000032
40
0.500000000000031
40
0.500000000000031
40
0.531250000000034
40
0.531250000000034
40
0.539062500000034
40
0.539062500000034
40
0.546875000000033
40
0.546875000000033
40
0.562500000000028
40
0.562500000000028
40
0.593750000000017
40
0.593750000000017
40
0.601562500000014
40
0.601562500000014
40
0.609375000000011
40
0.609375000000011
40
0.625000000000009
40
0.625000000000009
40
0.656250000000002
40
0.656250000000002
40
0.671874999999997
40
0.671874999999997
40
0.687499999999993
40
0.687499999999993
40
0.718749999999985
40
0.718749999999985
40
0.734374999999982
40
0.734374999999982
40
0.749999999999978
40
0.749999999999978
40
0.781249999999972
40
0.781249999999972
40
0.789062499999971
40
0.789062499999971
40
0.79687499999997
40
0.79687499999997
40
0.812499999999965
40
0.828124999999961
40
0.828124999999961
40
0.83593749999996
40
0.83593749999996
40
0.84374999999996
40
0.84374999999996
40
0.874999999999958
40
0.874999999999958
40
0.882812499999958
40
0.882812499999958
40
0.890624999999957
40
0.906249999999962
40
0.921874999999967
40
0.921874999999967
40
0.937499999999971
40
0.937499999999971
40
0.968749999999981
40
0.968749999999981
40
0.976562499999985
40
0.976562499999985
40
0.98437499999999
40
0.992187499999995
40
0.992187499999995
40
1
40
1
40
1
40
1
41
1
10
155.412587465217
20
-2.67762510867974
30
0
41
1
10
155.390697469029
20
-2.70588371089025
30
0
41
1
10
155.36976428356
20
-2.72930009690558
30
0
41
1
10
155.329597497937
20
-2.76701809747726
30
0
41
1
10
155.310365016319
20
-2.78131728522348
30
0
41
1
10
155.273526309432
20
-2.80039280980094
30
0
41
1
10
155.25642918171
20
-2.80490022366354
30
0
41
1
10
155.22468290051
20
-2.80409060048004
30
0
41
1
10
155.210025987298
20
-2.7987813197964
30
0
41
1
10
155.183145757059
20
-2.77758931798729
30
0
41
1
10
155.171312993912
20
-2.76200123397362
30
0
41
1
10
155.15075544795
20
-2.72095116856428
30
0
41
1
10
155.142015778098
20
-2.69548881421778
30
0
41
1
10
155.127821853956
20
-2.63361131792431
30
0
41
1
10
155.122614092619
20
-2.59825119353098
30
0
41
1
10
155.117633324509
20
-2.53861357217338
30
0
41
1
10
155.116447758214
20
-2.51762275270517
30
0
41
1
10
155.115417850258
20
-2.48438647109757
30
0
41
1
10
155.115199581689
20
-2.47301545288218
30
0
41
1
10
155.115023195439
20
-2.44966714036221
30
0
41
1
10
155.115066217107
20
-2.43765833139153
30
0
41
1
10
155.115946279164
20
-2.37683496209354
30
0
41
1
10
155.118739097472
20
-2.32523378522438
30
0
41
1
10
155.126216688112
20
-2.24334990773735
30
0
41
1
10
155.129262011417
20
-2.21530266548473
30
0
41
1
10
155.134728817917
20
-2.1720360643219
30
0
41
1
10
155.136696338465
20
-2.15746062326483
30
0
41
1
10
155.140881835971
20
-2.1283111910339
30
0
41
1
10
155.143105300295
20
-2.11369290062876
30
0
41
1
10
155.154876823401
20
-2.04038811884206
30
0
41
1
10
155.166363922304
20
-1.98106840524389
30
0
41
1
10
155.183552506401
20
-1.90607771454748
30
0
41
1
10
155.187129578744
20
-1.89105787236741
30
0
41
1
10
155.194475714137
20
-1.86133784952977
30
0
41
1
10
155.205817817761
20
-1.81708845208721
30
0
41
1
10
155.226318993078
20
-1.74495323590128
30
0
41
1
10
155.244440310964
20
-1.68894182013909
30
0
41
1
10
155.263453905693
20
-1.63379231356288
30
0
41
1
10
155.273244143522
20
-1.60712158371828
30
0
41
1
10
155.293347756877
20
-1.55555045872606
30
0
41
1
10
155.303665698163
20
-1.53063752755469
30
0
41
1
10
155.324829358846
20
-1.48249880521021
30
0
41
1
10
155.335692849288
20
-1.45923756419043
30
0
41
1
10
155.36897278693
20
-1.3921947697082
30
0
41
1
10
155.391541715027
20
-1.35217772336463
30
0
41
1
10
155.42592313958
20
-1.29844758398281
30
0
41
1
10
155.437471772536
20
-1.28159568310912
30
0
41
1
10
155.454922297477
20
-1.25788476075104
30
0
41
1
10
155.460752995422
20
-1.25025419269576
30
0
41
1
10
155.472354688816
20
-1.23563737049682
30
0
41
1
10
155.478137885974
20
-1.22863431482378
30
0
41
1
10
155.506965452931
20
-1.19510204652028
30
0
41
1
10
155.529748580088
20
-1.17298282943881
30
0
41
1
10
155.557834634858
20
-1.15093555328352
30
0
41
1
10
155.563431952669
20
-1.14680856100742
30
0
41
1
10
155.574584670628
20
-1.13912181757976
30
0
41
1
10
155.580145091519
20
-1.13556024353804
30
0
41
1
10
155.596624231126
20
-1.12580871357343
30
0
41
1
10
155.6073855565
20
-1.12051696154967
30
0
41
1
10
155.638990497569
20
-1.10815006286455
30
0
41
1
10
155.659161691586
20
-1.10455322426353
30
0
41
1
10
155.683139185493
20
-1.10593831889347
30
0
41
1
10
155.687872329653
20
-1.1065118158908
30
0
41
1
10
155.697208810308
20
-1.10826367310668
30
0
41
1
10
155.701818444363
20
-1.10944540012491
30
0
41
1
10
155.715324497159
20
-1.11387579312131
30
0
41
1
10
155.723936207753
20
-1.11801095617184
30
0
41
1
10
155.748573943695
20
-1.13393037111004
30
0
41
1
10
155.763414282159
20
-1.14919379428315
30
0
41
1
10
155.783024118766
20
-1.17953161851358
30
0
41
1
10
155.789120597594
20
-1.19090252795161
30
0
41
1
10
155.800319888763
20
-1.21630102772835
30
0
41
1
10
155.805332511125
20
-1.23012243094487
30
0
41
1
10
155.818588538816
20
-1.27495590022471
30
0
41
1
10
155.825067932128
20
-1.30929962432015
30
0
41
1
10
155.830879821952
20
-1.36812335944097
30
0
41
1
10
155.832162650066
20
-1.38898713372669
30
0
41
1
10
155.833288423333
20
-1.4332876395361
30
0
41
1
10
155.833121479671
20
-1.45628817697036
30
0
41
1
10
155.830457905041
20
-1.52782427388638
30
0
41
1
10
155.825820027039
20
-1.57886448663649
30
0
41
1
10
155.81623289591
20
-1.64721056049274
30
0
41
1
10
155.814115209039
20
-1.66116305060979
30
0
41
1
10
155.809533893048
20
-1.68925115532986
30
0
41
1
10
155.807074499077
20
-1.70336990598133
30
0
41
1
10
155.799204527309
20
-1.74594701763283
30
0
41
1
10
155.787402397493
20
-1.80330439239356
30
0
41
1
10
155.773073423364
20
-1.86183367826928
30
0
41
1
10
155.761383971917
20
-1.90618373721281
30
0
41
1
10
155.757317241306
20
-1.92108620492874
30
0
41
1
10
155.74897046622
20
-1.95068431940882
30
0
41
1
10
155.744683192211
20
-1.96541051615967
30
0
41
1
10
155.722703511775
20
-2.03869089614136
30
0
41
1
10
155.703399925399
20
-2.09620503885896
30
0
41
1
10
155.677333857212
20
-2.16680193350314
30
0
41
1
10
155.672045842805
20
-2.18079184558008
30
0
41
1
10
155.661390422434
20
-2.20835792676644
30
0
41
1
10
155.645258277361
20
-2.24916287178778
30
0
41
1
10
155.617675238542
20
-2.31455622994258
30
0
41
1
10
155.594930043553
20
-2.36419564608991
30
0
41
1
10
155.57186224362
20
-2.41251055037341
30
0
41
1
10
155.560333096293
20
-2.43565793388129
30
0
41
1
10
155.525805357857
20
-2.50219729625459
30
0
41
1
10
155.502853416766
20
-2.54274348330816
30
0
41
1
10
155.474258650517
20
-2.5888399877123
30
0
41
1
10
155.468536416989
20
-2.59783941863805
30
0
41
1
10
155.457171341297
20
-2.61526542534534
30
0
41
1
10
155.445872646092
20
-2.63214083184525
30
0
41
1
10
155.434703649893
20
-2.64793077880421
30
0
41
1
10
155.423598186825
20
-2.66318196726309
30
0
41
1
10
155.418059964264
20
-2.67056045812711
30
0
41
1
10
155.412587465217
20
-2.67762510867974
30
0
0
SPLINE
5
DC
100
AcDbEntity
8
1
62
256
6
ByLayer
370
18
48
1
60
0
100
AcDbSpline
70
4
71
3
72
13
73
9
40
0
40
0
40
0
40
0
40
0.5
40
0.5
40
0.625000000000005
40
0.625000000000005
40
0.75000000000001
40
1
40
1
40
1
40
1
41
1
10
154.966166901384
20
-5.63651034555713
30
0
41
1
10
154.920518232552
20
-5.70425445530694
30
0
41
1
10
154.878685077841
20
-5.76119677027668
30
0
41
1
10
154.831100447645
20
-5.81749680240756
30
0
41
1
10
154.821812143192
20
-5.82801801993421
30
0
41
1
10
154.803730341012
20
-5.84749702438117
30
0
41
1
10
154.777539382975
20
-5.87416758721577
30
0
41
1
10
154.754008204024
20
-5.89336103669717
30
0
41
1
10
154.739393498931
20
-5.90295036970181
30
0
0
SPLINE
5
DD
100
AcDbEntity
8
1
62
256
6
ByLayer
370
18
48
1
60
0
100
AcDbSpline
70
4
71
3
72
27
73
23
40
0
40
0
40
0
40
0
40
0.125000000000002
40
0.125000000000002
40
0.250000000000004
40
0.250000000000004
40
0.312500000000006
40
0.312500000000006
40
0.343750000000006
40
0.343750000000006
40
0.375000000000007
40
0.437500000000008
40
0.437500000000008
40
0.468750000000009
40
0.468750000000009
40
0.50000000000001
40
0.50000000000001
40
0.750000000000002
40
0.750000000000002
40
0.875000000000001
40
0.875000000000001
40
1
40
1
40
1
40
1
41
1
10
156.378631881177
20
-2.00215928068604
30
0
41
1
10
156.307345394576
20
-2.13386179119999
30
0
41
1
10
156.238360096206
20
-2.26989679517456
30
0
41
1
10
156.104386886433
20
-2.55029379642139
30
0
41
1
10
156.039399333762
20
-2.69465401073376
30
0
41
1
10
155.944451799859
20
-2.91734305030118
30
0
41
1
10
155.913224954374
20
-2.99259982004296
30
0
41
1
10
155.866959874601
20
-3.10703920063335
30
0
41
1
10
155.851620254558
20
-3.14548147099475
30
0
41
1
10
155.82131584096
20
-3.22239281876637
30
0
41
1
10
155.776353204013
20
-3.33796594214377
30
0
41
1
10
155.732795881373
20
-3.45412868833088
30
0
41
1
10
155.690068442216
20
-3.57064416177488
30
0
41
1
10
155.675966239819
20
-3.60954227970376
30
0
41
1
10
155.6480072067
20
-3.68744361180623
30
0
41
1
10
155.634064266976
20
-3.72641004393449
30
0
41
1
10
155.508690566208
20
-4.07715807327162
30
0
41
1
10
155.398482946432
20
-4.38969200737995
30
0
41
1
10
155.235102564155
20
-4.85782383809894
30
0
41
1
10
155.18094698273
20
-5.01379314696902
30
0
41
1
10
155.073157177368
20
-5.32549564400753
30
0
41
1
10
155.019530103917
20
-5.48120927260231
30
0
41
1
10
154.966166901384
20
-5.63651034555684
30
0
0
SPLINE
5
DE
100
AcDbEntity
8
1
62
256
6
ByLayer
370
18
48
1
60
0
100
AcDbSpline
70
4
71
3
72
8
73
4
40
0
40
0
40
0
40
0
40
1
40
1
40
1
40
1
41
1
10
156.378631881177
20
-2.00215928068607
30
0
41
1
10
156.541827293639
20
-1.54556475270479
30
0
41
1
10
156.703654509523
20
-1.08848935389923
30
0
41
1
10
156.864085703681
20
-0.630923304751576
30
0
0
SPLINE
5
DF
100
AcDbEntity
8
1
62
256
6
ByLayer
370
18
48
1
60
0
100
AcDbSpline
70
4
71
3
72
8
73
4
40
0
40
0
40
0
40
0
40
1
40
1
40
1
40
1
41
1
10
156.864085703681
20
-0.630923304751576
30
0
41
1
10
156.907733673628
20
-0.50643486429027
30
0
41
1
10
156.95224190698
20
-0.382423869780354
30
0
41
1
10
156.997608519269
20
-0.258873374360917
30
0
0
SPLINE
5
E0
100
AcDbEntity
8
1
62
256
6
ByLayer
370
18
48
1
60
0
100
AcDbSpline
70
4
71
3
72
8
73
4
40
0
40
0
40
0
40
0
40
1
40
1
40
1
40
1
41
1
10
156.997608519269
20
0.258873374360888
30
0
41
1
10
157.000790830848
20
0.0866336977382787
30
0
41
1
10
157.000803514877
20
-0.085947186411488
30
0
41
1
10
156.997608519269
20
-0.258873374360917
30
0
0
SPLINE
5
E1
100
AcDbEntity
8
1
62
256
6
ByLayer
370
18
48
1
60
0
100
AcDbSpline
70
4
71
3
72
59
73
55
40
0
40
0
40
0
40
0
40
0.0624999999999738
40
0.0624999999999738
40
0.0937499999999561
40
0.109374999999947
40
0.109374999999947
40
0.124999999999938
40
0.124999999999938
40
0.187499999999903
40
0.187499999999903
40
0.249999999999868
40
0.249999999999868
40
0.281249999999845
40
0.281249999999845
40
0.296874999999839
40
0.296874999999839
40
0.312499999999833
40
0.312499999999833
40
0.374999999999819
40
0.374999999999819
40
0.437499999999806
40
0.437499999999806
40
0.4531249999998
40
0.4531249999998
40
0.468749999999794
40
0.468749999999794
40
0.499999999999792
40
0.499999999999792
40
0.562499999999789
40
0.562499999999789
40
0.593749999999792
40
0.593749999999792
40
0.609374999999798
40
0.609374999999798
40
0.624999999999804
40
0.624999999999804
40
0.687499999999828
40
0.687499999999828
40
0.718749999999845
40
0.718749999999845
40
0.734374999999853
40
0.734374999999853
40
0.749999999999861
40
0.749999999999861
40
0.812499999999892
40
0.812499999999892
40
0.874999999999924
40
0.874999999999924
40
0.906249999999942
40
0.906249999999942
40
0.93749999999996
40
0.93749999999996
40
1
40
1
40
1
40
1
41
1
10
156.997608519269
20
0.258873374360888
30
0
41
1
10
156.975179322294
20
0.193870888159864
30
0
41
1
10
156.951551312038
20
0.129434936709629
30
0
41
1
10
156.914315407245
20
0.0336399613296408
30
0
41
1
10
156.895247876056
20
-0.0140422580689119
30
0
41
1
10
156.875495491279
20
-0.0613943975725704
30
0
41
1
10
156.862172967762
20
-0.0928878974642657
30
0
41
1
10
156.855423081275
20
-0.108623748431796
30
0
41
1
10
156.821428252439
20
-0.186778177576343
30
0
41
1
10
156.793594063305
20
-0.247312340304802
30
0
41
1
10
156.736747288094
20
-0.364417364905307
30
0
41
1
10
156.707734883827
20
-0.420989261660367
30
0
41
1
10
156.663347360227
20
-0.502740295245758
30
0
41
1
10
156.648406076958
20
-0.529471232471764
30
0
41
1
10
156.625771463661
20
-0.568754575900186
30
0
41
1
10
156.618189429592
20
-0.581713381669545
30
0
41
1
10
156.60294964629
20
-0.607352296706239
30
0
41
1
10
156.595298733714
20
-0.620019787673584
30
0
41
1
10
156.557199599321
20
-0.682084360523675
30
0
41
1
10
156.526949801403
20
-0.728133358926073
30
0
41
1
10
156.466914362021
20
-0.813066814204291
30
0
41
1
10
156.437128803864
20
-0.851952766456805
30
0
41
1
10
156.400177163036
20
-0.895855987665584
30
0
41
1
10
156.392800794032
20
-0.904400340076592
30
0
41
1
10
156.378075487069
20
-0.921006158310689
30
0
41
1
10
156.370712420166
20
-0.929081964963046
30
0
41
1
10
156.348850029108
20
-0.952371967163771
30
0
41
1
10
156.334531871761
20
-0.96670470225726
30
0
41
1
10
156.292311408852
20
-1.00620114767395
30
0
41
1
10
156.26514115006
20
-1.02787832529378
30
0
41
1
10
156.225746802171
20
-1.05344033725197
30
0
41
1
10
156.212842711466
20
-1.06079818811648
30
0
41
1
10
156.193818919526
20
-1.07005901297558
30
0
41
1
10
156.187520588689
20
-1.0728544624495
30
0
41
1
10
156.175100009027
20
-1.07781898364618
30
0
41
1
10
156.168983422133
20
-1.07998716178551
30
0
41
1
10
156.138852507219
20
-1.0892896166277
30
0
41
1
10
156.116188304843
20
-1.09182858636774
30
0
41
1
10
156.084114010652
20
-1.08863814414752
30
0
41
1
10
156.073744096018
20
-1.08640420618434
30
0
41
1
10
156.058650941449
20
-1.08130953574189
30
0
41
1
10
156.053696900405
20
-1.07932047557091
30
0
41
1
10
156.043940072929
20
-1.07476020511774
30
0
41
1
10
156.039129004305
20
-1.0721835830883
30
0
41
1
10
156.015570479776
20
-1.05791925512941
30
0
41
1
10
155.998298719343
20
-1.04212782755169
30
0
41
1
10
155.966484582198
20
-1.00248565479689
30
0
41
1
10
155.951944169008
20
-0.978630810611492
30
0
41
1
10
155.931990243866
20
-0.937038980946909
30
0
41
1
10
155.925638298633
20
-0.922169594039872
30
0
41
1
10
155.913635877807
20
-0.890786002466911
30
0
41
1
10
155.907973688064
20
-0.874253917728396
30
0
41
1
10
155.891943435287
20
-0.822232851299418
30
0
41
1
10
155.882527807079
20
-0.784326334977152
30
0
41
1
10
155.874275472421
20
-0.743349596858081
30
0
0
SPLINE
5
E2
100
AcDbEntity
8
1
62
256
6
ByLayer
370
18
48
1
60
0
100
AcDbSpline
70
4
71
3
72
8
73
4
40
0
40
0
40
0
40
0
40
1
40
1
40
1
40
1
41
1
10
155.874275472421
20
-0.743349596858224
30
0
41
1
10
155.773102151065
20
-0.240976284831845
30
0
41
1
10
155.644747789682
20
0.277779376760463
30
0
41
1
10
155.488880574195
20
0.813117376374635
30
0
0
SPLINE
5
E3
100
AcDbEntity
8
1
62
256
6
ByLayer
370
18
48
1
60
0
100
AcDbSpline
70
4
71
3
72
16
73
12
40
0
40
0
40
0
40
0
40
0.249999999999999
40
0.249999999999999
40
0.499999999999999
40
0.499999999999999
40
0.624999999999999
40
0.624999999999999
40
0.749999999999999
40
0.749999999999999
40
1
40
1
40
1
40
1
41
1
10
154.721511719182
20
0.272899565649624
30
0
41
1
10
154.783286477062
20
0.339978165013917
30
0
41
1
10
154.845863984146
20
0.401697620973039
30
0
41
1
10
154.972253919623
20
0.514323568209335
30
0
41
1
10
155.036066565982
20
0.565195555775773
30
0
41
1
10
155.13240298563
20
0.632931740769607
30
0
41
1
10
155.164617515552
20
0.654083597931987
30
0
41
1
10
155.229207376811
20
0.693717400441074
30
0
41
1
10
155.261584525024
20
0.712234394817528
30
0
41
1
10
155.358870996855
20
0.763530365505716
30
0
41
1
10
155.42393778756
20
0.791966838149591
30
0
41
1
10
155.488880574195
20
0.813117376374663
30
0
0
SPLINE
5
E4
100
AcDbEntity
8
1
62
256
6
ByLayer
370
13
48
1
60
0
100
AcDbSpline
70
4
71
3
72
44
73
40
40
0
40
0
40
0
40
0
40
0.024192338213677
40
0.024192338213677
40
0.0578408782752743
40
0.0578408782752743
40
0.125137958398469
40
0.192435038521664
40
0.259732118644859
40
0.259732118644859
40
0.293380658706456
40
0.293380658706456
40
0.327029198768053
40
0.327029198768053
40
0.394326278891248
40
0.394326278891248
40
0.427974818952845
40
0.444799088983644
40
0.444799088983644
40
0.461623359014443
40
0.461623359014443
40
0.528920439137637
40
0.596217519260831
40
0.663514599384026
40
0.663514599384026
40
0.697163139445623
40
0.713987409476422
40
0.713987409476422
40
0.730811679507221
40
0.730811679507221
40
0.798108759630416
40
0.798108759630416
40
0.86540583975361
40
0.932702919876805
40
0.932702919876805
40
0.966351459938403
40
0.983175729969201
40
0.983175729969201
40
1
40
1
40
1
40
1
41
1
10
95.585552571967
20
5.80844521961896
30
0
41
1
10
95.585550671699
20
5.80650510279779
30
0
41
1
10
95.5855487312689
20
5.803663362213
30
0
41
1
10
95.5855440075244
20
5.79471519249651
30
0
41
1
10
95.5855412007571
20
5.78778733261444
30
0
41
1
10
95.5855326276671
20
5.76193108915828
30
0
41
1
10
95.5855207912041
20
5.7139469602869
30
0
41
1
10
95.5855021250383
20
5.6022630168022
30
0
41
1
10
95.5854892232203
20
5.50131426875973
30
0
41
1
10
95.5854794134883
20
5.41544811998386
30
0
41
1
10
95.5854761190089
20
5.38511032438197
30
0
41
1
10
95.5854694984808
20
5.32106768115406
30
0
41
1
10
95.5854661870799
20
5.28750642418478
30
0
41
1
10
95.5854562547307
20
5.18224863111496
30
0
41
1
10
95.5854496363744
20
5.10598615548221
30
0
41
1
10
95.58543972105
20
4.98249053028445
30
0
41
1
10
95.5854347661618
20
4.91846419688594
30
0
41
1
10
95.5854298142965
20
4.85099873183856
30
0
41
1
10
95.5854265134205
20
4.80525317257263
30
0
41
1
10
95.5854248619214
20
4.78197771129436
30
0
41
1
10
95.5854166338846
20
4.66409355374518
30
0
41
1
10
95.585403622754
20
4.46537034255965
30
0
41
1
10
95.5853844428871
20
4.13784152152485
30
0
41
1
10
95.5853717622883
20
3.90001556704817
30
0
41
1
10
95.5853622325981
20
3.71424810116181
30
0
41
1
10
95.5853574626877
20
3.6195124295856
30
0
41
1
10
95.5853526717143
20
3.52195795766238
30
0
41
1
10
95.5853494713714
20
3.45628900942344
30
0
41
1
10
95.5853478663149
20
3.42310228611007
30
0
41
1
10
95.5853398552879
20
3.25629199888894
30
0
41
1
10
95.585333474915
20
3.11969501308133
30
0
41
1
10
95.5853206568139
20
2.84038818715598
30
0
41
1
10
95.5853077815938
20
2.5549676704602
30
0
41
1
10
95.585294545964
20
2.25742072984389
30
0
41
1
10
95.5852843822769
20
2.0296544879927
30
0
41
1
10
95.5852792409904
20
1.91461834087576
30
0
41
1
10
95.5852739895457
20
1.7978273785148
30
0
41
1
10
95.5852704616166
20
1.7195729186767
30
0
41
1
10
95.5852686831136
20
1.68022547973837
30
0
41
1
10
95.5852668936384
20
1.64076223504915
30
0
0
SPLINE
5
E5
100
AcDbEntity
8
1
62
256
6
ByLayer
370
18
48
1
60
0
100
AcDbSpline
70
4
71
3
72
44
73
40
40
0
40
0
40
0
40
0
40
0.0426142922899332
40
0.0426142922899332
40
0.136789550499558
40
0.136789550499558
40
0.18387717960437
40
0.230964808709183
40
0.230964808709183
40
0.325140066918803
40
0.325140066918803
40
0.372227696023613
40
0.395771510576017
40
0.407543417852221
40
0.407543417852221
40
0.419315325128425
40
0.419315325128425
40
0.51349058333808
40
0.51349058333808
40
0.607665841547736
40
0.607665841547736
40
0.70184109975739
40
0.70184109975739
40
0.748928728862216
40
0.748928728862216
40
0.796016357967042
40
0.796016357967042
40
0.843103987071868
40
0.866647801624279
40
0.866647801624279
40
0.878419708900483
40
0.878419708900483
40
0.890191616176687
40
0.890191616176687
40
0.937279245281509
40
0.937279245281509
40
0.984366874386331
40
0.984366874386331
40
1
40
1
40
1
40
1
41
1
10
98.4688602960325
20
0.28183422631119
30
0
41
1
10
98.7488196797163
20
0.147741527221314
30
0
41
1
10
99.0282730278944
20
0.0136675558676131
30
0
41
1
10
99.9240007902646
20
-0.415946423325664
30
0
41
1
10
100.538736021013
20
-0.710498861970962
30
0
41
1
10
101.45986556427
20
-1.14641174799473
30
0
41
1
10
102.073613214418
20
-1.43507809283202
30
0
41
1
10
102.687485851717
20
-1.71820966369313
30
0
41
1
10
103.608775690994
20
-2.1379240861726
30
0
41
1
10
104.223604188936
20
-2.41110471368273
30
0
41
1
10
105.148742038253
20
-2.80696858162929
30
0
41
1
10
105.612035520804
20
-3.00142085296625
30
0
41
1
10
106.154380782102
20
-3.22108811696904
30
0
41
1
10
106.38724341334
20
-3.31361127455008
30
0
41
1
10
106.542584374346
20
-3.3749247708522
30
0
41
1
10
106.620296308964
20
-3.40539377972468
30
0
41
1
10
107.318943305107
20
-3.67744459352187
30
0
41
1
10
107.936717170975
20
-3.9046907414108
30
0
41
1
10
109.168620151405
20
-4.3263815176648
30
0
41
1
10
109.782761124435
20
-4.52078138360179
30
0
41
1
10
111.010070886346
20
-4.87323029196099
30
0
41
1
10
111.62322801732
20
-5.03133243055279
30
0
41
1
10
112.54409176519
20
-5.23923412155196
30
0
41
1
10
112.851233746756
20
-5.30365606264766
30
0
41
1
10
113.466270200869
20
-5.42224495837038
30
0
41
1
10
113.774180266731
20
-5.47647925408714
30
0
41
1
10
114.391053194094
20
-5.57444643309154
30
0
41
1
10
114.854479918022
20
-5.63997168997096
30
0
41
1
10
115.319473635032
20
-5.69321303771119
30
0
41
1
10
115.552264941661
20
-5.71776970084551
30
0
41
1
10
115.629942494879
20
-5.72561405939717
30
0
41
1
10
115.78515692408
20
-5.74058864996334
30
0
41
1
10
115.862712000581
20
-5.74772112338681
30
0
41
1
10
116.250241987517
20
-5.78161466691964
30
0
41
1
10
116.559479588495
20
-5.8030679197428
30
0
41
1
10
117.176641208805
20
-5.8345391217928
30
0
41
1
10
117.484567515905
20
-5.84456365056397
30
0
41
1
10
117.894103405557
20
-5.85042231244071
30
0
41
1
10
117.996128455707
20
-5.85126192285728
30
0
41
1
10
118.098107669571
20
-5.85147911701316
30
0
0
SPLINE
5
E6
100
AcDbEntity
8
1
62
256
6
ByLayer
370
18
48
1
60
0
100
AcDbSpline
70
4
71
3
72
46
73
42
40
0
40
0
40
0
40
0
40
0.0242272522260735
40
0.0242272522260735
40
0.0722972430629484
40
0.0722972430629484
40
0.120367233899823
40
0.13238473160904
40
0.13238473160904
40
0.144402229318258
40
0.144402229318258
40
0.168437224736691
40
0.168437224736691
40
0.21650721557356
40
0.21650721557356
40
0.264577206410427
40
0.264577206410427
40
0.312647197247295
40
0.312647197247295
40
0.408787178921032
40
0.408787178921032
40
0.504927160594767
40
0.504927160594767
40
0.601067142268503
40
0.601067142268503
40
0.613084639977723
40
0.613084639977723
40
0.625102137686942
40
0.64913713310538
40
0.64913713310538
40
0.697207123942257
40
0.697207123942257
40
0.79334710561601
40
0.79334710561601
40
0.841417096452885
40
0.841417096452885
40
0.889487087289759
40
0.889487087289759
40
0.985627068963513
40
0.985627068963513
40
1
40
1
40
1
40
1
41
1
10
118.273546936167
20
-5.86107304670247
30
0
41
1
10
118.118670037162
20
-5.86197301775346
30
0
41
1
10
117.963694862456
20
-5.86143133774078
30
0
41
1
10
117.500875066872
20
-5.8555294054002
30
0
41
1
10
117.19268401729
20
-5.84595959731158
30
0
41
1
10
116.574994263406
20
-5.81536110757853
30
0
41
1
10
116.188116772415
20
-5.78906302395089
30
0
41
1
10
115.80000962357
20
-5.7538823683152
30
0
41
1
10
115.644662728337
20
-5.73909822579529
30
0
41
1
10
115.566909147348
20
-5.73134688381876
30
0
41
1
10
115.333869403662
20
-5.70706231203724
30
0
41
1
10
115.178707660924
20
-5.68949048178879
30
0
41
1
10
114.713749774279
20
-5.63266301108263
30
0
41
1
10
114.404480983278
20
-5.58929345354491
30
0
41
1
10
113.786984546287
20
-5.49190554406573
30
0
41
1
10
113.478768130987
20
-5.43792833917598
30
0
41
1
10
112.863128853791
20
-5.31981538723147
30
0
41
1
10
112.55568979274
20
-5.25560592496973
30
0
41
1
10
111.63394682746
20
-5.04826282162716
30
0
41
1
10
111.02021681044
20
-4.89043310170493
30
0
41
1
10
109.79178014701
20
-4.53834235628221
30
0
41
1
10
109.177084727147
20
-4.34402361407686
30
0
41
1
10
107.944069861786
20
-3.92229890764347
30
0
41
1
10
107.325739551806
20
-3.69494013686975
30
0
41
1
10
106.626460951438
20
-3.42265624518601
30
0
41
1
10
106.548680229362
20
-3.39216046311734
30
0
41
1
10
106.393180585831
20
-3.33078219566639
30
0
41
1
10
106.160080972941
20
-3.23815789425089
30
0
41
1
10
105.927413015477
20
-3.14390243262039
30
0
41
1
10
105.462605816986
20
-2.95331982144455
30
0
41
1
10
105.153439028753
20
-2.82350358213176
30
0
41
1
10
104.227399794801
20
-2.42703803066127
30
0
41
1
10
103.611985313943
20
-2.15338094677196
30
0
41
1
10
102.689829467688
20
-1.73285118604503
30
0
41
1
10
102.382606514651
20
-1.59099703945358
30
0
41
1
10
101.768224981499
20
-1.30449075742129
30
0
41
1
10
101.461066581758
20
-1.15983849978576
30
0
41
1
10
100.539084347317
20
-0.722924581397507
30
0
41
1
10
99.9237811738152
20
-0.427648100039306
30
0
41
1
10
99.2142478106765
20
-0.0867656295857842
30
0
41
1
10
99.1219239147883
20
-0.0424048137111583
30
0
41
1
10
99.0295519492238
20
0.0019749362566017
30
0
0
SPLINE
5
E7
100
AcDbEntity
8
1
62
256
6
ByLayer
370
18
48
1
60
0
100
AcDbSpline
70
4
71
3
72
41
73
37
40
0
40
0
40
0
40
0
40
0.0625000000000006
40
0.0625000000000006
40
0.125000000000001
40
0.187500000000002
40
0.187500000000002
40
0.218750000000002
40
0.234375000000002
40
0.234375000000002
40
0.250000000000002
40
0.250000000000002
40
0.312500000000002
40
0.312500000000002
40
0.375000000000002
40
0.437500000000003
40
0.437500000000003
40
0.468750000000002
40
0.484375000000002
40
0.484375000000002
40
0.500000000000002
40
0.500000000000002
40
0.562500000000002
40
0.625000000000001
40
0.687500000000001
40
0.687500000000001
40
0.718750000000001
40
0.718750000000001
40
0.75
40
0.75
40
0.8125
40
0.8125
40
0.875
40
0.9375
40
0.9375
40
1
40
1
40
1
40
1
41
1
10
154.697319193292
20
-0.567377636439119
30
0
41
1
10
154.678635572303
20
-0.734450576346774
30
0
41
1
10
154.662382116107
20
-0.899833962139411
30
0
41
1
10
154.633875236545
20
-1.22725565630933
30
0
41
1
10
154.609369932131
20
-1.55133195356493
30
0
41
1
10
154.591451312974
20
-1.86865736274984
30
0
41
1
10
154.580044425844
20
-2.10404849171203
30
0
41
1
10
154.574850382014
20
-2.2210925510152
30
0
41
1
10
154.57035036303
20
-2.33713850419878
30
0
41
1
10
154.567497604695
20
-2.41427779380439
30
0
41
1
10
154.566143456129
20
-2.45277837776757
30
0
41
1
10
154.559750053384
20
-2.64390411710619
30
0
41
1
10
154.555819592838
20
-2.79276170625104
30
0
41
1
10
154.549808349101
20
-3.08261512635249
30
0
41
1
10
154.545648205261
20
-3.36460569150586
30
0
41
1
10
154.54449452974
20
-3.6309752248097
30
0
41
1
10
154.544611006074
20
-3.82480856286159
30
0
41
1
10
154.544916439319
20
-3.92023731963809
30
0
41
1
10
154.545581550139
20
-4.0133994620227
30
0
41
1
10
154.546104810741
20
-4.07499862450788
30
0
41
1
10
154.546406177581
20
-4.10551497437967
30
0
41
1
10
154.548103489151
20
-4.2561116732756
30
0
41
1
10
154.55203413662
20
-4.48545637832441
30
0
41
1
10
154.561620307296
20
-4.79560411103597
30
0
41
1
10
154.570810897717
20
-4.97993098563791
30
0
41
1
10
154.578998944571
20
-5.10963347577985
30
0
41
1
10
154.581945450358
20
-5.15144194602993
30
0
41
1
10
154.588329975911
20
-5.23216216729509
30
0
41
1
10
154.591776532968
20
-5.27114532640283
30
0
41
1
10
154.602847304196
20
-5.38263783339303
30
0
41
1
10
154.61121754205
20
-5.45000911527467
30
0
41
1
10
154.630393600105
20
-5.57127083815888
30
0
41
1
10
154.652005390006
20
-5.67904960778009
30
0
41
1
10
154.679629318795
20
-5.76014900034585
30
0
41
1
10
154.710960328647
20
-5.82778073782006
30
0
41
1
10
154.728478226893
20
-5.85486362290314
30
0
41
1
10
154.748277242091
20
-5.87500848376038
30
0
0
SPLINE
5
E8
100
AcDbEntity
8
1
62
256
6
ByLayer
370
13
48
1
60
0
100
AcDbSpline
70
4
71
3
72
10
73
6
40
0
40
0
40
0
40
0
40
0.104259441105462
40
0.104259441105462
40
1
40
1
40
1
40
1
41
1
10
95.6299061327967
20
6.03275094604618
30
0
41
1
10
95.6298601333186
20
6.02500579412654
30
0
41
1
10
95.6298140805935
20
6.01726064634153
30
0
41
1
10
95.6293718571315
20
5.94297343042811
30
0
41
1
10
95.628971808797
20
5.87643166457369
30
0
41
1
10
95.6285678341478
20
5.80989021882954
30
0
0
SPLINE
5
E9
100
AcDbEntity
8
1
62
256
6
ByLayer
370
18
48
1
60
0
100
AcDbSpline
70
4
71
3
72
52
73
48
40
0
40
0
40
0
40
0
40
0.046617873646058
40
0.069926810469089
40
0.0815812788806043
40
0.0815812788806043
40
0.0932357472921193
40
0.0932357472921193
40
0.139853620938174
40
0.139853620938174
40
0.186471494584229
40
0.186471494584229
40
0.233089368230284
40
0.233089368230284
40
0.279707241876338
40
0.279707241876338
40
0.326325115522393
40
0.326325115522393
40
0.372942989168448
40
0.372942989168448
40
0.466178736460554
40
0.466178736460554
40
0.512796610106605
40
0.512796610106605
40
0.536105546929633
40
0.536105546929633
40
0.55941448375266
40
0.55941448375266
40
0.652650231044769
40
0.652650231044769
40
0.699268104690824
40
0.699268104690824
40
0.745885978336879
40
0.745885978336879
40
0.792503851982933
40
0.792503851982933
40
0.839121725628988
40
0.839121725628988
40
0.885739599275043
40
0.885739599275043
40
0.90904853609807
40
0.90904853609807
40
0.932357472921098
40
0.932357472921098
40
0.978975346567149
40
0.978975346567149
40
1
40
1
40
1
40
1
41
1
10
95.6285678341478
20
5.80989021882954
30
0
41
1
10
95.9388342805543
20
5.82106669010631
30
0
41
1
10
96.4042806528502
20
5.82834430221325
30
0
41
1
10
96.947668305031
20
5.82090316842547
30
0
41
1
10
97.180658905211
20
5.81436893871273
30
0
41
1
10
97.3360140031364
20
5.80927698971337
30
0
41
1
10
97.4137258165462
20
5.80636188285547
30
0
41
1
10
97.8019978709438
20
5.789985965211
30
0
41
1
10
98.1118354698553
20
5.77113590325354
30
0
41
1
10
98.7300727065616
20
5.72296009478845
30
0
41
1
10
99.0384921878138
20
5.69356900446411
30
0
41
1
10
99.6545124079688
20
5.62353814464998
30
0
41
1
10
99.9621010532239
20
5.58293888454571
30
0
41
1
10
100.576675794492
20
5.49115792418109
30
0
41
1
10
100.883665746345
20
5.43996766676347
30
0
41
1
10
101.497409839075
20
5.32723592119658
30
0
41
1
10
101.804154330771
20
5.26570425345639
30
0
41
1
10
102.417372998478
20
5.13309304275293
30
0
41
1
10
102.723864779509
20
5.06199643478305
30
0
41
1
10
103.644368761643
20
4.8334737257957
30
0
41
1
10
104.25936029992
20
4.66085668227041
30
0
41
1
10
105.184698695999
20
4.37532211863709
30
0
41
1
10
105.493616426155
20
4.27570529109269
30
0
41
1
10
105.957634141336
20
4.11996114244326
30
0
41
1
10
106.112419553612
20
4.0669929732814
30
0
41
1
10
106.42238924605
20
3.95894066326466
30
0
41
1
10
106.577653672843
20
3.90382593462237
30
0
41
1
10
107.352516477904
20
3.62398379217638
30
0
41
1
10
107.96970250857
20
3.38580247297762
30
0
41
1
10
108.892539865735
20
3.01144887967223
30
0
41
1
10
109.199655524241
20
2.88380014935495
30
0
41
1
10
109.812966745352
20
2.62311326867035
30
0
41
1
10
110.119196425658
20
2.49010803516646
30
0
41
1
10
110.731951669812
20
2.21993153934548
30
0
41
1
10
111.038443991601
20
2.08273682265528
30
0
41
1
10
111.651615443714
20
1.80463580329345
30
0
41
1
10
111.958298337021
20
1.66372868881925
30
0
41
1
10
112.5719438274
20
1.3786156927209
30
0
41
1
10
112.878896583273
20
1.23439439767114
30
0
41
1
10
113.339404421011
20
1.01559323848457
30
0
41
1
10
113.492936674854
20
0.942268459625893
30
0
41
1
10
113.800357523462
20
0.795201224019905
30
0
41
1
10
113.954234081222
20
0.721445194143939
30
0
41
1
10
114.416373957417
20
0.499598845604851
30
0
41
1
10
114.725146305406
20
0.35092618883661
30
0
41
1
10
115.174192331159
20
0.134328285051339
30
0
41
1
10
115.313909710169
20
0.0668860874560551
30
0
41
1
10
115.453796421379
20
-0.0006286750228526
30
0
0
SPLINE
5
EA
100
AcDbEntity
8
1
62
256
6
ByLayer
370
18
48
1
60
0
100
AcDbSpline
70
4
71
3
72
58
73
54
40
0
40
0
40
0
40
0
40
0.0027650635763077
40
0.0027650635763077
40
0.0140972787629397
40
0.0140972787629397
40
0.0254294939495721
40
0.0254294939495721
40
0.0480939243228366
40
0.0480939243228366
40
0.0934227850693693
40
0.0934227850693693
40
0.116087215442634
40
0.116087215442634
40
0.138751645815898
40
0.138751645815898
40
0.184080506562428
40
0.184080506562428
40
0.229409367308957
40
0.229409367308957
40
0.274738228055486
40
0.274738228055486
40
0.320067088802016
40
0.320067088802016
40
0.365395949548545
40
0.365395949548545
40
0.4560536710416
40
0.4560536710416
40
0.478718101414866
40
0.478718101414866
40
0.501382531788133
40
0.501382531788133
40
0.546711392534665
40
0.546711392534665
40
0.63736911402773
40
0.63736911402773
40
0.682697974774264
40
0.682697974774264
40
0.728026835520798
40
0.728026835520798
40
0.773355696267332
40
0.773355696267332
40
0.818684557013867
40
0.818684557013867
40
0.864013417760401
40
0.864013417760401
40
0.909342278506935
40
0.909342278506935
40
0.920674493693568
40
0.920674493693568
40
0.932006708880202
40
0.954671139253469
40
1
40
1
40
1
40
1
41
1
10
116.019007045422
20
-0.283827863240106
30
0
41
1
10
116.000124696627
20
-0.274748021112089
30
0
41
1
10
115.981239565282
20
-0.265665461475095
30
0
41
1
10
115.884942155217
20
-0.219345473437926
30
0
41
1
10
115.8074858779
20
-0.182063831743108
30
0
41
1
10
115.652473512851
20
-0.107421066726317
30
0
41
1
10
115.574889300247
20
-0.0700467522570705
30
0
41
1
10
115.342176353784
20
0.0420732148236027
30
0
41
1
10
115.187245294512
20
0.116739638605992
30
0
41
1
10
114.722985075012
20
0.34030740175001
30
0
41
1
10
114.41417821651
20
0.488762389261467
30
0
41
1
10
113.951984722191
20
0.710300865043251
30
0
41
1
10
113.79809000087
20
0.783957414410736
30
0
41
1
10
113.490632565181
20
0.930832919344084
30
0
41
1
10
113.337081137542
20
1.0040634614478
30
0
41
1
10
112.8765128941
20
1.22258181837071
30
0
41
1
10
112.569520244094
20
1.36662561676204
30
0
41
1
10
111.955797474354
20
1.65141253991058
30
0
41
1
10
111.649076754248
20
1.79216986015487
30
0
41
1
10
111.035830518976
20
2.06999639131331
30
0
41
1
10
110.729301922476
20
2.20706799548847
30
0
41
1
10
110.116475027675
20
2.47702626586906
30
0
41
1
10
109.810206784385
20
2.60992927061798
30
0
41
1
10
109.196817529373
20
2.870424982076
30
0
41
1
10
108.889664899236
20
2.99799018845647
30
0
41
1
10
107.966723752814
20
3.37213227611588
30
0
41
1
10
107.349478760293
20
3.61022582857558
30
0
41
1
10
106.574552773475
20
3.89002420838477
30
0
41
1
10
106.419275358143
20
3.94513264126789
30
0
41
1
10
106.109274290225
20
4.05317795384562
30
0
41
1
10
105.954472321163
20
4.10614501814263
30
0
41
1
10
105.490403345704
20
4.26189341352983
30
0
41
1
10
105.181451102609
20
4.36152736237327
30
0
41
1
10
104.256008187661
20
4.64715519414236
30
0
41
1
10
103.64094517313
20
4.81988865536147
30
0
41
1
10
102.720330303546
20
5.04866024470883
30
0
41
1
10
102.413799121842
20
5.11984944599007
30
0
41
1
10
101.800500257321
20
5.25266472671598
30
0
41
1
10
101.493716986853
20
5.31431052014463
30
0
41
1
10
100.879898073465
20
5.42729466342527
30
0
41
1
10
100.572871218935
20
5.47862223231215
30
0
41
1
10
99.9582240487755
20
5.57069888572741
30
0
41
1
10
99.6506002690682
20
5.61145688156122
30
0
41
1
10
99.0345126704176
20
5.68182687476633
30
0
41
1
10
98.7260597613988
20
5.71139759726594
30
0
41
1
10
98.1077578145181
20
5.75995162223143
30
0
41
1
10
97.7978904965837
20
5.7790009791903
30
0
41
1
10
97.4095850869345
20
5.79563896382678
30
0
41
1
10
97.3318667313074
20
5.79860713423736
30
0
41
1
10
97.1764982714899
20
5.80380636848031
30
0
41
1
10
96.9434874853928
20
5.81050329978899
30
0
41
1
10
96.4000517402427
20
5.81833632109834
30
0
41
1
10
95.9345624656404
20
5.81141508041705
30
0
41
1
10
95.6242666828282
20
5.80048495798016
30
0
0
SPLINE
5
EB
100
AcDbEntity
8
1
62
256
6
ByLayer
370
18
48
1
60
0
100
AcDbSpline
70
4
71
3
72
8
73
4
40
0
40
0
40
0
40
0
40
1
40
1
40
1
40
1
41
1
10
117.904536618968
20
5.85032034251174
30
0
41
1
10
117.969079618282
20
5.85095532890992
30
0
41
1
10
118.033602814237
20
5.85134173531941
30
0
41
1
10
118.098107671391
20
5.85147911701705
30
0
0
SPLINE
5
EC
100
AcDbEntity
8
1
62
256
6
ByLayer
370
18
48
1
60
0
100
AcDbSpline
70
4
71
3
72
45
73
41
40
0
40
0
40
0
40
0
40
0.0006577823741819
40
0.0006577823741819
40
0.0133076838631146
40
0.0386074868409828
40
0.0386074868409828
40
0.089207092796719
40
0.089207092796719
40
0.190406304708195
40
0.190406304708195
40
0.291605516619672
40
0.291605516619672
40
0.34220512257541
40
0.34220512257541
40
0.392804728531149
40
0.392804728531149
40
0.494003940442625
40
0.494003940442625
40
0.519303743420494
40
0.519303743420494
40
0.544603546398363
40
0.544603546398363
40
0.595203152354102
40
0.595203152354102
40
0.64580275830984
40
0.64580275830984
40
0.696402364265578
40
0.696402364265578
40
0.747001970221316
40
0.747001970221316
40
0.797601576177055
40
0.797601576177055
40
0.848201182132793
40
0.848201182132793
40
0.87350098511066
40
0.87350098511066
40
0.898800788088527
40
0.898800788088527
40
1
40
1
40
1
40
1
41
1
10
136.478902301613
20
0.328746312456332
30
0
41
1
10
136.48293456655
20
0.32679309677863
30
0
41
1
10
136.48696679637
20
0.324839834265902
30
0
41
1
10
136.568542399699
20
0.285322320645037
30
0
41
1
10
136.801016994288
20
0.172635397289156
30
0
41
1
10
137.033050289789
20
0.0600170764591326
30
0
41
1
10
137.496595495977
20
-0.164992655261244
30
0
41
1
10
137.804930914207
20
-0.314696356637967
30
0
41
1
10
138.728371381094
20
-0.761832306616071
30
0
41
1
10
139.341922749275
20
-1.0572028306633
30
0
41
1
10
140.567491443703
20
-1.63725442170235
30
0
41
1
10
141.179483051188
20
-1.92198991298838
30
0
41
1
10
142.098378441515
20
-2.33690811590856
30
0
41
1
10
142.40482766119
20
-2.4731831297425
30
0
41
1
10
143.01828969909
20
-2.7411585580565
30
0
41
1
10
143.325305793609
20
-2.8728526845143
30
0
41
1
10
144.247784333112
20
-3.25991642614028
30
0
41
1
10
144.864666221776
20
-3.5072939428062
30
0
41
1
10
145.63984948416
20
-3.79980539803032
30
0
41
1
10
145.794780010695
20
-3.85735470943374
30
0
41
1
10
146.104302398205
20
-3.97044001959807
30
0
41
1
10
146.258921747976
20
-4.02598666603734
30
0
41
1
10
146.722416899331
20
-4.1895701297274
30
0
41
1
10
147.030931121397
20
-4.2945447385116
30
0
41
1
10
147.647356265965
20
-4.49578483283813
30
0
41
1
10
147.95526797851
20
-4.5920581219556
30
0
41
1
10
148.570852947424
20
-4.77555470599773
30
0
41
1
10
148.878523576532
20
-4.86277414352327
30
0
41
1
10
149.493912830768
20
-5.02769291149832
30
0
41
1
10
149.801633358674
20
-5.1053978959969
30
0
41
1
10
150.417475733157
20
-5.25097854282916
30
0
41
1
10
150.725611344162
20
-5.31886194319742
30
0
41
1
10
151.342638984848
20
-5.44429839596225
30
0
41
1
10
151.651524515692
20
-5.50185283694421
30
0
41
1
10
152.11568619444
20
-5.58027351925889
30
0
41
1
10
152.270568422517
20
-5.6050973702896
30
0
41
1
10
152.58055232621
20
-5.6520302006283
30
0
41
1
10
152.735482086881
20
-5.67411350372504
30
0
41
1
10
153.509907016291
20
-5.77751776592245
30
0
41
1
10
154.128741583319
20
-5.83782599403432
30
0
41
1
10
154.748277242091
20
-5.87500848376038
30
0
0
SPLINE
5
ED
100
AcDbEntity
8
1
62
256
6
ByLayer
370
18
48
1
60
0
100
AcDbSpline
70
4
71
3
72
14
73
10
40
0
40
0
40
0
40
0
40
0.25
40
0.25
40
0.5
40
0.5
40
0.75
40
0.75
40
1
40
1
40
1
40
1
41
1
10
154.748277242088
20
-5.87500848376266
30
0
41
1
10
154.748440569429
20
-5.87517466407616
30
0
41
1
10
154.748531109587
20
-5.87553803418206
30
0
41
1
10
154.748523686807
20
-5.87674471737967
30
0
41
1
10
154.748420543966
20
-5.87758798644145
30
0
41
1
10
154.74799633794
20
-5.87966793605861
30
0
41
1
10
154.747669519106
20
-5.88092219082043
30
0
41
1
10
154.746867887234
20
-5.88352722540392
30
0
41
1
10
154.746397601477
20
-5.88486910860436
30
0
41
1
10
154.745912363466
20
-5.88612142358551
30
0
0
SPLINE
5
EE
100
AcDbEntity
8
1
62
256
6
ByLayer
370
18
48
1
60
0
100
AcDbSpline
70
4
71
3
72
8
73
4
40
0
40
0
40
0
40
0
40
1
40
1
40
1
40
1
41
1
10
154.616772352449
20
-6.09997060813677
30
0
41
1
10
154.657604439972
20
-6.03455493000709
30
0
41
1
10
154.698476560007
20
-5.96888112064582
30
0
41
1
10
154.739393498931
20
-5.90295036970207
30
0
0
SPLINE
5
EF
100
AcDbEntity
8
1
62
256
6
ByLayer
370
18
48
1
60
0
100
AcDbSpline
70
4
71
3
72
8
73
4
40
0
40
0
40
0
40
0
40
1
40
1
40
1
40
1
41
1
10
154.745912363467
20
-5.88612142358215
30
0
41
1
10
154.743738577899
20
-5.8917315863728
30
0
41
1
10
154.741565621583
20
-5.89734123392657
30
0
41
1
10
154.739393498931
20
-5.90295036970207
30
0
0
SPLINE
5
F0
100
AcDbEntity
8
1
62
256
6
ByLayer
370
18
48
1
60
0
100
AcDbSpline
70
4
71
3
72
39
73
35
40
0
40
0
40
0
40
0
40
0.104367791947705
40
0.104367791947705
40
0.156551687921559
40
0.156551687921559
40
0.208735583895414
40
0.208735583895414
40
0.260919479869268
40
0.260919479869268
40
0.313103375843123
40
0.313103375843123
40
0.365287271816977
40
0.365287271816977
40
0.417471167790832
40
0.417471167790832
40
0.521838959738545
40
0.521838959738545
40
0.547930907725476
40
0.547930907725476
40
0.574022855712407
40
0.626206751686265
40
0.626206751686265
40
0.678390647660123
40
0.678390647660123
40
0.730574543633981
40
0.730574543633981
40
0.834942335581698
40
0.834942335581698
40
0.939310127529415
40
0.939310127529415
40
0.991494023503271
40
0.991494023503271
40
1
40
1
40
1
40
1
41
1
10
154.745912363467
20
-5.88612142358204
30
0
41
1
10
154.126447315732
20
-5.84939076118374
30
0
41
1
10
153.510197797031
20
-5.78964441123549
30
0
41
1
10
152.588556300603
20
-5.66738774949482
30
0
41
1
10
152.28179732972
20
-5.62118926253706
30
0
41
1
10
151.668902255868
20
-5.51832507089699
30
0
41
1
10
151.362768110197
20
-5.46166625237692
30
0
41
1
10
150.750763228114
20
-5.33806433427191
30
0
41
1
10
150.444897030738
20
-5.27111398998815
30
0
41
1
10
149.833135191834
20
-5.12737767273831
30
0
41
1
10
149.527223845061
20
-5.05058566352574
30
0
41
1
10
148.914993015057
20
-4.88742678496348
30
0
41
1
10
148.60867051189
20
-4.80105162715111
30
0
41
1
10
147.995329865066
20
-4.61912061350682
30
0
41
1
10
147.688315918358
20
-4.52357074395465
30
0
41
1
10
146.765700361711
20
-4.2236444550181
30
0
41
1
10
146.148513350221
20
-4.00602113017081
30
0
41
1
10
145.37263903639
20
-3.71405381795145
30
0
41
1
10
145.217570772184
20
-3.65477765077665
30
0
41
1
10
144.907901488746
20
-3.53465673164479
30
0
41
1
10
144.443954466755
20
-3.35206926349312
30
0
41
1
10
143.981482089114
20
-3.16265276092653
30
0
41
1
10
143.365823569262
20
-2.90469323257446
30
0
41
1
10
143.058482434248
20
-2.77300594695987
30
0
41
1
10
142.444392650497
20
-2.50497430318083
30
0
41
1
10
142.137638737257
20
-2.36864016416493
30
0
41
1
10
141.217847231195
20
-1.95346787120027
30
0
41
1
10
140.605292615987
20
-1.66843655236374
30
0
41
1
10
139.378653623875
20
-1.08756284211049
30
0
41
1
10
138.764593872489
20
-0.79166925435689
30
0
41
1
10
137.84042077514
20
-0.343582936774084
30
0
41
1
10
137.531845666061
20
-0.193535271779268
30
0
41
1
10
137.172169485272
20
-0.0186483720497677
30
0
41
1
10
137.121740781383
20
0.0058715834549616
30
0
41
1
10
137.071292938625
20
0.030398690617659
30
0
0
SPLINE
5
F1
100
AcDbEntity
8
1
62
256
6
ByLayer
370
18
48
1
60
0
100
AcDbSpline
70
4
71
3
72
8
73
4
40
0
40
0
40
0
40
0
40
1
40
1
40
1
40
1
41
1
10
154.697319193289
20
-0.567377636438948
30
0
41
1
10
154.682804467316
20
-0.560281788240928
30
0
41
1
10
154.668291003595
20
-0.553186479050197
30
0
41
1
10
154.653778793479
20
-0.54609173008356
30
0
0
SPLINE
5
F2
100
AcDbEntity
8
1
62
256
6
ByLayer
370
18
48
1
60
0
100
AcDbSpline
70
4
71
3
72
55
73
51
40
0
40
0
40
0
40
0
40
0.0658536589792454
40
0.0658536589792454
40
0.112757974037633
40
0.112757974037633
40
0.15966228909602
40
0.15966228909602
40
0.183114446625216
40
0.183114446625216
40
0.206566604154411
40
0.206566604154411
40
0.253470919212802
40
0.253470919212802
40
0.300375234271193
40
0.300375234271193
40
0.347279549329584
40
0.347279549329584
40
0.394183864387975
40
0.394183864387975
40
0.441088179446367
40
0.441088179446367
40
0.534896809563149
40
0.534896809563149
40
0.58180112462154
40
0.58180112462154
40
0.628705439679931
40
0.628705439679931
40
0.675609754738322
40
0.675609754738322
40
0.722514069796713
40
0.722514069796713
40
0.769418384855104
40
0.769418384855104
40
0.792870542384299
40
0.792870542384299
40
0.816322699913495
40
0.816322699913495
40
0.863227014971882
40
0.863227014971882
40
0.886679172501074
40
0.898405251265671
40
0.898405251265671
40
0.910131330030266
40
0.910131330030266
40
0.957035645088654
40
0.957035645088654
40
0.980487802617848
40
0.980487802617848
40
1
40
1
40
1
40
1
41
1
10
154.145738943499
20
-0.297739521772428
30
0
41
1
10
153.713069321914
20
-0.0862823749542656
30
0
41
1
10
153.281428229231
20
0.12445371620359
30
0
41
1
10
152.543716976399
20
0.483083737330588
30
0
41
1
10
152.237254356876
20
0.631612536477263
30
0
41
1
10
151.625085698086
20
0.927035208475388
30
0
41
1
10
151.31938126358
20
1.07393176471928
30
0
41
1
10
150.861009261506
20
1.29236198919295
30
0
41
1
10
150.708249085741
20
1.36485203145227
30
0
41
1
10
150.402731721695
20
1.50909429396421
30
0
41
1
10
150.249972210616
20
1.58084444608778
30
0
41
1
10
149.7917059846
20
1.79493242640334
30
0
41
1
10
149.486227523667
20
1.93612297641948
30
0
41
1
10
148.874771334244
20
2.21455937837834
30
0
41
1
10
148.568780665726
20
2.35179162465425
30
0
41
1
10
147.956088046976
20
2.62176721154609
30
0
41
1
10
147.649393127167
20
2.75451699439282
30
0
41
1
10
147.034946633805
20
3.01486506379283
30
0
41
1
10
146.727188768909
20
3.14246354348381
30
0
41
1
10
146.110385446401
20
3.39178873447096
30
0
41
1
10
145.801353739621
20
3.51350881054123
30
0
41
1
10
144.871504137899
20
3.86895418231319
30
0
41
1
10
144.254046065176
20
4.09059269004041
30
0
41
1
10
143.33103618232
20
4.39705570765287
30
0
41
1
10
143.023891784522
20
4.49489671719968
30
0
41
1
10
142.410595204796
20
4.6810492208017
30
0
41
1
10
142.104477650089
20
4.76930927836153
30
0
41
1
10
141.492145009711
20
4.93691612029693
30
0
41
1
10
141.185884971374
20
5.01631152733256
30
0
41
1
10
140.573279872791
20
5.16549730135927
30
0
41
1
10
140.266951948681
20
5.2352765497798
30
0
41
1
10
139.653987767186
20
5.36463884853182
30
0
41
1
10
139.347341815448
20
5.42425222918124
30
0
41
1
10
138.887112507697
20
5.5050096755337
30
0
41
1
10
138.733671083704
20
5.53044913671332
30
0
41
1
10
138.426537618268
20
5.57873677819958
30
0
41
1
10
138.272833494988
20
5.60161215269349
30
0
41
1
10
137.811232016998
20
5.66656891775824
30
0
41
1
10
137.50284882754
20
5.70501765081767
30
0
41
1
10
137.039181623027
20
5.75471335714252
30
0
41
1
10
136.807074987448
20
5.77756455594354
30
0
41
1
10
136.57453612007
20
5.79728196360801
30
0
41
1
10
136.41941158695
20
5.80971475113333
30
0
41
1
10
136.341812778529
20
5.81557365862568
30
0
41
1
10
135.954265623494
20
5.84300389773392
30
0
41
1
10
135.64511680348
20
5.85904358253686
30
0
41
1
10
135.18279696504
20
5.87334360845389
30
0
41
1
10
135.028941149733
20
5.87644141370362
30
0
41
1
10
134.747240247342
20
5.87967858922528
30
0
41
1
10
134.619354313031
20
5.88025829978028
30
0
41
1
10
134.491517153425
20
5.87992931577168
30
0
0
SPLINE
5
F3
100
AcDbEntity
8
1
62
256
6
ByLayer
370
18
48
1
60
0
100
AcDbSpline
70
4
71
3
72
8
73
4
40
0
40
0
40
0
40
0
40
1
40
1
40
1
40
1
41
1
10
154.695019137368
20
-0.556143518234961
30
0
41
1
10
154.696919434199
20
-0.556562746805639
30
0
41
1
10
154.697965222308
20
-0.561600706635005
30
0
41
1
10
154.697319193292
20
-0.567377636440312
30
0
0
SPLINE
5
F4
100
AcDbEntity
8
1
62
256
6
ByLayer
370
18
48
1
60
0
100
AcDbSpline
70
4
71
3
72
57
73
53
40
0
40
0
40
0
40
0
40
0.0016792051183682
40
0.0016792051183682
40
0.0256680741010211
40
0.0256680741010211
40
0.0496569430836733
40
0.0496569430836733
40
0.0976346810489747
40
0.0976346810489747
40
0.1096291155403
40
0.1096291155403
40
0.121623550031625
40
0.145612419014279
40
0.145612419014279
40
0.193590156979588
40
0.193590156979588
40
0.21757902596224
40
0.21757902596224
40
0.241567894944892
40
0.241567894944892
40
0.289545632910197
40
0.289545632910197
40
0.337523370875501
40
0.337523370875501
40
0.385501108840806
40
0.385501108840806
40
0.433478846806111
40
0.433478846806111
40
0.481456584771416
40
0.481456584771416
40
0.577412060702025
40
0.577412060702025
40
0.625389798667331
40
0.625389798667331
40
0.673367536632638
40
0.673367536632638
40
0.721345274597944
40
0.721345274597944
40
0.76932301256325
40
0.76932301256325
40
0.817300750528557
40
0.817300750528557
40
0.841289619511208
40
0.841289619511208
40
0.865278488493859
40
0.865278488493859
40
0.913256226459162
40
0.913256226459162
40
0.961233964424465
40
0.961233964424465
40
1
40
1
40
1
40
1
41
1
10
134.381782586029
20
5.88930019181652
30
0
41
1
10
134.392534221566
20
5.88938161729789
30
0
41
1
10
134.403286221374
20
5.88945652492575
30
0
41
1
10
134.567645249136
20
5.89050209466663
30
0
41
1
10
134.721322562565
20
5.89015798578833
30
0
41
1
10
135.028816219442
20
5.88689613239717
30
0
41
1
10
135.182652047404
20
5.88393700050258
30
0
41
1
10
135.644913330541
20
5.87005080044526
30
0
41
1
10
135.954024554447
20
5.85427416081686
30
0
41
1
10
136.341526905142
20
5.82715734337603
30
0
41
1
10
136.419116132131
20
5.82136051603572
30
0
41
1
10
136.574231317235
20
5.80904950478438
30
0
41
1
10
136.806755607903
20
5.78951231889218
30
0
41
1
10
137.038845928415
20
5.76683398131775
30
0
41
1
10
137.502477978193
20
5.7174740416059
30
0
41
1
10
137.810834158507
20
5.67923518234159
30
0
41
1
10
138.272389875836
20
5.61457472598889
30
0
41
1
10
138.426078092051
20
5.59179527841997
30
0
41
1
10
138.733179248063
20
5.54369840706494
30
0
41
1
10
138.886604586926
20
5.51835594145385
30
0
41
1
10
139.346785762443
20
5.43788290624482
30
0
41
1
10
139.653398209066
20
5.3784423569648
30
0
41
1
10
140.266291900379
20
5.24939559339185
30
0
41
1
10
140.572583241206
20
5.17976156563981
30
0
41
1
10
141.185112968129
20
5.0308388861356
30
0
41
1
10
141.491334373426
20
4.95155914899345
30
0
41
1
10
142.103586402401
20
4.78415717376501
30
0
41
1
10
142.409662218789
20
4.69599373907687
30
0
41
1
10
143.022877062944
20
4.51001682872774
30
0
41
1
10
143.329980893201
20
4.41224727710281
30
0
41
1
10
144.252870414185
20
4.10595106395957
30
0
41
1
10
144.870231472261
20
3.88437276965561
30
0
41
1
10
145.79999860889
20
3.52890337968037
30
0
41
1
10
146.109018845625
20
3.40715852744114
30
0
41
1
10
146.725778161438
20
3.15776809689817
30
0
41
1
10
147.033511317848
20
3.03012145519665
30
0
41
1
10
147.647903547666
20
2.76964873165483
30
0
41
1
10
147.954569368469
20
2.63682396256638
30
0
41
1
10
148.567200499091
20
2.36667200570554
30
0
41
1
10
148.873158648421
20
2.22933762490044
30
0
41
1
10
149.484546730118
20
1.95067107356613
30
0
41
1
10
149.789989823796
20
1.8093539878939
30
0
41
1
10
150.248202549821
20
1.59505827331472
30
0
41
1
10
150.400944011231
20
1.52323508626387
30
0
41
1
10
150.706424720655
20
1.37883962838399
30
0
41
1
10
150.859166393909
20
1.30626997699767
30
0
41
1
10
151.317482750287
20
1.08759220207213
30
0
41
1
10
151.623149595642
20
0.940518215226632
30
0
41
1
10
152.23524326886
20
0.644715209059228
30
0
41
1
10
152.541668645721
20
0.495982555778141
30
0
41
1
10
153.096419794155
20
0.22587184657263
30
0
41
1
10
153.344604291388
20
0.104724617342811
30
0
41
1
10
153.593097416071
20
-0.0167489068304576
30
0
0
SPLINE
5
F5
100
AcDbEntity
8
1
62
256
6
ByLayer
370
18
48
1
60
0
100
AcDbSpline
70
4
71
3
72
8
73
4
40
0
40
0
40
0
40
0
40
1
40
1
40
1
40
1
41
1
10
154.616866684581
20
-0.537462866426353
30
0
41
1
10
154.64289306839
20
-0.544164260670783
30
0
41
1
10
154.66894050739
20
-0.550390255592873
30
0
41
1
10
154.695019137368
20
-0.556143518234961
30
0
0
SPLINE
5
F6
100
AcDbEntity
8
1
62
256
6
ByLayer
370
18
48
1
60
0
100
AcDbSpline
70
4
71
3
72
58
73
54
40
0
40
0
40
0
40
0
40
0.0669968123727312
40
0.0669968123727312
40
0.138766288344059
40
0.138766288344059
40
0.156708657336892
40
0.156708657336892
40
0.174651026329724
40
0.174651026329724
40
0.210535764315392
40
0.210535764315392
40
0.282305240286727
40
0.282305240286727
40
0.300247609279561
40
0.300247609279561
40
0.318189978272395
40
0.318189978272395
40
0.35407471625806
40
0.35407471625806
40
0.425844192229391
40
0.425844192229391
40
0.461728930215056
40
0.461728930215056
40
0.479671299207888
40
0.479671299207888
40
0.497613668200721
40
0.497613668200721
40
0.569383144172051
40
0.569383144172051
40
0.605267882157716
40
0.605267882157716
40
0.641152620143382
40
0.641152620143382
40
0.659094989136214
40
0.659094989136214
40
0.677037358129047
40
0.712922096114709
40
0.712922096114709
40
0.748806834100372
40
0.748806834100372
40
0.784691572086035
40
0.784691572086035
40
0.820576310071697
40
0.820576310071697
40
0.838518679064529
40
0.838518679064529
40
0.85646104805736
40
0.89234578604302
40
0.89234578604302
40
0.92823052402868
40
0.92823052402868
40
1
40
1
40
1
40
1
41
1
10
121.287323090422
20
-5.87993795634901
30
0
41
1
10
120.712648519516
20
-5.95430706354099
30
0
41
1
10
120.138873361926
20
-6.00870018514311
30
0
41
1
10
118.949818321024
20
-6.07927554560814
30
0
41
1
10
118.334706745299
20
-6.09249633125188
30
0
41
1
10
117.563594616233
20
-6.0794364268715
30
0
41
1
10
117.409402751231
20
-6.07534851068579
30
0
41
1
10
117.101252499069
20
-6.06424231691537
30
0
41
1
10
116.947259240265
20
-6.05722350432436
30
0
41
1
10
116.485454686612
20
-6.03179900616783
30
0
41
1
10
116.177821039081
20
-6.00902582770701
30
0
41
1
10
115.255176272434
20
-5.92343447462781
30
0
41
1
10
114.640402242464
20
-5.84333033037737
30
0
41
1
10
113.870445681232
20
-5.71530361068332
30
0
41
1
10
113.716381731849
20
-5.68830359605846
30
0
41
1
10
113.408086212782
20
-5.63151989192681
30
0
41
1
10
113.25378265456
20
-5.60172245017816
30
0
41
1
10
112.791108330211
20
-5.50832603824108
30
0
41
1
10
112.483060538511
20
-5.44074396808804
30
0
41
1
10
111.559511520367
20
-5.22268836517353
30
0
41
1
10
110.944609309639
20
-5.05691076105717
30
0
41
1
10
110.021514626895
20
-4.77980017790026
30
0
41
1
10
109.713691882033
20
-4.682688229099
30
0
41
1
10
109.251473539159
20
-4.53025323627557
30
0
41
1
10
109.097320279348
20
-4.47831372474391
30
0
41
1
10
108.788807738641
20
-4.37223287662366
30
0
41
1
10
108.634449403116
20
-4.31809060273926
30
0
41
1
10
107.863460188769
20
-4.04253858061443
30
0
41
1
10
107.248086050909
20
-3.80622009775422
30
0
41
1
10
106.324992091569
20
-3.43145153659344
30
0
41
1
10
106.017293847099
20
-3.3031408634387
30
0
41
1
10
105.401626279063
20
-3.04018173216957
30
0
41
1
10
105.093650129991
20
-2.9055421669396
30
0
41
1
10
104.631125670592
20
-2.6994294483851
30
0
41
1
10
104.476838554649
20
-2.63002271040398
30
0
41
1
10
104.168118768549
20
-2.48993447329218
30
0
41
1
10
103.705334904343
20
-2.27812344127665
30
0
41
1
10
103.243241825061
20
-2.06165821861089
30
0
41
1
10
102.627394130526
20
-1.76955779741962
30
0
41
1
10
102.319610359949
20
-1.62176413597135
30
0
41
1
10
101.704017604053
20
-1.32328290232559
30
0
41
1
10
101.396204198994
20
-1.17260318485347
30
0
41
1
10
100.78011696337
20
-0.869201039547249
30
0
41
1
10
100.47184637924
20
-0.716472843324794
30
0
41
1
10
100.008859804967
20
-0.48631220352658
30
0
41
1
10
99.8544051223448
20
-0.409400394712066
30
0
41
1
10
99.5458145387049
20
-0.255598804597611
30
0
41
1
10
99.0832037153789
20
-0.024830489647286
30
0
41
1
10
98.6212089999585
20
0.205715699683481
30
0
41
1
10
98.0054566350174
20
0.512297039283936
30
0
41
1
10
97.6976988118639
20
0.665176723776199
30
0
41
1
10
96.774165590303
20
1.12135070909733
30
0
41
1
10
96.1581250955936
20
1.4221704328923
30
0
41
1
10
95.5404271973508
20
1.71708521475352
30
0
0
SPLINE
5
F7
100
AcDbEntity
8
1
62
256
6
ByLayer
370
18
48
1
60
0
100
AcDbSpline
70
4
71
3
72
16
73
12
40
0
40
0
40
0
40
0
40
0.24999999999959
40
0.24999999999959
40
0.374999999999659
40
0.374999999999659
40
0.499999999999728
40
0.499999999999728
40
0.749999999999864
40
0.749999999999864
40
1
40
1
40
1
40
1
41
1
10
95.5404271973508
20
1.71708521475352
30
0
41
1
10
95.5320877447333
20
1.72106681782606
30
0
41
1
10
95.5245129702498
20
1.72605087167796
30
0
41
1
10
95.5142690864716
20
1.73498947191379
30
0
41
1
10
95.5110343689553
20
1.73823391394356
30
0
41
1
10
95.5051439340281
20
1.74502755659393
30
0
41
1
10
95.5024614327389
20
1.74859657614735
30
0
41
1
10
95.4951950921823
20
1.75981475791215
30
0
41
1
10
95.4913877592427
20
1.76805481646198
30
0
41
1
10
95.4863520163546
20
1.78494159528788
30
0
41
1
10
95.4850401761776
20
1.79378483186048
30
0
41
1
10
95.4850401761776
20
1.80267899135603
30
0
0
SPLINE
5
F8
100
AcDbEntity
8
1
62
256
6
ByLayer
370
18
48
1
60
0
100
AcDbSpline
70
4
71
3
72
28
73
24
40
0
40
0
40
0
40
0
40
0.125000000000228
40
0.125000000000228
40
0.187500000000341
40
0.187500000000341
40
0.250000000000455
40
0.312500000000568
40
0.312500000000568
40
0.375000000000682
40
0.375000000000682
40
0.500000000000626
40
0.500000000000626
40
0.62500000000057
40
0.62500000000057
40
0.687500000000542
40
0.687500000000542
40
0.750000000000514
40
0.812500000000485
40
0.812500000000485
40
0.875000000000457
40
0.875000000000457
40
1
40
1
40
1
40
1
41
1
10
95.4850401761776
20
6.03753135577543
30
0
41
1
10
95.4850401761776
20
6.03711146175596
30
0
41
1
10
95.4861227845102
20
6.03668438157075
30
0
41
1
10
95.4893198784532
20
6.03603584277934
30
0
41
1
10
95.4906639236078
20
6.03581680071576
30
0
41
1
10
95.493836544183
20
6.03538680010422
30
0
41
1
10
95.4974859370525
20
6.03496452601436
30
0
41
1
10
95.5020671104599
20
6.03455993381641
30
0
41
1
10
95.5071261810879
20
6.03416597036735
30
0
41
1
10
95.5098949766655
20
6.03397472791562
30
0
41
1
10
95.5186847700161
20
6.03343585435096
30
0
41
1
10
95.5252657436181
20
6.0331161536742
30
0
41
1
10
95.5398330806407
20
6.03257566012346
30
0
41
1
10
95.547533164611
20
6.0323653170488
30
0
41
1
10
95.5596911470794
20
6.03214479048199
30
0
41
1
10
95.5638765041207
20
6.03208709114918
30
0
41
1
10
95.5722566659559
20
6.03200790107837
30
0
41
1
10
95.5806654759617
20
6.03196400630688
30
0
41
1
10
95.5891303996655
20
6.03198995578728
30
0
41
1
10
95.5976241701241
20
6.0320517418578
30
0
41
1
10
95.601868260801
20
6.03210072320149
30
0
41
1
10
95.61427990184
20
6.03229644744528
30
0
41
1
10
95.6222505517172
20
6.03249207194176
30
0
41
1
10
95.6299061327967
20
6.03275094604618
30
0
0
SPLINE
5
F9
100
AcDbEntity
8
1
62
256
6
ByLayer
370
18
48
1
60
0
100
AcDbSpline
70
4
71
3
72
117
73
113
40
0
40
0
40
0
40
0
40
0.0474495842390825
40
0.0474495842390825
40
0.0593119802988527
40
0.0593119802988527
40
0.0711743763586229
40
0.0711743763586229
40
0.0948991684781633
40
0.0948991684781633
40
0.118623960597704
40
0.118623960597704
40
0.142348752717244
40
0.142348752717244
40
0.166073544836784
40
0.166073544836784
40
0.177935940896556
40
0.177935940896556
40
0.189798336956327
40
0.189798336956327
40
0.237247921195414
40
0.237247921195414
40
0.260972713314958
40
0.260972713314958
40
0.272835109374731
40
0.272835109374731
40
0.284697505434504
40
0.284697505434504
40
0.308422297554047
40
0.308422297554047
40
0.332147089673591
40
0.355871881793135
40
0.355871881793135
40
0.379596673912679
40
0.379596673912679
40
0.391459069972452
40
0.391459069972452
40
0.403321466032225
40
0.403321466032225
40
0.42704625815177
40
0.42704625815177
40
0.450771050271315
40
0.450771050271315
40
0.462633446331087
40
0.462633446331087
40
0.474495842390859
40
0.474495842390859
40
0.498220634510405
40
0.498220634510405
40
0.510083030570178
40
0.510083030570178
40
0.521945426629952
40
0.521945426629952
40
0.545670218749499
40
0.545670218749499
40
0.569395010869047
40
0.569395010869047
40
0.593119802988594
40
0.593119802988594
40
0.604982199048367
40
0.604982199048367
40
0.616844595108139
40
0.616844595108139
40
0.628706991167912
40
0.628706991167912
40
0.640569387227685
40
0.640569387227685
40
0.66429417934723
40
0.66429417934723
40
0.676156575407003
40
0.676156575407003
40
0.688018971466776
40
0.699881367526549
40
0.699881367526549
40
0.711743763586321
40
0.711743763586321
40
0.735468555705865
40
0.735468555705865
40
0.747330951765636
40
0.747330951765636
40
0.759193347825407
40
0.771055743885178
40
0.771055743885178
40
0.782918139944949
40
0.782918139944949
40
0.79478053600472
40
0.79478053600472
40
0.806642932064491
40
0.806642932064491
40
0.830367724184031
40
0.830367724184031
40
0.842230120243801
40
0.842230120243801
40
0.854092516303572
40
0.854092516303572
40
0.865954912363342
40
0.865954912363342
40
0.877817308423112
40
0.877817308423112
40
0.901542100542652
40
0.901542100542652
40
0.925266892662193
40
0.925266892662193
40
0.948991684781733
40
0.948991684781733
40
0.960854080841503
40
0.960854080841503
40
0.972716476901273
40
0.972716476901273
40
0.996441269020814
40
0.996441269020814
40
1
40
1
40
1
40
1
41
1
10
95.6299061327967
20
6.03275094604618
30
0
41
1
10
96.2457711424951
20
6.05357647204912
30
0
41
1
10
96.861779751216
20
6.05066746147708
30
0
41
1
10
97.6328081589938
20
6.01797815812623
30
0
41
1
10
97.7870998610297
20
6.00998071234571
30
0
41
1
10
98.0953729177621
20
5.9910914243919
30
0
41
1
10
98.2493964935652
20
5.98019801973652
30
0
41
1
10
98.7111414507905
20
5.9431710869064
30
0
41
1
10
99.0185642888749
20
5.91268797304113
30
0
41
1
10
99.6333464657671
20
5.84046195760448
30
0
41
1
10
99.9406855222578
20
5.79872263160661
30
0
41
1
10
100.555465371632
20
5.70413405854134
30
0
41
1
10
100.862911599628
20
5.65128379612878
30
0
41
1
10
101.478303821963
20
5.53471370518059
30
0
41
1
10
101.786237953644
20
5.47099412998693
30
0
41
1
10
102.248507439416
20
5.36716012383067
30
0
41
1
10
102.402536180075
20
5.33120216870779
30
0
41
1
10
102.710345411315
20
5.25677392422381
30
0
41
1
10
102.864165628878
20
5.21829507151767
30
0
41
1
10
103.633133268998
20
5.01990810689958
30
0
41
1
10
104.247800579197
20
4.84200537403424
30
0
41
1
10
105.170012519409
20
4.54774835054721
30
0
41
1
10
105.477456530313
20
4.44509407364041
30
0
41
1
10
105.938718221846
20
4.28421098011287
30
0
41
1
10
106.092492598634
20
4.22943676913044
30
0
41
1
10
106.400237945491
20
4.11780593027402
30
0
41
1
10
106.554276743975
20
4.06092421602028
30
0
41
1
10
107.016360874493
20
3.88767105861032
30
0
41
1
10
107.324210687395
20
3.76873200346557
30
0
41
1
10
107.939498317334
20
3.52407220239121
30
0
41
1
10
108.554372307579
20
3.27262509959641
30
0
41
1
10
109.16862301627
20
3.00793124050594
30
0
41
1
10
109.782679998512
20
2.73673462958666
30
0
41
1
10
110.089650473212
20
2.59793736678179
30
0
41
1
10
110.551026354562
20
2.3867732122373
30
0
41
1
10
110.704962171723
20
2.31587668395139
30
0
41
1
10
111.013096604237
20
2.17302701782646
30
0
41
1
10
111.16731210198
20
2.10106519234356
30
0
41
1
10
111.629485480431
20
1.88395824605021
30
0
41
1
10
111.93725093224
20
1.73746456869853
30
0
41
1
10
112.552206668976
20
1.44121287673485
30
0
41
1
10
112.859388263787
20
1.29143866093898
30
0
41
1
10
113.319696904487
20
1.06424539994887
30
0
41
1
10
113.473068862766
20
0.988117068377676
30
0
41
1
10
113.779961313392
20
0.835614006497508
30
0
41
1
10
113.933472641162
20
0.759221710088241
30
0
41
1
10
114.394208170197
20
0.529638750204839
30
0
41
1
10
114.701630811737
20
0.376036595055694
30
0
41
1
10
115.163230672476
20
0.144946134493324
30
0
41
1
10
115.317177339324
20
0.0678059610400794
30
0
41
1
10
115.625296595476
20
-0.0865623505978306
30
0
41
1
10
115.77926219077
20
-0.163686440014885
30
0
41
1
10
116.240939216557
20
-0.394675896439566
30
0
41
1
10
116.548434686601
20
-0.548187780078308
30
0
41
1
10
117.162898091391
20
-0.854153215305928
30
0
41
1
10
117.469878189726
20
-1.00658034685424
30
0
41
1
10
118.08385453021
20
-1.30928969115527
30
0
41
1
10
118.390835469111
20
-1.45960453401864
30
0
41
1
10
118.851275728551
20
-1.68353881536095
30
0
41
1
10
119.004758862869
20
-1.75791023452752
30
0
41
1
10
119.312035135614
20
-1.90551939701118
30
0
41
1
10
119.465821522161
20
-1.97877096946877
30
0
41
1
10
119.773638601875
20
-2.12427103527688
30
0
41
1
10
119.927741215963
20
-2.19655010618695
30
0
41
1
10
120.235752930884
20
-2.33987558297287
30
0
41
1
10
120.389672690729
20
-2.41092767522292
30
0
41
1
10
120.851195859236
20
-2.62222050269014
30
0
41
1
10
121.158559754429
20
-2.76060654983445
30
0
41
1
10
121.619194160827
20
-2.9643444150272
30
0
41
1
10
121.772670655733
20
-3.03161590596989
30
0
41
1
10
122.0794770225
20
-3.16488358984762
30
0
41
1
10
122.386141357242
20
-3.29686606458191
30
0
41
1
10
122.692825886238
20
-3.42574274826518
30
0
41
1
10
122.999693001553
20
-3.55278396873336
30
0
41
1
10
123.153215875854
20
-3.61539118120771
30
0
41
1
10
123.614064966345
20
-3.80046472144645
30
0
41
1
10
123.921668283608
20
-3.92019186756994
30
0
41
1
10
124.383631766262
20
-4.09428812218229
30
0
41
1
10
124.537685729001
20
-4.15139074101978
30
0
41
1
10
124.845426144481
20
-4.26353135189902
30
0
41
1
10
125.152937157204
20
-4.37365945875948
30
0
41
1
10
125.460023758035
20
-4.47970618035691
30
0
41
1
10
125.766900912961
20
-4.58369638259444
30
0
41
1
10
125.920236989701
20
-4.63465840431871
30
0
41
1
10
126.226889904073
20
-4.73426858546748
30
0
41
1
10
126.380206250417
20
-4.78291787405453
30
0
41
1
10
126.686955458187
20
-4.87774849667335
30
0
41
1
10
126.840386596545
20
-4.92393344982068
30
0
41
1
10
127.300827090557
20
-5.05884635099883
30
0
41
1
10
127.607982139245
20
-5.14393703946797
30
0
41
1
10
128.069054899834
20
-5.26424266647268
30
0
41
1
10
128.222803184649
20
-5.30312102662961
30
0
41
1
10
128.530431299703
20
-5.37840168686694
30
0
41
1
10
128.684345776066
20
-5.41481181992398
30
0
41
1
10
128.992179617352
20
-5.4850808276139
30
0
41
1
10
129.145958095216
20
-5.51890969258847
30
0
41
1
10
129.453202986417
20
-5.58397382188386
30
0
41
1
10
129.606674159604
20
-5.61520125832635
30
0
41
1
10
130.067049815939
20
-5.70464239098237
30
0
41
1
10
130.373895875813
20
-5.75865090398659
30
0
41
1
10
130.987427339531
20
-5.85554485186825
30
0
41
1
10
131.294122510795
20
-5.89841105056487
30
0
41
1
10
131.907894059583
20
-5.97272230832968
30
0
41
1
10
132.214962072716
20
-6.0041814947449
30
0
41
1
10
132.675914749689
20
-6.04276475081926
30
0
41
1
10
132.829625576054
20
-6.05418952199997
30
0
41
1
10
133.137222386486
20
-6.07413646182118
30
0
41
1
10
133.291169685853
20
-6.08266059342759
30
0
41
1
10
133.752574440173
20
-6.10380973902778
30
0
41
1
10
134.059767120385
20
-6.11203376452687
30
0
41
1
10
134.412657063169
20
-6.11472774608296
30
0
41
1
10
134.458678845155
20
-6.11494675459141
30
0
41
1
10
134.504693082315
20
-6.11503318115865
30
0
0
SPLINE
5
FA
100
AcDbEntity
8
1
62
256
6
ByLayer
370
18
48
1
60
0
100
AcDbSpline
70
4
71
3
72
115
73
111
40
0
40
0
40
0
40
0
40
0.0052078431361833
40
0.0052078431361833
40
0.0171524203840356
40
0.0171524203840356
40
0.0290969976318879
40
0.0290969976318879
40
0.0529861521275924
40
0.0529861521275924
40
0.0768753066232969
40
0.0768753066232969
40
0.100764461119001
40
0.100764461119001
40
0.124653615614706
40
0.124653615614706
40
0.14854277011041
40
0.14854277011041
40
0.160487347358263
40
0.160487347358263
40
0.166459635982189
40
0.166459635982189
40
0.172431924606116
40
0.196321079101822
40
0.196321079101822
40
0.208265656349675
40
0.208265656349675
40
0.220210233597528
40
0.220210233597528
40
0.244099388093236
40
0.244099388093236
40
0.267988542588943
40
0.267988542588943
40
0.29187769708465
40
0.29187769708465
40
0.315766851580358
40
0.315766851580358
40
0.339656006076065
40
0.339656006076065
40
0.351600583323919
40
0.351600583323919
40
0.363545160571772
40
0.363545160571772
40
0.38743431506748
40
0.38743431506748
40
0.411323469563187
40
0.411323469563187
40
0.435212624058895
40
0.435212624058895
40
0.459101778554602
40
0.459101778554602
40
0.482990933050309
40
0.482990933050309
40
0.506880087546017
40
0.506880087546017
40
0.51882466479387
40
0.51882466479387
40
0.530769242041724
40
0.530769242041724
40
0.554658396537431
40
0.554658396537431
40
0.560630685161358
40
0.560630685161358
40
0.566602973785284
40
0.566602973785284
40
0.578547551033137
40
0.578547551033137
40
0.602436705528843
40
0.602436705528843
40
0.626325860024549
40
0.626325860024549
40
0.650215014520255
40
0.650215014520255
40
0.674104169015961
40
0.674104169015961
40
0.697993323511667
40
0.697993323511667
40
0.70993790075952
40
0.70993790075952
40
0.721882478007372
40
0.721882478007372
40
0.745771632503078
40
0.745771632503078
40
0.75771620975093
40
0.75771620975093
40
0.763688498374857
40
0.763688498374857
40
0.769660786998783
40
0.769660786998783
40
0.79354994149449
40
0.79354994149449
40
0.817439095990196
40
0.817439095990196
40
0.82938367323805
40
0.82938367323805
40
0.841328250485903
40
0.841328250485903
40
0.86521740498161
40
0.86521740498161
40
0.889106559477318
40
0.889106559477318
40
0.912995713973025
40
0.912995713973025
40
0.936884868468732
40
0.936884868468732
40
0.96077402296444
40
0.96077402296444
40
0.984663177460147
40
0.984663177460147
40
1
40
1
40
1
40
1
41
1
10
22.2796854633515
20
5.9130280426433
30
0
41
1
10
22.3614921834532
20
5.91316972458461
30
0
41
1
10
22.4432569000573
20
5.91290509595555
30
0
41
1
10
22.7124268935769
20
5.91069770686502
30
0
41
1
10
22.8996648881266
20
5.90702563422511
30
0
41
1
10
23.2738883760731
20
5.89545092664204
30
0
41
1
10
23.4608823836721
20
5.88755159249132
30
0
41
1
10
24.02156029259
20
5.85757068038345
30
0
41
1
10
24.3949038938903
20
5.82919806247574
30
0
41
1
10
25.1411707703747
20
5.75587455648187
30
0
41
1
10
25.5140729007363
20
5.71090439150649
30
0
41
1
10
26.2602022784039
20
5.60470504716633
30
0
41
1
10
26.6335535048997
20
5.54356807987384
30
0
41
1
10
27.3811230572231
20
5.40539749272912
30
0
41
1
10
27.7553385030531
20
5.32835436869749
30
0
41
1
10
28.505166046603
20
5.1586049919546
30
0
41
1
10
28.880756347148
20
5.06585841000722
30
0
41
1
10
29.4459681434767
20
4.91565004083256
30
0
41
1
10
29.6346628730621
20
4.86372126966572
30
0
41
1
10
29.9181591323004
20
4.78303325312316
30
0
41
1
10
30.0127657636064
20
4.7556630049763
30
0
41
1
10
30.2017237651164
20
4.70012148221872
30
0
41
1
10
30.6737175095378
20
4.55920212047704
30
0
41
1
10
31.1437807506437
20
4.4080845710221
30
0
41
1
10
31.7064895949145
20
4.21773826798335
30
0
41
1
10
31.8938387577198
20
4.15279924354849
30
0
41
1
10
32.2682533838943
20
4.02019884695684
30
0
41
1
10
32.455313974497
20
3.95253124063297
30
0
41
1
10
33.0160668798769
20
3.74546628468553
30
0
41
1
10
33.3893386980544
20
3.60201907892323
30
0
41
1
10
34.1352533351929
20
3.30516954933032
30
0
41
1
10
34.5078569493836
20
3.15169259701841
30
0
41
1
10
35.2533152789511
20
2.83631588816019
30
0
41
1
10
35.6262193030253
20
2.67451706457038
30
0
41
1
10
36.3726309298146
20
2.34315547240004
30
0
41
1
10
36.7461533008408
20
2.17361583670106
30
0
41
1
10
37.4943937449309
20
1.82780886745081
30
0
41
1
10
37.8691350573431
20
1.65158107196572
30
0
41
1
10
38.4329017672043
20
1.38367202846135
30
0
41
1
10
38.6210750470225
20
1.29372397587753
30
0
41
1
10
38.997973792843
20
1.11262477397508
30
0
41
1
10
39.1867367041692
20
1.02145726430183
30
0
41
1
10
39.7537312106241
20
0.746444436290233
30
0
41
1
10
40.1303552986538
20
0.562163944186068
30
0
41
1
10
40.8816063304999
20
0.193305940260871
30
0
41
1
10
41.2563658774221
20
0.0090131997661445
30
0
41
1
10
42.0045350113967
20
-0.358544794244722
30
0
41
1
10
42.3779300061585
20
-0.541839804228061
30
0
41
1
10
43.1238622573083
20
-0.90638419571394
30
0
41
1
10
43.4963642440195
20
-1.08770296429458
30
0
41
1
10
44.2415046611419
20
-1.44625677775193
30
0
41
1
10
44.6140964680373
20
-1.62359203709943
30
0
41
1
10
45.3596499564884
20
-1.97371549835873
30
0
41
1
10
45.73262178337
20
-2.14648154159443
30
0
41
1
10
46.2928254584144
20
-2.40126292530894
30
0
41
1
10
46.4796855090824
20
-2.48545953739313
30
0
41
1
10
46.8538201016994
20
-2.65207090009679
30
0
41
1
10
47.0410976483206
20
-2.7344804312259
30
0
41
1
10
47.6035814935371
20
-2.97897522186324
30
0
41
1
10
47.9794327401163
20
-3.13833832599593
30
0
41
1
10
48.4506481236248
20
-3.33234362320718
30
0
41
1
10
48.5449617953311
20
-3.37088373120244
30
0
41
1
10
48.7337390412522
20
-3.44742435602043
30
0
41
1
10
48.8282148924764
20
-3.48542994402894
30
0
41
1
10
49.1112378782991
20
-3.59834406980184
30
0
41
1
10
49.2995876452607
20
-3.67224731758611
30
0
41
1
10
49.8638756611141
20
-3.889480984323
30
0
41
1
10
50.2390939730263
20
-4.0282786110468
30
0
41
1
10
50.9878901208936
20
-4.29358763279006
30
0
41
1
10
51.3614774267883
20
-4.42007703839664
30
0
41
1
10
52.1075743783088
20
-4.66002883047923
30
0
41
1
10
52.4800849357555
20
-4.7734770150966
30
0
41
1
10
53.2250494550475
20
-4.98611461591264
30
0
41
1
10
53.5974042143019
20
-5.08543875776817
30
0
41
1
10
54.3422772901438
20
-5.26961435991589
30
0
41
1
10
54.7147938851945
20
-5.3544614153717
30
0
41
1
10
55.2741790268206
20
-5.47030925461348
30
0
41
1
10
55.4607574466397
20
-5.50700801968608
30
0
41
1
10
55.8342822074322
20
-5.57645277235588
30
0
41
1
10
56.0212173349385
20
-5.60920917732037
30
0
41
1
10
56.5825737029
20
-5.70153084570163
30
0
41
1
10
56.9575547867441
20
-5.75514130187807
30
0
41
1
10
57.5215416841493
20
-5.82320296737663
30
0
41
1
10
57.7097885696703
20
-5.84383107861473
30
0
41
1
10
57.9926076351054
20
-5.87161670663355
30
0
41
1
10
58.0870069519125
20
-5.88035711028982
30
0
41
1
10
58.2756991137238
20
-5.89674801223495
30
0
41
1
10
58.3699685390733
20
-5.90439702418263
30
0
41
1
10
58.840974046885
20
-5.93991333952423
30
0
41
1
10
59.2166706422283
20
-5.95960973344188
30
0
41
1
10
59.9661827451296
20
-5.98180655550894
30
0
41
1
10
60.3400109865926
20
-5.98429617812863
30
0
41
1
10
60.8998000018094
20
-5.97520627614622
30
0
41
1
10
61.0862354253662
20
-5.97003742410939
30
0
41
1
10
61.4589443045057
20
-5.95545974408566
30
0
41
1
10
61.6452254249672
20
-5.94605430329304
30
0
41
1
10
62.2038949348952
20
-5.91153091239624
30
0
41
1
10
62.5760848280096
20
-5.88009946682254
30
0
41
1
10
63.3204302438655
20
-5.8005718233284
30
0
41
1
10
63.6925621796265
20
-5.75245558918621
30
0
41
1
10
64.4375231640499
20
-5.63984016671478
30
0
41
1
10
64.8104691895062
20
-5.57543030947437
30
0
41
1
10
65.5576302393009
20
-5.43056657010544
30
0
41
1
10
65.9318440271128
20
-5.35010575051322
30
0
41
1
10
66.68208075531
20
-5.17334480535703
30
0
41
1
10
67.0580812162671
20
-5.07700293710397
30
0
41
1
10
67.8129208375981
20
-4.86931107566551
30
0
41
1
10
68.1891351601677
20
-4.75859595122384
30
0
41
1
10
68.8051256411903
20
-4.56616110930077
30
0
41
1
10
69.0455415418802
20
-4.48824878828515
30
0
41
1
10
69.2856117467248
20
-4.40779275249511
30
0
0
SPLINE
5
FB
100
AcDbEntity
8
1
62
256
6
ByLayer
370
18
48
1
60
0
100
AcDbSpline
70
4
71
3
72
116
73
112
40
0
40
0
40
0
40
0
40
0.0116482692068322
40
0.0116482692068322
40
0.0234859509213255
40
0.0234859509213255
40
0.0353236326358189
40
0.0353236326358189
40
0.0589989960648066
40
0.0589989960648066
40
0.0826743594937946
40
0.0826743594937946
40
0.106349722922782
40
0.106349722922782
40
0.13002508635177
40
0.13002508635177
40
0.135943927209017
40
0.135943927209017
40
0.141862768066263
40
0.141862768066263
40
0.153700449780756
40
0.153700449780756
40
0.177375813209741
40
0.177375813209741
40
0.201051176638726
40
0.201051176638726
40
0.212888858353218
40
0.212888858353218
40
0.22472654006771
40
0.248401903496692
40
0.248401903496692
40
0.272077266925674
40
0.272077266925674
40
0.295752630354657
40
0.295752630354657
40
0.319427993783639
40
0.319427993783639
40
0.325346834640884
40
0.325346834640884
40
0.331265675498129
40
0.331265675498129
40
0.343103357212619
40
0.343103357212619
40
0.3667787206416
40
0.3667787206416
40
0.39045408407058
40
0.39045408407058
40
0.402291765785071
40
0.402291765785071
40
0.414129447499561
40
0.414129447499561
40
0.437804810928543
40
0.437804810928543
40
0.461480174357523
40
0.461480174357523
40
0.485155537786504
40
0.485155537786504
40
0.508830901215485
40
0.508830901215485
40
0.520668582929975
40
0.520668582929975
40
0.526587423787219
40
0.526587423787219
40
0.532506264644463
40
0.532506264644463
40
0.556181628073442
40
0.556181628073442
40
0.57985699150242
40
0.57985699150242
40
0.627207718360377
40
0.627207718360377
40
0.650883081789356
40
0.650883081789356
40
0.674558445218334
40
0.674558445218334
40
0.698233808647312
40
0.698233808647312
40
0.710071490361801
40
0.710071490361801
40
0.715990331219047
40
0.715990331219047
40
0.721909172076292
40
0.721909172076292
40
0.745584535505271
40
0.745584535505271
40
0.769259898934251
40
0.769259898934251
40
0.79293526236323
40
0.79293526236323
40
0.81661062579221
40
0.81661062579221
40
0.840285989221189
40
0.840285989221189
40
0.863961352650169
40
0.863961352650169
40
0.887636716079148
40
0.887636716079148
40
0.899474397793638
40
0.899474397793638
40
0.911312079508128
40
0.911312079508128
40
0.917230920365372
40
0.917230920365372
40
0.923149761222617
40
0.934987442937107
40
0.934987442937107
40
0.958662806366087
40
0.958662806366087
40
0.982338169795068
40
0.982338169795068
40
1
40
1
40
1
40
1
41
1
10
98.2655273548637
20
6.04980278850181
30
0
41
1
10
98.4486086073133
20
6.0501441354418
30
0
41
1
10
98.6315620829689
20
6.04840586413539
30
0
41
1
10
99.0002528428392
20
6.04071621019224
30
0
41
1
10
99.1859831151512
20
6.03469500967512
30
0
41
1
10
99.5573881870932
20
6.01838875195557
30
0
41
1
10
99.7430742250752
20
6.00810728794929
30
0
41
1
10
100.300164007886
20
5.97091713881949
30
0
41
1
10
100.671562920454
20
5.93765439845569
30
0
41
1
10
101.414849173585
20
5.85430639943365
30
0
41
1
10
101.786721940599
20
5.80420770947799
30
0
41
1
10
102.531621933733
20
5.68736541480638
30
0
41
1
10
102.904774841173
20
5.62071290374783
30
0
41
1
10
103.652931652237
20
5.47111547959994
30
0
41
1
10
104.027922086077
20
5.38815644854981
30
0
41
1
10
104.498144720149
20
5.27435627383977
30
0
41
1
10
104.592317838682
20
5.25107692311701
30
0
41
1
10
104.780484584177
20
5.2035995900786
30
0
41
1
10
104.874483808526
20
5.17940058634272
30
0
41
1
10
105.15624810672
20
5.10544844209448
30
0
41
1
10
105.343787412435
20
5.05434816098878
30
0
41
1
10
105.905718555213
20
4.89596047287989
30
0
41
1
10
106.279366955169
20
4.78352491344702
30
0
41
1
10
107.025130304419
20
4.54564958858984
30
0
41
1
10
107.397252837591
20
4.42021617291363
30
0
41
1
10
107.954730664733
20
4.22296843743234
30
0
41
1
10
108.140439066197
20
4.15570217471765
30
0
41
1
10
108.511784383517
20
4.01838692024299
30
0
41
1
10
109.068702830166
20
3.80825592364258
30
0
41
1
10
109.625424667081
20
3.58584538068897
30
0
41
1
10
110.368044036021
20
3.27916427312997
30
0
41
1
10
110.73948315479
20
3.12069599698492
30
0
41
1
10
111.483441163497
20
2.79484334776529
30
0
41
1
10
111.856054987247
20
2.62763966195919
30
0
41
1
10
112.602920328127
20
2.28526920986499
30
0
41
1
10
112.977177632791
20
2.11011030039254
30
0
41
1
10
113.446377802681
20
1.88674991601147
30
0
41
1
10
113.540287270815
20
1.84185819875404
30
0
41
1
10
113.728256251004
20
1.75165437178447
30
0
41
1
10
113.822369443865
20
1.70631386566132
30
0
41
1
10
114.104455800032
20
1.56996265315084
30
0
41
1
10
114.29220447823
20
1.47863161851495
30
0
41
1
10
114.854681198974
20
1.20366970570032
30
0
41
1
10
115.228583859734
20
1.01895224571612
30
0
41
1
10
115.974697886846
20
0.647656281680383
30
0
41
1
10
116.346908274365
20
0.461076221790137
30
0
41
1
10
116.90441032379
20
0.180741316644827
30
0
41
1
10
117.090121024263
20
0.0872441650101337
30
0
41
1
10
117.461441545461
20
-0.0995578964101753
30
0
41
1
10
117.647041397021
20
-0.192883351512961
30
0
41
1
10
118.20370608659
20
-0.472540221066623
30
0
41
1
10
118.574644743301
20
-0.658534429722209
30
0
41
1
10
119.316688629174
20
-1.02860075169531
30
0
41
1
10
119.687750343782
20
-1.21275944699377
30
0
41
1
10
120.430895807433
20
-1.57742327929691
30
0
41
1
10
120.803018926552
20
-1.75785136743386
30
0
41
1
10
121.548723891021
20
-2.11417329518355
30
0
41
1
10
121.922318083243
20
-2.29004208908484
30
0
41
1
10
122.484248798517
20
-2.54954132146247
30
0
41
1
10
122.671811382334
20
-2.63533188084261
30
0
41
1
10
122.953646331501
20
-2.76273012220463
30
0
41
1
10
123.047725713419
20
-2.80500242883153
30
0
41
1
10
123.235690972762
20
-2.8889170118926
30
0
41
1
10
123.329598936575
20
-2.93057237933843
30
0
41
1
10
123.798773921311
20
-3.13733649615267
30
0
41
1
10
124.172935932684
20
-3.29792881195178
30
0
41
1
10
124.919418906482
20
-3.60875886944314
30
0
41
1
10
125.291722601727
20
-3.75902144742443
30
0
41
1
10
126.406864281741
20
-4.19278613977818
30
0
41
1
10
127.148410878556
20
-4.45856683874538
30
0
41
1
10
128.260714338635
20
-4.81841912961386
30
0
41
1
10
128.631445956784
20
-4.93192169052071
30
0
41
1
10
129.373874325728
20
-5.14470385659507
30
0
41
1
10
129.745541116307
20
-5.24403301744186
30
0
41
1
10
130.490189636238
20
-5.42801585202696
30
0
41
1
10
130.863179452352
20
-5.51265774411138
30
0
41
1
10
131.424097567869
20
-5.62801097791146
30
0
41
1
10
131.611308072517
20
-5.66452665817394
30
0
41
1
10
131.892604854003
20
-5.716272690804
30
0
41
1
10
131.986451292537
20
-5.73301658463956
30
0
41
1
10
132.174311091714
20
-5.76548769929138
30
0
41
1
10
132.268358961732
20
-5.78122029654759
30
0
41
1
10
132.737972162737
20
-5.85716052026001
30
0
41
1
10
133.112400470327
20
-5.90933348599336
30
0
41
1
10
133.859265847752
20
-5.99650932622902
30
0
41
1
10
134.231669395302
20
-6.03151821073754
30
0
41
1
10
134.975233593474
20
-6.08424320204449
30
0
41
1
10
135.346491566086
20
-6.10194576991208
30
0
41
1
10
136.0883492123
20
-6.12013021321721
30
0
41
1
10
136.458954112069
20
-6.12060720176461
30
0
41
1
10
137.200037149263
20
-6.10432291418272
30
0
41
1
10
137.570489529939
20
-6.08754295077676
30
0
41
1
10
138.312260122799
20
-6.03686690086963
30
0
41
1
10
138.683507256101
20
-6.00296910816903
30
0
41
1
10
139.427183545565
20
-5.91808817625295
30
0
41
1
10
139.799614442377
20
-5.8671021623525
30
0
41
1
10
140.359594617541
20
-5.77783448194378
30
0
41
1
10
140.546486293134
20
-5.7459518364895
30
0
41
1
10
140.920888874603
20
-5.67801344078859
30
0
41
1
10
141.108391358516
20
-5.64195323853551
30
0
41
1
10
141.390125258432
20
-5.58472023213327
30
0
41
1
10
141.484106535341
20
-5.56512069831166
30
0
41
1
10
141.671801441865
20
-5.52497318067449
30
0
41
1
10
141.953105106772
20
-5.46329638727448
30
0
41
1
10
142.233730146974
20
-5.397304803482
30
0
41
1
10
142.794180441063
20
-5.25970811428184
30
0
41
1
10
143.166700558013
20
-5.16043603503368
30
0
41
1
10
143.910447728646
20
-4.94798140895409
30
0
41
1
10
144.281723653517
20
-4.83486825523215
30
0
41
1
10
144.929260960134
20
-4.62586958639346
30
0
41
1
10
145.205709139276
20
-4.5329120626173
30
0
41
1
10
145.482047606991
20
-4.43644552355437
30
0
0
SPLINE
5
FC
100
AcDbEntity
8
1
62
256
6
ByLayer
370
18
48
1
60
0
100
AcDbSpline
70
4
71
3
72
113
73
109
40
0
40
0
40
0
40
0
40
0.0129989748795613
40
0.0129989748795613
40
0.040080164246243
40
0.040080164246243
40
0.0671613536129247
40
0.0671613536129247
40
0.0807019482962655
40
0.0807019482962655
40
0.087472245637936
40
0.087472245637936
40
0.0942425429796065
40
0.107783137662947
40
0.107783137662947
40
0.121323732346288
40
0.121323732346288
40
0.175486111079652
40
0.175486111079652
40
0.182256408421322
40
0.182256408421322
40
0.189026705762993
40
0.202567300446333
40
0.229648489813014
40
0.229648489813014
40
0.256729679179694
40
0.256729679179694
40
0.270270273863034
40
0.270270273863034
40
0.277040571204704
40
0.277040571204704
40
0.283810868546374
40
0.297351463229714
40
0.297351463229714
40
0.310892057913053
40
0.310892057913053
40
0.337973247279732
40
0.337973247279732
40
0.365054436646411
40
0.365054436646411
40
0.39213562601309
40
0.39213562601309
40
0.419216815379769
40
0.419216815379769
40
0.446298004746447
40
0.446298004746447
40
0.459838599429787
40
0.459838599429787
40
0.466608896771457
40
0.466608896771457
40
0.473379194113127
40
0.473379194113127
40
0.486919788796468
40
0.486919788796468
40
0.500460383479808
40
0.500460383479808
40
0.55462276221317
40
0.55462276221317
40
0.56816335689651
40
0.56816335689651
40
0.57493365423818
40
0.57493365423818
40
0.58170395157985
40
0.58170395157985
40
0.608785140946531
40
0.608785140946531
40
0.635866330313212
40
0.635866330313212
40
0.662947519679893
40
0.662947519679893
40
0.669717817021563
40
0.669717817021563
40
0.676488114363234
40
0.676488114363234
40
0.690028709046574
40
0.690028709046574
40
0.717109898413256
40
0.717109898413256
40
0.744191087779938
40
0.744191087779938
40
0.771272277146619
40
0.771272277146619
40
0.798353466513301
40
0.798353466513301
40
0.825434655879983
40
0.825434655879983
40
0.852515845246665
40
0.852515845246665
40
0.859286142588335
40
0.859286142588335
40
0.866056439930005
40
0.866056439930005
40
0.879597034613346
40
0.879597034613346
40
0.906678223980027
40
0.906678223980027
40
0.920218818663369
40
0.920218818663369
40
0.93375941334671
40
0.93375941334671
40
0.960840602713393
40
0.960840602713393
40
0.967610900055064
40
0.967610900055064
40
0.974381197396735
40
0.987921792080079
40
0.987921792080079
40
1
40
1
40
1
40
1
41
1
10
78.3045184898083
20
-6.01387184877498
30
0
41
1
10
78.1002591109634
20
-6.01350120985845
30
0
41
1
10
77.8961200515317
20
-6.01056534746991
30
0
41
1
10
77.2668871582799
20
-5.99364405760062
30
0
41
1
10
76.8420362881415
20
-5.97113878393372
30
0
41
1
10
75.9921576948987
20
-5.90419126089961
30
0
41
1
10
75.567170733365
20
-5.85971964979211
30
0
41
1
10
74.9286721067706
20
-5.77684519466078
30
0
41
1
10
74.7156786309369
20
-5.74652479138882
30
0
41
1
10
74.3958738013582
20
-5.69702830449526
30
0
41
1
10
74.2892594812101
20
-5.67986564082398
30
0
41
1
10
74.0761750138212
20
-5.64425376887641
30
0
41
1
10
73.7566831670804
20
-5.588893208017
30
0
41
1
10
73.4375366317661
20
-5.52776147116387
30
0
41
1
10
73.012232706243
20
-5.44119931170658
30
0
41
1
10
72.7996934127189
20
-5.39538966240238
30
0
41
1
10
71.737075538157
20
-5.15414926483152
30
0
41
1
10
70.8872706467756
20
-4.92216395442819
30
0
41
1
10
69.9279962188334
20
-4.62095032168855
30
0
41
1
10
69.8213442982784
20
-4.58691993234891
30
0
41
1
10
69.6081881401007
20
-4.51786738438301
30
0
41
1
10
69.2885834660738
20
-4.41277032647653
30
0
41
1
10
68.5435989454583
20
-4.15714893140012
30
0
41
1
10
67.9058831529591
20
-3.92096265013748
30
0
41
1
10
67.0555675301378
20
-3.59207675155298
30
0
41
1
10
66.6304169380199
20
-3.4206044127759
30
0
41
1
10
65.991771626064
20
-3.15435892748343
30
0
41
1
10
65.7787468995338
20
-3.06408888593907
30
0
41
1
10
65.4589236064509
20
-2.9265185809401
30
0
41
1
10
65.352217120024
20
-2.88027875661405
30
0
41
1
10
65.138984419844
20
-2.78722661957269
30
0
41
1
10
64.8194330572708
20
-2.64680324723355
30
0
41
1
10
64.500720731714
20
-2.5039551315291
30
0
41
1
10
64.0764300052499
20
-2.31151321429522
30
0
41
1
10
63.8646082470366
20
-2.21431491667454
30
0
41
1
10
63.2298450918245
20
-1.92033249222399
30
0
41
1
10
62.8076254046838
20
-1.72112257615603
30
0
41
1
10
61.9643201600707
20
-1.31786052123971
30
0
41
1
10
61.5432387516561
20
-1.11379994390646
30
0
41
1
10
60.7014515133009
20
-0.702393148964092
30
0
41
1
10
60.2806416435171
20
-0.495259982888513
30
0
41
1
10
59.4383204280191
20
-0.0799328326744728
30
0
41
1
10
59.0168234236317
20
0.128290374289037
30
0
41
1
10
58.172415708004
20
0.54432688298192
30
0
41
1
10
57.7495155141798
20
0.752164188550012
30
0
41
1
10
57.1132309133198
20
1.061790262237
30
0
41
1
10
56.9008235934362
20
1.16466470507842
30
0
41
1
10
56.5816729937272
20
1.31832756126596
30
0
41
1
10
56.4751993418488
20
1.36943999570889
30
0
41
1
10
56.2620583741834
20
1.47141986025099
30
0
41
1
10
56.155349903736
20
1.52230682614837
30
0
41
1
10
55.8352097583721
20
1.67442251606431
30
0
41
1
10
55.6219893920942
20
1.77500177000115
30
0
41
1
10
55.1958716583216
20
1.97432913240513
30
0
41
1
10
54.9829660487409
20
2.07306038876982
30
0
41
1
10
53.9187546140643
20
2.56121093267169
30
0
41
1
10
53.0685016396318
20
2.93433314428228
30
0
41
1
10
52.0030808827227
20
3.37168217980752
30
0
41
1
10
51.7898415849417
20
3.45765538366007
30
0
41
1
10
51.4696540720162
20
3.58420215598159
30
0
41
1
10
51.3628904554524
20
3.62597553360115
30
0
41
1
10
51.1495142573288
20
3.70859396544992
30
0
41
1
10
51.0428692846628
20
3.7494518812278
30
0
41
1
10
50.509830610543
20
3.95144498751984
30
0
41
1
10
50.0839865765763
20
4.10567923605157
30
0
41
1
10
49.2327208489939
20
4.39837166688866
30
0
41
1
10
48.8072803304277
20
4.53679168043806
30
0
41
1
10
47.9556164767139
20
4.79621131467826
30
0
41
1
10
47.5294388836439
20
4.91727925430422
30
0
41
1
10
46.9957857308262
20
5.05714951290975
30
0
41
1
10
46.88896177326
20
5.08456190756192
30
0
41
1
10
46.6755684590408
20
5.13813744264434
30
0
41
1
10
46.5689748503155
20
5.16430875468396
30
0
41
1
10
46.2494744210891
20
5.24095119902776
30
0
41
1
10
46.0368412721381
20
5.28954274202204
30
0
41
1
10
45.3998068745903
20
5.42765709955376
30
0
41
1
10
44.9762914035325
20
5.50954615864742
30
0
41
1
10
44.1308263835458
20
5.65264746838403
30
0
41
1
10
43.7088972895172
20
5.71387134035587
30
0
41
1
10
42.8657899120659
20
5.81527332059031
30
0
41
1
10
42.4445138150665
20
5.85540252880639
30
0
41
1
10
41.6017225454724
20
5.91429421307663
30
0
41
1
10
41.1802061918945
20
5.93305955575042
30
0
41
1
10
40.3362266902686
20
5.94898258185705
30
0
41
1
10
39.9137274903005
20
5.94612316156034
30
0
41
1
10
39.0666203500664
20
5.91859895423707
30
0
41
1
10
38.6420538535105
20
5.89394082795209
30
0
41
1
10
38.1095887529187
20
5.84939553838859
30
0
41
1
10
38.0030080598186
20
5.83980016634607
30
0
41
1
10
37.7896613493349
20
5.81923237511347
30
0
41
1
10
37.682855882242
20
5.80825504699339
30
0
41
1
10
37.3624178637941
20
5.77328831268233
30
0
41
1
10
37.1489924116112
20
5.74729508735476
30
0
41
1
10
36.5090855742412
20
5.66143493687761
30
0
41
1
10
36.082994761452
20
5.59368086810096
30
0
41
1
10
35.4440330214789
20
5.47677778740911
30
0
41
1
10
35.2310733105043
20
5.43526578453822
30
0
41
1
10
34.8051226086795
20
5.34722068519693
30
0
41
1
10
34.5921409687695
20
5.3006780923468
30
0
41
1
10
33.9529134557859
20
5.15371304631628
30
0
41
1
10
33.5263490701807
20
5.04599358634002
30
0
41
1
10
32.992118842064
20
4.89964115127194
30
0
41
1
10
32.8852283472524
20
4.86978639688743
30
0
41
1
10
32.6716071646229
20
4.80899851981906
30
0
41
1
10
32.3513122469826
20
4.71617166471685
30
0
41
1
10
32.0313762638824
20
4.61848443391392
30
0
41
1
10
31.6280503061806
20
4.49129552835009
30
0
41
1
10
31.4379766370629
20
4.42967858427403
30
0
41
1
10
31.2479339673026
20
4.36647796682601
30
0
0
SPLINE
5
FD
100
AcDbEntity
8
1
62
256
6
ByLayer
370
18
48
1
60
0
100
AcDbSpline
70
4
71
3
72
106
73
102
40
0
40
0
40
0
40
0
40
0.0125347645348325
40
0.0125347645348325
40
0.0226109404069256
40
0.0226109404069256
40
0.0326871162790187
40
0.0528394680232035
40
0.0629156438952959
40
0.0629156438952959
40
0.0729918197673882
40
0.0729918197673882
40
0.113296523255756
40
0.113296523255756
40
0.123372699127848
40
0.123372699127848
40
0.133448874999939
40
0.153601226744123
40
0.153601226744123
40
0.193905930232493
40
0.193905930232493
40
0.214058281976678
40
0.214058281976678
40
0.224134457848771
40
0.224134457848771
40
0.234210633720864
40
0.254362985465049
40
0.254362985465049
40
0.264439161337142
40
0.264439161337142
40
0.274515337209235
40
0.274515337209235
40
0.314820040697604
40
0.314820040697604
40
0.355124744185974
40
0.355124744185974
40
0.365200920058066
40
0.365200920058066
40
0.375277095930158
40
0.395429447674344
40
0.395429447674344
40
0.405505623546436
40
0.405505623546436
40
0.415581799418529
40
0.415581799418529
40
0.435734151162713
40
0.435734151162713
40
0.476038854651081
40
0.476038854651081
40
0.496191206395266
40
0.496191206395266
40
0.506267382267358
40
0.506267382267358
40
0.516343558139451
40
0.516343558139451
40
0.556648261627825
40
0.556648261627825
40
0.566724437499919
40
0.566724437499919
40
0.576800613372013
40
0.596952965116203
40
0.596952965116203
40
0.617105316860393
40
0.617105316860393
40
0.637257668604583
40
0.637257668604583
40
0.657410020348772
40
0.657410020348772
40
0.677562372092962
40
0.677562372092962
40
0.697714723837152
40
0.697714723837152
40
0.717867075581342
40
0.717867075581342
40
0.738019427325532
40
0.738019427325532
40
0.758171779069722
40
0.758171779069722
40
0.778324130813912
40
0.778324130813912
40
0.798476482558102
40
0.798476482558102
40
0.818628834302291
40
0.818628834302291
40
0.838781186046481
40
0.838781186046481
40
0.858933537790671
40
0.858933537790671
40
0.879085889534861
40
0.879085889534861
40
0.899238241279051
40
0.899238241279051
40
0.919390593023241
40
0.919390593023241
40
0.939542944767431
40
0.939542944767431
40
0.95969529651162
40
0.95969529651162
40
0.97984764825581
40
0.97984764825581
40
1
40
1
40
1
40
1
41
1
10
108.794396411232
20
4.86069378932638
30
0
41
1
10
108.986069162211
20
4.91834345683441
30
0
41
1
10
109.177840845193
20
4.97421608994321
30
0
41
1
10
109.524026636917
20
5.07169107106492
30
0
41
1
10
109.678445100138
20
5.11395713598264
30
0
41
1
10
109.987181873959
20
5.19596996905932
30
0
41
1
10
110.450139521976
20
5.31521492544607
30
0
41
1
10
111.067101207962
20
5.45884634048483
30
0
41
1
10
111.529979030526
20
5.55468018616781
30
0
41
1
10
111.838643819287
20
5.61588630897324
30
0
41
1
10
111.993047482455
20
5.64515306056882
30
0
41
1
10
112.764720286862
20
5.78456183281619
30
0
41
1
10
113.381310841764
20
5.87399541250906
30
0
41
1
10
114.152928166035
20
5.95710508153579
30
0
41
1
10
114.307320233905
20
5.97229496566905
30
0
41
1
10
114.615806287184
20
5.99974972756544
30
0
41
1
10
115.078240563701
20
6.03656262900878
30
0
41
1
10
115.539992742798
20
6.0602426623287
30
0
41
1
10
116.463124463473
20
6.09004608915996
30
0
41
1
10
117.078048558991
20
6.08650136242898
30
0
41
1
10
118.001795122038
20
6.04599462771967
30
0
41
1
10
118.309938539902
20
6.02662869766868
30
0
41
1
10
118.772769692149
20
5.98879300151606
30
0
41
1
10
118.92709933131
20
5.9747198884653
30
0
41
1
10
119.235588976032
20
5.94369844535737
30
0
41
1
10
119.698208419176
20
5.89284243903029
30
0
41
1
10
120.160690184059
20
5.82911688478876
30
0
41
1
10
120.623347197591
20
5.75695180086549
30
0
41
1
10
120.777595093142
20
5.7314900777051
30
0
41
1
10
121.086192590811
20
5.67777702202008
30
0
41
1
10
121.240422475722
20
5.64954615545463
30
0
41
1
10
122.011014219041
20
5.50168305661435
30
0
41
1
10
122.626045203057
20
5.36186725925572
30
0
41
1
10
123.856049094224
20
5.04198558231008
30
0
41
1
10
124.471008353989
20
4.86190176337291
30
0
41
1
10
125.241476634079
20
4.61354178631248
30
0
41
1
10
125.395698439123
20
4.56269469204594
30
0
41
1
10
125.704184075602
20
4.45878984696702
30
0
41
1
10
126.166757306263
20
4.29969452029334
30
0
41
1
10
126.62906034473
20
4.13116601465805
30
0
41
1
10
127.091442024798
20
3.95672269875442
30
0
41
1
10
127.245582556879
20
3.89758942918616
30
0
41
1
10
127.553935506686
20
3.77741799239473
30
0
41
1
10
127.708201975375
20
3.71635795909461
30
0
41
1
10
128.170724821279
20
3.53060655896911
30
0
41
1
10
128.478653324187
20
3.4033674629533
30
0
41
1
10
129.401741739505
20
3.01241795074984
30
0
41
1
10
130.016194422461
20
2.73945790825971
30
0
41
1
10
130.938538202655
20
2.31519643248927
30
0
41
1
10
131.246099804052
20
2.17131108175261
30
0
41
1
10
131.707891488172
20
1.95228695574531
30
0
41
1
10
131.861897028779
20
1.87874648994139
30
0
41
1
10
132.170105376535
20
1.73068681505896
30
0
41
1
10
132.324342501315
20
1.65615072011732
30
0
41
1
10
133.095086971408
20
1.28175553266678
30
0
41
1
10
133.711000559556
20
0.976372501224091
30
0
41
1
10
134.481748779655
20
0.590640631712262
30
0
41
1
10
134.63593846047
20
0.513297386671098
30
0
41
1
10
134.944158220802
20
0.358450259477621
30
0
41
1
10
135.406357797839
20
0.125883670637222
30
0
41
1
10
135.868375939079
20
-0.107155936216287
30
0
41
1
10
136.484604076146
20
-0.417570251740983
30
0
41
1
10
136.792923579259
20
-0.572676372737561
30
0
41
1
10
137.409391111304
20
-0.88145715567282
30
0
41
1
10
137.717648087888
20
-1.03518569714302
30
0
41
1
10
138.334164875331
20
-1.34035971502254
30
0
41
1
10
138.64235975094
20
-1.49176370053422
30
0
41
1
10
139.258959722389
20
-1.79155451810175
30
0
41
1
10
139.567046458409
20
-1.93979145756538
30
0
41
1
10
140.183094143243
20
-2.23229380573812
30
0
41
1
10
140.491061674036
20
-2.37656201249578
30
0
41
1
10
141.107236783685
20
-2.6604739315344
30
0
41
1
10
141.415501479266
20
-2.80014280641555
30
0
41
1
10
142.031779542566
20
-3.0738004317023
30
0
41
1
10
142.339966312714
20
-3.2078647539073
30
0
41
1
10
142.956217273007
20
-3.46954408055916
30
0
41
1
10
143.264337677603
20
-3.59718306759362
30
0
41
1
10
143.880637502341
20
-3.8453035935691
30
0
41
1
10
144.188708687651
20
-3.96573822622
30
0
41
1
10
144.805055278031
20
-4.19880677351418
30
0
41
1
10
145.113087095197
20
-4.31135700705201
30
0
41
1
10
145.728936382103
20
-4.52792563300917
30
0
41
1
10
146.036797007052
20
-4.63195981509392
30
0
41
1
10
146.652745826901
20
-4.83104356765179
30
0
41
1
10
146.960916977376
20
-4.92611435544106
30
0
41
1
10
147.577030604719
20
-5.1065467266898
30
0
41
1
10
147.8851278224
20
-5.1919552838074
30
0
41
1
10
148.501233944842
20
-5.3525970655021
30
0
41
1
10
148.809251071136
20
-5.42783404076997
30
0
41
1
10
149.425397333683
20
-5.567738018695
30
0
41
1
10
149.733369296738
20
-5.63237016037678
30
0
41
1
10
150.349466235904
20
-5.75070197909147
30
0
41
1
10
150.65747188515
20
-5.80437858853591
30
0
41
1
10
151.273430300691
20
-5.90045029951375
30
0
41
1
10
151.58148091788
20
-5.94285759025513
30
0
41
1
10
152.197387379268
20
-6.01610980905275
30
0
41
1
10
152.505386036165
20
-6.04697217617712
30
0
41
1
10
153.121344761775
20
-6.09696832391663
30
0
41
1
10
153.429243153894
20
-6.11610197297813
30
0
41
1
10
154.045227039948
20
-6.14255185660784
30
0
41
1
10
154.353162567782
20
-6.1498599983087
30
0
41
1
10
154.661079463135
20
-6.15123049229337
30
0
0
SPLINE
5
FE
100
AcDbEntity
8
1
62
256
6
ByLayer
370
18
48
1
60
0
100
AcDbSpline
70
4
71
3
72
12
73
8
40
0
40
0
40
0
40
0
40
0.5
40
0.5
40
0.75
40
0.75
40
1
40
1
40
1
40
1
41
1
10
154.616772352448
20
-6.09997060813913
30
0
41
1
10
154.624137324293
20
-6.11634800066403
30
0
41
1
10
154.63150812523
20
-6.12881761250122
30
0
41
1
10
154.642589805571
20
-6.14164857785207
30
0
41
1
10
154.646289944297
20
-6.14494713680958
30
0
41
1
10
154.653689277656
20
-6.14956877282998
30
0
41
1
10
154.657385894681
20
-6.15089153483783
30
0
41
1
10
154.661079463126
20
-6.15123049229334
30
0
0
SPLINE
5
FF
100
AcDbEntity
8
1
62
256
6
ByLayer
370
18
48
1
60
0
100
AcDbSpline
70
4
71
3
72
74
73
70
40
0
40
0
40
0
40
0
40
0.0252493370359924
40
0.0252493370359924
40
0.0378740055539877
40
0.0378740055539877
40
0.050498674071983
40
0.050498674071983
40
0.100997348143966
40
0.100997348143966
40
0.151496022215949
40
0.151496022215949
40
0.164120690733944
40
0.164120690733944
40
0.176745359251939
40
0.20199469628793
40
0.20199469628793
40
0.252493370359911
40
0.252493370359911
40
0.277742707395903
40
0.277742707395903
40
0.290367375913899
40
0.290367375913899
40
0.302992044431896
40
0.328241381467888
40
0.328241381467888
40
0.353490718503879
40
0.353490718503879
40
0.403989392575862
40
0.403989392575862
40
0.454488066647845
40
0.454488066647845
40
0.504986740719828
40
0.504986740719828
40
0.517611409237823
40
0.517611409237823
40
0.530236077755818
40
0.530236077755818
40
0.555485414791805
40
0.555485414791805
40
0.605984088863781
40
0.605984088863781
40
0.631233425899768
40
0.631233425899768
40
0.643858094417762
40
0.643858094417762
40
0.656482762935755
40
0.656482762935755
40
0.706981437007731
40
0.706981437007731
40
0.757480111079706
40
0.757480111079706
40
0.770104779597701
40
0.770104779597701
40
0.782729448115695
40
0.782729448115695
40
0.807978785151682
40
0.807978785151682
40
0.858477459223658
40
0.858477459223658
40
0.883726796259647
40
0.883726796259647
40
0.896351464777642
40
0.896351464777642
40
0.908976133295637
40
0.908976133295637
40
0.959474807367624
40
0.959474807367624
40
1
40
1
40
1
40
1
41
1
10
154.616772352451
20
-6.09997060813845
30
0
41
1
10
154.309240233899
20
-6.07930629129999
30
0
41
1
10
154.001740854695
20
-6.05276327006365
30
0
41
1
10
153.54028122332
20
-6.00423237750891
30
0
41
1
10
153.386426130555
20
-5.98660273145998
30
0
41
1
10
153.078600898172
20
-5.94845597188072
30
0
41
1
10
152.924710518717
20
-5.92794810374522
30
0
41
1
10
152.15585889696
20
-5.81840088700429
30
0
41
1
10
151.542168736353
20
-5.70822892301643
30
0
41
1
10
150.314723764989
20
-5.44512864686573
30
0
41
1
10
149.701008379492
20
-5.29215593445574
30
0
41
1
10
148.931934981344
20
-5.0758775288505
30
0
41
1
10
148.777958083575
20
-5.03134914336306
30
0
41
1
10
148.47011296459
20
-4.93992376454935
30
0
41
1
10
148.008651117871
20
-4.79927838733295
30
0
41
1
10
147.547920271932
20
-4.6483671616017
30
0
41
1
10
146.626869155437
20
-4.33363783454843
30
0
41
1
10
146.013367629233
20
-4.10662256424746
30
0
41
1
10
145.091692152355
20
-3.74352574811755
30
0
41
1
10
144.784235590825
20
-3.61872436376058
30
0
41
1
10
144.322444909376
20
-3.4262497256949
30
0
41
1
10
144.168394287301
20
-3.36120380330743
30
0
41
1
10
143.860622472926
20
-3.22966963540574
30
0
41
1
10
143.399246628928
20
-3.03011734002891
30
0
41
1
10
142.938517482617
20
-2.82416789441416
30
0
41
1
10
142.324373890552
20
-2.54463144558318
30
0
41
1
10
142.0173836446
20
-2.40239458741743
30
0
41
1
10
141.09619176436
20
-1.96913527376097
30
0
41
1
10
140.481762890973
20
-1.67156937430215
30
0
41
1
10
139.249345025041
20
-1.06447205848698
30
0
41
1
10
138.634871860378
20
-0.756553111984601
30
0
41
1
10
137.406429733857
20
-0.137883518883058
30
0
41
1
10
136.792412606789
20
0.172772165489135
30
0
41
1
10
136.023438761803
20
0.559340685653183
30
0
41
1
10
135.86957162778
20
0.636567345452022
30
0
41
1
10
135.561649104042
20
0.790759826369481
30
0
41
1
10
135.407523037065
20
0.867760804112294
30
0
41
1
10
134.945500925478
20
1.09788518205636
30
0
41
1
10
134.637862576025
20
1.25012482081544
30
0
41
1
10
133.715553066336
20
1.70232166995541
30
0
41
1
10
133.101572625496
20
1.99791732807847
30
0
41
1
10
132.179644769056
20
2.42816705158162
30
0
41
1
10
131.872173462003
20
2.56939010338638
30
0
41
1
10
131.410489734055
20
2.77749608134675
30
0
41
1
10
131.256515194611
20
2.84624232488588
30
0
41
1
10
130.948358365453
20
2.98240092514123
30
0
41
1
10
130.794223097632
20
3.04979168525432
30
0
41
1
10
130.024322491729
20
3.38259638090409
30
0
41
1
10
129.409846685605
20
3.63605987513614
30
0
41
1
10
128.180788321356
20
4.11276473055517
30
0
41
1
10
127.566231007512
20
4.3360478583763
30
0
41
1
10
126.796183807121
20
4.59359885313333
30
0
41
1
10
126.642035304788
20
4.64405016340609
30
0
41
1
10
126.333756191582
20
4.74269640360984
30
0
41
1
10
126.179728871067
20
4.79085496288769
30
0
41
1
10
125.717881833495
20
4.93172108496745
30
0
41
1
10
125.410301401369
20
5.02082505221182
30
0
41
1
10
124.487967554569
20
5.27316728977416
30
0
41
1
10
123.873612346062
20
5.42141774392695
30
0
41
1
10
122.950695028451
20
5.61177067419061
30
0
41
1
10
122.642862205397
20
5.66991751225063
30
0
41
1
10
122.180553429078
20
5.74892158138198
30
0
41
1
10
122.02630373719
20
5.77388948575205
30
0
41
1
10
121.718101431579
20
5.8209538084229
30
0
41
1
10
121.56409094113
20
5.84306195221004
30
0
41
1
10
120.79439521626
20
5.94645432487931
30
0
41
1
10
120.17976917155
20
6.00627284880753
30
0
41
1
10
119.071275886047
20
6.07206653413445
30
0
41
1
10
118.577670344029
20
6.08636603819249
30
0
41
1
10
118.083128521412
20
6.08547210939929
30
0
0
SPLINE
5
100
100
AcDbEntity
8
1
62
256
6
ByLayer
370
18
48
1
60
0
100
AcDbSpline
70
4
71
3
72
28
73
24
40
0
40
0
40
0
40
0
40
0.125000000000226
40
0.125000000000226
40
0.18750000000034
40
0.18750000000034
40
0.250000000000454
40
0.312500000000567
40
0.312500000000567
40
0.375000000000681
40
0.375000000000681
40
0.500000000000625
40
0.500000000000625
40
0.62500000000057
40
0.62500000000057
40
0.687500000000541
40
0.687500000000541
40
0.750000000000513
40
0.812500000000485
40
0.812500000000485
40
0.875000000000457
40
0.875000000000457
40
1
40
1
40
1
40
1
41
1
10
95.4850401761776
20
-6.03753135577543
30
0
41
1
10
95.4850401761777
20
-6.03711146175596
30
0
41
1
10
95.4861227845101
20
-6.03668438157075
30
0
41
1
10
95.4893198784532
20
-6.03603584277934
30
0
41
1
10
95.4906639236078
20
-6.03581680071579
30
0
41
1
10
95.4938365441831
20
-6.03538680010422
30
0
41
1
10
95.4974859370525
20
-6.03496452601436
30
0
41
1
10
95.5020671104598
20
-6.03455993381641
30
0
41
1
10
95.5071261810879
20
-6.03416597036735
30
0
41
1
10
95.5098949766655
20
-6.03397472791562
30
0
41
1
10
95.5186847700161
20
-6.03343585435096
30
0
41
1
10
95.5252657436181
20
-6.0331161536742
30
0
41
1
10
95.5398330806406
20
-6.03257566012346
30
0
41
1
10
95.547533164611
20
-6.0323653170488
30
0
41
1
10
95.5596911470793
20
-6.03214479048199
30
0
41
1
10
95.5638765041207
20
-6.03208709114918
30
0
41
1
10
95.5722566659559
20
-6.03200790107837
30
0
41
1
10
95.5806654751602
20
-6.03196400507969
30
0
41
1
10
95.5891303996656
20
-6.03198995578728
30
0
41
1
10
95.5976241701242
20
-6.0320517418578
30
0
41
1
10
95.601868260801
20
-6.03210072320149
30
0
41
1
10
95.6142799018399
20
-6.03229644744528
30
0
41
1
10
95.6222505517172
20
-6.03249207194176
30
0
41
1
10
95.6299061327967
20
-6.03275094604618
30
0
0
SPLINE
5
101
100
AcDbEntity
8
1
62
256
6
ByLayer
370
18
48
1
60
0
100
AcDbSpline
70
4
71
3
72
8
73
4
40
0
40
0
40
0
40
0
40
1
40
1
40
1
40
1
41
1
10
95.6299061327967
20
-6.03275094604618
30
0
41
1
10
95.8873377953361
20
-6.04145601890755
30
0
41
1
10
96.1447945480883
20
-6.04601409574957
30
0
41
1
10
96.4023253621743
20
-6.04646111727789
30
0
0
SPLINE
5
102
100
AcDbEntity
8
1
62
256
6
ByLayer
370
18
48
1
60
0
100
AcDbSpline
70
4
71
3
72
68
73
64
40
0
40
0
40
0
40
0
40
0.0173342157854543
40
0.0173342157854543
40
0.0566408471540466
40
0.0566408471540466
40
0.0762941628383411
40
0.0762941628383411
40
0.0959474785226356
40
0.0959474785226356
40
0.135254109891225
40
0.135254109891225
40
0.154907425575518
40
0.154907425575518
40
0.174560741259811
40
0.174560741259811
40
0.213867372628394
40
0.213867372628394
40
0.253174003996977
40
0.253174003996977
40
0.272827319681268
40
0.272827319681268
40
0.292480635365558
40
0.292480635365558
40
0.312133951049848
40
0.312133951049848
40
0.331787266734139
40
0.331787266734139
40
0.371093898102722
40
0.371093898102722
40
0.410400529471306
40
0.410400529471306
40
0.449707160839889
40
0.449707160839889
40
0.469360476524181
40
0.469360476524181
40
0.489013792208472
40
0.489013792208472
40
0.528320423577053
40
0.528320423577053
40
0.606933686314214
40
0.606933686314214
40
0.646240317682796
40
0.646240317682796
40
0.665893633367087
40
0.665893633367087
40
0.685546949051378
40
0.685546949051378
40
0.724853580419957
40
0.724853580419957
40
0.764160211788537
40
0.764160211788537
40
0.803466843157116
40
0.803466843157116
40
0.823120158841404
40
0.823120158841404
40
0.842773474525692
40
0.842773474525692
40
0.882080105894268
40
0.882080105894268
40
0.921386737262845
40
0.921386737262845
40
1
40
1
40
1
40
1
41
1
10
131.195087415213
20
5.88308915026118
30
0
41
1
10
131.330372235866
20
5.90168483490314
30
0
41
1
10
131.465671726204
20
5.91918105528532
30
0
41
1
10
131.907894059586
20
5.97272230832996
30
0
41
1
10
132.214962072719
20
6.00418149474515
30
0
41
1
10
132.675914749691
20
6.04276475081949
30
0
41
1
10
132.829625576057
20
6.05418952200017
30
0
41
1
10
133.137222386489
20
6.07413646182135
30
0
41
1
10
133.291169685856
20
6.08266059342776
30
0
41
1
10
133.752574440176
20
6.10380973902789
30
0
41
1
10
134.059767120388
20
6.11203376452693
30
0
41
1
10
134.520058144938
20
6.11554765194677
30
0
41
1
10
134.673405400746
20
6.11524805298069
30
0
41
1
10
134.979928773489
20
6.1116922132926
30
0
41
1
10
135.13311096603
20
6.10843249121089
30
0
41
1
10
135.592865190736
20
6.09426199523654
30
0
41
1
10
135.899618003699
20
6.07897939849607
30
0
41
1
10
136.513555487721
20
6.03687442229696
30
0
41
1
10
136.820742555921
20
6.01005040027928
30
0
41
1
10
137.281871081887
20
5.96111716494647
30
0
41
1
10
137.435639378165
20
5.94335531574842
30
0
41
1
10
137.743307536641
20
5.90491199518303
30
0
41
1
10
137.897121160627
20
5.88424002396582
30
0
41
1
10
138.204358158828
20
5.84004343808451
30
0
41
1
10
138.357837517547
20
5.81651209431385
30
0
41
1
10
138.664579614462
20
5.76661059335896
30
0
41
1
10
138.817846334433
20
5.74024062652546
30
0
41
1
10
139.277740474644
20
5.65717291323512
30
0
41
1
10
139.584436926346
20
5.5965216125108
30
0
41
1
10
140.197858425715
20
5.46467516894893
30
0
41
1
10
140.504590684586
20
5.39347593877304
30
0
41
1
10
141.118373034291
20
5.24076103574836
30
0
41
1
10
141.425416641048
20
5.15924672677556
30
0
41
1
10
141.886170372746
20
5.02907365591889
30
0
41
1
10
142.03984992884
20
4.98434817519887
30
0
41
1
10
142.347148830422
20
4.8925142389013
30
0
41
1
10
142.500695388437
20
4.84542906621843
30
0
41
1
10
142.961235219401
20
4.7009476209268
30
0
41
1
10
143.26811707352
20
4.60031925164972
30
0
41
1
10
144.188429579571
20
4.28580098134756
30
0
41
1
10
144.801502509501
20
4.05927018985412
30
0
41
1
10
145.721452283098
20
3.69544728550724
30
0
41
1
10
146.028181590531
20
3.57018252657812
30
0
41
1
10
146.489075660378
20
3.37736628635338
30
0
41
1
10
146.642875611555
20
3.31225561556283
30
0
41
1
10
146.950182673559
20
3.18063758516905
30
0
41
1
10
147.10375426193
20
3.11410356245642
30
0
41
1
10
147.564240670146
20
2.91236309790301
30
0
41
1
10
147.870928932691
20
2.77502004791271
30
0
41
1
10
148.484110136021
20
2.49537519193882
30
0
41
1
10
148.790600380118
20
2.35307085943106
30
0
41
1
10
149.403553685972
20
2.06380214274981
30
0
41
1
10
149.710019999281
20
1.9168390781615
30
0
41
1
10
150.170193944979
20
1.69381113054177
30
0
41
1
10
150.323665138273
20
1.61904050195415
30
0
41
1
10
150.630755779818
20
1.4686181547965
30
0
41
1
10
150.784405287216
20
1.39294642718136
30
0
41
1
10
151.24545717148
20
1.16487188662637
30
0
41
1
10
151.552373494575
20
1.01170556308091
30
0
41
1
10
152.165840344622
20
0.704201840478305
30
0
41
1
10
152.472396703728
20
0.54987636228168
30
0
41
1
10
153.391679933631
20
0.0854686430798779
30
0
41
1
10
154.003994548514
20
-0.22609702513455
30
0
41
1
10
154.61686668458
20
-0.537462866428086
30
0
0
SPLINE
5
103
100
AcDbEntity
8
1
62
256
6
ByLayer
370
18
48
1
60
0
100
AcDbSpline
70
4
71
3
72
8
73
4
40
0
40
0
40
0
40
0
40
1
40
1
40
1
40
1
41
1
10
154.616866684572
20
-0.537462866425074
30
0
41
1
10
154.645631422089
20
-0.266569289996909
30
0
41
1
10
154.680045601311
20
0.0036167819509103
30
0
41
1
10
154.721511719182
20
0.272899565649624
30
0
0
SPLINE
5
104
100
AcDbEntity
8
1
62
256
6
ByLayer
370
18
48
1
60
0
100
AcDbSpline
70
4
71
3
72
53
73
49
40
0
40
0
40
0
40
0
40
0.0563063071290798
40
0.0563063071290798
40
0.11261261425816
40
0.11261261425816
40
0.168918921387239
40
0.168918921387239
40
0.225225228516319
40
0.225225228516319
40
0.281531535645399
40
0.281531535645399
40
0.309684689209939
40
0.309684689209939
40
0.337837842774479
40
0.337837842774479
40
0.394144149903559
40
0.394144149903559
40
0.450450457032638
40
0.450450457032638
40
0.464527033814908
40
0.464527033814908
40
0.478603610597178
40
0.478603610597178
40
0.506756764161718
40
0.506756764161718
40
0.563063071290798
40
0.563063071290798
40
0.591216224855339
40
0.591216224855339
40
0.619369378419879
40
0.619369378419879
40
0.675675685548961
40
0.675675685548961
40
0.731981992678042
40
0.731981992678042
40
0.788288299807124
40
0.788288299807124
40
0.844594606936205
40
0.844594606936205
40
0.900900914065287
40
0.900900914065287
40
0.929054067629828
40
0.929054067629828
40
0.943130644412099
40
0.943130644412099
40
0.95720722119437
40
1
40
1
40
1
40
1
41
1
10
11.2666991304641
20
-3.61506359523844
30
0
41
1
10
11.6454708845617
20
-3.76093071188097
30
0
41
1
10
12.0229218606004
20
-3.90111855885809
30
0
41
1
10
12.7757076908666
20
-4.16944589752998
30
0
41
1
10
13.151000862977
20
-4.29763978434212
30
0
41
1
10
13.9003068919662
20
-4.54083385840181
30
0
41
1
10
14.2742694758853
20
-4.65590539850089
30
0
41
1
10
15.0217400305293
20
-4.87192822479412
30
0
41
1
10
15.3951658165539
20
-4.97299716812699
30
0
41
1
10
16.1417725255493
20
-5.16084370773038
30
0
41
1
10
16.5149561577418
20
-5.24761055191433
30
0
41
1
10
17.075043675105
20
-5.36647481957962
30
0
41
1
10
17.261803803202
20
-5.40420371286226
30
0
41
1
10
17.6355972495525
20
-5.47575063915491
30
0
41
1
10
17.8226214704036
20
-5.50957810722727
30
0
41
1
10
18.3840882245077
20
-5.6051988694243
30
0
41
1
10
18.7589343893285
20
-5.66112165105824
30
0
41
1
10
19.510213449101
20
-5.75676073846802
30
0
41
1
10
19.8866080811917
20
-5.79648292873446
30
0
41
1
10
20.3586885975943
20
-5.83554628643449
30
0
41
1
10
20.4531861990071
20
-5.84282961338548
30
0
41
1
10
20.6423475191308
20
-5.85633337629957
30
0
41
1
10
20.7369697886277
20
-5.8625504316704
30
0
41
1
10
21.0204628340447
20
-5.8795694300025
30
0
41
1
10
21.2091514255853
20
-5.8887527267562
30
0
41
1
10
21.7743867800515
20
-5.90984936469985
30
0
41
1
10
22.1500942824794
20
-5.91530924195766
30
0
41
1
10
22.7124268935769
20
-5.91069770686502
30
0
41
1
10
22.8996648881266
20
-5.90702563422511
30
0
41
1
10
23.2738883760732
20
-5.89545092664204
30
0
41
1
10
23.4608823836721
20
-5.88755159249132
30
0
41
1
10
24.0215602925901
20
-5.85757068038345
30
0
41
1
10
24.3949038938903
20
-5.82919806247574
30
0
41
1
10
25.1411707703748
20
-5.75587455648187
30
0
41
1
10
25.5140729007363
20
-5.71090439150649
30
0
41
1
10
26.260202278404
20
-5.60470504716631
30
0
41
1
10
26.6335535048997
20
-5.54356807987384
30
0
41
1
10
27.3811230572231
20
-5.40539749272912
30
0
41
1
10
27.7553385030532
20
-5.32835436869749
30
0
41
1
10
28.5051660466031
20
-5.1586049919546
30
0
41
1
10
28.8807563471481
20
-5.06585841000725
30
0
41
1
10
29.4459681434768
20
-4.91565004083256
30
0
41
1
10
29.6346628730622
20
-4.86372126966572
30
0
41
1
10
29.9181591323004
20
-4.78303325312316
30
0
41
1
10
30.0127657636064
20
-4.7556630049763
30
0
41
1
10
30.2017237651164
20
-4.70012148221872
30
0
41
1
10
30.5830946126163
20
-4.58625866718828
30
0
41
1
10
30.9632051046475
20
-4.46573782595613
30
0
41
1
10
31.2486574777258
20
-4.37150871886533
30
0
0
SPLINE
5
105
100
AcDbEntity
8
1
62
256
6
ByLayer
370
18
48
1
60
0
100
AcDbSpline
70
4
71
3
72
117
73
113
40
0
40
0
40
0
40
0
40
0.0092926212126195
40
0.0092926212126195
40
0.021145456500548
40
0.021145456500548
40
0.0329982917884763
40
0.0329982917884763
40
0.0567039623643339
40
0.0567039623643339
40
0.0804096329401913
40
0.0804096329401913
40
0.104115303516049
40
0.104115303516049
40
0.127820974091907
40
0.127820974091907
40
0.151526644667764
40
0.151526644667764
40
0.175232315243622
40
0.175232315243622
40
0.198937985819479
40
0.198937985819479
40
0.210790821107407
40
0.210790821107407
40
0.222643656395336
40
0.222643656395336
40
0.246349326971193
40
0.246349326971193
40
0.270054997547049
40
0.270054997547049
40
0.293760668122906
40
0.293760668122906
40
0.317466338698763
40
0.317466338698763
40
0.341172009274619
40
0.341172009274619
40
0.347098426918584
40
0.347098426918584
40
0.353024844562548
40
0.353024844562548
40
0.364877679850477
40
0.364877679850477
40
0.388583350426334
40
0.388583350426334
40
0.412289021002192
40
0.412289021002192
40
0.435994691578048
40
0.435994691578048
40
0.459700362153905
40
0.459700362153905
40
0.483406032729762
40
0.483406032729762
40
0.507111703305619
40
0.507111703305619
40
0.518964538593547
40
0.518964538593547
40
0.530817373881476
40
0.530817373881476
40
0.542670209169404
40
0.542670209169404
40
0.548596626813368
40
0.548596626813368
40
0.554523044457332
40
0.554523044457332
40
0.57822871503319
40
0.57822871503319
40
0.601934385609048
40
0.601934385609048
40
0.625640056184906
40
0.625640056184906
40
0.649345726760764
40
0.649345726760764
40
0.673051397336623
40
0.673051397336623
40
0.69675706791248
40
0.69675706791248
40
0.708609903200409
40
0.708609903200409
40
0.720462738488337
40
0.720462738488337
40
0.732315573776266
40
0.738241991420229
40
0.738241991420229
40
0.744168409064193
40
0.744168409064193
40
0.767874079640049
40
0.767874079640049
40
0.791579750215906
40
0.791579750215906
40
0.815285420791763
40
0.815285420791763
40
0.827138256079692
40
0.827138256079692
40
0.838991091367621
40
0.838991091367621
40
0.862696761943479
40
0.862696761943479
40
0.886402432519337
40
0.886402432519337
40
0.910108103095195
40
0.910108103095195
40
0.933813773671053
40
0.933813773671053
40
0.939740191315017
40
0.939740191315017
40
0.945666608958981
40
0.945666608958981
40
0.957519444246909
40
0.957519444246909
40
0.981225114822764
40
0.981225114822764
40
1
40
1
40
1
40
1
41
1
10
60.2740185596672
20
5.98141788139324
30
0
41
1
10
60.4205229934612
20
5.98167347269637
30
0
41
1
10
60.5669121601185
20
5.98061173743585
30
0
41
1
10
60.8998000018096
20
5.97520627614622
30
0
41
1
10
61.0862354253662
20
5.97003742410939
30
0
41
1
10
61.4589443045057
20
5.95545974408566
30
0
41
1
10
61.6452254249674
20
5.94605430329304
30
0
41
1
10
62.2038949348954
20
5.91153091239624
30
0
41
1
10
62.5760848280097
20
5.88009946682254
30
0
41
1
10
63.3204302438656
20
5.8005718233284
30
0
41
1
10
63.6925621796266
20
5.75245558918621
30
0
41
1
10
64.43752316405
20
5.63984016671475
30
0
41
1
10
64.8104691895062
20
5.5754303094744
30
0
41
1
10
65.5576302393009
20
5.4305665701055
30
0
41
1
10
65.9318440271129
20
5.35010575051322
30
0
41
1
10
66.68208075531
20
5.17334480535703
30
0
41
1
10
67.0580812162671
20
5.07700293710394
30
0
41
1
10
67.8129208375982
20
4.86931107566551
30
0
41
1
10
68.1891351601677
20
4.75859595122384
30
0
41
1
10
68.9394283526455
20
4.52420506964603
30
0
41
1
10
69.3135365638938
20
4.40052452829858
30
0
41
1
10
69.8736077749118
20
4.20600849708333
30
0
41
1
10
70.0601236630804
20
4.1396808844143
30
0
41
1
10
70.4329634742979
20
4.00430014854933
30
0
41
1
10
70.619281841776
20
3.93523978473493
30
0
41
1
10
71.1779557361377
20
3.72400318850262
30
0
41
1
10
71.5500386826514
20
3.57778436219886
30
0
41
1
10
72.2939728092276
20
3.27538750342057
30
0
41
1
10
72.665784675258
20
3.11913517346264
30
0
41
1
10
73.4100252909593
20
2.79811202944771
30
0
41
1
10
73.7825098252642
20
2.63345315329587
30
0
41
1
10
74.5285068708033
20
2.29635104752333
30
0
41
1
10
74.9020324805871
20
2.12392841833775
30
0
41
1
10
75.6506998285572
20
1.77229395542457
30
0
41
1
10
76.0258549159506
20
1.5931008225933
30
0
41
1
10
76.4964435348148
20
1.36608395290375
30
0
41
1
10
76.5906383409005
20
1.32051876088053
30
0
41
1
10
76.7791867186789
20
1.22907155396561
30
0
41
1
10
76.8735110784768
20
1.18320466442444
30
0
41
1
10
77.1560934373196
20
1.04546675280753
30
0
41
1
10
77.3441644378681
20
0.953357954001149
30
0
41
1
10
77.9075253813903
20
0.676386252857299
30
0
41
1
10
78.281946871529
20
0.49084367013171
30
0
41
1
10
79.0291903635129
20
0.119434880790862
30
0
41
1
10
79.4021418651756
20
-0.0661597615923029
30
0
41
1
10
80.1471372497718
20
-0.43626243701982
30
0
41
1
10
80.5191638109164
20
-0.62080586679474
30
0
41
1
10
81.2627909387656
20
-0.987819175356123
30
0
41
1
10
81.6343505237162
20
-1.1703698915571
30
0
41
1
10
82.3780025453214
20
-1.53144927331957
30
0
41
1
10
82.7500678954928
20
-1.71003614218265
30
0
41
1
10
83.4950296051497
20
-2.06258836723231
30
0
41
1
10
83.8679362395868
20
-2.2365321849511
30
0
41
1
10
84.4283764327384
20
-2.49305239839981
30
0
41
1
10
84.6153688763747
20
-2.57782821495738
30
0
41
1
10
84.989874835039
20
-2.74559780571249
30
0
41
1
10
85.1773935298291
20
-2.82858201713736
30
0
41
1
10
85.5529882423588
20
-2.9926949302365
30
0
41
1
10
85.741062960357
20
-3.07382600392276
30
0
41
1
10
86.0236388201873
20
-3.19403797563095
30
0
41
1
10
86.1179379054639
20
-3.23387364041366
30
0
41
1
10
86.3062753779471
20
-3.31285673672201
30
0
41
1
10
86.4003624359377
20
-3.3520247060961
30
0
41
1
10
86.8704120200633
20
-3.54621468387637
30
0
41
1
10
87.2451806723704
20
-3.69634630871769
30
0
41
1
10
87.9930219003063
20
-3.98491570410246
30
0
41
1
10
88.3661912167953
20
-4.12320907080476
30
0
41
1
10
89.1113764530532
20
-4.38746593873887
30
0
41
1
10
89.4833979702173
20
-4.51341599393388
30
0
41
1
10
90.2268277711147
20
-4.75226113043681
30
0
41
1
10
90.5982194913459
20
-4.86516497557616
30
0
41
1
10
91.3413964075378
20
-5.07667654554825
30
0
41
1
10
91.713099768165
20
-5.17539523689388
30
0
41
1
10
92.4571611558217
20
-5.35823637333431
30
0
41
1
10
92.8295213480669
20
-5.44235205230439
30
0
41
1
10
93.389016369608
20
-5.55700542822905
30
0
41
1
10
93.5756839779357
20
-5.59329364174059
30
0
41
1
10
93.9495089111739
20
-5.66187187235471
30
0
41
1
10
94.1366578034041
20
-5.69417011912606
30
0
41
1
10
94.5114543507381
20
-5.75474310095927
30
0
41
1
10
94.7929310760422
20
-5.79715088011412
30
0
41
1
10
95.075047121522
20
-5.83494039235222
30
0
41
1
10
95.2632759048214
20
-5.85909620481254
30
0
41
1
10
95.3575166908583
20
-5.87066113549116
30
0
41
1
10
95.8281777265542
20
-5.92575899867975
30
0
41
1
10
96.2033272464989
20
-5.96118276996282
30
0
41
1
10
96.9518463286063
20
-6.01462712024588
30
0
41
1
10
97.3252517732347
20
-6.0326584208762
30
0
41
1
10
98.0707005337405
20
-6.05152099758962
30
0
41
1
10
98.4427565062797
20
-6.05234371586727
30
0
41
1
10
99.0002528428392
20
-6.04071621019224
30
0
41
1
10
99.1859831151513
20
-6.03469500967509
30
0
41
1
10
99.5573881870934
20
-6.01838875195557
30
0
41
1
10
99.7430742250752
20
-6.00810728794929
30
0
41
1
10
100.300164007886
20
-5.97091713881949
30
0
41
1
10
100.671562920454
20
-5.93765439845569
30
0
41
1
10
101.414849173585
20
-5.85430639943365
30
0
41
1
10
101.7867219406
20
-5.80420770947799
30
0
41
1
10
102.531621933733
20
-5.68736541480638
30
0
41
1
10
102.904774841174
20
-5.62071290374786
30
0
41
1
10
103.652931652237
20
-5.47111547959992
30
0
41
1
10
104.027922086077
20
-5.38815644854978
30
0
41
1
10
104.498144720149
20
-5.27435627383974
30
0
41
1
10
104.592317838682
20
-5.25107692311698
30
0
41
1
10
104.780484584177
20
-5.20359959007857
30
0
41
1
10
104.874483808526
20
-5.17940058634269
30
0
41
1
10
105.15624810672
20
-5.10544844209446
30
0
41
1
10
105.343787412435
20
-5.05434816098875
30
0
41
1
10
105.905718555213
20
-4.89596047287986
30
0
41
1
10
106.27936695517
20
-4.783524913447
30
0
41
1
10
106.947570822996
20
-4.57038865207133
30
0
41
1
10
107.242416834394
20
-4.47211550352819
30
0
41
1
10
107.536929985201
20
-4.36998176333975
30
0
0
SPLINE
5
106
100
AcDbEntity
8
1
62
256
6
ByLayer
370
18
48
1
60
0
100
AcDbSpline
70
4
71
3
72
47
73
43
40
0
40
0
40
0
40
0
40
0.0310077594695893
40
0.0310077594695893
40
0.0915697745027391
40
0.0915697745027391
40
0.152131789535888
40
0.152131789535888
40
0.212693804569038
40
0.212693804569038
40
0.242974812085612
40
0.242974812085612
40
0.273255819602186
40
0.273255819602186
40
0.288396323360471
40
0.288396323360471
40
0.303536827118757
40
0.333817834635331
40
0.333817834635331
40
0.394379849668484
40
0.394379849668484
40
0.454941864701637
40
0.454941864701637
40
0.515503879734789
40
0.515503879734789
40
0.576065894767942
40
0.576065894767942
40
0.636627909801095
40
0.636627909801095
40
0.697189924834247
40
0.697189924834247
40
0.757751939867401
40
0.757751939867401
40
0.788032947383976
40
0.788032947383976
40
0.818313954900552
40
0.818313954900552
40
0.878875969933701
40
0.878875969933701
40
0.939437984966851
40
0.939437984966851
40
1
40
1
40
1
40
1
41
1
10
136.260258901023
20
6.11819355243679
30
0
41
1
10
136.450044405509
20
6.11854316034513
30
0
41
1
10
136.639778325589
20
6.11663383663961
30
0
41
1
10
137.200037149263
20
6.10432291418272
30
0
41
1
10
137.570489529939
20
6.08754295077676
30
0
41
1
10
138.312260122799
20
6.03686690086963
30
0
41
1
10
138.683507256101
20
6.00296910816903
30
0
41
1
10
139.427183545565
20
5.91808817625292
30
0
41
1
10
139.799614442377
20
5.86710216235247
30
0
41
1
10
140.359594617541
20
5.77783448194378
30
0
41
1
10
140.546486293134
20
5.7459518364895
30
0
41
1
10
140.920888874603
20
5.67801344078856
30
0
41
1
10
141.108391358516
20
5.64195323853551
30
0
41
1
10
141.390125258432
20
5.58472023213327
30
0
41
1
10
141.484106535341
20
5.56512069831166
30
0
41
1
10
141.671801441865
20
5.52497318067449
30
0
41
1
10
141.953105106772
20
5.46329638727445
30
0
41
1
10
142.233730146974
20
5.39730480348197
30
0
41
1
10
142.794180441063
20
5.25970811428181
30
0
41
1
10
143.166700558013
20
5.16043603503363
30
0
41
1
10
143.910447728646
20
4.94798140895415
30
0
41
1
10
144.281723653517
20
4.83486825523215
30
0
41
1
10
145.023461527827
20
4.59546547986469
30
0
41
1
10
145.393934806828
20
4.4691870326628
30
0
41
1
10
146.134622269707
20
4.20420454200928
30
0
41
1
10
146.504838707925
20
4.06549388487343
30
0
41
1
10
147.246005466681
20
3.77710480325243
30
0
41
1
10
147.61687071058
20
3.62730457360757
30
0
41
1
10
148.35965739529
20
3.31720154351393
30
0
41
1
10
148.731567527946
20
3.1568764691107
30
0
41
1
10
149.477071835935
20
2.82662888759109
30
0
41
1
10
149.850788936777
20
2.65693350969749
30
0
41
1
10
150.413219335185
20
2.39616754689391
30
0
41
1
10
150.601145319284
20
2.30813157153881
30
0
41
1
10
150.976485088947
20
2.1306337489298
30
0
41
1
10
151.163997987927
20
2.04112975669798
30
0
41
1
10
151.726167369113
20
1.77054698182178
30
0
41
1
10
152.100403466998
20
1.58729796024187
30
0
41
1
10
152.848857222977
20
1.21712967345576
30
0
41
1
10
153.223057159653
20
1.03018021599061
30
0
41
1
10
153.971840673737
20
0.653401045317395
30
0
41
1
10
154.346432537913
20
0.463586807737755
30
0
41
1
10
154.721511719182
20
0.272899565649794
30
0
0
SPLINE
5
107
100
AcDbEntity
8
1
62
256
6
ByLayer
370
18
48
1
60
0
100
AcDbSpline
70
4
71
3
72
69
73
65
40
0
40
0
40
0
40
0
40
0.0485743423232074
40
0.0485743423232074
40
0.0971486846464148
40
0.0971486846464148
40
0.109292270227215
40
0.109292270227215
40
0.121435855808016
40
0.145723026969617
40
0.145723026969617
40
0.170010198131218
40
0.170010198131218
40
0.194297369292819
40
0.194297369292819
40
0.242871711616022
40
0.242871711616022
40
0.267158882777623
40
0.267158882777623
40
0.279302468358425
40
0.279302468358425
40
0.291446053939227
40
0.291446053939227
40
0.340020396262434
40
0.340020396262434
40
0.388594738585641
40
0.388594738585641
40
0.437169080908849
40
0.437169080908849
40
0.485743423232056
40
0.485743423232056
40
0.51003059439366
40
0.51003059439366
40
0.534317765555264
40
0.534317765555264
40
0.582892107878471
40
0.582892107878471
40
0.607179279040076
40
0.607179279040076
40
0.619322864620878
40
0.619322864620878
40
0.631466450201681
40
0.631466450201681
40
0.680040792524887
40
0.680040792524887
40
0.728615134848093
40
0.728615134848093
40
0.777189477171299
40
0.777189477171299
40
0.801476648332902
40
0.801476648332902
40
0.813620233913703
40
0.813620233913703
40
0.825763819494504
40
0.850050990656108
40
0.850050990656108
40
0.874338161817711
40
0.874338161817711
40
0.97148684646413
40
0.97148684646413
40
0.983630432044932
40
0.983630432044932
40
0.995774017625734
40
1
40
1
40
1
40
1
41
1
10
95.4850401761776
20
0.918541606037309
30
0
41
1
10
95.060530661605
20
1.12775415037154
30
0
41
1
10
94.636141340047
20
1.33506853703031
30
0
41
1
10
93.7868018887134
20
1.74431788594867
30
0
41
1
10
93.3619061342329
20
1.94635591112831
30
0
41
1
10
92.8297086505769
20
2.19411362565165
30
0
41
1
10
92.7231852983171
20
2.24344401884386
30
0
41
1
10
92.510263960138
20
2.34149584079577
30
0
41
1
10
92.1910179133565
20
2.4876835300029
30
0
41
1
10
91.872129284783
20
2.63111664942141
30
0
41
1
10
91.4471556767158
20
2.81972928053324
30
0
41
1
10
91.2347738875125
20
2.91271894605634
30
0
41
1
10
90.81013537446
20
3.09591803922206
30
0
41
1
10
90.597886282973
20
3.18613982638703
30
0
41
1
10
89.9610605053429
20
3.45217453958153
30
0
41
1
10
89.5363929661825
20
3.62334014330671
30
0
41
1
10
88.8986067565539
20
3.86979450870072
30
0
41
1
10
88.685880211393
20
3.95022958099511
30
0
41
1
10
88.3665175796965
20
4.06817987691099
30
0
41
1
10
88.2599728166024
20
4.10706270616956
30
0
41
1
10
88.0470067727854
20
4.18382903019145
30
0
41
1
10
87.9406284865898
20
4.22169920188145
30
0
41
1
10
87.4092200215825
20
4.40843655798346
30
0
41
1
10
86.985573688209
20
4.54935722799044
30
0
41
1
10
86.1402169120926
20
4.8132122593039
30
0
41
1
10
85.7185372717499
20
4.93619568949123
30
0
41
1
10
84.876401833488
20
5.16355886454872
30
0
41
1
10
84.4559916882397
20
5.26797557112411
30
0
41
1
10
83.6152691993365
20
5.45713215442814
30
0
41
1
10
83.194991647616
20
5.54191934624859
30
0
41
1
10
82.5641267489013
20
5.6539382084004
30
0
41
1
10
82.3537621377275
20
5.68874959067028
30
0
41
1
10
81.9328000037729
20
5.75324161202815
30
0
41
1
10
81.7222080913315
20
5.7829241386882
30
0
41
1
10
81.0898195097079
20
5.86407863347702
30
0
41
1
10
80.6674061505952
20
5.90766260628905
30
0
41
1
10
80.0319619133344
20
5.95682694684754
30
0
41
1
10
79.8198424942019
20
5.97051257059883
30
0
41
1
10
79.501131301296
20
5.98692949441724
30
0
41
1
10
79.3948056809983
20
5.99171656940118
30
0
41
1
10
79.1819667739862
20
5.99991042686852
30
0
41
1
10
79.075412543065
20
6.00331831039921
30
0
41
1
10
78.542634651443
20
6.01686704296739
30
0
41
1
10
78.1172017943751
20
6.01651066325937
30
0
41
1
10
77.2668871582775
20
5.9936440576005
30
0
41
1
10
76.842036288139
20
5.97113878393355
30
0
41
1
10
75.9921576948959
20
5.90419126089935
30
0
41
1
10
75.5671707333621
20
5.85971964979177
30
0
41
1
10
74.928672106767
20
5.77684519466027
30
0
41
1
10
74.7156786309329
20
5.74652479138825
30
0
41
1
10
74.3958738013539
20
5.69702830449458
30
0
41
1
10
74.289259481206
20
5.67986564082332
30
0
41
1
10
74.0761750138174
20
5.64425376887576
30
0
41
1
10
73.7566831670768
20
5.58889320801634
30
0
41
1
10
73.4375366317627
20
5.52776147116322
30
0
41
1
10
73.0122327062398
20
5.4411993117059
30
0
41
1
10
72.7996934127157
20
5.3953896624017
30
0
41
1
10
71.7370755381539
20
5.15414926483072
30
0
41
1
10
70.887270646772
20
4.92216395442722
30
0
41
1
10
69.9279962188286
20
4.62095032168702
30
0
41
1
10
69.8213442982736
20
4.58691993234737
30
0
41
1
10
69.6081881400961
20
4.5178673843815
30
0
41
1
10
69.4645789785509
20
4.47064373093284
30
0
41
1
10
69.3210355546483
20
4.42252061574931
30
0
41
1
10
69.2839823672927
20
4.41003759439062
30
0
0
SPLINE
5
108
100
AcDbEntity
8
1
62
256
6
ByLayer
370
18
48
1
60
0
100
AcDbSpline
70
4
71
3
72
66
73
62
40
0
40
0
40
0
40
0
40
0.0289848213096079
40
0.0289848213096079
40
0.077535580244124
40
0.077535580244124
40
0.0896732699777536
40
0.0896732699777536
40
0.101810959711383
40
0.101810959711383
40
0.126086339178642
40
0.126086339178642
40
0.174637098113159
40
0.174637098113159
40
0.198912477580417
40
0.198912477580417
40
0.223187857047675
40
0.223187857047675
40
0.271738615982191
40
0.271738615982191
40
0.283876305715821
40
0.283876305715821
40
0.296013995449451
40
0.320289374916708
40
0.320289374916708
40
0.368840133851224
40
0.368840133851224
40
0.417390892785741
40
0.417390892785741
40
0.441666272252999
40
0.441666272252999
40
0.453803961986629
40
0.453803961986629
40
0.465941651720259
40
0.514492410654779
40
0.514492410654779
40
0.538767790122039
40
0.538767790122039
40
0.563043169589299
40
0.563043169589299
40
0.61159392852382
40
0.61159392852382
40
0.635869307991081
40
0.635869307991081
40
0.660144687458342
40
0.660144687458342
40
0.708695446392864
40
0.708695446392864
40
0.757246205327387
40
0.757246205327387
40
0.80579696426191
40
0.80579696426191
40
0.854347723196432
40
0.854347723196432
40
0.878623102663693
40
0.878623102663693
40
0.902898482130955
40
0.902898482130955
40
0.951449241065478
40
0.951449241065478
40
1
40
1
40
1
40
1
41
1
10
40.2477474252317
20
-5.94536893745681
30
0
41
1
10
39.9955214134153
20
-5.9449072006409
30
0
41
1
10
39.7430355605382
20
-5.94057703895081
30
0
41
1
10
39.0666203500604
20
-5.91859895423676
30
0
41
1
10
38.6420538535037
20
-5.89394082795167
30
0
41
1
10
38.1095887529108
20
-5.84939553838788
30
0
41
1
10
38.0030080598104
20
-5.83980016634533
30
0
41
1
10
37.7896613493261
20
-5.81923237511259
30
0
41
1
10
37.6828558822327
20
-5.80825504699243
30
0
41
1
10
37.3624178637852
20
-5.77328831268127
30
0
41
1
10
37.1489924116026
20
-5.74729508735368
30
0
41
1
10
36.5090855742331
20
-5.66143493687636
30
0
41
1
10
36.082994761444
20
-5.59368086809965
30
0
41
1
10
35.4440330214709
20
-5.47677778740757
30
0
41
1
10
35.2310733104963
20
-5.43526578453663
30
0
41
1
10
34.8051226086713
20
-5.34722068519517
30
0
41
1
10
34.5921409687613
20
-5.30067809234495
30
0
41
1
10
33.9529134557772
20
-5.15371304631418
30
0
41
1
10
33.5263490701716
20
-5.04599358633769
30
0
41
1
10
32.9921188420543
20
-4.89964115126921
30
0
41
1
10
32.8852283472427
20
-4.86978639688471
30
0
41
1
10
32.6716071646134
20
-4.80899851981633
30
0
41
1
10
32.3513122469735
20
-4.71617166471415
30
0
41
1
10
32.0313762638733
20
-4.61848443391116
30
0
41
1
10
31.3918530117822
20
-4.41681067361148
30
0
41
1
10
30.9658956551302
20
-4.2740533399845
30
0
41
1
10
30.1137072315559
20
-3.97347678542377
30
0
41
1
10
29.6875122048486
20
-3.815611303173
30
0
41
1
10
29.0474805623134
20
-3.5683196389474
30
0
41
1
10
28.8340230525507
20
-3.48412378685489
30
0
41
1
10
28.5135620273618
20
-3.35533972783691
30
0
41
1
10
28.4066592293012
20
-3.3119866246096
30
0
41
1
10
28.1929390879317
20
-3.224577457436
30
0
41
1
10
27.6588629574782
20
-3.00429333286419
30
0
41
1
10
27.1257375319912
20
-2.77552889965904
30
0
41
1
10
26.4863039756616
20
-2.49400084757698
30
0
41
1
10
26.2732110134227
20
-2.39899202874338
30
0
41
1
10
25.8470464958011
20
-2.20679504822022
30
0
41
1
10
25.6339795561856
20
-2.10959736419616
30
0
41
1
10
24.9945376763923
20
-1.81525396960655
30
0
41
1
10
24.5679231486229
20
-1.61535816445459
30
0
41
1
10
23.9269223197454
20
-1.31117597810211
30
0
41
1
10
23.7129043032518
20
-1.20897799447869
30
0
41
1
10
23.2859611489093
20
-1.00407523078502
30
0
41
1
10
23.0728957142216
20
-0.90129448255226
30
0
41
1
10
22.4347639670621
20
-0.592290248157809
30
0
41
1
10
22.0106811804105
20
-0.385584695078251
30
0
41
1
10
21.1642409508842
20
0.0272365815701221
30
0
41
1
10
20.7419072531872
20
0.233405059375457
30
0
41
1
10
19.8982708012607
20
0.643713507487348
30
0
41
1
10
19.477001510029
20
0.847921187297857
30
0
41
1
10
18.6343862205084
20
1.2520010034242
30
0
41
1
10
18.2130787144833
20
1.45195606133675
30
0
41
1
10
17.5805576882926
20
1.74760927355106
30
0
41
1
10
17.3696231167595
20
1.84544521073886
30
0
41
1
10
16.9474883072116
20
2.0395261536631
30
0
41
1
10
16.7362884878437
20
2.13577162548333
30
0
41
1
10
16.1020212621917
20
2.42157455792105
30
0
41
1
10
15.6782957981498
20
2.60821938973697
30
0
41
1
10
14.8283190643664
20
2.97217302228177
30
0
41
1
10
14.4020520440866
20
3.14945206198982
30
0
41
1
10
13.9741579026759
20
3.32131368125423
30
0
0
SPLINE
5
109
100
AcDbEntity
8
1
62
256
6
ByLayer
370
18
48
1
60
0
100
AcDbSpline
70
4
71
3
72
50
73
46
40
0
40
0
40
0
40
0
40
0.0877154527780221
40
0.0877154527780221
40
0.175430905556044
40
0.175430905556044
40
0.197359768750551
40
0.197359768750551
40
0.219288631945057
40
0.219288631945057
40
0.263146358334073
40
0.263146358334073
40
0.307004084723088
40
0.307004084723088
40
0.328932947917595
40
0.328932947917595
40
0.350861811112101
40
0.350861811112101
40
0.438577263890123
40
0.438577263890123
40
0.460506127084627
40
0.460506127084627
40
0.482434990279131
40
0.526292716668142
40
0.526292716668142
40
0.614008169446164
40
0.614008169446164
40
0.657865895835174
40
0.657865895835174
40
0.679794759029678
40
0.679794759029678
40
0.701723622224183
40
0.745581348613193
40
0.767510211807697
40
0.767510211807697
40
0.789439075002202
40
0.789439075002202
40
0.877154527780218
40
0.877154527780218
40
0.899083390974721
40
0.899083390974721
40
0.921012254169223
40
0.964869980558231
40
0.964869980558231
40
1
40
1
40
1
40
1
41
1
10
95.4850401761775
20
1.00752887314852
30
0
41
1
10
96.1026265404329
20
0.704471874862321
30
0
41
1
10
96.7197590247739
20
0.397622150863782
30
0
41
1
10
97.9559471680607
20
-0.218005706697454
30
0
41
1
10
98.5730189884499
20
-0.525868804701162
30
0
41
1
10
99.344784153635
20
-0.90717052439885
30
0
41
1
10
99.4991601276515
20
-0.983254063255714
30
0
41
1
10
99.808003976685
20
-1.1349754515486
30
0
41
1
10
99.9625131871999
20
-1.21063337546764
30
0
41
1
10
100.425845937053
20
-1.43660394531062
30
0
41
1
10
100.734509320862
20
-1.58593026972932
30
0
41
1
10
101.351753016254
20
-1.88123398295082
30
0
41
1
10
101.660334993255
20
-2.02720832872023
30
0
41
1
10
102.123407355948
20
-2.24315741288376
30
0
41
1
10
102.277797323025
20
-2.31463973963312
30
0
41
1
10
102.58668489255
20
-2.45652146166495
30
0
41
1
10
102.741156460696
20
-2.5269086807574
30
0
41
1
10
103.513076098969
20
-2.8755544495863
30
0
41
1
10
104.129843690565
20
-3.14419567395402
30
0
41
1
10
104.901658822065
20
-3.463978893122
30
0
41
1
10
105.056102827356
20
-3.52715232399117
30
0
41
1
10
105.364939745468
20
-3.65175365273271
30
0
41
1
10
105.827870662468
20
-3.83593876898451
30
0
41
1
10
106.290028105783
20
-4.01168060448671
30
0
41
1
10
107.213847976482
20
-4.35113552819058
30
0
41
1
10
107.829072048128
20
-4.56139013009363
30
0
41
1
10
108.753035991348
20
-4.84975602008052
30
0
41
1
10
109.061211443159
20
-4.94137693526588
30
0
41
1
10
109.524026636917
20
-5.071691071065
30
0
41
1
10
109.678445100138
20
-5.11395713598273
30
0
41
1
10
109.98718187396
20
-5.19596996905941
30
0
41
1
10
110.450139521977
20
-5.31521492544616
30
0
41
1
10
111.067101207962
20
-5.45884634048488
30
0
41
1
10
111.529979030527
20
-5.55468018616787
30
0
41
1
10
111.838643819287
20
-5.6158863089733
30
0
41
1
10
111.993047482455
20
-5.64515306056887
30
0
41
1
10
112.764720286863
20
-5.78456183281625
30
0
41
1
10
113.381310841764
20
-5.87399541250909
30
0
41
1
10
114.152928166035
20
-5.95710508153584
30
0
41
1
10
114.307320233906
20
-5.97229496566908
30
0
41
1
10
114.615806287184
20
-5.99974972756547
30
0
41
1
10
115.078240563701
20
-6.03656262900881
30
0
41
1
10
115.539992742799
20
-6.06024266232873
30
0
41
1
10
116.094179349694
20
-6.07813464850963
30
0
41
1
10
116.340575655918
20
-6.08233660343021
30
0
41
1
10
116.586982428141
20
-6.08278004218363
30
0
0
SPLINE
5
10A
100
AcDbEntity
8
1
62
256
6
ByLayer
370
18
48
1
60
0
100
AcDbSpline
70
4
71
3
72
26
73
22
40
0
40
0
40
0
40
0
40
0.0939292911538873
40
0.0939292911538873
40
0.194603814359011
40
0.194603814359011
40
0.295278337564135
40
0.295278337564135
40
0.395952860769258
40
0.395952860769258
40
0.496627383974382
40
0.496627383974382
40
0.597301907179506
40
0.597301907179506
40
0.697976430384629
40
0.697976430384629
40
0.798650953589752
40
0.798650953589752
40
0.899325476794876
40
0.899325476794876
40
1
40
1
40
1
40
1
41
1
10
145.482904141141
20
4.44134928275906
30
0
41
1
10
145.770190455135
20
4.54184612781066
30
0
41
1
10
146.057431411813
20
4.63862915936269
30
0
41
1
10
146.652745826902
20
4.83104356765213
30
0
41
1
10
146.960916977377
20
4.92611435544134
30
0
41
1
10
147.57703060472
20
5.10654672669008
30
0
41
1
10
147.885127822401
20
5.19195528380769
30
0
41
1
10
148.501233944843
20
5.35259706550235
30
0
41
1
10
148.809251071137
20
5.42783404077022
30
0
41
1
10
149.425397333684
20
5.56773801869522
30
0
41
1
10
149.73336929674
20
5.63237016037698
30
0
41
1
10
150.349466235906
20
5.75070197909167
30
0
41
1
10
150.657471885151
20
5.80437858853611
30
0
41
1
10
151.273430300692
20
5.90045029951392
30
0
41
1
10
151.581480917882
20
5.94285759025527
30
0
41
1
10
152.197387379269
20
6.01610980905286
30
0
41
1
10
152.505386036166
20
6.04697217617723
30
0
41
1
10
153.121344761776
20
6.09696832391668
30
0
41
1
10
153.429243153895
20
6.11610197297819
30
0
41
1
10
154.045227039949
20
6.14255185660787
30
0
41
1
10
154.353162567784
20
6.14985999830873
30
0
41
1
10
154.661079463136
20
6.15123049229337
30
0
0
SPLINE
5
10B
100
AcDbEntity
8
1
62
256
6
ByLayer
370
18
48
1
60
0
100
AcDbSpline
70
4
71
3
72
120
73
116
40
0
40
0
40
0
40
0
40
0.0625000000000468
40
0.0625000000000468
40
0.125000000000094
40
0.125000000000094
40
0.156250000000117
40
0.156250000000117
40
0.187500000000141
40
0.187500000000141
40
0.218750000000165
40
0.218750000000165
40
0.250000000000189
40
0.250000000000189
40
0.265625000000202
40
0.265625000000202
40
0.273437500000209
40
0.277343750000213
40
0.277343750000213
40
0.279296875000215
40
0.279296875000215
40
0.280273437500216
40
0.280273437500216
40
0.281250000000218
40
0.281250000000218
40
0.283203125000221
40
0.283203125000221
40
0.284179687500222
40
0.284179687500222
40
0.285156250000224
40
0.285156250000224
40
0.286132812500225
40
0.286132812500225
40
0.286621093750226
40
0.286621093750226
40
0.287109375000226
40
0.289062500000226
40
0.296875000000224
40
0.296875000000224
40
0.312500000000218
40
0.312500000000218
40
0.343750000000208
40
0.343750000000208
40
0.375000000000198
40
0.375000000000198
40
0.390625000000193
40
0.390625000000193
40
0.39843750000019
40
0.39843750000019
40
0.406250000000188
40
0.406250000000188
40
0.43750000000018
40
0.43750000000018
40
0.468750000000171
40
0.468750000000171
40
0.484375000000167
40
0.484375000000167
40
0.492187500000165
40
0.492187500000165
40
0.496093750000164
40
0.496093750000164
40
0.500000000000163
40
0.51562500000016
40
0.51562500000016
40
0.531250000000156
40
0.531250000000156
40
0.539062500000155
40
0.539062500000155
40
0.542968750000154
40
0.542968750000154
40
0.546875000000153
40
0.562500000000148
40
0.578125000000144
40
0.578125000000144
40
0.585937500000142
40
0.589843750000141
40
0.589843750000141
40
0.59375000000014
40
0.59375000000014
40
0.625000000000131
40
0.625000000000131
40
0.632812500000129
40
0.632812500000129
40
0.636718750000128
40
0.636718750000128
40
0.640625000000127
40
0.656250000000122
40
0.656250000000122
40
0.687500000000112
40
0.687500000000112
40
0.695312500000109
40
0.695312500000109
40
0.703125000000106
40
0.703125000000106
40
0.7187500000001
40
0.7187500000001
40
0.750000000000088
40
0.750000000000088
40
0.781250000000076
40
0.781250000000076
40
0.796875000000071
40
0.796875000000071
40
0.804687500000068
40
0.804687500000068
40
0.812500000000066
40
0.812500000000066
40
0.843750000000055
40
0.843750000000055
40
0.875000000000044
40
0.875000000000044
40
0.906250000000033
40
0.906250000000033
40
0.937500000000022
40
0.937500000000022
40
1
40
1
40
1
40
1
41
1
10
13.974128368961
20
3.32131709989815
30
0
41
1
10
13.6410291123571
20
3.45511936491445
30
0
41
1
10
13.3057781443118
20
3.58052937847844
30
0
41
1
10
12.629689979475
20
3.81401392331074
30
0
41
1
10
12.2888424603944
20
3.92207404413051
30
0
41
1
10
11.7725616539968
20
4.07118827443327
30
0
41
1
10
11.5995775405655
20
4.11875238619919
30
0
41
1
10
11.2522291860741
20
4.20953273193825
30
0
41
1
10
11.0778500001641
20
4.25275529890948
30
0
41
1
10
10.7275952136331
20
4.33497760338608
30
0
41
1
10
10.551686873965
20
4.37398359154147
30
0
41
1
10
10.1985841677534
20
4.44785264336719
30
0
41
1
10
10.0213655892833
20
4.4827222623706
30
0
41
1
10
9.75449570002337
20
4.53205110123287
30
0
41
1
10
9.66536202504375
20
4.54799874731705
30
0
41
1
10
9.53140777719182
20
4.5711899336215
30
0
41
1
10
9.46437143933184
20
4.58260224163737
30
0
41
1
10
9.39724538582746
20
4.59374276272555
30
0
41
1
10
9.36366771200775
20
4.59926784614365
30
0
41
1
10
9.35247367193537
20
4.60110194927344
30
0
41
1
10
9.33568032193642
20
4.60384150602852
30
0
41
1
10
9.33008294078331
20
4.60475578013819
30
0
41
1
10
9.31880125611951
20
4.60624339903339
30
0
41
1
10
9.31312473017002
20
4.60684723968339
30
0
41
1
10
9.29596928572255
20
4.60816607775209
30
0
41
1
10
9.28436278239502
20
4.60838189597183
30
0
41
1
10
9.26663604789292
20
4.6074659884647
30
0
41
1
10
9.26073881603963
20
4.60695025019197
30
0
41
1
10
9.24923286615464
20
4.6054539757362
30
0
41
1
10
9.24359038018466
20
4.60446625302552
30
0
41
1
10
9.23257565127506
20
4.60190323161925
30
0
41
1
10
9.22717507886938
20
4.60032541664151
30
0
41
1
10
9.21936315793559
20
4.5975606381883
30
0
41
1
10
9.2168130269568
20
4.59657939560236
30
0
41
1
10
9.21172105416971
20
4.59461027398075
30
0
41
1
10
9.1989918944663
20
4.58968425478326
30
0
41
1
10
9.14557478719576
20
4.56889813308175
30
0
41
1
10
9.09487340534372
20
4.54873016641187
30
0
41
1
10
8.97355013416154
20
4.49959378422435
30
0
41
1
10
8.89314386257306
20
4.4658578217747
30
0
41
1
10
8.6534535998336
20
4.36147407016853
30
0
41
1
10
8.49601810953337
20
4.28780541980575
30
0
41
1
10
8.18667236322361
20
4.13091839491454
30
0
41
1
10
8.03474471063376
20
4.04770320595341
30
0
41
1
10
7.81173781946356
20
3.9142398640497
30
0
41
1
10
7.73821892554099
20
3.86830697261689
30
0
41
1
10
7.62929275422297
20
3.79699525288405
30
0
41
1
10
7.5932068853983
20
3.77281900572058
30
0
41
1
10
7.52174555771842
20
3.72377962862234
30
0
41
1
10
7.48634088990946
20
3.69889772056098
30
0
41
1
10
7.31101651705649
20
3.57259420345449
30
0
41
1
10
7.17615937399941
20
3.46553092866534
30
0
41
1
10
6.91950910815294
20
3.23666363291201
30
0
41
1
10
6.79768968067495
20
3.11489037961985
30
0
41
1
10
6.62736457389349
20
2.91808314744381
30
0
41
1
10
6.57266866173831
20
2.85010906700444
30
0
41
1
10
6.49423143399142
20
2.74401439671811
30
0
41
1
10
6.46868816638647
20
2.70795898288983
30
0
41
1
10
6.43135312154084
20
2.65275037773833
30
0
41
1
10
6.41906322893206
20
2.6341458847848
30
0
41
1
10
6.39493807002907
20
2.59672468106038
30
0
41
1
10
6.33569640440078
20
2.5025444412729
30
0
41
1
10
6.28191130671789
20
2.40516606337843
30
0
41
1
10
6.20353707910581
20
2.24484144140101
30
0
41
1
10
6.16818875456892
20
2.16242080001871
30
0
41
1
10
6.12159491378469
20
2.0349962751813
30
0
41
1
10
6.10713678962571
20
1.99188816160742
30
0
41
1
10
6.08716153818915
20
1.92621448062246
30
0
41
1
10
6.08077922888674
20
1.90411954123127
30
0
41
1
10
6.06865367360146
20
1.85976418235529
30
0
41
1
10
6.03995994535492
20
1.74856344408496
30
0
41
1
10
6.00292305471461
20
1.54558210733197
30
0
41
1
10
5.99119128870851
20
1.3610527465554
30
0
41
1
10
5.99057346792333
20
1.22106969794049
30
0
41
1
10
5.99231124914152
20
1.1506814200155
30
0
41
1
10
5.99717628704036
20
1.07968675019663
30
0
41
1
10
6.00112192572325
20
1.03222079675703
30
0
41
1
10
6.00344312016315
20
1.00846647704515
30
0
41
1
10
6.02731379199417
20
0.795566598762889
30
0
41
1
10
6.06977915320741
20
0.610327871849961
30
0
41
1
10
6.14573758869651
20
0.383099682855431
30
0
41
1
10
6.1620799256313
20
0.337871376757505
30
0
41
1
10
6.18826878269726
20
0.27034560996259
30
0
41
1
10
6.19727216316505
20
0.247906416641484
30
0
41
1
10
6.21572490664039
20
0.203372310558621
30
0
41
1
10
6.26303145743015
20
0.0927499017695652
30
0
41
1
10
6.3159690400829
20
-0.0144555353984686
30
0
41
1
10
6.45245748200711
20
-0.266022867597371
30
0
41
1
10
6.5559675085448
20
-0.426140555760639
30
0
41
1
10
6.69789636192758
20
-0.618684838666155
30
0
41
1
10
6.7269194113909
20
-0.656815961941646
30
0
41
1
10
6.78615460548238
20
-0.732322666987159
30
0
41
1
10
6.81622613764461
20
-0.769519838869115
30
0
41
1
10
6.90770710762791
20
-0.879561299560265
30
0
41
1
10
6.97037970180457
20
-0.950859510911584
30
0
41
1
10
7.16282946442624
20
-1.15934120605968
30
0
41
1
10
7.29700946680819
20
-1.29114781041281
30
0
41
1
10
7.57480314842041
20
-1.54329645601737
30
0
41
1
10
7.71843214155092
20
-1.66361957226434
30
0
41
1
10
7.93982067213193
20
-1.83691850974159
30
0
41
1
10
8.01461240066189
20
-1.89348136706641
30
0
41
1
10
8.12818360987325
20
-1.97665796354414
30
0
41
1
10
8.16627272719703
20
-2.00410537959593
30
0
41
1
10
8.24267332029785
20
-2.05830903138954
30
0
41
1
10
8.28101296576077
20
-2.08508611347281
30
0
41
1
10
8.47337722662908
20
-2.217424157279
30
0
41
1
10
8.62939121798956
20
-2.31836448019951
30
0
41
1
10
8.94503397281341
20
-2.51195635868677
30
0
41
1
10
9.10466537181898
20
-2.60460144275393
30
0
41
1
10
9.42709114110579
20
-2.78273478827964
30
0
41
1
10
9.58988702302207
20
-2.86821933516592
30
0
41
1
10
9.91830029094101
20
-3.03289168957167
30
0
41
1
10
10.0839185999187
20
-3.11207722739576
30
0
41
1
10
10.5846069350398
20
-3.34119926008785
30
0
41
1
10
10.9234924839471
20
-3.48274540823201
30
0
41
1
10
11.2666996340429
20
-3.61506348220342
30
0
0
SPLINE
5
10C
100
AcDbEntity
8
1
62
256
6
ByLayer
370
18
48
1
60
0
100
AcDbSpline
70
4
71
3
72
127
73
123
40
0
40
0
40
0
40
0
40
0.0120189997817886
40
0.0288366839816052
40
0.0456543681814217
40
0.0540632102813298
40
0.0624720523812381
40
0.0708808944811466
40
0.0750853155311007
40
0.0792897365810549
40
0.083494157631009
40
0.0876985786809631
40
0.0919029997309173
40
0.0940052102558944
40
0.0961074207808714
40
0.0982096313058485
40
0.100311841830826
40
0.102414052355803
40
0.103465157618291
40
0.10451626288078
40
0.105041815512024
40
0.105567368143268
40
0.10583014445889
40
0.106092920774513
40
0.106224308932324
40
0.106355697090135
40
0.106487085247946
40
0.106618473405757
40
0.107144026037001
40
0.107669578668245
40
0.10819513129949
40
0.108720683930734
40
0.109771789193223
40
0.110822894455711
40
0.1118739997182
40
0.112925104980688
40
0.115027315505665
40
0.117129526030642
40
0.121333947080596
40
0.129742789180505
40
0.138151631280413
40
0.146560473380321
40
0.15496931548023
40
0.163378157580138
40
0.171786999680046
40
0.180195841779954
40
0.197013525979771
40
0.213831210179588
40
0.230648894379404
40
0.247466578579221
40
0.264284262779037
40
0.281101946978854
40
0.314737315378487
40
0.34837268377812
40
0.382008052177754
40
0.415643420577387
40
0.432461104777204
40
0.44927878897702
40
0.466096473176836
40
0.474505315276745
40
0.482914157376653
40
0.491322999476561
40
0.49973184157647
40
0.508140683676378
40
0.512345104726332
40
0.516549525776286
40
0.520753946826241
40
0.524958367876195
40
0.529162788926149
40
0.531264999451126
40
0.533367209976103
40
0.53546942050108
40
0.537571631026057
40
0.538622736288546
40
0.539673841551034
40
0.540199394182279
40
0.540724946813523
40
0.540987723129145
40
0.541250499444767
40
0.541381887602578
40
0.541447581681484
40
0.541513275760389
40
0.541578969839295
40
0.5416446639182
40
0.541776052076011
40
0.542038828391633
40
0.542301604707256
40
0.5428271573385
40
0.543352709969744
40
0.543878262600988
40
0.544929367863477
40
0.545980473125966
40
0.547031578388454
40
0.548082683650943
40
0.55018489417592
40
0.552287104700897
40
0.554389315225874
40
0.556491525750851
40
0.558593736275828
40
0.562798157325782
40
0.567002578375736
40
0.57120699942569
40
0.575411420475645
40
0.583820262575553
40
0.592229104675461
40
0.60063794677537
40
0.609046788875278
40
0.617455630975186
40
0.634273315175003
40
0.651090999374819
40
0.667908683574636
40
0.684726367774452
40
0.701544051974269
40
0.718361736174086
40
0.751997104573719
40
0.785632472973352
40
0.819267841372985
40
0.852903209772618
40
0.886538578172252
40
0.920173946571885
40
0.987444683371151
40
1
40
1
40
1
40
1
41
1
10
13.9741563940478
20
3.32131290133168
30
0
41
1
10
13.9458986556606
20
3.30670434739301
30
0
41
1
10
13.8758973966636
20
3.26785617134277
30
0
41
1
10
13.7583913896378
20
3.19105204475844
30
0
41
1
10
13.6437258242495
20
3.10321877730348
30
0
41
1
10
13.5441944560602
20
3.02457142119138
30
0
41
1
10
13.4671048671056
20
2.96128398573225
30
0
41
1
10
13.4009495127937
20
2.90484860667033
30
0
41
1
10
13.3468728599376
20
2.85750010254046
30
0
41
1
10
13.3056777252119
20
2.82092147526132
30
0
41
1
10
13.2639020793815
20
2.783243543461
30
0
41
1
10
13.2215705268344
20
2.74445269105192
30
0
41
1
10
13.1858530248226
20
2.71117999443359
30
0
41
1
10
13.1570356084159
20
2.68399166598357
30
0
41
1
10
13.1353169643543
20
2.66332539216668
30
0
41
1
10
13.1134934158235
20
2.642378985308
30
0
41
1
10
13.0915670568972
20
2.62115178911466
30
0
41
1
10
13.073218615897
20
2.60322538154955
30
0
41
1
10
13.0584806535865
20
2.58874397078043
30
0
41
1
10
13.0492779525248
20
2.57962936061261
30
0
41
1
10
13.0418426091745
20
2.57231350816437
30
0
41
1
10
13.0373326836826
20
2.56770045955008
30
0
41
1
10
13.0333974411397
20
2.56406033131566
30
0
41
1
10
13.0316774789567
20
2.56164652476886
30
0
41
1
10
13.0286043705943
20
2.56002253246561
30
0
41
1
10
13.0311565478294
20
2.55784459013759
30
0
41
1
10
13.0335520105913
20
2.55617862186244
30
0
41
1
10
13.0387006175281
20
2.55274851565127
30
0
41
1
10
13.0465817892174
20
2.54786165891178
30
0
41
1
10
13.0572322475823
20
2.54138418605274
30
0
41
1
10
13.0679347819992
20
2.53497474732086
30
0
41
1
10
13.0822544104896
20
2.52646325891831
30
0
41
1
10
13.1002124697819
20
2.51587594071441
30
0
41
1
10
13.1218124862306
20
2.50321063990052
30
0
41
1
10
13.1434443929688
20
2.49057006331029
30
0
41
1
10
13.1723171786512
20
2.47373747846331
30
0
41
1
10
13.2084498818303
20
2.45272473974367
30
0
41
1
10
13.2663161233544
20
2.419137480936
30
0
41
1
10
13.3676840252066
20
2.36040605931083
30
0
41
1
10
13.5126679143165
20
2.27652643964825
30
0
41
1
10
13.6867711024765
20
2.17575809034932
30
0
41
1
10
13.8609343728067
20
2.07481394960453
30
0
41
1
10
14.03512901617
20
1.97366500236689
30
0
41
1
10
14.2093350258343
20
1.87228744853508
30
0
41
1
10
14.3835460281436
20
1.7706810377328
30
0
41
1
10
14.6158179066348
20
1.63491219169225
30
0
41
1
10
14.9061481323877
20
1.46464747796819
30
0
41
1
10
15.2545252839084
20
1.25944471705208
30
0
41
1
10
15.6028684505774
20
1.05333728302301
30
0
41
1
10
15.9511632858983
20
0.846310160453157
30
0
41
1
10
16.2994035469203
20
0.63833650670594
30
0
41
1
10
16.7636022421173
20
0.359784098412121
30
0
41
1
10
17.3434205693739
20
0.0094350112670725
30
0
41
1
10
18.0386704060437
20
-0.414355164024386
30
0
41
1
10
18.7334056028779
20
-0.841456553037204
30
0
41
1
10
19.3120372823157
20
-1.19996396587601
30
0
41
1
10
19.7747583467267
20
-1.48830620635675
30
0
41
1
10
20.1216787370065
20
-1.70537786195575
30
0
41
1
10
20.4106563988999
20
-1.88698082119205
30
0
41
1
10
20.6417581525546
20
-2.03271862930836
30
0
41
1
10
20.8150242569853
20
-2.14223709407131
30
0
41
1
10
20.9882210105695
20
-2.25196895185411
30
0
41
1
10
21.1613506249525
20
-2.36191542067536
30
0
41
1
10
21.3055625542374
20
-2.453726619864
30
0
41
1
10
21.4208796882032
20
-2.5273137058293
30
0
41
1
10
21.5073359850855
20
-2.58258213799269
30
0
41
1
10
21.5937529415128
20
-2.63794137009609
30
0
41
1
10
21.6801186776943
20
-2.69341300438956
30
0
41
1
10
21.7520280797639
20
-2.73976050124423
30
0
41
1
10
21.8094915137763
20
-2.77695371923491
30
0
41
1
10
21.8525457768955
20
-2.80492515975965
30
0
41
1
10
21.8955380311272
20
-2.83300325567606
30
0
41
1
10
21.9312871617814
20
-2.85653540711402
30
0
41
1
10
21.9597823279107
20
-2.87553115217827
30
0
41
1
10
21.9775190696386
20
-2.88751414975246
30
0
41
1
10
21.9916203258453
20
-2.89724862048917
30
0
41
1
10
22.0003632567359
20
-2.90342219164313
30
0
41
1
10
22.00727996065
20
-2.90852080713069
30
0
41
1
10
22.0114849603577
20
-2.91175602562564
30
0
41
1
10
22.0144054600663
20
-2.91428792845832
30
0
41
1
10
22.0158062011976
20
-2.91568235739192
30
0
41
1
10
22.0171084851515
20
-2.9174194935537
30
0
41
1
10
22.0151410377737
20
-2.91784421914537
30
0
41
1
10
22.0131781268184
20
-2.91792538683808
30
0
41
1
10
22.0094351976406
20
-2.91829191134005
30
0
41
1
10
22.0042488542943
20
-2.91869829003019
30
0
41
1
10
21.9958610819015
20
-2.91941377827462
30
0
41
1
10
21.9854074523179
20
-2.92028532508724
30
0
41
1
10
21.9728503680115
20
-2.92134023402517
30
0
41
1
10
21.9561128025221
20
-2.92274267122517
30
0
41
1
10
21.9351904052173
20
-2.92449546497792
30
0
41
1
10
21.9100860313643
20
-2.92659607439094
30
0
41
1
10
21.8849833075459
20
-2.92869456593414
30
0
41
1
10
21.8515155126697
20
-2.9314895079317
30
0
41
1
10
21.8096853183399
20
-2.93497757442822
30
0
41
1
10
21.7594964670301
20
-2.93915423566887
30
0
41
1
10
21.7093149817194
20
-2.94332188356128
30
0
41
1
10
21.6591408535211
20
-2.947480512906
30
0
41
1
10
21.5922518829087
20
-2.95301331810941
30
0
41
1
10
21.5086606590927
20
-2.95990662836815
30
0
41
1
10
21.4083828372568
20
-2.96814228599803
30
0
41
1
10
21.3081367353986
20
-2.97634159397683
30
0
41
1
10
21.1745175113416
20
-2.98722550373421
30
0
41
1
10
21.007572672255
20
-3.00073938044784
30
0
41
1
10
20.8073654643349
20
-3.01681018942728
30
0
41
1
10
20.6072847543387
20
-3.03273492587874
30
0
41
1
10
20.4073304495961
20
-3.04851335735043
30
0
41
1
10
20.1408930906206
20
-3.06935588174346
30
0
41
1
10
19.8081620859608
20
-3.09504208387324
30
0
41
1
10
19.4093881939711
20
-3.12527654854662
30
0
41
1
10
19.011120579239
20
-3.15491979664634
30
0
41
1
10
18.613344973708
20
-3.18397080062775
30
0
41
1
10
18.2161114629339
20
-3.21242382619073
30
0
41
1
10
17.6872900541975
20
-3.24955431857134
30
0
41
1
10
17.0277580159259
20
-3.2944537356496
30
0
41
1
10
16.2387174655925
20
-3.34589627405742
30
0
41
1
10
15.4520635333635
20
-3.39488793044674
30
0
41
1
10
14.6677899191839
20
-3.4414137457797
30
0
41
1
10
13.885891622683
20
-3.48545812498563
30
0
41
1
10
12.8465121583977
20
-3.54085498324565
30
0
41
1
10
11.9739989178585
20
-3.58332953392264
30
0
41
1
10
11.3627706440128
20
-3.61080228943078
30
0
41
1
10
11.2666991304642
20
-3.61506359523844
30
0
0
SPLINE
5
10D
100
AcDbEntity
8
SK1
62
256
6
ByLayer
370
18
48
1
60
0
100
AcDbSpline
70
4
71
3
72
8
73
4
40
0
40
0
40
0
40
0
40
1
40
1
40
1
40
1
41
1
10
-44
20
1.87696659414621
30
0
41
1
10
-44.3340975755099
20
1.84041853312618
30
0
41
1
10
-44.6675864242131
20
1.80380798275226
30
0
41
1
10
-45
20
1.76708704934771
30
0
0
SPLINE
5
10E
100
AcDbEntity
8
SK1
62
256
6
ByLayer
370
18
48
1
60
0
100
AcDbSpline
70
4
71
3
72
22
73
18
40
0
40
0
40
0
40
0
40
0.0624999999999962
40
0.0624999999999962
40
0.124999999999992
40
0.124999999999992
40
0.187499999999989
40
0.187499999999989
40
0.249999999999985
40
0.249999999999985
40
0.374999999999984
40
0.374999999999984
40
0.499999999999983
40
0.499999999999983
40
0.749999999999991
40
0.749999999999991
40
1
40
1
40
1
40
1
41
1
10
-43.9
20
1.79060420761039
30
0
41
1
10
-43.9
20
1.79464572129578
30
0
41
1
10
-43.9002571474035
20
1.79859134609436
30
0
41
1
10
-43.9012483776125
20
1.80630461875504
30
0
41
1
10
-43.9019843513023
20
1.81005305022742
30
0
41
1
10
-43.9038359635905
20
1.8171582678545
30
0
41
1
10
-43.9049554869821
20
1.82054747446301
30
0
41
1
10
-43.9075371189045
20
1.82703705064307
30
0
41
1
10
-43.9090098413739
20
1.83015477068895
30
0
41
1
10
-43.9138179871196
20
1.83895829427237
30
0
41
1
10
-43.9175198374798
20
1.84410110760572
30
0
41
1
10
-43.9257004816946
20
1.85325405869386
30
0
41
1
10
-43.9302200169575
20
1.85727843187621
30
0
41
1
10
-43.9443936084027
20
1.86753561788126
30
0
41
1
10
-43.9547462216613
20
1.87214668559875
30
0
41
1
10
-43.9768688927872
20
1.87755111765614
30
0
41
1
10
-43.9882652380084
20
1.87825029935323
30
0
41
1
10
-44
20
1.87696659414621
30
0
0
SPLINE
5
10F
100
AcDbEntity
8
SK1
62
256
6
ByLayer
370
18
48
1
60
0
100
AcDbSpline
70
4
71
3
72
20
73
16
40
0
40
0
40
0
40
0
40
0.249999999999998
40
0.249999999999998
40
0.374999999999998
40
0.374999999999998
40
0.499999999999999
40
0.499999999999999
40
0.624999999999999
40
0.624999999999999
40
0.749999999999999
40
0.749999999999999
40
0.875
40
0.875
40
1
40
1
40
1
40
1
41
1
10
-44
20
-0.60867101764839
30
0
41
1
10
-43.9882624016387
20
-0.607387002161346
30
0
41
1
10
-43.9768728337101
20
-0.604103791335092
30
0
41
1
10
-43.9603029893906
20
-0.596166733489554
30
0
41
1
10
-43.9549192307105
20
-0.593025358064807
30
0
41
1
10
-43.9446385133001
20
-0.585833132174486
30
0
41
1
10
-43.9397103681262
20
-0.581769262598101
30
0
41
1
10
-43.9303270419096
20
-0.572592725061696
30
0
41
1
10
-43.9258538446687
20
-0.567461378158413
30
0
41
1
10
-43.9175707355638
20
-0.55596934813525
30
0
41
1
10
-43.9138512481045
20
-0.549742972503935
30
0
41
1
10
-43.9074484729559
20
-0.536107456103935
30
0
41
1
10
-43.9047693085045
20
-0.528650020458826
30
0
41
1
10
-43.9010616952338
20
-0.513003306716371
30
0
41
1
10
-43.9
20
-0.504591525068179
30
0
41
1
10
-43.9
20
-0.496182395240624
30
0
0
SPLINE
5
110
100
AcDbEntity
8
SK1
62
256
6
ByLayer
370
18
48
1
60
0
100
AcDbSpline
70
4
71
3
72
8
73
4
40
0
40
0
40
0
40
0
40
1
40
1
40
1
40
1
41
1
10
-45
20
-0.718550562446865
30
0
41
1
10
-44.6675863482207
20
-0.681829620647619
30
0
41
1
10
-44.3340975120467
20
-0.645219071725933
30
0
41
1
10
-44
20
-0.608671017648362
30
0
0
SPLINE
5
111
100
AcDbEntity
8
SK1
62
256
6
ByLayer
370
18
48
1
60
0
100
AcDbSpline
70
4
71
3
72
20
73
16
40
0
40
0
40
0
40
0
40
0.250000000000001
40
0.250000000000001
40
0.375000000000001
40
0.375000000000001
40
0.500000000000001
40
0.500000000000001
40
0.625000000000001
40
0.625000000000001
40
0.75
40
0.75
40
0.875
40
0.875
40
1
40
1
40
1
40
1
41
1
10
-44
20
0.60867101764839
30
0
41
1
10
-43.9882624016387
20
0.607387002161346
30
0
41
1
10
-43.9768728337101
20
0.60410379133512
30
0
41
1
10
-43.9603029893906
20
0.596166733489554
30
0
41
1
10
-43.9549192307105
20
0.593025358064807
30
0
41
1
10
-43.9446385133001
20
0.585833132174514
30
0
41
1
10
-43.9397103681262
20
0.581769262598101
30
0
41
1
10
-43.9303270419096
20
0.572592725061725
30
0
41
1
10
-43.9258538446687
20
0.567461378158441
30
0
41
1
10
-43.9175707355638
20
0.555969348135278
30
0
41
1
10
-43.9138512481045
20
0.549742972503964
30
0
41
1
10
-43.9074484729559
20
0.536107456103935
30
0
41
1
10
-43.9047693085045
20
0.528650020458826
30
0
41
1
10
-43.9010616952338
20
0.513003306716399
30
0
41
1
10
-43.9
20
0.504591525068179
30
0
41
1
10
-43.9
20
0.496182395240652
30
0
0
SPLINE
5
112
100
AcDbEntity
8
SK1
62
256
6
ByLayer
370
18
48
1
60
0
100
AcDbSpline
70
4
71
3
72
8
73
4
40
0
40
0
40
0
40
0
40
1
40
1
40
1
40
1
41
1
10
-45
20
0.718550562446893
30
0
41
1
10
-44.6675863482207
20
0.681829620647619
30
0
41
1
10
-44.3340975120467
20
0.645219071725961
30
0
41
1
10
-44
20
0.60867101764839
30
0
0
SPLINE
5
113
100
AcDbEntity
8
1
62
256
6
ByLayer
370
18
48
1
60
0
100
AcDbSpline
70
4
71
3
72
37
73
33
40
0
40
0
40
0
40
0
40
2.09627540333E-05
40
3.35225616867E-05
40
4.39034139712E-05
40
5.33048145995E-05
40
6.26347066207E-05
40
8.22645965019E-05
40
0.0001981935246254
40
0.0002892713239952
40
0.000449239427528
40
0.000734540813877
40
0.0012532784753378
40
0.0022019909038158
40
0.003968798504715
40
0.0073571685914239
40
0.0141593754484093
40
0.0286041184888065
40
0.0578858638244076
40
0.13350143498551
40
0.215833427450022
40
0.28527980348638
40
0.341625332107347
40
0.391093047106249
40
0.428899247567016
40
0.46806726004915
40
0.524160400748062
40
0.598512072295956
40
0.691128182064536
40
0.802027189933231
40
0.931230207099459
40
1
40
1
40
1
40
1
41
1
10
43.4953506601224
20
0.328756908218907
30
0
41
1
10
43.4953974832095
20
0.328747381531088
30
0
41
1
10
43.4954650091341
20
0.328734186502857
30
0
41
1
10
43.4955226609992
20
0.328725225966593
30
0
41
1
10
43.4955410217374
20
0.328727497373336
30
0
41
1
10
43.4955055882366
20
0.328738776275543
30
0
41
1
10
43.495433833465
20
0.32876161795798
30
0
41
1
10
43.4950334776091
20
0.328875702199838
30
0
41
1
10
43.4942706430529
20
0.329079318790519
30
0
41
1
10
43.4931277173891
20
0.329391777359064
30
0
41
1
10
43.4914182750019
20
0.329855597245143
30
0
41
1
10
43.4883592583305
20
0.330686274130557
30
0
41
1
10
43.4827784610916
20
0.332198562482347
30
0
41
1
10
43.4724445493021
20
0.334991072359799
30
0
41
1
10
43.4528178020593
20
0.340269798175541
30
0
41
1
10
43.4140040679658
20
0.350636763695235
30
0
41
1
10
43.3330089809323
20
0.372082548663059
30
0
41
1
10
43.164356048228
20
0.416419447561338
30
0
41
1
10
42.7647381733726
20
0.522019928232027
30
0
41
1
10
42.1333819171759
20
0.692200004547658
30
0
41
1
10
41.3654541888861
20
0.907210560669853
30
0
41
1
10
40.6651666767317
20
1.11018375313492
30
0
41
1
10
40.0766452069416
20
1.28561069882014
30
0
41
1
10
39.5953653416665
20
1.43241274338524
30
0
41
1
10
39.1723721231427
20
1.56386476835075
30
0
41
1
10
38.7279108436659
20
1.70424524395216
30
0
41
1
10
38.1624480375527
20
1.88639937478962
30
0
41
1
10
37.4207694904948
20
2.13176447437561
30
0
41
1
10
36.5000079062291
20
2.44646387911834
30
0
41
1
10
35.4025759893853
20
2.83726540881057
30
0
41
1
10
34.3882464836688
20
3.21206912157231
30
0
41
1
10
33.7429727209044
20
3.46441021023904
30
0
41
1
10
33.519291308221
20
3.55325251940292
30
0
0
SPLINE
5
114
100
AcDbEntity
8
1
62
256
6
ByLayer
370
18
48
1
60
0
100
AcDbSpline
70
4
71
3
72
35
73
31
40
0
40
0
40
0
40
0
40
7.0797479428E-06
40
3.42809142735E-05
40
4.45755576978E-05
40
5.35625383404E-05
40
6.20878523282E-05
40
7.07696110666E-05
40
8.94855515644E-05
40
0.0002155767133491
40
0.0003107016566756
40
0.0004831317040475
40
0.000787091969005
40
0.0013400956178695
40
0.0023472504356982
40
0.0042124743468779
40
0.0077554309185501
40
0.0147598642354629
40
0.0294334244598819
40
0.060621586775921
40
0.139773482856369
40
0.211770621176755
40
0.282873368547842
40
0.353280703335525
40
0.426086043518539
40
0.51527339899121
40
0.620849364044538
40
0.742835630301475
40
0.881264412153005
40
1
40
1
40
1
40
1
41
1
10
119.706774459117
20
0.324749596618034
30
0
41
1
10
119.706791130157
20
0.32474616337629
30
0
41
1
10
119.70687047942
20
0.324729944827567
30
0
41
1
10
119.706963795127
20
0.324711767176609
30
0
41
1
10
119.707013617821
20
0.324703751293583
30
0
41
1
10
119.707000144484
20
0.324713597012732
30
0
41
1
10
119.706968210271
20
0.324724881733403
30
0
41
1
10
119.706892706368
20
0.324748206889268
30
0
41
1
10
119.706444329646
20
0.324874805606328
30
0
41
1
10
119.705571222928
20
0.325102697463109
30
0
41
1
10
119.704243359512
20
0.325457720135972
30
0
41
1
10
119.702285892918
20
0.325978603404025
30
0
41
1
10
119.698763187865
20
0.326915692018076
30
0
41
1
10
119.692386213351
20
0.328612410362183
30
0
41
1
10
119.680650591906
20
0.331731935476398
30
0
41
1
10
119.658640467694
20
0.337577107893253
30
0
41
1
10
119.615942684864
20
0.348898188604437
30
0
41
1
10
119.528870419055
20
0.371942601757695
30
0
41
1
10
119.345493399126
20
0.420430430404167
30
0
41
1
10
118.910359426034
20
0.535976107748894
30
0
41
1
10
118.271975520167
20
0.708713124761886
30
0
41
1
10
117.489128433181
20
0.928663310057203
30
0
41
1
10
116.740708142212
20
1.14621097866973
30
0
41
1
10
115.99104295457
20
1.37135716470311
30
0
41
1
10
115.180596063661
20
1.6227053874853
30
0
41
1
10
114.250579621639
20
1.92151147445838
30
0
41
1
10
113.154139966228
20
2.28848372976754
30
0
41
1
10
111.893698496883
20
2.73063123797755
30
0
41
1
10
110.595240539181
20
3.20849512438213
30
0
41
1
10
109.721185801648
20
3.54925446055916
30
0
41
1
10
109.318910760827
20
3.70988313201076
30
0
0
SPLINE
5
115
100
AcDbEntity
8
1
62
256
6
ByLayer
370
18
48
1
60
0
100
AcDbSpline
70
4
71
3
72
35
73
31
40
0
40
0
40
0
40
0
40
6.5475023521E-06
40
1.78351729206E-05
40
2.73852048715E-05
40
3.62820518781E-05
40
4.52358420963E-05
40
6.38699664724E-05
40
0.0002229013974723
40
0.0003480808163891
40
0.0005671011903687
40
0.0009662437926337
40
0.001690928665301
40
0.0030277065636164
40
0.0055510053731456
40
0.0104960330990662
40
0.0207476311926444
40
0.0967712593899472
40
0.1850308898719
40
0.278064665297091
40
0.375307852232533
40
0.472807734979266
40
0.529479251818562
40
0.582719682403003
40
0.632531476654295
40
0.681702145489274
40
0.747100545143696
40
0.831575342507846
40
0.935130360146234
40
1
40
1
40
1
40
1
41
1
10
81.6008887060182
20
0.326825030497076
30
0
41
1
10
81.6009003225075
20
0.326822760920692
30
0
41
1
10
81.6009294435497
20
0.326817158635379
30
0
41
1
10
81.6009612636694
20
0.326811493745794
30
0
41
1
10
81.6009516508888
20
0.326822217599784
30
0
41
1
10
81.6009187267763
20
0.326833554517577
30
0
41
1
10
81.6008420594483
20
0.326857355422703
30
0
41
1
10
81.6003064943054
20
0.327009361265652
30
0
41
1
10
81.5992895150364
20
0.32728499749345
30
0
41
1
10
81.5977102797428
20
0.327720974489552
30
0
41
1
10
81.5953239940954
20
0.328375433205991
30
0
41
1
10
81.591042558594
20
0.329550366725471
30
0
41
1
10
81.5831409662644
20
0.33171089228415
30
0
41
1
10
81.5683445901943
20
0.33573897591728
30
0
41
1
10
81.5396350634075
20
0.343496422047309
30
0
41
1
10
81.481064368243
20
0.359161650207483
30
0
41
1
10
81.1737195728894
20
0.440344623462892
30
0
41
1
10
80.5746023903447
20
0.598756940356907
30
0
41
1
10
79.6865648646034
20
0.843862881172953
30
0
41
1
10
78.7297499479837
20
1.11929955607584
30
0
41
1
10
77.7442910424624
20
1.41554907811579
30
0
41
1
10
76.8866829196708
20
1.68456297749279
30
0
41
1
10
76.1813502155932
20
1.91314526431307
30
0
41
1
10
75.639426129903
20
2.09280394392891
30
0
41
1
10
75.1240793623943
20
2.26725549063752
30
0
41
1
10
74.5687805494111
20
2.45899007348572
30
0
41
1
10
73.8981226871875
20
2.69573692092067
30
0
41
1
10
73.0472715552613
20
3.00524665791735
30
0
41
1
10
72.2013229748714
20
3.32230339710947
30
0
41
1
10
71.6414256361903
20
3.5420458570149
30
0
41
1
10
71.4262035761199
20
3.62774602380944
30
0
0
SPLINE
5
116
100
AcDbEntity
8
1
62
256
6
ByLayer
370
18
48
1
60
0
100
AcDbSpline
70
4
71
3
72
20
73
16
40
0
40
0
40
0
40
0
40
0.0127717419487337
40
0.119183455938442
40
0.221363233867097
40
0.279311980480281
40
0.331756808461159
40
0.378699189226148
40
0.420139911014847
40
0.462476528888233
40
0.521310496710435
40
0.612743436800159
40
0.728096625564899
40
0.867370937141307
40
1
40
1
40
1
40
1
41
1
10
154.614961595741
20
1.21451665152401
30
0
41
1
10
154.583180450188
20
1.22384971364119
30
0
41
1
10
154.286683837418
20
1.31119537793501
30
0
41
1
10
153.738034266931
20
1.47999300161288
30
0
41
1
10
153.078705842746
20
1.68719817833724
30
0
41
1
10
152.55421791152
20
1.85661726574531
30
0
41
1
10
152.166629641127
20
1.98384404068469
30
0
41
1
10
151.820229258088
20
2.09925882944231
30
0
41
1
10
151.499122908371
20
2.20764029966583
30
0
41
1
10
151.149271313294
20
2.32717088551107
30
0
41
1
10
150.677559255313
20
2.49069932616578
30
0
41
1
10
150.028569424919
20
2.72049912346199
30
0
41
1
10
149.185927451874
20
3.02766889948387
30
0
41
1
10
148.246772667331
20
3.38144130066198
30
0
41
1
10
147.590985632865
20
3.63888164724366
30
0
41
1
10
147.271904660651
20
3.76648581905374
30
0
0
SPLINE
5
117
100
AcDbEntity
8
1
62
256
6
ByLayer
370
18
48
1
60
0
100
AcDbSpline
70
4
71
3
72
31
73
27
40
0
40
0
40
0
40
0
40
0.0413017783461758
40
0.0768091986161699
40
0.11663876109096
40
0.155066312943439
40
0.191242077387161
40
0.223993286221239
40
0.251780799639544
40
0.293866520380064
40
0.343469560525921
40
0.387819862719813
40
0.426709314553836
40
0.477640671436992
40
0.530063390937472
40
0.576495313215461
40
0.62879171259927
40
0.673597402218359
40
0.707882623061303
40
0.745835774860642
40
0.793433313695499
40
0.833377679956197
40
0.866831801930523
40
0.909679541456013
40
0.98895598461055
40
1
40
1
40
1
40
1
41
1
10
118.084726837228
20
-5.85145749098373
30
0
41
1
10
118.248704880061
20
-5.85023947497527
30
0
41
1
10
118.562060355213
20
-5.84901580575246
30
0
41
1
10
119.084916581692
20
-5.84933851096977
30
0
41
1
10
119.569427946023
20
-5.85404041585076
30
0
41
1
10
120.067237864663
20
-5.8552060449704
30
0
41
1
10
120.537718472431
20
-5.85594593985638
30
0
41
1
10
120.961997091235
20
-5.85649598494626
30
0
41
1
10
121.412119311155
20
-5.8571110498925
30
0
41
1
10
121.93617795909
20
-5.8578441460005
30
0
41
1
10
122.532878204487
20
-5.85959467343292
30
0
41
1
10
123.115559979227
20
-5.86116021685575
30
0
41
1
10
123.704069919164
20
-5.86197861778621
30
0
41
1
10
124.327988230024
20
-5.86258403295537
30
0
41
1
10
124.984989356243
20
-5.86320136310064
30
0
41
1
10
125.647978537718
20
-5.86422519226866
30
0
41
1
10
126.27755094634
20
-5.86695680539646
30
0
41
1
10
126.853849158834
20
-5.86814602581393
30
0
41
1
10
127.36723586463
20
-5.86853181849469
30
0
41
1
10
127.892868219879
20
-5.86882001161436
30
0
41
1
10
128.443323630505
20
-5.86910907718212
30
0
41
1
10
128.97404364826
20
-5.86953168157933
30
0
41
1
10
129.483931242177
20
-5.87097888102301
30
0
41
1
10
130.166305099226
20
-5.87377680639926
30
0
41
1
10
130.750560260406
20
-5.87467768514537
30
0
41
1
10
131.146578283369
20
-5.87522068976313
30
0
41
1
10
131.195000550431
20
-5.87528627462601
30
0
0
SPLINE
5
118
100
AcDbEntity
8
1
62
256
6
ByLayer
370
18
48
1
60
0
100
AcDbSpline
70
4
71
2
72
6
73
3
40
0
40
0
40
0
40
1
40
1
40
1
41
1
10
96.398236580705
20
5.81480699387802
30
0
41
1
10
95.990926449409
20
5.81387696561703
30
0
41
1
10
95.5854647673667
20
5.80822210513406
30
0
0
SPLINE
5
119
100
AcDbEntity
8
1
62
256
6
ByLayer
370
18
48
1
60
0
100
AcDbSpline
70
4
71
3
72
31
73
27
40
0
40
0
40
0
40
0
40
0.0469230728105119
40
0.0923217776966467
40
0.139180031335848
40
0.180874307510127
40
0.21811994743524
40
0.252957672733843
40
0.298866812377507
40
0.349171444570782
40
0.392925893638284
40
0.424556884029817
40
0.46459396447822
40
0.509711841601364
40
0.54492753865469
40
0.578075883955673
40
0.621074206828157
40
0.666470091056311
40
0.706450717197687
40
0.749207368329978
40
0.79627839758827
40
0.835159472148551
40
0.868450943940842
40
0.911226923847053
40
0.963305655703983
40
1
40
1
40
1
40
1
41
1
10
134.506222958812
20
5.87997297007107
30
0
41
1
10
134.311142432026
20
5.87815413690444
30
0
41
1
10
133.921777450282
20
5.87562618994554
30
0
41
1
10
133.295424616306
20
5.87509574544433
30
0
41
1
10
132.721637028512
20
5.87726110297504
30
0
41
1
10
132.165727041764
20
5.87641330375803
30
0
41
1
10
131.662949917492
20
5.87613206529758
30
0
41
1
10
131.141555261127
20
5.87529212275547
30
0
41
1
10
130.562444224458
20
5.87412528291887
30
0
41
1
10
129.943930037084
20
5.87309062043357
30
0
41
1
10
129.388514281704
20
5.87051676705659
30
0
41
1
10
128.878469761556
20
5.86946023343168
30
0
41
1
10
128.362396040615
20
5.86904492085844
30
0
41
1
10
127.830482265996
20
5.86879629598934
30
0
41
1
10
127.329009650352
20
5.86850322086227
30
0
41
1
10
126.836903052101
20
5.86812220989677
30
0
41
1
10
126.299812372249
20
5.86699882426848
30
0
41
1
10
125.732534169353
20
5.86456813980809
30
0
41
1
10
125.16631852982
20
5.86343277051662
30
0
41
1
10
124.592700360191
20
5.86280976217836
30
0
41
1
10
124.023940988101
20
5.86231918747669
30
0
41
1
10
123.497007337741
20
5.86170142473173
30
0
41
1
10
122.989056092392
20
5.86089811801091
30
0
41
1
10
122.422778249664
20
5.85920976145255
30
0
41
1
10
121.841498755665
20
5.85768997144044
30
0
41
1
10
121.449155144081
20
5.85715837260199
30
0
41
1
10
121.287022603528
20
5.85693876084082
30
0
0
SPLINE
5
11A
100
AcDbEntity
8
1
62
256
6
ByLayer
370
18
48
1
60
0
100
AcDbSpline
70
4
71
3
72
8
73
4
40
0
40
0
40
0
40
0
40
1
40
1
40
1
40
1
41
1
10
118.338170274907
20
5.84995825947689
30
0
41
1
10
118.252334886867
20
5.85031631608459
30
0
41
1
10
118.168044189804
20
5.8508203316504
30
0
41
1
10
118.084726837228
20
5.85145749098373
30
0
0
SPLINE
5
11B
100
AcDbEntity
8
1
62
256
6
ByLayer
370
18
48
1
60
0
100
AcDbSpline
70
4
71
2
72
6
73
3
40
0
40
0
40
0
40
1
40
1
40
1
41
1
10
137.134942919303
20
-0.0005481364187858
30
0
41
1
10
137.134931905501
20
-0.0005425211169836
30
0
41
1
10
137.13492089165
20
-0.0005367054596377
30
0
0
LINE
5
82
100
AcDbEntity
8
4
62
256
6
ByLayer
370
18
48
0.05
60
0
100
AcDbLine
10
0
20
0
30
0
11
157
21
0
31
0
39
0
210
0
220
0
230
1
0
LINE
5
84
100
AcDbEntity
8
81
62
256
6
ByLayer
370
18
48
1
60
0
100
AcDbLine
10
157
20
0
30
0
11
160
21
0
31
0
39
0
210
0
220
0
230
1
0
LINE
5
85
100
AcDbEntity
8
80
62
256
6
ByLayer
370
18
48
1
60
0
100
AcDbLine
10
0
20
0
30
0
11
-3
21
0
31
0
39
0
210
0
220
0
230
1
0
LINE
5
86
100
AcDbEntity
8
SK4
62
256
6
ByLayer
370
18
48
0.05
60
0
100
AcDbLine
10
-48
20
0
30
0
11
160
21
0
31
0
39
0
210
0
220
0
230
1
0
LINE
5
88
100
AcDbEntity
8
1
62
256
6
ByLayer
370
18
48
1
60
0
100
AcDbLine
10
0
20
7
30
0
11
0
21
-7
31
0
39
0
210
0
220
0
230
1
0
LINE
5
89
100
AcDbEntity
8
1
62
256
6
ByLayer
370
13
48
1
60
0
100
AcDbLine
10
156.864086
20
0.630923
30
0
11
155.574585
21
1.9253
31
0
39
0
210
0
220
0
230
1
0
LINE
5
8A
100
AcDbEntity
8
1
62
256
6
ByLayer
370
13
48
1
60
0
100
AcDbLine
10
0.763828
20
-6.437838
30
0
11
0.763828
21
6.437838
31
0
39
0
210
0
220
0
230
1
0
LINE
5
8B
100
AcDbEntity
8
1
62
256
6
ByLayer
370
18
48
1
60
0
100
AcDbLine
10
95.48504
20
6.044798
30
0
11
95.48504
21
1.802679
31
0
39
0
210
0
220
0
230
1
0
LINE
5
8C
100
AcDbEntity
8
1
62
256
6
ByLayer
370
18
48
1
60
0
100
AcDbLine
10
95.48504
20
-6.037531
30
0
11
95.48504
21
-6.044798
31
0
39
0
210
0
220
0
230
1
0
LINE
5
8D
100
AcDbEntity
8
1
62
256
6
ByLayer
370
18
48
1
60
0
100
AcDbLine
10
95.48504
20
1.007529
30
0
11
95.48504
21
0.918542
31
0
39
0
210
0
220
0
230
1
0
LINE
5
8E
100
AcDbEntity
8
1
62
256
6
ByLayer
370
13
48
1
60
0
100
AcDbLine
10
1.529096
20
-5.875677
30
0
11
1.529096
21
5.875677
31
0
39
0
210
0
220
0
230
1
0
LINE
5
8F
100
AcDbEntity
8
SK1
62
256
6
ByLayer
370
18
48
1
60
0
100
AcDbLine
10
-45
20
1.767087
30
0
11
-45
21
0.718551
31
0
39
0
210
0
220
0
230
1
0
LINE
5
91
100
AcDbEntity
8
SK1
62
256
6
ByLayer
370
13
48
1
60
0
100
AcDbLine
10
-44
20
0.608671
30
0
11
-44
21
1.876967
31
0
39
0
210
0
220
0
230
1
0
LINE
5
92
100
AcDbEntity
8
SK1
62
256
6
ByLayer
370
18
48
1
60
0
100
AcDbLine
10
-43.9
20
-0.496182
30
0
11
-43.9
21
1.790604
31
0
39
0
210
0
220
0
230
1
0
LINE
5
93
100
AcDbEntity
8
SK1
62
256
6
ByLayer
370
18
48
1
60
0
100
AcDbLine
10
-45
20
-5.055
30
0
11
-45
21
-0.718551
31
0
39
0
210
0
220
0
230
1
0
LINE
5
94
100
AcDbEntity
8
SK1
62
256
6
ByLayer
370
18
48
1
60
0
100
AcDbLine
10
-45
20
1.767087
30
0
11
-45
21
5.055
31
0
39
0
210
0
220
0
230
1
0
LINE
5
95
100
AcDbEntity
8
SK1
62
256
6
ByLayer
370
18
48
1
60
0
100
AcDbLine
10
0
20
7
30
0
11
0
21
-7
31
0
39
0
210
0
220
0
230
1
0
LINE
5
96
100
AcDbEntity
8
SK1
62
256
6
ByLayer
370
18
48
1
60
0
100
AcDbLine
10
-43.055
20
-7
30
0
11
-43.055
21
7
31
0
39
0
210
0
220
0
230
1
0
LINE
5
97
100
AcDbEntity
8
1
62
256
6
ByLayer
370
18
48
1
60
0
100
AcDbLine
10
1.529096
20
-5.875677
30
0
11
22.277687
21
-5.913025
31
0
39
0
210
0
220
0
230
1
0
LINE
5
98
100
AcDbEntity
8
1
62
256
6
ByLayer
370
18
48
1
60
0
100
AcDbLine
10
40.24786
20
-5.945371
30
0
11
60.272835
21
-5.981416
31
0
39
0
210
0
220
0
230
1
0
LINE
5
99
100
AcDbEntity
8
1
62
256
6
ByLayer
370
18
48
1
60
0
100
AcDbLine
10
78.304745
20
-6.013873
30
0
11
95.48504
21
-6.044798
31
0
39
0
210
0
220
0
230
1
0
LINE
5
9A
100
AcDbEntity
8
1
62
256
6
ByLayer
370
18
48
1
60
0
100
AcDbLine
10
96.402267
20
-6.046449
30
0
11
98.265753
21
-6.049803
31
0
39
0
210
0
220
0
230
1
0
LINE
5
9B
100
AcDbEntity
8
1
62
256
6
ByLayer
370
18
48
1
60
0
100
AcDbLine
10
116.586556
20
-6.082781
30
0
11
118.082794
21
-6.085474
31
0
39
0
210
0
220
0
230
1
0
LINE
5
9C
100
AcDbEntity
8
1
62
256
6
ByLayer
370
18
48
1
60
0
100
AcDbLine
10
134.5046
20
-6.115033
30
0
11
136.261576
21
-6.118196
31
0
39
0
210
0
220
0
230
1
0
LINE
5
9D
100
AcDbEntity
8
1
62
256
6
ByLayer
370
18
48
1
60
0
100
AcDbLine
10
136.261576
20
6.118196
30
0
11
134.5046
21
6.115033
31
0
39
0
210
0
220
0
230
1
0
LINE
5
9E
100
AcDbEntity
8
1
62
256
6
ByLayer
370
18
48
1
60
0
100
AcDbLine
10
118.082794
20
6.085474
30
0
11
116.586556
21
6.082781
31
0
39
0
210
0
220
0
230
1
0
LINE
5
9F
100
AcDbEntity
8
1
62
256
6
ByLayer
370
18
48
1
60
0
100
AcDbLine
10
98.265753
20
6.049803
30
0
11
96.402267
21
6.046449
31
0
39
0
210
0
220
0
230
1
0
LINE
5
A0
100
AcDbEntity
8
1
62
256
6
ByLayer
370
18
48
1
60
0
100
AcDbLine
10
95.48504
20
6.044798
30
0
11
78.304745
21
6.013873
31
0
39
0
210
0
220
0
230
1
0
LINE
5
A1
100
AcDbEntity
8
1
62
256
6
ByLayer
370
18
48
1
60
0
100
AcDbLine
10
60.272835
20
5.981416
30
0
11
40.24786
21
5.945371
31
0
39
0
210
0
220
0
230
1
0
LINE
5
A2
100
AcDbEntity
8
1
62
256
6
ByLayer
370
18
48
1
60
0
100
AcDbLine
10
22.277687
20
5.913025
30
0
11
1.529096
21
5.875677
31
0
39
0
210
0
220
0
230
1
0
LINE
5
A3
100
AcDbEntity
8
SK1
62
256
6
ByLayer
370
18
48
1
60
0
100
AcDbLine
10
-45
20
-5.055
30
0
11
-43.055
21
-7
31
0
39
0
210
0
220
0
230
1
0
LINE
5
A4
100
AcDbEntity
8
SK1
62
256
6
ByLayer
370
18
48
1
60
0
100
AcDbLine
10
-43.055
20
7
30
0
11
-45
21
5.055
31
0
39
0
210
0
220
0
230
1
0
LINE
5
A5
100
AcDbEntity
8
SK1
62
256
6
ByLayer
370
18
48
1
60
0
100
AcDbLine
10
-43.055
20
-7
30
0
11
0
21
-7
31
0
39
0
210
0
220
0
230
1
0
LINE
5
A6
100
AcDbEntity
8
SK1
62
256
6
ByLayer
370
18
48
1
60
0
100
AcDbLine
10
0
20
7
30
0
11
-43.055
21
7
31
0
39
0
210
0
220
0
230
1
0
LINE
5
A7
100
AcDbEntity
8
2
62
256
6
ByLayer
370
13
48
1
60
0
100
AcDbLine
10
164.5
20
-6.1515
30
0
11
164.5
21
36.426183
31
0
39
0
210
0
220
0
230
1
0
LINE
5
A9
100
AcDbEntity
8
2
62
256
6
ByLayer
370
13
48
1
60
0
100
AcDbLine
10
158.5875
20
6.1515
30
0
11
166.5
21
6.1515
31
0
39
0
210
0
220
0
230
1
0
LINE
5
AA
100
AcDbEntity
8
2
62
256
6
ByLayer
370
13
48
1
60
0
100
AcDbLine
10
158.5875
20
-6.1515
30
0
11
166.5
21
-6.1515
31
0
39
0
210
0
220
0
230
1
0
LINE
5
AB
100
AcDbEntity
8
1
62
256
6
ByLayer
370
18
48
1
60
1
100
AcDbLine
10
164.5
20
6.1515
30
0
11
164.960784
21
2.651502
31
0
39
0
210
0
220
0
230
1
0
LINE
5
AC
100
AcDbEntity
8
1
62
256
6
ByLayer
370
18
48
1
60
1
100
AcDbLine
10
164.960784
20
2.651502
30
0
11
164.039216
21
2.651498
31
0
39
0
210
0
220
0
230
1
0
LINE
5
AD
100
AcDbEntity
8
1
62
256
6
ByLayer
370
18
48
1
60
1
100
AcDbLine
10
164.039216
20
2.651498
30
0
11
164.5
21
6.1515
31
0
39
0
210
0
220
0
230
1
0
LINE
5
AE
100
AcDbEntity
8
1
62
256
6
ByLayer
370
18
48
1
60
1
100
AcDbLine
10
164.5
20
-6.1515
30
0
11
164.039216
21
-2.651502
31
0
39
0
210
0
220
0
230
1
0
LINE
5
AF
100
AcDbEntity
8
1
62
256
6
ByLayer
370
18
48
1
60
1
100
AcDbLine
10
164.039216
20
-2.651502
30
0
11
164.960784
21
-2.651498
31
0
39
0
210
0
220
0
230
1
0
LINE
5
B0
100
AcDbEntity
8
1
62
256
6
ByLayer
370
18
48
1
60
1
100
AcDbLine
10
164.960784
20
-2.651498
30
0
11
164.5
21
-6.1515
31
0
39
0
210
0
220
0
230
1
0
LINE
5
B1
100
AcDbEntity
8
SK2
62
256
6
ByLayer
370
13
48
1
60
0
100
AcDbLine
10
-53.5
20
-7
30
0
11
-53.5
21
15.649657
31
0
39
0
210
0
220
0
230
1
0
LINE
5
B3
100
AcDbEntity
8
SK2
62
256
6
ByLayer
370
13
48
1
60
0
100
AcDbLine
10
-46.5875
20
7
30
0
11
-55.5
21
7
31
0
39
0
210
0
220
0
230
1
0
LINE
5
B4
100
AcDbEntity
8
SK2
62
256
6
ByLayer
370
13
48
1
60
0
100
AcDbLine
10
-46.5875
20
-7
30
0
11
-55.5
21
-7
31
0
39
0
210
0
220
0
230
1
0
LINE
5
B5
100
AcDbEntity
8
1
62
256
6
ByLayer
370
18
48
1
60
1
100
AcDbLine
10
-53.5
20
7
30
0
11
-53.039216
21
3.500002
31
0
39
0
210
0
220
0
230
1
0
LINE
5
B6
100
AcDbEntity
8
1
62
256
6
ByLayer
370
18
48
1
60
1
100
AcDbLine
10
-53.039216
20
3.500002
30
0
11
-53.960784
21
3.499998
31
0
39
0
210
0
220
0
230
1
0
LINE
5
B7
100
AcDbEntity
8
1
62
256
6
ByLayer
370
18
48
1
60
1
100
AcDbLine
10
-53.960784
20
3.499998
30
0
11
-53.5
21
7
31
0
39
0
210
0
220
0
230
1
0
LINE
5
B8
100
AcDbEntity
8
1
62
256
6
ByLayer
370
18
48
1
60
1
100
AcDbLine
10
-53.5
20
-7
30
0
11
-53.960784
21
-3.500002
31
0
39
0
210
0
220
0
230
1
0
LINE
5
B9
100
AcDbEntity
8
1
62
256
6
ByLayer
370
18
48
1
60
1
100
AcDbLine
10
-53.960784
20
-3.500002
30
0
11
-53.039216
21
-3.499998
31
0
39
0
210
0
220
0
230
1
0
LINE
5
BA
100
AcDbEntity
8
1
62
256
6
ByLayer
370
18
48
1
60
1
100
AcDbLine
10
-53.039216
20
-3.499998
30
0
11
-53.5
21
-7
31
0
39
0
210
0
220
0
230
1
0
LINE
5
BB
100
AcDbEntity
8
SK2
62
256
6
ByLayer
370
13
48
1
60
0
100
AcDbLine
10
157.542965
20
1.491759
30
0
11
165.687991
21
23.869664
31
0
39
0
210
0
220
0
230
1
0
LINE
5
BC
100
AcDbEntity
8
SK2
62
256
6
ByLayer
370
13
48
1
60
0
100
AcDbLine
10
157.542965
20
-1.491759
30
0
11
165.687991
21
-23.869664
31
0
39
0
210
0
220
0
230
1
0
LINE
5
BD
100
AcDbEntity
8
1
62
256
6
ByLayer
370
18
48
1
60
1
100
AcDbLine
10
165.003941
20
21.990283
30
0
11
168.419547
21
21.098124
31
0
39
0
210
0
220
0
230
1
0
LINE
5
BE
100
AcDbEntity
8
1
62
256
6
ByLayer
370
18
48
1
60
1
100
AcDbLine
10
168.419547
20
21.098124
30
0
11
168.072258
21
20.244498
31
0
39
0
210
0
220
0
230
1
0
LINE
5
BF
100
AcDbEntity
8
1
62
256
6
ByLayer
370
18
48
1
60
1
100
AcDbLine
10
168.072258
20
20.244498
30
0
11
165.003941
21
21.990283
31
0
39
0
210
0
220
0
230
1
0
LINE
5
C0
100
AcDbEntity
8
1
62
256
6
ByLayer
370
18
48
1
60
1
100
AcDbLine
10
165.003941
20
-21.990283
30
0
11
168.072255
21
-20.244499
31
0
39
0
210
0
220
0
230
1
0
LINE
5
C1
100
AcDbEntity
8
1
62
256
6
ByLayer
370
18
48
1
60
1
100
AcDbLine
10
168.072255
20
-20.244499
30
0
11
168.41955
21
-21.098122
31
0
39
0
210
0
220
0
230
1
0
LINE
5
C2
100
AcDbEntity
8
1
62
256
6
ByLayer
370
18
48
1
60
1
100
AcDbLine
10
168.41955
20
-21.098122
30
0
11
165.003941
21
-21.990283
31
0
39
0
210
0
220
0
230
1
0
LINE
5
11C
100
AcDbEntity
8
1
62
256
6
ByLayer
370
13
48
0.05
60
0
100
AcDbLine
10
-51.5
20
0
30
0
11
161.278346
21
0
31
0
39
0
210
0
220
0
230
1
0
LINE
5
121
100
AcDbEntity
8
1
62
256
6
ByLayer
370
18
48
1
60
1
100
AcDbLine
10
164.5
20
6.1515
30
0
11
164.960784
21
2.651502
31
0
39
0
210
0
220
0
230
1
0
LINE
5
122
100
AcDbEntity
8
1
62
256
6
ByLayer
370
18
48
1
60
1
100
AcDbLine
10
164.960784
20
2.651502
30
0
11
164.039216
21
2.651498
31
0
39
0
210
0
220
0
230
1
0
LINE
5
123
100
AcDbEntity
8
1
62
256
6
ByLayer
370
18
48
1
60
1
100
AcDbLine
10
164.039216
20
2.651498
30
0
11
164.5
21
6.1515
31
0
39
0
210
0
220
0
230
1
0
LINE
5
125
100
AcDbEntity
8
1
62
256
6
ByLayer
370
18
48
1
60
1
100
AcDbLine
10
164.5
20
-6.1515
30
0
11
164.039216
21
-2.651502
31
0
39
0
210
0
220
0
230
1
0
LINE
5
126
100
AcDbEntity
8
1
62
256
6
ByLayer
370
18
48
1
60
1
100
AcDbLine
10
164.039216
20
-2.651502
30
0
11
164.960784
21
-2.651498
31
0
39
0
210
0
220
0
230
1
0
LINE
5
127
100
AcDbEntity
8
1
62
256
6
ByLayer
370
18
48
1
60
1
100
AcDbLine
10
164.960784
20
-2.651498
30
0
11
164.5
21
-6.1515
31
0
39
0
210
0
220
0
230
1
0
LINE
5
12B
100
AcDbEntity
8
1
62
256
6
ByLayer
370
18
48
1
60
1
100
AcDbLine
10
-53.5
20
7
30
0
11
-53.039216
21
3.500002
31
0
39
0
210
0
220
0
230
1
0
LINE
5
12C
100
AcDbEntity
8
1
62
256
6
ByLayer
370
18
48
1
60
1
100
AcDbLine
10
-53.039216
20
3.500002
30
0
11
-53.960784
21
3.499998
31
0
39
0
210
0
220
0
230
1
0
LINE
5
12D
100
AcDbEntity
8
1
62
256
6
ByLayer
370
18
48
1
60
1
100
AcDbLine
10
-53.960784
20
3.499998
30
0
11
-53.5
21
7
31
0
39
0
210
0
220
0
230
1
0
LINE
5
12F
100
AcDbEntity
8
1
62
256
6
ByLayer
370
18
48
1
60
1
100
AcDbLine
10
-53.5
20
-7
30
0
11
-53.960784
21
-3.500002
31
0
39
0
210
0
220
0
230
1
0
LINE
5
130
100
AcDbEntity
8
1
62
256
6
ByLayer
370
18
48
1
60
1
100
AcDbLine
10
-53.960784
20
-3.500002
30
0
11
-53.039216
21
-3.499998
31
0
39
0
210
0
220
0
230
1
0
LINE
5
131
100
AcDbEntity
8
1
62
256
6
ByLayer
370
18
48
1
60
1
100
AcDbLine
10
-53.039216
20
-3.499998
30
0
11
-53.5
21
-7
31
0
39
0
210
0
220
0
230
1
0
LINE
5
134
100
AcDbEntity
8
1
62
256
6
ByLayer
370
18
48
1
60
1
100
AcDbLine
10
165.003941
20
21.990283
30
0
11
168.419547
21
21.098124
31
0
39
0
210
0
220
0
230
1
0
LINE
5
135
100
AcDbEntity
8
1
62
256
6
ByLayer
370
18
48
1
60
1
100
AcDbLine
10
168.419547
20
21.098124
30
0
11
168.072258
21
20.244498
31
0
39
0
210
0
220
0
230
1
0
LINE
5
136
100
AcDbEntity
8
1
62
256
6
ByLayer
370
18
48
1
60
1
100
AcDbLine
10
168.072258
20
20.244498
30
0
11
165.003941
21
21.990283
31
0
39
0
210
0
220
0
230
1
0
LINE
5
138
100
AcDbEntity
8
1
62
256
6
ByLayer
370
18
48
1
60
1
100
AcDbLine
10
165.003941
20
-21.990283
30
0
11
168.072255
21
-20.244499
31
0
39
0
210
0
220
0
230
1
0
LINE
5
139
100
AcDbEntity
8
1
62
256
6
ByLayer
370
18
48
1
60
1
100
AcDbLine
10
168.072255
20
-20.244499
30
0
11
168.41955
21
-21.098122
31
0
39
0
210
0
220
0
230
1
0
LINE
5
13A
100
AcDbEntity
8
1
62
256
6
ByLayer
370
18
48
1
60
1
100
AcDbLine
10
168.41955
20
-21.098122
30
0
11
165.003941
21
-21.990283
31
0
39
0
210
0
220
0
230
1
0
MTEXT
5
11D
100
AcDbEntity
8
2
62
256
6
ByLayer
370
18
48
1
60
0
100
AcDbMText
10
163.158886
20
19.809938
30
0
210
0
220
0
230
1
1
%%c
40
3
41
0
44
1.084337
50
90
71
7
72
5
7
iso_b_vert
0
MTEXT
5
120
100
AcDbEntity
8
2
62
256
6
ByLayer
370
18
48
1
60
0
100
AcDbMText
10
163.158886
20
25.7865
30
0
210
0
220
0
230
1
1
\W0.7022;12.303
40
3
41
0
44
1.084337
50
90
71
7
72
5
7
iso_b_vert
0
MTEXT
5
129
100
AcDbEntity
8
SK2
62
256
6
ByLayer
370
18
48
1
60
0
100
AcDbMText
10
-54.841114
20
6.658437
30
0
210
0
220
0
230
1
1
%%c
40
3
41
0
44
1.084337
50
90
71
7
72
5
7
iso_b_vert
0
MTEXT
5
12A
100
AcDbEntity
8
SK2
62
256
6
ByLayer
370
18
48
1
60
0
100
AcDbMText
10
-54.841114
20
12.635
30
0
210
0
220
0
230
1
1
\W0.5785;14
40
3
41
0
44
1.084337
50
90
71
7
72
5
7
iso_b_vert
0
MTEXT
5
133
100
AcDbEntity
8
SK2
62
256
6
ByLayer
370
18
48
1
60
0
100
AcDbMText
10
176.960959
20
-2.114886
30
0
210
0
220
0
230
1
1
\W0.7071;140%%d
40
3
41
0
44
1.084337
50
0
71
7
72
5
7
iso_b_vert
0
MTEXT
5
13C
100
AcDbEntity
8
SK6
62
256
6
ByLayer
370
18
48
1
60
0
100
AcDbMText
10
34.159926
20
-77.114886
30
0
210
0
220
0
230
1
1
\W0.7307;860.1-1230-100A1-SD S2BM
40
3
41
0
44
1.084337
50
0
71
7
72
5
7
iso_b_vert
0
HATCH
5
124
100
AcDbEntity
8
2
62
256
6
ByLayer
370
13
48
1
60
0
100
AcDbHatch
10
0
20
0
30
0
210
0
220
0
230
1
2
ANSI31
70
0
71
0
91
1
92
5
93
3
72
1
10
164.5
20
6.1515
11
164.960783741553
21
2.65150169255318
72
1
10
164.960783741553
20
2.65150169255318
11
164.039216258447
21
2.65149830744681
72
1
10
164.039216258447
20
2.65149830744681
11
164.5
21
6.1515
97
0
75
0
76
1
52
0
41
0.0062
77
0
78
1
53
45
43
0
44
0
45
-0.0139193969876572
46
0.0139193969876572
79
0
47
0
98
1
10
0
20
0
0
HATCH
5
128
100
AcDbEntity
8
2
62
256
6
ByLayer
370
13
48
1
60
0
100
AcDbHatch
10
0
20
0
30
0
210
0
220
0
230
1
2
ANSI31
70
0
71
0
91
1
92
5
93
3
72
1
10
164.5
20
-6.1515
11
164.039216258447
21
-2.65150169255318
72
1
10
164.039216258447
20
-2.65150169255318
11
164.960783741553
21
-2.65149830744681
72
1
10
164.960783741553
20
-2.65149830744681
11
164.5
21
-6.1515
97
0
75
0
76
1
52
0
41
0.0062
77
0
78
1
53
45
43
0
44
0
45
-0.0139193969876572
46
0.0139193969876572
79
0
47
0
98
1
10
0
20
0
0
HATCH
5
12E
100
AcDbEntity
8
SK2
62
256
6
ByLayer
370
13
48
1
60
0
100
AcDbHatch
10
0
20
0
30
0
210
0
220
0
230
1
2
ANSI31
70
0
71
0
91
1
92
5
93
3
72
1
10
-53.5
20
7
11
-53.0392162584472
21
3.50000169255318
72
1
10
-53.0392162584472
20
3.50000169255318
11
-53.9607837415528
21
3.49999830744682
72
1
10
-53.9607837415528
20
3.49999830744682
11
-53.5
21
7
97
0
75
0
76
1
52
0
41
0.0062
77
0
78
1
53
45
43
0
44
0
45
-0.0139193969876572
46
0.0139193969876572
79
0
47
0
98
1
10
0
20
0
0
HATCH
5
132
100
AcDbEntity
8
SK2
62
256
6
ByLayer
370
13
48
1
60
0
100
AcDbHatch
10
0
20
0
30
0
210
0
220
0
230
1
2
ANSI31
70
0
71
0
91
1
92
5
93
3
72
1
10
-53.5
20
-7
11
-53.9607837415528
21
-3.50000169255318
72
1
10
-53.9607837415528
20
-3.50000169255318
11
-53.0392162584472
21
-3.49999830744682
72
1
10
-53.0392162584472
20
-3.49999830744682
11
-53.5
21
-7
97
0
75
0
76
1
52
0
41
0.0062
77
0
78
1
53
45
43
0
44
0
45
-0.0139193969876572
46
0.0139193969876572
79
0
47
0
98
1
10
0
20
0
0
HATCH
5
137
100
AcDbEntity
8
SK2
62
256
6
ByLayer
370
13
48
1
60
0
100
AcDbHatch
10
0
20
0
30
0
210
0
220
0
230
1
2
ANSI31
70
0
71
0
91
1
92
5
93
3
72
1
10
165.003940952546
20
21.9902826125899
11
168.419546607539
21
21.0981235358598
72
1
10
168.419546607539
20
21.0981235358598
11
168.07225782384
21
20.2444976654423
72
1
10
168.07225782384
20
20.2444976654423
11
165.003940952546
21
21.9902826125899
97
0
75
0
76
1
52
0
41
0.0062
77
0
78
1
53
45
43
0
44
0
45
-0.0139193969876572
46
0.0139193969876572
79
0
47
0
98
1
10
0
20
0
0
HATCH
5
13B
100
AcDbEntity
8
SK2
62
256
6
ByLayer
370
13
48
1
60
0
100
AcDbHatch
10
0
20
0
30
0
210
0
220
0
230
1
2
ANSI31
70
0
71
0
91
1
92
5
93
3
72
1
10
165.003940952546
20
-21.9902826125899
11
168.072254688302
21
-20.2444989411167
72
1
10
168.072254688302
20
-20.2444989411167
11
168.419549743077
21
-21.0981222601853
72
1
10
168.419549743077
20
-21.0981222601853
11
165.003940952546
21
-21.9902826125899
97
0
75
0
76
1
52
0
41
0.0062
77
0
78
1
53
45
43
0
44
0
45
-0.0139193969876572
46
0.0139193969876572
79
0
47
0
98
1
10
0
20
0
0
DIMENSION
5
13F
100
AcDbEntity
8
SK2
62
256
6
ByLayer
370
18
48
1
60
0
100
AcDbDimension
2
_U0
10
56.4
20
-25.699638
30
0
11
106.7
21
-25.699638
31
0
70
32
71
1
72
1
41
1
210
0
220
0
230
1
3
Standard
100
AcDbAlignedDimension
13
157
23
-6.1515
33
0
14
56.4
24
-6.1515
34
0
50
0
100
AcDbRotatedDimension
1001
ACAD
1000
DSTYLE
1002
{
1070
   371
1070
    13
1070
   372
1070
    13
1070
   170
1070
     0
1070
   144
1040
1.0
1070
   277
1070
     2
1070
   284
1070
     8
1070
   278
1070
    46
1070
   146
1040
1.166667
1070
   345
1005
16
1070
   347
1005
16
1070
   346
1005
16
1070
   344
1005
0
1070
   343
1005
0
1070
   172
1070
     1
1070
    76
1070
     0
1070
    75
1070
     0
1070
   282
1070
     0
1070
   281
1070
     0
1070
     3
1000

1070
    71
1070
     0
1070
    74
1070
     0
1070
   279
1070
     0
1070
   173
1070
     1
1070
   340
1005
11E
1070
   271
1070
     2
1070
   272
1070
     2
1070
    77
1070
     1
1070
    73
1070
     1
1070
   171
1070
     3
1070
   274
1070
     4
1070
   177
1070
     2
1070
   176
1070
     2
1070
   178
1070
     2
1070
    78
1070
     8
1070
    48
1040
-0.1
1070
    41
1040
3.5
1070
   147
1040
1.5
1070
    42
1040
1.5875
1070
    44
1040
2.0
1070
   140
1040
3.0
1002
}
1001
ACAD_DSTYLE_DIM_LINETYPE
1070
   380
1005
16
1001
ACAD_DSTYLE_DIM_EXT1_LINETYPE
1070
   381
1005
16
1001
ACAD_DSTYLE_DIM_EXT2_LINETYPE
1070
   382
1005
16
0
DIMENSION
5
15A
100
AcDbEntity
8
SK2
62
256
6
ByLayer
370
18
48
1
60
0
100
AcDbDimension
2
_U1
10
6
20
-35.699638
30
0
11
81.5
21
-35.699638
31
0
70
32
71
1
72
1
41
1
210
0
220
0
230
1
3
Standard
100
AcDbAlignedDimension
13
157
23
-6.1515
33
0
14
6
24
-6.1515
34
0
50
0
100
AcDbRotatedDimension
1001
ACAD
1000
DSTYLE
1002
{
1070
   371
1070
    13
1070
   372
1070
    13
1070
     3
1000

1070
   170
1070
     0
1070
   144
1040
1.0
1070
   277
1070
     2
1070
   284
1070
     8
1070
   278
1070
    46
1070
   146
1040
1.166667
1070
   345
1005
16
1070
   347
1005
16
1070
   346
1005
16
1070
   344
1005
0
1070
   343
1005
0
1070
   172
1070
     1
1070
    76
1070
     0
1070
    75
1070
     0
1070
   282
1070
     0
1070
   281
1070
     0
1070
    71
1070
     0
1070
    74
1070
     0
1070
   279
1070
     0
1070
   173
1070
     1
1070
   340
1005
11E
1070
   271
1070
     2
1070
   272
1070
     2
1070
    77
1070
     1
1070
    73
1070
     1
1070
   171
1070
     3
1070
   274
1070
     4
1070
   177
1070
     2
1070
   176
1070
     2
1070
   178
1070
     2
1070
    78
1070
     8
1070
    48
1040
-0.1
1070
    41
1040
3.5
1070
   147
1040
1.5
1070
    42
1040
1.5875
1070
    44
1040
2.0
1070
   140
1040
3.0
1002
}
1001
ACAD_DSTYLE_DIM_LINETYPE
1070
   380
1005
16
1001
ACAD_DSTYLE_DIM_EXT1_LINETYPE
1070
   381
1005
16
1001
ACAD_DSTYLE_DIM_EXT2_LINETYPE
1070
   382
1005
16
0
DIMENSION
5
172
100
AcDbEntity
8
SK2
62
256
6
ByLayer
370
18
48
1
60
0
100
AcDbDimension
2
_U2
10
0
20
-43.699638
30
0
11
-22.5
21
-43.699638
31
0
70
32
71
1
72
1
41
1
210
0
220
0
230
1
3
Standard
100
AcDbAlignedDimension
13
-45
23
-7
33
0
14
0
24
-7
34
0
50
0
100
AcDbRotatedDimension
1001
ACAD
1000
DSTYLE
1002
{
1070
   371
1070
    13
1070
   372
1070
    13
1070
     3
1000

1070
   170
1070
     0
1070
   144
1040
1.0
1070
   277
1070
     2
1070
   284
1070
     8
1070
   278
1070
    46
1070
   146
1040
1.166667
1070
   345
1005
16
1070
   347
1005
16
1070
   346
1005
16
1070
   344
1005
0
1070
   343
1005
0
1070
   172
1070
     1
1070
    76
1070
     0
1070
    75
1070
     0
1070
   282
1070
     0
1070
   281
1070
     0
1070
    71
1070
     0
1070
    74
1070
     0
1070
   279
1070
     0
1070
   173
1070
     1
1070
   340
1005
11E
1070
   271
1070
     2
1070
   272
1070
     2
1070
    77
1070
     1
1070
    73
1070
     1
1070
   171
1070
     3
1070
   274
1070
     4
1070
   177
1070
     2
1070
   176
1070
     2
1070
   178
1070
     2
1070
    78
1070
     8
1070
    48
1040
-0.1
1070
    41
1040
3.5
1070
   147
1040
1.5
1070
    42
1040
1.5875
1070
    44
1040
2.0
1070
   140
1040
3.0
1002
}
1001
ACAD_DSTYLE_DIM_LINETYPE
1070
   380
1005
16
1001
ACAD_DSTYLE_DIM_EXT1_LINETYPE
1070
   381
1005
16
1001
ACAD_DSTYLE_DIM_EXT2_LINETYPE
1070
   382
1005
16
0
DIMENSION
5
18A
100
AcDbEntity
8
SK2
62
256
6
ByLayer
370
18
48
1
60
0
100
AcDbDimension
2
_U3
10
157
20
-51.699638
30
0
11
56
21
-51.699638
31
0
70
32
71
1
72
1
41
1
210
0
220
0
230
1
3
Standard
100
AcDbAlignedDimension
13
-45
23
-7
33
0
14
157
24
-6.1515
34
0
50
0
100
AcDbRotatedDimension
1001
ACAD
1000
DSTYLE
1002
{
1070
   371
1070
    13
1070
   372
1070
    13
1070
     3
1000

1070
   170
1070
     0
1070
   144
1040
1.0
1070
   277
1070
     2
1070
   284
1070
     8
1070
   278
1070
    46
1070
   146
1040
1.166667
1070
   345
1005
16
1070
   347
1005
16
1070
   346
1005
16
1070
   344
1005
0
1070
   343
1005
0
1070
   172
1070
     1
1070
    76
1070
     0
1070
    75
1070
     0
1070
   282
1070
     0
1070
   281
1070
     0
1070
    71
1070
     0
1070
    74
1070
     0
1070
   279
1070
     0
1070
   173
1070
     1
1070
   340
1005
11E
1070
   271
1070
     2
1070
   272
1070
     2
1070
    77
1070
     1
1070
    73
1070
     1
1070
   171
1070
     3
1070
   274
1070
     4
1070
   177
1070
     2
1070
   176
1070
     2
1070
   178
1070
     2
1070
    78
1070
     8
1070
    48
1040
-0.1
1070
    41
1040
3.5
1070
   147
1040
1.5
1070
    42
1040
1.5875
1070
    44
1040
2.0
1070
   140
1040
3.0
1002
}
1001
ACAD_DSTYLE_DIM_LINETYPE
1070
   380
1005
16
1001
ACAD_DSTYLE_DIM_EXT1_LINETYPE
1070
   381
1005
16
1001
ACAD_DSTYLE_DIM_EXT2_LINETYPE
1070
   382
1005
16
0
DIMENSION
5
1A2
100
AcDbEntity
8
2
62
256
6
ByLayer
370
18
48
1
60
0
100
AcDbDimension
2
_U4
10
0
20
-43.699638
30
0
11
78.5
21
-43.699638
31
0
70
32
71
1
72
1
41
1
210
0
220
0
230
1
3
Standard
100
AcDbAlignedDimension
13
157
23
-6.1515
33
0
14
0
24
-6.1515
34
0
50
0
100
AcDbRotatedDimension
1001
ACAD
1000
DSTYLE
1002
{
1070
   371
1070
    13
1070
   372
1070
    13
1070
     3
1000

1070
   170
1070
     0
1070
   144
1040
1.0
1070
   277
1070
     2
1070
   284
1070
     8
1070
   278
1070
    46
1070
   146
1040
1.166667
1070
   345
1005
16
1070
   347
1005
16
1070
   346
1005
16
1070
   344
1005
0
1070
   343
1005
0
1070
   172
1070
     1
1070
    76
1070
     0
1070
    75
1070
     0
1070
   282
1070
     0
1070
   281
1070
     0
1070
    71
1070
     0
1070
    74
1070
     0
1070
   279
1070
     0
1070
   173
1070
     1
1070
   340
1005
11E
1070
   271
1070
     2
1070
   272
1070
     2
1070
    77
1070
     1
1070
    73
1070
     1
1070
   171
1070
     3
1070
   274
1070
     4
1070
   177
1070
     2
1070
   176
1070
     2
1070
   178
1070
     2
1070
    78
1070
     8
1070
    48
1040
-0.1
1070
    41
1040
3.5
1070
   147
1040
1.5
1070
    42
1040
1.5875
1070
    44
1040
2.0
1070
   140
1040
3.0
1002
}
1001
ACAD_DSTYLE_DIM_LINETYPE
1070
   380
1005
16
1001
ACAD_DSTYLE_DIM_EXT1_LINETYPE
1070
   381
1005
16
1001
ACAD_DSTYLE_DIM_EXT2_LINETYPE
1070
   382
1005
16
0
ENDSEC
0
SECTION
2
OBJECTS
0
DICTIONARY
5
22a
330
0
100
AcDbDictionary
280
0
281
1
3
ACAD_GROUP
350
22b
3
ACAD_MLINESTYLE
350
22c
0
DICTIONARY
5
22b
330
0
100
AcDbDictionary
280
0
281
1
0
DICTIONARY
5
22c
330
0
100
AcDbDictionary
280
0
281
1
3
Standard
350
18
0
MLINESTYLE
5
18
330
22c
100
AcDbMlineStyle
2
Standard
70
0
3

62
256
51
90
52
90
71
2
49
-0.5
62
256
6
ByLayer
49
0.5
62
256
6
ByLayer
0
RASTERVARIABLES
5
218
330

100
AcDbRasterVariables
90
0
70
1
71
1
72
1
0
ENDSEC
0
EOF
