0
SECTION
2
HEADER
9
$ACADVER
1
AC1015
9
$DWGCODEPAGE
3
ANSI_1252
9
$HANDSEED
5
225
9
$ANGBASE
50
0
9
$ANGDIR
70
0
9
$ATTMODE
70
1
9
$AUNITS
70
0
9
$AUPREC
70
0
9
$CECOLOR
62
256
9
$CELTSCALE
40
1
9
$CELTYPE
6
ByLayer
9
$CELWEIGHT
370
18
9
$CLAYER
8
0
9
$CMLJUST
70
0
9
$CMLSCALE
40
1
9
$CMLSTYLE
2
Standard
9
$DIMSTYLE
2
Standard
9
$TEXTSIZE
40
0.2
9
$TEXTSTYLE
7
Standard
9
$LUNITS
70
2
9
$LUPREC
70
4
9
$EXTNAMES
290
1
9
$INSUNITS
70
4
9
$LTSCALE
40
1
9
$LWDISPLAY
290
1
9
$PDMODE
70
0
9
$PDSIZE
40
0
9
$PLINEGEN
70
0
0
ENDSEC
0
SECTION
2
CLASSES
0
CLASS
1
RASTERVARIABLES
2
AcDbRasterVariables
3
ISM
90
0
280
0
281
0
0
ENDSEC
0
SECTION
2
TABLES
0
TABLE
2
VPORT
5
21b
100
AcDbSymbolTable
0
VPORT
5
1
100
AcDbSymbolTableRecord
100
AcDbViewportTableRecord
2
*Active
70
0
10
0
20
0
11
1
21
1
12
-1
22
1
13
0
23
0
14
0.5
24
0.5
15
10
25
10
16
0
26
0
36
1
17
0
27
0
37
0
0
ENDTAB
0
TABLE
2
LTYPE
5
21c
100
AcDbSymbolTable
0
LTYPE
5
14
100
AcDbSymbolTableRecord
100
AcDbLinetypeTableRecord
70
0
2
ByBlock
3

72
65
73
0
40
0
0
LTYPE
5
15
100
AcDbSymbolTableRecord
100
AcDbLinetypeTableRecord
70
0
2
ByLayer
3

72
65
73
0
40
0
0
LTYPE
5
16
100
AcDbSymbolTableRecord
100
AcDbLinetypeTableRecord
70
0
2
Continuous
3
Solid line
72
65
73
0
40
0
0
LTYPE
5
6E
100
AcDbSymbolTableRecord
100
AcDbLinetypeTableRecord
70
0
2
CENTER
3
____ _ ____ _ ____ _ ____
72
65
73
4
40
47.5
49
22
74
0
49
-8.5
74
0
49
8.5
74
0
49
-8.5
74
0
0
LTYPE
5
6F
100
AcDbSymbolTableRecord
100
AcDbLinetypeTableRecord
70
0
2
DASHED
3
__ __ __ __ __ __ __ __ __
72
65
73
2
40
25.72
49
12.86
74
0
49
-12.86
74
0
0
ENDTAB
0
TABLE
2
LAYER
5
21d
100
AcDbSymbolTable
0
LAYER
5
10
100
AcDbSymbolTableRecord
100
AcDbLayerTableRecord
2
0
70
0
62
7
6
Continuous
290
1
370
-3
390
0
0
LAYER
5
71
100
AcDbSymbolTableRecord
100
AcDbLayerTableRecord
2
81
70
0
62
-3
6
Continuous
290
1
370
-3
390
0
0
LAYER
5
73
100
AcDbSymbolTableRecord
100
AcDbLayerTableRecord
2
80
70
0
62
-6
6
Continuous
290
1
370
-3
390
0
0
LAYER
5
75
100
AcDbSymbolTableRecord
100
AcDbLayerTableRecord
2
1
70
0
62
4
6
Continuous
290
1
370
-3
390
0
0
LAYER
5
86
100
AcDbSymbolTableRecord
100
AcDbLayerTableRecord
2
4
70
0
62
-2
6
CENTER
290
1
370
-3
390
0
0
LAYER
5
A1
100
AcDbSymbolTableRecord
100
AcDbLayerTableRecord
2
2
70
0
62
7
6
Continuous
290
1
370
-3
390
0
0
LAYER
5
130
100
AcDbSymbolTableRecord
100
AcDbLayerTableRecord
2
Defpoints
70
0
62
7
6
Continuous
290
0
370
-3
390
0
0
LAYER
5
207
100
AcDbSymbolTableRecord
100
AcDbLayerTableRecord
2
SK4
70
0
62
2
6
CENTER
290
1
370
-3
390
0
0
LAYER
5
208
100
AcDbSymbolTableRecord
100
AcDbLayerTableRecord
2
SK1
70
0
62
4
6
Continuous
290
1
370
-3
390
0
0
LAYER
5
209
100
AcDbSymbolTableRecord
100
AcDbLayerTableRecord
2
SK2
70
0
62
7
6
Continuous
290
1
370
-3
390
0
0
LAYER
5
20a
100
AcDbSymbolTableRecord
100
AcDbLayerTableRecord
2
SK6
70
0
62
5
6
Continuous
290
1
370
-3
390
0
0
ENDTAB
0
TABLE
2
STYLE
5
21e
100
AcDbSymbolTable
0
STYLE
5
11
100
AcDbSymbolTableRecord
100
AcDbTextStyleTableRecord
2
Standard
3
txt
70
0
71
0
40
0
41
1
42
0
50
0
0
STYLE
5
10C
100
AcDbSymbolTableRecord
100
AcDbTextStyleTableRecord
2
iso_b_vert
3
simplex.shx
70
0
71
0
40
0
41
1
42
0
50
0
0
STYLE
5
10D
100
AcDbSymbolTableRecord
100
AcDbTextStyleTableRecord
2
DWGDirectTextStyle
3
simplex
70
0
71
0
40
0
41
1
42
0
50
0
0
ENDTAB
0
TABLE
2
DIMSTYLE
5
21f
100
AcDbSymbolTable
100
AcDbDimStyleTable
0
DIMSTYLE
105
27
100
AcDbSymbolTableRecord
100
AcDbDimStyleTableRecord
2
Standard
70
0
3
<>
41
0.18
42
0.0625
44
0.18
140
0.18
147
0.09
73
0
74
0
77
1
271
2
275
0
278
52
280
0
340
11
0
ENDTAB
0
TABLE
2
VIEW
5
220
100
AcDbSymbolTable
0
ENDTAB
0
TABLE
2
UCS
5
221
100
AcDbSymbolTable
0
ENDTAB
0
TABLE
2
APPID
5
222
100
AcDbSymbolTable
0
APPID
5
12
100
AcDbSymbolTableRecord
100
AcDbRegAppTableRecord
2
ACAD
70
0
0
APPID
5
12C
100
AcDbSymbolTableRecord
100
AcDbRegAppTableRecord
2
ACAD_DSTYLE_DIMBREAK
70
0
0
APPID
5
1C6
100
AcDbSymbolTableRecord
100
AcDbRegAppTableRecord
2
ACAD_DSTYLE_DIM_LINETYPE
70
0
0
APPID
5
1C7
100
AcDbSymbolTableRecord
100
AcDbRegAppTableRecord
2
ACAD_DSTYLE_DIM_EXT1_LINETYPE
70
0
0
APPID
5
1C8
100
AcDbSymbolTableRecord
100
AcDbRegAppTableRecord
2
ACAD_DSTYLE_DIM_EXT2_LINETYPE
70
0
0
APPID
5
203
100
AcDbSymbolTableRecord
100
AcDbRegAppTableRecord
2
ACAD_MLEADERVER
70
0
0
ENDTAB
0
TABLE
2
BLOCK_RECORD
5
223
100
AcDbSymbolTable
0
BLOCK_RECORD
5
1F
100
AcDbSymbolTableRecord
100
AcDbBlockTableRecord
2
*Model_Space
340
0
70
0
0
BLOCK_RECORD
5
1B
100
AcDbSymbolTableRecord
100
AcDbBlockTableRecord
2
*Paper_Space
340
0
70
0
0
BLOCK_RECORD
5
23
100
AcDbSymbolTableRecord
100
AcDbBlockTableRecord
2
*Paper_Space0
340
0
70
0
0
BLOCK_RECORD
5
131
100
AcDbSymbolTableRecord
100
AcDbBlockTableRecord
2
*D1
340
0
70
0
0
BLOCK_RECORD
5
13D
100
AcDbSymbolTableRecord
100
AcDbBlockTableRecord
2
_U0
340
0
70
0
0
BLOCK_RECORD
5
14B
100
AcDbSymbolTableRecord
100
AcDbBlockTableRecord
2
*D3
340
0
70
0
0
BLOCK_RECORD
5
157
100
AcDbSymbolTableRecord
100
AcDbBlockTableRecord
2
_U1
340
0
70
0
0
BLOCK_RECORD
5
163
100
AcDbSymbolTableRecord
100
AcDbBlockTableRecord
2
*D5
340
0
70
0
0
BLOCK_RECORD
5
16F
100
AcDbSymbolTableRecord
100
AcDbBlockTableRecord
2
_U2
340
0
70
0
0
BLOCK_RECORD
5
17B
100
AcDbSymbolTableRecord
100
AcDbBlockTableRecord
2
*D7
340
0
70
0
0
BLOCK_RECORD
5
187
100
AcDbSymbolTableRecord
100
AcDbBlockTableRecord
2
_U3
340
0
70
0
0
BLOCK_RECORD
5
193
100
AcDbSymbolTableRecord
100
AcDbBlockTableRecord
2
*D9
340
0
70
0
0
BLOCK_RECORD
5
19F
100
AcDbSymbolTableRecord
100
AcDbBlockTableRecord
2
_U4
340
0
70
0
0
ENDTAB
0
ENDSEC
0
SECTION
2
BLOCKS
0
BLOCK
5
20
100
AcDbEntity
8
0
100
AcDbBlockBegin
2
*Model_Space
70
0
10
0
20
0
30
0
3
*Model_Space
0
ENDBLK
5
21
100
AcDbEntity
8
0
100
AcDbBlockEnd
0
BLOCK
5
1C
100
AcDbEntity
8
0
100
AcDbBlockBegin
2
*Paper_Space
70
0
10
0
20
0
30
0
3
*Paper_Space
0
ENDBLK
5
1D
100
AcDbEntity
8
0
100
AcDbBlockEnd
0
BLOCK
5
24
100
AcDbEntity
8
0
100
AcDbBlockBegin
2
*Paper_Space0
70
0
10
0
20
0
30
0
3
*Paper_Space0
0
ENDBLK
5
25
100
AcDbEntity
8
0
100
AcDbBlockEnd
0
BLOCK
5
132
100
AcDbEntity
8
0
100
AcDbBlockBegin
2
*D1
70
1
10
0
20
0
30
0
3
*D1
0
LINE
5
134
100
AcDbEntity
8
0
62
256
6
ByLayer
370
-2
48
1
60
0
100
AcDbLine
10
62
20
-7.739
30
0
11
62
21
-25.882698
31
0
39
0
210
0
220
0
230
1
0
LINE
5
135
100
AcDbEntity
8
0
62
256
6
ByLayer
370
-2
48
1
60
0
100
AcDbLine
10
22.9
20
-7.739
30
0
11
22.9
21
-25.882698
31
0
39
0
210
0
220
0
230
1
0
LINE
5
136
100
AcDbEntity
8
0
62
256
6
ByLayer
370
-2
48
1
60
0
100
AcDbLine
10
58.5
20
-23.882698
30
0
11
26.4
21
-23.882698
31
0
39
0
210
0
220
0
230
1
0
SOLID
5
137
100
AcDbEntity
8
0
62
256
6
ByLayer
370
-1
48
1
60
0
100
AcDbTrace
10
58.5
20
-24.466031
30
0
11
58.5
21
-23.299365
31
0
12
62
22
-23.882698
32
0
13
62
23
-23.882698
33
0
39
0
210
0
220
0
230
1
0
SOLID
5
138
100
AcDbEntity
8
0
62
256
6
ByLayer
370
-1
48
1
60
0
100
AcDbTrace
10
26.4
20
-23.299365
30
0
11
26.4
21
-24.466031
31
0
12
22.9
22
-23.882698
32
0
13
22.9
23
-23.882698
33
0
39
0
210
0
220
0
230
1
0
MTEXT
5
139
100
AcDbEntity
8
0
62
256
6
ByLayer
370
18
48
1
60
0
100
AcDbMText
10
42.45
20
-17.882698
30
0
210
0
220
0
230
1
1
\A1;39.1
40
3
41
0
44
1
50
0
71
5
72
5
7
iso_b_vert
0
POINT
5
13A
100
AcDbEntity
8
Defpoints
62
0
6
ByLayer
370
-1
48
1
60
0
100
AcDbPoint
10
62
20
-6.1515
30
0
39
0
210
0
220
0
230
1
50
360
0
POINT
5
13B
100
AcDbEntity
8
Defpoints
62
0
6
ByLayer
370
-1
48
1
60
0
100
AcDbPoint
10
22.9
20
-6.1515
30
0
39
0
210
0
220
0
230
1
50
360
0
POINT
5
13C
100
AcDbEntity
8
Defpoints
62
0
6
ByLayer
370
-1
48
1
60
0
100
AcDbPoint
10
22.9
20
-23.882698
30
0
39
0
210
0
220
0
230
1
50
360
0
ENDBLK
5
133
100
AcDbEntity
8
0
100
AcDbBlockEnd
0
BLOCK
5
146
100
AcDbEntity
8
0
100
AcDbBlockBegin
2
_U0
70
0
10
0
20
0
30
0
3
_U0
0
MTEXT
5
13E
100
AcDbEntity
8
SK2
62
256
6
ByLayer
370
18
48
1
60
0
100
AcDbMText
10
39.463486
20
-21.685084
30
0
210
0
220
0
230
1
1
\W0.7208;39.1
40
3
41
0
44
1.084337
50
0
71
7
72
5
7
iso_b_vert
0
MTEXT
5
13F
100
AcDbEntity
8
SK2
62
256
6
ByLayer
370
18
48
1
60
0
100
AcDbMText
10
37.363486
20
-21.685084
30
0
210
0
220
0
230
1
1
\W1.1313;{\H1.88x;(}
40
3
41
0
44
1.084337
50
0
71
7
72
5
7
iso_b_vert
0
MTEXT
5
140
100
AcDbEntity
8
SK2
62
256
6
ByLayer
370
18
48
1
60
0
100
AcDbMText
10
45.754514
20
-21.685084
30
0
210
0
220
0
230
1
1
\W1.1313;{\H1.88x;)}
40
3
41
0
44
1.084337
50
0
71
7
72
5
7
iso_b_vert
0
LINE
5
141
100
AcDbEntity
8
SK2
62
256
6
ByLayer
370
13
48
1
60
0
100
AcDbLine
10
62
20
-7.739
30
0
11
62
21
-25.882698
31
0
39
0
210
0
220
0
230
1
0
LINE
5
142
100
AcDbEntity
8
SK2
62
256
6
ByLayer
370
13
48
1
60
0
100
AcDbLine
10
22.9
20
-7.739
30
0
11
22.9
21
-25.882698
31
0
39
0
210
0
220
0
230
1
0
LINE
5
143
100
AcDbEntity
8
SK2
62
256
6
ByLayer
370
13
48
1
60
0
100
AcDbLine
10
62
20
-23.882698
30
0
11
22.9
21
-23.882698
31
0
39
0
210
0
220
0
230
1
0
SOLID
5
144
100
AcDbEntity
8
SK2
62
256
6
ByLayer
370
18
48
1
60
0
100
AcDbTrace
10
62
20
-23.882698
30
0
11
58.500002
21
-24.343482
31
0
12
58.499998
22
-23.421914
32
0
13
58.499998
23
-23.421914
33
0
39
0
210
0
220
0
230
1
0
SOLID
5
145
100
AcDbEntity
8
SK2
62
256
6
ByLayer
370
18
48
1
60
0
100
AcDbTrace
10
22.9
20
-23.882698
30
0
11
26.399998
21
-23.421914
31
0
12
26.400002
22
-24.343482
32
0
13
26.400002
23
-24.343482
33
0
39
0
210
0
220
0
230
1
0
ENDBLK
5
147
100
AcDbEntity
8
0
100
AcDbBlockEnd
0
BLOCK
5
14C
100
AcDbEntity
8
0
100
AcDbBlockBegin
2
*D3
70
1
10
0
20
0
30
0
3
*D3
0
LINE
5
14E
100
AcDbEntity
8
0
62
256
6
ByLayer
370
-2
48
1
60
0
100
AcDbLine
10
62
20
-7.739
30
0
11
62
21
-35.882698
31
0
39
0
210
0
220
0
230
1
0
LINE
5
14F
100
AcDbEntity
8
0
62
256
6
ByLayer
370
-2
48
1
60
0
100
AcDbLine
10
2
20
-7.739
30
0
11
2
21
-35.882698
31
0
39
0
210
0
220
0
230
1
0
LINE
5
150
100
AcDbEntity
8
0
62
256
6
ByLayer
370
-2
48
1
60
0
100
AcDbLine
10
58.5
20
-33.882698
30
0
11
5.5
21
-33.882698
31
0
39
0
210
0
220
0
230
1
0
SOLID
5
151
100
AcDbEntity
8
0
62
256
6
ByLayer
370
-1
48
1
60
0
100
AcDbTrace
10
58.5
20
-34.466031
30
0
11
58.5
21
-33.299365
31
0
12
62
22
-33.882698
32
0
13
62
23
-33.882698
33
0
39
0
210
0
220
0
230
1
0
SOLID
5
152
100
AcDbEntity
8
0
62
256
6
ByLayer
370
-1
48
1
60
0
100
AcDbTrace
10
5.5
20
-33.299365
30
0
11
5.5
21
-34.466031
31
0
12
2
22
-33.882698
32
0
13
2
23
-33.882698
33
0
39
0
210
0
220
0
230
1
0
MTEXT
5
153
100
AcDbEntity
8
0
62
256
6
ByLayer
370
18
48
1
60
0
100
AcDbMText
10
32
20
-27.882698
30
0
210
0
220
0
230
1
1
\A1;60
40
3
41
0
44
1
50
0
71
5
72
5
7
iso_b_vert
0
POINT
5
154
100
AcDbEntity
8
Defpoints
62
0
6
ByLayer
370
-1
48
1
60
0
100
AcDbPoint
10
62
20
-6.1515
30
0
39
0
210
0
220
0
230
1
50
360
0
POINT
5
155
100
AcDbEntity
8
Defpoints
62
0
6
ByLayer
370
-1
48
1
60
0
100
AcDbPoint
10
2
20
-6.1515
30
0
39
0
210
0
220
0
230
1
50
360
0
POINT
5
156
100
AcDbEntity
8
Defpoints
62
0
6
ByLayer
370
-1
48
1
60
0
100
AcDbPoint
10
2
20
-33.882698
30
0
39
0
210
0
220
0
230
1
50
360
0
ENDBLK
5
14D
100
AcDbEntity
8
0
100
AcDbBlockEnd
0
BLOCK
5
15E
100
AcDbEntity
8
0
100
AcDbBlockBegin
2
_U1
70
0
10
0
20
0
30
0
3
_U1
0
MTEXT
5
158
100
AcDbEntity
8
SK2
62
256
6
ByLayer
370
18
48
1
60
0
100
AcDbMText
10
30.367172
20
-32.997584
30
0
210
0
220
0
230
1
1
\W0.6740;60
40
3
41
0
44
1.084337
50
0
71
7
72
5
7
iso_b_vert
0
LINE
5
159
100
AcDbEntity
8
SK2
62
256
6
ByLayer
370
13
48
1
60
0
100
AcDbLine
10
62
20
-7.739
30
0
11
62
21
-35.882698
31
0
39
0
210
0
220
0
230
1
0
LINE
5
15A
100
AcDbEntity
8
SK2
62
256
6
ByLayer
370
13
48
1
60
0
100
AcDbLine
10
2
20
-7.739
30
0
11
2
21
-35.882698
31
0
39
0
210
0
220
0
230
1
0
LINE
5
15B
100
AcDbEntity
8
SK2
62
256
6
ByLayer
370
13
48
1
60
0
100
AcDbLine
10
62
20
-33.882698
30
0
11
2
21
-33.882698
31
0
39
0
210
0
220
0
230
1
0
SOLID
5
15C
100
AcDbEntity
8
SK2
62
256
6
ByLayer
370
18
48
1
60
0
100
AcDbTrace
10
62
20
-33.882698
30
0
11
58.500002
21
-34.343482
31
0
12
58.499998
22
-33.421914
32
0
13
58.499998
23
-33.421914
33
0
39
0
210
0
220
0
230
1
0
SOLID
5
15D
100
AcDbEntity
8
SK2
62
256
6
ByLayer
370
18
48
1
60
0
100
AcDbTrace
10
2
20
-33.882698
30
0
11
5.499998
21
-33.421914
31
0
12
5.500002
22
-34.343482
32
0
13
5.500002
23
-34.343482
33
0
39
0
210
0
220
0
230
1
0
ENDBLK
5
15F
100
AcDbEntity
8
0
100
AcDbBlockEnd
0
BLOCK
5
164
100
AcDbEntity
8
0
100
AcDbBlockBegin
2
*D5
70
1
10
0
20
0
30
0
3
*D5
0
LINE
5
166
100
AcDbEntity
8
0
62
256
6
ByLayer
370
-2
48
1
60
0
100
AcDbLine
10
-45
20
-8.5875
30
0
11
-45
21
-43.882698
31
0
39
0
210
0
220
0
230
1
0
LINE
5
167
100
AcDbEntity
8
0
62
256
6
ByLayer
370
-2
48
1
60
0
100
AcDbLine
10
0
20
-8.5875
30
0
11
0
21
-43.882698
31
0
39
0
210
0
220
0
230
1
0
LINE
5
168
100
AcDbEntity
8
0
62
256
6
ByLayer
370
-2
48
1
60
0
100
AcDbLine
10
-41.5
20
-41.882698
30
0
11
-3.5
21
-41.882698
31
0
39
0
210
0
220
0
230
1
0
SOLID
5
169
100
AcDbEntity
8
0
62
256
6
ByLayer
370
-1
48
1
60
0
100
AcDbTrace
10
-41.5
20
-41.299365
30
0
11
-41.5
21
-42.466031
31
0
12
-45
22
-41.882698
32
0
13
-45
23
-41.882698
33
0
39
0
210
0
220
0
230
1
0
SOLID
5
16A
100
AcDbEntity
8
0
62
256
6
ByLayer
370
-1
48
1
60
0
100
AcDbTrace
10
-3.5
20
-42.466031
30
0
11
-3.5
21
-41.299365
31
0
12
0
22
-41.882698
32
0
13
0
23
-41.882698
33
0
39
0
210
0
220
0
230
1
0
MTEXT
5
16B
100
AcDbEntity
8
0
62
256
6
ByLayer
370
18
48
1
60
0
100
AcDbMText
10
-22.5
20
-35.882698
30
0
210
0
220
0
230
1
1
\A1;45
40
3
41
0
44
1
50
0
71
5
72
5
7
iso_b_vert
0
POINT
5
16C
100
AcDbEntity
8
Defpoints
62
0
6
ByLayer
370
-1
48
1
60
0
100
AcDbPoint
10
-45
20
-7
30
0
39
0
210
0
220
0
230
1
50
360
0
POINT
5
16D
100
AcDbEntity
8
Defpoints
62
0
6
ByLayer
370
-1
48
1
60
0
100
AcDbPoint
10
0
20
-7
30
0
39
0
210
0
220
0
230
1
50
360
0
POINT
5
16E
100
AcDbEntity
8
Defpoints
62
0
6
ByLayer
370
-1
48
1
60
0
100
AcDbPoint
10
0
20
-41.882698
30
0
39
0
210
0
220
0
230
1
50
360
0
ENDBLK
5
165
100
AcDbEntity
8
0
100
AcDbBlockEnd
0
BLOCK
5
176
100
AcDbEntity
8
0
100
AcDbBlockBegin
2
_U2
70
0
10
0
20
0
30
0
3
_U2
0
MTEXT
5
170
100
AcDbEntity
8
SK2
62
256
6
ByLayer
370
18
48
1
60
0
100
AcDbMText
10
-24.290771
20
-40.997584
30
0
210
0
220
0
230
1
1
\W0.7361;45
40
3
41
0
44
1.084337
50
0
71
7
72
5
7
iso_b_vert
0
LINE
5
171
100
AcDbEntity
8
SK2
62
256
6
ByLayer
370
13
48
1
60
0
100
AcDbLine
10
-45
20
-8.5875
30
0
11
-45
21
-43.882698
31
0
39
0
210
0
220
0
230
1
0
LINE
5
172
100
AcDbEntity
8
SK2
62
256
6
ByLayer
370
13
48
1
60
0
100
AcDbLine
10
0
20
-8.5875
30
0
11
0
21
-43.882698
31
0
39
0
210
0
220
0
230
1
0
LINE
5
173
100
AcDbEntity
8
SK2
62
256
6
ByLayer
370
13
48
1
60
0
100
AcDbLine
10
-45
20
-41.882698
30
0
11
0
21
-41.882698
31
0
39
0
210
0
220
0
230
1
0
SOLID
5
174
100
AcDbEntity
8
SK2
62
256
6
ByLayer
370
18
48
1
60
0
100
AcDbTrace
10
-45
20
-41.882698
30
0
11
-41.500002
21
-41.421914
31
0
12
-41.499998
22
-42.343482
32
0
13
-41.499998
23
-42.343482
33
0
39
0
210
0
220
0
230
1
0
SOLID
5
175
100
AcDbEntity
8
SK2
62
256
6
ByLayer
370
18
48
1
60
0
100
AcDbTrace
10
0
20
-41.882698
30
0
11
-3.499998
21
-42.343482
31
0
12
-3.500002
22
-41.421914
32
0
13
-3.500002
23
-41.421914
33
0
39
0
210
0
220
0
230
1
0
ENDBLK
5
177
100
AcDbEntity
8
0
100
AcDbBlockEnd
0
BLOCK
5
17C
100
AcDbEntity
8
0
100
AcDbBlockBegin
2
*D7
70
1
10
0
20
0
30
0
3
*D7
0
LINE
5
17E
100
AcDbEntity
8
0
62
256
6
ByLayer
370
-2
48
1
60
0
100
AcDbLine
10
-45
20
-8.5875
30
0
11
-45
21
-51.882698
31
0
39
0
210
0
220
0
230
1
0
LINE
5
17F
100
AcDbEntity
8
0
62
256
6
ByLayer
370
-2
48
1
60
0
100
AcDbLine
10
62
20
-7.739
30
0
11
62
21
-51.882698
31
0
39
0
210
0
220
0
230
1
0
LINE
5
180
100
AcDbEntity
8
0
62
256
6
ByLayer
370
-2
48
1
60
0
100
AcDbLine
10
-41.5
20
-49.882698
30
0
11
58.5
21
-49.882698
31
0
39
0
210
0
220
0
230
1
0
SOLID
5
181
100
AcDbEntity
8
0
62
256
6
ByLayer
370
-1
48
1
60
0
100
AcDbTrace
10
-41.5
20
-49.299365
30
0
11
-41.5
21
-50.466031
31
0
12
-45
22
-49.882698
32
0
13
-45
23
-49.882698
33
0
39
0
210
0
220
0
230
1
0
SOLID
5
182
100
AcDbEntity
8
0
62
256
6
ByLayer
370
-1
48
1
60
0
100
AcDbTrace
10
58.5
20
-50.466031
30
0
11
58.5
21
-49.299365
31
0
12
62
22
-49.882698
32
0
13
62
23
-49.882698
33
0
39
0
210
0
220
0
230
1
0
MTEXT
5
183
100
AcDbEntity
8
0
62
256
6
ByLayer
370
18
48
1
60
0
100
AcDbMText
10
8.5
20
-43.882698
30
0
210
0
220
0
230
1
1
\A1;107
40
3
41
0
44
1
50
0
71
5
72
5
7
iso_b_vert
0
POINT
5
184
100
AcDbEntity
8
Defpoints
62
0
6
ByLayer
370
-1
48
1
60
0
100
AcDbPoint
10
-45
20
-7
30
0
39
0
210
0
220
0
230
1
50
360
0
POINT
5
185
100
AcDbEntity
8
Defpoints
62
0
6
ByLayer
370
-1
48
1
60
0
100
AcDbPoint
10
62
20
-6.1515
30
0
39
0
210
0
220
0
230
1
50
360
0
POINT
5
186
100
AcDbEntity
8
Defpoints
62
0
6
ByLayer
370
-1
48
1
60
0
100
AcDbPoint
10
62
20
-49.882698
30
0
39
0
210
0
220
0
230
1
50
360
0
ENDBLK
5
17D
100
AcDbEntity
8
0
100
AcDbBlockEnd
0
BLOCK
5
18E
100
AcDbEntity
8
0
100
AcDbBlockBegin
2
_U3
70
0
10
0
20
0
30
0
3
_U3
0
MTEXT
5
188
100
AcDbEntity
8
SK2
62
256
6
ByLayer
370
18
48
1
60
0
100
AcDbMText
10
6.121201
20
-48.997584
30
0
210
0
220
0
230
1
1
\W0.6217;107
40
3
41
0
44
1.084337
50
0
71
7
72
5
7
iso_b_vert
0
LINE
5
189
100
AcDbEntity
8
SK2
62
256
6
ByLayer
370
13
48
1
60
0
100
AcDbLine
10
-45
20
-8.5875
30
0
11
-45
21
-51.882698
31
0
39
0
210
0
220
0
230
1
0
LINE
5
18A
100
AcDbEntity
8
SK2
62
256
6
ByLayer
370
13
48
1
60
0
100
AcDbLine
10
62
20
-7.739
30
0
11
62
21
-51.882698
31
0
39
0
210
0
220
0
230
1
0
LINE
5
18B
100
AcDbEntity
8
SK2
62
256
6
ByLayer
370
13
48
1
60
0
100
AcDbLine
10
-45
20
-49.882698
30
0
11
62
21
-49.882698
31
0
39
0
210
0
220
0
230
1
0
SOLID
5
18C
100
AcDbEntity
8
SK2
62
256
6
ByLayer
370
18
48
1
60
0
100
AcDbTrace
10
-45
20
-49.882698
30
0
11
-41.500002
21
-49.421914
31
0
12
-41.499998
22
-50.343482
32
0
13
-41.499998
23
-50.343482
33
0
39
0
210
0
220
0
230
1
0
SOLID
5
18D
100
AcDbEntity
8
SK2
62
256
6
ByLayer
370
18
48
1
60
0
100
AcDbTrace
10
62
20
-49.882698
30
0
11
58.500002
21
-50.343482
31
0
12
58.499998
22
-49.421914
32
0
13
58.499998
23
-49.421914
33
0
39
0
210
0
220
0
230
1
0
ENDBLK
5
18F
100
AcDbEntity
8
0
100
AcDbBlockEnd
0
BLOCK
5
194
100
AcDbEntity
8
0
100
AcDbBlockBegin
2
*D9
70
1
10
0
20
0
30
0
3
*D9
0
LINE
5
196
100
AcDbEntity
8
0
62
256
6
ByLayer
370
-2
48
1
60
0
100
AcDbLine
10
62
20
-7.739
30
0
11
62
21
-43.882698
31
0
39
0
210
0
220
0
230
1
0
LINE
5
197
100
AcDbEntity
8
0
62
256
6
ByLayer
370
-2
48
1
60
0
100
AcDbLine
10
0
20
-7.739
30
0
11
0
21
-43.882698
31
0
39
0
210
0
220
0
230
1
0
LINE
5
198
100
AcDbEntity
8
0
62
256
6
ByLayer
370
-2
48
1
60
0
100
AcDbLine
10
58.5
20
-41.882698
30
0
11
3.5
21
-41.882698
31
0
39
0
210
0
220
0
230
1
0
SOLID
5
199
100
AcDbEntity
8
0
62
256
6
ByLayer
370
-1
48
1
60
0
100
AcDbTrace
10
58.5
20
-42.466031
30
0
11
58.5
21
-41.299365
31
0
12
62
22
-41.882698
32
0
13
62
23
-41.882698
33
0
39
0
210
0
220
0
230
1
0
SOLID
5
19A
100
AcDbEntity
8
0
62
256
6
ByLayer
370
-1
48
1
60
0
100
AcDbTrace
10
3.5
20
-41.299365
30
0
11
3.5
21
-42.466031
31
0
12
0
22
-41.882698
32
0
13
0
23
-41.882698
33
0
39
0
210
0
220
0
230
1
0
MTEXT
5
19B
100
AcDbEntity
8
0
62
256
6
ByLayer
370
18
48
1
60
0
100
AcDbMText
10
31
20
-35.882698
30
0
210
0
220
0
230
1
1
\A1;62
40
3
41
0
44
1
50
0
71
5
72
5
7
iso_b_vert
0
POINT
5
19C
100
AcDbEntity
8
Defpoints
62
0
6
ByLayer
370
-1
48
1
60
0
100
AcDbPoint
10
62
20
-6.1515
30
0
39
0
210
0
220
0
230
1
50
360
0
POINT
5
19D
100
AcDbEntity
8
Defpoints
62
0
6
ByLayer
370
-1
48
1
60
0
100
AcDbPoint
10
0
20
-6.1515
30
0
39
0
210
0
220
0
230
1
50
360
0
POINT
5
19E
100
AcDbEntity
8
Defpoints
62
0
6
ByLayer
370
-1
48
1
60
0
100
AcDbPoint
10
0
20
-41.882698
30
0
39
0
210
0
220
0
230
1
50
360
0
ENDBLK
5
195
100
AcDbEntity
8
0
100
AcDbBlockEnd
0
BLOCK
5
1A6
100
AcDbEntity
8
0
100
AcDbBlockBegin
2
_U4
70
0
10
0
20
0
30
0
3
_U4
0
MTEXT
5
1A0
100
AcDbEntity
8
2
62
256
6
ByLayer
370
18
48
1
60
0
100
AcDbMText
10
29.367172
20
-40.997584
30
0
210
0
220
0
230
1
1
\W0.6740;62
40
3
41
0
44
1.084337
50
0
71
7
72
5
7
iso_b_vert
0
LINE
5
1A1
100
AcDbEntity
8
2
62
256
6
ByLayer
370
13
48
1
60
0
100
AcDbLine
10
62
20
-7.739
30
0
11
62
21
-43.882698
31
0
39
0
210
0
220
0
230
1
0
LINE
5
1A2
100
AcDbEntity
8
2
62
256
6
ByLayer
370
13
48
1
60
0
100
AcDbLine
10
0
20
-7.739
30
0
11
0
21
-43.882698
31
0
39
0
210
0
220
0
230
1
0
LINE
5
1A3
100
AcDbEntity
8
2
62
256
6
ByLayer
370
13
48
1
60
0
100
AcDbLine
10
62
20
-41.882698
30
0
11
0
21
-41.882698
31
0
39
0
210
0
220
0
230
1
0
SOLID
5
1A4
100
AcDbEntity
8
2
62
256
6
ByLayer
370
18
48
1
60
0
100
AcDbTrace
10
62
20
-41.882698
30
0
11
58.500002
21
-42.343482
31
0
12
58.499998
22
-41.421914
32
0
13
58.499998
23
-41.421914
33
0
39
0
210
0
220
0
230
1
0
SOLID
5
1A5
100
AcDbEntity
8
2
62
256
6
ByLayer
370
18
48
1
60
0
100
AcDbTrace
10
0
20
-41.882698
30
0
11
3.499998
21
-41.421914
31
0
12
3.500002
22
-42.343482
32
0
13
3.500002
23
-42.343482
33
0
39
0
210
0
220
0
230
1
0
ENDBLK
5
1A7
100
AcDbEntity
8
0
100
AcDbBlockEnd
0
ENDSEC
0
SECTION
2
ENTITIES
0
ARC
5
BC
100
AcDbEntity
8
1
62
256
6
ByLayer
370
18
48
1
60
0
100
AcDbCircle
39
0
10
1.463544
20
-6.84656
30
0
40
0.800000000000002
210
0
220
0
230
1
100
AcDbArc
50
89.896868
51
156.165243
0
ARC
5
BD
100
AcDbEntity
8
1
62
256
6
ByLayer
370
18
48
1
60
0
100
AcDbCircle
39
0
10
1.463544
20
6.84656
30
0
40
0.800000000000002
210
0
220
0
230
1
100
AcDbArc
50
203.834757
51
270.103132
0
ARC
5
BE
100
AcDbEntity
8
1
62
256
6
ByLayer
370
18
48
1
60
0
100
AcDbCircle
39
0
10
0
20
-6.2
30
0
40
0.800000000000002
210
0
220
0
230
1
100
AcDbArc
50
270
51
336.165243
0
ARC
5
BF
100
AcDbEntity
8
1
62
256
6
ByLayer
370
18
48
1
60
0
100
AcDbCircle
39
0
10
0
20
6.2
30
0
40
0.800000000000002
210
0
220
0
230
1
100
AcDbArc
50
23.834757
51
90
0
ARC
5
C0
100
AcDbEntity
8
SK2
62
256
6
ByLayer
370
13
48
1
60
0
100
AcDbCircle
39
0
10
62
20
0
30
0
40
22.8546545054876
210
0
220
0
230
1
100
AcDbArc
50
7.542657
51
69.999695
0
ARC
5
C1
100
AcDbEntity
8
SK2
62
256
6
ByLayer
370
13
48
1
60
0
100
AcDbCircle
39
0
10
62
20
0
30
0
40
22.8546545054876
210
0
220
0
230
1
100
AcDbArc
50
290.000305
51
352.457343
0
ELLIPSE
5
C2
100
AcDbEntity
8
1
62
256
6
ByLayer
370
13
48
1
60
0
100
AcDbEllipse
10
22.96084
20
-5.870199
30
0
11
-0.0043132385988799
21
0.00902197166860618
31
0
210
0
220
0
230
1
40
0.403538
41
0.011708565046651
42
1.39038310289396
0
ELLIPSE
5
C3
100
AcDbEntity
8
1
62
256
6
ByLayer
370
13
48
1
60
0
100
AcDbEllipse
10
23.000263
20
-5.86141
30
0
11
-6.65548841044512E-05
21
-0.00999977851991742
31
0
210
0
220
0
230
1
40
0.434968
41
-3.13198169571713
42
-1.56153485076349
0
POINT
5
70
100
AcDbEntity
8
81
62
256
6
ByLayer
370
18
48
1
60
0
100
AcDbPoint
10
62
20
0
30
0
39
0
210
0
220
0
230
1
50
360
0
POINT
5
72
100
AcDbEntity
8
80
62
256
6
ByLayer
370
18
48
1
60
0
100
AcDbPoint
10
0
20
0
30
0
39
0
210
0
220
0
230
1
50
360
0
POINT
5
74
100
AcDbEntity
8
1
62
256
6
ByLayer
370
18
48
1
60
0
100
AcDbPoint
10
-208.247673
20
-200
30
0
39
0
210
0
220
0
230
1
50
360
0
POINT
5
76
100
AcDbEntity
8
1
62
256
6
ByLayer
370
13
48
1
60
1
100
AcDbPoint
10
-46.5
20
0
30
0
39
0
210
0
220
0
230
1
50
360
0
POINT
5
77
100
AcDbEntity
8
1
62
256
6
ByLayer
370
13
48
1
60
1
100
AcDbPoint
10
61.278227
20
0
30
0
39
0
210
0
220
0
230
1
50
360
0
POINT
5
78
100
AcDbEntity
8
1
62
256
6
ByLayer
370
18
48
1
60
1
100
AcDbPoint
10
62
20
-6.1515
30
0
39
0
210
0
220
0
230
1
50
360
0
POINT
5
79
100
AcDbEntity
8
1
62
256
6
ByLayer
370
18
48
1
60
1
100
AcDbPoint
10
22.9
20
-6.1515
30
0
39
0
210
0
220
0
230
1
50
360
0
POINT
5
7A
100
AcDbEntity
8
1
62
256
6
ByLayer
370
18
48
1
60
1
100
AcDbPoint
10
62
20
-6.1515
30
0
39
0
210
0
220
0
230
1
50
360
0
POINT
5
7B
100
AcDbEntity
8
1
62
256
6
ByLayer
370
18
48
1
60
1
100
AcDbPoint
10
2
20
-6.1515
30
0
39
0
210
0
220
0
230
1
50
360
0
POINT
5
7C
100
AcDbEntity
8
1
62
256
6
ByLayer
370
18
48
1
60
1
100
AcDbPoint
10
-45
20
-7
30
0
39
0
210
0
220
0
230
1
50
360
0
POINT
5
7D
100
AcDbEntity
8
1
62
256
6
ByLayer
370
18
48
1
60
1
100
AcDbPoint
10
0
20
-7
30
0
39
0
210
0
220
0
230
1
50
360
0
POINT
5
7E
100
AcDbEntity
8
1
62
256
6
ByLayer
370
18
48
1
60
1
100
AcDbPoint
10
-45
20
-7
30
0
39
0
210
0
220
0
230
1
50
360
0
POINT
5
7F
100
AcDbEntity
8
1
62
256
6
ByLayer
370
18
48
1
60
1
100
AcDbPoint
10
62
20
-6.1515
30
0
39
0
210
0
220
0
230
1
50
360
0
POINT
5
80
100
AcDbEntity
8
1
62
256
6
ByLayer
370
18
48
1
60
1
100
AcDbPoint
10
62
20
-6.1515
30
0
39
0
210
0
220
0
230
1
50
360
0
POINT
5
81
100
AcDbEntity
8
1
62
256
6
ByLayer
370
18
48
1
60
1
100
AcDbPoint
10
0
20
-6.1515
30
0
39
0
210
0
220
0
230
1
50
360
0
SPLINE
5
C4
100
AcDbEntity
8
1
62
256
6
ByLayer
370
18
48
1
60
0
100
AcDbSpline
70
4
71
3
72
18
73
14
40
0
40
0
40
0
40
0
40
0.249999999999957
40
0.249999999999957
40
0.374999999999936
40
0.374999999999936
40
0.499999999999915
40
0.499999999999915
40
0.749999999999993
40
0.749999999999993
40
0.874999999999996
40
0.874999999999996
40
1
40
1
40
1
40
1
41
1
10
22.95648448166
20
-5.87029266823893
30
0
41
1
10
22.9466762817427
20
-5.87450796954136
30
0
41
1
10
22.9383802371075
20
-5.87976530261022
30
0
41
1
10
22.9276230286298
20
-5.8888068479113
30
0
41
1
10
22.924364204308
20
-5.89199363173148
30
0
41
1
10
22.9185418539934
20
-5.8985371859379
30
0
41
1
10
22.9159549538692
20
-5.90191418311011
30
0
41
1
10
22.9090734006596
20
-5.91232911059288
30
0
41
1
10
22.9056465419424
20
-5.91970705786323
30
0
41
1
10
22.9022793303318
20
-5.9308383071932
30
0
41
1
10
22.9014421460687
20
-5.93457593950993
30
0
41
1
10
22.9003221720102
20
-5.94210381629159
30
0
41
1
10
22.900040176177
20
-5.94592636414802
30
0
41
1
10
22.9000401761769
20
-5.94969554142077
30
0
0
SPLINE
5
C5
100
AcDbEntity
8
1
62
256
6
ByLayer
370
18
48
1
60
0
100
AcDbSpline
70
4
71
3
72
10
73
6
40
0
40
0
40
0
40
0
40
0.687241543376447
40
0.687241543376447
40
1
40
1
40
1
40
1
41
1
10
59.6610878643264
20
6.15123126157204
30
0
41
1
10
59.6871605537656
20
6.10869971660037
30
0
41
1
10
59.7132718714155
20
6.06596054038957
30
0
41
1
10
59.7512206719817
20
6.0036958399231
30
0
41
1
10
59.7630649815874
20
5.98425003036934
30
0
41
1
10
59.7749463824964
20
5.96469813704152
30
0
0
SPLINE
5
C6
100
AcDbEntity
8
1
62
256
6
ByLayer
370
18
48
1
60
0
100
AcDbSpline
70
4
71
3
72
8
73
4
40
0
40
0
40
0
40
0
40
1
40
1
40
1
40
1
41
1
10
61.378396366438
20
2.00281821006115
30
0
41
1
10
61.5416716006629
20
1.54600450133336
30
0
41
1
10
61.7035773347804
20
1.08870946408473
30
0
41
1
10
61.864085703673
20
0.630923304759477
30
0
0
SPLINE
5
C7
100
AcDbEntity
8
1
62
256
6
ByLayer
370
18
48
1
60
0
100
AcDbSpline
70
4
71
3
72
10
73
6
40
0
40
0
40
0
40
0
40
0.5
40
0.5
40
1
40
1
40
1
40
1
41
1
10
22.9959128996996
20
-5.86147390972243
30
0
41
1
10
22.9891047085862
20
-5.86143374154449
30
0
41
1
10
22.9824099220268
20
-5.86215429503895
30
0
41
1
10
22.9692441560059
20
-5.86507707229509
30
0
41
1
10
22.9627269058786
20
-5.86730445928956
30
0
41
1
10
22.95648448166
20
-5.87029266823893
30
0
0
SPLINE
5
C8
100
AcDbEntity
8
1
62
256
6
ByLayer
370
13
48
1
60
0
100
AcDbSpline
70
4
71
3
72
8
73
4
40
0
40
0
40
0
40
0
40
1
40
1
40
1
40
1
41
1
10
22.9551837360362
20
-6.08490385252139
30
0
41
1
10
22.9556126839093
20
-6.0133668369817
30
0
41
1
10
22.9560462674873
20
-5.94182977596714
30
0
41
1
10
22.9564844816599
20
-5.87029266823893
30
0
0
SPLINE
5
C9
100
AcDbEntity
8
1
62
256
6
ByLayer
370
18
48
1
60
0
100
AcDbSpline
70
4
71
3
72
8
73
4
40
0
40
0
40
0
40
0
40
1
40
1
40
1
40
1
41
1
10
23.3209774774889
20
-5.86125186163068
30
0
41
1
10
23.2126973730116
20
-5.8620381524197
30
0
41
1
10
23.1043448619584
20
-5.86211365591652
30
0
41
1
10
22.9959128996997
20
-5.86147390972243
30
0
0
SPLINE
5
CA
100
AcDbEntity
8
1
62
256
6
ByLayer
370
18
48
1
60
0
100
AcDbSpline
70
4
71
3
72
8
73
4
40
0
40
0
40
0
40
0
40
1
40
1
40
1
40
1
41
1
10
61.864085703673
20
0.630923304759506
30
0
41
1
10
61.9077336815756
20
0.506434841608325
30
0
41
1
10
61.9522419149458
20
0.382423848070601
30
0
41
1
10
61.9976085192646
20
0.258873374359211
30
0
0
SPLINE
5
CB
100
AcDbEntity
8
1
62
256
6
ByLayer
370
18
48
1
60
0
100
AcDbSpline
70
4
71
3
72
8
73
4
40
0
40
0
40
0
40
0
40
1
40
1
40
1
40
1
41
1
10
23.0002876638787
20
-5.85141065144629
30
0
41
1
10
23.0955910837682
20
-5.85204426983989
30
0
41
1
10
23.1908332577387
20
-5.85212608988485
30
0
41
1
10
23.2860189664472
20
-5.85165912995225
30
0
0
SPLINE
5
CC
100
AcDbEntity
8
1
62
256
6
ByLayer
370
18
48
1
60
0
100
AcDbSpline
70
4
71
3
72
18
73
14
40
0
40
0
40
0
40
0
40
0.249999999999798
40
0.249999999999798
40
0.374999999999789
40
0.374999999999789
40
0.499999999999781
40
0.499999999999781
40
0.749999999999884
40
0.749999999999884
40
0.874999999999942
40
0.874999999999942
40
1
40
1
40
1
40
1
41
1
10
22.95648448166
20
-5.86119825540089
30
0
41
1
10
22.9466766556997
20
-5.86589291344867
30
0
41
1
10
22.9383799542191
20
-5.87174912821706
30
0
41
1
10
22.9276217961966
20
-5.88182314836521
30
0
41
1
10
22.9243627034655
20
-5.88537414790801
30
0
41
1
10
22.9185400274339
20
-5.89266612079123
30
0
41
1
10
22.9159530530749
20
-5.89642964313509
30
0
41
1
10
22.9090715150101
20
-5.90803751385158
30
0
41
1
10
22.905645031298
20
-5.91626171257042
30
0
41
1
10
22.9022785512155
20
-5.9286708724386
30
0
41
1
10
22.9014416199174
20
-5.93283781265029
30
0
41
1
10
22.9003220351175
20
-5.94123077194249
30
0
41
1
10
22.900040176177
20
-5.94549283081633
30
0
41
1
10
22.9000401761769
20
-5.94969554142088
30
0
0
SPLINE
5
CD
100
AcDbEntity
8
1
62
256
6
ByLayer
370
18
48
1
60
0
100
AcDbSpline
70
4
71
3
72
10
73
6
40
0
40
0
40
0
40
0
40
0.5
40
0.5
40
1
40
1
40
1
40
1
41
1
10
23.0002876638789
20
-5.85141065144629
30
0
41
1
10
22.9927149570028
20
-5.85136346491063
30
0
41
1
10
22.9852729879879
20
-5.85216366272346
30
0
41
1
10
22.9706459507615
20
-5.85540953980723
30
0
41
1
10
22.9634080201841
20
-5.85788420333836
30
0
41
1
10
22.9564844816601
20
-5.86119825540084
30
0
0
SPLINE
5
CE
100
AcDbEntity
8
1
62
256
6
ByLayer
370
13
48
1
60
0
100
AcDbSpline
70
4
71
3
72
46
73
42
40
0
40
0
40
0
40
0
40
0.0568410812196391
40
0.0568410812196391
40
0.0882797118456512
40
0.0882797118456512
40
0.119718342471663
40
0.119718342471663
40
0.182595603723688
40
0.245472864975712
40
0.308350126227737
40
0.308350126227737
40
0.339788756853748
40
0.339788756853748
40
0.371227387479761
40
0.371227387479761
40
0.434104648731785
40
0.434104648731785
40
0.465543279357797
40
0.481262594670803
40
0.481262594670803
40
0.496981909983809
40
0.496981909983809
40
0.559859171235833
40
0.622736432487856
40
0.68561369373988
40
0.68561369373988
40
0.717052324365892
40
0.732771639678898
40
0.732771639678898
40
0.748490954991904
40
0.748490954991904
40
0.811368216243928
40
0.811368216243928
40
0.874245477495952
40
0.937122738747976
40
0.937122738747976
40
0.968561369373988
40
0.984280684686994
40
0.984280684686994
40
1
40
1
40
1
40
1
41
1
10
23.0009128326276
20
-1.2867797766811
30
0
41
1
10
23.0009061976566
20
-1.43281874517797
30
0
41
1
10
23.0008989236076
20
-1.5772989345993
30
0
41
1
10
23.0008867328057
20
-1.79928013755082
30
0
41
1
10
23.0008822116297
20
-1.87791346180705
30
0
41
1
10
23.0008728481713
20
-2.03398537724405
30
0
41
1
10
23.0008680221735
20
-2.11115819647307
30
0
41
1
10
23.0008531459293
20
-2.34013449836272
30
0
41
1
10
23.0008322518841
20
-2.63866615641908
30
0
41
1
10
23.0007981695034
20
-3.06656414459451
30
0
41
1
10
23.000773820156
20
-3.33855258673461
30
0
41
1
10
23.0007549915847
20
-3.53745490775421
30
0
41
1
10
23.0007486163882
20
-3.6029488647217
30
0
41
1
10
23.0007356978065
20
-3.73202619887209
30
0
41
1
10
23.0007291829776
20
-3.79532679969793
30
0
41
1
10
23.0007094811299
20
-3.98155120264215
30
0
41
1
10
23.0006961379795
20
-4.10080410405212
30
0
41
1
10
23.0006758246039
20
-4.27236569853446
30
0
41
1
10
23.0006655927899
20
-4.35631460977601
30
0
41
1
10
23.0006552467493
20
-4.43749851537646
30
0
41
1
10
23.000648323539
20
-4.49100318986512
30
0
41
1
10
23.0006448463693
20
-4.5174659484
30
0
41
1
10
23.000627456967
20
-4.64776305666075
30
0
41
1
10
23.0005995377647
20
-4.84395887937322
30
0
41
1
10
23.0005572493869
20
-5.10248471046407
30
0
41
1
10
23.000528644165
20
-5.25117919349324
30
0
41
1
10
23.0005069595954
20
-5.35371294883421
30
0
41
1
10
23.000496059247
20
-5.40273008693546
30
0
41
1
10
23.0004850538183
20
-5.44832291691591
30
0
41
1
10
23.0004776912302
20
-5.4779496041742
30
0
41
1
10
23.0004739931907
20
-5.49239305111826
30
0
41
1
10
23.0004555128064
20
-5.56237272676461
30
0
41
1
10
23.0004407198645
20
-5.61138700527829
30
0
41
1
10
23.0004109749267
20
-5.69588519325134
30
0
41
1
10
23.0003810712195
20
-5.76685116186852
30
0
41
1
10
23.0003505383331
20
-5.81097578382165
30
0
41
1
10
23.0003272717568
20
-5.83387381525625
30
0
41
1
10
23.0003155464523
20
-5.84277061362519
30
0
41
1
10
23.0003036558425
20
-5.84778310303824
30
0
41
1
10
23.0002956887861
20
-5.85025303598434
30
0
41
1
10
23.0002916829054
20
-5.85105217738982
30
0
41
1
10
23.0002876638789
20
-5.85141065144629
30
0
0
SPLINE
5
CF
100
AcDbEntity
8
1
62
256
6
ByLayer
370
18
48
1
60
0
100
AcDbSpline
70
4
71
3
72
10
73
6
40
0
40
0
40
0
40
0
40
0.5
40
0.5
40
1
40
1
40
1
40
1
41
1
10
61.3783963664424
20
2.00281821006271
30
0
41
1
10
61.2446535488673
20
1.98724273847071
30
0
41
1
10
61.1107839320654
20
1.97329376248646
30
0
41
1
10
60.8428664560444
20
1.9476821849338
30
0
41
1
10
60.7088180700686
20
1.93602634024799
30
0
41
1
10
60.5747067143548
20
1.92517822921044
30
0
0
SPLINE
5
D0
100
AcDbEntity
8
1
62
256
6
ByLayer
370
18
48
1
60
0
100
AcDbSpline
70
4
71
3
72
31
73
27
40
0
40
0
40
0
40
0
40
0.0624999999999989
40
0.0624999999999989
40
0.124999999999998
40
0.124999999999998
40
0.249999999999995
40
0.249999999999995
40
0.312499999999992
40
0.312499999999992
40
0.343749999999991
40
0.343749999999991
40
0.374999999999989
40
0.437499999999986
40
0.437499999999986
40
0.468749999999986
40
0.468749999999986
40
0.499999999999986
40
0.499999999999986
40
0.624999999999989
40
0.624999999999989
40
0.749999999999993
40
0.749999999999993
40
0.874999999999996
40
0.874999999999996
40
1
40
1
40
1
40
1
41
1
10
61.3783963664383
20
2.00281821006089
30
0
41
1
10
61.3427550984192
20
2.06872148593877
30
0
41
1
10
61.3076939919338
20
2.13570410724921
30
0
41
1
10
61.2386224094963
20
2.27168281294698
30
0
41
1
10
61.2046190761464
20
2.3406979987175
30
0
41
1
10
61.1041282302975
20
2.55086630899609
30
0
41
1
10
61.0391527945891
20
2.69511254007071
30
0
41
1
10
60.9442702005093
20
2.91765179999544
30
0
41
1
10
60.9130723858852
20
2.99286123206503
30
0
41
1
10
60.8668588042385
20
3.10722477841085
30
0
41
1
10
60.8515301460657
20
3.14565916788013
30
0
41
1
10
60.8212354160419
20
3.22258592065299
30
0
41
1
10
60.77628972592
20
3.3381766918817
30
0
41
1
10
60.7327488491365
20
3.45433773157706
30
0
41
1
10
60.6900366865415
20
3.57083859420791
30
0
41
1
10
60.6759398329667
20
3.60972984634503
30
0
41
1
10
60.6479898054856
20
3.68761287835429
30
0
41
1
10
60.6340473865001
20
3.72656791858594
30
0
41
1
10
60.5644081088399
20
3.92137392123993
30
0
41
1
10
60.5090216850689
20
4.07735509312138
30
0
41
1
10
60.3988285133232
20
4.38956972485772
30
0
41
1
10
60.3440614540556
20
4.54569351011907
30
0
41
1
10
60.2351380303114
20
4.85781424637167
30
0
41
1
10
60.1809741297731
20
5.01382844380746
30
0
41
1
10
60.0732237083618
20
5.32545862170215
30
0
41
1
10
60.0196305406549
20
5.48109306701016
30
0
41
1
10
59.9662982203927
20
5.63631544960344
30
0
0
SPLINE
5
D1
100
AcDbEntity
8
1
62
256
6
ByLayer
370
18
48
1
60
0
100
AcDbSpline
70
4
71
3
72
8
73
4
40
0
40
0
40
0
40
0
40
1
40
1
40
1
40
1
41
1
10
59.9662982203926
20
5.63631544960342
30
0
41
1
10
59.9166796778999
20
5.72240532026709
30
0
41
1
10
59.8670815197318
20
5.80849294165964
30
0
41
1
10
59.8175097753784
20
5.89456669349784
30
0
0
SPLINE
5
D2
100
AcDbEntity
8
1
62
256
6
ByLayer
370
18
48
1
60
0
100
AcDbSpline
70
4
71
3
72
26
73
22
40
0
40
0
40
0
40
0
40
0.126182963806827
40
0.126182963806827
40
0.252365927613653
40
0.252365927613653
40
0.37854889142048
40
0.37854889142048
40
0.441640373323891
40
0.441640373323891
40
0.504731855227303
40
0.504731855227303
40
0.630914819034129
40
0.630914819034129
40
0.757097782840956
40
0.757097782840956
40
0.820189264744369
40
0.820189264744369
40
0.883280746647783
40
0.883280746647783
40
1
40
1
40
1
40
1
41
1
10
59.8175097753785
20
5.89456669349781
30
0
41
1
10
59.4327339230313
20
5.89824517780548
30
0
41
1
10
59.0481535131922
20
5.89304426953922
30
0
41
1
10
58.2785486569624
20
5.86469177700201
30
0
41
1
10
57.8936901804586
20
5.84156291418546
30
0
41
1
10
57.124029811793
20
5.77779964986991
30
0
41
1
10
56.739490721194
20
5.73719566425902
30
0
41
1
10
56.1624990734193
20
5.66353543691179
30
0
41
1
10
55.9701411680229
20
5.63685528161173
30
0
41
1
10
55.5853027921065
20
5.57928695327681
30
0
41
1
10
55.3929055175225
20
5.54841131875548
30
0
41
1
10
54.8161811648976
20
5.44961977108127
30
0
41
1
10
54.4321410575807
20
5.37549393017176
30
0
41
1
10
53.6641036149555
20
5.21126511504218
30
0
41
1
10
53.280130346167
20
5.12108809817954
30
0
41
1
10
52.7038105939087
20
4.97424763510637
30
0
41
1
10
52.5116440006245
20
4.92337917491406
30
0
41
1
10
52.1270948818495
20
4.81792363976894
30
0
41
1
10
51.9346533654609
20
4.76331905023548
30
0
41
1
10
51.3864135653773
20
4.60271177485248
30
0
41
1
10
51.0306661329965
20
4.49245472087367
30
0
41
1
10
50.6748265031692
20
4.37657110157113
30
0
0
SPLINE
5
D3
100
AcDbEntity
8
1
62
256
6
ByLayer
370
18
48
1
60
0
100
AcDbSpline
70
4
71
3
72
24
73
20
40
0
40
0
40
0
40
0
40
0.0880068679713286
40
0.0880068679713286
40
0.218291601118281
40
0.218291601118281
40
0.348576334265233
40
0.348576334265233
40
0.413718700838709
40
0.413718700838709
40
0.478861067412185
40
0.478861067412185
40
0.609145800559139
40
0.609145800559139
40
0.739430533706092
40
0.739430533706092
40
0.869715266853046
40
0.869715266853046
40
1
40
1
40
1
40
1
41
1
10
59.6192881033617
20
1.21303520532965
30
0
41
1
10
59.6424127740616
20
1.20613413285068
30
0
41
1
10
59.6659097051807
20
1.19856882627292
30
0
41
1
10
59.7250237394206
20
1.17831859318329
30
0
41
1
10
59.7610670862406
20
1.16487310878014
30
0
41
1
10
59.8342838207065
20
1.13596577827991
30
0
41
1
10
59.8714255018493
20
1.12056050693366
30
0
41
1
10
59.9277795004862
20
1.09630799569732
30
0
41
1
10
59.9466753378613
20
1.08802182386938
30
0
41
1
10
59.9845405299357
20
1.07111360815253
30
0
41
1
10
60.0035289343115
20
1.06248319952652
30
0
41
1
10
60.0606561656696
20
1.03608015159656
30
0
41
1
10
60.0989542524329
20
1.017804404293
30
0
41
1
10
60.1759172099405
20
0.980094224461396
30
0
41
1
10
60.2145767310793
20
0.960676691550503
30
0
41
1
10
60.2922877011752
20
0.920603510120344
30
0
41
1
10
60.3313435230561
20
0.899934047360119
30
0
41
1
10
60.4098540880557
20
0.857334913739379
30
0
41
1
10
60.4493025254166
20
0.835425163019352
30
0
41
1
10
60.488921983815
20
0.812975150021202
30
0
0
SPLINE
5
D4
100
AcDbEntity
8
1
62
256
6
ByLayer
370
18
48
1
60
0
100
AcDbSpline
70
4
71
3
72
28
73
24
40
0
40
0
40
0
40
0
40
0.130706157966865
40
0.130706157966865
40
0.26141231593373
40
0.26141231593373
40
0.326765394917174
40
0.326765394917174
40
0.392118473900618
40
0.392118473900618
40
0.522824631867507
40
0.522824631867507
40
0.588177710850962
40
0.588177710850962
40
0.653530789834417
40
0.653530789834417
40
0.784236947801345
40
0.784236947801345
40
0.849590026784801
40
0.849590026784801
40
0.914943105768257
40
0.914943105768257
40
1
40
1
40
1
40
1
41
1
10
60.5747067143548
20
1.92517822921039
30
0
41
1
10
60.5028552717489
20
1.91936624987838
30
0
41
1
10
60.4318295726566
20
1.90966819359332
30
0
41
1
10
60.291479066635
20
1.88228100487325
30
0
41
1
10
60.2221560291545
20
1.86458344584537
30
0
41
1
10
60.1194328378698
20
1.83212661177953
30
0
41
1
10
60.0852766506276
20
1.82027424743305
30
0
41
1
10
60.0184997173429
20
1.79512867019918
30
0
41
1
10
59.9857686862402
20
1.78180885267238
30
0
41
1
10
59.8894217251502
20
1.73994408089635
30
0
41
1
10
59.8276455575212
20
1.70950307463411
30
0
41
1
10
59.7382327422956
20
1.66128208999982
30
0
41
1
10
59.7089709467368
20
1.64478145755746
30
0
41
1
10
59.6514657169849
20
1.61113454258944
30
0
41
1
10
59.6234862401679
20
1.59414451481297
30
0
41
1
10
59.5419827608093
20
1.54323309511045
30
0
41
1
10
59.4907148495776
20
1.5092920601345
30
0
41
1
10
59.4177557710349
20
1.45939612081665
30
0
41
1
10
59.3940970997909
20
1.44293049039894
30
0
41
1
10
59.3480338446415
20
1.41047716729008
30
0
41
1
10
59.3255862739359
20
1.39445754577264
30
0
41
1
10
59.2759956198245
20
1.35878407717348
30
0
41
1
10
59.2493623012311
20
1.33937862515074
30
0
41
1
10
59.2240035903678
20
1.32087238557929
30
0
0
SPLINE
5
D5
100
AcDbEntity
8
1
62
256
6
ByLayer
370
18
48
1
60
0
100
AcDbSpline
70
4
71
3
72
8
73
4
40
0
40
0
40
0
40
0
40
1
40
1
40
1
40
1
41
1
10
59.9662982203926
20
-5.63631544960342
30
0
41
1
10
59.9166796779007
20
-5.72240532026558
30
0
41
1
10
59.8670815197335
20
-5.8084929416566
30
0
41
1
10
59.817509775381
20
-5.89456669349332
30
0
0
SPLINE
5
D6
100
AcDbEntity
8
1
62
256
6
ByLayer
370
18
48
1
60
0
100
AcDbSpline
70
4
71
3
72
8
73
4
40
0
40
0
40
0
40
0
40
1
40
1
40
1
40
1
41
1
10
22.900040176177
20
6.03604433716851
30
0
41
1
10
22.900040176177
20
5.97627306616866
30
0
41
1
10
22.9000401761769
20
5.91613323500508
30
0
41
1
10
22.9000401761769
20
5.85563081656764
30
0
0
SPLINE
5
D7
100
AcDbEntity
8
1
62
256
6
ByLayer
370
18
48
1
60
0
100
AcDbSpline
70
4
71
3
72
24
73
20
40
0
40
0
40
0
40
0
40
0.499999999999961
40
0.499999999999961
40
0.749999999999971
40
0.749999999999971
40
0.812499999999963
40
0.812499999999963
40
0.874999999999955
40
0.937499999999948
40
0.937499999999948
40
0.968749999999915
40
0.968749999999915
40
0.984374999999925
40
0.992187499999959
40
0.992187499999959
40
0.99609374999998
40
0.99609374999998
40
1
40
1
40
1
40
1
41
1
10
59.6610878643264
20
-6.15123126157201
30
0
41
1
10
59.6871605537659
20
-6.10869971659966
30
0
41
1
10
59.7132718714163
20
-6.06596054038815
30
0
41
1
10
59.7523918598226
20
-6.00177420711739
30
0
41
1
10
59.765402283763
20
-5.9804125637892
30
0
41
1
10
59.7817304497315
20
-5.95353047916296
30
0
41
1
10
59.7849999736351
20
-5.9481436889335
30
0
41
1
10
59.7915503303854
20
-5.93734190322729
30
0
41
1
10
59.7981164638848
20
-5.92650222081406
30
0
41
1
10
59.8046361651554
20
-5.91575659715625
30
0
41
1
10
59.8094662374555
20
-5.90782128674158
30
0
41
1
10
59.8110700889155
20
-5.90518889557023
30
0
41
1
10
59.8135199550201
20
-5.90114526160673
30
0
41
1
10
59.8147552995288
20
-5.89910086800924
30
0
41
1
10
59.8160085163396
20
-5.89701661947709
30
0
41
1
10
59.8166378467106
20
-5.8959682451889
30
0
41
1
10
59.8168496186908
20
-5.89561448024409
30
0
41
1
10
59.817255752781
20
-5.89494483582243
30
0
41
1
10
59.8174897816075
20
-5.89456413003421
30
0
41
1
10
59.8175097753787
20
-5.89456669349786
30
0
0
SPLINE
5
D8
100
AcDbEntity
8
1
62
256
6
ByLayer
370
18
48
1
60
0
100
AcDbSpline
70
4
71
3
72
58
73
54
40
0
40
0
40
0
40
0
40
0.0042044625882291
40
0.0042044625882291
40
0.0318654497385554
40
0.0318654497385554
40
0.0595264368888817
40
0.0595264368888817
40
0.114848411189534
40
0.114848411189534
40
0.170170385490186
40
0.170170385490186
40
0.225492359790839
40
0.225492359790839
40
0.280814334091491
40
0.280814334091491
40
0.308475321241817
40
0.308475321241817
40
0.336136308392144
40
0.336136308392144
40
0.391458282692796
40
0.391458282692796
40
0.419119269843123
40
0.419119269843123
40
0.44678025699345
40
0.44678025699345
40
0.502102231294104
40
0.502102231294104
40
0.557424205594758
40
0.557424205594758
40
0.585085192745085
40
0.585085192745085
40
0.612746179895412
40
0.612746179895412
40
0.640407167045739
40
0.640407167045739
40
0.668068154196066
40
0.668068154196066
40
0.723390128496722
40
0.723390128496722
40
0.778712102797377
40
0.778712102797377
40
0.806373089947704
40
0.806373089947704
40
0.834034077098031
40
0.834034077098031
40
0.889356051398687
40
0.889356051398687
40
0.944678025699343
40
0.944678025699343
40
0.972339012849671
40
0.972339012849671
40
1
40
1
40
1
40
1
41
1
10
43.755245455744
20
-1.54995967916659
30
0
41
1
10
43.7260133450279
20
-1.53624673253401
30
0
41
1
10
43.6967814046496
20
-1.52251994942978
30
0
41
1
10
43.4752341066782
20
-1.41838229401355
30
0
41
1
10
43.2829217747245
20
-1.32739536651948
30
0
41
1
10
42.8982124346521
20
-1.14443146290222
30
0
41
1
10
42.7057976476537
20
-1.05244743070483
30
0
41
1
10
42.1285765299925
20
-0.775494200864358
30
0
41
1
10
41.7436863037526
20
-0.589482566692595
30
0
41
1
10
40.9740099282026
20
-0.216294745808739
30
0
41
1
10
40.5890762002978
20
-0.02892763043792
30
0
41
1
10
39.8199200681757
20
0.344834844357507
30
0
41
1
10
39.4356012058609
20
0.531269112837862
30
0
41
1
10
38.6669425467286
20
0.902113385683492
30
0
41
1
10
38.2826268989532
20
1.08657356189602
30
0
41
1
10
37.7055682806972
20
1.36059914540363
30
0
41
1
10
37.513131297234
20
1.45147659212685
30
0
41
1
10
37.1285349665668
20
1.63190878371373
30
0
41
1
10
36.9363066865089
20
1.72149757036684
30
0
41
1
10
36.3597278851025
20
1.98818982586809
30
0
41
1
10
35.9755249955855
20
2.16330148950513
30
0
41
1
10
35.3988914496243
20
2.42075160872855
30
0
41
1
10
35.2066236923018
20
2.50569598465759
30
0
41
1
10
34.8218964746064
20
2.67369498017345
30
0
41
1
10
34.6294337013506
20
2.75675089900815
30
0
41
1
10
34.0521812502113
20
3.00267863195094
30
0
41
1
10
33.6673389342056
20
3.16244384598974
30
0
41
1
10
32.8976868070444
20
3.47188665693989
30
0
41
1
10
32.513134286954
20
3.62136869409889
30
0
41
1
10
31.9362783883181
20
3.83707887336283
30
0
41
1
10
31.7439888582039
20
3.90756788538104
30
0
41
1
10
31.3593414249025
20
4.04563591051337
30
0
41
1
10
31.1669475872372
20
4.11321997901624
30
0
41
1
10
30.7821390020021
20
4.2452047274125
30
0
41
1
10
30.5897230156462
20
4.30961178869441
30
0
41
1
10
30.2048695818744
20
4.43511798264362
30
0
41
1
10
30.0124009424443
20
4.49622781867799
30
0
41
1
10
29.4353051790219
20
4.67433223380013
30
0
41
1
10
29.0510149153367
20
4.78614174042806
30
0
41
1
10
28.2826245932926
20
4.99491665117674
30
0
41
1
10
27.8984882160025
20
5.09178302128271
30
0
41
1
10
27.3218926302559
20
5.22544114309469
30
0
41
1
10
27.1296304229194
20
5.2680578518958
30
0
41
1
10
26.7449227846555
20
5.34935706066369
30
0
41
1
10
26.5525171006987
20
5.38802826360836
30
0
41
1
10
25.9757358737323
20
5.49780495713651
30
0
41
1
10
25.5915083715733
20
5.56274440786757
30
0
41
1
10
24.8230483798582
20
5.67579272815826
30
0
41
1
10
24.4388492767825
20
5.7238944694088
30
0
41
1
10
23.8620850099679
20
5.78311564214801
30
0
41
1
10
23.6697071241334
20
5.80070405052692
30
0
41
1
10
23.2848677613427
20
5.83148022217307
30
0
41
1
10
23.0924633722491
20
5.84466536356254
30
0
41
1
10
22.9000401761428
20
5.85563081686337
30
0
0
SPLINE
5
D9
100
AcDbEntity
8
1
62
256
6
ByLayer
370
18
48
1
60
0
100
AcDbSpline
70
2053
71
3
72
116
73
112
40
0
40
0
40
0
40
0
40
0.0312500000000079
40
0.0312500000000079
40
0.0625000000000157
40
0.0625000000000157
40
0.0937500000000236
40
0.0937500000000236
40
0.125000000000031
40
0.125000000000031
40
0.156250000000039
40
0.156250000000039
40
0.187500000000047
40
0.187500000000047
40
0.218750000000055
40
0.218750000000055
40
0.234375000000059
40
0.234375000000059
40
0.242187500000061
40
0.242187500000061
40
0.250000000000063
40
0.250000000000063
40
0.281250000000072
40
0.281250000000072
40
0.296875000000075
40
0.296875000000075
40
0.304687500000078
40
0.304687500000078
40
0.31250000000008
40
0.31250000000008
40
0.343750000000085
40
0.343750000000085
40
0.351562500000086
40
0.351562500000086
40
0.359375000000087
40
0.375000000000088
40
0.390625000000089
40
0.390625000000089
40
0.40625000000009
40
0.40625000000009
40
0.421875000000091
40
0.421875000000091
40
0.437500000000091
40
0.437500000000091
40
0.468750000000093
40
0.468750000000093
40
0.484375000000094
40
0.484375000000094
40
0.492187500000094
40
0.492187500000094
40
0.500000000000094
40
0.500000000000094
40
0.531250000000099
40
0.531250000000099
40
0.539062500000098
40
0.539062500000098
40
0.546875000000097
40
0.546875000000097
40
0.562500000000093
40
0.562500000000093
40
0.593750000000085
40
0.593750000000085
40
0.601562500000082
40
0.601562500000082
40
0.609375000000079
40
0.609375000000079
40
0.625000000000075
40
0.625000000000075
40
0.656250000000067
40
0.656250000000067
40
0.671875000000063
40
0.671875000000063
40
0.687500000000059
40
0.687500000000059
40
0.71875000000005
40
0.71875000000005
40
0.734375000000046
40
0.734375000000046
40
0.750000000000042
40
0.750000000000042
40
0.781250000000033
40
0.781250000000033
40
0.789062500000031
40
0.789062500000031
40
0.796875000000029
40
0.796875000000029
40
0.812500000000025
40
0.828125000000021
40
0.828125000000021
40
0.835937500000019
40
0.835937500000019
40
0.843750000000017
40
0.843750000000017
40
0.875000000000013
40
0.875000000000013
40
0.882812500000011
40
0.882812500000011
40
0.89062500000001
40
0.906250000000007
40
0.921875000000004
40
0.921875000000004
40
0.937500000000001
40
0.937500000000001
40
0.968749999999998
40
0.968749999999998
40
0.976562499999999
40
0.976562499999999
40
0.984374999999999
40
0.9921875
40
0.9921875
40
1
40
1
40
1
40
1
41
1
10
60.4125721839604
20
-2.67731746804159
30
0
41
1
10
60.3906829947783
20
-2.70556571119485
30
0
41
1
10
60.3697508650652
20
-2.72897140067997
30
0
41
1
10
60.3295866075465
20
-2.76666733182168
30
0
41
1
10
60.3103555986389
20
-2.78095514702869
30
0
41
1
10
60.2735202396806
20
-2.80000716402469
30
0
41
1
10
60.2564248998374
20
-2.80450277776271
30
0
41
1
10
60.2246825405049
20
-2.80366935605377
30
0
41
1
10
60.2100277398361
20
-2.79834808415765
30
0
41
1
10
60.1831520879732
20
-2.77713182410383
30
0
41
1
10
60.1713216747146
20
-2.76153175034392
30
0
41
1
10
60.1507691916941
20
-2.72045820599945
30
0
41
1
10
60.1420322006731
20
-2.69498432348698
30
0
41
1
10
60.127844031362
20
-2.63308423035593
30
0
41
1
10
60.1226392309749
20
-2.5977132892468
30
0
41
1
10
60.1176631506456
20
-2.53806060443881
30
0
41
1
10
60.1164791842783
20
-2.51706493740193
30
0
41
1
10
60.1154517419308
20
-2.48382166374537
30
0
41
1
10
60.1152343062145
20
-2.47244836149184
30
0
41
1
10
60.1150596096785
20
-2.44909557865756
30
0
41
1
10
60.1151034904354
20
-2.43708458275469
30
0
41
1
10
60.115987855738
20
-2.37625070575396
30
0
41
1
10
60.1187841775121
20
-2.32464230149955
30
0
41
1
10
60.1262671608312
20
-2.24274942884188
30
0
41
1
10
60.1293143046685
20
-2.21469949805723
30
0
41
1
10
60.1347838828847
20
-2.17142936256067
30
0
41
1
10
60.1367523185909
20
-2.15685292489241
30
0
41
1
10
60.1409396395717
20
-2.12770164059495
30
0
41
1
10
60.1431640119419
20
-2.11308251759951
30
0
41
1
10
60.154940058518
20
-2.03977403485629
30
0
41
1
10
60.1664307248481
20
-1.9804528237554
30
0
41
1
10
60.1836237082342
20
-1.90546215828141
30
0
41
1
10
60.1872016313461
20
-1.89044252207495
30
0
41
1
10
60.1945494453242
20
-1.86072305207577
30
0
41
1
10
60.2058940415428
20
-1.81647470860168
30
0
41
1
10
60.2263991600367
20
-1.74434265414376
30
0
41
1
10
60.2445234471464
20
-1.68833508675317
30
0
41
1
10
60.2635399067557
20
-1.6331901101309
30
0
41
1
10
60.2733314183946
20
-1.60652216942248
30
0
41
1
10
60.293437513902
20
-1.55495689990528
30
0
41
1
10
60.3037566226394
20
-1.53004715685978
30
0
41
1
10
60.324922468307
20
-1.48191531588267
30
0
41
1
10
60.3357869979425
20
-1.45865773414792
30
0
41
1
10
60.36906967345
20
-1.39162689954563
30
0
41
1
10
60.3916400740692
20
-1.35161852455656
30
0
41
1
10
60.4260231806652
20
-1.29790236837022
30
0
41
1
10
60.4375722859116
20
-1.28105529236876
30
0
41
1
10
60.4550233819757
20
-1.25735185408931
30
0
41
1
10
60.4608542471612
20
-1.24972381869611
30
0
41
1
10
60.4724562272512
20
-1.23511209844821
30
0
41
1
10
60.4782395441477
20
-1.22811161745744
30
0
41
1
10
60.507067592386
20
-1.19459234056637
30
0
41
1
10
60.5298507313603
20
-1.17248389070926
30
0
41
1
10
60.5579363189467
20
-1.15045056655595
30
0
41
1
10
60.5635335190671
20
-1.1463263895553
30
0
41
1
10
60.5746859521062
20
-1.13864532803566
30
0
41
1
10
60.5802462137721
20
-1.13508661791596
30
0
41
1
10
60.5967248096064
20
-1.12534368883502
30
0
41
1
10
60.6074856733241
20
-1.12005771029342
30
0
41
1
10
60.6390889327714
20
-1.10770825998654
30
0
41
1
10
60.6592586121611
20
-1.10412322286726
30
0
41
1
10
60.6832336945103
20
-1.10552332653248
30
0
41
1
10
60.6879663302857
20
-1.10609983830159
30
0
41
1
10
60.6973017406818
20
-1.10785775263253
30
0
41
1
10
60.7019108216468
20
-1.10904252856994
30
0
41
1
10
60.7154151585697
20
-1.11348204090115
30
0
41
1
10
60.7240256244708
20
-1.11762326247549
30
0
41
1
10
60.7486593291004
20
-1.13356078888142
30
0
41
1
10
60.7634965856146
20
-1.14883620169539
30
0
41
1
10
60.7831011945797
20
-1.17919186752925
30
0
41
1
10
60.7891958172567
20
-1.19056867982312
30
0
41
1
10
60.8003912360988
20
-1.21597901654184
30
0
41
1
10
60.8054018454513
20
-1.22980620390945
30
0
41
1
10
60.8186516235396
20
-1.27465660798182
30
0
41
1
10
60.8251265707048
20
-1.30901107006997
30
0
41
1
10
60.8309314286259
20
-1.36784995031365
30
0
41
1
10
60.8322118503245
20
-1.38871868433165
30
0
41
1
10
60.8333327025099
20
-1.43302844054034
30
0
41
1
10
60.8331633008188
20
-1.45603331573989
30
0
41
1
10
60.830492382278
20
-1.52758156790435
30
0
41
1
10
60.8258496487815
20
-1.57862874911899
30
0
41
1
10
60.8162565668274
20
-1.64698200359791
30
0
41
1
10
60.8141376887553
20
-1.6609358689694
30
0
41
1
10
60.809554065674
20
-1.68902632379172
30
0
41
1
10
60.8070935397966
20
-1.70314615925778
30
0
41
1
10
60.7992202631548
20
-1.74572628651887
30
0
41
1
10
60.7874138342061
20
-1.80308691894913
30
0
41
1
10
60.7730809222367
20
-1.8616181122365
30
0
41
1
10
60.7613886424999
20
-1.90596908040862
30
0
41
1
10
60.7573209956818
20
-1.92087173264622
30
0
41
1
10
60.7489724819957
20
-1.95046993895053
30
0
41
1
10
60.7446843689748
20
-1.9651960959514
30
0
41
1
10
60.7227006383365
20
-2.03847586049034
30
0
41
1
10
60.7033942713371
20
-2.0959881911165
30
0
41
1
10
60.6773252416474
20
-2.16658121150314
30
0
41
1
10
60.6720366923984
20
-2.18057019445041
30
0
41
1
10
60.6613802429248
20
-2.20813433601018
30
0
41
1
10
60.6452467622859
20
-2.24893640926837
30
0
41
1
10
60.6176616075158
20
-2.31432326806376
30
0
41
1
10
60.5949152354456
20
-2.36395660328651
30
0
41
1
10
60.5718464589997
20
-2.41226488432275
30
0
41
1
10
60.5603169804097
20
-2.43540863313677
30
0
41
1
10
60.5257884606373
20
-2.50193664349808
30
0
41
1
10
60.5028363786706
20
-2.54247445728953
30
0
41
1
10
60.4742418482655
20
-2.58855951973851
30
0
41
1
10
60.4685196860718
20
-2.59755660447812
30
0
41
1
10
60.4571547992626
20
-2.61497784670473
30
0
41
1
10
60.4458563334238
20
-2.63184840078498
30
0
41
1
10
60.4346876396642
20
-2.64763336076942
30
0
41
1
10
60.4235825146459
20
-2.66287949124882
30
0
41
1
10
60.4180444812559
20
-2.67025540725328
30
0
41
1
10
60.4125721839604
20
-2.67731746804159
30
0
0
SPLINE
5
DA
100
AcDbEntity
8
1
62
256
6
ByLayer
370
18
48
1
60
0
100
AcDbSpline
70
4
71
3
72
13
73
9
40
0
40
0
40
0
40
0
40
0.500000000000011
40
0.500000000000011
40
0.625000000000011
40
0.625000000000011
40
0.750000000000011
40
1
40
1
40
1
40
1
41
1
10
59.9662982203926
20
-5.63631544960353
30
0
41
1
10
59.9206203154868
20
-5.70411287359573
30
0
41
1
10
59.8787616205077
20
-5.76109903633821
30
0
41
1
10
59.8311496347477
20
-5.81744039298047
30
0
41
1
10
59.8218562742221
20
-5.82796899893449
30
0
41
1
10
59.8037640060286
20
-5.84746223158962
30
0
41
1
10
59.7775583095772
20
-5.87415160748094
30
0
41
1
10
59.7540150692595
20
-5.89335654884678
30
0
41
1
10
59.7393933526042
20
-5.90295046571143
30
0
0
SPLINE
5
DB
100
AcDbEntity
8
1
62
256
6
ByLayer
370
18
48
1
60
0
100
AcDbSpline
70
4
71
3
72
31
73
27
40
0
40
0
40
0
40
0
40
0.0624999999999996
40
0.0624999999999996
40
0.124999999999999
40
0.124999999999999
40
0.249999999999999
40
0.249999999999999
40
0.312499999999998
40
0.312499999999998
40
0.343749999999998
40
0.343749999999998
40
0.374999999999998
40
0.437499999999994
40
0.437499999999994
40
0.468749999999993
40
0.468749999999993
40
0.499999999999993
40
0.499999999999993
40
0.624999999999995
40
0.624999999999995
40
0.749999999999996
40
0.749999999999996
40
0.874999999999998
40
0.874999999999998
40
1
40
1
40
1
40
1
41
1
10
61.3783963664383
20
-2.00281821006089
30
0
41
1
10
61.3427550984192
20
-2.06872148593882
30
0
41
1
10
61.3076939919337
20
-2.13570410724933
30
0
41
1
10
61.2386224094962
20
-2.27168281294718
30
0
41
1
10
61.2046190761463
20
-2.3406979987177
30
0
41
1
10
61.1041282302974
20
-2.55086630899635
30
0
41
1
10
61.0391527945889
20
-2.69511254007091
30
0
41
1
10
60.9442702005092
20
-2.9176517999955
30
0
41
1
10
60.9130723858852
20
-2.99286123206505
30
0
41
1
10
60.8668588042385
20
-3.1072247784108
30
0
41
1
10
60.8515301460657
20
-3.14565916788001
30
0
41
1
10
60.8212354160419
20
-3.2225859206529
30
0
41
1
10
60.77628972592
20
-3.33817669188167
30
0
41
1
10
60.7327488491364
20
-3.45433773157706
30
0
41
1
10
60.6900366865415
20
-3.57083859420797
30
0
41
1
10
60.6759398329667
20
-3.60972984634506
30
0
41
1
10
60.6479898054856
20
-3.68761287835432
30
0
41
1
10
60.6340473865
20
-3.72656791858597
30
0
41
1
10
60.5644081088398
20
-3.92137392123993
30
0
41
1
10
60.5090216850688
20
-4.07735509312135
30
0
41
1
10
60.3988285133232
20
-4.38956972485764
30
0
41
1
10
60.3440614540556
20
-4.54569351011904
30
0
41
1
10
60.2351380303114
20
-4.85781424637165
30
0
41
1
10
60.1809741297731
20
-5.01382844380743
30
0
41
1
10
60.0732237083618
20
-5.3254586217021
30
0
41
1
10
60.0196305406549
20
-5.48109306701011
30
0
41
1
10
59.9662982203926
20
-5.63631544960342
30
0
0
SPLINE
5
DC
100
AcDbEntity
8
1
62
256
6
ByLayer
370
18
48
1
60
0
100
AcDbSpline
70
4
71
3
72
8
73
4
40
0
40
0
40
0
40
0
40
1
40
1
40
1
40
1
41
1
10
61.3783963664379
20
-2.00281821006115
30
0
41
1
10
61.5416716006629
20
-1.54600450133336
30
0
41
1
10
61.7035773347803
20
-1.08870946408479
30
0
41
1
10
61.8640857036729
20
-0.630923304759534
30
0
0
SPLINE
5
DD
100
AcDbEntity
8
1
62
256
6
ByLayer
370
18
48
1
60
0
100
AcDbSpline
70
4
71
3
72
8
73
4
40
0
40
0
40
0
40
0
40
1
40
1
40
1
40
1
41
1
10
61.8640857036729
20
-0.630923304759534
30
0
41
1
10
61.9077336815755
20
-0.506434841608353
30
0
41
1
10
61.9522419149458
20
-0.38242384807063
30
0
41
1
10
61.9976085192646
20
-0.25887337435924
30
0
0
SPLINE
5
DE
100
AcDbEntity
8
1
62
256
6
ByLayer
370
18
48
1
60
0
100
AcDbSpline
70
4
71
3
72
8
73
4
40
0
40
0
40
0
40
0
40
1
40
1
40
1
40
1
41
1
10
61.9976085192646
20
0.258873374359211
30
0
41
1
10
62.0007908308434
20
0.0866336977377387
30
0
41
1
10
62.0008035148718
20
-0.085947186410948
30
0
41
1
10
61.9976085192646
20
-0.25887337435924
30
0
0
SPLINE
5
DF
100
AcDbEntity
8
1
62
256
6
ByLayer
370
18
48
1
60
0
100
AcDbSpline
70
4
71
3
72
59
73
55
40
0
40
0
40
0
40
0
40
0.0624999999999903
40
0.0624999999999903
40
0.0937499999999854
40
0.109374999999983
40
0.109374999999983
40
0.124999999999981
40
0.124999999999981
40
0.187499999999966
40
0.187499999999966
40
0.249999999999951
40
0.249999999999951
40
0.281249999999941
40
0.281249999999941
40
0.296874999999937
40
0.296874999999937
40
0.312499999999932
40
0.312499999999932
40
0.374999999999923
40
0.374999999999923
40
0.437499999999914
40
0.437499999999914
40
0.453124999999915
40
0.453124999999915
40
0.468749999999916
40
0.468749999999916
40
0.499999999999917
40
0.499999999999917
40
0.562499999999924
40
0.562499999999924
40
0.59374999999993
40
0.59374999999993
40
0.609374999999931
40
0.609374999999931
40
0.624999999999931
40
0.624999999999931
40
0.687499999999934
40
0.687499999999934
40
0.718749999999936
40
0.718749999999936
40
0.734374999999938
40
0.734374999999938
40
0.749999999999941
40
0.749999999999941
40
0.812499999999954
40
0.812499999999954
40
0.874999999999968
40
0.874999999999968
40
0.906249999999976
40
0.906249999999976
40
0.937499999999984
40
0.937499999999984
40
1
40
1
40
1
40
1
41
1
10
61.9976085192646
20
0.258873374359211
30
0
41
1
10
61.9751793222892
20
0.19387088815833
30
0
41
1
10
61.951551312033
20
0.129434936708208
30
0
41
1
10
61.9143154072402
20
0.0336399613284186
30
0
41
1
10
61.895247876051
20
-0.0140422580700488
30
0
41
1
10
61.8754954912749
20
-0.061394397573622
30
0
41
1
10
61.8621729677573
20
-0.0928878974652321
30
0
41
1
10
61.8554230812704
20
-0.108623748432763
30
0
41
1
10
61.8214282524345
20
-0.186778177577139
30
0
41
1
10
61.7935940633004
20
-0.247312340305427
30
0
41
1
10
61.7367472880902
20
-0.364417364905705
30
0
41
1
10
61.7077348838225
20
-0.420989261660623
30
0
41
1
10
61.663347360223
20
-0.502740295245871
30
0
41
1
10
61.6484060769545
20
-0.529471232471849
30
0
41
1
10
61.6257714636581
20
-0.568754575900215
30
0
41
1
10
61.6181894295887
20
-0.581713381669516
30
0
41
1
10
61.602949646287
20
-0.607352296706182
30
0
41
1
10
61.595298733711
20
-0.620019787673471
30
0
41
1
10
61.5571995993174
20
-0.682084360523447
30
0
41
1
10
61.5269498013995
20
-0.728133358925703
30
0
41
1
10
61.466914362018
20
-0.813066814203808
30
0
41
1
10
61.4371288038611
20
-0.851952766456321
30
0
41
1
10
61.4001771630339
20
-0.895855987665044
30
0
41
1
10
61.3928007940295
20
-0.90440034007608
30
0
41
1
10
61.378075487067
20
-0.921006158310178
30
0
41
1
10
61.3707124201636
20
-0.929081964962506
30
0
41
1
10
61.3488500291063
20
-0.952371967163231
30
0
41
1
10
61.334531871759
20
-0.966704702256749
30
0
41
1
10
61.2923114088506
20
-1.00620114767346
30
0
41
1
10
61.2651411500584
20
-1.02787832529327
30
0
41
1
10
61.2257468021702
20
-1.05344033725152
30
0
41
1
10
61.2128427114649
20
-1.06079818811605
30
0
41
1
10
61.1938189195245
20
-1.07005901297518
30
0
41
1
10
61.187520588688
20
-1.07285446244913
30
0
41
1
10
61.1751000090264
20
-1.07781898364587
30
0
41
1
10
61.1689834221323
20
-1.07998716178517
30
0
41
1
10
61.1388525072183
20
-1.08928961662744
30
0
41
1
10
61.1161883048422
20
-1.09182858636751
30
0
41
1
10
61.0841140106518
20
-1.08863814414747
30
0
41
1
10
61.0737440960181
20
-1.08640420618437
30
0
41
1
10
61.0586509414488
20
-1.08130953574204
30
0
41
1
10
61.0536969004054
20
-1.07932047557111
30
0
41
1
10
61.043940072929
20
-1.074760205118
30
0
41
1
10
61.0391290043052
20
-1.07218358308862
30
0
41
1
10
61.0155704797759
20
-1.05791925512986
30
0
41
1
10
60.998298719343
20
-1.04212782755223
30
0
41
1
10
60.9664845821993
20
-1.00248565479771
30
0
41
1
10
60.9519441690086
20
-0.978630810612486
30
0
41
1
10
60.931990243867
20
-0.937038980948131
30
0
41
1
10
60.925638298634
20
-0.922169594041151
30
0
41
1
10
60.9136358778081
20
-0.89078600246836
30
0
41
1
10
60.9079736880658
20
-0.874253917729931
30
0
41
1
10
60.8919434352886
20
-0.82223285130118
30
0
41
1
10
60.8825278070807
20
-0.784326334979028
30
0
41
1
10
60.8742754724233
20
-0.743349596860128
30
0
0
SPLINE
5
E0
100
AcDbEntity
8
1
62
256
6
ByLayer
370
18
48
1
60
0
100
AcDbSpline
70
4
71
3
72
8
73
4
40
0
40
0
40
0
40
0
40
1
40
1
40
1
40
1
41
1
10
60.8742754724233
20
-0.743349596860185
30
0
41
1
10
60.7731110955592
20
-0.241020698455202
30
0
41
1
10
60.6447705038452
20
0.277687574837188
30
0
41
1
10
60.4889219838153
20
0.812975150021003
30
0
0
SPLINE
5
E1
100
AcDbEntity
8
1
62
256
6
ByLayer
370
18
48
1
60
0
100
AcDbSpline
70
4
71
3
72
20
73
16
40
0
40
0
40
0
40
0
40
0.250000000000002
40
0.250000000000002
40
0.500000000000004
40
0.500000000000004
40
0.750000000000006
40
0.750000000000006
40
0.812500000000005
40
0.812500000000005
40
0.875000000000003
40
0.875000000000003
40
0.937500000000002
40
0.937500000000002
40
1
40
1
40
1
40
1
41
1
10
59.7214836280054
20
0.272717133054982
30
0
41
1
10
59.7832867007631
20
0.339804799904499
30
0
41
1
10
59.8458850728983
20
0.401405007518804
30
0
41
1
10
59.9723100951238
20
0.514053155923165
30
0
41
1
10
60.036135692147
20
0.565010346031556
30
0
41
1
10
60.1646258234389
20
0.65608827990971
30
0
41
1
10
60.229293535236
20
0.696170503232707
30
0
41
1
10
60.3103211137615
20
0.738063615720364
30
0
41
1
10
60.3265362027084
20
0.746037071683588
30
0
41
1
10
60.3589762840772
20
0.761145576440867
30
0
41
1
10
60.3751979390804
20
0.768222160695046
30
0
41
1
10
60.407676970882
20
0.782159165723783
30
0
41
1
10
60.4239323177535
20
0.788967496516761
30
0
41
1
10
60.4564329843487
20
0.801618622629093
30
0
41
1
10
60.4726814709857
20
0.807523011012165
30
0
41
1
10
60.4889219838154
20
0.812975150021032
30
0
0
SPLINE
5
E2
100
AcDbEntity
8
1
62
256
6
ByLayer
370
18
48
1
60
0
100
AcDbSpline
70
4
71
3
72
14
73
10
40
0
40
0
40
0
40
0
40
0.25
40
0.25
40
0.5
40
0.5
40
0.75
40
0.75
40
1
40
1
40
1
40
1
41
1
10
59.7482766962548
20
-5.87500986862301
30
0
41
1
10
59.7484400242836
20
-5.87517603304164
30
0
41
1
10
59.74853056865
20
-5.87553938055248
30
0
41
1
10
59.7485231518552
20
-5.87674602240682
30
0
41
1
10
59.7484200098734
20
-5.87758927848833
30
0
41
1
10
59.7479957996275
20
-5.87966920595133
30
0
41
1
10
59.7476689765331
20
-5.88092344955788
30
0
41
1
10
59.7468673406322
20
-5.88352845329618
30
0
41
1
10
59.7463970622085
20
-5.88487029706647
30
0
41
1
10
59.7459118343301
20
-5.88612258047084
30
0
0
SPLINE
5
E3
100
AcDbEntity
8
1
62
256
6
ByLayer
370
18
48
1
60
0
100
AcDbSpline
70
4
71
3
72
8
73
4
40
0
40
0
40
0
40
0
40
1
40
1
40
1
40
1
41
1
10
59.6167721673892
20
-6.09997019662313
30
0
41
1
10
59.6576042899352
20
-6.03455459874485
30
0
41
1
10
59.6984764186792
20
-5.9688809801784
30
0
41
1
10
59.7393933526042
20
-5.90295046571151
30
0
0
SPLINE
5
E4
100
AcDbEntity
8
1
62
256
6
ByLayer
370
18
48
1
60
0
100
AcDbSpline
70
4
71
3
72
8
73
4
40
0
40
0
40
0
40
0
40
1
40
1
40
1
40
1
41
1
10
59.7459118343301
20
-5.88612258047084
30
0
41
1
10
59.7437381764224
20
-5.89173238948078
30
0
41
1
10
59.7415653477096
20
-5.89734168340308
30
0
41
1
10
59.7393933526042
20
-5.90295046571148
30
0
0
SPLINE
5
E5
100
AcDbEntity
8
1
62
256
6
ByLayer
370
18
48
1
60
0
100
AcDbSpline
70
4
71
3
72
49
73
45
40
0
40
0
40
0
40
0
40
0.130144785697482
40
0.130144785697482
40
0.195217178546224
40
0.195217178546224
40
0.260289571394966
40
0.260289571394966
40
0.292825767819336
40
0.292825767819336
40
0.325361964243706
40
0.325361964243706
40
0.390434357092448
40
0.390434357092448
40
0.45550674994119
40
0.45550674994119
40
0.471774848153375
40
0.471774848153375
40
0.488042946365559
40
0.520579142789927
40
0.520579142789927
40
0.553115339214294
40
0.553115339214294
40
0.585651535638661
40
0.585651535638661
40
0.650723928487394
40
0.650723928487394
40
0.715796321336126
40
0.715796321336126
40
0.748332517760493
40
0.748332517760493
40
0.780868714184859
40
0.780868714184859
40
0.84594110703359
40
0.84594110703359
40
0.878477303457954
40
0.878477303457954
40
0.911013499882318
40
0.911013499882318
40
0.976085892731045
40
0.976085892731045
40
0.992353990943226
40
0.992353990943226
40
1
40
1
40
1
40
1
41
1
10
59.7459118343301
20
-5.88612258047081
30
0
41
1
10
58.9767167494372
20
-5.84058027091382
30
0
41
1
10
58.2119395161818
20
-5.75941117984274
30
0
41
1
10
57.0674299366071
20
-5.58785641328029
30
0
41
1
10
56.6863994888713
20
-5.52239574529673
30
0
41
1
10
55.9246968462914
20
-5.37554433363363
30
0
41
1
10
55.5439896228842
20
-5.29409248960553
30
0
41
1
10
54.9726228511181
20
-5.16028448404595
30
0
41
1
10
54.7821174390881
20
-5.1137466807055
30
0
41
1
10
54.4009638550067
20
-5.01694262676162
30
0
41
1
10
54.210317017098
20
-4.96667987930283
30
0
41
1
10
53.6379992029513
20
-4.81031125909871
30
0
41
1
10
53.2559481313624
20
-4.69861357855112
30
0
41
1
10
52.4902079094582
20
-4.46113465380813
30
0
41
1
10
52.1065197036887
20
-4.33535470033064
30
0
41
1
10
51.6254543130758
20
-4.16978292316796
30
0
41
1
10
51.529130510609
20
-4.13623776495592
30
0
41
1
10
51.3365015142917
20
-4.06838480485578
30
0
41
1
10
51.0477908320046
20
-3.96553450268584
30
0
41
1
10
50.759732182021
20
-3.85955202993404
30
0
41
1
10
50.3761531659038
20
-3.71559530433785
30
0
41
1
10
50.1846127096882
20
-3.64229261289162
30
0
41
1
10
49.801985973703
20
-3.49319801377479
30
0
41
1
10
49.6109012385293
20
-3.41740667582661
30
0
41
1
10
49.0381377936292
20
-3.18655093736635
30
0
41
1
10
48.6569449599473
20
-3.0280043070828
30
0
41
1
10
47.8952621261872
20
-2.70291155759065
30
0
41
1
10
47.51477359806
20
-2.53636599183139
30
0
41
1
10
46.9440699040839
20
-2.28144338055384
30
0
41
1
10
46.7538386077652
20
-2.19561855097342
30
0
41
1
10
46.3733503840721
20
-2.02238236375183
30
0
41
1
10
46.1830969864056
20
-1.93496857140471
30
0
41
1
10
45.6121193732982
20
-1.67062826647484
30
0
41
1
10
45.231168954296
20
-1.49160659639321
30
0
41
1
10
44.6588050027244
20
-1.21988414446946
30
0
41
1
10
44.4678576187877
20
-1.12878217416105
30
0
41
1
10
44.0856283739756
20
-0.945595853228554
30
0
41
1
10
43.8943526414025
20
-0.853503439150757
30
0
41
1
10
43.3198328630988
20
-0.576091516516186
30
0
41
1
10
42.9358808164106
20
-0.389655542598263
30
0
41
1
10
42.4543574390328
20
-0.155596345016591
30
0
41
1
10
42.3579530634559
20
-0.108723858894365
30
0
41
1
10
42.2162812717666
20
-0.0398438283860685
30
0
41
1
10
42.1709859382293
20
-0.0178217631484188
30
0
41
1
10
42.125691158914
20
0.0041983687514175
30
0
0
SPLINE
5
E6
100
AcDbEntity
8
1
62
256
6
ByLayer
370
18
48
1
60
0
100
AcDbSpline
70
4
71
3
72
8
73
4
40
0
40
0
40
0
40
0
40
1
40
1
40
1
40
1
41
1
10
59.6950765406789
20
-0.555730364441757
30
0
41
1
10
59.6969765188715
20
-0.556150763105308
30
0
41
1
10
59.6980213701273
20
-0.561189724470808
30
0
41
1
10
59.6973753734802
20
-0.566965992210271
30
0
0
SPLINE
5
E7
100
AcDbEntity
8
1
62
256
6
ByLayer
370
18
48
1
60
0
100
AcDbSpline
70
4
71
3
72
59
73
55
40
0
40
0
40
0
40
0
40
0.0155412675703614
40
0.0155412675703614
40
0.0453138054815904
40
0.0453138054815904
40
0.104858881304048
40
0.104858881304048
40
0.164403957126506
40
0.194176495037735
40
0.194176495037735
40
0.209062763993349
40
0.209062763993349
40
0.223949032948964
40
0.223949032948964
40
0.253721570860193
40
0.253721570860193
40
0.283494108771422
40
0.283494108771422
40
0.343039184593881
40
0.343039184593881
40
0.372811722505111
40
0.372811722505111
40
0.40258426041634
40
0.40258426041634
40
0.462129336238802
40
0.462129336238802
40
0.521674412061263
40
0.521674412061263
40
0.551446949972493
40
0.551446949972493
40
0.581219487883723
40
0.581219487883723
40
0.64076456370618
40
0.64076456370618
40
0.670537101617409
40
0.670537101617409
40
0.700309639528637
40
0.700309639528637
40
0.759854715351091
40
0.759854715351091
40
0.789627253262318
40
0.789627253262318
40
0.819399791173545
40
0.819399791173545
40
0.849172329084773
40
0.849172329084773
40
0.878944866996
40
0.878944866996
40
0.908717404907227
40
0.908717404907227
40
0.938489942818454
40
0.938489942818454
40
1
40
1
40
1
40
1
41
1
10
39.3518693580664
20
5.89015328128895
30
0
41
1
10
39.4521296668376
20
5.89102618532982
30
0
41
1
10
39.5523675088393
20
5.89133668565452
30
0
41
1
10
39.8445444821093
20
5.89055761001384
30
0
41
1
10
40.0364381681115
20
5.88792616843082
30
0
41
1
10
40.6120575052893
20
5.87333963869673
30
0
41
1
10
40.9957808346832
20
5.85470380413082
30
0
41
1
10
41.7644208359624
20
5.79832032142897
30
0
41
1
10
42.3409113135367
20
5.74182500201556
30
0
41
1
10
42.9174684416728
20
5.66609795973997
30
0
41
1
10
43.2057623713998
20
5.62520122497418
30
0
41
1
10
43.3018342227563
20
5.6110672563932
30
0
41
1
10
43.4937643424746
20
5.58185260364112
30
0
41
1
10
43.5896469306673
20
5.56676926115537
30
0
41
1
10
43.8770585373851
20
5.52013260785921
30
0
41
1
10
44.0683549617956
20
5.48717359478667
30
0
41
1
10
44.4504782827371
20
5.41711419049619
30
0
41
1
10
44.6413043424144
20
5.38002915011137
30
0
41
1
10
45.213256822916
20
5.26271655759629
30
0
41
1
10
45.5938399824055
20
5.17645443858291
30
0
41
1
10
46.1636445470283
20
5.03656636586229
30
0
41
1
10
46.3534100416167
20
4.98817537467264
30
0
41
1
10
46.7329013435455
20
4.88756314774685
30
0
41
1
10
46.9226218960941
20
4.83535043521397
30
0
41
1
10
47.4918091425984
20
4.67329827423083
30
0
41
1
10
47.871298040463
20
4.55804385552733
30
0
41
1
10
48.6304906291533
20
4.31464271877203
30
0
41
1
10
49.0101932684244
20
4.18649128769476
30
0
41
1
10
49.5797908421374
20
3.98538944062093
30
0
41
1
10
49.7696622894027
20
3.91688186200662
30
0
41
1
10
50.149816435628
20
3.77678306694997
30
0
41
1
10
50.3401028140091
20
3.70518465333316
30
0
41
1
10
50.9115980112381
20
3.48602928726001
30
0
41
1
10
51.2934349675101
20
3.33411936077656
30
0
41
1
10
51.8681898882365
20
3.09841760892243
30
0
41
1
10
52.0601488624418
20
3.01852740970656
30
0
41
1
10
52.4445725456195
20
2.85632544378492
30
0
41
1
10
52.6365164099141
20
2.77423422179965
30
0
41
1
10
53.2116140982958
20
2.52520521784132
30
0
41
1
10
53.5940346325875
20
2.35551508753591
30
0
41
1
10
54.1664513714466
20
2.09610653774999
30
0
41
1
10
54.3570514216283
20
2.00882200211052
30
0
41
1
10
54.7381261751427
20
1.83301403786891
30
0
41
1
10
54.928605276128
20
1.74449381005684
30
0
41
1
10
55.3094516247893
20
1.56631062260809
30
0
41
1
10
55.4998182754723
20
1.47664775099906
30
0
41
1
10
55.8804658663139
20
1.29627063264101
30
0
41
1
10
56.0707451772548
20
1.20555427344274
30
0
41
1
10
56.4513140422695
20
1.02325583447944
30
0
41
1
10
56.6416028055582
20
0.93167244693899
30
0
41
1
10
57.0223205560135
20
0.747879727742259
30
0
41
1
10
57.2127520150236
20
0.65567360108048
30
0
41
1
10
57.7969195393822
20
0.37222539745693
30
0
41
1
10
58.1909855824382
20
0.180199974182102
30
0
41
1
10
58.5855629935036
20
-0.0125800669408136
30
0
0
SPLINE
5
E8
100
AcDbEntity
8
1
62
256
6
ByLayer
370
18
48
1
60
0
100
AcDbSpline
70
4
71
3
72
8
73
4
40
0
40
0
40
0
40
0
40
1
40
1
40
1
40
1
41
1
10
59.6169161925359
20
-0.536996675885746
30
0
41
1
10
59.642945306833
20
-0.543715793288271
30
0
41
1
10
59.6689953695897
20
-0.549959514274605
30
0
41
1
10
59.6950765406789
20
-0.555730364441786
30
0
0
SPLINE
5
E9
100
AcDbEntity
8
1
62
256
6
ByLayer
370
18
48
1
60
0
100
AcDbSpline
70
4
71
3
72
8
73
4
40
0
40
0
40
0
40
0
40
1
40
1
40
1
40
1
41
1
10
59.6973753734623
20
-0.56696599220146
30
0
41
1
10
59.6830113846939
20
-0.559936878415925
30
0
41
1
10
59.6686481712203
20
-0.55290839761301
30
0
41
1
10
59.6542857290997
20
-0.545880562812044
30
0
0
SPLINE
5
EA
100
AcDbEntity
8
1
62
256
6
ByLayer
370
18
48
1
60
0
100
AcDbSpline
70
4
71
3
72
57
73
53
40
0
40
0
40
0
40
0
40
0.0880818263845911
40
0.0880818263845911
40
0.117228697973512
40
0.117228697973512
40
0.146375569562433
40
0.146375569562433
40
0.175522441151353
40
0.175522441151353
40
0.204669312740274
40
0.204669312740274
40
0.233816184329195
40
0.233816184329195
40
0.262963055918116
40
0.262963055918116
40
0.321256799095957
40
0.321256799095957
40
0.350403670684877
40
0.350403670684877
40
0.379550542273797
40
0.379550542273797
40
0.437844285451639
40
0.437844285451639
40
0.466991157040559
40
0.466991157040559
40
0.496138028629478
40
0.496138028629478
40
0.554431771807317
40
0.554431771807317
40
0.612725514985155
40
0.612725514985155
40
0.641872386574074
40
0.641872386574074
40
0.671019258162992
40
0.671019258162992
40
0.729313001340827
40
0.729313001340827
40
0.758459872929743
40
0.758459872929743
40
0.78760674451866
40
0.78760674451866
40
0.816753616107576
40
0.816753616107576
40
0.845900487696493
40
0.904194230874326
40
0.904194230874326
40
0.962487974052159
40
0.962487974052159
40
0.991634845641076
40
0.991634845641076
40
1
40
1
40
1
40
1
41
1
10
59.1358455932524
20
-0.292340150563859
30
0
41
1
10
58.5578636238716
20
-0.0098697116265214
30
0
41
1
10
57.9810569253405
20
0.271297428044903
30
0
41
1
10
57.2146019968233
20
0.642636582447409
30
0
41
1
10
57.024135791443
20
0.734725737098444
30
0
41
1
10
56.6433490635767
20
0.918294936974348
30
0
41
1
10
56.4530260575376
20
1.00977150150311
30
0
41
1
10
56.0723893344204
20
1.1918656725145
30
0
41
1
10
55.8820763461026
20
1.28248449068028
30
0
41
1
10
55.5013620814392
20
1.46267569820012
30
0
41
1
10
55.3109624065965
20
1.55225033122511
30
0
41
1
10
54.9300507587529
20
1.7302670285836
30
0
41
1
10
54.7395396449812
20
1.81870982837899
30
0
41
1
10
54.3584019014021
20
1.99437415621276
30
0
41
1
10
54.1677702774698
20
2.08159006910006
30
0
41
1
10
53.5952605117275
20
2.34080282501014
30
0
41
1
10
53.2127811419789
20
2.51038109332569
30
0
41
1
10
52.6376009465159
20
2.75927230146155
30
0
41
1
10
52.4456307541805
20
2.8413231388997
30
0
41
1
10
52.0611565804566
20
3.00345525644406
30
0
41
1
10
51.8691508879291
20
3.0833255603672
30
0
41
1
10
51.2942835221866
20
3.3189726495809
30
0
41
1
10
50.9123699298333
20
3.47086675382047
30
0
41
1
10
50.3407584243969
20
3.69002765682302
30
0
41
1
10
50.1504330443939
20
3.76163397312834
30
0
41
1
10
49.7702010056494
20
3.90176127284849
30
0
41
1
10
49.5802903822648
20
3.97028492855011
30
0
41
1
10
49.010576284283
20
4.17144016895924
30
0
41
1
10
48.6307976662017
20
4.29964930583603
30
0
41
1
10
47.8714552954453
20
4.54320862753312
30
0
41
1
10
47.4918932624595
20
4.65856459989243
30
0
41
1
10
46.9225970873674
20
4.82079966255995
30
0
41
1
10
46.7328403856761
20
4.87307828292344
30
0
41
1
10
46.3532779642607
20
4.97383367619048
30
0
41
1
10
46.1634768270469
20
5.02229877480312
30
0
41
1
10
45.5935660742195
20
5.16241262459414
30
0
41
1
10
45.212916192069
20
5.24884538172759
30
0
41
1
10
44.6408681428651
20
5.36644664125393
30
0
41
1
10
44.4500107351588
20
5.40363218450554
30
0
41
1
10
44.0678267039085
20
5.47390125881239
30
0
41
1
10
43.8765003151435
20
5.50696790135137
30
0
41
1
10
43.4932256413917
20
5.56936832801389
30
0
41
1
10
43.3012179570486
20
5.59873522929922
30
0
41
1
10
42.9167633351212
20
5.65350258350034
30
0
41
1
10
42.3401135493662
20
5.72960157852808
30
0
41
1
10
41.7635335488743
20
5.78651051115136
30
0
41
1
10
40.9947751459111
20
5.84348124402968
30
0
41
1
10
40.6109837242937
20
5.86242403290842
30
0
41
1
10
40.0352691546488
20
5.87748549496337
30
0
41
1
10
39.8433438144685
20
5.88027763080578
30
0
41
1
10
39.5962390918506
20
5.88114633004463
30
0
41
1
10
39.5411261571206
20
5.88116562568055
30
0
41
1
10
39.4860054617744
20
5.88101303470751
30
0
0
SPLINE
5
EB
100
AcDbEntity
8
1
62
256
6
ByLayer
370
18
48
1
60
0
100
AcDbSpline
70
4
71
3
72
50
73
46
40
0
40
0
40
0
40
0
40
0.0282131840472113
40
0.0438871649496763
40
0.0438871649496763
40
0.0595611458521413
40
0.0595611458521413
40
0.122257069462002
40
0.122257069462002
40
0.15360503126693
40
0.15360503126693
40
0.184952993071859
40
0.184952993071859
40
0.247648916681718
40
0.247648916681718
40
0.278996878486648
40
0.278996878486648
40
0.310344840291578
40
0.310344840291578
40
0.373040763901436
40
0.373040763901436
40
0.435736687511294
40
0.435736687511294
40
0.467084649316224
40
0.467084649316224
40
0.498432611121153
40
0.498432611121153
40
0.529780572926082
40
0.545454553828546
40
0.545454553828546
40
0.561128534731011
40
0.561128534731011
40
0.623824458340865
40
0.623824458340865
40
0.68652038195072
40
0.68652038195072
40
0.717868343755647
40
0.717868343755647
40
0.749216305560574
40
0.749216305560574
40
0.811912229170431
40
0.811912229170431
40
0.874608152780287
40
0.874608152780287
40
1
40
1
40
1
40
1
41
1
10
41.4552557768378
20
0.340375519329854
30
0
41
1
10
41.6287427001846
20
0.256379139751971
30
0
41
1
10
41.8985617196497
20
0.12554173864325
30
0
41
1
10
42.1683782370427
20
-0.0054164157487548
30
0
41
1
10
42.3611141355759
20
-0.0989670026068268
30
0
41
1
10
42.4575113275503
20
-0.145758621289502
30
0
41
1
10
42.939002299416
20
-0.379420100884943
30
0
41
1
10
43.3229317967961
20
-0.565555139052776
30
0
41
1
10
43.8974228890614
20
-0.842539676730922
30
0
41
1
10
44.0886900177956
20
-0.934493327147123
30
0
41
1
10
44.4709023669853
20
-1.1174125237234
30
0
41
1
10
44.6618413611399
20
-1.2083864041897
30
0
41
1
10
45.2341806830287
20
-1.47973904469251
30
0
41
1
10
45.6151156268375
20
-1.65853292564344
30
0
41
1
10
46.1860722673448
20
-1.92255678035573
30
0
41
1
10
46.376319212551
20
-2.00986886516949
30
0
41
1
10
46.7567936352001
20
-2.18291266635811
30
0
41
1
10
46.9470174056099
20
-2.26864726048885
30
0
41
1
10
47.5176977889472
20
-2.52331368601202
30
0
41
1
10
47.89817038572
20
-2.68970647605445
30
0
41
1
10
48.6598188698457
20
-3.0145317705574
30
0
41
1
10
49.040992984117
20
-3.17296438549218
30
0
41
1
10
49.613726691812
20
-3.40367628858669
30
0
41
1
10
49.8048015130302
20
-3.47942359595299
30
0
41
1
10
50.1874060884885
20
-3.62844174507706
30
0
41
1
10
50.3789339847078
20
-3.70171271606441
30
0
41
1
10
50.7624860917745
20
-3.8456161993563
30
0
41
1
10
51.0505235339362
20
-3.95156571955323
30
0
41
1
10
51.3392109605521
20
-4.05439415497861
30
0
41
1
10
51.5318239416756
20
-4.12223506783653
30
0
41
1
10
51.6281424541858
20
-4.1557765089953
30
0
41
1
10
52.1091782325809
20
-4.32133542461762
30
0
41
1
10
52.4928458051339
20
-4.44712800545747
30
0
41
1
10
53.2585500018572
20
-4.68467690812577
30
0
41
1
10
53.6405855892368
20
-4.79643215757326
30
0
41
1
10
54.2128838810939
20
-4.95291761866582
30
0
41
1
10
54.4035250012498
20
-5.00322397565355
30
0
41
1
10
54.7846669699205
20
-5.10012659039481
30
0
41
1
10
54.9751662965344
20
-5.14671980909708
30
0
41
1
10
55.5465148376653
20
-5.28070982773721
30
0
41
1
10
55.927210478883
20
-5.3623029860465
30
0
41
1
10
56.6888902437568
20
-5.50947483935482
30
0
41
1
10
57.0699087430832
20
-5.5751155357344
30
0
41
1
10
58.2143765771466
20
-5.74727141669908
30
0
41
1
10
58.9791224502907
20
-5.82891400118842
30
0
41
1
10
59.7482766972433
20
-5.87500986868224
30
0
0
SPLINE
5
EC
100
AcDbEntity
8
1
62
256
6
ByLayer
370
18
48
1
60
0
100
AcDbSpline
70
4
71
3
72
41
73
37
40
0
40
0
40
0
40
0
40
0.0624999999999994
40
0.0624999999999994
40
0.124999999999999
40
0.187499999999998
40
0.187499999999998
40
0.218749999999998
40
0.234374999999998
40
0.234374999999998
40
0.249999999999998
40
0.249999999999998
40
0.312499999999998
40
0.312499999999998
40
0.374999999999997
40
0.437499999999997
40
0.437499999999997
40
0.468749999999997
40
0.484374999999997
40
0.484374999999997
40
0.499999999999997
40
0.499999999999997
40
0.562499999999997
40
0.624999999999997
40
0.687499999999997
40
0.687499999999997
40
0.718749999999998
40
0.718749999999998
40
0.749999999999998
40
0.749999999999998
40
0.812499999999998
40
0.812499999999998
40
0.874999999999999
40
0.9375
40
0.9375
40
1
40
1
40
1
40
1
41
1
10
59.6973753734811
20
-0.566965992202768
30
0
41
1
10
59.6786897121925
20
-0.734046398832731
30
0
41
1
10
59.6624340876064
20
-0.8994375413169
30
0
41
1
10
59.6339229236358
20
-1.22687513150783
30
0
41
1
10
59.6094133807945
20
-1.55096771021047
30
0
41
1
10
59.591490847631
20
-1.86830997349938
30
0
41
1
10
59.5800811661452
20
-2.10371392243394
30
0
41
1
10
59.5748857596217
20
-2.22076443706231
30
0
41
1
10
59.5703844278617
20
-2.33681691053317
30
0
41
1
10
59.5675308049595
20
-2.41396056129321
30
0
41
1
10
59.566176221708
20
-2.45246352280188
30
0
41
1
10
59.5597806091809
20
-2.64360353928657
30
0
41
1
10
59.5558485340031
20
-2.7924721726217
30
0
41
1
10
59.5498342659316
20
-3.08234701412781
30
0
41
1
10
59.5456713025731
20
-3.36435833407759
30
0
41
1
10
59.5445150374803
20
-3.63074746183816
30
0
41
1
10
59.5446295971938
20
-3.82459512319139
30
0
41
1
10
59.5449340786069
20
-3.92003094845296
30
0
41
1
10
59.5455982365286
20
-4.01320003117343
30
0
41
1
10
59.5461208604527
20
-4.07480379336215
30
0
41
1
10
59.5464219223209
20
-4.10532385823811
30
0
41
1
10
59.5481177112481
20
-4.25593705256301
30
0
41
1
10
59.5520459975587
20
-4.48530635196215
30
0
41
1
10
59.5616290110613
20
-4.79548626601647
30
0
41
1
10
59.5708168256688
20
-4.97983219096409
30
0
41
1
10
59.5790030294513
20
-5.10954796250681
30
0
41
1
10
59.5819489153926
20
-5.15136070975495
30
0
41
1
10
59.5883321913899
20
-5.23208919300242
30
0
41
1
10
59.5917781691093
20
-5.27107702054707
30
0
41
1
10
59.6028475074039
20
-5.38258505299387
30
0
41
1
10
59.6112168757618
20
-5.4499655075403
30
0
41
1
10
59.630391490609
20
-5.57124325366149
30
0
41
1
10
59.6520021330682
20
-5.67903572367999
30
0
41
1
10
59.6796259084529
20
-5.76014381801451
30
0
41
1
10
59.7109575956104
20
-5.82778128586409
30
0
41
1
10
59.728476243891
20
-5.85486555735233
30
0
41
1
10
59.7482766963201
20
-5.87500986868949
30
0
0
SPLINE
5
ED
100
AcDbEntity
8
1
62
256
6
ByLayer
370
18
48
1
60
0
100
AcDbSpline
70
4
71
3
72
10
73
6
40
0
40
0
40
0
40
0
40
0.316589876524161
40
0.316589876524161
40
1
40
1
40
1
40
1
41
1
10
26.3051151997814
20
-5.87758557795263
30
0
41
1
10
25.953073411756
20
-5.92340107917497
30
0
41
1
10
25.6008796335919
20
-5.96181074821243
30
0
41
1
10
24.4869157201626
20
-6.05916300078223
30
0
41
1
10
23.7233982876421
20
-6.09036347965531
30
0
41
1
10
22.9551837360363
20
-6.08490385252139
30
0
0
SPLINE
5
EE
100
AcDbEntity
8
1
62
256
6
ByLayer
370
18
48
1
60
0
100
AcDbSpline
70
4
71
3
72
16
73
12
40
0
40
0
40
0
40
0
40
0.25
40
0.25
40
0.375
40
0.375
40
0.5
40
0.5
40
0.75
40
0.75
40
1
40
1
40
1
40
1
41
1
10
22.9551837360363
20
-6.08490385252136
30
0
41
1
10
22.9468759537473
20
-6.0848448099095
30
0
41
1
10
22.9393320244224
20
-6.08477210735825
30
0
41
1
10
22.929132956628
20
-6.08463114224685
30
0
41
1
10
22.9259123502503
20
-6.08457841637176
30
0
41
1
10
22.9200478588224
20
-6.08446300084094
30
0
41
1
10
22.917377615204
20
-6.08440002491895
30
0
41
1
10
22.9101455611197
20
-6.08419241325311
30
0
41
1
10
22.9063561861188
20
-6.08402691006165
30
0
41
1
10
22.9013450116738
20
-6.08365175362843
30
0
41
1
10
22.9000401761769
20
-6.08343799769358
30
0
41
1
10
22.9000401761769
20
-6.08320319993666
30
0
0
SPLINE
5
EF
100
AcDbEntity
8
1
62
256
6
ByLayer
370
18
48
1
60
0
100
AcDbSpline
70
4
71
3
72
27
73
23
40
0
40
0
40
0
40
0
40
0.125000000000112
40
0.125000000000112
40
0.187500000000168
40
0.187500000000168
40
0.250000000000224
40
0.31250000000028
40
0.31250000000028
40
0.375000000000335
40
0.375000000000335
40
0.500000000000304
40
0.500000000000304
40
0.625000000000272
40
0.625000000000272
40
0.687500000000158
40
0.687500000000158
40
0.750000000000045
40
0.750000000000045
40
0.875000000000022
40
0.875000000000022
40
1
40
1
40
1
40
1
41
1
10
22.9000401761769
20
-1.37737756689594
30
0
41
1
10
22.9000401761769
20
-1.36901378430454
30
0
41
1
10
22.9011278939412
20
-1.36082677924068
30
0
41
1
10
22.9043403214383
20
-1.34880376167567
30
0
41
1
10
22.9056909044257
20
-1.3448116622111
30
0
41
1
10
22.9088780144989
20
-1.33709598251329
30
0
41
1
10
22.9125440124321
20
-1.32963764508585
30
0
41
1
10
22.9171462476775
20
-1.32268298720146
30
0
41
1
10
22.9222289483753
20
-1.31598715546241
30
0
41
1
10
22.9250091744538
20
-1.31277841475827
30
0
41
1
10
22.9338355126963
20
-1.30381605803683
30
0
41
1
10
22.9404495521969
20
-1.29860548248971
30
0
41
1
10
22.955067997281
20
-1.28985054776609
30
0
41
1
10
22.9627951030979
20
-1.28646540506981
30
0
41
1
10
22.9749970148291
20
-1.2828408270376
30
0
41
1
10
22.9791967477541
20
-1.28187498538986
30
0
41
1
10
22.9875984844855
20
-1.28049193502838
30
0
41
1
10
22.9918137278627
20
-1.2800668286948
30
0
41
1
10
23.0045017506295
20
-1.27957546511277
30
0
41
1
10
23.0131380871229
20
-1.28031996474112
30
0
41
1
10
23.0297018759075
20
-1.28387004774959
30
0
41
1
10
23.0376765247482
20
-1.28664039635785
30
0
41
1
10
23.0453319626015
20
-1.29044391497851
30
0
0
SPLINE
5
F0
100
AcDbEntity
8
1
62
256
6
ByLayer
370
18
48
1
60
0
100
AcDbSpline
70
4
71
3
72
52
73
48
40
0
40
0
40
0
40
0
40
0.069427571558568
40
0.069427571558568
40
0.104141357337852
40
0.104141357337852
40
0.138855143117136
40
0.138855143117136
40
0.208282714675706
40
0.208282714675706
40
0.24299650045499
40
0.24299650045499
40
0.277710286234274
40
0.277710286234274
40
0.34713785779284
40
0.34713785779284
40
0.381851643572123
40
0.381851643572123
40
0.399208536461765
40
0.399208536461765
40
0.416565429351406
40
0.416565429351406
40
0.451279215130691
40
0.451279215130691
40
0.485993000909976
40
0.485993000909976
40
0.555420572468548
40
0.555420572468548
40
0.62484814402712
40
0.62484814402712
40
0.659561929806406
40
0.659561929806406
40
0.676918822696049
40
0.676918822696049
40
0.694275715585692
40
0.694275715585692
40
0.763703287144258
40
0.763703287144258
40
0.798417072923541
40
0.798417072923541
40
0.833130858702824
40
0.833130858702824
40
0.902558430261388
40
0.902558430261388
40
0.971986001819952
40
0.971986001819952
40
1
40
1
40
1
40
1
41
1
10
23.0453319626015
20
-1.29044391497851
30
0
41
1
10
23.4271188860797
20
-1.48013047509443
30
0
41
1
10
23.8091971861257
20
-1.66660023399001
30
0
41
1
10
24.3827864906558
20
-1.94152231953376
30
0
41
1
10
24.5740629562417
20
-2.03236214956843
30
0
41
1
10
24.9568006859528
20
-2.21240023956312
30
0
41
1
10
25.148342417432
20
-2.30163422673803
30
0
41
1
10
25.7224710868913
20
-2.56639117590214
30
0
41
1
10
26.1046663285744
20
-2.73904345101403
30
0
41
1
10
26.6772990833654
20
-2.99193788142563
30
0
41
1
10
26.8680506513696
20
-3.07524915094825
30
0
41
1
10
27.2493081065541
20
-3.2398650516906
30
0
41
1
10
27.4398554998673
20
-3.3210954103688
30
0
41
1
10
28.0118313538308
20
-3.56058548176679
30
0
41
1
10
28.393480096439
20
-3.71484966433658
30
0
41
1
10
28.9666284017792
20
-3.93789657985292
30
0
41
1
10
29.1577907238574
20
-4.01085217875928
30
0
41
1
10
29.4447265863454
20
-4.11815092802516
30
0
41
1
10
29.5404308817408
20
-4.15357095085253
30
0
41
1
10
29.7317633345513
20
-4.22363567619021
30
0
41
1
10
29.8273817837776
20
-4.25827628021702
30
0
41
1
10
30.1140975136928
20
-4.36101721212066
30
0
41
1
10
30.3050445382129
20
-4.42795266054836
30
0
41
1
10
30.6865512659196
20
-4.5586753426102
30
0
41
1
10
30.877151701905
20
-4.62240171661443
30
0
41
1
10
31.4491612620664
20
-4.80783112679836
30
0
41
1
10
31.8306500108342
20
-4.92398390001446
30
0
41
1
10
32.5939269881764
20
-5.14153534179042
30
0
41
1
10
32.9757175763428
20
-5.24292616618578
30
0
41
1
10
33.5487910007179
20
-5.3836511307068
30
0
41
1
10
33.7398772631453
20
-5.42866646460129
30
0
41
1
10
34.0266290156381
20
-5.49328622328315
30
0
41
1
10
34.1222108243144
20
-5.51433066360866
30
0
41
1
10
34.3131478160084
20
-5.55532916943054
30
0
41
1
10
34.4085418471632
20
-5.5752909661978
30
0
41
1
10
34.8852281359241
20
-5.67235726661562
30
0
41
1
10
35.2656057028829
20
-5.74131494340449
30
0
41
1
10
35.8346937110389
20
-5.83196511203735
30
0
41
1
10
36.0241454805228
20
-5.86004399507985
30
0
41
1
10
36.4026175473475
20
-5.91189328082316
30
0
41
1
10
36.5916767517532
20
-5.93563817855556
30
0
41
1
10
37.1587886661322
20
-6.00017147217028
30
0
41
1
10
37.5366798128836
20
-6.03433884361704
30
0
41
1
10
38.2920272152879
20
-6.08523181102191
30
0
41
1
10
38.6694845801087
20
-6.10194674413566
30
0
41
1
10
39.1991169444609
20
-6.11300570847865
30
0
41
1
10
39.3513727311251
20
-6.11474265462584
30
0
41
1
10
39.5036494751985
20
-6.11502928555748
30
0
0
SPLINE
5
F1
100
AcDbEntity
8
1
62
256
6
ByLayer
370
18
48
1
60
0
100
AcDbSpline
70
4
71
3
72
120
73
116
40
0
40
0
40
0
40
0
40
0.0189498020481788
40
0.0189498020481788
40
0.0378996040963576
40
0.0378996040963576
40
0.0568494061445365
40
0.0568494061445365
40
0.0757992081927153
40
0.0757992081927153
40
0.113698812289073
40
0.113698812289073
40
0.151598416385431
40
0.151598416385431
40
0.16107331740952
40
0.16107331740952
40
0.17054821843361
40
0.17054821843361
40
0.189498020481789
40
0.189498020481789
40
0.208447822529968
40
0.208447822529968
40
0.213185273042013
40
0.213185273042013
40
0.217922723554057
40
0.227397624578146
40
0.227397624578146
40
0.246347426626324
40
0.246347426626324
40
0.265297228674502
40
0.265297228674502
40
0.28424703072268
40
0.28424703072268
40
0.303196832770858
40
0.303196832770858
40
0.341096436867213
40
0.341096436867213
40
0.36004623891539
40
0.36004623891539
40
0.369521139939479
40
0.369521139939479
40
0.378996040963568
40
0.378996040963568
40
0.397945843011745
40
0.397945843011745
40
0.416895645059923
40
0.416895645059923
40
0.426370546084012
40
0.426370546084012
40
0.435845447108101
40
0.435845447108101
40
0.454795249156279
40
0.454795249156279
40
0.473745051204458
40
0.473745051204458
40
0.483219952228546
40
0.483219952228546
40
0.492694853252635
40
0.492694853252635
40
0.511644655300813
40
0.511644655300813
40
0.530594457348992
40
0.530594457348992
40
0.54954425939717
40
0.54954425939717
40
0.568494061445348
40
0.568494061445348
40
0.587443863493526
40
0.587443863493526
40
0.606393665541704
40
0.606393665541704
40
0.625343467589883
40
0.625343467589883
40
0.630080918101928
40
0.630080918101928
40
0.634818368613972
40
0.634818368613972
40
0.644293269638061
40
0.644293269638061
40
0.663243071686238
40
0.663243071686238
40
0.682192873734416
40
0.682192873734416
40
0.691667774758504
40
0.691667774758504
40
0.701142675782593
40
0.701142675782593
40
0.720092477830769
40
0.720092477830769
40
0.757992081927123
40
0.757992081927123
40
0.795891686023476
40
0.795891686023476
40
0.805366587047565
40
0.805366587047565
40
0.814841488071653
40
0.814841488071653
40
0.833791290119829
40
0.833791290119829
40
0.843266191143917
40
0.843266191143917
40
0.84800364165596
40
0.84800364165596
40
0.852741092168004
40
0.871690894216179
40
0.871690894216179
40
0.890640696264353
40
0.890640696264353
40
0.909590498312527
40
0.909590498312527
40
0.947490102408877
40
0.947490102408877
40
0.985389706505227
40
0.985389706505227
40
1
40
1
40
1
40
1
41
1
10
7.16777580993238
20
5.7443318886246
30
0
41
1
10
7.44444036758171
20
5.70091258954159
30
0
41
1
10
7.72042265581359
20
5.65310926271374
30
0
41
1
10
8.2711803762198
20
5.5489529014524
30
0
41
1
10
8.54594234696884
20
5.49258665360009
30
0
41
1
10
9.09449352206249
20
5.37155714486013
30
0
41
1
10
9.36824490306265
20
5.306851034038
30
0
41
1
10
9.91537087888668
20
5.16979614316278
30
0
41
1
10
10.1886376573286
20
5.09734425220913
30
0
41
1
10
11.0077760052224
20
4.86851979499906
30
0
41
1
10
11.5529596266664
20
4.70062680127086
30
0
41
1
10
12.6437987524012
20
4.33704340671764
30
0
41
1
10
13.1895714383295
20
4.14155134852763
30
0
41
1
10
13.8729887749216
20
3.88099640003634
30
0
41
1
10
14.0097228567701
20
3.82805859876694
30
0
41
1
10
14.2834231405694
20
3.72073302462928
30
0
41
1
10
14.4204015839506
20
3.6663670428313
30
0
41
1
10
14.8316275662964
20
3.50099783430264
30
0
41
1
10
15.1062059975418
20
3.38778904477786
30
0
41
1
10
15.6564004216501
20
3.15567245271308
30
0
41
1
10
15.9320232551692
20
3.0367747824408
30
0
41
1
10
16.277396699781
20
2.88488061242697
30
0
41
1
10
16.3465313444224
20
2.85432997310448
30
0
41
1
10
16.4846641149536
20
2.79300842325719
30
0
41
1
10
16.6917332700818
20
2.70066206196199
30
0
41
1
10
16.8984379589861
20
2.60727407435718
30
0
41
1
10
17.3114333526913
20
2.41925223657944
30
0
41
1
10
17.5862155330626
20
2.29225135781411
30
0
41
1
10
18.1347641832731
20
2.03511325044514
30
0
41
1
10
18.4085392275552
20
1.90499231728728
30
0
41
1
10
18.9553453520533
20
1.64215404106312
30
0
41
1
10
19.2285296696496
20
1.5097408518435
30
0
41
1
10
19.774415783448
20
1.24284735829085
30
0
41
1
10
20.0471354466492
20
1.10840197371107
30
0
41
1
10
20.8649515717597
20
0.702727662951503
30
0
41
1
10
21.4097214973181
20
0.429190104131067
30
0
41
1
10
22.2280409014471
20
0.0179509199252266
30
0
41
1
10
22.5009752126586
20
-0.119350563257115
30
0
41
1
10
22.9107334885334
20
-0.325405275785414
30
0
41
1
10
23.0473816842735
20
-0.394101879941474
30
0
41
1
10
23.3208293277305
20
-0.531464160101962
30
0
41
1
10
23.4576231809123
20
-0.600141595547228
30
0
41
1
10
23.8684415503161
20
-0.805693321969926
30
0
41
1
10
24.1427664788272
20
-0.942369555754226
30
0
41
1
10
24.6924401145488
20
-1.21474230800121
30
0
41
1
10
24.9677876417074
20
-1.35044173563313
30
0
41
1
10
25.3817895696389
20
-1.55282237365654
30
0
41
1
10
25.5200268875935
20
-1.62012169236152
30
0
41
1
10
25.7959598663811
20
-1.75381748316696
30
0
41
1
10
25.9337550581228
20
-1.82026475774433
30
0
41
1
10
26.3466921150786
20
-2.01828558017885
30
0
41
1
10
26.6214107692958
20
-2.14848803933515
30
0
41
1
10
27.1698785012078
20
-2.40499676898082
30
0
41
1
10
27.4436041145865
20
-2.53134788067504
30
0
41
1
10
27.853597337032
20
-2.71772591701443
30
0
41
1
10
27.990150971188
20
-2.77934805086093
30
0
41
1
10
28.2631504052021
20
-2.90137985466751
30
0
41
1
10
28.3996136209342
20
-2.96175905013348
30
0
41
1
10
28.8088101177193
20
-3.1411480768266
30
0
41
1
10
29.081385374477
20
-3.25834537851398
30
0
41
1
10
29.6262650681542
20
-3.48766038080419
30
0
41
1
10
29.8985736337716
20
-3.59976960763535
30
0
41
1
10
30.4432099820449
20
-3.81842098514033
30
0
41
1
10
30.7155300358548
20
-3.92497483967108
30
0
41
1
10
31.2605110616836
20
-4.13200083338887
30
0
41
1
10
31.5331868193108
20
-4.23245394664531
30
0
41
1
10
32.0789858862933
20
-4.42709928789128
30
0
41
1
10
32.3521200694213
20
-4.52127384016791
30
0
41
1
10
32.8990805796873
20
-4.70295126278282
30
0
41
1
10
33.17304066219
20
-4.7902743416474
30
0
41
1
10
33.721977686974
20
-4.95777470650808
30
0
41
1
10
33.9969569819565
20
-5.03794676725281
30
0
41
1
10
34.3414569895275
20
-5.13346573126995
30
0
41
1
10
34.4103963919946
20
-5.15233397026748
30
0
41
1
10
34.5483586186836
20
-5.18959238158649
30
0
41
1
10
34.6174103987518
20
-5.20799013372908
30
0
41
1
10
34.8244579484818
20
-5.26239359184507
30
0
41
1
10
34.9623109089419
20
-5.2976012938955
30
0
41
1
10
35.3753885467169
20
-5.40000625827454
30
0
41
1
10
35.6501357790651
20
-5.46397946523734
30
0
41
1
10
36.1986921623128
20
-5.58313990336802
30
0
41
1
10
36.4724691576879
20
-5.63836020618908
30
0
41
1
10
36.8824977723927
20
-5.71461027105571
30
0
41
1
10
37.0190703915333
20
-5.73892783303367
30
0
41
1
10
37.2920350332797
20
-5.78535009937053
30
0
41
1
10
37.4284179723688
20
-5.80745958539907
30
0
41
1
10
37.8374931731605
20
-5.87035394154668
30
0
41
1
10
38.1099996025981
20
-5.90778179163172
30
0
41
1
10
38.9270572962815
20
-6.00653322386333
30
0
41
1
10
39.4711355371853
20
-6.05430370835882
30
0
41
1
10
40.5602409902735
20
-6.11286117396381
30
0
41
1
10
41.1054116970053
20
-6.12365928892032
30
0
41
1
10
41.7884727469047
20
-6.11370884817691
30
0
41
1
10
41.9251610761234
20
-6.11054397776732
30
0
41
1
10
42.1987597609255
20
-6.10185827350722
30
0
41
1
10
42.3357003088201
20
-6.0963429059438
30
0
41
1
10
42.7468932510551
20
-6.07626187109824
30
0
41
1
10
43.0215285693764
20
-6.05816203731319
30
0
41
1
10
43.4343831352764
20
-6.02388739803911
30
0
41
1
10
43.5721512013637
20
-6.01127444268292
30
0
41
1
10
43.779056771558
20
-5.99056874731829
30
0
41
1
10
43.8480833554435
20
-5.98336718725983
30
0
41
1
10
43.9859947334223
20
-5.96839393805064
30
0
41
1
10
44.3305529786704
20
-5.9295241261965
30
0
41
1
10
44.6740517221072
20
-5.88350741781704
30
0
41
1
10
45.222637691132
20
-5.80103704196515
30
0
41
1
10
45.496444136208
20
-5.75539736939021
30
0
41
1
10
46.0431808592316
20
-5.6554593015513
30
0
41
1
10
46.3161189177356
20
-5.60116424871404
30
0
41
1
10
47.13396612069
20
-5.42561058059604
30
0
41
1
10
47.6783250036093
20
-5.29207065557591
30
0
41
1
10
48.7665222760923
20
-4.99343384107178
30
0
41
1
10
49.3103973275473
20
-4.82832985575806
30
0
41
1
10
50.0653375488727
20
-4.57968438196301
30
0
41
1
10
50.2755320463314
20
-4.50835962397227
30
0
41
1
10
50.4858984526348
20
-4.4349219427092
30
0
0
SPLINE
5
F2
100
AcDbEntity
8
1
62
256
6
ByLayer
370
18
48
1
60
0
100
AcDbSpline
70
4
71
3
72
18
73
14
40
0
40
0
40
0
40
0
40
0.0573448540085864
40
0.0573448540085864
40
0.214454045007155
40
0.214454045007155
40
0.371563236005724
40
0.371563236005724
40
0.528672427004294
40
0.528672427004294
40
0.685781618002862
40
0.685781618002862
40
1
40
1
40
1
40
1
41
1
10
4.01346064984051
20
6.05114762932263
30
0
41
1
10
4.06923343416358
20
6.05121633077866
30
0
41
1
10
4.1253576082257
20
6.05078683871363
30
0
41
1
10
4.33646945773984
20
6.04747181749477
30
0
41
1
10
4.49357669403383
20
6.04162619659604
30
0
41
1
10
4.81192578121565
20
6.02439471972707
30
0
41
1
10
4.97317101713838
20
6.01300333277678
30
0
41
1
10
5.29925939336022
20
5.98560944075498
30
0
41
1
10
5.46410443917989
20
5.96960381488532
30
0
41
1
10
5.79699038923351
20
5.93368826190152
30
0
41
1
10
5.96503243997597
20
5.91377645282293
30
0
41
1
10
6.47348615900859
20
5.84901818260306
30
0
41
1
10
6.81820422153356
20
5.79918421347764
30
0
41
1
10
7.16777643650613
20
5.74433194342424
30
0
0
SPLINE
5
F3
100
AcDbEntity
8
1
62
256
6
ByLayer
370
18
48
1
60
0
100
AcDbSpline
70
4
71
3
72
38
73
34
40
0
40
0
40
0
40
0
40
0.0737408761329683
40
0.0737408761329683
40
0.147481752265937
40
0.147481752265937
40
0.184352190332421
40
0.184352190332421
40
0.221222628398905
40
0.221222628398905
40
0.294963504531873
40
0.294963504531873
40
0.368704380664842
40
0.368704380664842
40
0.44244525679781
40
0.44244525679781
40
0.516186132930778
40
0.516186132930778
40
0.589927009063747
40
0.589927009063747
40
0.626797447130231
40
0.626797447130231
40
0.663667885196715
40
0.663667885196715
40
0.737408761329683
40
0.737408761329683
40
0.811149637462651
40
0.811149637462651
40
0.88489051359562
40
0.88489051359562
40
0.958631389728588
40
0.958631389728588
40
1
40
1
40
1
40
1
41
1
10
22.9000401761675
20
6.03604433716905
30
0
41
1
10
22.6394674718702
20
6.05216921377541
30
0
41
1
10
22.3788679054822
20
6.06410690886347
30
0
41
1
10
21.8574440586473
20
6.07955217803948
30
0
41
1
10
21.5965954868321
20
6.08305461420224
30
0
41
1
10
21.2049178285986
20
6.08194639868088
30
0
41
1
10
21.0742926928954
20
6.08051702066649
30
0
41
1
10
20.8128858943792
20
6.07553427299365
30
0
41
1
10
20.6821236074288
20
6.07198029275702
30
0
41
1
10
20.2901916153565
20
6.05815507743427
30
0
41
1
10
20.0291799570635
20
6.04471651108562
30
0
41
1
10
19.5075052395857
20
6.00947303453842
30
0
41
1
10
19.2468385485889
20
5.98766729554131
30
0
41
1
10
18.7255586830597
20
5.93581051707071
30
0
41
1
10
18.4649502037966
20
5.90575989478086
30
0
41
1
10
17.9436156878366
20
5.83750670202903
30
0
41
1
10
17.682893505228
20
5.79930233147618
30
0
41
1
10
17.1611667748265
20
5.71480968751465
30
0
41
1
10
16.9001376043471
20
5.66853525707407
30
0
41
1
10
16.5081466747681
20
5.59319873406744
30
0
41
1
10
16.3773533006853
20
5.56708634854985
30
0
41
1
10
16.1158903860802
20
5.51296085548373
30
0
41
1
10
15.9852551529859
20
5.48495595057435
30
0
41
1
10
15.5936053675354
20
5.39815548575657
30
0
41
1
10
15.3328528251007
20
5.33656853113811
30
0
41
1
10
14.8118385614705
20
5.20619053327269
30
0
41
1
10
14.5515731222804
20
5.1374018293107
30
0
41
1
10
14.0312410279977
20
4.99296180738702
30
0
41
1
10
13.7711791459
20
4.91730698118309
30
0
41
1
10
13.2510852704643
20
4.75935548840556
30
0
41
1
10
12.9910571134486
20
4.67705429607241
30
0
41
1
10
12.5850498502392
20
4.54355054837757
30
0
41
1
10
12.4391085314637
20
4.49456640400857
30
0
41
1
10
12.2931158058583
20
4.44460767341909
30
0
0
SPLINE
5
F4
100
AcDbEntity
8
1
62
256
6
ByLayer
370
18
48
1
60
0
100
AcDbSpline
70
4
71
3
72
94
73
90
40
0
40
0
40
0
40
0
40
0.0156250000000004
40
0.0156250000000004
40
0.0312500000000008
40
0.0625000000000007
40
0.0625000000000007
40
0.0937500000000006
40
0.0937500000000006
40
0.109375000000001
40
0.109375000000001
40
0.125
40
0.125
40
0.156249999999999
40
0.156249999999999
40
0.171874999999999
40
0.171874999999999
40
0.187499999999999
40
0.187499999999999
40
0.203124999999999
40
0.203124999999999
40
0.218749999999999
40
0.234374999999999
40
0.234374999999999
40
0.249999999999999
40
0.249999999999999
40
0.28125
40
0.28125
40
0.312500000000001
40
0.312500000000001
40
0.328125000000001
40
0.328125000000001
40
0.343750000000001
40
0.343750000000001
40
0.375000000000002
40
0.375000000000002
40
0.406250000000003
40
0.406250000000003
40
0.421875000000004
40
0.421875000000004
40
0.437500000000005
40
0.468750000000006
40
0.468750000000006
40
0.500000000000008
40
0.500000000000008
40
0.515625000000009
40
0.515625000000009
40
0.53125000000001
40
0.53125000000001
40
0.562500000000011
40
0.562500000000011
40
0.578125000000012
40
0.578125000000012
40
0.593750000000012
40
0.593750000000012
40
0.625000000000012
40
0.625000000000012
40
0.656250000000012
40
0.656250000000012
40
0.687500000000012
40
0.687500000000012
40
0.703125000000012
40
0.703125000000012
40
0.718750000000012
40
0.718750000000012
40
0.734375000000012
40
0.734375000000012
40
0.750000000000012
40
0.765625000000012
40
0.765625000000012
40
0.781250000000012
40
0.781250000000012
40
0.812500000000011
40
0.812500000000011
40
0.84375000000001
40
0.84375000000001
40
0.859375000000009
40
0.859375000000009
40
0.875000000000008
40
0.890625000000007
40
0.890625000000007
40
0.906250000000006
40
0.906250000000006
40
0.937500000000005
40
0.937500000000005
40
0.953125000000004
40
0.953125000000004
40
0.968750000000003
40
1
40
1
40
1
40
1
41
1
10
22.900040176177
20
6.04954358516653
30
0
41
1
10
23.0918132240996
20
6.03950998041137
30
0
41
1
10
23.2835988370468
20
6.02721296545485
30
0
41
1
10
23.6671633592196
20
5.99811768793813
30
0
41
1
10
24.24208823177
20
5.94775604045105
30
0
41
1
10
24.816101959677
20
5.87742090511509
30
0
41
1
10
25.5813122215726
20
5.76623828362796
30
0
41
1
10
25.9638468417162
20
5.70194473539158
30
0
41
1
10
26.538073684906
20
5.59275675370557
30
0
41
1
10
26.7295537392231
20
5.55423668533626
30
0
41
1
10
27.112747498798
20
5.47300648973825
30
0
41
1
10
27.3044978121658
20
5.43028641406519
30
0
41
1
10
27.8794196469068
20
5.29613558791507
30
0
41
1
10
28.2625170424572
20
5.19866442279007
30
0
41
1
10
28.8374361471383
20
5.04096734701525
30
0
41
1
10
29.0291539993909
20
4.98647415525147
30
0
41
1
10
29.4125459550999
20
4.87379700519099
30
0
41
1
10
29.6042192161873
20
4.81561418257894
30
0
41
1
10
29.9876018009348
20
4.6956571582233
30
0
41
1
10
30.1793006147253
20
4.63388545695312
30
0
41
1
10
30.5625404424953
20
4.50694827466228
30
0
41
1
10
30.9456910558972
20
4.37659615692499
30
0
41
1
10
31.3288369220219
20
4.23964864905165
30
0
41
1
10
31.7120690206098
20
4.0995249485382
30
0
41
1
10
31.9037565086469
20
4.02786384113637
30
0
41
1
10
32.4786961464764
20
3.80845443707199
30
0
41
1
10
32.8620507026834
20
3.65619362180615
30
0
41
1
10
33.6283563323595
20
3.34131397104636
30
0
41
1
10
34.011370389698
20
3.17866058658481
30
0
41
1
10
34.586180660745
20
2.92768571106589
30
0
41
1
10
34.7778474831595
20
2.84285475764943
30
0
41
1
10
35.160806828532
20
2.67126232196986
30
0
41
1
10
35.3521685199726
20
2.5844710100811
30
0
41
1
10
35.9260319572684
20
2.32135651138228
30
0
41
1
10
36.3083141214528
20
2.14229615132646
30
0
41
1
10
37.0729862411558
20
1.77816992062444
30
0
41
1
10
37.4553741250679
20
1.59310007979792
30
0
41
1
10
38.0295595412582
20
1.31197551914454
30
0
41
1
10
38.2211014002119
20
1.21765835422852
30
0
41
1
10
38.6042676108637
20
1.02812307100132
30
0
41
1
10
39.1788211116507
20
0.74262619179504
30
0
41
1
10
39.7531890756515
20
0.454340109346106
30
0
41
1
10
40.5194943180901
20
0.0687547314623771
30
0
41
1
10
40.9026084983086
20
-0.124499177923298
30
0
41
1
10
41.4772547816442
20
-0.413799044122271
30
0
41
1
10
41.6687749460368
20
-0.510122418309066
30
0
41
1
10
42.0518471946636
20
-0.702372819316878
30
0
41
1
10
42.2433981427319
20
-0.798299071576821
30
0
41
1
10
42.8178123598936
20
-1.08500628621394
30
0
41
1
10
43.2005779224436
20
-1.27478525485645
30
0
41
1
10
43.7749982097917
20
-1.55636608971281
30
0
41
1
10
43.9665485725461
20
-1.64972717657057
30
0
41
1
10
44.34957978078
20
-1.83513024073025
30
0
41
1
10
44.5410793438387
20
-1.92718131580966
30
0
41
1
10
45.115651745559
20
-2.20115258523239
30
0
41
1
10
45.4986828751011
20
-2.38083629841498
30
0
41
1
10
46.264648726637
20
-2.73267425632741
30
0
41
1
10
46.6473665240066
20
-2.90472882375269
30
0
41
1
10
47.4129754857054
20
-3.23987078319831
30
0
41
1
10
47.7959784658543
20
-3.40300025730693
30
0
41
1
10
48.3703619206659
20
-3.63973297402961
30
0
41
1
10
48.5618510477694
20
-3.71733799390751
30
0
41
1
10
48.9447782360537
20
-3.86971925656724
30
0
41
1
10
49.1362195831773
20
-3.94449704075419
30
0
41
1
10
49.5191416068852
20
-4.09109766425149
30
0
41
1
10
49.7106045908972
20
-4.16291359919526
30
0
41
1
10
50.0933761554421
20
-4.30336243704764
30
0
41
1
10
50.4760602533857
20
-4.44065401287321
30
0
41
1
10
50.8587447072063
20
-4.57138465809018
30
0
41
1
10
51.241518889988
20
-4.69871085854004
30
0
41
1
10
51.4329765927412
20
-4.76067926976881
30
0
41
1
10
52.0072220303326
20
-4.94117043263824
30
0
41
1
10
52.390074366143
20
-5.05433601521952
30
0
41
1
10
53.1557107894526
20
-5.26526570197595
30
0
41
1
10
53.538565332092
20
-5.36304722781983
30
0
41
1
10
54.112830963223
20
-5.49753591294726
30
0
41
1
10
54.3042734047309
20
-5.54034263138723
30
0
41
1
10
54.6869954702282
20
-5.62177903733516
30
0
41
1
10
55.0696251090622
20
-5.69905534376042
30
0
41
1
10
55.4522374799009
20
-5.76787996848086
30
0
41
1
10
55.8349275739327
20
-5.83241226797486
30
0
41
1
10
56.0263440737027
20
-5.86253653211787
30
0
41
1
10
56.6004752698971
20
-5.94632074747835
30
0
41
1
10
56.9832284259771
20
-5.99341203896449
30
0
41
1
10
57.5572812278803
20
-6.05055919530935
30
0
41
1
10
57.7486614501091
20
-6.0673651524101
30
0
41
1
10
58.1313437362647
20
-6.0964397274048
30
0
41
1
10
58.7051285128949
20
-6.1332391099038
30
0
41
1
10
59.2785885256769
20
-6.14953307733555
30
0
41
1
10
59.6610878643263
20
-6.15123126157201
30
0
0
SPLINE
5
F5
100
AcDbEntity
8
1
62
256
6
ByLayer
370
18
48
1
60
0
100
AcDbSpline
70
4
71
3
72
12
73
8
40
0
40
0
40
0
40
0
40
0.500000000000002
40
0.500000000000002
40
0.750000000000001
40
0.750000000000001
40
1
40
1
40
1
40
1
41
1
10
59.6167721673887
20
-6.09997019662552
30
0
41
1
10
59.6241385659913
20
-6.1163508275379
30
0
41
1
10
59.6315107960974
20
-6.12882216480878
30
0
41
1
10
59.6425946323743
20
-6.14165343605933
30
0
41
1
10
59.6462954958674
20
-6.14495171710425
30
0
41
1
10
59.6536962557323
20
-6.14957201668904
30
0
41
1
10
59.6573935850085
20
-6.15089373090734
30
0
41
1
10
59.6610878643264
20
-6.15123126157201
30
0
0
SPLINE
5
F6
100
AcDbEntity
8
1
62
256
6
ByLayer
370
18
48
1
60
0
100
AcDbSpline
70
4
71
3
72
72
73
68
40
0
40
0
40
0
40
0
40
0.0313587760489033
40
0.0313587760489033
40
0.0470381640733554
40
0.0470381640733554
40
0.0627175520978075
40
0.0627175520978075
40
0.125435104195616
40
0.125435104195616
40
0.188152656293424
40
0.188152656293424
40
0.250870208391233
40
0.250870208391233
40
0.266549596415685
40
0.266549596415685
40
0.282228984440137
40
0.282228984440137
40
0.290068678452364
40
0.290068678452364
40
0.29790837246459
40
0.29790837246459
40
0.313587760489044
40
0.313587760489044
40
0.344946536537952
40
0.344946536537952
40
0.37630531258686
40
0.37630531258686
40
0.407664088635767
40
0.407664088635767
40
0.423343476660221
40
0.423343476660221
40
0.439022864684675
40
0.439022864684675
40
0.50174041678249
40
0.50174041678249
40
0.533099192831398
40
0.533099192831398
40
0.540938886843625
40
0.540938886843625
40
0.548778580855853
40
0.564457968880306
40
0.564457968880306
40
0.627175520978122
40
0.627175520978122
40
0.65853429702703
40
0.65853429702703
40
0.689893073075939
40
0.689893073075939
40
0.752610625173755
40
0.752610625173755
40
0.76829001319821
40
0.776129707210437
40
0.776129707210437
40
0.783969401222665
40
0.783969401222665
40
0.815328177271576
40
0.815328177271576
40
0.846686953320488
40
0.846686953320488
40
0.878045729369399
40
0.878045729369399
40
0.909404505418311
40
0.909404505418311
40
0.940763281467222
40
0.940763281467222
40
1
40
1
40
1
40
1
41
1
10
59.6167721673915
20
-6.09997019662484
30
0
41
1
10
59.2336503480599
20
-6.0742259342245
30
0
41
1
10
58.8506641952133
20
-6.03936618711822
30
0
41
1
10
58.2758960295417
20
-5.97362102691076
30
0
41
1
10
58.0842582633571
20
-5.94946340431034
30
0
41
1
10
57.7008016911787
20
-5.89670033632262
30
0
41
1
10
57.5093130385474
20
-5.86813987591532
30
0
41
1
10
56.5535233108691
20
-5.7147657061752
30
0
41
1
10
55.7936590748375
20
-5.55799733744473
30
0
41
1
10
54.277568188999
20
-5.18283103675986
30
0
41
1
10
53.5215256544562
20
-4.96425950105078
30
0
41
1
10
52.0078217723872
20
-4.47190737432692
30
0
41
1
10
51.2501826271688
20
-4.19811518769319
30
0
41
1
10
50.2988283120521
20
-3.82566560969767
30
0
41
1
10
50.1083457245938
20
-3.74966081928261
30
0
41
1
10
49.7269071324637
20
-3.5946718635312
30
0
41
1
10
49.5359460958833
20
-3.51569484189918
30
0
41
1
10
49.2490319946641
20
-3.39517107945119
30
0
41
1
10
49.1533159597581
20
-3.3546523479119
30
0
41
1
10
48.9617184980947
20
-3.27293949668115
30
0
41
1
10
48.8657952536615
20
-3.23172720399015
30
0
41
1
10
48.5781288760052
20
-3.10725604168641
30
0
41
1
10
48.3865039343867
20
-3.02317050936915
30
0
41
1
10
47.8119682518461
20
-2.76781979957795
30
0
41
1
10
47.4293932704589
20
-2.59346607458337
30
0
41
1
10
46.6644581830909
20
-2.23778267447307
30
0
41
1
10
46.2821488395466
20
-2.05635887589966
30
0
41
1
10
45.5170563355926
20
-1.68780977835493
30
0
41
1
10
45.1342464787316
20
-1.50073660034258
30
0
41
1
10
44.5591390690295
20
-1.21686793566602
30
0
41
1
10
44.3671866005847
20
-1.12164712392257
30
0
41
1
10
43.9837229620219
20
-0.930589487444479
30
0
41
1
10
43.7921532655065
20
-0.834732767901841
30
0
41
1
10
42.8347696312605
20
-0.35449857962297
30
0
41
1
10
42.0703796288326
20
0.032789198903032
30
0
41
1
10
40.9220670450331
20
0.610394317132545
30
0
41
1
10
40.5390109491252
20
0.802380296598727
30
0
41
1
10
40.0594498863584
20
1.04091041638662
30
0
41
1
10
39.9634734180619
20
1.08855673136873
30
0
41
1
10
39.771620294897
20
1.18358444936632
30
0
41
1
10
39.4839613362526
20
1.32574336829759
30
0
41
1
10
39.1966056400263
20
1.46664148946442
30
0
41
1
10
38.2391679733271
20
1.93301073061107
30
0
41
1
10
37.4745254442801
20
2.29554099983673
30
0
41
1
10
36.3256898090265
20
2.81637655702187
30
0
41
1
10
35.9424637669902
20
2.98621541899442
30
0
41
1
10
35.1746076958384
20
3.3168041408276
30
0
41
1
10
34.7912498958923
20
3.47703839706926
30
0
41
1
10
33.6422777061275
20
3.94089635948185
30
0
41
1
10
32.8775305697819
20
4.22762556243291
30
0
41
1
10
31.9196825669694
20
4.55281261837124
30
0
41
1
10
31.632182882706
20
4.64787599778384
30
0
41
1
10
31.3443800862086
20
4.73907624165514
30
0
41
1
10
31.1524345015478
20
4.79900367518235
30
0
41
1
10
31.0563910784748
20
4.8285405350538
30
0
41
1
10
30.5766777170746
20
4.97379132115341
30
0
41
1
10
30.1940664870787
20
5.08229997009431
30
0
41
1
10
29.4304683646902
20
5.28339933274046
30
0
41
1
10
29.0494998530826
20
5.37600797396178
30
0
41
1
10
28.288468956847
20
5.54478207124905
30
0
41
1
10
27.9084105582822
20
5.62095581640685
30
0
41
1
10
27.1486117045664
20
5.7564886375975
30
0
41
1
10
26.7688408431977
20
5.81582512288375
30
0
41
1
10
26.0089497269215
20
5.91725921486557
30
0
41
1
10
25.6288570435991
20
5.95936572835816
30
0
41
1
10
24.5291676635179
20
6.05547049170585
30
0
41
1
10
23.8081421039954
20
6.08679138811121
30
0
41
1
10
23.083048822951
20
6.0854743414028
30
0
0
SPLINE
5
F7
100
AcDbEntity
8
1
62
256
6
ByLayer
370
18
48
1
60
0
100
AcDbSpline
70
4
71
3
72
72
73
68
40
0
40
0
40
0
40
0
40
0.0020931842688451
40
0.0020931842688451
40
0.0264323748964335
40
0.0264323748964335
40
0.075110756151612
40
0.075110756151612
40
0.12378913740679
40
0.12378913740679
40
0.172467518661969
40
0.172467518661969
40
0.221145899917148
40
0.221145899917148
40
0.269824281172326
40
0.269824281172326
40
0.294163471799914
40
0.294163471799914
40
0.318502662427503
40
0.318502662427503
40
0.342841853055092
40
0.342841853055092
40
0.36718104368268
40
0.36718104368268
40
0.415859424937856
40
0.415859424937856
40
0.440198615565444
40
0.440198615565444
40
0.464537806193033
40
0.464537806193033
40
0.476707401506828
40
0.476707401506828
40
0.488876996820623
40
0.488876996820623
40
0.513216187448213
40
0.513216187448213
40
0.561894568703394
40
0.561894568703394
40
0.586233759330984
40
0.586233759330984
40
0.610572949958574
40
0.610572949958574
40
0.659251331213752
40
0.659251331213752
40
0.671420926527546
40
0.671420926527546
40
0.68359052184134
40
0.68359052184134
40
0.707929712468929
40
0.707929712468929
40
0.756608093724108
40
0.756608093724108
40
0.780947284351697
40
0.780947284351697
40
0.805286474979286
40
0.805286474979286
40
0.829625665606876
40
0.829625665606876
40
0.84179526092067
40
0.84179526092067
40
0.853964856234465
40
0.853964856234465
40
0.902643237489643
40
0.902643237489643
40
0.951321618744822
40
0.951321618744822
40
1
40
1
40
1
40
1
41
1
10
36.1645534887421
20
5.87923224727154
30
0
41
1
10
36.1808311048285
20
5.88149363684849
30
0
41
1
10
36.1971071071836
20
5.88373910388566
30
0
41
1
10
36.4026175473458
20
5.91189328082294
30
0
41
1
10
36.5916767517516
20
5.93563817855537
30
0
41
1
10
37.1587886661305
20
6.00017147217011
30
0
41
1
10
37.5366798128819
20
6.03433884361689
30
0
41
1
10
38.2920272152862
20
6.0852318110218
30
0
41
1
10
38.6694845801069
20
6.10194674413557
30
0
41
1
10
39.424215625069
20
6.11770587117653
30
0
41
1
10
39.8015132458528
20
6.11672579759926
30
0
41
1
10
40.5569472736805
20
6.09680707056032
30
0
41
1
10
40.9350814834293
20
6.07785269817393
30
0
41
1
10
41.6936142243376
20
6.02221381015912
30
0
41
1
10
42.0740036747624
20
5.98557650267793
30
0
41
1
10
42.6462233909056
20
5.91727025289359
30
0
41
1
10
42.8372802410457
20
5.89226674212949
30
0
41
1
10
43.2197900885831
20
5.83777368776651
30
0
41
1
10
43.4108281250906
20
5.8083438805771
30
0
41
1
10
43.7925035731078
20
5.74512549744358
30
0
41
1
10
43.983136882538
20
5.71133078385503
30
0
41
1
10
44.3642690811382
20
5.63956220631462
30
0
41
1
10
44.5547699746688
20
5.60159195669226
30
0
41
1
10
45.1262666556501
20
5.48160617701612
30
0
41
1
10
45.5072632699734
20
5.39354744214617
30
0
41
1
10
46.078604672028
20
5.24916532171116
30
0
41
1
10
46.2690173598044
20
5.19896998084474
30
0
41
1
10
46.650151790443
20
5.09482564707989
30
0
41
1
10
46.8408843415112
20
5.04089307355548
30
0
41
1
10
47.1272644209941
20
4.95725554864816
30
0
41
1
10
47.2227714549435
20
4.92892002610654
30
0
41
1
10
47.4138803792345
20
4.87133795468111
30
0
41
1
10
47.509507954748
20
4.84208323481135
30
0
41
1
10
47.7963373336584
20
4.75301451765861
30
0
41
1
10
47.9874102567844
20
4.69192029132094
30
0
41
1
10
48.560221590137
20
4.50355469584659
30
0
41
1
10
48.9415517497226
20
4.37120965663698
30
0
41
1
10
49.512747851787
20
4.16247904115104
30
0
41
1
10
49.7030000268942
20
4.09117441536648
30
0
41
1
10
50.0835948331402
20
3.9456618611712
30
0
41
1
10
50.2739543797512
20
3.8714831966783
30
0
41
1
10
50.8452438273083
20
3.64473373129562
30
0
41
1
10
51.2263546696554
20
3.48789423106936
30
0
41
1
10
51.7036307735667
20
3.28569214697657
30
0
41
1
10
51.7991312526927
20
3.24494598628084
30
0
41
1
10
51.9902257169849
20
3.1628472528474
30
0
41
1
10
52.0858360327099
20
3.12148649160619
30
0
41
1
10
52.3725019324705
20
2.99662714275621
30
0
41
1
10
52.5634815151245
20
2.9123128312734
30
0
41
1
10
53.1360571097505
20
2.6562043315061
30
0
41
1
10
53.5172841201627
20
2.48123586773136
30
0
41
1
10
54.0886722100936
20
2.2129075867237
30
0
41
1
10
54.2790435821334
20
2.12245391017299
30
0
41
1
10
54.6599594247886
20
1.94018186326593
30
0
41
1
10
54.8505269889691
20
1.84840890217956
30
0
41
1
10
55.2318708917941
20
1.6635769614831
30
0
41
1
10
55.4226409128376
20
1.57050576588125
30
0
41
1
10
55.708955588192
20
1.4299369323092
30
0
41
1
10
55.8044198910031
20
1.38291918784921
30
0
41
1
10
55.9954117085108
20
1.28858106998951
30
0
41
1
10
56.0909450546363
20
1.24125887433956
30
0
41
1
10
56.5683020524549
20
1.00421371497407
30
0
41
1
10
56.9496252600433
20
0.813046379373759
30
0
41
1
10
57.7120050922616
20
0.429345913230151
30
0
41
1
10
58.0930133076856
20
0.236718117015499
30
0
41
1
10
58.8549322871642
20
-0.149569975369843
30
0
41
1
10
59.235840255912
20
-0.343236027796877
30
0
41
1
10
59.6169161925352
20
-0.536996675886513
30
0
0
SPLINE
5
F8
100
AcDbEntity
8
1
62
256
6
ByLayer
370
18
48
1
60
0
100
AcDbSpline
70
4
71
3
72
8
73
4
40
0
40
0
40
0
40
0
40
1
40
1
40
1
40
1
41
1
10
59.6169161925313
20
-0.536996675885149
30
0
41
1
10
59.6456644317761
20
-0.2663204848823
30
0
41
1
10
59.680053852529
20
0.0036492244738611
30
0
41
1
10
59.7214836280056
20
0.272717133054954
30
0
0
SPLINE
5
F9
100
AcDbEntity
8
1
62
256
6
ByLayer
370
18
48
1
60
0
100
AcDbSpline
70
4
71
3
72
18
73
14
40
0
40
0
40
0
40
0
40
0.16030779202682
40
0.16030779202682
40
0.320615584053641
40
0.320615584053641
40
0.480923376080461
40
0.480923376080461
40
0.641231168107282
40
0.641231168107282
40
0.961846752160919
40
0.961846752160919
40
1
40
1
40
1
40
1
41
1
10
7.16777580993238
20
-5.7443318886246
30
0
41
1
10
7.44444036758171
20
-5.70091258954159
30
0
41
1
10
7.72042265581356
20
-5.65310926271374
30
0
41
1
10
8.2711803762198
20
-5.5489529014524
30
0
41
1
10
8.54594234696881
20
-5.49258665360009
30
0
41
1
10
9.09449352206249
20
-5.37155714486013
30
0
41
1
10
9.36824490306265
20
-5.306851034038
30
0
41
1
10
9.91537087888668
20
-5.16979614316278
30
0
41
1
10
10.1886376573286
20
-5.09734425220916
30
0
41
1
10
11.0077760052224
20
-4.86851979499909
30
0
41
1
10
11.5529596266664
20
-4.70062680127086
30
0
41
1
10
12.1632841061797
20
-4.49720189579648
30
0
41
1
10
12.2281940233994
20
-4.47537467685558
30
0
41
1
10
12.2931099658708
20
-4.45335470844552
30
0
0
SPLINE
5
FA
100
AcDbEntity
8
1
62
256
6
ByLayer
370
18
48
1
60
0
100
AcDbSpline
70
4
71
3
72
57
73
53
40
0
40
0
40
0
40
0
40
0.0212216873635431
40
0.0212216873635431
40
0.0434666490143712
40
0.0434666490143712
40
0.0657116106651993
40
0.0657116106651993
40
0.110201533966858
40
0.110201533966858
40
0.132446495617687
40
0.132446495617687
40
0.143568976443102
40
0.143568976443102
40
0.154691457268516
40
0.199181380570173
40
0.199181380570173
40
0.24367130387183
40
0.24367130387183
40
0.288161227173486
40
0.288161227173486
40
0.377141073776798
40
0.377141073776798
40
0.46612092038011
40
0.46612092038011
40
0.510610843681766
40
0.510610843681766
40
0.532855805332594
40
0.532855805332594
40
0.555100766983423
40
0.555100766983423
40
0.599590690285081
40
0.599590690285081
40
0.62183565193591
40
0.62183565193591
40
0.644080613586739
40
0.644080613586739
40
0.688570536888396
40
0.688570536888396
40
0.733060460190054
40
0.733060460190054
40
0.777550383491712
40
0.777550383491712
40
0.822040306793369
40
0.822040306793369
40
0.866530230095027
40
0.866530230095027
40
0.911020153396685
40
0.911020153396685
40
0.955510076698343
40
0.955510076698343
40
1
40
1
40
1
40
1
41
1
10
41.2610856566984
20
6.11819726670763
30
0
41
1
10
41.3912772176591
20
6.1184290001982
30
0
41
1
10
41.5215325257669
20
6.11759747987807
30
0
41
1
10
41.7884727469046
20
6.11370884817691
30
0
41
1
10
41.9251610761234
20
6.11054397776732
30
0
41
1
10
42.1987597609256
20
6.10185827350722
30
0
41
1
10
42.3357003088202
20
6.0963429059438
30
0
41
1
10
42.7468932510551
20
6.07626187109824
30
0
41
1
10
43.0215285693764
20
6.05816203731319
30
0
41
1
10
43.4343831352764
20
6.02388739803911
30
0
41
1
10
43.5721512013638
20
6.01127444268292
30
0
41
1
10
43.779056771558
20
5.99056874731829
30
0
41
1
10
43.8480833554435
20
5.98336718725983
30
0
41
1
10
43.9859947334223
20
5.96839393805064
30
0
41
1
10
44.3305529786704
20
5.9295241261965
30
0
41
1
10
44.6740517221072
20
5.88350741781704
30
0
41
1
10
45.2226376911321
20
5.80103704196515
30
0
41
1
10
45.496444136208
20
5.75539736939021
30
0
41
1
10
46.0431808592316
20
5.6554593015513
30
0
41
1
10
46.3161189177355
20
5.60116424871404
30
0
41
1
10
47.1339661206901
20
5.42561058059601
30
0
41
1
10
47.6783250036093
20
5.29207065557594
30
0
41
1
10
48.7665222760923
20
4.99343384107178
30
0
41
1
10
49.3103973275472
20
4.82832985575806
30
0
41
1
10
50.1277271115653
20
4.55913589092043
30
0
41
1
10
50.4004072322177
20
4.46580130412309
30
0
41
1
10
50.8098845211923
20
4.32048945289503
30
0
41
1
10
50.9464560206359
20
4.27117087709323
30
0
41
1
10
51.2197844457537
20
4.17079950742513
30
0
41
1
10
51.3565294836807
20
4.11972778447179
30
0
41
1
10
51.7671992600053
20
3.96413561047569
30
0
41
1
10
52.0415199779374
20
3.85718499886923
30
0
41
1
10
52.4538676165669
20
3.6919511642804
30
0
41
1
10
52.5914655085269
20
3.63607827125119
30
0
41
1
10
52.8669835405818
20
3.52276873299081
30
0
41
1
10
53.0049969144565
20
3.46529456308249
30
0
41
1
10
53.4184378079415
20
3.29108709516319
30
0
41
1
10
53.6935133364643
20
3.17246346161195
30
0
41
1
10
54.2428657155398
20
2.93080592012279
30
0
41
1
10
54.5171660981983
20
2.8078141696852
30
0
41
1
10
55.0652526561677
20
2.55795607453467
30
0
41
1
10
55.3390083556041
20
2.43103461264363
30
0
41
1
10
55.8861534419149
20
2.17359521975894
30
0
41
1
10
56.1595292759005
20
2.04304989180602
30
0
41
1
10
56.7064174911002
20
1.77931059368459
30
0
41
1
10
56.9798611932927
20
1.6459886718674
30
0
41
1
10
57.5269316702
20
1.37678830180101
30
0
41
1
10
57.8005554265315
20
1.24090336582464
30
0
41
1
10
58.3482563375266
20
0.967088806378854
30
0
41
1
10
58.6223288331312
20
0.829149516504941
30
0
41
1
10
59.1712557645944
20
0.551863267483242
30
0
41
1
10
59.4461334805964
20
0.412565084945044
30
0
41
1
10
59.7214836280056
20
0.272717133055153
30
0
0
SPLINE
5
FB
100
AcDbEntity
8
1
62
256
6
ByLayer
370
18
48
1
60
0
100
AcDbSpline
70
4
71
3
72
38
73
34
40
0
40
0
40
0
40
0
40
0.0021738313343743
40
0.0021738313343743
40
0.0378104802152907
40
0.0378104802152907
40
0.073447129096207
40
0.073447129096207
40
0.144720426858037
40
0.144720426858037
40
0.215993724619866
40
0.215993724619866
40
0.287267022381696
40
0.287267022381696
40
0.358540320143526
40
0.358540320143526
40
0.429813617905354
40
0.429813617905354
40
0.465450266786269
40
0.465450266786269
40
0.501086915667184
40
0.501086915667184
40
0.572360213429015
40
0.572360213429015
40
0.643633511190846
40
0.643633511190846
40
0.714906808952677
40
0.714906808952677
40
0.786180106714508
40
0.786180106714508
40
0.857453404476339
40
0.857453404476339
40
1
40
1
40
1
40
1
41
1
10
21.3593685891304
20
-6.08237156925415
30
0
41
1
10
21.3514049906129
20
-6.08235692579368
30
0
41
1
10
21.3434411448324
20
-6.08233833752624
30
0
41
1
10
21.2049178285977
20
-6.08194639868088
30
0
41
1
10
21.0742926928944
20
-6.08051702066646
30
0
41
1
10
20.812885894378
20
-6.07553427299362
30
0
41
1
10
20.6821236074277
20
-6.07198029275699
30
0
41
1
10
20.2901916153556
20
-6.05815507743421
30
0
41
1
10
20.0291799570627
20
-6.04471651108557
30
0
41
1
10
19.507505239585
20
-6.00947303453836
30
0
41
1
10
19.2468385485882
20
-5.98766729554126
30
0
41
1
10
18.7255586830591
20
-5.93581051707065
30
0
41
1
10
18.4649502037959
20
-5.90575989478077
30
0
41
1
10
17.9436156878357
20
-5.83750670202889
30
0
41
1
10
17.6828935052271
20
-5.79930233147604
30
0
41
1
10
17.1611667748253
20
-5.71480968751442
30
0
41
1
10
16.9001376043456
20
-5.66853525707381
30
0
41
1
10
16.5081466747663
20
-5.5931987340671
30
0
41
1
10
16.3773533006834
20
-5.56708634854945
30
0
41
1
10
16.1158903860786
20
-5.51296085548336
30
0
41
1
10
15.9852551529843
20
-5.484955950574
30
0
41
1
10
15.593605367534
20
-5.39815548575626
30
0
41
1
10
15.3328528250996
20
-5.33656853113783
30
0
41
1
10
14.8118385614696
20
-5.20619053327246
30
0
41
1
10
14.5515731222797
20
-5.13740182931051
30
0
41
1
10
14.0312410279973
20
-4.99296180738688
30
0
41
1
10
13.7711791458996
20
-4.91730698118297
30
0
41
1
10
13.2510852704641
20
-4.7593554884055
30
0
41
1
10
12.9910571134485
20
-4.67705429607236
30
0
41
1
10
12.470868339428
20
-4.50600526041831
30
0
41
1
10
12.2106835783866
20
-4.41728770643209
30
0
41
1
10
11.4294679745981
20
-4.1420712608994
30
0
41
1
10
10.9077753560886
20
-3.94652408002523
30
0
41
1
10
10.3845368605063
20
-3.73973142182572
30
0
0
SPLINE
5
FC
100
AcDbEntity
8
1
62
256
6
ByLayer
370
18
48
1
60
0
100
AcDbSpline
70
4
71
3
72
28
73
24
40
0
40
0
40
0
40
0
40
0.0614441336734284
40
0.0614441336734284
40
0.12401452476187
40
0.12401452476187
40
0.249155306938748
40
0.249155306938748
40
0.374296089115627
40
0.374296089115627
40
0.436866480204067
40
0.436866480204067
40
0.499436871292506
40
0.562007262380945
40
0.562007262380945
40
0.624577653469385
40
0.624577653469385
40
0.74971843564626
40
0.74971843564626
40
0.812288826734696
40
0.812288826734696
40
0.874859217823132
40
1
40
1
40
1
40
1
41
1
10
50.4863927298546
20
4.44263045464433
30
0
41
1
10
50.6742907561361
20
4.50837191547595
30
0
41
1
10
50.8621896454121
20
4.57253058410154
30
0
41
1
10
51.241518889988
20
4.69871085854001
30
0
41
1
10
51.4329765927411
20
4.76067926976879
30
0
41
1
10
52.0072220303326
20
4.94117043263822
30
0
41
1
10
52.390074366143
20
5.05433601521949
30
0
41
1
10
53.1557107894525
20
5.26526570197592
30
0
41
1
10
53.5385653320919
20
5.36304722781981
30
0
41
1
10
54.1128309632229
20
5.49753591294726
30
0
41
1
10
54.3042734047309
20
5.5403426313872
30
0
41
1
10
54.6869954702282
20
5.62177903733516
30
0
41
1
10
55.0696251090621
20
5.69905534376042
30
0
41
1
10
55.4522374799008
20
5.76787996848086
30
0
41
1
10
55.8349275739325
20
5.83241226797483
30
0
41
1
10
56.0263440737027
20
5.86253653211784
30
0
41
1
10
56.6004752698971
20
5.94632074747835
30
0
41
1
10
56.9832284259771
20
5.99341203896446
30
0
41
1
10
57.5572812278802
20
6.05055919530935
30
0
41
1
10
57.7486614501091
20
6.06736515241008
30
0
41
1
10
58.1313437362646
20
6.0964397274048
30
0
41
1
10
58.7051285128949
20
6.13323910990377
30
0
41
1
10
59.2785885256769
20
6.14953307733555
30
0
41
1
10
59.6610878643263
20
6.15123126157201
30
0
0
SPLINE
5
FD
100
AcDbEntity
8
1
62
256
6
ByLayer
370
18
48
1
60
0
100
AcDbSpline
70
4
71
3
72
116
73
112
40
0
40
0
40
0
40
0
40
0.0624999999999817
40
0.0624999999999817
40
0.124999999999963
40
0.124999999999963
40
0.156249999999955
40
0.156249999999955
40
0.187499999999946
40
0.187499999999946
40
0.249999999999929
40
0.249999999999929
40
0.28124999999992
40
0.28124999999992
40
0.289062499999918
40
0.289062499999918
40
0.290039062499919
40
0.290039062499919
40
0.291015624999919
40
0.291015624999919
40
0.29296874999992
40
0.29296874999992
40
0.29492187499992
40
0.29492187499992
40
0.295898437499921
40
0.295898437499921
40
0.296874999999921
40
0.296874999999921
40
0.297851562499921
40
0.297851562499921
40
0.298828124999921
40
0.300781249999922
40
0.304687499999922
40
0.312499999999923
40
0.312499999999923
40
0.328124999999925
40
0.328124999999925
40
0.343749999999927
40
0.343749999999927
40
0.37499999999993
40
0.37499999999993
40
0.390624999999931
40
0.390624999999931
40
0.398437499999932
40
0.398437499999932
40
0.406249999999932
40
0.406249999999932
40
0.437499999999937
40
0.437499999999937
40
0.468749999999941
40
0.468749999999941
40
0.484374999999943
40
0.484374999999943
40
0.492187499999943
40
0.492187499999943
40
0.499999999999944
40
0.499999999999944
40
0.515624999999945
40
0.515624999999945
40
0.531249999999946
40
0.531249999999946
40
0.539062499999946
40
0.539062499999946
40
0.542968749999947
40
0.542968749999947
40
0.546874999999947
40
0.562499999999949
40
0.562499999999949
40
0.593749999999952
40
0.593749999999952
40
0.609374999999953
40
0.609374999999953
40
0.624999999999955
40
0.624999999999955
40
0.632812499999956
40
0.636718749999956
40
0.636718749999956
40
0.640624999999957
40
0.640624999999957
40
0.65624999999996
40
0.65624999999996
40
0.671874999999962
40
0.671874999999962
40
0.687499999999965
40
0.687499999999965
40
0.695312499999966
40
0.695312499999966
40
0.699218749999967
40
0.699218749999967
40
0.703124999999968
40
0.71874999999997
40
0.71874999999997
40
0.749999999999973
40
0.749999999999973
40
0.781249999999976
40
0.781249999999976
40
0.789062499999977
40
0.789062499999977
40
0.796874999999978
40
0.796874999999978
40
0.81249999999998
40
0.81249999999998
40
0.843749999999984
40
0.843749999999984
40
0.874999999999987
40
0.874999999999987
40
0.90624999999999
40
0.90624999999999
40
0.937499999999993
40
0.937499999999993
40
1
40
1
40
1
40
1
41
1
10
10.3844925324438
20
-3.73972887980778
30
0
41
1
10
10.0433068390087
20
-3.60483200568217
30
0
41
1
10
9.69985888210152
20
-3.46995787709494
30
0
41
1
10
9.00699912999249
20
-3.20449121061085
30
0
41
1
10
8.65757944748324
20
-3.07391624451409
30
0
41
1
10
8.12801927955488
20
-2.88440349901131
30
0
41
1
10
7.95052927479549
20
-2.82226503637636
30
0
41
1
10
7.59430605085475
20
-2.70079010793009
30
0
41
1
10
7.41550574469289
20
-2.64142915612049
30
0
41
1
10
6.87690336712916
20
-2.46810041566985
30
0
41
1
10
6.51489254691566
20
-2.35890927302557
30
0
41
1
10
5.96703931573927
20
-2.20681662018529
30
0
41
1
10
5.78361531131856
20
-2.15806302152839
30
0
41
1
10
5.55329846388076
20
-2.0997461110675
30
0
41
1
10
5.50718999568915
20
-2.0882158272812
30
0
41
1
10
5.45527975717104
20
-2.07539887316156
30
0
41
1
10
5.44951146513114
20
-2.07397701539705
30
0
41
1
10
5.43797395928704
20
-2.07113753149659
30
0
41
1
10
5.43221365003132
20
-2.06967538441077
30
0
41
1
10
5.41485462168652
20
-2.06567886150521
30
0
41
1
10
5.40311770937382
20
-2.06383493482033
30
0
41
1
10
5.37916991856801
20
-2.06251745188348
30
0
41
1
10
5.36681215259202
20
-2.06300591915345
30
0
41
1
10
5.34891865095739
20
-2.06588518925605
30
0
41
1
10
5.34303173484739
20
-2.06719897695424
30
0
41
1
10
5.33146416209371
20
-2.07076710351481
30
0
41
1
10
5.32577360525428
20
-2.07303110988462
30
0
41
1
10
5.3148921334799
20
-2.07838039648692
30
0
41
1
10
5.3097180248804
20
-2.0814952472972
30
0
41
1
10
5.29926883109871
20
-2.08755265734473
30
0
41
1
10
5.28360019530245
20
-2.09664394636096
30
0
41
1
10
5.24707744913332
20
-2.11789392599189
30
0
41
1
10
5.17418093008621
20
-2.16054378263843
30
0
41
1
10
5.11196892708381
20
-2.19735454835083
30
0
41
1
10
4.98791788273405
20
-2.27132356368429
30
0
41
1
10
4.9056900769537
20
-2.32111437475686
30
0
41
1
10
4.74248493450537
20
-2.42156188272781
30
0
41
1
10
4.66149449156103
20
-2.47222582898789
30
0
41
1
10
4.42049319341618
20
-2.62561334176988
30
0
41
1
10
4.26244230477539
20
-2.72972662291266
30
0
41
1
10
4.02997498035137
20
-2.88906768969451
30
0
41
1
10
3.9532562964346
20
-2.94271123631552
30
0
41
1
10
3.83944574968689
20
-3.02403553749875
30
0
41
1
10
3.80171770762632
20
-3.05128938324475
30
0
41
1
10
3.72690224414879
20
-3.10595078437893
30
0
41
1
10
3.68979046329346
20
-3.13337559753663
30
0
41
1
10
3.50577287560617
20
-3.27098300057753
30
0
41
1
10
3.36346122357983
20
-3.38260846162842
30
0
41
1
10
3.09064731094634
20
-3.60936829865992
30
0
41
1
10
2.96012296768498
20
-3.72449732324341
30
0
41
1
10
2.77548155197221
20
-3.90033473381749
30
0
41
1
10
2.71580203000855
20
-3.95947363161824
30
0
41
1
10
2.62950767149806
20
-4.04906916929076
30
0
41
1
10
2.60123323929798
20
-4.07913679813643
30
0
41
1
10
2.54620976604065
20
-4.13918877329886
30
0
41
1
10
2.51943495422776
20
-4.16919715281205
30
0
41
1
10
2.44142906539128
20
-4.25916064187192
30
0
41
1
10
2.39251124295404
20
-4.31905433911302
30
0
41
1
10
2.30153391654028
20
-4.43862589166196
30
0
41
1
10
2.25947210403717
20
-4.49830383433385
30
0
41
1
10
2.20218260383706
20
-4.5876136317234
30
0
41
1
10
2.18405505185132
20
-4.61734897104603
30
0
41
1
10
2.15841889328414
20
-4.66189361951302
30
0
41
1
10
2.15012446002731
20
-4.67674878712319
30
0
41
1
10
2.13416452559721
20
-4.70626492225929
30
0
41
1
10
2.0957842244201
20
-4.77965822008409
30
0
41
1
10
2.06505482423762
20
-4.851045946623
30
0
41
1
10
2.00659784922559
20
-5.01832860581729
30
0
41
1
10
1.98793664787988
20
-5.12447083846158
30
0
41
1
10
1.99405148208237
20
-5.27456341384274
30
0
41
1
10
2.00175163291971
20
-5.3219251132106
30
0
41
1
10
2.02773467161251
20
-5.41154532289798
30
0
41
1
10
2.04601967024965
20
-5.45382278184121
30
0
41
1
10
2.08095946855912
20
-5.51365224125908
30
0
41
1
10
2.10030919188557
20
-5.54266955365705
30
0
41
1
10
2.12241283333123
20
-5.57037451009319
30
0
41
1
10
2.13775415651617
20
-5.58855622878588
30
0
41
1
10
2.14573917007252
20
-5.59751455921042
30
0
41
1
10
2.18694167363151
20
-5.64136661317264
30
0
41
1
10
2.22406286970306
20
-5.67357220006139
30
0
41
1
10
2.30556875660571
20
-5.7329861049667
30
0
41
1
10
2.34995658644522
20
-5.7601922763721
30
0
41
1
10
2.44519872914856
20
-5.81018487906306
30
0
41
1
10
2.49605502264308
20
-5.83296995241099
30
0
41
1
10
2.57672187462316
20
-5.86417610870964
30
0
41
1
10
2.60434241332106
20
-5.87408210067849
30
0
41
1
10
2.64682115618675
20
-5.88823371790343
30
0
41
1
10
2.66116462815214
20
-5.89283557454573
30
0
41
1
10
2.69009155498833
20
-5.9017786026545
30
0
41
1
10
2.76306302896239
20
-5.92350177056395
30
0
41
1
10
2.83917137197435
20
-5.94219083229609
30
0
41
1
10
3.02708619393837
20
-5.98201552659492
30
0
41
1
10
3.15933281684153
20
-6.00189673224472
30
0
41
1
10
3.43493843150944
20
-6.03128803279205
30
0
41
1
10
3.57831700024994
20
-6.04077840382058
30
0
41
1
10
3.76335631940364
20
-6.04736620032349
30
0
41
1
10
3.80065668178452
20
-6.04841828027281
30
0
41
1
10
3.87581965677441
20
-6.05001606977487
30
0
41
1
10
3.91370100602597
20
-6.05056151860964
30
0
41
1
10
4.02776165030087
20
-6.05147152817474
30
0
41
1
10
4.10447841356944
20
-6.05111469796691
30
0
41
1
10
4.33646945775428
20
-6.04747181749431
30
0
41
1
10
4.49357669404759
20
-6.04162619659544
30
0
41
1
10
4.81192578122801
20
-6.02439471972627
30
0
41
1
10
4.97317101715004
20
-6.0130033327759
30
0
41
1
10
5.29925939337028
20
-5.98560944075402
30
0
41
1
10
5.46410443918913
20
-5.96960381488438
30
0
41
1
10
5.79699038924105
20
-5.93368826190064
30
0
41
1
10
5.96503243998268
20
-5.91377645282211
30
0
41
1
10
6.47348615901257
20
-5.84901818260249
30
0
41
1
10
6.81820422153561
20
-5.79918421347733
30
0
41
1
10
7.16777643650613
20
-5.74433194342424
30
0
0
SPLINE
5
FE
100
AcDbEntity
8
1
62
256
6
ByLayer
370
18
48
1
60
0
100
AcDbSpline
70
4
71
3
72
12
73
8
40
0
40
0
40
0
40
0
40
0.0822337470931753
40
0.26714183502744
40
0.452049922961706
40
0.821866098830237
40
1
40
1
40
1
40
1
41
1
10
11.3728931528534
20
-4.10282910103476
30
0
41
1
10
11.2566498108871
20
-4.14549004519662
30
0
41
1
10
10.8792801283184
20
-4.28470695535552
30
0
41
1
10
10.2421039891809
20
-4.52374388993118
30
0
41
1
10
9.20272452490042
20
-4.92266114830684
30
0
41
1
10
8.17758254960762
20
-5.32948993389815
30
0
41
1
10
7.41519624298178
20
-5.64190023655243
30
0
41
1
10
7.16777580993198
20
-5.74433188862477
30
0
0
SPLINE
5
FF
100
AcDbEntity
8
SK1
62
256
6
ByLayer
370
18
48
1
60
0
100
AcDbSpline
70
4
71
3
72
8
73
4
40
0
40
0
40
0
40
0
40
1
40
1
40
1
40
1
41
1
10
-44
20
-5.71654468874476
30
0
41
1
10
-44.3340973752305
20
-5.37788532691346
30
0
41
1
10
-44.6675861843934
20
-5.03864676923752
30
0
41
1
10
-45
20
-4.69838509865065
30
0
0
SPLINE
5
100
100
AcDbEntity
8
SK1
62
256
6
ByLayer
370
18
48
1
60
0
100
AcDbSpline
70
4
71
3
72
22
73
18
40
0
40
0
40
0
40
0
40
0.0624999999999986
40
0.0624999999999986
40
0.124999999999997
40
0.124999999999997
40
0.187499999999996
40
0.187499999999996
40
0.249999999999994
40
0.249999999999994
40
0.374999999999992
40
0.374999999999992
40
0.499999999999989
40
0.499999999999989
40
0.749999999999994
40
0.749999999999994
40
1
40
1
40
1
40
1
41
1
10
-43.9
20
-5.85035416842379
30
0
41
1
10
-43.9
20
-5.84904165536227
30
0
41
1
10
-43.9002571474035
20
-5.84748702587197
30
0
41
1
10
-43.9012483776125
20
-5.84392833874253
30
0
41
1
10
-43.9019843513023
20
-5.84192851274267
30
0
41
1
10
-43.9038359635904
20
-5.83765223017318
30
0
41
1
10
-43.9049554869821
20
-5.83536111970159
30
0
41
1
10
-43.9075371189045
20
-5.83050858416993
30
0
41
1
10
-43.9090098413739
20
-5.82793024369187
30
0
41
1
10
-43.9138179871196
20
-5.81995995747138
30
0
41
1
10
-43.9175198374798
20
-5.81435560221541
30
0
41
1
10
-43.9257004816946
20
-5.80269510425612
30
0
41
1
10
-43.9302200169575
20
-5.79659116728078
30
0
41
1
10
-43.9443936084027
20
-5.77823084019914
30
0
41
1
10
-43.9547462216613
20
-5.76577378003097
30
0
41
1
10
-43.9768688927873
20
-5.74066574765004
30
0
41
1
10
-43.9882652380084
20
-5.72843968494038
30
0
41
1
10
-44
20
-5.71654468874476
30
0
0
SPLINE
5
101
100
AcDbEntity
8
SK1
62
256
6
ByLayer
370
18
48
1
60
0
100
AcDbSpline
70
4
71
3
72
20
73
16
40
0
40
0
40
0
40
0
40
0.249999999999999
40
0.249999999999999
40
0.374999999999999
40
0.374999999999999
40
0.499999999999999
40
0.499999999999999
40
0.624999999999999
40
0.624999999999999
40
0.75
40
0.75
40
0.875
40
0.875
40
1
40
1
40
1
40
1
41
1
10
-44
20
-6.03566366498637
30
0
41
1
10
-43.9882624016387
20
-6.04756153628134
30
0
41
1
10
-43.9768728337101
20
-6.05926956622142
30
0
41
1
10
-43.9603029893906
20
-6.07653598270386
30
0
41
1
10
-43.9549192307105
20
-6.0821874486212
30
0
41
1
10
-43.9446385133001
20
-6.09306241532394
30
0
41
1
10
-43.9397103681262
20
-6.09831831015623
30
0
41
1
10
-43.9303270419096
20
-6.10842031224212
30
0
41
1
10
-43.9258538446687
20
-6.11328592370742
30
0
41
1
10
-43.9175707355638
20
-6.12242041511635
30
0
41
1
10
-43.9138512481045
20
-6.12658898029278
30
0
41
1
10
-43.9074484729559
20
-6.13394186551963
30
0
41
1
10
-43.9047693085045
20
-6.13712484009338
30
0
41
1
10
-43.9010616952338
20
-6.14184940966143
30
0
41
1
10
-43.9
20
-6.14343817559458
30
0
41
1
10
-43.9
20
-6.14394362656606
30
0
0
SPLINE
5
102
100
AcDbEntity
8
SK1
62
256
6
ByLayer
370
18
48
1
60
0
100
AcDbSpline
70
4
71
3
72
8
73
4
40
0
40
0
40
0
40
0
40
1
40
1
40
1
40
1
41
1
10
-45
20
-5.01750407489223
30
0
41
1
10
-44.667586200641
20
-5.35776572884791
30
0
41
1
10
-44.3340973887993
20
-5.69700428940101
30
0
41
1
10
-44
20
-6.03566366498634
30
0
0
SPLINE
5
103
100
AcDbEntity
8
SK1
62
256
6
ByLayer
370
18
48
1
60
0
100
AcDbSpline
70
4
71
3
72
20
73
16
40
0
40
0
40
0
40
0
40
0.250000000000002
40
0.250000000000002
40
0.375000000000001
40
0.375000000000001
40
0.500000000000001
40
0.500000000000001
40
0.625000000000001
40
0.625000000000001
40
0.750000000000001
40
0.750000000000001
40
0.875
40
0.875
40
1
40
1
40
1
40
1
41
1
10
-44
20
6.03566366498637
30
0
41
1
10
-43.9882624016387
20
6.04756153628134
30
0
41
1
10
-43.9768728337101
20
6.05926956622142
30
0
41
1
10
-43.9603029893906
20
6.07653598270386
30
0
41
1
10
-43.9549192307105
20
6.0821874486212
30
0
41
1
10
-43.9446385133001
20
6.09306241532394
30
0
41
1
10
-43.9397103681262
20
6.09831831015623
30
0
41
1
10
-43.9303270419096
20
6.10842031224212
30
0
41
1
10
-43.9258538446687
20
6.11328592370742
30
0
41
1
10
-43.9175707355638
20
6.12242041511635
30
0
41
1
10
-43.9138512481045
20
6.12658898029278
30
0
41
1
10
-43.9074484729559
20
6.13394186551963
30
0
41
1
10
-43.9047693085045
20
6.13712484009338
30
0
41
1
10
-43.9010616952338
20
6.14184940966143
30
0
41
1
10
-43.9
20
6.14343817559458
30
0
41
1
10
-43.9
20
6.14394362656606
30
0
0
SPLINE
5
104
100
AcDbEntity
8
SK1
62
256
6
ByLayer
370
18
48
1
60
0
100
AcDbSpline
70
4
71
3
72
8
73
4
40
0
40
0
40
0
40
0
40
1
40
1
40
1
40
1
41
1
10
-45
20
5.01750407489223
30
0
41
1
10
-44.667586200641
20
5.35776572884791
30
0
41
1
10
-44.3340973887993
20
5.69700428940101
30
0
41
1
10
-44
20
6.03566366498634
30
0
0
SPLINE
5
105
100
AcDbEntity
8
1
62
256
6
ByLayer
370
18
48
1
60
0
100
AcDbSpline
70
4
71
3
72
27
73
23
40
0
40
0
40
0
40
0
40
0.0644933543602115
40
0.118975659361689
40
0.164984469823993
40
0.204747763676618
40
0.238859419964915
40
0.277986810227214
40
0.329688385808298
40
0.376894786451529
40
0.432115800675782
40
0.493911400339105
40
0.559335494561902
40
0.619900633329305
40
0.679776126653751
40
0.746099146171785
40
0.813199660762461
40
0.869713116536094
40
0.92808592994553
40
0.958786779155915
40
0.99085210276951
40
1
40
1
40
1
40
1
41
1
10
23.2681920176908
20
-5.85157623791986
30
0
41
1
10
23.5412114241008
20
-5.85262098709578
30
0
41
1
10
24.046639521674
20
-5.85428994962459
30
0
41
1
10
24.7606348352002
20
-5.85519503838708
30
0
41
1
10
25.3573891781433
20
-5.85666328219759
30
0
41
1
10
25.8729926357928
20
-5.85690122676021
30
0
41
1
10
26.3590904286
20
-5.85801045781062
30
0
41
1
10
26.8956001428042
20
-5.85895040506657
30
0
41
1
10
27.4900834456998
20
-5.86078417777352
30
0
41
1
10
28.1533271657357
20
-5.86233772799804
30
0
41
1
10
28.8601566138441
20
-5.86337418586379
30
0
41
1
10
29.6453517878339
20
-5.86448981369588
30
0
41
1
10
30.4535615356306
20
-5.86563894017814
30
0
41
1
10
31.253494733219
20
-5.8692094099612
30
0
41
1
10
32.0573075720833
20
-5.86976656922499
30
0
41
1
10
32.8892458120694
20
-5.87030401288956
30
0
41
1
10
33.7067165557302
20
-5.87068726143247
30
0
41
1
10
34.4899619757486
20
-5.87386987106231
30
0
41
1
10
35.1165527601222
20
-5.87499035269764
30
0
41
1
10
35.6379217948221
20
-5.87583199104577
30
0
41
1
10
35.9474274038855
20
-5.87650280668015
30
0
41
1
10
36.1248046528617
20
-5.87707336513694
30
0
41
1
10
36.1641761853399
20
-5.8772045829044
30
0
0
SPLINE
5
106
100
AcDbEntity
8
1
62
256
6
ByLayer
370
18
48
1
60
0
100
AcDbSpline
70
4
71
3
72
16
73
12
40
0
40
0
40
0
40
0
40
0.0006755573869203
40
0.122697377338765
40
0.243855525804769
40
0.363532141652566
40
0.475026080355935
40
0.587214640191851
40
0.715482630145582
40
0.863068069136075
40
1
40
1
40
1
40
1
41
1
10
59.6203550133041
20
1.21274568604178
30
0
41
1
10
59.6186703046643
20
1.21323841511892
30
0
41
1
10
59.3126915290745
20
1.30274471525979
30
0
41
1
10
58.7072920538541
20
1.48960807875972
30
0
41
1
10
57.8082212412028
20
1.77289538723613
30
0
41
1
10
56.938706297432
20
2.05841352778597
30
0
41
1
10
56.0942729210835
20
2.34499623513744
30
0
41
1
10
55.2318598122538
20
2.64729420435592
30
0
41
1
10
54.2847640544306
20
2.99073003953086
30
0
41
1
10
53.281703422737
20
3.36774863739723
30
0
41
1
10
52.594282533709
20
3.63746128428213
30
0
41
1
10
52.2642935612192
20
3.76942711104837
30
0
0
SPLINE
5
107
100
AcDbEntity
8
1
62
256
6
ByLayer
370
18
48
1
60
0
100
AcDbSpline
70
4
71
3
72
38
73
34
40
0
40
0
40
0
40
0
40
4.6510834357E-06
40
1.7474160899E-05
40
2.88576740254E-05
40
4.03664730163E-05
40
5.25990576703E-05
40
0.0001779858557094
40
0.0002734724684912
40
0.0004444423364628
40
0.0007473231547335
40
0.0012986212969722
40
0.0023055486122417
40
0.0041781128861162
40
0.0077598805748811
40
0.0747661492299071
40
0.129766128170174
40
0.189349037515841
40
0.249627031828054
40
0.309860717636512
40
0.374333953596885
40
0.448028600429447
40
0.517856068459522
40
0.580432551079345
40
0.628016774457559
40
0.660614027380578
40
0.677795794634807
40
0.703539330492588
40
0.737846523672147
40
0.780720371032817
40
0.851216438691033
40
0.936941890831572
40
1
40
1
40
1
40
1
41
1
10
24.5949899697377
20
0.354645013588879
30
0
41
1
10
24.5949962352893
20
0.35464414642658
30
0
41
1
10
24.5950171226889
20
0.354641604200793
30
0
41
1
10
24.5950316230441
20
0.354642758216727
30
0
41
1
10
24.5949949082536
20
0.354657705913184
30
0
41
1
10
24.594919057792
20
0.354681372583457
30
0
41
1
10
24.5945045908206
20
0.354800562410617
30
0
41
1
10
24.5936614488458
20
0.355018792544342
30
0
41
1
10
24.5923772215766
20
0.355362806000727
30
0
41
1
10
24.5904663973303
20
0.35587031689559
30
0
41
1
10
24.5870394023554
20
0.356780817956377
30
0
41
1
10
24.5808070826404
20
0.358436097630175
30
0
41
1
10
24.5692930617437
20
0.361489324431261
30
0
41
1
10
24.5475336988095
20
0.367248417660591
30
0
41
1
10
24.3020035222126
20
0.432009336718636
30
0
41
1
10
23.8649075907099
20
0.546975656923337
30
0
41
1
10
23.2332852035016
20
0.719059546347779
30
0
41
1
10
22.6270614684429
20
0.888653338371313
30
0
41
1
10
22.0040982821542
20
1.06794884083783
30
0
41
1
10
21.3648712301331
20
1.25715618500209
30
0
41
1
10
20.6804647430076
20
1.46557715931598
30
0
41
1
10
19.9647645454461
20
1.69027619822629
30
0
41
1
10
19.2574423488646
20
1.91929414844094
30
0
41
1
10
18.6414104232018
20
2.12434812289465
30
0
41
1
10
18.1539446015893
20
2.29030104437678
30
0
41
1
10
17.8220203872983
20
2.40513551525692
30
0
41
1
10
17.5647705273629
20
2.49501924255785
30
0
41
1
10
17.3019451687085
20
2.58763012383673
30
0
41
1
10
16.9521516146795
20
2.71234436466287
30
0
41
1
10
16.4511262198677
20
2.89363199361563
30
0
41
1
10
15.7774721554624
20
3.14288883342573
30
0
41
1
10
15.0379238541789
20
3.4237072833366
30
0
41
1
10
14.5386280620934
20
3.62045210812312
30
0
41
1
10
14.3274005794841
20
3.704811673222
30
0
0
SPLINE
5
108
100
AcDbEntity
8
1
62
256
6
ByLayer
370
18
48
1
60
0
100
AcDbSpline
70
4
71
1
72
4
73
2
40
0
40
0
40
1
40
1
41
1
10
42.1257834630421
20
0.0041534971587396
30
0
41
1
10
42.1257699865407
20
0.0041600961121446
30
0
0
SPLINE
5
109
100
AcDbEntity
8
1
62
256
6
ByLayer
370
18
48
1
60
0
100
AcDbSpline
70
4
71
3
72
30
73
26
40
0
40
0
40
0
40
0
40
0.0662514619166646
40
0.124657494932197
40
0.174926294280647
40
0.214249774069395
40
0.25319102140603
40
0.304044429551443
40
0.352244716291444
40
0.380714175653273
40
0.409842351649652
40
0.453891511163612
40
0.501172120358997
40
0.538488081435779
40
0.572215736482796
40
0.619370421207233
40
0.671139644514531
40
0.712317480380122
40
0.749294110842971
40
0.797025199558071
40
0.849502973912743
40
0.893826854445146
40
0.938783676885275
40
0.995336426011984
40
1
40
1
40
1
40
1
41
1
10
39.5043575195039
20
5.88106782010271
30
0
41
1
10
39.2162957736859
20
5.87960326371439
30
0
41
1
10
38.67338522799
20
5.87779560967331
30
0
41
1
10
37.8979837471245
20
5.87905027380518
30
0
41
1
10
37.2578049324141
20
5.87993018835519
30
0
41
1
10
36.689573777174
20
5.87893388812074
30
0
41
1
10
36.1218463612355
20
5.8769441302598
30
0
41
1
10
35.5135793837667
20
5.8755436688462
30
0
41
1
10
34.9518541732302
20
5.87475359755931
30
0
41
1
10
34.485743140582
20
5.87366880019084
30
0
41
1
10
34.0379392387442
20
5.87197524913702
30
0
41
1
10
33.5072534627664
20
5.87065544394551
30
0
41
1
10
32.9404984470909
20
5.8703139074172
30
0
41
1
10
32.4192132061697
20
5.86998487623851
30
0
41
1
10
31.8984840521652
20
5.86966930301253
30
0
41
1
10
31.3140788719142
20
5.86917337418512
30
0
41
1
10
30.6968569890269
20
5.86681580590084
30
0
41
1
10
30.1244723596493
20
5.8650830953182
30
0
41
1
10
29.5698755375468
20
5.86441217884985
30
0
41
1
10
28.9654989103974
20
5.86351420009734
30
0
41
1
10
28.3287510711154
20
5.86260446483038
30
0
41
1
10
27.7042271445817
20
5.86139658683783
30
0
41
1
10
27.0617538159457
20
5.8593414040497
30
0
41
1
10
26.5939948875217
20
5.85846803924861
30
0
41
1
10
26.3243129705265
20
5.85801880505065
30
0
41
1
10
26.3037681535555
20
5.85798486634181
30
0
0
LINE
5
82
100
AcDbEntity
8
SK4
62
256
6
ByLayer
370
18
48
0.05
60
0
100
AcDbLine
10
-48
20
0
30
0
11
65
21
0
31
0
39
0
210
0
220
0
230
1
0
LINE
5
84
100
AcDbEntity
8
81
62
256
6
ByLayer
370
18
48
1
60
0
100
AcDbLine
10
62
20
0
30
0
11
65
21
0
31
0
39
0
210
0
220
0
230
1
0
LINE
5
85
100
AcDbEntity
8
4
62
256
6
ByLayer
370
18
48
0.05
60
0
100
AcDbLine
10
0
20
0
30
0
11
62
21
0
31
0
39
0
210
0
220
0
230
1
0
LINE
5
87
100
AcDbEntity
8
80
62
256
6
ByLayer
370
18
48
1
60
0
100
AcDbLine
10
0
20
0
30
0
11
-3
21
0
31
0
39
0
210
0
220
0
230
1
0
LINE
5
88
100
AcDbEntity
8
1
62
256
6
ByLayer
370
18
48
1
60
0
100
AcDbLine
10
0
20
7
30
0
11
0
21
-7
31
0
39
0
210
0
220
0
230
1
0
LINE
5
89
100
AcDbEntity
8
1
62
256
6
ByLayer
370
13
48
1
60
0
100
AcDbLine
10
61.864086
20
0.630923
30
0
11
60.574707
21
1.925178
31
0
39
0
210
0
220
0
230
1
0
LINE
5
8A
100
AcDbEntity
8
1
62
256
6
ByLayer
370
13
48
1
60
0
100
AcDbLine
10
0.731772
20
-6.52328
30
0
11
0.731772
21
6.52328
31
0
39
0
210
0
220
0
230
1
0
LINE
5
8B
100
AcDbEntity
8
1
62
256
6
ByLayer
370
18
48
1
60
0
100
AcDbLine
10
22.90004
20
-6.083203
30
0
11
22.90004
21
-1.377378
31
0
39
0
210
0
220
0
230
1
0
LINE
5
8C
100
AcDbEntity
8
1
62
256
6
ByLayer
370
18
48
1
60
0
100
AcDbLine
10
22.90004
20
6.049544
30
0
11
22.90004
21
6.036044
31
0
39
0
210
0
220
0
230
1
0
LINE
5
8D
100
AcDbEntity
8
1
62
256
6
ByLayer
370
13
48
1
60
0
100
AcDbLine
10
1.464984
20
-6.046562
30
0
11
1.464984
21
6.046562
31
0
39
0
210
0
220
0
230
1
0
LINE
5
8E
100
AcDbEntity
8
SK1
62
256
6
ByLayer
370
18
48
1
60
0
100
AcDbLine
10
-45
20
-4.698246
30
0
11
-45
21
-5.017504
31
0
39
0
210
0
220
0
230
1
0
LINE
5
90
100
AcDbEntity
8
SK1
62
256
6
ByLayer
370
13
48
1
60
0
100
AcDbLine
10
-44
20
-6.035664
30
0
11
-44
21
-5.716518
31
0
39
0
210
0
220
0
230
1
0
LINE
5
91
100
AcDbEntity
8
SK1
62
256
6
ByLayer
370
18
48
1
60
0
100
AcDbLine
10
0
20
7
30
0
11
0
21
-7
31
0
39
0
210
0
220
0
230
1
0
LINE
5
92
100
AcDbEntity
8
SK1
62
256
6
ByLayer
370
18
48
1
60
0
100
AcDbLine
10
-43.9
20
-6.155
30
0
11
-43.9
21
-5.850354
31
0
39
0
210
0
220
0
230
1
0
LINE
5
93
100
AcDbEntity
8
SK1
62
256
6
ByLayer
370
18
48
1
60
0
100
AcDbLine
10
-43.9
20
6.155
30
0
11
-43.9
21
6.143944
31
0
39
0
210
0
220
0
230
1
0
LINE
5
94
100
AcDbEntity
8
SK1
62
256
6
ByLayer
370
18
48
1
60
0
100
AcDbLine
10
-45
20
5.017504
30
0
11
-45
21
-4.698385
31
0
39
0
210
0
220
0
230
1
0
LINE
5
95
100
AcDbEntity
8
SK1
62
256
6
ByLayer
370
18
48
1
60
0
100
AcDbLine
10
-43.055
20
-7
30
0
11
-43.055
21
7
31
0
39
0
210
0
220
0
230
1
0
LINE
5
96
100
AcDbEntity
8
1
62
256
6
ByLayer
370
18
48
1
60
0
100
AcDbLine
10
1.464984
20
-6.046562
30
0
11
4.017023
21
-6.051155
31
0
39
0
210
0
220
0
230
1
0
LINE
5
97
100
AcDbEntity
8
1
62
256
6
ByLayer
370
18
48
1
60
0
100
AcDbLine
10
21.359486
20
-6.082372
30
0
11
23.083099
21
-6.085474
31
0
39
0
210
0
220
0
230
1
0
LINE
5
98
100
AcDbEntity
8
1
62
256
6
ByLayer
370
18
48
1
60
0
100
AcDbLine
10
39.503145
20
-6.11503
30
0
11
41.261147
21
-6.118195
31
0
39
0
210
0
220
0
230
1
0
LINE
5
99
100
AcDbEntity
8
1
62
256
6
ByLayer
370
18
48
1
60
0
100
AcDbLine
10
41.261147
20
6.118195
30
0
11
39.503145
21
6.11503
31
0
39
0
210
0
220
0
230
1
0
LINE
5
9A
100
AcDbEntity
8
1
62
256
6
ByLayer
370
18
48
1
60
0
100
AcDbLine
10
23.083099
20
6.085474
30
0
11
21.359486
21
6.082372
31
0
39
0
210
0
220
0
230
1
0
LINE
5
9B
100
AcDbEntity
8
1
62
256
6
ByLayer
370
18
48
1
60
0
100
AcDbLine
10
4.017023
20
6.051155
30
0
11
1.464984
21
6.046562
31
0
39
0
210
0
220
0
230
1
0
LINE
5
9C
100
AcDbEntity
8
SK1
62
256
6
ByLayer
370
18
48
1
60
0
100
AcDbLine
10
-43.055
20
-7
30
0
11
0
21
-7
31
0
39
0
210
0
220
0
230
1
0
LINE
5
9D
100
AcDbEntity
8
SK1
62
256
6
ByLayer
370
18
48
1
60
0
100
AcDbLine
10
0
20
7
30
0
11
-43.055
21
7
31
0
39
0
210
0
220
0
230
1
0
LINE
5
9E
100
AcDbEntity
8
SK1
62
256
6
ByLayer
370
18
48
1
60
0
100
AcDbLine
10
-43.9
20
-6.155
30
0
11
-43.055
21
-7
31
0
39
0
210
0
220
0
230
1
0
LINE
5
9F
100
AcDbEntity
8
SK1
62
256
6
ByLayer
370
18
48
1
60
0
100
AcDbLine
10
-43.055
20
7
30
0
11
-43.9
21
6.155
31
0
39
0
210
0
220
0
230
1
0
LINE
5
A0
100
AcDbEntity
8
2
62
256
6
ByLayer
370
13
48
1
60
0
100
AcDbLine
10
69.5
20
-6.1515
30
0
11
69.5
21
36.426183
31
0
39
0
210
0
220
0
230
1
0
LINE
5
A2
100
AcDbEntity
8
2
62
256
6
ByLayer
370
13
48
1
60
0
100
AcDbLine
10
63.5875
20
6.1515
30
0
11
71.5
21
6.1515
31
0
39
0
210
0
220
0
230
1
0
LINE
5
A3
100
AcDbEntity
8
2
62
256
6
ByLayer
370
13
48
1
60
0
100
AcDbLine
10
63.5875
20
-6.1515
30
0
11
71.5
21
-6.1515
31
0
39
0
210
0
220
0
230
1
0
LINE
5
A4
100
AcDbEntity
8
1
62
256
6
ByLayer
370
18
48
1
60
1
100
AcDbLine
10
69.5
20
6.1515
30
0
11
69.960784
21
2.651502
31
0
39
0
210
0
220
0
230
1
0
LINE
5
A5
100
AcDbEntity
8
1
62
256
6
ByLayer
370
18
48
1
60
1
100
AcDbLine
10
69.960784
20
2.651502
30
0
11
69.039216
21
2.651498
31
0
39
0
210
0
220
0
230
1
0
LINE
5
A6
100
AcDbEntity
8
1
62
256
6
ByLayer
370
18
48
1
60
1
100
AcDbLine
10
69.039216
20
2.651498
30
0
11
69.5
21
6.1515
31
0
39
0
210
0
220
0
230
1
0
LINE
5
A7
100
AcDbEntity
8
1
62
256
6
ByLayer
370
18
48
1
60
1
100
AcDbLine
10
69.5
20
-6.1515
30
0
11
69.039216
21
-2.651502
31
0
39
0
210
0
220
0
230
1
0
LINE
5
A8
100
AcDbEntity
8
1
62
256
6
ByLayer
370
18
48
1
60
1
100
AcDbLine
10
69.039216
20
-2.651502
30
0
11
69.960784
21
-2.651498
31
0
39
0
210
0
220
0
230
1
0
LINE
5
A9
100
AcDbEntity
8
1
62
256
6
ByLayer
370
18
48
1
60
1
100
AcDbLine
10
69.960784
20
-2.651498
30
0
11
69.5
21
-6.1515
31
0
39
0
210
0
220
0
230
1
0
LINE
5
AA
100
AcDbEntity
8
SK2
62
256
6
ByLayer
370
13
48
1
60
0
100
AcDbLine
10
-53.5
20
-7
30
0
11
-53.5
21
15.649657
31
0
39
0
210
0
220
0
230
1
0
LINE
5
AC
100
AcDbEntity
8
SK2
62
256
6
ByLayer
370
13
48
1
60
0
100
AcDbLine
10
-46.5875
20
7
30
0
11
-55.5
21
7
31
0
39
0
210
0
220
0
230
1
0
LINE
5
AD
100
AcDbEntity
8
SK2
62
256
6
ByLayer
370
13
48
1
60
0
100
AcDbLine
10
-46.5875
20
-7
30
0
11
-55.5
21
-7
31
0
39
0
210
0
220
0
230
1
0
LINE
5
AE
100
AcDbEntity
8
1
62
256
6
ByLayer
370
18
48
1
60
1
100
AcDbLine
10
-53.5
20
7
30
0
11
-53.039216
21
3.500002
31
0
39
0
210
0
220
0
230
1
0
LINE
5
AF
100
AcDbEntity
8
1
62
256
6
ByLayer
370
18
48
1
60
1
100
AcDbLine
10
-53.039216
20
3.500002
30
0
11
-53.960784
21
3.499998
31
0
39
0
210
0
220
0
230
1
0
LINE
5
B0
100
AcDbEntity
8
1
62
256
6
ByLayer
370
18
48
1
60
1
100
AcDbLine
10
-53.960784
20
3.499998
30
0
11
-53.5
21
7
31
0
39
0
210
0
220
0
230
1
0
LINE
5
B1
100
AcDbEntity
8
1
62
256
6
ByLayer
370
18
48
1
60
1
100
AcDbLine
10
-53.5
20
-7
30
0
11
-53.960784
21
-3.500002
31
0
39
0
210
0
220
0
230
1
0
LINE
5
B2
100
AcDbEntity
8
1
62
256
6
ByLayer
370
18
48
1
60
1
100
AcDbLine
10
-53.960784
20
-3.500002
30
0
11
-53.039216
21
-3.499998
31
0
39
0
210
0
220
0
230
1
0
LINE
5
B3
100
AcDbEntity
8
1
62
256
6
ByLayer
370
18
48
1
60
1
100
AcDbLine
10
-53.039216
20
-3.499998
30
0
11
-53.5
21
-7
31
0
39
0
210
0
220
0
230
1
0
LINE
5
B4
100
AcDbEntity
8
SK2
62
256
6
ByLayer
370
13
48
1
60
0
100
AcDbLine
10
62.542965
20
1.491759
30
0
11
70.500917
21
23.35569
31
0
39
0
210
0
220
0
230
1
0
LINE
5
B5
100
AcDbEntity
8
SK2
62
256
6
ByLayer
370
13
48
1
60
0
100
AcDbLine
10
62.542965
20
-1.491759
30
0
11
70.500917
21
-23.35569
31
0
39
0
210
0
220
0
230
1
0
LINE
5
B6
100
AcDbEntity
8
1
62
256
6
ByLayer
370
18
48
1
60
1
100
AcDbLine
10
69.816867
20
21.476309
30
0
11
73.231677
21
20.581111
31
0
39
0
210
0
220
0
230
1
0
LINE
5
B7
100
AcDbEntity
8
1
62
256
6
ByLayer
370
18
48
1
60
1
100
AcDbLine
10
73.231677
20
20.581111
30
0
11
72.883629
21
19.727794
31
0
39
0
210
0
220
0
230
1
0
LINE
5
B8
100
AcDbEntity
8
1
62
256
6
ByLayer
370
18
48
1
60
1
100
AcDbLine
10
72.883629
20
19.727794
30
0
11
69.816867
21
21.476309
31
0
39
0
210
0
220
0
230
1
0
LINE
5
B9
100
AcDbEntity
8
1
62
256
6
ByLayer
370
18
48
1
60
1
100
AcDbLine
10
69.816867
20
-21.476309
30
0
11
72.883626
21
-19.727796
31
0
39
0
210
0
220
0
230
1
0
LINE
5
BA
100
AcDbEntity
8
1
62
256
6
ByLayer
370
18
48
1
60
1
100
AcDbLine
10
72.883626
20
-19.727796
30
0
11
73.23168
21
-20.58111
31
0
39
0
210
0
220
0
230
1
0
LINE
5
BB
100
AcDbEntity
8
1
62
256
6
ByLayer
370
18
48
1
60
1
100
AcDbLine
10
73.23168
20
-20.58111
30
0
11
69.816867
21
-21.476309
31
0
39
0
210
0
220
0
230
1
0
LINE
5
10A
100
AcDbEntity
8
1
62
256
6
ByLayer
370
13
48
0.05
60
0
100
AcDbLine
10
-51.5
20
0
30
0
11
66.278227
21
0
31
0
39
0
210
0
220
0
230
1
0
LINE
5
10F
100
AcDbEntity
8
1
62
256
6
ByLayer
370
18
48
1
60
1
100
AcDbLine
10
69.5
20
6.1515
30
0
11
69.960784
21
2.651502
31
0
39
0
210
0
220
0
230
1
0
LINE
5
110
100
AcDbEntity
8
1
62
256
6
ByLayer
370
18
48
1
60
1
100
AcDbLine
10
69.960784
20
2.651502
30
0
11
69.039216
21
2.651498
31
0
39
0
210
0
220
0
230
1
0
LINE
5
111
100
AcDbEntity
8
1
62
256
6
ByLayer
370
18
48
1
60
1
100
AcDbLine
10
69.039216
20
2.651498
30
0
11
69.5
21
6.1515
31
0
39
0
210
0
220
0
230
1
0
LINE
5
113
100
AcDbEntity
8
1
62
256
6
ByLayer
370
18
48
1
60
1
100
AcDbLine
10
69.5
20
-6.1515
30
0
11
69.039216
21
-2.651502
31
0
39
0
210
0
220
0
230
1
0
LINE
5
114
100
AcDbEntity
8
1
62
256
6
ByLayer
370
18
48
1
60
1
100
AcDbLine
10
69.039216
20
-2.651502
30
0
11
69.960784
21
-2.651498
31
0
39
0
210
0
220
0
230
1
0
LINE
5
115
100
AcDbEntity
8
1
62
256
6
ByLayer
370
18
48
1
60
1
100
AcDbLine
10
69.960784
20
-2.651498
30
0
11
69.5
21
-6.1515
31
0
39
0
210
0
220
0
230
1
0
LINE
5
119
100
AcDbEntity
8
1
62
256
6
ByLayer
370
18
48
1
60
1
100
AcDbLine
10
-53.5
20
7
30
0
11
-53.039216
21
3.500002
31
0
39
0
210
0
220
0
230
1
0
LINE
5
11A
100
AcDbEntity
8
1
62
256
6
ByLayer
370
18
48
1
60
1
100
AcDbLine
10
-53.039216
20
3.500002
30
0
11
-53.960784
21
3.499998
31
0
39
0
210
0
220
0
230
1
0
LINE
5
11B
100
AcDbEntity
8
1
62
256
6
ByLayer
370
18
48
1
60
1
100
AcDbLine
10
-53.960784
20
3.499998
30
0
11
-53.5
21
7
31
0
39
0
210
0
220
0
230
1
0
LINE
5
11D
100
AcDbEntity
8
1
62
256
6
ByLayer
370
18
48
1
60
1
100
AcDbLine
10
-53.5
20
-7
30
0
11
-53.960784
21
-3.500002
31
0
39
0
210
0
220
0
230
1
0
LINE
5
11E
100
AcDbEntity
8
1
62
256
6
ByLayer
370
18
48
1
60
1
100
AcDbLine
10
-53.960784
20
-3.500002
30
0
11
-53.039216
21
-3.499998
31
0
39
0
210
0
220
0
230
1
0
LINE
5
11F
100
AcDbEntity
8
1
62
256
6
ByLayer
370
18
48
1
60
1
100
AcDbLine
10
-53.039216
20
-3.499998
30
0
11
-53.5
21
-7
31
0
39
0
210
0
220
0
230
1
0
LINE
5
122
100
AcDbEntity
8
1
62
256
6
ByLayer
370
18
48
1
60
1
100
AcDbLine
10
69.816867
20
21.476309
30
0
11
73.231677
21
20.581111
31
0
39
0
210
0
220
0
230
1
0
LINE
5
123
100
AcDbEntity
8
1
62
256
6
ByLayer
370
18
48
1
60
1
100
AcDbLine
10
73.231677
20
20.581111
30
0
11
72.883629
21
19.727794
31
0
39
0
210
0
220
0
230
1
0
LINE
5
124
100
AcDbEntity
8
1
62
256
6
ByLayer
370
18
48
1
60
1
100
AcDbLine
10
72.883629
20
19.727794
30
0
11
69.816867
21
21.476309
31
0
39
0
210
0
220
0
230
1
0
LINE
5
126
100
AcDbEntity
8
1
62
256
6
ByLayer
370
18
48
1
60
1
100
AcDbLine
10
69.816867
20
-21.476309
30
0
11
72.883626
21
-19.727796
31
0
39
0
210
0
220
0
230
1
0
LINE
5
127
100
AcDbEntity
8
1
62
256
6
ByLayer
370
18
48
1
60
1
100
AcDbLine
10
72.883626
20
-19.727796
30
0
11
73.23168
21
-20.58111
31
0
39
0
210
0
220
0
230
1
0
LINE
5
128
100
AcDbEntity
8
1
62
256
6
ByLayer
370
18
48
1
60
1
100
AcDbLine
10
73.23168
20
-20.58111
30
0
11
69.816867
21
-21.476309
31
0
39
0
210
0
220
0
230
1
0
MTEXT
5
10B
100
AcDbEntity
8
2
62
256
6
ByLayer
370
18
48
1
60
0
100
AcDbMText
10
68.158886
20
19.809938
30
0
210
0
220
0
230
1
1
%%c
40
3
41
0
44
1.084337
50
90
71
7
72
5
7
iso_b_vert
0
MTEXT
5
10E
100
AcDbEntity
8
2
62
256
6
ByLayer
370
18
48
1
60
0
100
AcDbMText
10
68.158886
20
25.7865
30
0
210
0
220
0
230
1
1
\W0.7022;12.303
40
3
41
0
44
1.084337
50
90
71
7
72
5
7
iso_b_vert
0
MTEXT
5
117
100
AcDbEntity
8
SK2
62
256
6
ByLayer
370
18
48
1
60
0
100
AcDbMText
10
-54.841114
20
6.658437
30
0
210
0
220
0
230
1
1
%%c
40
3
41
0
44
1.084337
50
90
71
7
72
5
7
iso_b_vert
0
MTEXT
5
118
100
AcDbEntity
8
SK2
62
256
6
ByLayer
370
18
48
1
60
0
100
AcDbMText
10
-54.841114
20
12.635
30
0
210
0
220
0
230
1
1
\W0.5785;14
40
3
41
0
44
1.084337
50
90
71
7
72
5
7
iso_b_vert
0
MTEXT
5
121
100
AcDbEntity
8
SK2
62
256
6
ByLayer
370
18
48
1
60
0
100
AcDbMText
10
81.413998
20
-2.114886
30
0
210
0
220
0
230
1
1
\W0.7071;140%%d
40
3
41
0
44
1.084337
50
0
71
7
72
5
7
iso_b_vert
0
MTEXT
5
12A
100
AcDbEntity
8
SK6
62
256
6
ByLayer
370
18
48
1
60
0
100
AcDbMText
10
-13.988497
20
-77.114886
30
0
210
0
220
0
230
1
1
\W0.7415;860.1-1230-039A1-SD S2BM
40
3
41
0
44
1.084337
50
0
71
7
72
5
7
iso_b_vert
0
HATCH
5
112
100
AcDbEntity
8
2
62
256
6
ByLayer
370
13
48
1
60
0
100
AcDbHatch
10
0
20
0
30
0
210
0
220
0
230
1
2
ANSI31
70
0
71
0
91
1
92
5
93
3
72
1
10
69.5
20
6.1515
11
69.9607837415528
21
2.65150169255318
72
1
10
69.9607837415528
20
2.65150169255318
11
69.0392162584472
21
2.65149830744681
72
1
10
69.0392162584472
20
2.65149830744681
11
69.5
21
6.1515
97
0
75
0
76
1
52
0
41
0.0062
77
0
78
1
53
45
43
0
44
0
45
-0.0139193969876572
46
0.0139193969876572
79
0
47
0
98
1
10
0
20
0
0
HATCH
5
116
100
AcDbEntity
8
2
62
256
6
ByLayer
370
13
48
1
60
0
100
AcDbHatch
10
0
20
0
30
0
210
0
220
0
230
1
2
ANSI31
70
0
71
0
91
1
92
5
93
3
72
1
10
69.5
20
-6.1515
11
69.0392162584472
21
-2.65150169255318
72
1
10
69.0392162584472
20
-2.65150169255318
11
69.9607837415528
21
-2.65149830744681
72
1
10
69.9607837415528
20
-2.65149830744681
11
69.5
21
-6.1515
97
0
75
0
76
1
52
0
41
0.0062
77
0
78
1
53
45
43
0
44
0
45
-0.0139193969876572
46
0.0139193969876572
79
0
47
0
98
1
10
0
20
0
0
HATCH
5
11C
100
AcDbEntity
8
SK2
62
256
6
ByLayer
370
13
48
1
60
0
100
AcDbHatch
10
0
20
0
30
0
210
0
220
0
230
1
2
ANSI31
70
0
71
0
91
1
92
5
93
3
72
1
10
-53.5
20
7
11
-53.0392162584472
21
3.50000169255318
72
1
10
-53.0392162584472
20
3.50000169255318
11
-53.9607837415528
21
3.49999830744682
72
1
10
-53.9607837415528
20
3.49999830744682
11
-53.5
21
7
97
0
75
0
76
1
52
0
41
0.0062
77
0
78
1
53
45
43
0
44
0
45
-0.0139193969876572
46
0.0139193969876572
79
0
47
0
98
1
10
0
20
0
0
HATCH
5
120
100
AcDbEntity
8
SK2
62
256
6
ByLayer
370
13
48
1
60
0
100
AcDbHatch
10
0
20
0
30
0
210
0
220
0
230
1
2
ANSI31
70
0
71
0
91
1
92
5
93
3
72
1
10
-53.5
20
-7
11
-53.9607837415528
21
-3.50000169255318
72
1
10
-53.9607837415528
20
-3.50000169255318
11
-53.0392162584472
21
-3.49999830744682
72
1
10
-53.0392162584472
20
-3.49999830744682
11
-53.5
21
-7
97
0
75
0
76
1
52
0
41
0.0062
77
0
78
1
53
45
43
0
44
0
45
-0.0139193969876572
46
0.0139193969876572
79
0
47
0
98
1
10
0
20
0
0
HATCH
5
125
100
AcDbEntity
8
SK2
62
256
6
ByLayer
370
13
48
1
60
0
100
AcDbHatch
10
0
20
0
30
0
210
0
220
0
230
1
2
ANSI31
70
0
71
0
91
1
92
5
93
3
72
1
10
69.8168665947416
20
21.4763085562957
11
73.2316771073379
21
20.5811108286
72
1
10
73.2316771073379
20
20.5811108286
11
72.8836289552402
21
19.7277942931043
72
1
10
72.8836289552402
20
19.7277942931043
11
69.8168665947416
21
21.4763085562957
97
0
75
0
76
1
52
0
41
0.0062
77
0
78
1
53
45
43
0
44
0
45
-0.0139193969876572
46
0.0139193969876572
79
0
47
0
98
1
10
0
20
0
0
HATCH
5
129
100
AcDbEntity
8
SK2
62
256
6
ByLayer
370
13
48
1
60
0
100
AcDbHatch
10
0
20
0
30
0
210
0
220
0
230
1
2
ANSI31
70
0
71
0
91
1
92
5
93
3
72
1
10
69.8168665947416
20
-21.4763085562957
11
72.8836258208382
21
-19.7277955715681
72
1
10
72.8836258208382
20
-19.7277955715681
11
73.2316802417399
21
-20.5811095501362
72
1
10
73.2316802417399
20
-20.5811095501362
11
69.8168665947416
21
-21.4763085562957
97
0
75
0
76
1
52
0
41
0.0062
77
0
78
1
53
45
43
0
44
0
45
-0.0139193969876572
46
0.0139193969876572
79
0
47
0
98
1
10
0
20
0
0
DIMENSION
5
12D
100
AcDbEntity
8
SK2
62
256
6
ByLayer
370
18
48
1
60
0
100
AcDbDimension
2
_U0
10
22.9
20
-23.882698
30
0
11
42.45
21
-23.882698
31
0
70
32
71
1
72
1
41
1
210
0
220
0
230
1
3
Standard
100
AcDbAlignedDimension
13
62
23
-6.1515
33
0
14
22.9
24
-6.1515
34
0
50
0
100
AcDbRotatedDimension
1001
ACAD
1000
DSTYLE
1002
{
1070
   371
1070
    13
1070
   372
1070
    13
1070
   170
1070
     0
1070
   144
1040
1.0
1070
   277
1070
     2
1070
   284
1070
     8
1070
   278
1070
    46
1070
   146
1040
1.166667
1070
   345
1005
16
1070
   347
1005
16
1070
   346
1005
16
1070
   344
1005
0
1070
   343
1005
0
1070
   172
1070
     1
1070
    76
1070
     0
1070
    75
1070
     0
1070
   282
1070
     0
1070
   281
1070
     0
1070
     3
1000

1070
    71
1070
     0
1070
    74
1070
     0
1070
   279
1070
     0
1070
   173
1070
     1
1070
   340
1005
10C
1070
   271
1070
     2
1070
   272
1070
     2
1070
    77
1070
     1
1070
    73
1070
     1
1070
   171
1070
     3
1070
   274
1070
     4
1070
   177
1070
     2
1070
   176
1070
     2
1070
   178
1070
     2
1070
    78
1070
     8
1070
    48
1040
-0.1
1070
    41
1040
3.5
1070
   147
1040
1.5
1070
    42
1040
1.5875
1070
    44
1040
2.0
1070
   140
1040
3.0
1002
}
1001
ACAD_DSTYLE_DIM_LINETYPE
1070
   380
1005
16
1001
ACAD_DSTYLE_DIM_EXT1_LINETYPE
1070
   381
1005
16
1001
ACAD_DSTYLE_DIM_EXT2_LINETYPE
1070
   382
1005
16
0
DIMENSION
5
148
100
AcDbEntity
8
SK2
62
256
6
ByLayer
370
18
48
1
60
0
100
AcDbDimension
2
_U1
10
2
20
-33.882698
30
0
11
32
21
-33.882698
31
0
70
32
71
1
72
1
41
1
210
0
220
0
230
1
3
Standard
100
AcDbAlignedDimension
13
62
23
-6.1515
33
0
14
2
24
-6.1515
34
0
50
0
100
AcDbRotatedDimension
1001
ACAD
1000
DSTYLE
1002
{
1070
   371
1070
    13
1070
   372
1070
    13
1070
     3
1000

1070
   170
1070
     0
1070
   144
1040
1.0
1070
   277
1070
     2
1070
   284
1070
     8
1070
   278
1070
    46
1070
   146
1040
1.166667
1070
   345
1005
16
1070
   347
1005
16
1070
   346
1005
16
1070
   344
1005
0
1070
   343
1005
0
1070
   172
1070
     1
1070
    76
1070
     0
1070
    75
1070
     0
1070
   282
1070
     0
1070
   281
1070
     0
1070
    71
1070
     0
1070
    74
1070
     0
1070
   279
1070
     0
1070
   173
1070
     1
1070
   340
1005
10C
1070
   271
1070
     2
1070
   272
1070
     2
1070
    77
1070
     1
1070
    73
1070
     1
1070
   171
1070
     3
1070
   274
1070
     4
1070
   177
1070
     2
1070
   176
1070
     2
1070
   178
1070
     2
1070
    78
1070
     8
1070
    48
1040
-0.1
1070
    41
1040
3.5
1070
   147
1040
1.5
1070
    42
1040
1.5875
1070
    44
1040
2.0
1070
   140
1040
3.0
1002
}
1001
ACAD_DSTYLE_DIM_LINETYPE
1070
   380
1005
16
1001
ACAD_DSTYLE_DIM_EXT1_LINETYPE
1070
   381
1005
16
1001
ACAD_DSTYLE_DIM_EXT2_LINETYPE
1070
   382
1005
16
0
DIMENSION
5
160
100
AcDbEntity
8
SK2
62
256
6
ByLayer
370
18
48
1
60
0
100
AcDbDimension
2
_U2
10
0
20
-41.882698
30
0
11
-22.5
21
-41.882698
31
0
70
32
71
1
72
1
41
1
210
0
220
0
230
1
3
Standard
100
AcDbAlignedDimension
13
-45
23
-7
33
0
14
0
24
-7
34
0
50
0
100
AcDbRotatedDimension
1001
ACAD
1000
DSTYLE
1002
{
1070
   371
1070
    13
1070
   372
1070
    13
1070
     3
1000

1070
   170
1070
     0
1070
   144
1040
1.0
1070
   277
1070
     2
1070
   284
1070
     8
1070
   278
1070
    46
1070
   146
1040
1.166667
1070
   345
1005
16
1070
   347
1005
16
1070
   346
1005
16
1070
   344
1005
0
1070
   343
1005
0
1070
   172
1070
     1
1070
    76
1070
     0
1070
    75
1070
     0
1070
   282
1070
     0
1070
   281
1070
     0
1070
    71
1070
     0
1070
    74
1070
     0
1070
   279
1070
     0
1070
   173
1070
     1
1070
   340
1005
10C
1070
   271
1070
     2
1070
   272
1070
     2
1070
    77
1070
     1
1070
    73
1070
     1
1070
   171
1070
     3
1070
   274
1070
     4
1070
   177
1070
     2
1070
   176
1070
     2
1070
   178
1070
     2
1070
    78
1070
     8
1070
    48
1040
-0.1
1070
    41
1040
3.5
1070
   147
1040
1.5
1070
    42
1040
1.5875
1070
    44
1040
2.0
1070
   140
1040
3.0
1002
}
1001
ACAD_DSTYLE_DIM_LINETYPE
1070
   380
1005
16
1001
ACAD_DSTYLE_DIM_EXT1_LINETYPE
1070
   381
1005
16
1001
ACAD_DSTYLE_DIM_EXT2_LINETYPE
1070
   382
1005
16
0
DIMENSION
5
178
100
AcDbEntity
8
SK2
62
256
6
ByLayer
370
18
48
1
60
0
100
AcDbDimension
2
_U3
10
62
20
-49.882698
30
0
11
8.5
21
-49.882698
31
0
70
32
71
1
72
1
41
1
210
0
220
0
230
1
3
Standard
100
AcDbAlignedDimension
13
-45
23
-7
33
0
14
62
24
-6.1515
34
0
50
0
100
AcDbRotatedDimension
1001
ACAD
1000
DSTYLE
1002
{
1070
   371
1070
    13
1070
   372
1070
    13
1070
     3
1000

1070
   170
1070
     0
1070
   144
1040
1.0
1070
   277
1070
     2
1070
   284
1070
     8
1070
   278
1070
    46
1070
   146
1040
1.166667
1070
   345
1005
16
1070
   347
1005
16
1070
   346
1005
16
1070
   344
1005
0
1070
   343
1005
0
1070
   172
1070
     1
1070
    76
1070
     0
1070
    75
1070
     0
1070
   282
1070
     0
1070
   281
1070
     0
1070
    71
1070
     0
1070
    74
1070
     0
1070
   279
1070
     0
1070
   173
1070
     1
1070
   340
1005
10C
1070
   271
1070
     2
1070
   272
1070
     2
1070
    77
1070
     1
1070
    73
1070
     1
1070
   171
1070
     3
1070
   274
1070
     4
1070
   177
1070
     2
1070
   176
1070
     2
1070
   178
1070
     2
1070
    78
1070
     8
1070
    48
1040
-0.1
1070
    41
1040
3.5
1070
   147
1040
1.5
1070
    42
1040
1.5875
1070
    44
1040
2.0
1070
   140
1040
3.0
1002
}
1001
ACAD_DSTYLE_DIM_LINETYPE
1070
   380
1005
16
1001
ACAD_DSTYLE_DIM_EXT1_LINETYPE
1070
   381
1005
16
1001
ACAD_DSTYLE_DIM_EXT2_LINETYPE
1070
   382
1005
16
0
DIMENSION
5
190
100
AcDbEntity
8
2
62
256
6
ByLayer
370
18
48
1
60
0
100
AcDbDimension
2
_U4
10
0
20
-41.882698
30
0
11
31
21
-41.882698
31
0
70
32
71
1
72
1
41
1
210
0
220
0
230
1
3
Standard
100
AcDbAlignedDimension
13
62
23
-6.1515
33
0
14
0
24
-6.1515
34
0
50
0
100
AcDbRotatedDimension
1001
ACAD
1000
DSTYLE
1002
{
1070
   371
1070
    13
1070
   372
1070
    13
1070
     3
1000

1070
   170
1070
     0
1070
   144
1040
1.0
1070
   277
1070
     2
1070
   284
1070
     8
1070
   278
1070
    46
1070
   146
1040
1.166667
1070
   345
1005
16
1070
   347
1005
16
1070
   346
1005
16
1070
   344
1005
0
1070
   343
1005
0
1070
   172
1070
     1
1070
    76
1070
     0
1070
    75
1070
     0
1070
   282
1070
     0
1070
   281
1070
     0
1070
    71
1070
     0
1070
    74
1070
     0
1070
   279
1070
     0
1070
   173
1070
     1
1070
   340
1005
10C
1070
   271
1070
     2
1070
   272
1070
     2
1070
    77
1070
     1
1070
    73
1070
     1
1070
   171
1070
     3
1070
   274
1070
     4
1070
   177
1070
     2
1070
   176
1070
     2
1070
   178
1070
     2
1070
    78
1070
     8
1070
    48
1040
-0.1
1070
    41
1040
3.5
1070
   147
1040
1.5
1070
    42
1040
1.5875
1070
    44
1040
2.0
1070
   140
1040
3.0
1002
}
1001
ACAD_DSTYLE_DIM_LINETYPE
1070
   380
1005
16
1001
ACAD_DSTYLE_DIM_EXT1_LINETYPE
1070
   381
1005
16
1001
ACAD_DSTYLE_DIM_EXT2_LINETYPE
1070
   382
1005
16
0
ENDSEC
0
SECTION
2
OBJECTS
0
DICTIONARY
5
218
330
0
100
AcDbDictionary
280
0
281
1
3
ACAD_GROUP
350
219
3
ACAD_MLINESTYLE
350
21a
0
DICTIONARY
5
219
330
0
100
AcDbDictionary
280
0
281
1
0
DICTIONARY
5
21a
330
0
100
AcDbDictionary
280
0
281
1
3
Standard
350
18
0
MLINESTYLE
5
18
330
21a
100
AcDbMlineStyle
2
Standard
70
0
3

62
256
51
90
52
90
71
2
49
-0.5
62
256
6
ByLayer
49
0.5
62
256
6
ByLayer
0
RASTERVARIABLES
5
206
330

100
AcDbRasterVariables
90
0
70
1
71
1
72
1
0
ENDSEC
0
EOF
