0
SECTION
2
HEADER
9
$ACADVER
1
AC1015
9
$DWGCODEPAGE
3
ANSI_1252
9
$HANDSEED
5
229
9
$ANGBASE
50
0
9
$ANGDIR
70
0
9
$ATTMODE
70
1
9
$AUNITS
70
0
9
$AUPREC
70
0
9
$CECOLOR
62
256
9
$CELTSCALE
40
1
9
$CELTYPE
6
ByLayer
9
$CELWEIGHT
370
18
9
$CLAYER
8
0
9
$CMLJUST
70
0
9
$CMLSCALE
40
1
9
$CMLSTYLE
2
Standard
9
$DIMSTYLE
2
Standard
9
$TEXTSIZE
40
0.2
9
$TEXTSTYLE
7
Standard
9
$LUNITS
70
2
9
$LUPREC
70
4
9
$EXTNAMES
290
1
9
$INSUNITS
70
4
9
$LTSCALE
40
1
9
$LWDISPLAY
290
1
9
$PDMODE
70
0
9
$PDSIZE
40
0
9
$PLINEGEN
70
0
0
ENDSEC
0
SECTION
2
CLASSES
0
CLASS
1
RASTERVARIABLES
2
AcDbRasterVariables
3
ISM
90
0
280
0
281
0
0
ENDSEC
0
SECTION
2
TABLES
0
TABLE
2
VPORT
5
21f
100
AcDbSymbolTable
0
VPORT
5
1
100
AcDbSymbolTableRecord
100
AcDbViewportTableRecord
2
*Active
70
0
10
0
20
0
11
1
21
1
12
-1
22
1
13
0
23
0
14
0.5
24
0.5
15
10
25
10
16
0
26
0
36
1
17
0
27
0
37
0
0
ENDTAB
0
TABLE
2
LTYPE
5
220
100
AcDbSymbolTable
0
LTYPE
5
14
100
AcDbSymbolTableRecord
100
AcDbLinetypeTableRecord
70
0
2
ByBlock
3

72
65
73
0
40
0
0
LTYPE
5
15
100
AcDbSymbolTableRecord
100
AcDbLinetypeTableRecord
70
0
2
ByLayer
3

72
65
73
0
40
0
0
LTYPE
5
16
100
AcDbSymbolTableRecord
100
AcDbLinetypeTableRecord
70
0
2
Continuous
3
Solid line
72
65
73
0
40
0
0
LTYPE
5
6E
100
AcDbSymbolTableRecord
100
AcDbLinetypeTableRecord
70
0
2
CENTER
3
____ _ ____ _ ____ _ ____
72
65
73
4
40
47.5
49
22
74
0
49
-8.5
74
0
49
8.5
74
0
49
-8.5
74
0
0
LTYPE
5
6F
100
AcDbSymbolTableRecord
100
AcDbLinetypeTableRecord
70
0
2
DASHED
3
__ __ __ __ __ __ __ __ __
72
65
73
2
40
25.72
49
12.86
74
0
49
-12.86
74
0
0
ENDTAB
0
TABLE
2
LAYER
5
221
100
AcDbSymbolTable
0
LAYER
5
10
100
AcDbSymbolTableRecord
100
AcDbLayerTableRecord
2
0
70
0
62
7
6
Continuous
290
1
370
-3
390
0
0
LAYER
5
71
100
AcDbSymbolTableRecord
100
AcDbLayerTableRecord
2
80
70
0
62
-6
6
Continuous
290
1
370
-3
390
0
0
LAYER
5
73
100
AcDbSymbolTableRecord
100
AcDbLayerTableRecord
2
81
70
0
62
-3
6
Continuous
290
1
370
-3
390
0
0
LAYER
5
75
100
AcDbSymbolTableRecord
100
AcDbLayerTableRecord
2
1
70
0
62
4
6
Continuous
290
1
370
-3
390
0
0
LAYER
5
83
100
AcDbSymbolTableRecord
100
AcDbLayerTableRecord
2
4
70
0
62
-2
6
CENTER
290
1
370
-3
390
0
0
LAYER
5
A4
100
AcDbSymbolTableRecord
100
AcDbLayerTableRecord
2
2
70
0
62
7
6
Continuous
290
1
370
-3
390
0
0
LAYER
5
134
100
AcDbSymbolTableRecord
100
AcDbLayerTableRecord
2
Defpoints
70
0
62
7
6
Continuous
290
0
370
-3
390
0
0
LAYER
5
20b
100
AcDbSymbolTableRecord
100
AcDbLayerTableRecord
2
SK4
70
0
62
2
6
CENTER
290
1
370
-3
390
0
0
LAYER
5
20c
100
AcDbSymbolTableRecord
100
AcDbLayerTableRecord
2
SK1
70
0
62
4
6
Continuous
290
1
370
-3
390
0
0
LAYER
5
20d
100
AcDbSymbolTableRecord
100
AcDbLayerTableRecord
2
SK2
70
0
62
7
6
Continuous
290
1
370
-3
390
0
0
LAYER
5
20e
100
AcDbSymbolTableRecord
100
AcDbLayerTableRecord
2
SK6
70
0
62
5
6
Continuous
290
1
370
-3
390
0
0
ENDTAB
0
TABLE
2
STYLE
5
222
100
AcDbSymbolTable
0
STYLE
5
11
100
AcDbSymbolTableRecord
100
AcDbTextStyleTableRecord
2
Standard
3
txt
70
0
71
0
40
0
41
1
42
0
50
0
0
STYLE
5
110
100
AcDbSymbolTableRecord
100
AcDbTextStyleTableRecord
2
iso_b_vert
3
simplex.shx
70
0
71
0
40
0
41
1
42
0
50
0
0
STYLE
5
111
100
AcDbSymbolTableRecord
100
AcDbTextStyleTableRecord
2
DWGDirectTextStyle
3
simplex
70
0
71
0
40
0
41
1
42
0
50
0
0
ENDTAB
0
TABLE
2
DIMSTYLE
5
223
100
AcDbSymbolTable
100
AcDbDimStyleTable
0
DIMSTYLE
105
27
100
AcDbSymbolTableRecord
100
AcDbDimStyleTableRecord
2
Standard
70
0
3
<>
41
0.18
42
0.0625
44
0.18
140
0.18
147
0.09
73
0
74
0
77
1
271
2
275
0
278
52
280
0
340
11
0
ENDTAB
0
TABLE
2
VIEW
5
224
100
AcDbSymbolTable
0
ENDTAB
0
TABLE
2
UCS
5
225
100
AcDbSymbolTable
0
ENDTAB
0
TABLE
2
APPID
5
226
100
AcDbSymbolTable
0
APPID
5
12
100
AcDbSymbolTableRecord
100
AcDbRegAppTableRecord
2
ACAD
70
0
0
APPID
5
130
100
AcDbSymbolTableRecord
100
AcDbRegAppTableRecord
2
ACAD_DSTYLE_DIMBREAK
70
0
0
APPID
5
1CA
100
AcDbSymbolTableRecord
100
AcDbRegAppTableRecord
2
ACAD_DSTYLE_DIM_LINETYPE
70
0
0
APPID
5
1CB
100
AcDbSymbolTableRecord
100
AcDbRegAppTableRecord
2
ACAD_DSTYLE_DIM_EXT1_LINETYPE
70
0
0
APPID
5
1CC
100
AcDbSymbolTableRecord
100
AcDbRegAppTableRecord
2
ACAD_DSTYLE_DIM_EXT2_LINETYPE
70
0
0
APPID
5
207
100
AcDbSymbolTableRecord
100
AcDbRegAppTableRecord
2
ACAD_MLEADERVER
70
0
0
ENDTAB
0
TABLE
2
BLOCK_RECORD
5
227
100
AcDbSymbolTable
0
BLOCK_RECORD
5
1F
100
AcDbSymbolTableRecord
100
AcDbBlockTableRecord
2
*Model_Space
340
0
70
0
0
BLOCK_RECORD
5
1B
100
AcDbSymbolTableRecord
100
AcDbBlockTableRecord
2
*Paper_Space
340
0
70
0
0
BLOCK_RECORD
5
23
100
AcDbSymbolTableRecord
100
AcDbBlockTableRecord
2
*Paper_Space0
340
0
70
0
0
BLOCK_RECORD
5
135
100
AcDbSymbolTableRecord
100
AcDbBlockTableRecord
2
*D1
340
0
70
0
0
BLOCK_RECORD
5
141
100
AcDbSymbolTableRecord
100
AcDbBlockTableRecord
2
_U0
340
0
70
0
0
BLOCK_RECORD
5
14F
100
AcDbSymbolTableRecord
100
AcDbBlockTableRecord
2
*D3
340
0
70
0
0
BLOCK_RECORD
5
15B
100
AcDbSymbolTableRecord
100
AcDbBlockTableRecord
2
_U1
340
0
70
0
0
BLOCK_RECORD
5
167
100
AcDbSymbolTableRecord
100
AcDbBlockTableRecord
2
*D5
340
0
70
0
0
BLOCK_RECORD
5
173
100
AcDbSymbolTableRecord
100
AcDbBlockTableRecord
2
_U2
340
0
70
0
0
BLOCK_RECORD
5
17F
100
AcDbSymbolTableRecord
100
AcDbBlockTableRecord
2
*D7
340
0
70
0
0
BLOCK_RECORD
5
18B
100
AcDbSymbolTableRecord
100
AcDbBlockTableRecord
2
_U3
340
0
70
0
0
BLOCK_RECORD
5
197
100
AcDbSymbolTableRecord
100
AcDbBlockTableRecord
2
*D9
340
0
70
0
0
BLOCK_RECORD
5
1A3
100
AcDbSymbolTableRecord
100
AcDbBlockTableRecord
2
_U4
340
0
70
0
0
ENDTAB
0
ENDSEC
0
SECTION
2
BLOCKS
0
BLOCK
5
20
100
AcDbEntity
8
0
100
AcDbBlockBegin
2
*Model_Space
70
0
10
0
20
0
30
0
3
*Model_Space
0
ENDBLK
5
21
100
AcDbEntity
8
0
100
AcDbBlockEnd
0
BLOCK
5
1C
100
AcDbEntity
8
0
100
AcDbBlockBegin
2
*Paper_Space
70
0
10
0
20
0
30
0
3
*Paper_Space
0
ENDBLK
5
1D
100
AcDbEntity
8
0
100
AcDbBlockEnd
0
BLOCK
5
24
100
AcDbEntity
8
0
100
AcDbBlockBegin
2
*Paper_Space0
70
0
10
0
20
0
30
0
3
*Paper_Space0
0
ENDBLK
5
25
100
AcDbEntity
8
0
100
AcDbBlockEnd
0
BLOCK
5
136
100
AcDbEntity
8
0
100
AcDbBlockBegin
2
*D1
70
1
10
0
20
0
30
0
3
*D1
0
LINE
5
138
100
AcDbEntity
8
0
62
256
6
ByLayer
370
-2
48
1
60
0
100
AcDbLine
10
73
20
-7.0875
30
0
11
73
21
-46.648662
31
0
39
0
210
0
220
0
230
1
0
LINE
5
139
100
AcDbEntity
8
0
62
256
6
ByLayer
370
-2
48
1
60
0
100
AcDbLine
10
17.7
20
-7.0875
30
0
11
17.7
21
-46.648662
31
0
39
0
210
0
220
0
230
1
0
LINE
5
13A
100
AcDbEntity
8
0
62
256
6
ByLayer
370
-2
48
1
60
0
100
AcDbLine
10
69.5
20
-44.648662
30
0
11
21.2
21
-44.648662
31
0
39
0
210
0
220
0
230
1
0
SOLID
5
13B
100
AcDbEntity
8
0
62
256
6
ByLayer
370
-1
48
1
60
0
100
AcDbTrace
10
69.5
20
-45.231996
30
0
11
69.5
21
-44.065329
31
0
12
73
22
-44.648662
32
0
13
73
23
-44.648662
33
0
39
0
210
0
220
0
230
1
0
SOLID
5
13C
100
AcDbEntity
8
0
62
256
6
ByLayer
370
-1
48
1
60
0
100
AcDbTrace
10
21.2
20
-44.065329
30
0
11
21.2
21
-45.231996
31
0
12
17.7
22
-44.648662
32
0
13
17.7
23
-44.648662
33
0
39
0
210
0
220
0
230
1
0
MTEXT
5
13D
100
AcDbEntity
8
0
62
256
6
ByLayer
370
18
48
1
60
0
100
AcDbMText
10
45.35
20
-38.648662
30
0
210
0
220
0
230
1
1
\A1;55.3
40
3
41
0
44
1
50
0
71
5
72
5
7
iso_b_vert
0
POINT
5
13E
100
AcDbEntity
8
Defpoints
62
0
6
ByLayer
370
-1
48
1
60
0
100
AcDbPoint
10
73
20
-5.5
30
0
39
0
210
0
220
0
230
1
50
360
0
POINT
5
13F
100
AcDbEntity
8
Defpoints
62
0
6
ByLayer
370
-1
48
1
60
0
100
AcDbPoint
10
17.7
20
-5.5
30
0
39
0
210
0
220
0
230
1
50
360
0
POINT
5
140
100
AcDbEntity
8
Defpoints
62
0
6
ByLayer
370
-1
48
1
60
0
100
AcDbPoint
10
17.7
20
-44.648662
30
0
39
0
210
0
220
0
230
1
50
360
0
ENDBLK
5
137
100
AcDbEntity
8
0
100
AcDbBlockEnd
0
BLOCK
5
14A
100
AcDbEntity
8
0
100
AcDbBlockBegin
2
_U0
70
0
10
0
20
0
30
0
3
_U0
0
MTEXT
5
142
100
AcDbEntity
8
SK2
62
256
6
ByLayer
370
18
48
1
60
0
100
AcDbMText
10
41.988544
20
-42.451048
30
0
210
0
220
0
230
1
1
\W0.7346;55.3
40
3
41
0
44
1.084337
50
0
71
7
72
5
7
iso_b_vert
0
MTEXT
5
143
100
AcDbEntity
8
SK2
62
256
6
ByLayer
370
18
48
1
60
0
100
AcDbMText
10
39.888544
20
-42.451048
30
0
210
0
220
0
230
1
1
\W1.1313;{\H1.88x;(}
40
3
41
0
44
1.084337
50
0
71
7
72
5
7
iso_b_vert
0
MTEXT
5
144
100
AcDbEntity
8
SK2
62
256
6
ByLayer
370
18
48
1
60
0
100
AcDbMText
10
49.029456
20
-42.451048
30
0
210
0
220
0
230
1
1
\W1.1313;{\H1.88x;)}
40
3
41
0
44
1.084337
50
0
71
7
72
5
7
iso_b_vert
0
LINE
5
145
100
AcDbEntity
8
SK2
62
256
6
ByLayer
370
13
48
1
60
0
100
AcDbLine
10
73
20
-7.0875
30
0
11
73
21
-46.648662
31
0
39
0
210
0
220
0
230
1
0
LINE
5
146
100
AcDbEntity
8
SK2
62
256
6
ByLayer
370
13
48
1
60
0
100
AcDbLine
10
17.7
20
-7.0875
30
0
11
17.7
21
-46.648662
31
0
39
0
210
0
220
0
230
1
0
LINE
5
147
100
AcDbEntity
8
SK2
62
256
6
ByLayer
370
13
48
1
60
0
100
AcDbLine
10
73
20
-44.648662
30
0
11
17.7
21
-44.648662
31
0
39
0
210
0
220
0
230
1
0
SOLID
5
148
100
AcDbEntity
8
SK2
62
256
6
ByLayer
370
18
48
1
60
0
100
AcDbTrace
10
73
20
-44.648662
30
0
11
69.500002
21
-45.109446
31
0
12
69.499998
22
-44.187878
32
0
13
69.499998
23
-44.187878
33
0
39
0
210
0
220
0
230
1
0
SOLID
5
149
100
AcDbEntity
8
SK2
62
256
6
ByLayer
370
18
48
1
60
0
100
AcDbTrace
10
17.7
20
-44.648662
30
0
11
21.199998
21
-44.187878
31
0
12
21.200002
22
-45.109446
32
0
13
21.200002
23
-45.109446
33
0
39
0
210
0
220
0
230
1
0
ENDBLK
5
14B
100
AcDbEntity
8
0
100
AcDbBlockEnd
0
BLOCK
5
150
100
AcDbEntity
8
0
100
AcDbBlockBegin
2
*D3
70
1
10
0
20
0
30
0
3
*D3
0
LINE
5
152
100
AcDbEntity
8
0
62
256
6
ByLayer
370
-2
48
1
60
0
100
AcDbLine
10
73
20
-7.0875
30
0
11
73
21
-56.648662
31
0
39
0
210
0
220
0
230
1
0
LINE
5
153
100
AcDbEntity
8
0
62
256
6
ByLayer
370
-2
48
1
60
0
100
AcDbLine
10
2
20
-7.0875
30
0
11
2
21
-56.648662
31
0
39
0
210
0
220
0
230
1
0
LINE
5
154
100
AcDbEntity
8
0
62
256
6
ByLayer
370
-2
48
1
60
0
100
AcDbLine
10
69.5
20
-54.648662
30
0
11
5.5
21
-54.648662
31
0
39
0
210
0
220
0
230
1
0
SOLID
5
155
100
AcDbEntity
8
0
62
256
6
ByLayer
370
-1
48
1
60
0
100
AcDbTrace
10
69.5
20
-55.231996
30
0
11
69.5
21
-54.065329
31
0
12
73
22
-54.648662
32
0
13
73
23
-54.648662
33
0
39
0
210
0
220
0
230
1
0
SOLID
5
156
100
AcDbEntity
8
0
62
256
6
ByLayer
370
-1
48
1
60
0
100
AcDbTrace
10
5.5
20
-54.065329
30
0
11
5.5
21
-55.231996
31
0
12
2
22
-54.648662
32
0
13
2
23
-54.648662
33
0
39
0
210
0
220
0
230
1
0
MTEXT
5
157
100
AcDbEntity
8
0
62
256
6
ByLayer
370
18
48
1
60
0
100
AcDbMText
10
37.5
20
-48.648662
30
0
210
0
220
0
230
1
1
\A1;71
40
3
41
0
44
1
50
0
71
5
72
5
7
iso_b_vert
0
POINT
5
158
100
AcDbEntity
8
Defpoints
62
0
6
ByLayer
370
-1
48
1
60
0
100
AcDbPoint
10
73
20
-5.5
30
0
39
0
210
0
220
0
230
1
50
360
0
POINT
5
159
100
AcDbEntity
8
Defpoints
62
0
6
ByLayer
370
-1
48
1
60
0
100
AcDbPoint
10
2
20
-5.5
30
0
39
0
210
0
220
0
230
1
50
360
0
POINT
5
15A
100
AcDbEntity
8
Defpoints
62
0
6
ByLayer
370
-1
48
1
60
0
100
AcDbPoint
10
2
20
-54.648662
30
0
39
0
210
0
220
0
230
1
50
360
0
ENDBLK
5
151
100
AcDbEntity
8
0
100
AcDbBlockEnd
0
BLOCK
5
162
100
AcDbEntity
8
0
100
AcDbBlockBegin
2
_U1
70
0
10
0
20
0
30
0
3
_U1
0
MTEXT
5
15C
100
AcDbEntity
8
SK2
62
256
6
ByLayer
370
18
48
1
60
0
100
AcDbMText
10
36.242115
20
-53.763548
30
0
210
0
220
0
230
1
1
\W0.6351;71
40
3
41
0
44
1.084337
50
0
71
7
72
5
7
iso_b_vert
0
LINE
5
15D
100
AcDbEntity
8
SK2
62
256
6
ByLayer
370
13
48
1
60
0
100
AcDbLine
10
73
20
-7.0875
30
0
11
73
21
-56.648662
31
0
39
0
210
0
220
0
230
1
0
LINE
5
15E
100
AcDbEntity
8
SK2
62
256
6
ByLayer
370
13
48
1
60
0
100
AcDbLine
10
2
20
-7.0875
30
0
11
2
21
-56.648662
31
0
39
0
210
0
220
0
230
1
0
LINE
5
15F
100
AcDbEntity
8
SK2
62
256
6
ByLayer
370
13
48
1
60
0
100
AcDbLine
10
73
20
-54.648662
30
0
11
2
21
-54.648662
31
0
39
0
210
0
220
0
230
1
0
SOLID
5
160
100
AcDbEntity
8
SK2
62
256
6
ByLayer
370
18
48
1
60
0
100
AcDbTrace
10
73
20
-54.648662
30
0
11
69.500002
21
-55.109446
31
0
12
69.499998
22
-54.187878
32
0
13
69.499998
23
-54.187878
33
0
39
0
210
0
220
0
230
1
0
SOLID
5
161
100
AcDbEntity
8
SK2
62
256
6
ByLayer
370
18
48
1
60
0
100
AcDbTrace
10
2
20
-54.648662
30
0
11
5.499998
21
-54.187878
31
0
12
5.500002
22
-55.109446
32
0
13
5.500002
23
-55.109446
33
0
39
0
210
0
220
0
230
1
0
ENDBLK
5
163
100
AcDbEntity
8
0
100
AcDbBlockEnd
0
BLOCK
5
168
100
AcDbEntity
8
0
100
AcDbBlockBegin
2
*D5
70
1
10
0
20
0
30
0
3
*D5
0
LINE
5
16A
100
AcDbEntity
8
0
62
256
6
ByLayer
370
-2
48
1
60
0
100
AcDbLine
10
-45
20
-7.5875
30
0
11
-45
21
-64.648662
31
0
39
0
210
0
220
0
230
1
0
LINE
5
16B
100
AcDbEntity
8
0
62
256
6
ByLayer
370
-2
48
1
60
0
100
AcDbLine
10
0
20
-7.5875
30
0
11
0
21
-64.648662
31
0
39
0
210
0
220
0
230
1
0
LINE
5
16C
100
AcDbEntity
8
0
62
256
6
ByLayer
370
-2
48
1
60
0
100
AcDbLine
10
-41.5
20
-62.648662
30
0
11
-3.5
21
-62.648662
31
0
39
0
210
0
220
0
230
1
0
SOLID
5
16D
100
AcDbEntity
8
0
62
256
6
ByLayer
370
-1
48
1
60
0
100
AcDbTrace
10
-41.5
20
-62.065329
30
0
11
-41.5
21
-63.231996
31
0
12
-45
22
-62.648662
32
0
13
-45
23
-62.648662
33
0
39
0
210
0
220
0
230
1
0
SOLID
5
16E
100
AcDbEntity
8
0
62
256
6
ByLayer
370
-1
48
1
60
0
100
AcDbTrace
10
-3.5
20
-63.231996
30
0
11
-3.5
21
-62.065329
31
0
12
0
22
-62.648662
32
0
13
0
23
-62.648662
33
0
39
0
210
0
220
0
230
1
0
MTEXT
5
16F
100
AcDbEntity
8
0
62
256
6
ByLayer
370
18
48
1
60
0
100
AcDbMText
10
-22.5
20
-56.648662
30
0
210
0
220
0
230
1
1
\A1;45
40
3
41
0
44
1
50
0
71
5
72
5
7
iso_b_vert
0
POINT
5
170
100
AcDbEntity
8
Defpoints
62
0
6
ByLayer
370
-1
48
1
60
0
100
AcDbPoint
10
-45
20
-6
30
0
39
0
210
0
220
0
230
1
50
360
0
POINT
5
171
100
AcDbEntity
8
Defpoints
62
0
6
ByLayer
370
-1
48
1
60
0
100
AcDbPoint
10
0
20
-6
30
0
39
0
210
0
220
0
230
1
50
360
0
POINT
5
172
100
AcDbEntity
8
Defpoints
62
0
6
ByLayer
370
-1
48
1
60
0
100
AcDbPoint
10
0
20
-62.648662
30
0
39
0
210
0
220
0
230
1
50
360
0
ENDBLK
5
169
100
AcDbEntity
8
0
100
AcDbBlockEnd
0
BLOCK
5
17A
100
AcDbEntity
8
0
100
AcDbBlockBegin
2
_U2
70
0
10
0
20
0
30
0
3
_U2
0
MTEXT
5
174
100
AcDbEntity
8
SK2
62
256
6
ByLayer
370
18
48
1
60
0
100
AcDbMText
10
-24.290771
20
-61.763548
30
0
210
0
220
0
230
1
1
\W0.7361;45
40
3
41
0
44
1.084337
50
0
71
7
72
5
7
iso_b_vert
0
LINE
5
175
100
AcDbEntity
8
SK2
62
256
6
ByLayer
370
13
48
1
60
0
100
AcDbLine
10
-45
20
-7.5875
30
0
11
-45
21
-64.648662
31
0
39
0
210
0
220
0
230
1
0
LINE
5
176
100
AcDbEntity
8
SK2
62
256
6
ByLayer
370
13
48
1
60
0
100
AcDbLine
10
0
20
-7.5875
30
0
11
0
21
-64.648662
31
0
39
0
210
0
220
0
230
1
0
LINE
5
177
100
AcDbEntity
8
SK2
62
256
6
ByLayer
370
13
48
1
60
0
100
AcDbLine
10
-45
20
-62.648662
30
0
11
0
21
-62.648662
31
0
39
0
210
0
220
0
230
1
0
SOLID
5
178
100
AcDbEntity
8
SK2
62
256
6
ByLayer
370
18
48
1
60
0
100
AcDbTrace
10
-45
20
-62.648662
30
0
11
-41.500002
21
-62.187878
31
0
12
-41.499998
22
-63.109446
32
0
13
-41.499998
23
-63.109446
33
0
39
0
210
0
220
0
230
1
0
SOLID
5
179
100
AcDbEntity
8
SK2
62
256
6
ByLayer
370
18
48
1
60
0
100
AcDbTrace
10
0
20
-62.648662
30
0
11
-3.499998
21
-63.109446
31
0
12
-3.500002
22
-62.187878
32
0
13
-3.500002
23
-62.187878
33
0
39
0
210
0
220
0
230
1
0
ENDBLK
5
17B
100
AcDbEntity
8
0
100
AcDbBlockEnd
0
BLOCK
5
180
100
AcDbEntity
8
0
100
AcDbBlockBegin
2
*D7
70
1
10
0
20
0
30
0
3
*D7
0
LINE
5
182
100
AcDbEntity
8
0
62
256
6
ByLayer
370
-2
48
1
60
0
100
AcDbLine
10
-45
20
-7.5875
30
0
11
-45
21
-72.648662
31
0
39
0
210
0
220
0
230
1
0
LINE
5
183
100
AcDbEntity
8
0
62
256
6
ByLayer
370
-2
48
1
60
0
100
AcDbLine
10
73
20
-7.0875
30
0
11
73
21
-72.648662
31
0
39
0
210
0
220
0
230
1
0
LINE
5
184
100
AcDbEntity
8
0
62
256
6
ByLayer
370
-2
48
1
60
0
100
AcDbLine
10
-41.5
20
-70.648662
30
0
11
69.5
21
-70.648662
31
0
39
0
210
0
220
0
230
1
0
SOLID
5
185
100
AcDbEntity
8
0
62
256
6
ByLayer
370
-1
48
1
60
0
100
AcDbTrace
10
-41.5
20
-70.065329
30
0
11
-41.5
21
-71.231996
31
0
12
-45
22
-70.648662
32
0
13
-45
23
-70.648662
33
0
39
0
210
0
220
0
230
1
0
SOLID
5
186
100
AcDbEntity
8
0
62
256
6
ByLayer
370
-1
48
1
60
0
100
AcDbTrace
10
69.5
20
-71.231996
30
0
11
69.5
21
-70.065329
31
0
12
73
22
-70.648662
32
0
13
73
23
-70.648662
33
0
39
0
210
0
220
0
230
1
0
MTEXT
5
187
100
AcDbEntity
8
0
62
256
6
ByLayer
370
18
48
1
60
0
100
AcDbMText
10
14
20
-64.648662
30
0
210
0
220
0
230
1
1
\A1;118
40
3
41
0
44
1
50
0
71
5
72
5
7
iso_b_vert
0
POINT
5
188
100
AcDbEntity
8
Defpoints
62
0
6
ByLayer
370
-1
48
1
60
0
100
AcDbPoint
10
-45
20
-6
30
0
39
0
210
0
220
0
230
1
50
360
0
POINT
5
189
100
AcDbEntity
8
Defpoints
62
0
6
ByLayer
370
-1
48
1
60
0
100
AcDbPoint
10
73
20
-5.5
30
0
39
0
210
0
220
0
230
1
50
360
0
POINT
5
18A
100
AcDbEntity
8
Defpoints
62
0
6
ByLayer
370
-1
48
1
60
0
100
AcDbPoint
10
73
20
-70.648662
30
0
39
0
210
0
220
0
230
1
50
360
0
ENDBLK
5
181
100
AcDbEntity
8
0
100
AcDbBlockEnd
0
BLOCK
5
192
100
AcDbEntity
8
0
100
AcDbBlockBegin
2
_U3
70
0
10
0
20
0
30
0
3
_U3
0
MTEXT
5
18C
100
AcDbEntity
8
SK2
62
256
6
ByLayer
370
18
48
1
60
0
100
AcDbMText
10
11.996143
20
-69.763548
30
0
210
0
220
0
230
1
1
\W0.5296;118
40
3
41
0
44
1.084337
50
0
71
7
72
5
7
iso_b_vert
0
LINE
5
18D
100
AcDbEntity
8
SK2
62
256
6
ByLayer
370
13
48
1
60
0
100
AcDbLine
10
-45
20
-7.5875
30
0
11
-45
21
-72.648662
31
0
39
0
210
0
220
0
230
1
0
LINE
5
18E
100
AcDbEntity
8
SK2
62
256
6
ByLayer
370
13
48
1
60
0
100
AcDbLine
10
73
20
-7.0875
30
0
11
73
21
-72.648662
31
0
39
0
210
0
220
0
230
1
0
LINE
5
18F
100
AcDbEntity
8
SK2
62
256
6
ByLayer
370
13
48
1
60
0
100
AcDbLine
10
-45
20
-70.648662
30
0
11
73
21
-70.648662
31
0
39
0
210
0
220
0
230
1
0
SOLID
5
190
100
AcDbEntity
8
SK2
62
256
6
ByLayer
370
18
48
1
60
0
100
AcDbTrace
10
-45
20
-70.648662
30
0
11
-41.500002
21
-70.187878
31
0
12
-41.499998
22
-71.109446
32
0
13
-41.499998
23
-71.109446
33
0
39
0
210
0
220
0
230
1
0
SOLID
5
191
100
AcDbEntity
8
SK2
62
256
6
ByLayer
370
18
48
1
60
0
100
AcDbTrace
10
73
20
-70.648662
30
0
11
69.500002
21
-71.109446
31
0
12
69.499998
22
-70.187878
32
0
13
69.499998
23
-70.187878
33
0
39
0
210
0
220
0
230
1
0
ENDBLK
5
193
100
AcDbEntity
8
0
100
AcDbBlockEnd
0
BLOCK
5
198
100
AcDbEntity
8
0
100
AcDbBlockBegin
2
*D9
70
1
10
0
20
0
30
0
3
*D9
0
LINE
5
19A
100
AcDbEntity
8
0
62
256
6
ByLayer
370
-2
48
1
60
0
100
AcDbLine
10
73
20
-7.0875
30
0
11
73
21
-64.648662
31
0
39
0
210
0
220
0
230
1
0
LINE
5
19B
100
AcDbEntity
8
0
62
256
6
ByLayer
370
-2
48
1
60
0
100
AcDbLine
10
0
20
-7.0875
30
0
11
0
21
-64.648662
31
0
39
0
210
0
220
0
230
1
0
LINE
5
19C
100
AcDbEntity
8
0
62
256
6
ByLayer
370
-2
48
1
60
0
100
AcDbLine
10
69.5
20
-62.648662
30
0
11
3.5
21
-62.648662
31
0
39
0
210
0
220
0
230
1
0
SOLID
5
19D
100
AcDbEntity
8
0
62
256
6
ByLayer
370
-1
48
1
60
0
100
AcDbTrace
10
69.5
20
-63.231996
30
0
11
69.5
21
-62.065329
31
0
12
73
22
-62.648662
32
0
13
73
23
-62.648662
33
0
39
0
210
0
220
0
230
1
0
SOLID
5
19E
100
AcDbEntity
8
0
62
256
6
ByLayer
370
-1
48
1
60
0
100
AcDbTrace
10
3.5
20
-62.065329
30
0
11
3.5
21
-63.231996
31
0
12
0
22
-62.648662
32
0
13
0
23
-62.648662
33
0
39
0
210
0
220
0
230
1
0
MTEXT
5
19F
100
AcDbEntity
8
0
62
256
6
ByLayer
370
18
48
1
60
0
100
AcDbMText
10
36.5
20
-56.648662
30
0
210
0
220
0
230
1
1
\A1;73
40
3
41
0
44
1
50
0
71
5
72
5
7
iso_b_vert
0
POINT
5
1A0
100
AcDbEntity
8
Defpoints
62
0
6
ByLayer
370
-1
48
1
60
0
100
AcDbPoint
10
73
20
-5.5
30
0
39
0
210
0
220
0
230
1
50
360
0
POINT
5
1A1
100
AcDbEntity
8
Defpoints
62
0
6
ByLayer
370
-1
48
1
60
0
100
AcDbPoint
10
0
20
-5.5
30
0
39
0
210
0
220
0
230
1
50
360
0
POINT
5
1A2
100
AcDbEntity
8
Defpoints
62
0
6
ByLayer
370
-1
48
1
60
0
100
AcDbPoint
10
0
20
-62.648662
30
0
39
0
210
0
220
0
230
1
50
360
0
ENDBLK
5
199
100
AcDbEntity
8
0
100
AcDbBlockEnd
0
BLOCK
5
1AA
100
AcDbEntity
8
0
100
AcDbBlockBegin
2
_U4
70
0
10
0
20
0
30
0
3
_U4
0
MTEXT
5
1A4
100
AcDbEntity
8
2
62
256
6
ByLayer
370
18
48
1
60
0
100
AcDbMText
10
34.867172
20
-61.763548
30
0
210
0
220
0
230
1
1
\W0.6740;73
40
3
41
0
44
1.084337
50
0
71
7
72
5
7
iso_b_vert
0
LINE
5
1A5
100
AcDbEntity
8
2
62
256
6
ByLayer
370
13
48
1
60
0
100
AcDbLine
10
73
20
-7.0875
30
0
11
73
21
-64.648662
31
0
39
0
210
0
220
0
230
1
0
LINE
5
1A6
100
AcDbEntity
8
2
62
256
6
ByLayer
370
13
48
1
60
0
100
AcDbLine
10
0
20
-7.0875
30
0
11
0
21
-64.648662
31
0
39
0
210
0
220
0
230
1
0
LINE
5
1A7
100
AcDbEntity
8
2
62
256
6
ByLayer
370
13
48
1
60
0
100
AcDbLine
10
73
20
-62.648662
30
0
11
0
21
-62.648662
31
0
39
0
210
0
220
0
230
1
0
SOLID
5
1A8
100
AcDbEntity
8
2
62
256
6
ByLayer
370
18
48
1
60
0
100
AcDbTrace
10
73
20
-62.648662
30
0
11
69.500002
21
-63.109446
31
0
12
69.499998
22
-62.187878
32
0
13
69.499998
23
-62.187878
33
0
39
0
210
0
220
0
230
1
0
SOLID
5
1A9
100
AcDbEntity
8
2
62
256
6
ByLayer
370
18
48
1
60
0
100
AcDbTrace
10
0
20
-62.648662
30
0
11
3.499998
21
-62.187878
31
0
12
3.500002
22
-63.109446
32
0
13
3.500002
23
-63.109446
33
0
39
0
210
0
220
0
230
1
0
ENDBLK
5
1AB
100
AcDbEntity
8
0
100
AcDbBlockEnd
0
ENDSEC
0
SECTION
2
ENTITIES
0
ARC
5
BF
100
AcDbEntity
8
1
62
256
6
ByLayer
370
18
48
1
60
0
100
AcDbCircle
39
0
10
1.269008
20
-6.174483
30
0
40
0.799999999999999
210
0
220
0
230
1
100
AcDbArc
50
89.896868
51
142.479003
0
ARC
5
C0
100
AcDbEntity
8
1
62
256
6
ByLayer
370
18
48
1
60
0
100
AcDbCircle
39
0
10
1.269008
20
6.174483
30
0
40
0.799999999999999
210
0
220
0
230
1
100
AcDbArc
50
217.520997
51
270.103132
0
ARC
5
C1
100
AcDbEntity
8
1
62
256
6
ByLayer
370
18
48
1
60
0
100
AcDbCircle
39
0
10
0
20
-5.2
30
0
40
0.799999999999999
210
0
220
0
230
1
100
AcDbArc
50
270
51
322.479003
0
ARC
5
C2
100
AcDbEntity
8
1
62
256
6
ByLayer
370
18
48
1
60
0
100
AcDbCircle
39
0
10
0
20
5.2
30
0
40
0.799999999999999
210
0
220
0
230
1
100
AcDbArc
50
37.520997
51
90
0
ARC
5
C3
100
AcDbEntity
8
SK2
62
256
6
ByLayer
370
13
48
1
60
0
100
AcDbCircle
39
0
10
73
20
0
30
0
40
21.7750903387455
210
0
220
0
230
1
100
AcDbArc
50
7.918948
51
69.998494
0
ARC
5
C4
100
AcDbEntity
8
SK2
62
256
6
ByLayer
370
13
48
1
60
0
100
AcDbCircle
39
0
10
73
20
0
30
0
40
21.7750903387455
210
0
220
0
230
1
100
AcDbArc
50
290.001506
51
352.081052
0
ELLIPSE
5
C5
100
AcDbEntity
8
1
62
256
6
ByLayer
370
18
48
1
60
0
100
AcDbEllipse
10
18.100168
20
-5.296139
30
0
11
0.1
21
0
31
0
210
0
220
0
230
1
40
1
41
1.5904568800824
42
3.13890876116804
0
ELLIPSE
5
C6
100
AcDbEntity
8
1
62
256
6
ByLayer
370
18
48
1
60
0
100
AcDbEllipse
10
18.100168
20
5.296139
30
0
11
0.1
21
0
31
0
210
0
220
0
230
1
40
1
41
-3.13890876116807
42
-1.54080646712942
0
POINT
5
70
100
AcDbEntity
8
80
62
256
6
ByLayer
370
18
48
1
60
0
100
AcDbPoint
10
0
20
0
30
0
39
0
210
0
220
0
230
1
50
360
0
POINT
5
72
100
AcDbEntity
8
81
62
256
6
ByLayer
370
18
48
1
60
0
100
AcDbPoint
10
73
20
0
30
0
39
0
210
0
220
0
230
1
50
360
0
POINT
5
74
100
AcDbEntity
8
1
62
256
6
ByLayer
370
18
48
1
60
0
100
AcDbPoint
10
-203.287455
20
-206.866153
30
0
39
0
210
0
220
0
230
1
50
360
0
POINT
5
76
100
AcDbEntity
8
1
62
256
6
ByLayer
370
13
48
1
60
1
100
AcDbPoint
10
-46.5
20
0
30
0
39
0
210
0
220
0
230
1
50
360
0
POINT
5
77
100
AcDbEntity
8
1
62
256
6
ByLayer
370
13
48
1
60
1
100
AcDbPoint
10
72.506526
20
0
30
0
39
0
210
0
220
0
230
1
50
360
0
POINT
5
78
100
AcDbEntity
8
1
62
256
6
ByLayer
370
18
48
1
60
1
100
AcDbPoint
10
73
20
-5.5
30
0
39
0
210
0
220
0
230
1
50
360
0
POINT
5
79
100
AcDbEntity
8
1
62
256
6
ByLayer
370
18
48
1
60
1
100
AcDbPoint
10
17.7
20
-5.5
30
0
39
0
210
0
220
0
230
1
50
360
0
POINT
5
7A
100
AcDbEntity
8
1
62
256
6
ByLayer
370
18
48
1
60
1
100
AcDbPoint
10
73
20
-5.5
30
0
39
0
210
0
220
0
230
1
50
360
0
POINT
5
7B
100
AcDbEntity
8
1
62
256
6
ByLayer
370
18
48
1
60
1
100
AcDbPoint
10
2
20
-5.5
30
0
39
0
210
0
220
0
230
1
50
360
0
POINT
5
7C
100
AcDbEntity
8
1
62
256
6
ByLayer
370
18
48
1
60
1
100
AcDbPoint
10
-45
20
-6
30
0
39
0
210
0
220
0
230
1
50
360
0
POINT
5
7D
100
AcDbEntity
8
1
62
256
6
ByLayer
370
18
48
1
60
1
100
AcDbPoint
10
0
20
-6
30
0
39
0
210
0
220
0
230
1
50
360
0
POINT
5
7E
100
AcDbEntity
8
1
62
256
6
ByLayer
370
18
48
1
60
1
100
AcDbPoint
10
-45
20
-6
30
0
39
0
210
0
220
0
230
1
50
360
0
POINT
5
7F
100
AcDbEntity
8
1
62
256
6
ByLayer
370
18
48
1
60
1
100
AcDbPoint
10
73
20
-5.5
30
0
39
0
210
0
220
0
230
1
50
360
0
POINT
5
80
100
AcDbEntity
8
1
62
256
6
ByLayer
370
18
48
1
60
1
100
AcDbPoint
10
73
20
-5.5
30
0
39
0
210
0
220
0
230
1
50
360
0
POINT
5
81
100
AcDbEntity
8
1
62
256
6
ByLayer
370
18
48
1
60
1
100
AcDbPoint
10
0
20
-5.5
30
0
39
0
210
0
220
0
230
1
50
360
0
SPLINE
5
C7
100
AcDbEntity
8
1
62
256
6
ByLayer
370
18
48
1
60
0
100
AcDbSpline
70
4
71
3
72
8
73
4
40
0
40
0
40
0
40
0
40
1
40
1
40
1
40
1
41
1
10
72.4481555304299
20
1.77971726978433
30
0
41
1
10
72.5928080147422
20
1.37493802196573
30
0
41
1
10
72.7362576784178
20
0.969736029324764
30
0
41
1
10
72.8784802682645
20
0.564102767804627
30
0
0
SPLINE
5
C8
100
AcDbEntity
8
1
62
256
6
ByLayer
370
18
48
1
60
0
100
AcDbSpline
70
4
71
3
72
8
73
4
40
0
40
0
40
0
40
0
40
1
40
1
40
1
40
1
41
1
10
72.8784802682645
20
0.564102767804656
30
0
41
1
10
72.9175055413675
20
0.452798727936226
30
0
41
1
10
72.9572999465909
20
0.341921632344963
30
0
41
1
10
72.9978617989062
20
0.231456321056527
30
0
0
SPLINE
5
C9
100
AcDbEntity
8
1
62
256
6
ByLayer
370
18
48
1
60
0
100
AcDbSpline
70
4
71
3
72
11
73
7
40
0
40
0
40
0
40
0
40
0.659346006002352
40
0.659346006002352
40
0.989019009003575
40
1
40
1
40
1
40
1
41
1
10
70.908966211693
20
5.49975673936308
30
0
41
1
10
70.9323620256189
20
5.4616479633371
30
0
41
1
10
70.9557697161943
20
5.42339678274845
30
0
41
1
10
70.990898596331
20
5.36580989797076
30
0
41
1
10
71.0030010025151
20
5.34593918152177
30
0
41
1
10
71.0151060925982
20
5.3260320331589
30
0
41
1
10
71.0154963033128
20
5.32539028780425
30
0
0
SPLINE
5
CA
100
AcDbEntity
8
1
62
256
6
ByLayer
370
18
48
1
60
0
100
AcDbSpline
70
4
71
3
72
8
73
4
40
0
40
0
40
0
40
0
40
1
40
1
40
1
40
1
41
1
10
71.1820991720659
20
-5.03916456800241
30
0
41
1
10
71.1378265550069
20
-5.11600017623906
30
0
41
1
10
71.0935776467636
20
-5.19283198238861
30
0
41
1
10
71.0493569075225
20
-5.26964675799459
30
0
0
SPLINE
5
CB
100
AcDbEntity
8
1
62
256
6
ByLayer
370
18
48
1
60
0
100
AcDbSpline
70
4
71
3
72
10
73
6
40
0
40
0
40
0
40
0
40
0.5
40
0.5
40
1
40
1
40
1
40
1
41
1
10
72.4481555304373
20
1.77971726978691
30
0
41
1
10
72.3304169583293
20
1.76523725455956
30
0
41
1
10
72.2125671559318
20
1.7521276279906
30
0
41
1
10
71.9767175628429
20
1.72775627309642
30
0
41
1
10
71.8587101268704
20
1.71658873679917
30
0
41
1
10
71.7406353748989
20
1.70625055266854
30
0
0
SPLINE
5
CC
100
AcDbEntity
8
1
62
256
6
ByLayer
370
18
48
1
60
0
100
AcDbSpline
70
4
71
3
72
27
73
23
40
0
40
0
40
0
40
0
40
0.125000000000004
40
0.250000000000008
40
0.250000000000008
40
0.31250000000001
40
0.31250000000001
40
0.343750000000013
40
0.343750000000013
40
0.375000000000016
40
0.375000000000016
40
0.437500000000017
40
0.437500000000017
40
0.468750000000016
40
0.468750000000016
40
0.500000000000015
40
0.500000000000015
40
0.625000000000012
40
0.625000000000012
40
0.750000000000008
40
0.750000000000008
40
1
40
1
40
1
40
1
41
1
10
72.4481555304305
20
1.77971726978385
30
0
41
1
10
72.3841188270935
20
1.89753976047217
30
0
41
1
10
72.2603198946269
20
2.14088659578681
30
0
41
1
10
72.1440217609853
20
2.39920485138913
30
0
41
1
10
72.0591888151107
20
2.59849811405309
30
0
41
1
10
72.0313094531005
20
2.66585663079778
30
0
41
1
10
71.9900308875254
20
2.76828807489221
30
0
41
1
10
71.9763421539669
20
2.80271383320326
30
0
41
1
10
71.9492646216532
20
2.87169776545707
30
0
41
1
10
71.9358697397535
20
2.906269759944
30
0
41
1
10
71.8960922909578
20
3.01021578928197
30
0
41
1
10
71.870119193815
20
3.0798212194658
30
0
41
1
10
71.831868269547
20
3.18464452989122
30
0
41
1
10
71.8192584775248
20
3.21966817652003
30
0
41
1
10
71.7940360732053
20
3.28971475918857
30
0
41
1
10
71.781443646782
20
3.32475233437683
30
0
41
1
10
71.7185928603283
20
3.49995741907378
30
0
41
1
10
71.6686636346889
20
3.64019235889941
30
0
41
1
10
71.5694699180064
20
3.92077031645795
30
0
41
1
10
71.5202211330358
20
4.06107561293601
30
0
41
1
10
71.3736175478159
20
4.48132297723495
30
0
41
1
10
71.2773663059417
20
4.76081261968696
30
0
41
1
10
71.1820991720659
20
5.03916456800241
30
0
0
SPLINE
5
CD
100
AcDbEntity
8
1
62
256
6
ByLayer
370
18
48
1
60
0
100
AcDbSpline
70
4
71
3
72
8
73
4
40
0
40
0
40
0
40
0
40
1
40
1
40
1
40
1
41
1
10
71.1820991720659
20
5.03916456800241
30
0
41
1
10
71.1378265550099
20
5.116000176234
30
0
41
1
10
71.0935776467694
20
5.19283198237849
30
0
41
1
10
71.0493569075312
20
5.26964675797939
30
0
0
SPLINE
5
CE
100
AcDbEntity
8
1
62
256
6
ByLayer
370
18
48
1
60
0
100
AcDbSpline
70
4
71
3
72
28
73
24
40
0
40
0
40
0
40
0
40
0.218483724504502
40
0.218483724504502
40
0.273104655630625
40
0.273104655630625
40
0.327725586756748
40
0.327725586756748
40
0.436967449008994
40
0.436967449008994
40
0.491588380135118
40
0.491588380135118
40
0.546209311261241
40
0.546209311261241
40
0.655451173513491
40
0.655451173513491
40
0.764693035765742
40
0.764693035765742
40
0.873934898017993
40
0.873934898017993
40
0.983176760270244
40
0.983176760270244
40
1
40
1
40
1
40
1
41
1
10
71.0493569074491
20
5.26964675791365
30
0
41
1
10
70.4971804175071
20
5.27535581676489
30
0
41
1
10
69.9456505239829
20
5.25855513195944
30
0
41
1
10
69.2548708436897
20
5.20987725996687
30
0
41
1
10
69.1166500852792
20
5.19875739777115
30
0
41
1
10
68.8400413093174
20
5.1737577421809
30
0
41
1
10
68.7016919968592
20
5.15988032117892
30
0
41
1
10
68.2867413631736
20
5.11415554602235
30
0
41
1
10
68.0100736889949
20
5.0782051111737
30
0
41
1
10
67.5951170067867
20
5.0162243463239
30
0
41
1
10
67.4568085290747
20
4.99422311961598
30
0
41
1
10
67.1801783878026
20
4.94760340480869
30
0
41
1
10
67.0418284430287
20
4.92297795164939
30
0
41
1
10
66.6269796128185
20
4.84525695901766
30
0
41
1
10
66.350747671092
20
4.78833526985923
30
0
41
1
10
65.7986463524823
20
4.66454472011876
30
0
41
1
10
65.5227745168522
20
4.59766653160438
30
0
41
1
10
64.9710843632025
20
4.45420099797042
30
0
41
1
10
64.6952905070917
20
4.3776126164268
30
0
41
1
10
64.1432955524061
20
4.21532839706131
30
0
41
1
10
63.8670933624902
20
4.12961491172575
30
0
41
1
10
63.5479253718291
20
4.02567286630313
30
0
41
1
10
63.5053261587418
20
4.01169915412115
30
0
41
1
10
63.4627236200774
20
3.99762463622247
30
0
0
SPLINE
5
CF
100
AcDbEntity
8
1
62
256
6
ByLayer
370
18
48
1
60
0
100
AcDbSpline
70
4
71
3
72
26
73
22
40
0
40
0
40
0
40
0
40
0.122477104097927
40
0.122477104097927
40
0.247837517798219
40
0.247837517798219
40
0.373197931498511
40
0.373197931498511
40
0.435878138348661
40
0.435878138348661
40
0.49855834519881
40
0.49855834519881
40
0.623918758899107
40
0.623918758899107
40
0.749279172599404
40
0.749279172599404
40
0.874639586299703
40
0.874639586299703
40
0.937319793149851
40
0.937319793149851
40
1
40
1
40
1
40
1
41
1
10
24.6107550977879
20
-1.37651284729489
30
0
41
1
10
24.340773548869
20
-1.24440819717915
30
0
41
1
10
24.0710188447842
20
-1.11102954191986
30
0
41
1
10
23.5253162428616
20
-0.839138457779342
30
0
41
1
10
23.249395504358
20
-0.700533086575376
30
0
41
1
10
22.6973433882991
20
-0.42199392664449
30
0
41
1
10
22.4211809463246
20
-0.282120386675217
30
0
41
1
10
22.0064719409343
20
-0.071919924827057
30
0
41
1
10
21.8681050020921
20
-0.0017601065326289
30
0
41
1
10
21.5915747386791
20
0.13841907657465
30
0
41
1
10
21.4533851444902
20
0.208449904118339
30
0
41
1
10
21.0389814949362
20
0.418244352056576
30
0
41
1
10
20.7629337383255
20
0.557711601510306
30
0
41
1
10
20.2110019172619
20
0.835304222903261
30
0
41
1
10
19.9350818934775
20
0.973362320433779
30
0
41
1
10
19.3828931799614
20
1.24713340867828
30
0
41
1
10
19.1066361371184
20
1.38286923202898
30
0
41
1
10
18.6917679794267
20
1.58428981640469
30
0
41
1
10
18.5534162646695
20
1.65105490863834
30
0
41
1
10
18.2767918459275
20
1.78364302483703
30
0
41
1
10
18.1384853511568
20
1.84948276148046
30
0
41
1
10
18.0001681853244
20
1.91483627906743
30
0
0
SPLINE
5
D0
100
AcDbEntity
8
1
62
256
6
ByLayer
370
18
48
1
60
0
100
AcDbSpline
70
4
71
3
72
8
73
4
40
0
40
0
40
0
40
0
40
1
40
1
40
1
40
1
41
1
10
18.0001681853409
20
1.92165261458894
30
0
41
1
10
18.0001681853409
20
1.91989082497449
30
0
41
1
10
18.0001681853409
20
1.91761683000413
30
0
41
1
10
18.0001681853409
20
1.91483627905095
30
0
0
SPLINE
5
D1
100
AcDbEntity
8
1
62
256
6
ByLayer
370
18
48
1
60
0
100
AcDbSpline
70
4
71
3
72
20
73
16
40
0
40
0
40
0
40
0
40
0.135135187911442
40
0.135135187911442
40
0.4234234586076
40
0.4234234586076
40
0.567567593955666
40
0.567567593955666
40
0.639639661629713
40
0.639639661629713
40
0.711711729303759
40
0.711711729303759
40
0.85585586465188
40
0.85585586465188
40
1
40
1
40
1
40
1
41
1
10
70.8640480376296
20
1.18938716829427
30
0
41
1
10
70.8952348975441
20
1.17916059235446
30
0
41
1
10
70.9268416752369
20
1.16809650995313
30
0
41
1
10
71.0273834182582
20
1.13042301546903
30
0
41
1
10
71.0979889960746
20
1.10048164454614
30
0
41
1
10
71.2063796547897
20
1.05061877233732
30
0
41
1
10
71.2429285052778
20
1.03316287505885
30
0
41
1
10
71.2983242487014
20
1.00583726897889
30
0
41
1
10
71.3169040123561
20
0.996528239344258
30
0
41
1
10
71.3541435736937
20
0.977596334548849
30
0
41
1
10
71.3727976582376
20
0.967977844024801
30
0
41
1
10
71.4288511062724
20
0.938716860734303
30
0
41
1
10
71.4663432834612
20
0.918661655773775
30
0
41
1
10
71.5415170233608
20
0.877709110305432
30
0
41
1
10
71.5791784595846
20
0.856901265710036
30
0
41
1
10
71.6169338150688
20
0.83567579284599
30
0
0
SPLINE
5
D2
100
AcDbEntity
8
1
62
256
6
ByLayer
370
18
48
1
60
0
100
AcDbSpline
70
4
71
3
72
29
73
25
40
0
40
0
40
0
40
0
40
0.151080199251642
40
0.151080199251642
40
0.302160398503284
40
0.302160398503284
40
0.339930448316217
40
0.339930448316217
40
0.377700498129151
40
0.377700498129151
40
0.453240597755018
40
0.453240597755018
40
0.604320797006722
40
0.604320797006722
40
0.679860896632575
40
0.679860896632575
40
0.717630946445488
40
0.717630946445488
40
0.755400996258401
40
0.906481195510005
40
0.906481195510005
40
0.982021295135806
40
0.982021295135806
40
1
40
1
40
1
40
1
41
1
10
71.7406353748989
20
1.70625055266848
30
0
41
1
10
71.676206845101
20
1.70060943131787
30
0
41
1
10
71.6125423718147
20
1.69151769986303
30
0
41
1
10
71.486747557729
20
1.66643789830312
30
0
41
1
10
71.4246176208068
20
1.65044792944946
30
0
41
1
10
71.3478723252163
20
1.62636770225663
30
0
41
1
10
71.33256892841
20
1.62134793339905
30
0
41
1
10
71.3020516203624
20
1.6109101451018
30
0
41
1
10
71.2868465654184
20
1.60549402392056
30
0
41
1
10
71.2417595373785
20
1.58881948084036
30
0
41
1
10
71.2122712395604
20
1.5770902777291
30
0
41
1
10
71.1254051580813
20
1.5403577563109
30
0
41
1
10
71.0696234210182
20
1.51381223761504
30
0
41
1
10
70.9887443628559
20
1.47203454381349
30
0
41
1
10
70.9622509334973
20
1.45778132332484
30
0
41
1
10
70.9231680045942
20
1.43604372766137
30
0
41
1
10
70.9102259242405
20
1.42872415997883
30
0
41
1
10
70.8847186083837
20
1.41408252879498
30
0
41
1
10
70.8218517318386
20
1.37745124194731
30
0
41
1
10
70.7632632141289
20
1.34096443143468
30
0
41
1
10
70.6963822860362
20
1.29834620689488
30
0
41
1
10
70.6746568664781
20
1.28434010713619
30
0
41
1
10
70.6484044501971
20
1.26735488260056
30
0
41
1
10
70.6433870823275
20
1.26410559633155
30
0
41
1
10
70.6383988246358
20
1.26087339611138
30
0
0
SPLINE
5
D3
100
AcDbEntity
8
1
62
256
6
ByLayer
370
18
48
1
60
0
100
AcDbSpline
70
4
71
3
72
21
73
17
40
0
40
0
40
0
40
0
40
0.500000000000003
40
0.500000000000003
40
0.750000000000009
40
0.875000000000011
40
0.93749999999998
40
0.93749999999998
40
0.968749999999997
40
0.984374999999973
40
0.984374999999973
40
0.99218749999999
40
0.99218749999999
40
0.996093749999995
40
0.996093749999995
40
1
40
1
40
1
40
1
41
1
10
70.9089662116967
20
-5.4997567393572
30
0
41
1
10
70.9323620256408
20
-5.46164796330152
30
0
41
1
10
70.9557697162345
20
-5.42339678268294
30
0
41
1
10
70.9908985963985
20
-5.36580989786
30
0
41
1
10
71.0084670235872
20
-5.33696462281202
30
0
41
1
10
71.0289701203226
20
-5.30322223429076
30
0
41
1
10
71.0377586470777
20
-5.28874189799748
30
0
41
1
10
71.0421530598343
20
-5.28149872419905
30
0
41
1
10
71.0443501993398
20
-5.27787660979277
30
0
41
1
10
71.0465465200897
20
-5.2742552364827
30
0
41
1
10
71.047644482876
20
-5.27244480276269
30
0
41
1
10
71.0480059035097
20
-5.27185134801448
30
0
41
1
10
71.0485687809212
20
-5.27091552103815
30
0
41
1
10
71.0487591492297
20
-5.27059768962144
30
0
41
1
10
71.0491263339603
20
-5.26999130134857
30
0
41
1
10
71.0493336872674
20
-5.26965369772617
30
0
41
1
10
71.0493569075225
20
-5.26964675799459
30
0
0
SPLINE
5
D4
100
AcDbEntity
8
1
62
256
6
ByLayer
370
18
48
1
60
0
100
AcDbSpline
70
4
71
3
72
82
73
78
40
0
40
0
40
0
40
0
40
0.0153356170394741
40
0.0153356170394741
40
0.046569024022016
40
0.046569024022016
40
0.077802431004558
40
0.077802431004558
40
0.0934191344958297
40
0.0934191344958297
40
0.109035837987101
40
0.109035837987101
40
0.140269244969645
40
0.140269244969645
40
0.171502651952188
40
0.171502651952188
40
0.202736058934731
40
0.202736058934731
40
0.233969465917275
40
0.233969465917275
40
0.265202872899818
40
0.265202872899818
40
0.28081957639109
40
0.28081957639109
40
0.296436279882361
40
0.296436279882361
40
0.327669686864905
40
0.327669686864905
40
0.358903093847448
40
0.358903093847448
40
0.390136500829991
40
0.390136500829991
40
0.421369907812535
40
0.421369907812535
40
0.452603314795078
40
0.452603314795078
40
0.483836721777621
40
0.483836721777621
40
0.499453425268893
40
0.499453425268893
40
0.515070128760164
40
0.515070128760164
40
0.546303535742708
40
0.546303535742708
40
0.577536942725251
40
0.577536942725251
40
0.608770349707794
40
0.608770349707794
40
0.640003756690337
40
0.640003756690337
40
0.67123716367288
40
0.67123716367288
40
0.733703977637967
40
0.733703977637967
40
0.76493738462051
40
0.76493738462051
40
0.796170791603054
40
0.796170791603054
40
0.811787495094326
40
0.811787495094326
40
0.827404198585598
40
0.827404198585598
40
0.858637605568142
40
0.858637605568142
40
0.889871012550685
40
0.889871012550685
40
0.921104419533229
40
0.921104419533229
40
0.936721123024501
40
0.936721123024501
40
0.952337826515772
40
0.952337826515772
40
0.967954530007043
40
0.967954530007043
40
0.983571233498314
40
0.983571233498314
40
1
40
1
40
1
40
1
41
1
10
57.3679827883857
20
-1.42898535220888
30
0
41
1
10
57.2325206309801
20
-1.36290302613423
30
0
41
1
10
57.0970831052923
20
-1.29645960076698
30
0
41
1
10
56.6858295438639
20
-1.09368618491752
30
0
41
1
10
56.4100649928573
20
-0.956259924816237
30
0
41
1
10
55.85813998065
20
-0.679598693946616
30
0
41
1
10
55.5819739309639
20
-0.540369870203278
30
0
41
1
10
55.1671685813703
20
-0.33066757127898
30
0
41
1
10
55.028807082946
20
-0.260621602220823
30
0
41
1
10
54.7522453907002
20
-0.12051360460822
30
0
41
1
10
54.6139963298652
20
-0.050428820462372
30
0
41
1
10
54.1992870159914
20
0.15980413224608
30
0
41
1
10
53.9228751425235
20
0.299951146835127
30
0
41
1
10
53.3698481313588
20
0.579587152428758
30
0
41
1
10
53.0931817311969
20
0.718988593205211
30
0
41
1
10
52.5398755570157
20
0.995831793576031
30
0
41
1
10
52.2631745912807
20
1.13331862048867
30
0
41
1
10
51.7104203555129
20
1.40529320710087
30
0
41
1
10
51.4342473608471
20
1.53982772078862
30
0
41
1
10
50.8820503105615
20
1.8054625781555
30
0
41
1
10
50.6060295044262
20
1.93656472482226
30
0
41
1
10
50.1917204354536
20
2.12991562919112
30
0
41
1
10
50.0535755642908
20
2.1938241180051
30
0
41
1
10
49.7771586879744
20
2.32047980159638
30
0
41
1
10
49.6388506067066
20
2.38324311876789
30
0
41
1
10
49.2239252409457
20
2.56958171110338
30
0
41
1
10
48.9475969914999
20
2.69106581886774
30
0
41
1
10
48.3952046288446
20
2.9280549213689
30
0
41
1
10
48.119171367592
20
3.04360490261646
30
0
41
1
10
47.5669664374028
20
3.26804171744433
30
0
41
1
10
47.2907816705635
20
3.37690427520175
30
0
41
1
10
46.7379130515925
20
3.58733886532292
30
0
41
1
10
46.4611773022168
20
3.68892999740632
30
0
41
1
10
45.9079081846231
20
3.88399435946718
30
0
41
1
10
45.6312096852798
20
3.97753708109684
30
0
41
1
10
45.0780447220598
20
4.15604605083416
30
0
41
1
10
44.8015958240323
20
4.24094296865931
30
0
41
1
10
44.386827984392
20
4.36137445877438
30
0
41
1
10
44.2485579801438
20
4.40036965638663
30
0
41
1
10
43.9719509972283
20
4.47602052616372
30
0
41
1
10
43.8336006779699
20
4.51268073159306
30
0
41
1
10
43.4186293535814
20
4.61901259300035
30
0
41
1
10
43.1419765715874
20
4.68505315107865
30
0
41
1
10
42.588685363396
20
4.80709431709812
30
0
41
1
10
42.3120486242742
20
4.86310927211554
30
0
41
1
10
41.758926420613
20
4.9645742798356
30
0
41
1
10
41.4824249495315
20
5.01002785586536
30
0
41
1
10
40.9292133296009
20
5.09020586898876
30
0
41
1
10
40.6525366773037
20
5.12493399556712
30
0
41
1
10
40.0992218338249
20
5.18350280562021
30
0
41
1
10
39.8225873923762
20
5.20735474368942
30
0
41
1
10
38.9926759381114
20
5.26233066897282
30
0
41
1
10
38.4408888833672
20
5.27670838631212
30
0
41
1
10
37.6136949193996
20
5.26473372262387
30
0
41
1
10
37.3380431319283
20
5.25512148233267
30
0
41
1
10
36.7865854729557
20
5.22476458899405
30
0
41
1
10
36.5107378976956
20
5.20403884664316
30
0
41
1
10
36.0964775719976
20
5.16466466141506
30
0
41
1
10
35.95831150111
20
5.15015982469529
30
0
41
1
10
35.681780786168
20
5.11840193939656
30
0
41
1
10
35.5434176355542
20
5.10114744750572
30
0
41
1
10
35.1286984352667
20
5.0453713321798
30
0
41
1
10
34.8524652399
20
5.00281106708786
30
0
41
1
10
34.3001923577383
20
4.90722193575112
30
0
41
1
10
34.0241661301665
20
4.85419004636665
30
0
41
1
10
33.471811006763
20
4.73805799227983
30
0
41
1
10
33.1954968405449
20
4.67493903360224
30
0
41
1
10
32.780583390469
20
4.57288430827813
30
0
41
1
10
32.642223566127
20
4.53763922320721
30
0
41
1
10
32.3655688237668
20
4.46478378803738
30
0
41
1
10
32.2272427697157
20
4.42716590402205
30
0
41
1
10
31.9505650998768
20
4.34957463142055
30
0
41
1
10
31.8122317032503
20
4.30960551931008
30
0
41
1
10
31.535588580167
20
4.22735463572596
30
0
41
1
10
31.397255563633
20
4.18506624056843
30
0
41
1
10
31.113582087928
20
4.09609447484735
30
0
41
1
10
30.9682301306968
20
4.04928906232746
30
0
41
1
10
30.8229327993653
20
4.00132751714801
30
0
0
SPLINE
5
D5
100
AcDbEntity
8
1
62
256
6
ByLayer
370
18
48
1
60
0
100
AcDbSpline
70
2053
71
3
72
120
73
116
40
0
40
0
40
0
40
0
40
0.0312500000000067
40
0.0312500000000067
40
0.0625000000000134
40
0.0625000000000134
40
0.0937500000000201
40
0.0937500000000201
40
0.125000000000027
40
0.125000000000027
40
0.14062500000003
40
0.14062500000003
40
0.156250000000033
40
0.156250000000033
40
0.187500000000041
40
0.187500000000041
40
0.195312500000043
40
0.195312500000043
40
0.203125000000044
40
0.218750000000048
40
0.234375000000053
40
0.234375000000053
40
0.242187500000055
40
0.242187500000055
40
0.250000000000057
40
0.250000000000057
40
0.281250000000064
40
0.281250000000064
40
0.296875000000068
40
0.296875000000068
40
0.30468750000007
40
0.30468750000007
40
0.312500000000072
40
0.312500000000072
40
0.34375000000008
40
0.34375000000008
40
0.351562500000081
40
0.351562500000081
40
0.359375000000083
40
0.375000000000088
40
0.390625000000093
40
0.390625000000093
40
0.398437500000095
40
0.398437500000095
40
0.406250000000096
40
0.406250000000096
40
0.437500000000107
40
0.437500000000107
40
0.468750000000118
40
0.468750000000118
40
0.484375000000123
40
0.484375000000123
40
0.492187500000124
40
0.492187500000124
40
0.500000000000125
40
0.500000000000125
40
0.531250000000131
40
0.531250000000131
40
0.539062500000131
40
0.539062500000131
40
0.54687500000013
40
0.54687500000013
40
0.562500000000127
40
0.562500000000127
40
0.593750000000118
40
0.593750000000118
40
0.601562500000114
40
0.601562500000114
40
0.609375000000111
40
0.609375000000111
40
0.625000000000106
40
0.625000000000106
40
0.656250000000098
40
0.656250000000098
40
0.671875000000094
40
0.671875000000094
40
0.68750000000009
40
0.68750000000009
40
0.718750000000082
40
0.718750000000082
40
0.72656250000008
40
0.72656250000008
40
0.734375000000077
40
0.750000000000073
40
0.765625000000068
40
0.765625000000068
40
0.773437500000065
40
0.773437500000065
40
0.781250000000063
40
0.781250000000063
40
0.812500000000052
40
0.812500000000052
40
0.82031250000005
40
0.82031250000005
40
0.828125000000048
40
0.828125000000048
40
0.843750000000043
40
0.859375000000039
40
0.859375000000039
40
0.875000000000035
40
0.875000000000035
40
0.906250000000026
40
0.906250000000026
40
0.921875000000022
40
0.921875000000022
40
0.937500000000017
40
0.953125000000013
40
0.953125000000013
40
0.968750000000009
40
0.968750000000009
40
0.984375000000005
40
0.984375000000005
40
0.992187500000002
40
0.992187500000002
40
1
40
1
40
1
40
1
41
1
10
71.5164835396522
20
-2.49680156962375
30
0
41
1
10
71.4962396833617
20
-2.52260796648048
30
0
41
1
10
71.4769193978905
20
-2.54382187702217
30
0
41
1
10
71.4399072374281
20
-2.57762698363891
30
0
41
1
10
71.4222165575174
20
-2.59021540638892
30
0
41
1
10
71.3883802458906
20
-2.60640847487838
30
0
41
1
10
71.3726815679085
20
-2.60979001595894
30
0
41
1
10
71.3435754395965
20
-2.60734190541572
30
0
41
1
10
71.3301522604957
20
-2.60152291685088
30
0
41
1
10
71.311699406359
20
-2.58538917087751
30
0
41
1
10
71.3059018101245
20
-2.57882513432909
30
0
41
1
10
71.295051669054
20
-2.56342484555103
30
0
41
1
10
71.2899875915239
20
-2.55457865901954
30
0
41
1
10
71.2758599313919
20
-2.52457005465271
30
0
41
1
10
71.2678483176478
20
-2.49997559743426
30
0
41
1
10
71.2597008556106
20
-2.46289273137143
30
0
41
1
10
71.2581721411226
20
-2.45518140514895
30
0
41
1
10
71.2553376127873
20
-2.43928587560907
30
0
41
1
10
71.2514101456171
20
-2.41468111662275
30
0
41
1
10
71.2464681092201
20
-2.36988856613613
30
0
41
1
10
71.2442451939494
20
-2.32995341585524
30
0
41
1
10
71.2432597178789
20
-2.29839052069499
30
0
41
1
10
71.2430451132399
20
-2.28760043628301
30
0
41
1
10
71.2428527930401
20
-2.26546249981553
30
0
41
1
10
71.2428757926691
20
-2.2540746906692
30
0
41
1
10
71.2436037410285
20
-2.19624333172115
30
0
41
1
10
71.2461061703324
20
-2.14730070079531
30
0
41
1
10
71.2528840671035
20
-2.0698230226013
30
0
41
1
10
71.25565181096
20
-2.04331474017997
30
0
41
1
10
71.2606306260706
20
-2.0024701073279
30
0
41
1
10
71.2624335418554
20
-1.98864349241481
30
0
41
1
10
71.2662732428781
20
-1.9610111471417
30
0
41
1
10
71.2683147345586
20
-1.94716250448019
30
0
41
1
10
71.2791309775044
20
-1.87776099852945
30
0
41
1
10
71.2897101314409
20
-1.82173824867627
30
0
41
1
10
71.3055682638817
20
-1.7510965017814
30
0
41
1
10
71.3088830548471
20
-1.73689843561124
30
0
41
1
10
71.315699348286
20
-1.70880403584124
30
0
41
1
10
71.3262266377878
20
-1.66701019012234
30
0
41
1
10
71.3452696283509
20
-1.59904709389571
30
0
41
1
10
71.3621146519114
20
-1.54645004450396
30
0
41
1
10
71.375373951738
20
-1.50767537897872
30
0
41
1
10
71.3798877191007
20
-1.49489597547978
30
0
41
1
10
71.3890175454285
20
-1.46985591489809
30
0
41
1
10
71.3936455207693
20
-1.4575600741112
30
0
41
1
10
71.4170963905389
20
-1.39716814815415
30
0
41
1
10
71.4368462678132
20
-1.3523028102795
30
0
41
1
10
71.4783166950527
20
-1.26914721304129
30
0
41
1
10
71.4994070424371
20
-1.23211622962222
30
0
41
1
10
71.5315117611743
20
-1.18266480252299
30
0
41
1
10
71.5422924772075
20
-1.16720403801912
30
0
41
1
10
71.5585767886174
20
-1.14552189239447
30
0
41
1
10
71.5640218363395
20
-1.13855053411334
30
0
41
1
10
71.5748533050991
20
-1.12522300827732
30
0
41
1
10
71.5802517507361
20
-1.11885049836528
30
0
41
1
10
71.60715725853
20
-1.08840010766375
30
0
41
1
10
71.6284080347697
20
-1.06852127393282
30
0
41
1
10
71.6545848911923
20
-1.04897267722066
30
0
41
1
10
71.6598006904094
20
-1.04533022523162
30
0
41
1
10
71.6701910436126
20
-1.03858119392268
30
0
41
1
10
71.6753713680646
20
-1.03547241084516
30
0
41
1
10
71.6907241169717
20
-1.02701881433671
30
0
41
1
10
71.7007473831289
20
-1.02251718491687
30
0
41
1
10
71.7301765880726
20
-1.01229609578292
30
0
41
1
10
71.7489480722758
20
-1.0098325346855
30
0
41
1
10
71.7712454866873
20
-1.01223583563234
30
0
41
1
10
71.7756461307053
20
-1.01299288297486
30
0
41
1
10
71.7843249615358
20
-1.01507023393404
30
0
41
1
10
71.7886105975843
20
-1.0163943456798
30
0
41
1
10
71.8011709500804
20
-1.02118802597218
30
0
41
1
10
71.8091779399896
20
-1.02547950334395
30
0
41
1
10
71.8320796831927
20
-1.04160992302803
30
0
41
1
10
71.845865954633
20
-1.05667297635787
30
0
41
1
10
71.8640687245831
20
-1.08615084505206
30
0
41
1
10
71.8697210942706
20
-1.09713141290143
30
0
41
1
10
71.8801148518011
20
-1.121582974262
30
0
41
1
10
71.8847883786138
20
-1.13490382926133
30
0
41
1
10
71.8971273954076
20
-1.17800401911245
30
0
41
1
10
71.9031623197907
20
-1.21096011013827
30
0
41
1
10
71.9076220635986
20
-1.25804251691233
30
0
41
1
10
71.9083596231282
20
-1.26777908551119
30
0
41
1
10
71.9095030837927
20
-1.28777225965911
30
0
41
1
10
71.9107137015525
20
-1.31840037038489
30
0
41
1
10
71.9102273226741
20
-1.37261858430884
30
0
41
1
10
71.9071395579707
20
-1.41943332969581
30
0
41
1
10
71.9037725887932
20
-1.45589937817263
30
0
41
1
10
71.9024747679605
20
-1.46828102274063
30
0
41
1
10
71.8995174327487
20
-1.493514045029
30
0
41
1
10
71.89785033559
20
-1.5064163028276
30
0
41
1
10
71.8886898650096
20
-1.57137659438993
30
0
41
1
10
71.8787665585668
20
-1.62479606081169
30
0
41
1
10
71.8632910331091
20
-1.69339040549914
30
0
41
1
10
71.8600408919601
20
-1.7072012233059
30
0
41
1
10
71.8532289327288
20
-1.73501081425857
30
0
41
1
10
71.8496541994211
20
-1.749056797592
30
0
41
1
10
71.838592426144
20
-1.79097900443398
30
0
41
1
10
71.8229160155614
20
-1.84645907876305
30
0
41
1
10
71.8055304026245
20
-1.90116345259096
30
0
41
1
10
71.7873317539323
20
-1.95549444439806
30
0
41
1
10
71.7777705802209
20
-1.98261438530403
30
0
41
1
10
71.7485161877985
20
-2.0617640287993
30
0
41
1
10
71.7281591604103
20
-2.11197235078612
30
0
41
1
10
71.6965563739909
20
-2.18376842463226
30
0
41
1
10
71.6858122911213
20
-2.20716163555014
30
0
41
1
10
71.6644082806868
20
-2.25188825495283
30
0
41
1
10
71.6429892556696
20
-2.29479238957001
30
0
41
1
10
71.6215594362952
20
-2.33422905213638
30
0
41
1
10
71.6001288940611
20
-2.37196550452583
30
0
41
1
10
71.5893739267577
20
-2.39004332089453
30
0
41
1
10
71.5681418720945
20
-2.42404776232937
30
0
41
1
10
71.5576480102854
20
-2.4400107540736
30
0
41
1
10
71.5420819177384
20
-2.46244196518154
30
0
41
1
10
71.5369223612361
20
-2.46966634031551
30
0
41
1
10
71.5266603657181
20
-2.48361178765364
30
0
41
1
10
71.5215445037248
20
-2.49034997040957
30
0
41
1
10
71.5164835396522
20
-2.49680156962375
30
0
0
SPLINE
5
D6
100
AcDbEntity
8
1
62
256
6
ByLayer
370
18
48
1
60
0
100
AcDbSpline
70
4
71
3
72
13
73
9
40
0
40
0
40
0
40
0
40
0.500000000000012
40
0.500000000000012
40
0.625000000000009
40
0.625000000000009
40
0.750000000000006
40
1
40
1
40
1
40
1
41
1
10
71.1820991720658
20
-5.03916456800246
30
0
41
1
10
71.1412048760419
20
-5.09991966771557
30
0
41
1
10
71.1036694804532
20
-5.1510949944884
30
0
41
1
10
71.0609247780919
20
-5.20174643222677
30
0
41
1
10
71.0525616581569
20
-5.21123255250978
30
0
41
1
10
71.0363925376776
20
-5.22867877505104
30
0
41
1
10
71.0129633171896
20
-5.25258118405043
30
0
41
1
10
70.9918919121977
20
-5.26981791236767
30
0
41
1
10
70.9787983752718
20
-5.27844001995047
30
0
0
SPLINE
5
D7
100
AcDbEntity
8
1
62
256
6
ByLayer
370
18
48
1
60
0
100
AcDbSpline
70
4
71
3
72
27
73
23
40
0
40
0
40
0
40
0
40
0.124999999999996
40
0.249999999999991
40
0.249999999999991
40
0.312499999999989
40
0.312499999999989
40
0.343749999999988
40
0.343749999999988
40
0.374999999999987
40
0.374999999999987
40
0.43749999999999
40
0.43749999999999
40
0.468749999999989
40
0.468749999999989
40
0.499999999999988
40
0.499999999999988
40
0.624999999999992
40
0.624999999999992
40
0.749999999999996
40
0.749999999999996
40
1
40
1
40
1
40
1
41
1
10
72.4481555304308
20
-1.77971726978328
30
0
41
1
10
72.3841188270938
20
-1.8975397604716
30
0
41
1
10
72.2603198946272
20
-2.14088659578633
30
0
41
1
10
72.1440217609854
20
-2.39920485138862
30
0
41
1
10
72.0591888151109
20
-2.5984981140526
30
0
41
1
10
72.0313094531007
20
-2.66585663079732
30
0
41
1
10
71.9900308875255
20
-2.76828807489176
30
0
41
1
10
71.976342153967
20
-2.80271383320283
30
0
41
1
10
71.9492646216534
20
-2.87169776545664
30
0
41
1
10
71.9358697397536
20
-2.90626975994357
30
0
41
1
10
71.8960922909579
20
-3.01021578928157
30
0
41
1
10
71.8701191938152
20
-3.0798212194654
30
0
41
1
10
71.8318682695472
20
-3.18464452989082
30
0
41
1
10
71.8192584775249
20
-3.21966817651966
30
0
41
1
10
71.7940360732055
20
-3.28971475918826
30
0
41
1
10
71.7814436467821
20
-3.32475233437646
30
0
41
1
10
71.7185928603284
20
-3.49995741907347
30
0
41
1
10
71.6686636346889
20
-3.6401923588991
30
0
41
1
10
71.5694699180064
20
-3.92077031645772
30
0
41
1
10
71.5202211330358
20
-4.06107561293581
30
0
41
1
10
71.373617547816
20
-4.48132297723484
30
0
41
1
10
71.2773663059417
20
-4.7608126196869
30
0
41
1
10
71.1820991720658
20
-5.03916456800241
30
0
0
SPLINE
5
D8
100
AcDbEntity
8
1
62
256
6
ByLayer
370
18
48
1
60
0
100
AcDbSpline
70
4
71
3
72
8
73
4
40
0
40
0
40
0
40
0
40
1
40
1
40
1
40
1
41
1
10
72.4481555304301
20
-1.77971726978385
30
0
41
1
10
72.5928080147423
20
-1.37493802196545
30
0
41
1
10
72.7362576784178
20
-0.969736029324679
30
0
41
1
10
72.8784802682644
20
-0.564102767804741
30
0
0
SPLINE
5
D9
100
AcDbEntity
8
1
62
256
6
ByLayer
370
18
48
1
60
0
100
AcDbSpline
70
4
71
3
72
8
73
4
40
0
40
0
40
0
40
0
40
1
40
1
40
1
40
1
41
1
10
72.8784802682644
20
-0.564102767804741
30
0
41
1
10
72.9175055413673
20
-0.452798727936283
30
0
41
1
10
72.9572999465909
20
-0.34192163234502
30
0
41
1
10
72.9978617989062
20
-0.231456321056555
30
0
0
SPLINE
5
DA
100
AcDbEntity
8
1
62
256
6
ByLayer
370
18
48
1
60
0
100
AcDbSpline
70
4
71
3
72
8
73
4
40
0
40
0
40
0
40
0
40
1
40
1
40
1
40
1
41
1
10
72.9978617989062
20
0.231456321056527
30
0
41
1
10
73.000707276731
20
0.077447460443949
30
0
41
1
10
73.0007182116402
20
-0.0768556185777527
30
0
41
1
10
72.9978617989062
20
-0.231456321056555
30
0
0
SPLINE
5
DB
100
AcDbEntity
8
1
62
256
6
ByLayer
370
18
48
1
60
0
100
AcDbSpline
70
4
71
3
72
58
73
54
40
0
40
0
40
0
40
0
40
0.062500000000002
40
0.062500000000002
40
0.0937500000000055
40
0.109375000000005
40
0.109375000000005
40
0.125000000000004
40
0.125000000000004
40
0.187500000000011
40
0.187500000000011
40
0.250000000000018
40
0.250000000000018
40
0.281250000000019
40
0.281250000000019
40
0.296875000000016
40
0.296875000000016
40
0.312500000000014
40
0.312500000000014
40
0.375000000000009
40
0.375000000000009
40
0.437500000000004
40
0.437500000000004
40
0.453125000000001
40
0.453125000000001
40
0.468749999999999
40
0.468749999999999
40
0.499999999999993
40
0.499999999999993
40
0.562499999999988
40
0.562499999999988
40
0.593749999999983
40
0.593749999999983
40
0.609374999999982
40
0.609374999999982
40
0.624999999999982
40
0.624999999999982
40
0.687499999999976
40
0.687499999999976
40
0.718749999999973
40
0.734374999999974
40
0.734374999999974
40
0.749999999999974
40
0.749999999999974
40
0.812499999999981
40
0.812499999999981
40
0.874999999999987
40
0.874999999999987
40
0.906249999999991
40
0.906249999999991
40
0.937499999999994
40
0.937499999999994
40
1
40
1
40
1
40
1
41
1
10
72.9978617989062
20
0.231456321056527
30
0
41
1
10
72.977808058621
20
0.173338191477512
30
0
41
1
10
72.9566824703239
20
0.11572659544791
30
0
41
1
10
72.9233901877327
20
0.0300771823633852
30
0
41
1
10
72.9063420821421
20
-0.012555054764448
30
0
41
1
10
72.8886816552106
20
-0.0548921704711631
30
0
41
1
10
72.8767701085397
20
-0.083050221256201
30
0
41
1
10
72.8707350966437
20
-0.0971195019717186
30
0
41
1
10
72.8403406304814
20
-0.166996663687513
30
0
41
1
10
72.8154543360429
20
-0.221119706035893
30
0
41
1
10
72.7646281532166
20
-0.325822239613473
30
0
41
1
10
72.7386884273819
20
-0.376402656122082
30
0
41
1
10
72.6990019476944
20
-0.449495509039167
30
0
41
1
10
72.6856430827057
20
-0.473395396016827
30
0
41
1
10
72.665405681563
20
-0.508518274803521
30
0
41
1
10
72.6586266541092
20
-0.520104624755788
30
0
41
1
10
72.6450009029657
20
-0.543028144661804
30
0
41
1
10
72.6381602918679
20
-0.554354032708687
30
0
41
1
10
72.6040962035698
20
-0.609845400777516
30
0
41
1
10
72.5770501353672
20
-0.65101738992044
30
0
41
1
10
72.5233729970109
20
-0.726955617024458
30
0
41
1
10
72.496742001341
20
-0.761723191988125
30
0
41
1
10
72.4637038765665
20
-0.80097666132869
30
0
41
1
10
72.4571087323701
20
-0.80861608882779
30
0
41
1
10
72.4439429698253
20
-0.823463199335407
30
0
41
1
10
72.437359718916
20
-0.83068370434853
30
0
41
1
10
72.4178127546283
20
-0.85150708272846
30
0
41
1
10
72.4050110208382
20
-0.864321850348489
30
0
41
1
10
72.367262090334
20
-0.899635261677815
30
0
41
1
10
72.3429694099539
20
-0.9190166283216
30
0
41
1
10
72.307747283093
20
-0.941871389887126
30
0
41
1
10
72.2962098533801
20
-0.948449977183685
30
0
41
1
10
72.2792008546525
20
-0.956729996158799
30
0
41
1
10
72.2735695745416
20
-0.959229382017043
30
0
41
1
10
72.2624644476396
20
-0.963668115103616
30
0
41
1
10
72.2569956631289
20
-0.965606663387121
30
0
41
1
10
72.2300558871348
20
-0.973923903350141
30
0
41
1
10
72.2097920306658
20
-0.976193973019406
30
0
41
1
10
72.1811146969995
20
-0.973341427752359
30
0
41
1
10
72.1672072279711
20
-0.970345412439741
30
0
41
1
10
72.1539190363712
20
-0.965010585328486
30
0
41
1
10
72.1451955459835
20
-0.960933289141849
30
0
41
1
10
72.1408940134416
20
-0.958629554904405
30
0
41
1
10
72.1198305516986
20
-0.945875949479188
30
0
41
1
10
72.1043880283497
20
-0.931756978223831
30
0
41
1
10
72.0759432987243
20
-0.896313273411948
30
0
41
1
10
72.0629428480131
20
-0.874984874969471
30
0
41
1
10
72.0451022256805
20
-0.837797999710688
30
0
41
1
10
72.0394230094273
20
-0.82450341660271
30
0
41
1
10
72.0286917545232
20
-0.796443633842301
30
0
41
1
10
72.0236292423581
20
-0.78166244778015
30
0
41
1
10
72.0092967396718
20
-0.735150887126849
30
0
41
1
10
72.0008783124355
20
-0.701259016888343
30
0
41
1
10
71.9934999753444
20
-0.664622089365906
30
0
0
SPLINE
5
DC
100
AcDbEntity
8
1
62
256
6
ByLayer
370
18
48
1
60
0
100
AcDbSpline
70
4
71
3
72
8
73
4
40
0
40
0
40
0
40
0
40
1
40
1
40
1
40
1
41
1
10
71.9934999753445
20
-0.664622089365935
30
0
41
1
10
71.8962133757556
20
-0.181548186123592
30
0
41
1
10
71.770811363743
20
0.318478725474421
30
0
41
1
10
71.6169338150688
20
0.835675792846018
30
0
0
SPLINE
5
DD
100
AcDbEntity
8
1
62
256
6
ByLayer
370
18
48
1
60
0
100
AcDbSpline
70
4
71
3
72
16
73
12
40
0
40
0
40
0
40
0
40
0.25
40
0.25
40
0.5
40
0.5
40
0.75
40
0.75
40
0.875
40
0.875
40
1
40
1
40
1
40
1
41
1
10
71.0065012895387
20
0.510081801974792
30
0
41
1
10
71.0568887871032
20
0.552092043331186
30
0
41
1
10
71.1075607054257
20
0.590305732314448
30
0
41
1
10
71.2092556991651
20
0.659637817242327
30
0
41
1
10
71.2602956371333
20
0.690968356535791
30
0
41
1
10
71.3624486867444
20
0.746036720182559
30
0
41
1
10
71.4135634252195
20
0.769800543016004
30
0
41
1
10
71.4900452320089
20
0.799298908856144
30
0
41
1
10
71.5155068943287
20
0.808103391342542
30
0
41
1
10
71.566314428953
20
0.823511599809535
30
0
41
1
10
71.5916579310548
20
0.830094530679588
30
0
41
1
10
71.6169338150688
20
0.835675792846018
30
0
0
SPLINE
5
DE
100
AcDbEntity
8
1
62
256
6
ByLayer
370
18
48
1
60
0
100
AcDbSpline
70
4
71
3
72
78
73
74
40
0
40
0
40
0
40
0
40
0.0171986975517526
40
0.0171986975517526
40
0.0337345274791201
40
0.0337345274791201
40
0.0502703574064876
40
0.0502703574064876
40
0.066806187333855
40
0.066806187333855
40
0.0833420172612225
40
0.0833420172612225
40
0.0998778471885899
40
0.0998778471885899
40
0.108145762152274
40
0.110212740893195
40
0.110729485578425
40
0.11098785792104
40
0.111117044092347
40
0.111117044092347
40
0.111246230263655
40
0.111246230263655
40
0.111375416434963
40
0.111375416434963
40
0.11150460260627
40
0.11150460260627
40
0.111762974948885
40
0.111762974948885
40
0.112279719634115
40
0.112279719634115
40
0.116413677115957
40
0.116413677115957
40
0.132949507043322
40
0.132949507043322
40
0.149485336970687
40
0.149485336970687
40
0.182556996825417
40
0.182556996825417
40
0.248700316534878
40
0.248700316534878
40
0.3809869559538
40
0.3809869559538
40
0.44713027566326
40
0.44713027566326
40
0.513273595372721
40
0.513273595372721
40
0.529809425300086
40
0.529809425300086
40
0.533943382781928
40
0.533943382781928
40
0.534976872152388
40
0.534976872152388
40
0.536010361522848
40
0.536010361522848
40
0.536139547694156
40
0.536139547694156
40
0.53620414077981
40
0.53620414077981
40
0.536268733865463
40
0.536268733865463
40
0.536527106208078
40
0.536527106208078
40
0.537043850893308
40
0.538077340263767
40
0.546345255227441
40
0.546345255227441
40
0.579416915082137
40
0.579416915082137
40
0.645560234791529
40
0.645560234791529
40
0.777846874210313
40
0.777846874210313
40
1
40
1
40
1
40
1
41
1
10
9.36083308222692
20
5.0145087461575
30
0
41
1
10
9.32657688255517
20
4.93027846317005
30
0
41
1
10
9.28982696725964
20
4.84412899995468
30
0
41
1
10
9.21476089398166
20
4.67182939131177
30
0
41
1
10
9.17644153708008
20
4.58565837361951
30
0
41
1
10
9.09753789910795
20
4.40947121973946
30
0
41
1
10
9.0574119468148
20
4.31918585553194
30
0
41
1
10
8.97266034108577
20
4.13605279109808
30
0
41
1
10
8.92807045074866
20
4.04318891964866
30
0
41
1
10
8.83532148732661
20
3.85433084247131
30
0
41
1
10
8.78740342389258
20
3.75819592704383
30
0
41
1
10
8.68729748788272
20
3.56309935907999
30
0
41
1
10
8.63530527017815
20
3.46464295751997
30
0
41
1
10
8.55509196069193
20
3.31544459685861
30
0
41
1
10
8.52119107996569
20
3.25293853206404
30
0
41
1
10
8.48508142782802
20
3.18690091740049
30
0
41
1
10
8.47559137168361
20
3.16957774944527
30
0
41
1
10
8.47256874082669
20
3.16406324236163
30
0
41
1
10
8.47127267616796
20
3.16169933119699
30
0
41
1
10
8.47040848832452
20
3.1601232673078
30
0
41
1
10
8.46971366755929
20
3.15942499431654
30
0
41
1
10
8.46960176796699
20
3.15756683942232
30
0
41
1
10
8.47041737288237
20
3.15676235047579
30
0
41
1
10
8.47172375230306
20
3.15537326788436
30
0
41
1
10
8.47242905050408
20
3.15473262987172
30
0
41
1
10
8.47458804373278
20
3.15285529937404
30
0
41
1
10
8.47609186467406
20
3.15167322064715
30
0
41
1
10
8.48063891161934
20
3.14819544734519
30
0
41
1
10
8.4837381765598
20
3.1459722677877
30
0
41
1
10
8.51177743436244
20
3.12620394321033
30
0
41
1
10
8.53748825711864
20
3.10988828282231
30
0
41
1
10
8.66550056744359
20
3.02762784516338
30
0
41
1
10
8.76875840836485
20
2.96338854846903
30
0
41
1
10
8.97505573119753
20
2.83464883236698
30
0
41
1
10
9.0782897066436
20
2.77049388821408
30
0
41
1
10
9.38806448579035
20
2.5783503570336
30
0
41
1
10
9.5946217426785
20
2.45071937556915
30
0
41
1
10
10.2142366786613
20
2.06895338724115
30
0
41
1
10
10.627309458628
20
1.81603221170496
30
0
41
1
10
11.8656545986901
20
1.06051070295857
30
0
41
1
10
12.6899144053636
20
0.561025443653307
30
0
41
1
10
13.9257295477718
20
-0.179620968420437
30
0
41
1
10
14.3376983847907
20
-0.425006114175517
30
0
41
1
10
15.1610535720063
20
-0.913100506854249
30
0
41
1
10
15.572371742661
20
-1.15563981951433
30
0
41
1
10
16.0853365844236
20
-1.45764907600542
30
0
41
1
10
16.1879520513086
20
-1.51790735125951
30
0
41
1
10
16.315470322996
20
-1.59381151033114
30
0
41
1
10
16.3409518424408
20
-1.60900626964502
30
0
41
1
10
16.3724839500356
20
-1.62828362336902
30
0
41
1
10
16.3787742706399
20
-1.63215513173768
30
0
41
1
10
16.3912460687484
20
-1.63998794064398
30
0
41
1
10
16.3976256249541
20
-1.6438316032947
30
0
41
1
10
16.4040023027877
20
-1.64869337799288
30
0
41
1
10
16.4047163986325
20
-1.64924336329867
30
0
41
1
10
16.4055658986277
20
-1.65015006579088
30
0
41
1
10
16.4059102212485
20
-1.65058002985558
30
0
41
1
10
16.4052745744307
20
-1.65092551306878
30
0
41
1
10
16.4047446927963
20
-1.6508315920517
30
0
41
1
10
16.4024401511995
20
-1.65062668132771
30
0
41
1
10
16.4005961981694
20
-1.65046148195927
30
0
41
1
10
16.3950648974249
20
-1.6499673885032
30
0
41
1
10
16.384002512815
20
-1.64897815518503
30
0
41
1
10
16.3139448262401
20
-1.64269312538425
30
0
41
1
10
16.2475982733648
20
-1.63662590486106
30
0
41
1
10
15.9528238179083
20
-1.60921437496671
30
0
41
1
10
15.7173164470604
20
-1.58585717364053
30
0
41
1
10
15.0117057162345
20
-1.51149226918392
30
0
41
1
10
14.5425730386161
20
-1.45619167176491
30
0
41
1
10
13.1408670402589
20
-1.27337832120094
30
0
41
1
10
12.2132332494535
20
-1.12888608536272
30
0
41
1
10
9.74438700630489
20
-0.681454419490194
30
0
41
1
10
8.21439053185122
20
-0.337414704541033
30
0
41
1
10
6.69911327270765
20
0.0684734520161498
30
0
0
SPLINE
5
DF
100
AcDbEntity
8
1
62
256
6
ByLayer
370
18
48
1
60
0
100
AcDbSpline
70
4
71
3
72
16
73
12
40
0
40
0
40
0
40
0
40
0.250000000000315
40
0.250000000000315
40
0.375000000000326
40
0.375000000000326
40
0.500000000000336
40
0.500000000000336
40
0.750000000000168
40
0.750000000000168
40
1
40
1
40
1
40
1
41
1
10
18.0540291981659
20
2.58571005896562
30
0
41
1
10
18.0458889566799
20
2.58942049545743
30
0
41
1
10
18.0385078171627
20
2.59400938060955
30
0
41
1
10
18.0285447310529
20
2.60216934239264
30
0
41
1
10
18.0253986698292
20
2.60512385317409
30
0
41
1
10
18.019670682523
20
2.61129799729739
30
0
41
1
10
18.0170648675203
20
2.6145334558868
30
0
41
1
10
18.0100128741403
20
2.62467819042783
30
0
41
1
10
18.0063183340222
20
2.63211150946637
30
0
41
1
10
18.0014359958677
20
2.64731224345792
30
0
41
1
10
18.0001681853409
20
2.6552390082245
30
0
41
1
10
18.0001681853409
20
2.66322292913517
30
0
0
SPLINE
5
E0
100
AcDbEntity
8
1
62
256
6
ByLayer
370
18
48
1
60
0
100
AcDbSpline
70
4
71
3
72
133
73
129
40
0
40
0
40
0
40
0
40
0.0048015611052734
40
0.0048015611052734
40
0.0173056250556264
40
0.0173056250556264
40
0.0423137529563315
40
0.0423137529563315
40
0.0548178169066841
40
0.0548178169066841
40
0.0610698488818603
40
0.0610698488818603
40
0.0673218808570366
40
0.0673218808570366
40
0.092330008757741
40
0.092330008757741
40
0.117338136658445
40
0.117338136658445
40
0.129842200608798
40
0.129842200608798
40
0.14234626455915
40
0.14234626455915
40
0.154850328509502
40
0.154850328509502
40
0.167354392459854
40
0.167354392459854
40
0.192362520360558
40
0.192362520360558
40
0.217370648261261
40
0.217370648261261
40
0.242378776161965
40
0.242378776161965
40
0.267386904062668
40
0.267386904062668
40
0.27989096801302
40
0.27989096801302
40
0.292395031963373
40
0.292395031963373
40
0.317403159864076
40
0.317403159864076
40
0.329907223814428
40
0.329907223814428
40
0.34241128776478
40
0.34241128776478
40
0.367419415665483
40
0.367419415665483
40
0.392427543566187
40
0.392427543566187
40
0.404931607516539
40
0.404931607516539
40
0.41743567146689
40
0.41743567146689
40
0.423687703442066
40
0.423687703442066
40
0.429939735417242
40
0.429939735417242
40
0.442443799367593
40
0.442443799367593
40
0.467451927268294
40
0.467451927268294
40
0.492460055168995
40
0.492460055168995
40
0.517468183069697
40
0.517468183069697
40
0.523720215044872
40
0.523720215044872
40
0.529972247020047
40
0.529972247020047
40
0.542476310970398
40
0.542476310970398
40
0.554980374920748
40
0.554980374920748
40
0.567484438871099
40
0.567484438871099
40
0.592492566771799
40
0.592492566771799
40
0.604996630722149
40
0.604996630722149
40
0.6175006946725
40
0.6175006946725
40
0.642508822573199
40
0.642508822573199
40
0.667516950473899
40
0.667516950473899
40
0.680021014424248
40
0.680021014424248
40
0.692525078374598
40
0.692525078374598
40
0.705029142324948
40
0.705029142324948
40
0.717533206275298
40
0.717533206275298
40
0.742541334175996
40
0.742541334175996
40
0.767549462076695
40
0.767549462076695
40
0.792557589977394
40
0.792557589977394
40
0.805061653927743
40
0.805061653927743
40
0.817565717878093
40
0.817565717878093
40
0.830069781828443
40
0.830069781828443
40
0.842573845778792
40
0.842573845778792
40
0.867581973679492
40
0.867581973679492
40
0.880086037629842
40
0.880086037629842
40
0.886338069605017
40
0.886338069605017
40
0.892590101580192
40
0.892590101580192
40
0.917598229480894
40
0.917598229480894
40
0.942606357381596
40
0.942606357381596
40
0.955110421331947
40
0.955110421331947
40
0.967614485282298
40
0.967614485282298
40
0.980118549232649
40
0.980118549232649
40
0.986370581207824
40
0.986370581207824
40
0.992622613183
40
1
40
1
40
1
40
1
41
1
10
23.1165207817683
20
5.41380731244354
30
0
41
1
10
23.1808344568596
20
5.41392081362679
30
0
41
1
10
23.2451442372981
20
5.41372125737112
30
0
41
1
10
23.4769336114316
20
5.41187432908822
30
0
41
1
10
23.644423572515
20
5.40842060395326
30
0
41
1
10
24.1469725204877
20
5.3917201117018
30
0
41
1
10
24.4820906022173
20
5.37213018320296
30
0
41
1
10
24.9853304571855
20
5.33007721916147
30
0
41
1
10
25.1531718955918
20
5.3139482159562
30
0
41
1
10
25.4051292207725
20
5.2865857770517
30
0
41
1
10
25.4891518929446
20
5.27693575843597
30
0
41
1
10
25.6570667439432
20
5.2566076976465
30
0
41
1
10
25.7409847666511
20
5.24592692412699
30
0
41
1
10
26.1604103079948
20
5.18995887921878
30
0
41
1
10
26.4955695673597
20
5.13705824701734
30
0
41
1
10
27.1655808339912
20
5.01541581337037
30
0
41
1
10
27.5004196722736
20
4.94666107932071
30
0
41
1
10
28.0028691075309
20
4.83193178112043
30
0
41
1
10
28.1703813703101
20
4.79175301683478
30
0
41
1
10
28.5055512035071
20
4.707583446684
30
0
41
1
10
28.6731998251259
20
4.66358264515719
30
0
41
1
10
29.0088235507193
20
4.57192986845436
30
0
41
1
10
29.176897088138
20
4.52424828063772
30
0
41
1
10
29.5126942331716
20
4.42546822732851
30
0
41
1
10
29.6804531117466
20
4.37435682191247
30
0
41
1
10
30.1834157736207
20
4.21599520692212
30
0
41
1
10
30.518310758201
20
4.10372464275341
30
0
41
1
10
31.1878508034551
20
3.86651383648592
30
0
41
1
10
31.5224662515786
20
3.74152220813414
30
0
41
1
10
32.1925304942935
20
3.48032054016198
30
0
41
1
10
32.5278880674731
20
3.34399385728688
30
0
41
1
10
33.1997496880476
20
3.06053057336911
30
0
41
1
10
33.5350406307295
20
2.91392460902833
30
0
41
1
10
34.0374093624376
20
2.68750271429687
30
0
41
1
10
34.2047682885156
20
2.61092995815287
30
0
41
1
10
34.5394902549206
20
2.45592466019161
30
0
41
1
10
34.7068503843435
20
2.37748830417411
30
0
41
1
10
35.2089768344491
20
2.13946856046147
30
0
41
1
10
35.5437722697815
20
1.9771445329263
30
0
41
1
10
36.0464713014056
20
1.72894261379105
30
0
41
1
10
36.2141226968653
20
1.64542387772275
30
0
41
1
10
36.5496658600467
20
1.47693455136411
30
0
41
1
10
36.7176044705071
20
1.39193984486593
30
0
41
1
10
37.2207021375998
20
1.13568970391833
30
0
41
1
10
37.5556781429653
20
0.963242945227591
30
0
41
1
10
38.2252369538545
20
0.615991483400336
30
0
41
1
10
38.5598124783642
20
0.441172537570111
30
0
41
1
10
39.0618112015752
20
0.177993024665994
30
0
41
1
10
39.2291638773559
20
0.0901025822428494
30
0
41
1
10
39.5639965612679
20
-0.0858393757096962
30
0
41
1
10
39.7314679611741
20
-0.173907616240768
30
0
41
1
10
39.9829056692561
20
-0.305871377947852
30
0
41
1
10
40.066755559613
20
-0.349838304599331
30
0
41
1
10
40.2345354250181
20
-0.437719731769562
30
0
41
1
10
40.318491149537
20
-0.48164816893788
30
0
41
1
10
40.5702348382758
20
-0.613214877319052
30
0
41
1
10
40.7379144731258
20
-0.700649562826271
30
0
41
1
10
41.2406135065551
20
-0.961922838372175
30
0
41
1
10
41.575296973499
20
-1.13472354842008
30
0
41
1
10
42.2443429693064
20
-1.47648175653427
30
0
41
1
10
42.5786791314476
20
-1.64548382725604
30
0
41
1
10
43.2481026638393
20
-1.97766881719136
30
0
41
1
10
43.5831019248529
20
-2.14101615375208
30
0
41
1
10
44.0025289678501
20
-2.3411782048743
30
0
41
1
10
44.0864625706638
20
-2.3810143451293
30
0
41
1
10
44.2542040905687
20
-2.46016771970838
30
0
41
1
10
44.338035760929
20
-2.49949635601891
30
0
41
1
10
44.5894269886446
20
-2.61671637852973
30
0
41
1
10
44.7568803508231
20
-2.69384590945239
30
0
41
1
10
45.091593416465
20
-2.84592686775488
30
0
41
1
10
45.2588446516696
20
-2.92089130452044
30
0
41
1
10
45.5933324658064
20
-3.06835634157935
30
0
41
1
10
45.7605652336804
20
-3.14086446682157
30
0
41
1
10
46.2622840098255
20
-3.35464077444175
30
0
41
1
10
46.5967757743009
20
-3.49218304067142
30
0
41
1
10
47.098974077671
20
-3.69033926780634
30
0
41
1
10
47.2664508228429
20
-3.75503088466539
30
0
41
1
10
47.6016292337356
20
-3.88157948248374
30
0
41
1
10
47.7694327652422
20
-3.94347143609542
30
0
41
1
10
48.2722918733121
20
-4.12428135205161
30
0
41
1
10
48.6070711740775
20
-4.23821758221146
30
0
41
1
10
49.2761747280753
20
-4.45245224561347
30
0
41
1
10
49.6104935761991
20
-4.55275351497582
30
0
41
1
10
50.1120638839164
20
-4.69249043975788
30
0
41
1
10
50.279266596835
20
-4.73728586738409
30
0
41
1
10
50.6137846275688
20
-4.82321132773953
30
0
41
1
10
50.7810916520939
20
-4.86434766127903
30
0
41
1
10
51.1159954995073
20
-4.94278512233996
30
0
41
1
10
51.2835937822763
20
-4.9800923445477
30
0
41
1
10
51.6190913489756
20
-5.05083574480477
30
0
41
1
10
51.7866832495718
20
-5.08420984663783
30
0
41
1
10
52.2890988298039
20
-5.17828778153842
30
0
41
1
10
52.6235656734953
20
-5.23294668141239
30
0
41
1
10
53.2921241017739
20
-5.32584210790912
30
0
41
1
10
53.6261893467954
20
-5.36407566788299
30
0
41
1
10
54.2950044998666
20
-5.42365993117764
30
0
41
1
10
54.6296716252712
20
-5.4450545951542
30
0
41
1
10
55.1324511392991
20
-5.46437135740948
30
0
41
1
10
55.3002018851984
20
-5.46867694890366
30
0
41
1
10
55.6352078009724
20
-5.4729914657859
30
0
41
1
10
55.8025636225972
20
-5.4730053756569
30
0
41
1
10
56.1370681502065
20
-5.46875487837221
30
0
41
1
10
56.3042086078277
20
-5.46448841931866
30
0
41
1
10
56.6384578128715
20
-5.4517039039963
30
0
41
1
10
56.8055633968146
20
-5.44318770826362
30
0
41
1
10
57.3068824718989
20
-5.41129625547336
30
0
41
1
10
57.6410846207465
20
-5.38157416364885
30
0
41
1
10
58.1428151340814
20
-5.32439075438947
30
0
41
1
10
58.3101302926745
20
-5.30322947813187
30
0
41
1
10
58.561263267521
20
-5.26834403193286
30
0
41
1
10
58.6450012042517
20
-5.25619168721258
30
0
41
1
10
58.8125433479514
20
-5.23084218390895
30
0
41
1
10
58.8963665782474
20
-5.21764125969653
30
0
41
1
10
59.3151899371633
20
-5.14911826202916
30
0
41
1
10
59.6497555688792
20
-5.08627851461355
30
0
41
1
10
60.3183922411523
20
-4.94505199996976
30
0
41
1
10
60.6524566647755
20
-4.8666571946228
30
0
41
1
10
61.153614302217
20
-4.73775964924948
30
0
41
1
10
61.3206744503418
20
-4.69290670949224
30
0
41
1
10
61.6548960222705
20
-4.59949630921219
30
0
41
1
10
61.8220492315542
20
-4.55092910180883
30
0
41
1
10
62.156629767106
20
-4.45025922934735
30
0
41
1
10
62.3240547856047
20
-4.39815606069348
30
0
41
1
10
62.5754261925056
20
-4.31737705844031
30
0
41
1
10
62.6592377420661
20
-4.29001782053004
30
0
41
1
10
62.8267405281641
20
-4.23450011301281
30
0
41
1
10
63.0092399924368
20
-4.17309811757261
30
0
41
1
10
63.1915920156133
20
-4.10979410104065
30
0
41
1
10
63.2902604969173
20
-4.07498147944636
30
0
0
SPLINE
5
E1
100
AcDbEntity
8
1
62
256
6
ByLayer
370
18
48
1
60
0
100
AcDbSpline
70
4
71
3
72
120
73
116
40
0
40
0
40
0
40
0
40
0.0140700430386519
40
0.0140700430386519
40
0.0346102504753471
40
0.0346102504753471
40
0.0448803541936947
40
0.0448803541936947
40
0.0551504579120422
40
0.0551504579120422
40
0.0962308727854326
40
0.0962308727854326
40
0.10650097650378
40
0.10650097650378
40
0.116771080222127
40
0.127041183940474
40
0.127041183940474
40
0.137311287658821
40
0.137311287658821
40
0.157851495095515
40
0.157851495095515
40
0.178391702532208
40
0.178391702532208
40
0.219472117405596
40
0.219472117405596
40
0.229742221123943
40
0.229742221123943
40
0.24001232484229
40
0.24001232484229
40
0.260552532278984
40
0.260552532278984
40
0.281092739715678
40
0.281092739715678
40
0.291362843434026
40
0.291362843434026
40
0.301632947152373
40
0.301632947152373
40
0.322173154589068
40
0.322173154589068
40
0.332443258307415
40
0.332443258307415
40
0.342713362025763
40
0.342713362025763
40
0.363253569462458
40
0.363253569462458
40
0.383793776899154
40
0.383793776899154
40
0.404333984335849
40
0.404333984335849
40
0.424874191772545
40
0.424874191772545
40
0.465954606645936
40
0.465954606645936
40
0.486494814082632
40
0.486494814082632
40
0.496764917800979
40
0.496764917800979
40
0.507035021519327
40
0.517305125237675
40
0.517305125237675
40
0.527575228956023
40
0.527575228956023
40
0.548115436392717
40
0.548115436392717
40
0.558385540111065
40
0.558385540111065
40
0.568655643829412
40
0.589195851266107
40
0.609736058702801
40
0.609736058702801
40
0.620006162421149
40
0.620006162421149
40
0.630276266139496
40
0.630276266139496
40
0.650816473576191
40
0.650816473576191
40
0.671356681012886
40
0.671356681012886
40
0.69189688844958
40
0.69189688844958
40
0.712437095886275
40
0.712437095886275
40
0.73297730332297
40
0.73297730332297
40
0.753517510759664
40
0.753517510759664
40
0.774057718196359
40
0.774057718196359
40
0.784327821914707
40
0.784327821914707
40
0.794597925633054
40
0.804868029351401
40
0.804868029351401
40
0.815138133069749
40
0.815138133069749
40
0.835678340506444
40
0.835678340506444
40
0.845948444224791
40
0.845948444224791
40
0.856218547943138
40
0.866488651661485
40
0.866488651661485
40
0.876758755379832
40
0.876758755379832
40
0.91783917025322
40
0.91783917025322
40
0.938379377689914
40
0.938379377689914
40
0.948649481408262
40
0.948649481408262
40
0.95891958512661
40
0.95891958512661
40
0.979459792563305
40
0.979459792563305
40
1
40
1
40
1
40
1
41
1
10
30.6798282138222
20
4.04117714387709
30
0
41
1
10
30.8688496563813
20
4.10726275406671
30
0
41
1
10
31.0578953995673
20
4.17136306945912
30
0
41
1
10
31.5228013251765
20
4.32385007807744
30
0
41
1
10
31.7986463554364
20
4.40986143319822
30
0
41
1
10
32.212577797686
20
4.53185235240497
30
0
41
1
10
32.3505805363048
20
4.5713440576057
30
0
41
1
10
32.6263916658872
20
4.64785770292679
30
0
41
1
10
32.7642365588019
20
4.68489058163433
30
0
41
1
10
33.4532699834366
20
4.86383361546748
30
0
41
1
10
34.0038775177102
20
4.9870789751815
30
0
41
1
10
34.6932513873473
20
5.1145937294383
30
0
41
1
10
34.8312173870928
20
5.13877520498238
30
0
41
1
10
35.1070640130053
20
5.18440484323176
30
0
41
1
10
35.3828520339536
20
5.22730763203379
30
0
41
1
10
35.6586192275423
20
5.26470480333737
30
0
41
1
10
35.9344212579726
20
5.29932541521865
30
0
41
1
10
36.0723633920395
20
5.31524974039326
30
0
41
1
10
36.4861218702185
20
5.35880199982364
30
0
41
1
10
36.7618315237071
20
5.38220704173193
30
0
41
1
10
37.3133771331898
20
5.41764263579964
30
0
41
1
10
37.5892847773814
20
5.42966861178385
30
0
41
1
10
38.4160600504185
20
5.44853422065646
30
0
41
1
10
38.9664961202275
20
5.43821340631089
30
0
41
1
10
39.6553960924396
20
5.39678663403762
30
0
41
1
10
39.7932195322527
20
5.3870751743475
30
0
41
1
10
40.0690005478093
20
5.36480387311403
30
0
41
1
10
40.2068789301573
20
5.35224976483983
30
0
41
1
10
40.6202573407798
20
5.31038950437983
30
0
41
1
10
40.8956210750929
20
5.27687547513332
30
0
41
1
10
41.4462861906663
20
5.19882651353339
30
0
41
1
10
41.7215884699566
20
5.1542923275002
30
0
41
1
10
42.1347739742653
20
5.07937622931146
30
0
41
1
10
42.2725409112222
20
5.05305162336111
30
0
41
1
10
42.5481981042091
20
4.99772298382916
30
0
41
1
10
42.6861013407862
20
4.96871534114888
30
0
41
1
10
43.0996315057047
20
4.87781417346346
30
0
41
1
10
43.3752200169997
20
4.81201517016373
30
0
41
1
10
43.7887414511655
20
4.70576578065672
30
0
41
1
10
43.9266248163918
20
4.66908477900535
30
0
41
1
10
44.202303120849
20
4.59329526965161
30
0
41
1
10
44.3401142892025
20
4.55418295807888
30
0
41
1
10
44.75353318592
20
4.43326622681283
30
0
41
1
10
45.0291823638045
20
4.34786276745248
30
0
41
1
10
45.5805550220826
20
4.16799977742645
30
0
41
1
10
45.8562384499263
20
4.07355365355588
30
0
41
1
10
46.40756229319
20
3.87624979384211
30
0
41
1
10
46.6832415535426
20
3.77337795238495
30
0
41
1
10
47.2343823485494
20
3.5599453153871
30
0
41
1
10
47.5099508014869
20
3.44934230779131
30
0
41
1
10
48.3368529321095
20
3.10679268817236
30
0
41
1
10
48.8869299758775
20
2.86470621563328
30
0
41
1
10
49.712540698494
20
2.48469883743965
30
0
41
1
10
49.9878274819869
20
2.35521881195001
30
0
41
1
10
50.4011675396137
20
2.15725306584051
30
0
41
1
10
50.5389745881415
20
2.09065970909313
30
0
41
1
10
50.8144933869506
20
1.95644029998914
30
0
41
1
10
51.0899749824605
20
1.82116037531404
30
0
41
1
10
51.3654733153867
20
1.6839220619008
30
0
41
1
10
51.6410263412467
20
1.54578732555106
30
0
41
1
10
51.7788265192657
20
1.47627344654964
30
0
41
1
10
52.1920859740132
20
1.26666388743314
30
0
41
1
10
52.4675016601089
20
1.12545144594819
30
0
41
1
10
52.8807733346406
20
0.91194998705771
30
0
41
1
10
53.0185746011005
20
0.840492254215604
30
0
41
1
10
53.2939868371965
20
0.697253491260881
30
0
41
1
10
53.7069192799032
20
0.481859014597944
30
0
41
1
10
54.394561704201
20
0.120855193388991
30
0
41
1
10
54.9447881147995
20
-0.168706252464006
30
0
41
1
10
55.357783037732
20
-0.385622699921129
30
0
41
1
10
55.4955385553295
20
-0.457904389552738
30
0
41
1
10
55.7710055709023
20
-0.602185289094706
30
0
41
1
10
55.9087071304026
20
-0.674179312825515
30
0
41
1
10
56.3217880287183
20
-0.889586273477022
30
0
41
1
10
56.5971860956333
20
-1.03244495352308
30
0
41
1
10
57.1481173070379
20
-1.31582361074882
30
0
41
1
10
57.4234456401928
20
-1.45623943357748
30
0
41
1
10
57.9741895898632
20
-1.73385902910962
30
0
41
1
10
58.2496735822482
20
-1.87109503434698
30
0
41
1
10
58.80036143186
20
-2.14129732379288
30
0
41
1
10
59.0756441649115
20
-2.27430346462205
30
0
41
1
10
59.626473305619
20
-2.5354470988319
30
0
41
1
10
59.9017789003184
20
-2.66346782664351
30
0
41
1
10
60.4523933219901
20
-2.91370461387319
30
0
41
1
10
60.7278212998283
20
-3.03597644569157
30
0
41
1
10
61.2784515742058
20
-3.27385232488538
30
0
41
1
10
61.5536844853875
20
-3.38947193402072
30
0
41
1
10
61.9666958014018
20
-3.55748863248181
30
0
41
1
10
62.1043955852609
20
-3.61259260006216
30
0
41
1
10
62.379699886848
20
-3.7208491497029
30
0
41
1
10
62.6549582450931
20
-3.82717419681481
30
0
41
1
10
62.9302138156503
20
-3.92951324698589
30
0
41
1
10
63.205513738652
20
-4.02979614698043
30
0
41
1
10
63.3432026098109
20
-4.07891497980512
30
0
41
1
10
63.7561254113212
20
-4.22299334549294
30
0
41
1
10
64.031295202633
20
-4.31470483780598
30
0
41
1
10
64.4441735719234
20
-4.44540834221681
30
0
41
1
10
64.5818441989177
20
-4.48783914190381
30
0
41
1
10
64.8571121391433
20
-4.57030615863013
30
0
41
1
10
65.1323231507432
20
-4.65038466035639
30
0
41
1
10
65.4075187737174
20
-4.72558696697831
30
0
41
1
10
65.682755498976
20
-4.79830300723799
30
0
41
1
10
65.8204307757985
20
-4.83342689746965
30
0
41
1
10
66.5085305620016
20
-5.00260709885103
30
0
41
1
10
67.0578456721593
20
-5.11729778746258
30
0
41
1
10
67.8822795538517
20
-5.25679006300132
30
0
41
1
10
68.1571697932424
20
-5.29786249938854
30
0
41
1
10
68.5699118214699
20
-5.35114047387822
30
0
41
1
10
68.7075529282027
20
-5.36750958957055
30
0
41
1
10
68.9827605563993
20
-5.39741615851705
30
0
41
1
10
69.1203629346957
20
-5.41095828981909
30
0
41
1
10
69.5331996558184
20
-5.44732017540392
30
0
41
1
10
69.8083003814614
20
-5.46586094404714
30
0
41
1
10
70.3586423828988
20
-5.49144918199886
30
0
41
1
10
70.6338246229426
20
-5.49849030908422
30
0
41
1
10
70.9089662116967
20
-5.49975673935737
30
0
0
SPLINE
5
E2
100
AcDbEntity
8
1
62
256
6
ByLayer
370
18
48
1
60
0
100
AcDbSpline
70
4
71
3
72
10
73
6
40
0
40
0
40
0
40
0
40
0.5
40
0.5
40
1
40
1
40
1
40
1
41
1
10
70.8693210754307
20
-5.45380822443832
30
0
41
1
10
70.8759111013158
20
-5.46848201934975
30
0
41
1
10
70.8825061401296
20
-5.47965585632249
30
0
41
1
10
70.8957264951276
20
-5.49499072096083
30
0
41
1
10
70.9023558608837
20
-5.49914214159364
30
0
41
1
10
70.9089662116965
20
-5.49975673935734
30
0
0
SPLINE
5
E3
100
AcDbEntity
8
1
62
256
6
ByLayer
370
18
48
1
60
0
100
AcDbSpline
70
4
71
3
72
27
73
23
40
0
40
0
40
0
40
0
40
0.125000000000142
40
0.125000000000142
40
0.187500000000212
40
0.187500000000212
40
0.250000000000282
40
0.312500000000351
40
0.312500000000351
40
0.375000000000421
40
0.375000000000421
40
0.500000000000419
40
0.500000000000419
40
0.625000000000417
40
0.625000000000417
40
0.687500000000415
40
0.687500000000415
40
0.750000000000413
40
0.750000000000413
40
0.875000000000207
40
0.875000000000207
40
1
40
1
40
1
40
1
41
1
10
18.0001681853409
20
-5.14767718378297
30
0
41
1
10
18.0001681853409
20
-5.14504415592725
30
0
41
1
10
18.0012698451715
20
-5.1424504519382
30
0
41
1
10
18.0045242147558
20
-5.13861986377068
30
0
41
1
10
18.0058926543054
20
-5.13734426324368
30
0
41
1
10
18.0091193963742
20
-5.13487434991913
30
0
41
1
10
18.0128308303806
20
-5.13248054593726
30
0
41
1
10
18.0174907586031
20
-5.13023851944351
30
0
41
1
10
18.0226382353233
20
-5.12807622680452
30
0
41
1
10
18.0254494471836
20
-5.12703997060248
30
0
41
1
10
18.0343758361317
20
-5.1241418489449
30
0
41
1
10
18.0410798312819
20
-5.12245005340574
30
0
41
1
10
18.055838041097
20
-5.11962479734927
30
0
41
1
10
18.0636390996724
20
-5.11853604387179
30
0
41
1
10
18.0759614001131
20
-5.11738745743827
30
0
41
1
10
18.0801987284554
20
-5.11708597912931
30
0
41
1
10
18.0886593902031
20
-5.11666619671388
30
0
41
1
10
18.0929042455129
20
-5.11654486801748
30
0
41
1
10
18.1056816963713
20
-5.11644288908124
30
0
41
1
10
18.114374158971
20
-5.11673483018657
30
0
41
1
10
18.1309766344024
20
-5.11799720784998
30
0
41
1
10
18.1389611111828
20
-5.1189572832246
30
0
41
1
10
18.1466149405062
20
-5.1202557761485
30
0
0
SPLINE
5
E4
100
AcDbEntity
8
1
62
256
6
ByLayer
370
18
48
1
60
0
100
AcDbSpline
70
4
71
3
72
8
73
4
40
0
40
0
40
0
40
0
40
1
40
1
40
1
40
1
41
1
10
70.9006855910142
20
-0.205977113270052
30
0
41
1
10
70.9300764807635
20
0.033038243949477
30
0
41
1
10
70.9648936264221
20
0.271783281091075
30
0
41
1
10
71.0065012895329
20
0.510081801975076
30
0
0
SPLINE
5
E5
100
AcDbEntity
8
1
62
256
6
ByLayer
370
18
48
1
60
0
100
AcDbSpline
70
4
71
3
72
82
73
78
40
0
40
0
40
0
40
0
40
0.0419674328746669
40
0.0419674328746669
40
0.0839348657493339
40
0.0839348657493339
40
0.125902298624001
40
0.125902298624001
40
0.146886015061335
40
0.146886015061335
40
0.167869731498668
40
0.167869731498668
40
0.209837164373337
40
0.209837164373337
40
0.230820880810671
40
0.230820880810671
40
0.251804597248005
40
0.251804597248005
40
0.293772030122674
40
0.293772030122674
40
0.314755746560007
40
0.314755746560007
40
0.335739462997341
40
0.335739462997341
40
0.356723179434675
40
0.356723179434675
40
0.377706895872009
40
0.377706895872009
40
0.419674328746676
40
0.419674328746676
40
0.440658045184009
40
0.440658045184009
40
0.461641761621343
40
0.461641761621343
40
0.47213361984001
40
0.47213361984001
40
0.482625478058676
40
0.482625478058676
40
0.50360919449601
40
0.50360919449601
40
0.545576627370675
40
0.545576627370675
40
0.587544060245341
40
0.587544060245341
40
0.608527776682674
40
0.608527776682674
40
0.619019634901339
40
0.619019634901339
40
0.629511493120005
40
0.629511493120005
40
0.671478925994666
40
0.671478925994666
40
0.692462642431998
40
0.692462642431998
40
0.713446358869329
40
0.713446358869329
40
0.755413791743991
40
0.755413791743991
40
0.776397508181321
40
0.776397508181321
40
0.786889366399987
40
0.786889366399987
40
0.797381224618652
40
0.797381224618652
40
0.839348657493314
40
0.839348657493314
40
0.881316090367975
40
0.881316090367975
40
0.902299806805306
40
0.902299806805306
40
0.923283523242637
40
0.923283523242637
40
0.944267239679968
40
0.944267239679968
40
0.965250956117299
40
0.965250956117299
40
1
40
1
40
1
40
1
41
1
10
6.69911327270847
20
0.0684734520159225
30
0
41
1
10
7.03578696785809
20
-0.106000207944277
30
0
41
1
10
7.37178708279598
20
-0.280382847401938
30
0
41
1
10
8.04304064704201
20
-0.627805621114163
30
0
41
1
10
8.37825824443445
20
-0.800913669795818
30
0
41
1
10
9.04875175943181
20
-1.14423452740513
30
0
41
1
10
9.38399323199479
20
-1.31451220804735
30
0
41
1
10
9.88760496128333
20
-1.56642157380179
30
0
41
1
10
10.0555910203699
20
-1.6498251278619
30
0
41
1
10
10.3918207605893
20
-1.81544772728097
30
0
41
1
10
10.5601308962831
20
-1.89769052100158
30
0
41
1
10
11.0643624594658
20
-2.14182553523744
30
0
41
1
10
11.3999413344146
20
-2.30130983400281
30
0
41
1
10
11.9028973645734
20
-2.53484608725435
30
0
41
1
10
12.0704739692341
20
-2.61175363437499
30
0
41
1
10
12.4056680204449
20
-2.76336993378703
30
0
41
1
10
12.5732930776954
20
-2.83806726024906
30
0
41
1
10
13.0762876299371
20
-3.05877562495027
30
0
41
1
10
13.4117533480877
20
-3.2014401023028
30
0
41
1
10
13.9155827849898
20
-3.40800415584346
30
0
41
1
10
14.0836870002415
20
-3.47563904986208
30
0
41
1
10
14.4199421480219
20
-3.6082101613394
30
0
41
1
10
14.5878974258839
20
-3.67307185275763
30
0
41
1
10
14.9235691644199
20
-3.79980435145782
30
0
41
1
10
15.0913028979727
20
-3.86165055642513
30
0
41
1
10
15.426704311713
20
-3.9821340119388
30
0
41
1
10
15.5943563951032
20
-4.04079329874531
30
0
41
1
10
16.0972104571175
20
-4.21197907556552
30
0
41
1
10
16.4323247565281
20
-4.31969398971327
30
0
41
1
10
16.9352553658869
20
-4.47109320125364
30
0
41
1
10
17.1029396094287
20
-4.51986648364843
30
0
41
1
10
17.4384745191192
20
-4.61391855897213
30
0
41
1
10
17.6063164024183
20
-4.6592050865257
30
0
41
1
10
17.8583380906935
20
-4.72436815939102
30
0
41
1
10
17.9424153139339
20
-4.74563406245608
30
0
41
1
10
18.1105018461174
20
-4.78719953077299
30
0
41
1
10
18.1945125835933
20
-4.80749990618949
30
0
41
1
10
18.4464520649559
20
-4.86695460039826
30
0
41
1
10
18.6142843938291
20
-4.90466571361091
30
0
41
1
10
19.1174987446203
20
-5.01196070355917
30
0
41
1
10
19.452605229453
20
-5.07570163702439
30
0
41
1
10
20.1226562731311
20
-5.18720087041842
30
0
41
1
10
20.4575644892769
20
-5.23496386884341
30
0
41
1
10
20.9606247497769
20
-5.29415197306184
30
0
41
1
10
21.1284112964065
20
-5.31181697894897
30
0
41
1
10
21.3802650629522
20
-5.33519931044296
30
0
41
1
10
21.4642461940281
20
-5.34247374858373
30
0
41
1
10
21.632277777926
20
-5.35597739687464
30
0
41
1
10
21.7163491459617
20
-5.36220779959083
30
0
41
1
10
22.1364205722616
20
-5.39070145772661
30
0
41
1
10
22.4718505494923
20
-5.40501890740944
30
0
41
1
10
22.974511728378
20
-5.413755890575
30
0
41
1
10
23.1419778790775
20
-5.4145433005107
30
0
41
1
10
23.4769336114315
20
-5.41187432908822
30
0
41
1
10
23.644423572515
20
-5.40842060395326
30
0
41
1
10
24.1469725204877
20
-5.3917201117018
30
0
41
1
10
24.4820906022173
20
-5.37213018320296
30
0
41
1
10
24.9853304571855
20
-5.33007721916147
30
0
41
1
10
25.1531718955918
20
-5.3139482159562
30
0
41
1
10
25.4051292207726
20
-5.2865857770517
30
0
41
1
10
25.4891518929447
20
-5.27693575843597
30
0
41
1
10
25.6570667439433
20
-5.2566076976465
30
0
41
1
10
25.7409847666512
20
-5.24592692412699
30
0
41
1
10
26.1604103079948
20
-5.18995887921878
30
0
41
1
10
26.4955695673597
20
-5.13705824701734
30
0
41
1
10
27.1655808339913
20
-5.01541581337037
30
0
41
1
10
27.5004196722736
20
-4.94666107932071
30
0
41
1
10
28.0028691075309
20
-4.83193178112043
30
0
41
1
10
28.1703813703101
20
-4.79175301683478
30
0
41
1
10
28.5055512035072
20
-4.707583446684
30
0
41
1
10
28.6731998251259
20
-4.66358264515719
30
0
41
1
10
29.0088235507192
20
-4.57192986845436
30
0
41
1
10
29.176897088138
20
-4.52424828063772
30
0
41
1
10
29.5126942331716
20
-4.42546822732851
30
0
41
1
10
29.6804531117466
20
-4.3743568219125
30
0
41
1
10
30.1257427973284
20
-4.23415398163698
30
0
41
1
10
30.4030948028542
20
-4.14214756769394
30
0
41
1
10
30.6803271170175
20
-4.04575548072987
30
0
0
SPLINE
5
E6
100
AcDbEntity
8
1
62
256
6
ByLayer
370
18
48
1
60
0
100
AcDbSpline
70
4
71
3
72
53
73
49
40
0
40
0
40
0
40
0
40
0.0186457359626771
40
0.0186457359626771
40
0.051357544763924
40
0.051357544763924
40
0.0840693535651704
40
0.0840693535651704
40
0.149492971167663
40
0.149492971167663
40
0.18220477996891
40
0.18220477996891
40
0.198560684369532
40
0.198560684369532
40
0.214916588770154
40
0.214916588770154
40
0.280340206372643
40
0.280340206372643
40
0.345763823975132
40
0.345763823975132
40
0.378475632776376
40
0.378475632776376
40
0.41118744157762
40
0.41118744157762
40
0.443899250378864
40
0.443899250378864
40
0.460255154779486
40
0.460255154779486
40
0.476611059180108
40
0.542034676782594
40
0.542034676782594
40
0.607458294385081
40
0.607458294385081
40
0.672881911987567
40
0.672881911987567
40
0.705593720788811
40
0.705593720788811
40
0.738305529590054
40
0.738305529590054
40
0.771017338391297
40
0.771017338391297
40
0.80372914719254
40
0.80372914719254
40
0.869152764795027
40
0.869152764795027
40
0.934576382397513
40
0.934576382397513
40
1
40
1
40
1
40
1
41
1
10
55.6837054311414
20
5.47242848827804
30
0
41
1
10
55.7791146091345
20
5.47260789813978
30
0
41
1
10
55.874482070745
20
5.47209151906202
30
0
41
1
10
56.1370681502066
20
5.46875487837221
30
0
41
1
10
56.3042086078277
20
5.46448841931863
30
0
41
1
10
56.6384578128715
20
5.4517039039963
30
0
41
1
10
56.8055633968145
20
5.44318770826362
30
0
41
1
10
57.3068824718988
20
5.41129625547336
30
0
41
1
10
57.6410846207466
20
5.38157416364885
30
0
41
1
10
58.1428151340813
20
5.32439075438947
30
0
41
1
10
58.3101302926745
20
5.30322947813187
30
0
41
1
10
58.561263267521
20
5.26834403193286
30
0
41
1
10
58.6450012042517
20
5.25619168721258
30
0
41
1
10
58.8125433479514
20
5.23084218390895
30
0
41
1
10
58.8963665782474
20
5.21764125969653
30
0
41
1
10
59.3151899371633
20
5.14911826202913
30
0
41
1
10
59.6497555688794
20
5.08627851461358
30
0
41
1
10
60.3183922411523
20
4.94505199996976
30
0
41
1
10
60.6524566647756
20
4.8666571946228
30
0
41
1
10
61.153614302217
20
4.73775964924948
30
0
41
1
10
61.3206744503418
20
4.69290670949226
30
0
41
1
10
61.6548960222705
20
4.59949630921219
30
0
41
1
10
61.8220492315543
20
4.55092910180883
30
0
41
1
10
62.156629767106
20
4.45025922934735
30
0
41
1
10
62.3240547856047
20
4.39815606069348
30
0
41
1
10
62.5754261925056
20
4.31737705844029
30
0
41
1
10
62.6592377420662
20
4.29001782053004
30
0
41
1
10
62.8267405281642
20
4.23450011301281
30
0
41
1
10
63.2453176162568
20
4.09366973547233
30
0
41
1
10
63.6631190892272
20
3.94283376003509
30
0
41
1
10
64.3311883265892
20
3.68947604092429
30
0
41
1
10
64.6649874212364
20
3.55673674568263
30
0
41
1
10
65.3332187990856
20
3.28071277532195
30
0
41
1
10
65.6675757151249
20
3.1373277772943
30
0
41
1
10
66.169866838145
20
2.91474292651995
30
0
41
1
10
66.3375137062778
20
2.83925913121473
30
0
41
1
10
66.6721998691332
20
2.68633437696849
30
0
41
1
10
66.839334725425
20
2.60884734303031
30
0
41
1
10
67.17327337423
20
2.45197461133074
30
0
41
1
10
67.3400689349023
20
2.3725743133985
30
0
41
1
10
67.6734978605568
20
2.21217269230633
30
0
41
1
10
67.8401300125071
20
2.13116992676473
30
0
41
1
10
68.3398455822683
20
1.88588167334259
30
0
41
1
10
68.6727341775234
20
1.71929139360429
30
0
41
1
10
69.3385843719911
20
1.38103359072991
30
0
41
1
10
69.6715339495896
20
1.20934340132598
30
0
41
1
10
70.3381428292736
20
0.862025009687244
30
0
41
1
10
70.6719410941927
20
0.686660023016231
30
0
41
1
10
71.0065012895317
20
0.510081801969051
30
0
0
SPLINE
5
E7
100
AcDbEntity
8
1
62
256
6
ByLayer
370
18
48
1
60
0
100
AcDbSpline
70
4
71
3
72
107
73
103
40
0
40
0
40
0
40
0
40
0.062499999999966
40
0.062499999999966
40
0.124999999999932
40
0.124999999999932
40
0.156249999999916
40
0.156249999999916
40
0.187499999999899
40
0.187499999999899
40
0.249999999999866
40
0.249999999999866
40
0.28124999999985
40
0.28124999999985
40
0.289062499999847
40
0.292968749999845
40
0.294921874999845
40
0.294921874999845
40
0.296874999999844
40
0.296874999999844
40
0.298828124999844
40
0.298828124999844
40
0.299804687499844
40
0.299804687499844
40
0.300781249999844
40
0.300781249999844
40
0.301757812499844
40
0.301757812499844
40
0.302734374999843
40
0.302734374999843
40
0.303710937499843
40
0.303710937499843
40
0.304687499999843
40
0.312499999999844
40
0.312499999999844
40
0.328124999999846
40
0.328124999999846
40
0.343749999999848
40
0.343749999999848
40
0.374999999999852
40
0.374999999999852
40
0.406249999999855
40
0.406249999999855
40
0.421874999999858
40
0.421874999999858
40
0.429687499999859
40
0.429687499999859
40
0.437499999999861
40
0.437499999999861
40
0.468749999999869
40
0.468749999999869
40
0.484374999999874
40
0.484374999999874
40
0.492187499999876
40
0.492187499999876
40
0.499999999999878
40
0.499999999999878
40
0.531249999999884
40
0.531249999999884
40
0.546874999999887
40
0.546874999999887
40
0.56249999999989
40
0.56249999999989
40
0.593749999999896
40
0.593749999999896
40
0.597656249999896
40
0.597656249999896
40
0.601562499999897
40
0.609374999999899
40
0.609374999999899
40
0.624999999999903
40
0.624999999999903
40
0.632812499999905
40
0.632812499999905
40
0.640624999999907
40
0.640624999999907
40
0.65624999999991
40
0.65624999999991
40
0.687499999999918
40
0.687499999999918
40
0.695312499999919
40
0.695312499999919
40
0.703124999999921
40
0.703124999999921
40
0.718749999999924
40
0.718749999999924
40
0.749999999999931
40
0.749999999999931
40
0.781249999999938
40
0.781249999999938
40
0.812499999999944
40
0.812499999999944
40
0.820312499999947
40
0.820312499999947
40
0.828124999999949
40
0.843749999999953
40
0.843749999999953
40
0.874999999999963
40
0.874999999999963
40
0.937499999999981
40
0.937499999999981
40
1
40
1
40
1
40
1
41
1
10
9.36085948879219
20
5.01453013644186
30
0
41
1
10
9.05689530354158
20
5.07186362741356
30
0
41
1
10
8.75093488902016
20
5.12091200263635
30
0
41
1
10
8.13358086479994
20
5.20405119082969
30
0
41
1
10
7.82218052502895
20
5.23814203651042
30
0
41
1
10
7.3500266430801
20
5.27968739796842
30
0
41
1
10
7.1917620386331
20
5.29194297042889
30
0
41
1
10
6.87407763313053
20
5.31354587839996
30
0
41
1
10
6.71458298971999
20
5.32290106084125
30
0
41
1
10
6.23400111406193
20
5.34716369254687
30
0
41
1
10
5.91081019748293
20
5.35827104565701
30
0
41
1
10
5.42138376703707
20
5.369491153985
30
0
41
1
10
5.25743393167349
20
5.37232478389211
30
0
41
1
10
5.05160634726005
20
5.37494907438955
30
0
41
1
10
4.98979817665708
20
5.37566742551743
30
0
41
1
10
4.91758285739371
20
5.37639194557468
30
0
41
1
10
4.88661134052239
20
5.37667886351338
30
0
41
1
10
4.86595875851827
20
5.37686498052852
30
0
41
1
10
4.85562060068199
20
5.37695538131817
30
0
41
1
10
4.83473459152569
20
5.37707007374544
30
0
41
1
10
4.82418401574881
20
5.37709484285
30
0
41
1
10
4.8081574893269
20
5.3770742293818
30
0
41
1
10
4.80275418438916
20
5.37705838868689
30
0
41
1
10
4.79208511688228
20
5.37700650423113
30
0
41
1
10
4.78681118759482
20
5.37697031838357
30
0
41
1
10
4.77637871303327
20
5.37687781441281
30
0
41
1
10
4.77124018115376
20
5.37681813501499
30
0
41
1
10
4.76115895321362
20
5.37666317087431
30
0
41
1
10
4.75616450284002
20
5.37657034376142
30
0
41
1
10
4.74654249259214
20
5.37635528909516
30
0
41
1
10
4.741925435817
20
5.37623136495768
30
0
41
1
10
4.73267129104147
20
5.37598122056389
30
0
41
1
10
4.69104264812842
20
5.37483467354016
30
0
41
1
10
4.64954966675208
20
5.37349891148813
30
0
41
1
10
4.5392506347136
20
5.36946748459735
30
0
41
1
10
4.46618871323454
20
5.36615488684214
30
0
41
1
10
4.32107920023657
20
5.35815398840634
30
0
41
1
10
4.24902438554417
20
5.35346428684096
30
0
41
1
10
4.0349630232335
20
5.33715184318291
30
0
41
1
10
3.89490224050513
20
5.32329339599536
30
0
41
1
10
3.62103151484806
20
5.28826280962122
30
0
41
1
10
3.48721397965346
20
5.26710114151055
30
0
41
1
10
3.29220646760368
20
5.22843392254802
30
0
41
1
10
3.22816083967345
20
5.21438536348609
30
0
41
1
10
3.13370801736792
20
5.19132391458194
30
0
41
1
10
3.10246576251441
20
5.1832966826118
30
0
41
1
10
3.04079267744788
20
5.16659515705177
30
0
41
1
10
3.01034131369988
20
5.15791658789826
30
0
41
1
10
2.86010566303742
20
5.11279075791975
30
0
41
1
10
2.74632955210671
20
5.07119718426554
30
0
41
1
10
2.58770022875564
20
4.99820509474432
30
0
41
1
10
2.536839862162
20
4.97209767371197
30
0
41
1
10
2.46400903384833
20
4.92984909952375
30
0
41
1
10
2.44030986167328
20
4.91525057367639
30
0
41
1
10
2.39415639304622
20
4.8849358834035
30
0
41
1
10
2.37168429618433
20
4.86920648655197
30
0
41
1
10
2.26288141273238
20
4.78765606174471
30
0
41
1
10
2.18897832499829
20
4.71458821594635
30
0
41
1
10
2.10193109836868
20
4.59047950591682
30
0
41
1
10
2.07689867904796
20
4.54668133287444
30
0
41
1
10
2.03578444272867
20
4.45357545127268
30
0
41
1
10
2.02013331385174
20
4.40520425970942
30
0
41
1
10
1.9880191780336
20
4.25481135483179
30
0
41
1
10
1.98630178837348
20
4.1474174035088
30
0
41
1
10
2.0071521229834
20
4.01819666110882
30
0
41
1
10
2.00978875238778
20
4.00371537740696
30
0
41
1
10
2.01565292129172
20
3.97472813618421
30
0
41
1
10
2.02534681485071
20
3.93113315856749
30
0
41
1
10
2.03766411145384
20
3.88720312303135
30
0
41
1
10
2.06563140501385
20
3.79891399836387
30
0
41
1
10
2.08871456005542
20
3.73948297137031
30
0
41
1
10
2.12944690103439
20
3.64954016551417
30
0
41
1
10
2.1440436917292
20
3.61942639702684
30
0
41
1
10
2.17519933404145
20
3.55894208310451
30
0
41
1
10
2.19180330324841
20
3.52849684664324
30
0
41
1
10
2.2439863029141
20
3.43758344255323
30
0
41
1
10
2.28197385183631
20
3.37740827197845
30
0
41
1
10
2.40421125257296
20
3.19800182309081
30
0
41
1
10
2.49667059360866
20
3.07987983336324
30
0
41
1
10
2.62301494498516
20
2.93369410416372
30
0
41
1
10
2.64882788550938
20
2.90453113130175
30
0
41
1
10
2.70148792600151
20
2.84634680293172
30
0
41
1
10
2.72836606984475
20
2.81729274845205
30
0
41
1
10
2.81026362725294
20
2.73056186548374
30
0
41
1
10
2.86632200914329
20
2.67354177837899
30
0
41
1
10
3.03831183771962
20
2.50458041905321
30
0
41
1
10
3.15803105872342
20
2.39472331731554
30
0
41
1
10
3.40550653801563
20
2.17947489786306
30
0
41
1
10
3.53327721125623
20
2.07409149999196
30
0
41
1
10
3.79553039181997
20
1.86710271411471
30
0
41
1
10
3.93001995587676
20
1.76550119075082
30
0
41
1
10
4.10175048961952
20
1.64056826083268
30
0
41
1
10
4.13627514478128
20
1.61568817907639
30
0
41
1
10
4.20550573508615
20
1.5662498163432
30
0
41
1
10
4.30968798790309
20
1.49252818356405
30
0
41
1
10
4.41483752465996
20
1.42006189999483
30
0
41
1
10
4.62633110861896
20
1.27668419160173
30
0
41
1
10
4.76891586353446
20
1.18316755917647
30
0
41
1
10
5.20084080483039
20
0.908081743087337
30
0
41
1
10
5.49432166840938
20
0.73193851951055
30
0
41
1
10
6.09026833158754
20
0.391595860029582
30
0
41
1
10
6.39275193174711
20
0.227419046928446
30
0
41
1
10
6.69911047995129
20
0.0684736526967242
30
0
0
SPLINE
5
E8
100
AcDbEntity
8
1
62
256
6
ByLayer
370
18
48
1
60
0
100
AcDbSpline
70
4
71
3
72
28
73
24
40
0
40
0
40
0
40
0
40
0.0624999999999976
40
0.0624999999999976
40
0.124999999999997
40
0.124999999999997
40
0.249999999999998
40
0.249999999999998
40
0.374999999999999
40
0.374999999999999
40
0.5
40
0.5
40
0.531249999999999
40
0.531249999999999
40
0.562499999999998
40
0.562499999999998
40
0.624999999999998
40
0.624999999999998
40
0.749999999999999
40
0.749999999999999
40
0.874999999999999
40
0.874999999999999
40
1
40
1
40
1
40
1
41
1
10
18.0001681853409
20
1.92165261458894
30
0
41
1
10
17.8203087291368
20
2.00906798116338
30
0
41
1
10
17.6403942747537
20
2.09568111138805
30
0
41
1
10
17.2802954798623
20
2.26701033512913
30
0
41
1
10
17.1000552177674
20
2.3517412205567
30
0
41
1
10
16.5590858906707
20
2.60263014722136
30
0
41
1
10
16.1990896550898
20
2.76503587025695
30
0
41
1
10
15.4796590649837
20
3.07900836950998
30
0
41
1
10
15.1202381866404
20
3.23059633036735
30
0
41
1
10
14.4012165489045
20
3.5217676730563
30
0
41
1
10
14.0415244792793
20
3.66121264285235
30
0
41
1
10
13.5911858490322
20
3.82710388348519
30
0
41
1
10
13.5010827351149
20
3.85986249637372
30
0
41
1
10
13.3207944557128
20
3.92452338747069
30
0
41
1
10
13.2305794913734
20
3.95643553151299
30
0
41
1
10
12.960033424797
20
4.05077470719209
30
0
41
1
10
12.7798426192526
20
4.11179072513715
30
0
41
1
10
12.2396633221199
20
4.28907665732604
30
0
41
1
10
11.8801113385231
20
4.3996281598526
30
0
41
1
10
11.1610359451488
20
4.60426080953687
30
0
41
1
10
10.8015309183644
20
4.69837239608987
30
0
41
1
10
10.0818611974841
20
4.86947378404022
30
0
41
1
10
9.72167714486085
20
4.94644962891849
30
0
41
1
10
9.36083484008989
20
5.01451306845334
30
0
0
SPLINE
5
E9
100
AcDbEntity
8
1
62
256
6
ByLayer
370
18
48
1
60
0
100
AcDbSpline
70
4
71
3
72
62
73
58
40
0
40
0
40
0
40
0
40
0.0204023340375738
40
0.0204023340375738
40
0.0408046680751475
40
0.0408046680751475
40
0.0816093361502967
40
0.122414004225446
40
0.122414004225446
40
0.14281633826302
40
0.14281633826302
40
0.163218672300595
40
0.163218672300595
40
0.244828008450892
40
0.244828008450892
40
0.265230342488466
40
0.265230342488466
40
0.285632676526039
40
0.285632676526039
40
0.326437344601187
40
0.326437344601187
40
0.367242012676334
40
0.367242012676334
40
0.408046680751482
40
0.408046680751482
40
0.44885134882663
40
0.44885134882663
40
0.489656016901777
40
0.489656016901777
40
0.530460684976925
40
0.530460684976925
40
0.571265353052072
40
0.571265353052072
40
0.61207002112722
40
0.61207002112722
40
0.652874689202368
40
0.652874689202368
40
0.693679357277515
40
0.693679357277515
40
0.714081691315089
40
0.714081691315089
40
0.734484025352663
40
0.734484025352663
40
0.816093361502958
40
0.816093361502958
40
0.836495695540531
40
0.836495695540531
40
0.856898029578104
40
0.877300363615677
40
0.877300363615677
40
0.89770269765325
40
0.89770269765325
40
0.938507365728398
40
0.938507365728398
40
0.979312033803545
40
0.979312033803545
40
1
40
1
40
1
40
1
41
1
10
18.0001681853409
20
1.99970045099891
30
0
41
1
10
18.1382304798437
20
1.93312895804541
30
0
41
1
10
18.2762860998017
20
1.86602128752261
30
0
41
1
10
18.552437240673
20
1.73082910592268
30
0
41
1
10
18.6905669977997
20
1.66272958332306
30
0
41
1
10
19.1047570027312
20
1.45725191399072
30
0
41
1
10
19.6565365592739
20
1.18010391234935
30
0
41
1
10
20.2080844446794
20
0.897948722807513
30
0
41
1
10
20.621947991771
20
0.685001845558929
30
0
41
1
10
20.7599372170192
20
0.61379964591697
30
0
41
1
10
21.0360274986893
20
0.471035755049343
30
0
41
1
10
21.1741553378974
20
0.399459531899566
30
0
41
1
10
21.8643077379682
20
0.0413328278579854
30
0
41
1
10
22.4154801427989
20
-0.246308718723611
30
0
41
1
10
23.1051288884373
20
-0.603683120059799
30
0
41
1
10
23.2430938591671
20
-0.675047101020652
30
0
41
1
10
23.5191451947436
20
-0.817455222195633
30
0
41
1
10
23.6572208127544
20
-0.888493649915489
30
0
41
1
10
24.0713041037858
20
-1.10077153488015
30
0
41
1
10
24.3473001324568
20
-1.24124351057415
30
0
41
1
10
24.8995108666747
20
-1.51945945366188
30
0
41
1
10
25.1755512217042
20
-1.65711473639706
30
0
41
1
10
25.7275799762937
20
-1.92871658866554
30
0
41
1
10
26.0036923783806
20
-2.06272242891092
30
0
41
1
10
26.5556891099352
20
-2.32606825825644
30
0
41
1
10
26.8316290261032
20
-2.45542930909451
30
0
41
1
10
27.3837637117556
20
-2.70887993342743
30
0
41
1
10
27.6596821814813
20
-2.83284941677943
30
0
41
1
10
28.2115726377784
20
-3.07466895837339
30
0
41
1
10
28.4876247034068
20
-3.19255035736288
30
0
41
1
10
29.0394725874
20
-3.42129121268445
30
0
41
1
10
29.3153319342534
20
-3.53217983988029
30
0
41
1
10
29.8673115458136
20
-3.74640895018928
30
0
41
1
10
30.143195313051
20
-3.84965827053557
30
0
41
1
10
30.6949725766832
20
-4.04786298983643
30
0
41
1
10
30.9709842178482
20
-4.14285660097633
30
0
41
1
10
31.5228013251737
20
-4.32385007807656
30
0
41
1
10
31.7986463554335
20
-4.40986143319734
30
0
41
1
10
32.2125777976831
20
-4.53185235240412
30
0
41
1
10
32.3505805363019
20
-4.57134405760485
30
0
41
1
10
32.6263916658842
20
-4.64785770292596
30
0
41
1
10
32.7642365587989
20
-4.68489058163354
30
0
41
1
10
33.4532699834334
20
-4.86383361546672
30
0
41
1
10
34.0038775177069
20
-4.98707897518079
30
0
41
1
10
34.6932513873439
20
-5.11459372943767
30
0
41
1
10
34.8312173870893
20
-5.13877520498178
30
0
41
1
10
35.1070640130018
20
-5.18440484323119
30
0
41
1
10
35.382852194663
20
-5.22730751569034
30
0
41
1
10
35.6586192275386
20
-5.26470480333688
30
0
41
1
10
35.934421257969
20
-5.29932541521819
30
0
41
1
10
36.0723633920358
20
-5.31524974039286
30
0
41
1
10
36.4861218702147
20
-5.3588019998233
30
0
41
1
10
36.7618315237033
20
-5.38220704173162
30
0
41
1
10
37.3133771331858
20
-5.41764263579944
30
0
41
1
10
37.5892847773774
20
-5.42966861178371
30
0
41
1
10
38.0046015527035
20
-5.43914543589437
30
0
41
1
10
38.1442785378202
20
-5.44086225405354
30
0
41
1
10
38.2839308078412
20
-5.44110886153666
30
0
0
SPLINE
5
EA
100
AcDbEntity
8
1
62
256
6
ByLayer
370
18
48
1
60
0
100
AcDbSpline
70
4
71
3
72
29
73
25
40
0
40
0
40
0
40
0
40
0.0250243910282012
40
0.0250243910282012
40
0.133355014247293
40
0.133355014247293
40
0.187520325856837
40
0.187520325856837
40
0.24168563746638
40
0.295850949075924
40
0.295850949075924
40
0.350016260685467
40
0.350016260685467
40
0.566677507123648
40
0.566677507123648
40
0.675008130342738
40
0.675008130342738
40
0.729173441952284
40
0.729173441952284
40
0.783338753561829
40
0.783338753561829
40
0.891669376780915
40
0.891669376780915
40
1
40
1
40
1
40
1
41
1
10
63.2900509475037
20
4.0596840646684
30
0
41
1
10
63.3536530020988
20
4.08233170189544
30
0
41
1
10
63.4172533888425
20
4.10475301825142
30
0
41
1
10
63.7561254113119
20
4.22299334548975
30
0
41
1
10
64.0312952026237
20
4.31470483780285
30
0
41
1
10
64.4441735719138
20
4.44540834221382
30
0
41
1
10
64.5818441989082
20
4.48783914190088
30
0
41
1
10
64.8571121391337
20
4.57030615862732
30
0
41
1
10
65.1323231507336
20
4.65038466035369
30
0
41
1
10
65.4075187737076
20
4.72558696697567
30
0
41
1
10
65.6827554989662
20
4.79830300723543
30
0
41
1
10
65.8204307757887
20
4.83342689746715
30
0
41
1
10
66.5085305619917
20
5.00260709884881
30
0
41
1
10
67.0578456721493
20
5.11729778746059
30
0
41
1
10
67.8822795538413
20
5.2567900629997
30
0
41
1
10
68.1571697932321
20
5.29786249938709
30
0
41
1
10
68.5699118214596
20
5.35114047387697
30
0
41
1
10
68.7075529281924
20
5.36750958956935
30
0
41
1
10
68.9827605563888
20
5.39741615851599
30
0
41
1
10
69.1203629346851
20
5.41095828981807
30
0
41
1
10
69.5331996558078
20
5.44732017540312
30
0
41
1
10
69.8083003814507
20
5.46586094404648
30
0
41
1
10
70.358642382888
20
5.49144918199852
30
0
41
1
10
70.6338246229318
20
5.49849030908399
30
0
41
1
10
70.9089662116859
20
5.49975673935731
30
0
0
SPLINE
5
EB
100
AcDbEntity
8
1
62
256
6
ByLayer
370
18
48
1
60
0
100
AcDbSpline
70
4
71
3
72
60
73
56
40
0
40
0
40
0
40
0
40
0.0461915739720071
40
0.0461915739720071
40
0.0802561606158651
40
0.0972884539377948
40
0.0972884539377948
40
0.114320747259725
40
0.114320747259725
40
0.182449920547439
40
0.182449920547439
40
0.250579093835154
40
0.250579093835154
40
0.267611387157082
40
0.267611387157082
40
0.284643680479011
40
0.318708267122867
40
0.318708267122867
40
0.352772853766723
40
0.352772853766723
40
0.386837440410578
40
0.386837440410578
40
0.420902027054434
40
0.420902027054434
40
0.45496661369829
40
0.45496661369829
40
0.523095786986002
40
0.523095786986002
40
0.557160373629858
40
0.557160373629858
40
0.574192666951786
40
0.574192666951786
40
0.591224960273714
40
0.591224960273714
40
0.625289546917571
40
0.625289546917571
40
0.659354133561429
40
0.659354133561429
40
0.693418720205286
40
0.693418720205286
40
0.727483306849143
40
0.727483306849143
40
0.761547893493
40
0.761547893493
40
0.795612480136858
40
0.795612480136858
40
0.829677066780715
40
0.829677066780715
40
0.863741653424572
40
0.863741653424572
40
0.89780624006843
40
0.89780624006843
40
0.931870826712287
40
0.931870826712287
40
1
40
1
40
1
40
1
41
1
10
42.3042542781594
20
-5.25999463066208
30
0
41
1
10
41.9313740719258
20
-5.31030622284553
30
0
41
1
10
41.5588693207396
20
-5.35040732423207
30
0
41
1
10
40.9114350696059
20
-5.40201878569962
30
0
41
1
10
40.4991253655431
20
-5.42640271829316
30
0
41
1
10
40.0862188844654
20
-5.43795656352117
30
0
41
1
10
39.8107678644876
20
-5.44279746147836
30
0
41
1
10
39.672925765983
20
-5.44378686554171
30
0
41
1
10
38.9834292999954
20
-5.44155457612936
30
0
41
1
10
38.4336617055352
20
-5.41677493177556
30
0
41
1
10
37.3342255165331
20
-5.3221676404068
30
0
41
1
10
36.7845588683386
20
-5.25237843626547
30
0
41
1
10
36.0958055776924
20
-5.13771810616305
30
0
41
1
10
35.9579490576696
20
-5.11340923568517
30
0
41
1
10
35.6821206480589
20
-5.0620871029806
30
0
41
1
10
35.2686841820638
20
-4.98113815335836
30
0
41
1
10
34.8559383706298
20
-4.88850323376298
30
0
41
1
10
34.3058343480275
20
-4.75498481140235
30
0
41
1
10
34.0309243264524
20
-4.68319693636113
30
0
41
1
10
33.4810308484099
20
-4.52990377428412
30
0
41
1
10
33.2060307251762
20
-4.4484138402311
30
0
41
1
10
32.6554917811691
20
-4.27619776088196
30
0
41
1
10
32.3799110423359
20
-4.18545575651697
30
0
41
1
10
31.8280723804774
20
-3.99513541064317
30
0
41
1
10
31.5525577856787
20
-3.89582058592271
30
0
41
1
10
30.7267242229271
20
-3.5861595171487
30
0
41
1
10
30.1771251441641
20
-3.36406909060358
30
0
41
1
10
29.351738213657
20
-3.01109605120422
30
0
41
1
10
29.076448464111
20
-2.89012881194216
30
0
41
1
10
28.6629908680536
20
-2.70415104008649
30
0
41
1
10
28.5250658074704
20
-2.64139544227271
30
0
41
1
10
28.2490721851331
20
-2.51448458267649
30
0
41
1
10
28.1111738706449
20
-2.45040815323196
30
0
41
1
10
27.697706167078
20
-2.25644071004618
30
0
41
1
10
27.4223682516603
20
-2.12480481108372
30
0
41
1
10
26.872035177559
20
-1.85737998263852
30
0
41
1
10
26.5970307908384
20
-1.72160587954741
30
0
41
1
10
26.0468552219912
20
-1.44683192911586
30
0
41
1
10
25.7716889955689
20
-1.30782400439011
30
0
41
1
10
25.2208425184637
20
-1.02722917593081
30
0
41
1
10
24.945130657348
20
-0.885626529664023
30
0
41
1
10
24.3929685551713
20
-0.600561530975199
30
0
41
1
10
24.1172461355967
20
-0.457469930834293
30
0
41
1
10
23.5662053609877
20
-0.170772444588636
30
0
41
1
10
23.2908809953494
20
-0.0271782497569859
30
0
41
1
10
22.740171647341
20
0.259628356622301
30
0
41
1
10
22.4647909903804
20
0.402849179377569
30
0
41
1
10
21.9136497027692
20
0.688293890774077
30
0
41
1
10
21.637854758813
20
0.830528963471124
30
0
41
1
10
21.0856045075229
20
1.11314774391778
30
0
41
1
10
20.8098378094829
20
1.25318487288192
30
0
41
1
10
20.2587085644967
20
1.53014518272894
30
0
41
1
10
19.9833433430235
20
1.6670622286222
30
0
41
1
10
19.1571861626029
20
2.07192114420224
30
0
41
1
10
18.6063267301211
20
2.33396508058811
30
0
41
1
10
18.0540291981659
20
2.58571005896565
30
0
0
SPLINE
5
EC
100
AcDbEntity
8
1
62
256
6
ByLayer
370
18
48
1
60
0
100
AcDbSpline
70
4
71
3
72
12
73
8
40
0
40
0
40
0
40
0
40
0.257878109427313
40
0.257878109427313
40
0.783088185304046
40
0.783088185304046
40
1
40
1
40
1
40
1
41
1
10
21.0448497879362
20
5.20681833452079
30
0
41
1
10
21.1792806932676
20
5.21030111604381
30
0
41
1
10
21.3136471468158
20
5.21248547594269
30
0
41
1
10
21.7216013992727
20
5.21496591901266
30
0
41
1
10
21.9951019021295
20
5.21099725180457
30
0
41
1
10
22.3815355666057
20
5.19778532046814
30
0
41
1
10
22.4944825532675
20
5.19300452602363
30
0
41
1
10
22.6074416026082
20
5.18730197469054
30
0
0
SPLINE
5
ED
100
AcDbEntity
8
1
62
256
6
ByLayer
370
18
48
1
60
0
100
AcDbSpline
70
4
71
3
72
46
73
42
40
0
40
0
40
0
40
0
40
0.0093612987923749
40
0.0093612987923749
40
0.0647537559896228
40
0.0647537559896228
40
0.120146213186871
40
0.120146213186871
40
0.230931127581367
40
0.230931127581367
40
0.25862735617999
40
0.25862735617999
40
0.286323584778613
40
0.286323584778613
40
0.341716041975859
40
0.341716041975859
40
0.452500956370351
40
0.452500956370351
40
0.507893413567596
40
0.507893413567596
40
0.563285870764842
40
0.563285870764842
40
0.590982099363465
40
0.590982099363465
40
0.618678327962088
40
0.618678327962088
40
0.674070785159336
40
0.674070785159336
40
0.729463242356584
40
0.729463242356584
40
0.757159470955207
40
0.757159470955207
40
0.78485569955383
40
0.78485569955383
40
0.840248156751076
40
0.840248156751076
40
0.895640613948322
40
0.895640613948322
40
0.951033071145568
40
0.951033071145568
40
1
40
1
40
1
40
1
41
1
10
22.9504734095747
20
5.16715183846307
30
0
41
1
10
22.996712169324
20
5.16405375741331
30
0
41
1
10
23.0429553576812
20
5.16080088854022
30
0
41
1
10
23.3628650233089
20
5.13722828180488
30
0
41
1
10
23.6367113162966
20
5.11163951409503
30
0
41
1
10
24.184670799081
20
5.05045066363033
30
0
41
1
10
24.4587848366482
20
5.0148596934188
30
0
41
1
10
25.2831554205616
20
4.89127019109148
30
0
41
1
10
25.8354520037199
20
4.78638054879255
30
0
41
1
10
26.5297932368144
20
4.62985714220193
30
0
41
1
10
26.6689421990096
20
4.59726058700372
30
0
41
1
10
26.9465711091004
20
4.52984390785031
30
0
41
1
10
27.0851709548547
20
4.49499826700438
30
0
41
1
10
27.500345642597
20
4.38718336186022
30
0
41
1
10
27.7763040326747
20
4.31093756720929
30
0
41
1
10
28.6030881580029
20
4.06853715493679
30
0
41
1
10
29.1527828412329
20
3.88874764205835
30
0
41
1
10
29.9758053725817
20
3.59680590282926
30
0
41
1
10
30.2498905760021
20
3.49577254974037
30
0
41
1
10
30.797580140651
20
3.28665747133553
30
0
41
1
10
31.0712161225633
20
3.17856663712132
30
0
41
1
10
31.4824203452369
20
3.0113553491727
30
0
41
1
10
31.6196054419162
20
2.9547752370278
30
0
41
1
10
31.8941644440648
20
2.84004020244009
30
0
41
1
10
32.0315397647773
20
2.78188507691587
30
0
41
1
10
32.4439670530637
20
2.60517948577848
30
0
41
1
10
32.7193197462393
20
2.48438678873279
30
0
41
1
10
33.2708479249489
20
2.2373282759296
30
0
41
1
10
33.5470176577383
20
2.11105428561353
30
0
41
1
10
33.9617091099278
20
1.91767241894823
30
0
41
1
10
34.1000266294867
20
1.8525598570466
30
0
41
1
10
34.3772034719832
20
1.72123156099141
30
0
41
1
10
34.5161812519704
20
1.65494622410259
30
0
41
1
10
34.9322915768438
20
1.45529267286074
30
0
41
1
10
35.2089508837307
20
1.32096264931786
30
0
41
1
10
35.7610184557024
20
1.05030024362017
30
0
41
1
10
36.0364335166261
20
0.913983064543231
30
0
41
1
10
36.5865037993469
20
0.640367776935079
30
0
41
1
10
36.8611492040272
20
0.503048217454221
30
0
41
1
10
37.3779387796459
20
0.243518818436996
30
0
41
1
10
37.6201641783592
20
0.121418678320509
30
0
41
1
10
37.8622813916798
20
-0.0006893904235881
30
0
0
SPLINE
5
EE
100
AcDbEntity
8
1
62
256
6
ByLayer
370
18
48
1
60
0
100
AcDbSpline
70
4
71
3
72
115
73
111
40
0
40
0
40
0
40
0
40
0.0281332263589459
40
0.0281332263589459
40
0.0397874229546439
40
0.0397874229546439
40
0.0514416195503419
40
0.0514416195503419
40
0.0747500127417389
40
0.0747500127417389
40
0.0980584059331359
40
0.0980584059331359
40
0.121366799124533
40
0.121366799124533
40
0.14467519231593
40
0.14467519231593
40
0.167983585507327
40
0.167983585507327
40
0.214600371890122
40
0.214600371890122
40
0.237908765081519
40
0.237908765081519
40
0.249562961677217
40
0.249562961677217
40
0.261217158272915
40
0.261217158272915
40
0.284525551464311
40
0.284525551464311
40
0.307833944655707
40
0.307833944655707
40
0.331142337847103
40
0.331142337847103
40
0.354450731038499
40
0.354450731038499
40
0.366104927634197
40
0.366104927634197
40
0.377759124229896
40
0.377759124229896
40
0.401067517421293
40
0.401067517421293
40
0.42437591061269
40
0.42437591061269
40
0.436030107208388
40
0.436030107208388
40
0.447684303804087
40
0.459338500399786
40
0.459338500399786
40
0.470992696995485
40
0.470992696995485
40
0.494301090186883
40
0.494301090186883
40
0.517609483378281
40
0.517609483378281
40
0.540917876569679
40
0.540917876569679
40
0.564226269761077
40
0.564226269761077
40
0.575880466356775
40
0.575880466356775
40
0.587534662952474
40
0.587534662952474
40
0.610843056143871
40
0.610843056143871
40
0.634151449335269
40
0.634151449335269
40
0.645805645930968
40
0.645805645930968
40
0.657459842526667
40
0.657459842526667
40
0.669114039122366
40
0.669114039122366
40
0.680768235718065
40
0.680768235718065
40
0.727385022100861
40
0.727385022100861
40
0.739039218696561
40
0.739039218696561
40
0.750693415292261
40
0.750693415292261
40
0.762347611887961
40
0.762347611887961
40
0.77400180848366
40
0.77400180848366
40
0.78565600507936
40
0.78565600507936
40
0.79731020167506
40
0.79731020167506
40
0.820618594866459
40
0.820618594866459
40
0.832272791462158
40
0.832272791462158
40
0.843926988057857
40
0.843926988057857
40
0.867235381249255
40
0.867235381249255
40
0.878889577844954
40
0.878889577844954
40
0.890543774440653
40
0.890543774440653
40
0.91385216763205
40
0.91385216763205
40
0.937160560823447
40
0.937160560823447
40
0.960468954014844
40
0.960468954014844
40
0.983777347206241
40
0.983777347206241
40
0.995431543801939
40
0.995431543801939
40
1
40
1
40
1
40
1
41
1
10
18.8016741087054
20
5.22072601818272
30
0
41
1
10
19.1341053990634
20
5.26630953178042
30
0
41
1
10
19.4666932633706
20
5.30370053953777
30
0
41
1
10
19.9374705467299
20
5.3450747862791
30
0
41
1
10
20.0754515659352
20
5.35579635534583
30
0
41
1
10
20.3513357607014
20
5.37442269054822
30
0
41
1
10
20.4891549599013
20
5.38232281249708
30
0
41
1
10
20.9022540373713
20
5.40177684419135
30
0
41
1
10
21.1772091668467
20
5.40906449318916
30
0
41
1
10
21.7270607646717
20
5.41224294591652
30
0
41
1
10
22.0019310793027
20
5.40815071942512
30
0
41
1
10
22.551740692953
20
5.3886488157415
30
0
41
1
10
22.8266882967411
20
5.37323383683233
30
0
41
1
10
23.3771023628131
20
5.33113815856387
30
0
41
1
10
23.6525897405275
20
5.30446076577414
30
0
41
1
10
24.2038875393121
20
5.23969638076628
30
0
41
1
10
24.4789573595468
20
5.20168723372998
30
0
41
1
10
25.3040065537242
20
5.07172176132008
30
0
41
1
10
25.8537082864452
20
4.96389812588805
30
0
41
1
10
26.6786894161854
20
4.7713325285695
30
0
41
1
10
26.9537601888503
20
4.70199953736918
30
0
41
1
10
27.3665203016591
20
4.59018939986902
30
0
41
1
10
27.5041380003232
20
4.55161968652962
30
0
41
1
10
27.7796021941187
20
4.47203679122876
30
0
41
1
10
27.9172581385625
20
4.43107923143964
30
0
41
1
10
28.3301293056355
20
4.30501310286459
30
0
41
1
10
28.6052667128644
20
4.21668667092726
30
0
41
1
10
29.1552956891763
20
4.03156011434624
30
0
41
1
10
29.4301862454988
20
3.9347564156557
30
0
41
1
10
29.9798073700863
20
3.7327590845216
30
0
41
1
10
30.2545375162651
20
3.62756428974325
30
0
41
1
10
30.8039669659399
20
3.40882301779109
30
0
41
1
10
31.0787278454082
20
3.29534268044
30
0
41
1
10
31.49201927644
20
3.1206123330781
30
0
41
1
10
31.6298177142675
20
3.06165839869186
30
0
41
1
10
31.9052334040283
20
2.9423490658163
30
0
41
1
10
32.0428847913334
20
2.88198365212719
30
0
41
1
10
32.4556852834834
20
2.69879203494995
30
0
41
1
10
32.7306766065236
20
2.57386574565607
30
0
41
1
10
33.2803312941484
20
2.31856906814917
30
0
41
1
10
33.5549837838041
20
2.18818123251336
30
0
41
1
10
33.9666861297285
20
1.98839931461444
30
0
41
1
10
34.1038928149635
20
1.92113615689715
30
0
41
1
10
34.3785478676449
20
1.78580411325984
30
0
41
1
10
34.6534174161597
20
1.64962029174435
30
0
41
1
10
34.9287088716618
20
1.51172823933862
30
0
41
1
10
35.2042208984141
20
1.37299879140122
30
0
41
1
10
35.3419885466902
20
1.30326426048148
30
0
41
1
10
35.7548719772497
20
1.09324315844682
30
0
41
1
10
36.0297742636188
20
0.952062060641111
30
0
41
1
10
36.5794133971675
20
0.668400508381723
30
0
41
1
10
36.8541323208084
20
0.525887014429571
30
0
41
1
10
37.4034094507132
20
0.23957125001661
30
0
41
1
10
37.6779846936148
20
0.0958005806910478
30
0
41
1
10
38.2275376876725
20
-0.191955062003103
30
0
41
1
10
38.502492256151
20
-0.335983542938834
30
0
41
1
10
38.9151758098606
20
-0.552295348503264
30
0
41
1
10
39.0527297993347
20
-0.624376599604517
30
0
41
1
10
39.3277441387103
20
-0.767643649870593
30
0
41
1
10
39.4652499956934
20
-0.838889594297768
30
0
41
1
10
39.8776831976707
20
-1.05163347955391
30
0
41
1
10
40.1525307482434
20
-1.19212968189939
30
0
41
1
10
40.7020296899222
20
-1.47044333154338
30
0
41
1
10
40.976680385894
20
-1.60826135228166
30
0
41
1
10
41.3886004788642
20
-1.81279216408916
30
0
41
1
10
41.5258969277536
20
-1.88060456732984
30
0
41
1
10
41.800452615391
20
-2.01552232615245
30
0
41
1
10
41.9377183222556
20
-2.08261540423214
30
0
41
1
10
42.2123946117295
20
-2.21576091324104
30
0
41
1
10
42.3498066550468
20
-2.28181069148718
30
0
41
1
10
42.6249606779079
20
-2.41254326297218
30
0
41
1
10
42.7626537182012
20
-2.47721583582924
30
0
41
1
10
43.4505461975653
20
-2.79658532232622
30
0
41
1
10
44.0000384377913
20
-3.03992327177789
30
0
41
1
10
44.6861100509261
20
-3.32858979447428
30
0
41
1
10
44.8232858259485
20
-3.38554174815599
30
0
41
1
10
45.0975708121416
20
-3.49785157431472
30
0
41
1
10
45.234687004941
20
-3.55319767218114
30
0
41
1
10
45.5090620273222
20
-3.66197836472938
30
0
41
1
10
45.6463199216667
20
-3.71541469876072
30
0
41
1
10
45.921118295528
20
-3.82018476549726
30
0
41
1
10
46.0586530056902
20
-3.87152776358613
30
0
41
1
10
46.3339764465107
20
-3.97215888939905
30
0
41
1
10
46.4717435541984
20
-4.02143644496189
30
0
41
1
10
46.7469826866458
20
-4.11773717448193
30
0
41
1
10
46.8845230700646
20
-4.16478558199645
30
0
41
1
10
47.2969226079527
20
-4.30261685495066
30
0
41
1
10
47.5715573875992
20
-4.39009192733479
30
0
41
1
10
47.9831759439762
20
-4.51452674901273
30
0
41
1
10
48.120323194851
20
-4.55487880149005
30
0
41
1
10
48.3944676182717
20
-4.63334274918469
30
0
41
1
10
48.5314805165428
20
-4.67143495906848
30
0
41
1
10
48.9427802980454
20
-4.78184893000176
30
0
41
1
10
49.2172774872028
20
-4.85037360587481
30
0
41
1
10
49.6295283409507
20
-4.94551327610378
30
0
41
1
10
49.7670312015201
20
-4.97594914200678
30
0
41
1
10
50.0422424008271
20
-5.03423321706174
30
0
41
1
10
50.179946873775
20
-5.0620787367892
30
0
41
1
10
50.5925816552631
20
-5.14152732479013
30
0
41
1
10
50.8673077011931
20
-5.18911124950174
30
0
41
1
10
51.4162137908673
20
-5.27341768862377
30
0
41
1
10
51.6903614340568
20
-5.31014245975959
30
0
41
1
10
52.2388607696474
20
-5.37234424140081
30
0
41
1
10
52.5132103582478
20
-5.39784202365539
30
0
41
1
10
53.0621154725881
20
-5.43759821500331
30
0
41
1
10
53.336701002718
20
-5.45183096056718
30
0
41
1
10
53.7493271659162
20
-5.46457369032598
30
0
41
1
10
53.8869994768262
20
-5.46738904576949
30
0
41
1
10
54.0784040971415
20
-5.4693108543045
30
0
41
1
10
54.1322901023115
20
-5.46963197796634
30
0
41
1
10
54.1861607153486
20
-5.46973302639381
30
0
0
SPLINE
5
EF
100
AcDbEntity
8
1
62
256
6
ByLayer
370
18
48
1
60
0
100
AcDbSpline
70
4
71
3
72
47
73
43
40
0
40
0
40
0
40
0
40
0.0164007666349593
40
0.0164007666349593
40
0.0412504261258377
40
0.0412504261258377
40
0.0661000856167169
40
0.0661000856167169
40
0.115799404598474
40
0.115799404598474
40
0.165498723580231
40
0.165498723580231
40
0.215198042561989
40
0.215198042561989
40
0.314596680525503
40
0.314596680525503
40
0.327021510270943
40
0.327021510270943
40
0.339446340016384
40
0.339446340016384
40
0.364295999507262
40
0.364295999507262
40
0.41399531848902
40
0.41399531848902
40
0.513393956452534
40
0.513393956452534
40
0.612792594416048
40
0.612792594416048
40
0.712191232379563
40
0.712191232379563
40
0.76189055136132
40
0.7867402108522
40
0.7867402108522
40
0.799165040597639
40
0.799165040597639
40
0.811589870343079
40
0.811589870343079
40
0.910988508306598
40
0.910988508306598
40
0.960687827288357
40
0.960687827288357
40
1
40
1
40
1
40
1
41
1
10
39.8595292334363
20
-5.24291301292175
30
0
41
1
10
39.7689253134295
20
-5.24404026103397
30
0
41
1
10
39.6783496240731
20
-5.2445626619585
30
0
41
1
10
39.4505919447074
20
-5.24435210190146
30
0
41
1
10
39.3134374318735
20
-5.2428279112508
30
0
41
1
10
39.039242637468
20
-5.23715233246071
30
0
41
1
10
38.902203873308
20
-5.23300755470586
30
0
41
1
10
38.4911309764107
20
-5.21644273499652
30
0
41
1
10
38.2171369584108
20
-5.19987535855896
30
0
41
1
10
37.6689180945267
20
-5.155949476709
30
0
41
1
10
37.3946938639359
20
-5.1285943297807
30
0
41
1
10
36.845638544664
20
-5.06312094481657
30
0
41
1
10
36.5708059957654
20
-5.02499732453799
30
0
41
1
10
35.7449849251499
20
-4.89482502898912
30
0
41
1
10
35.1926802468218
20
-4.786935895998
30
0
41
1
10
34.5675520245258
20
-4.6421157212724
30
0
41
1
10
34.4980197201162
20
-4.6256941697805
30
0
41
1
10
34.359114597322
20
-4.59227441513036
30
0
41
1
10
34.2897118797913
20
-4.57526952476647
30
0
41
1
10
34.0816483683065
20
-4.52339019663353
30
0
41
1
10
33.9431324744141
20
-4.48765340346648
30
0
41
1
10
33.5280883649141
20
-4.37701217370002
30
0
41
1
10
33.2520637198062
20
-4.29867277622446
30
0
41
1
10
32.4253771903774
20
-4.05088764319385
30
0
41
1
10
31.8761124814262
20
-3.86869160766494
30
0
41
1
10
30.7787032587565
20
-3.47410720219921
30
0
41
1
10
30.230606182979
20
-3.26171283734641
30
0
41
1
10
29.1327679294531
20
-2.81107984306934
30
0
41
1
10
28.5830088912699
20
-2.57288936591559
30
0
41
1
10
27.7549445971962
20
-2.19967905453385
30
0
41
1
10
27.3400546361441
20
-2.0090893387306
30
0
41
1
10
26.923646960209
20
-1.81298447991335
30
0
41
1
10
26.7151421593914
20
-1.71409126809056
30
0
41
1
10
26.6456028414982
20
-1.68099235196047
30
0
41
1
10
26.5066893309137
20
-1.61465794150214
30
0
41
1
10
26.4372817665534
20
-1.58140666367558
30
0
41
1
10
25.8130243472945
20
-1.28145495484458
30
0
41
1
10
25.2610421531997
20
-1.00993604433583
30
0
41
1
10
24.4353689661861
20
-0.59955270162277
30
0
41
1
10
24.1605309900232
20
-0.462234518038855
30
0
41
1
10
23.6687473136602
20
-0.215846988738065
30
0
41
1
10
23.4517059538958
20
-0.106874610443214
30
0
41
1
10
23.2347157592733
20
0.0020371266149368
30
0
0
SPLINE
5
F0
100
AcDbEntity
8
1
62
256
6
ByLayer
370
18
48
1
60
0
100
AcDbSpline
70
4
71
3
72
8
73
4
40
0
40
0
40
0
40
0
40
1
40
1
40
1
40
1
41
1
10
70.8693210754314
20
-5.45380822443551
30
0
41
1
10
70.9057732275807
20
-5.39559858646643
30
0
41
1
10
70.9422641061201
20
-5.3371421679569
30
0
41
1
10
70.9787983752718
20
-5.27844001995044
30
0
0
SPLINE
5
F1
100
AcDbEntity
8
1
62
256
6
ByLayer
370
18
48
1
60
0
100
AcDbSpline
70
4
71
3
72
8
73
4
40
0
40
0
40
0
40
0
40
1
40
1
40
1
40
1
41
1
10
70.9844329669446
20
-5.26394867216814
30
0
41
1
10
70.9825540565756
20
-5.2687795892154
30
0
41
1
10
70.9806758581318
20
-5.27361003747805
30
0
41
1
10
70.9787983752718
20
-5.27844001995041
30
0
0
SPLINE
5
F2
100
AcDbEntity
8
1
62
256
6
ByLayer
370
18
48
1
60
0
100
AcDbSpline
70
4
71
3
72
82
73
78
40
0
40
0
40
0
40
0
40
0.0263400500113077
40
0.0263400500113077
40
0.0395100750169611
40
0.0395100750169611
40
0.0526801000226144
40
0.0526801000226144
40
0.105360200045227
40
0.105360200045227
40
0.131700250056533
40
0.131700250056533
40
0.144870275062185
40
0.144870275062185
40
0.158040300067838
40
0.158040300067838
40
0.17121032507349
40
0.17121032507349
40
0.184380350079143
40
0.210720400090448
40
0.210720400090448
40
0.263400500113058
40
0.263400500113058
40
0.276570525118711
40
0.276570525118711
40
0.289740550124363
40
0.289740550124363
40
0.316080600135667
40
0.316080600135667
40
0.368760700158274
40
0.368760700158274
40
0.395100750169578
40
0.395100750169578
40
0.40827077517523
40
0.40827077517523
40
0.421440800180882
40
0.447780850192186
40
0.447780850192186
40
0.47412090020349
40
0.47412090020349
40
0.500460950214795
40
0.500460950214795
40
0.513630975220447
40
0.513630975220447
40
0.5268010002261
40
0.5268010002261
40
0.579481100248712
40
0.579481100248712
40
0.632161200271324
40
0.632161200271324
40
0.645331225276978
40
0.645331225276978
40
0.658501250282632
40
0.68484130029394
40
0.68484130029394
40
0.737521400316555
40
0.737521400316555
40
0.750691425322209
40
0.750691425322209
40
0.763861450327862
40
0.763861450327862
40
0.790201500339168
40
0.790201500339168
40
0.842881600361779
40
0.842881600361779
40
0.869221650373085
40
0.869221650373085
40
0.882391675378738
40
0.882391675378738
40
0.895561700384391
40
0.895561700384391
40
0.948241800407006
40
0.948241800407006
40
0.974581850418313
40
0.987751875423967
40
0.987751875423967
40
1
40
1
40
1
40
1
41
1
10
70.8693210754339
20
-5.45380822443752
30
0
41
1
10
70.5945014378346
20
-5.43452526982111
30
0
41
1
10
70.3197430686405
20
-5.40952860404076
30
0
41
1
10
69.9074482381286
20
-5.36357716850554
30
0
41
1
10
69.7699902766036
20
-5.34685050287311
30
0
41
1
10
69.494978413702
20
-5.3105964041018
30
0
41
1
10
69.3573880902473
20
-5.29106338303501
30
0
41
1
10
68.6694966923316
20
-5.18650496102259
30
0
41
1
10
68.120756319252
20
-5.08101714047891
30
0
41
1
10
67.297880543485
20
-4.89180833934921
30
0
41
1
10
67.0236239583148
20
-4.82357658168229
30
0
41
1
10
66.6119608732399
20
-4.71377955061124
30
0
41
1
10
66.4746951917464
20
-4.67593832371264
30
0
41
1
10
66.2000753800359
20
-4.59776278569893
30
0
41
1
10
66.0627191026089
20
-4.5574295565111
30
0
41
1
10
65.7878162921027
20
-4.47436583502093
30
0
41
1
10
65.6502281099081
20
-4.43162130161221
30
0
41
1
10
65.3750125767108
20
-4.3438326285484
30
0
41
1
10
64.9624809144124
20
-4.20881460545479
30
0
41
1
10
64.5506366022462
20
-4.06405633882363
30
0
41
1
10
63.7273459262563
20
-3.762270268495
30
0
41
1
10
63.1789927769548
20
-3.54474098062965
30
0
41
1
10
62.4922320188126
20
-3.25516474145252
30
0
41
1
10
62.3548156478661
20
-3.19636415348546
30
0
41
1
10
62.0798091574875
20
-3.07705701962328
30
0
41
1
10
61.9421786327734
20
-3.01653244875254
30
0
41
1
10
61.529224864125
20
-2.83261873598119
30
0
41
1
10
61.2543279609625
20
-2.70710940869202
30
0
41
1
10
60.4302955569604
20
-2.32285688873205
30
0
41
1
10
59.8817787804478
20
-2.05645530942599
30
0
41
1
10
59.0580687771345
20
-1.64537463861379
30
0
41
1
10
58.7833536526882
20
-1.50641510753218
30
0
41
1
10
58.3707467578421
20
-1.29564160423405
30
0
41
1
10
58.2330839134439
20
-1.22497523441081
30
0
41
1
10
57.9577057532675
20
-1.08302549991564
30
0
41
1
10
57.5449422934323
20
-0.869373187009643
30
0
41
1
10
57.132902720388
20
-0.653894974041208
30
0
41
1
10
56.5837330373526
20
-0.365781762027268
30
0
41
1
10
56.3092566020078
20
-0.221320405679279
30
0
41
1
10
55.7602013250673
20
0.0678026584849931
30
0
41
1
10
55.4856227547845
20
0.212464975121662
30
0
41
1
10
55.0733604466284
20
0.429002410497702
30
0
41
1
10
54.9358739536679
20
0.501105568645983
30
0
41
1
10
54.6607276885721
20
0.645080034364497
30
0
41
1
10
54.523032026679
20
0.716970013508444
30
0
41
1
10
53.8344060418095
20
1.07543653104708
30
0
41
1
10
53.2851260894349
20
1.35789320561975
30
0
41
1
10
52.1867867098885
20
1.90867589046229
30
0
41
1
10
51.6377367934991
20
2.17701941788499
30
0
41
1
10
50.9496990991768
20
2.50026096566356
30
0
41
1
10
50.8119725784505
20
2.56431688775288
30
0
41
1
10
50.536446469644
20
2.69106173972429
30
0
41
1
10
50.1234627016488
20
2.87893935105711
30
0
41
1
10
49.711179411027
20
3.0597695368975
30
0
41
1
10
48.8869853238925
20
3.41118952161759
30
0
41
1
10
48.3380415781653
20
3.63184421102144
30
0
41
1
10
47.650587721292
20
3.88779334745794
30
0
41
1
10
47.5130339661766
20
3.9379911299973
30
0
41
1
10
47.2377519305549
20
4.03633250508767
30
0
41
1
10
47.0999924690508
20
4.08448671522135
30
0
41
1
10
46.6865804174187
20
4.22569590070017
30
0
41
1
10
46.4113674968376
20
4.31530182846623
30
0
41
1
10
45.5863527729582
20
4.56996629755437
30
0
41
1
10
45.0373318668849
20
4.72102891089136
30
0
41
1
10
44.2127640459588
20
4.91706949574638
30
0
41
1
10
43.9377536211682
20
4.9773452741986
30
0
41
1
10
43.5247199941806
20
5.05988685110759
30
0
41
1
10
43.3869269926373
20
5.08609392474099
30
0
41
1
10
43.1112426888611
20
5.13581884173308
30
0
41
1
10
42.9735001931122
20
5.1593103337359
30
0
41
1
10
42.2851700918502
20
5.26987119833109
30
0
41
1
10
41.7358420674502
20
5.33629960274271
30
0
41
1
10
40.9114350696059
20
5.40201878569962
30
0
41
1
10
40.499125365543
20
5.42640271829313
30
0
41
1
10
40.0862188844653
20
5.43795656352117
30
0
41
1
10
39.8204086363748
20
5.44262803029258
30
0
41
1
10
39.6922230608441
20
5.44364133707128
30
0
41
1
10
39.5639844217371
20
5.44341305822235
30
0
0
SPLINE
5
F3
100
AcDbEntity
8
1
62
256
6
ByLayer
370
18
48
1
60
0
100
AcDbSpline
70
4
71
3
72
51
73
47
40
0
40
0
40
0
40
0
40
0.0250653884992376
40
0.0250653884992376
40
0.0726278144295155
40
0.0726278144295155
40
0.120190240359794
40
0.120190240359794
40
0.167752666290071
40
0.167752666290071
40
0.215315092220349
40
0.215315092220349
40
0.239096305185487
40
0.239096305185487
40
0.262877518150625
40
0.262877518150625
40
0.310439944080899
40
0.310439944080899
40
0.358002370011173
40
0.38178358297631
40
0.38178358297631
40
0.405564795941447
40
0.405564795941447
40
0.453127221871723
40
0.453127221871723
40
0.500689647801999
40
0.500689647801999
40
0.595814499662549
40
0.595814499662549
40
0.643376925592825
40
0.643376925592825
40
0.667158138557963
40
0.667158138557963
40
0.690939351523101
40
0.690939351523101
40
0.786064203383652
40
0.786064203383652
40
0.833626629313928
40
0.833626629313928
40
0.881189055244204
40
0.881189055244204
40
0.92875148117448
40
0.92875148117448
40
0.976313907104756
40
0.976313907104756
40
1
40
1
40
1
40
1
41
1
10
38.4003938126472
20
-0.282791337866144
30
0
41
1
10
38.2561786241772
20
-0.210155618176884
30
0
41
1
10
38.1119241913669
20
-0.137526317555569
30
0
41
1
10
37.6938414418406
20
0.0729393275910297
30
0
41
1
10
37.4199381741637
20
0.210827010758891
30
0
41
1
10
36.8714766786961
20
0.485804258493431
30
0
41
1
10
36.5969083940941
20
0.622871457629969
30
0
41
1
10
36.0469985055321
20
0.896008261290064
30
0
41
1
10
35.7716683736165
20
1.03210330982009
30
0
41
1
10
35.2197834828056
20
1.30236035199474
30
0
41
1
10
34.9432209139238
20
1.43650450969937
30
0
41
1
10
34.5272635054643
20
1.63590393004759
30
0
41
1
10
34.3883182650698
20
1.7021185054505
30
0
41
1
10
34.111177294146
20
1.83333132873943
30
0
41
1
10
33.9728803183713
20
1.89839100901642
30
0
41
1
10
33.5582678714507
20
2.09162662890748
30
0
41
1
10
33.2821527197502
20
2.2178229433776
30
0
41
1
10
32.730725730149
20
2.46476539958763
30
0
41
1
10
32.3177721044153
20
2.64590035496434
30
0
41
1
10
31.9057209237993
20
2.82036062499165
30
0
41
1
10
31.6312120779321
20
2.9351049072655
30
0
41
1
10
31.4940515924016
20
2.99169642248199
30
0
41
1
10
31.0829184450094
20
3.15896350599576
30
0
41
1
10
30.8093352912193
20
3.26710754132145
30
0
41
1
10
30.2617777629538
20
3.47634970481002
30
0
41
1
10
29.9877627281185
20
3.57746680158749
30
0
41
1
10
29.1649546528251
20
3.86972119957537
30
0
41
1
10
28.6154165396568
20
4.04981799751417
30
0
41
1
10
27.788884904417
20
4.29283475197551
30
0
41
1
10
27.5130170574137
20
4.36929579797498
30
0
41
1
10
27.0979949877975
20
4.47744719121877
30
0
41
1
10
26.9594477064083
20
4.51241064171964
30
0
41
1
10
26.6819264016652
20
4.5800756362635
30
0
41
1
10
26.5428272441521
20
4.61280412456353
30
0
41
1
10
25.848522586506
20
4.77006126111806
30
0
41
1
10
25.296006889303
20
4.87568464862724
30
0
41
1
10
24.4709043950022
20
5.000496645922
30
0
41
1
10
24.196486444312
20
5.03649484484703
30
0
41
1
10
23.6478156206341
20
5.0984861764596
30
0
41
1
10
23.3735539652615
20
5.12449073379716
30
0
41
1
10
22.8252700213706
20
5.16566369930325
30
0
41
1
10
22.5512547850705
20
5.18082186386937
30
0
41
1
10
22.003074469065
20
5.200338310685
30
0
41
1
10
21.7289051602718
20
5.20470786683001
30
0
41
1
10
21.3179329478573
20
5.20279203542313
30
0
41
1
10
21.1812674003889
20
5.20074188827013
30
0
41
1
10
21.0445190997014
20
5.19734976956679
30
0
0
SPLINE
5
F4
100
AcDbEntity
8
1
62
256
6
ByLayer
370
13
48
1
60
0
100
AcDbSpline
70
4
71
3
72
45
73
41
40
0
40
0
40
0
40
0
40
0.0222326604827248
40
0.0222326604827248
40
0.105339034514236
40
0.105339034514236
40
0.126115628022114
40
0.126115628022114
40
0.146892221529992
40
0.188445408545747
40
0.188445408545747
40
0.271551782577258
40
0.271551782577258
40
0.313104969593014
40
0.333881563100892
40
0.333881563100892
40
0.354658156608769
40
0.354658156608769
40
0.43776453064028
40
0.43776453064028
40
0.479317717656036
40
0.479317717656036
40
0.520870904671791
40
0.520870904671791
40
0.603977278703302
40
0.603977278703302
40
0.645530465719058
40
0.645530465719058
40
0.687083652734814
40
0.687083652734814
40
0.770190026766325
40
0.770190026766325
40
0.811743213782081
40
0.811743213782081
40
0.832519807289959
40
0.832519807289959
40
0.853296400797837
40
0.853296400797837
40
0.936402774829349
40
1
40
1
40
1
40
1
41
1
10
18.100688710973
20
5.19614019623191
30
0
41
1
10
18.1006867160523
20
5.19614648200886
30
0
41
1
10
18.1006847110956
20
5.19567680980063
30
0
41
1
10
18.1006751688053
20
5.19120183462056
30
0
41
1
10
18.1006675155039
20
5.18104650875333
30
0
41
1
10
18.1006578421023
20
5.16000197703144
30
0
41
1
10
18.100655901881
20
5.15537370380306
30
0
41
1
10
18.1006520232457
20
5.14530945535955
30
0
41
1
10
18.1006462035925
20
5.12899237433001
30
0
41
1
10
18.100640382806
20
5.10903858403776
30
0
41
1
10
18.1006287472492
20
5.06432302782503
30
0
41
1
10
18.1006209992488
20
5.02811109424152
30
0
41
1
10
18.1006094020819
20
4.96418793537265
30
0
41
1
10
18.1006036093248
20
4.92982164062727
30
0
41
1
10
18.1005978239312
20
4.89181641906649
30
0
41
1
10
18.1005939682384
20
4.86566517526978
30
0
41
1
10
18.1005920397559
20
4.85217293271589
30
0
41
1
10
18.1005824253555
20
4.78285161885304
30
0
41
1
10
18.1005748108064
20
4.72136847692636
30
0
41
1
10
18.1005634645158
20
4.62017417618571
30
0
41
1
10
18.1005596947833
20
4.5849456484888
30
0
41
1
10
18.1005521705966
20
4.51148004475002
30
0
41
1
10
18.1005484119979
20
4.47319691626475
30
0
41
1
10
18.100537190035
20
4.35430878362598
30
0
41
1
10
18.1005297717506
20
4.26959460480603
30
0
41
1
10
18.1005186535581
20
4.13438370885117
30
0
41
1
10
18.1005149488434
20
4.08795485289275
30
0
41
1
10
18.1005075254162
20
3.99236372073295
30
0
41
1
10
18.1005038059867
20
3.94318819279951
30
0
41
1
10
18.100492653522
20
3.79227363175446
30
0
41
1
10
18.1004852089332
20
3.68692605045746
30
0
41
1
10
18.1004739074157
20
3.52181874011936
30
0
41
1
10
18.1004701176503
20
3.46560028736772
30
0
41
1
10
18.1004643824884
20
3.37948579295028
30
0
41
1
10
18.1004624625527
20
3.3504860331233
30
0
41
1
10
18.1004586136473
20
3.29205176341682
30
0
41
1
10
18.1004566833599
20
3.2625975298518
30
0
41
1
10
18.1004469957997
20
3.11414708778349
30
0
41
1
10
18.1004331118418
20
2.89785572258646
30
0
41
1
10
18.1004185811769
20
2.66990360908685
30
0
41
1
10
18.1004121153981
20
2.56886540765234
30
0
0
SPLINE
5
F5
100
AcDbEntity
8
1
62
256
6
ByLayer
370
18
48
1
60
0
100
AcDbSpline
70
4
71
3
72
47
73
43
40
0
40
0
40
0
40
0
40
0.0248538063469106
40
0.0248538063469106
40
0.0735867503363288
40
0.0735867503363288
40
0.122319694325747
40
0.122319694325747
40
0.219785582304586
40
0.231968818301942
40
0.231968818301942
40
0.244152054299298
40
0.244152054299298
40
0.268518526294008
40
0.268518526294008
40
0.317251470283427
40
0.317251470283427
40
0.414717358262266
40
0.414717358262266
40
0.512183246241105
40
0.512183246241105
40
0.609649134219944
40
0.609649134219944
40
0.658382078209363
40
0.658382078209363
40
0.682748550204073
40
0.694931786201428
40
0.694931786201428
40
0.707115022198782
40
0.707115022198782
40
0.804580910177622
40
0.804580910177622
40
0.853313854167042
40
0.853313854167042
40
0.902046798156463
40
0.902046798156463
40
0.950779742145883
40
0.975146214140593
40
0.975146214140593
40
0.999512686135303
40
0.999512686135303
40
1
40
1
40
1
40
1
41
1
10
22.6305676012526
20
0.315576430546514
30
0
41
1
10
22.7701089828822
20
0.245841734433384
30
0
41
1
10
22.9096612155444
20
0.176003506443578
30
0
41
1
10
23.322942580412
20
-0.0309454037264913
30
0
41
1
10
23.5967546871002
20
-0.168244473694529
30
0
41
1
10
24.1450291728743
20
-0.442470380388585
30
0
41
1
10
24.4194953481181
20
-0.579389223557115
30
0
41
1
10
25.2442824468196
20
-0.988752216840851
30
0
41
1
10
25.8649387773776
20
-1.29371964024946
30
0
41
1
10
26.4896554938082
20
-1.59278829201213
30
0
41
1
10
26.6285889944767
20
-1.6590870975048
30
0
41
1
10
26.6981372167324
20
-1.69216929381355
30
0
41
1
10
26.9067576865991
20
-1.79105918501077
30
0
41
1
10
27.0456366059438
20
-1.85643035568606
30
0
41
1
10
27.4617631372961
20
-2.05072414180532
30
0
41
1
10
27.7385053951947
20
-2.17781992971544
30
0
41
1
10
28.5670106858885
20
-2.55119155888625
30
0
41
1
10
29.1170482844888
20
-2.78956607904732
30
0
41
1
10
30.2154157598623
20
-3.2407074087767
30
0
41
1
10
30.7637631183032
20
-3.45342682099218
30
0
41
1
10
31.8616369124891
20
-3.84879920113198
30
0
41
1
10
32.4111150225433
20
-4.03145305442177
30
0
41
1
10
33.2380955724474
20
-4.28001843672126
30
0
41
1
10
33.5142127615251
20
-4.35863501410608
30
0
41
1
10
33.9293877568154
20
-4.4697166318195
30
0
41
1
10
34.1372254966852
20
-4.52354528828698
30
0
41
1
10
34.3454938586449
20
-4.57479267950055
30
0
41
1
10
34.484438376964
20
-4.60837016615352
30
0
41
1
10
34.5539943015057
20
-4.62487303381747
30
0
41
1
10
35.1794578257209
20
-4.77046209401621
30
0
41
1
10
35.7320500207001
20
-4.87907718788514
30
0
41
1
10
36.5582838987109
20
-5.01038900929888
30
0
41
1
10
36.8332517035187
20
-5.04890360791751
30
0
41
1
10
37.3825737025243
20
-5.11517821546451
30
0
41
1
10
37.6569286382518
20
-5.14294085654819
30
0
41
1
10
38.2054017208602
20
-5.18769813565686
30
0
41
1
10
38.6165782923273
20
-5.21318808660013
30
0
41
1
10
39.027871890962
20
-5.22626692174492
30
0
41
1
10
39.3021815071355
20
-5.23237270831092
30
0
41
1
10
39.4393927069987
20
-5.23411741506678
30
0
41
1
10
39.5793977582507
20
-5.23447569424769
30
0
41
1
10
39.5821428886658
20
-5.23448216282185
30
0
41
1
10
39.5848880386175
20
-5.23448807514532
30
0
0
SPLINE
5
F6
100
AcDbEntity
8
1
62
256
6
ByLayer
370
13
48
1
60
0
100
AcDbSpline
70
4
71
3
72
14
73
10
40
0
40
0
40
0
40
0
40
0.0956526746579107
40
0.617648569198408
40
0.617648569198408
40
0.748147542833531
40
0.748147542833531
40
0.878646516468656
40
1
40
1
40
1
40
1
41
1
10
18.1007292170713
20
-5.12326023881809
30
0
41
1
10
18.1007280241223
20
-5.12786965271223
30
0
41
1
10
18.1007202498493
20
-5.15623656175788
30
0
41
1
10
18.1007120361158
20
-5.17558578393448
30
0
41
1
10
18.100703043567
20
-5.18780571413328
30
0
41
1
10
18.1007012278254
20
-5.18983898929275
30
0
41
1
10
18.1006975733918
20
-5.19306873458081
30
0
41
1
10
18.1006940267446
20
-5.19537743459802
30
0
41
1
10
18.1006904445857
20
-5.19613473469607
30
0
41
1
10
18.1006887109665
20
-5.19614019625215
30
0
0
SPLINE
5
F7
100
AcDbEntity
8
1
62
256
6
ByLayer
370
18
48
1
60
0
100
AcDbSpline
70
4
71
3
72
52
73
48
40
0
40
0
40
0
40
0
40
0.0624999999999996
40
0.0624999999999996
40
0.0937499999999994
40
0.109374999999999
40
0.109374999999999
40
0.124999999999999
40
0.124999999999999
40
0.1875
40
0.1875
40
0.25
40
0.312500000000001
40
0.312500000000001
40
0.343750000000001
40
0.343750000000001
40
0.359375000000001
40
0.359375000000001
40
0.375000000000001
40
0.437500000000001
40
0.437500000000001
40
0.468750000000001
40
0.468750000000001
40
0.500000000000002
40
0.500000000000002
40
0.562500000000002
40
0.562500000000002
40
0.593750000000002
40
0.593750000000002
40
0.625000000000003
40
0.625000000000003
40
0.687500000000003
40
0.687500000000003
40
0.718750000000003
40
0.718750000000003
40
0.750000000000003
40
0.750000000000003
40
0.812500000000003
40
0.812500000000003
40
0.828125000000003
40
0.828125000000003
40
0.843750000000002
40
0.875000000000002
40
0.875000000000002
40
0.937500000000001
40
0.937500000000001
40
1
40
1
40
1
40
1
41
1
10
70.9725290030897
20
-0.246114563608529
30
0
41
1
10
70.9527590869182
20
-0.400414908939439
30
0
41
1
10
70.9353973655688
20
-0.554110371795247
30
0
41
1
10
70.9124032438482
20
-0.783688639787556
30
0
41
1
10
70.901669687757
20
-0.898236271838243
30
0
41
1
10
70.8919872558997
20
-1.01240823482632
30
0
41
1
10
70.8857561565584
20
-1.08843770694398
30
0
41
1
10
70.882753029334
20
-1.12640655625333
30
0
41
1
10
70.8683254534338
20
-1.31531181942353
30
0
41
1
10
70.8586092675841
20
-1.46401970774775
30
0
41
1
10
70.8420847570262
20
-1.75669377668638
30
0
41
1
10
70.828469675855
20
-2.0446255700848
30
0
41
1
10
70.8195082572091
20
-2.32305033355334
30
0
41
1
10
70.8141980190256
20
-2.52821791706734
30
0
41
1
10
70.8126641044773
20
-2.59599779643716
30
0
41
1
10
70.8106848502416
20
-2.69673502958639
30
0
41
1
10
70.8100785626435
20
-2.73017574690357
30
0
41
1
10
70.8089723043844
20
-2.79650352948079
30
0
41
1
10
70.8064710464695
20
-2.96107640146613
30
0
41
1
10
70.8052021416411
20
-3.11945896738186
30
0
41
1
10
70.8046650247366
20
-3.30357810126796
30
0
41
1
10
70.8046515864243
20
-3.36398178011154
30
0
41
1
10
70.8049379276927
20
-3.48269727921016
30
0
41
1
10
70.8052371519688
20
-3.54083928858247
30
0
41
1
10
70.8065818980579
20
-3.71164590341186
30
0
41
1
10
70.8080693314009
20
-3.82069807415721
30
0
41
1
10
70.8111966360175
20
-3.97703195323564
30
0
41
1
10
70.8123914905424
20
-4.0279934636321
30
0
41
1
10
70.8150895168739
20
-4.1271151653539
30
0
41
1
10
70.8165922177015
20
-4.17528002600432
30
0
41
1
10
70.8215926684794
20
-4.31561202394903
30
0
41
1
10
70.8255775806323
20
-4.40362461966146
30
0
41
1
10
70.8327484627137
20
-4.52728611257123
30
0
41
1
10
70.8353405773386
20
-4.56712151723093
30
0
41
1
10
70.8409476499195
20
-4.6436135839092
30
0
41
1
10
70.8439652386409
20
-4.68032105061138
30
0
41
1
10
70.8537382637335
20
-4.78584921702836
30
0
41
1
10
70.8612088844685
20
-4.85008445199773
30
0
41
1
10
70.872074010813
20
-4.92267200014996
30
0
41
1
10
70.8743224582768
20
-4.93679315173361
30
0
41
1
10
70.8789673234078
20
-4.96417819860002
30
0
41
1
10
70.8861612427667
20
-5.00400063821633
30
0
41
1
10
70.8940708724696
20
-5.04008734674088
30
0
41
1
10
70.9109498168521
20
-5.10733214717322
30
0
41
1
10
70.9236114442728
20
-5.14559927418674
30
0
41
1
10
70.9524040274533
20
-5.20906934158185
30
0
41
1
10
70.968534093732
20
-5.23427248258568
30
0
41
1
10
70.9867918113595
20
-5.25283249689156
30
0
0
SPLINE
5
F8
100
AcDbEntity
8
1
62
256
6
ByLayer
370
18
48
1
60
0
100
AcDbSpline
70
4
71
3
72
50
73
46
40
0
40
0
40
0
40
0
40
0.0980680617400361
40
0.0980680617400361
40
0.196136123480072
40
0.196136123480072
40
0.245170154350091
40
0.245170154350091
40
0.269687169785101
40
0.269687169785101
40
0.294204185220111
40
0.294204185220111
40
0.343238216090133
40
0.343238216090133
40
0.392272246960155
40
0.392272246960155
40
0.416789262395167
40
0.416789262395167
40
0.429047770112672
40
0.429047770112672
40
0.441306277830177
40
0.441306277830177
40
0.490340308700199
40
0.490340308700199
40
0.588408370440243
40
0.588408370440243
40
0.637442401310265
40
0.637442401310265
40
0.686476432180286
40
0.686476432180286
40
0.735510463050308
40
0.735510463050308
40
0.784544493920329
40
0.784544493920329
40
0.83357852479035
40
0.83357852479035
40
0.882612555660372
40
0.882612555660372
40
0.907129571095382
40
0.907129571095382
40
0.931646586530393
40
0.931646586530393
40
0.980680617400414
40
0.980680617400414
40
1
40
1
40
1
40
1
41
1
10
70.9725290030741
20
-0.246114563606909
30
0
41
1
10
70.4206020342892
20
0.0367140203402698
30
0
41
1
10
69.8708048764416
20
0.317808644553594
30
0
41
1
10
68.773213020597
20
0.872184375022044
30
0
41
1
10
68.2254079011683
20
1.14545715541556
30
0
41
1
10
67.4040805984772
20
1.546646530884
30
0
41
1
10
67.1303686368342
20
1.67892795109009
30
0
41
1
10
66.7197373370998
20
1.87471684907635
30
0
41
1
10
66.5828496407526
20
1.93954158105544
30
0
41
1
10
66.3090260142649
20
2.06822533677419
30
0
41
1
10
66.1721014306059
20
2.13208914963803
30
0
41
1
10
65.7610285874862
20
2.32200136720269
30
0
41
1
10
65.486500329177
20
2.44632294444173
30
0
41
1
10
64.9362715172983
20
2.68985772879179
30
0
41
1
10
64.6605802828505
20
2.80907633640663
30
0
41
1
10
64.2460598252328
20
2.98369969853687
30
0
41
1
10
64.1077235296573
20
3.04121034815128
30
0
41
1
10
63.8999506250517
20
3.12635216031219
30
0
41
1
10
63.8306181542604
20
3.15455698341148
30
0
41
1
10
63.6921244842222
20
3.21047004589954
30
0
41
1
10
63.622939768789
20
3.23818809939982
30
0
41
1
10
63.2773288377196
20
3.37555454552839
30
0
41
1
10
63.0019017083701
20
3.48149098311311
30
0
41
1
10
62.1770124007922
20
3.78746975327994
30
0
41
1
10
61.628671453775
20
3.9757849106951
30
0
41
1
10
60.8077687454223
20
4.23188349783379
30
0
41
1
10
60.5344076712943
20
4.31287437882474
30
0
41
1
10
59.9881030389444
20
4.4652713350072
30
0
41
1
10
59.7151991837701
20
4.53660290051221
30
0
41
1
10
59.1689635632999
20
4.67011319836092
30
0
41
1
10
58.8955727329631
20
4.73238436708104
30
0
41
1
10
58.3483041397606
20
4.84692231702266
30
0
41
1
10
58.0744700814258
20
4.89910492879781
30
0
41
1
10
57.5258497714924
20
4.9935210277157
30
0
41
1
10
57.251030518553
20
5.0358425763215
30
0
41
1
10
56.700279319206
20
5.10950465963708
30
0
41
1
10
56.4243818498252
20
5.14071798192651
30
0
41
1
10
56.0092794591013
20
5.17970751742604
30
0
41
1
10
55.8705690079713
20
5.19143196662472
30
0
41
1
10
55.5936286431168
20
5.21212201054408
30
0
41
1
10
55.4553428569745
20
5.22108801124961
30
0
41
1
10
55.0410881373833
20
5.24364210646036
30
0
41
1
10
54.7657756567195
20
5.25277570144297
30
0
41
1
10
54.3825908046815
20
5.25814142103917
30
0
41
1
10
54.2743459772312
20
5.25885610353237
30
0
41
1
10
54.1661631955657
20
5.25873770696535
30
0
0
SPLINE
5
F9
100
AcDbEntity
8
1
62
256
6
ByLayer
370
18
48
1
60
0
100
AcDbSpline
70
4
71
3
72
8
73
4
40
0
40
0
40
0
40
0
40
1
40
1
40
1
40
1
41
1
10
70.9703990297244
20
-0.234293831191536
30
0
41
1
10
70.9723014090235
20
-0.235029789265326
30
0
41
1
10
70.973270499474
20
-0.240327328742524
30
0
41
1
10
70.9725290030889
20
-0.246114563614469
30
0
0
SPLINE
5
FA
100
AcDbEntity
8
1
62
256
6
ByLayer
370
18
48
1
60
0
100
AcDbSpline
70
4
71
3
72
50
73
46
40
0
40
0
40
0
40
0
40
0.0222255419584131
40
0.0222255419584131
40
0.0723961221032707
40
0.0723961221032707
40
0.0974814121756995
40
0.0974814121756995
40
0.122566702248128
40
0.122566702248128
40
0.172737282392986
40
0.172737282392986
40
0.222907862537844
40
0.222907862537844
40
0.273078442682701
40
0.273078442682701
40
0.323249022827559
40
0.323249022827559
40
0.373419602972416
40
0.373419602972416
40
0.423590183117274
40
0.423590183117274
40
0.523931343406987
40
0.523931343406987
40
0.574101923551844
40
0.574101923551844
40
0.586644568588058
40
0.586644568588058
40
0.599187213624273
40
0.599187213624273
40
0.624272503696702
40
0.624272503696702
40
0.674443083841558
40
0.674443083841558
40
0.724613663986415
40
0.724613663986415
40
0.749698954058843
40
0.749698954058843
40
0.774784244131271
40
0.774784244131271
40
0.824954824276126
40
0.824954824276126
40
0.925295984565835
40
0.925295984565835
40
1
40
1
40
1
40
1
41
1
10
54.1196405071112
20
5.26856119314627
30
0
41
1
10
54.2412838959265
20
5.26909444139685
30
0
41
1
10
54.3630063716913
20
5.26856619295188
30
0
41
1
10
54.7597375702078
20
5.26353475733569
30
0
41
1
10
55.0350997577174
20
5.25476203819781
30
0
41
1
10
55.4494304350849
20
5.23273144526556
30
0
41
1
10
55.5877423254691
20
5.22393462220708
30
0
41
1
10
55.8647362949709
20
5.20357200309277
30
0
41
1
10
56.0034886101363
20
5.19200350191602
30
0
41
1
10
56.4187280289649
20
5.15347068918547
30
0
41
1
10
56.6947109591541
20
5.12255601471924
30
0
41
1
10
57.2456265558254
20
5.04945884251234
30
0
41
1
10
57.5205245794253
20
5.00739322116607
30
0
41
1
10
58.0692937824866
20
4.91345176070124
30
0
41
1
10
58.343197696411
20
4.86149571155684
30
0
41
1
10
58.8906019552081
20
4.74737565440032
30
0
41
1
10
59.164059348571
20
4.68528729976606
30
0
41
1
10
59.7104207982533
20
4.55210785141483
30
0
41
1
10
59.9833829460623
20
4.48093418673236
30
0
41
1
10
60.5298019446145
20
4.32882309999209
30
0
41
1
10
60.8032193226163
20
4.24795264637316
30
0
41
1
10
61.6242898126266
20
3.99215366434305
30
0
41
1
10
62.1727436124534
20
3.80395914946706
30
0
41
1
10
62.9977977298724
20
3.49804925401861
30
0
41
1
10
63.2732765873247
20
3.39212490013443
30
0
41
1
10
63.6189538526322
20
3.25475194581179
30
0
41
1
10
63.6881519993162
20
3.22703110685384
30
0
41
1
10
63.8266728582899
20
3.17110949805866
30
0
41
1
10
63.8960237670472
20
3.14289702037596
30
0
41
1
10
64.1038634245872
20
3.05772313995021
30
0
41
1
10
64.2422429282925
20
3.00018547459501
30
0
41
1
10
64.6568903295244
20
2.82546731257474
30
0
41
1
10
64.9326628182101
20
2.70616765442034
30
0
41
1
10
65.4830472990747
20
2.46243571449648
30
0
41
1
10
65.7576498448865
20
2.33799630671444
30
0
41
1
10
66.1688292677675
20
2.14788702334849
30
0
41
1
10
66.3057888877624
20
2.08395626228369
30
0
41
1
10
66.5796816119899
20
1.95512949493769
30
0
41
1
10
66.7166032096235
20
1.89022800130664
30
0
41
1
10
67.1273355263705
20
1.6941961846538
30
0
41
1
10
67.4011137672545
20
1.5617356906971
30
0
41
1
10
68.2226371295064
20
1.15995956626486
30
0
41
1
10
68.770570600554
20
0.886233166961944
30
0
41
1
10
69.7281674436696
20
0.401781849676155
30
0
41
1
10
70.1373956560952
20
0.192835251460963
30
0
41
1
10
70.5476460890523
20
-0.0174114646334829
30
0
0
SPLINE
5
FB
100
AcDbEntity
8
1
62
256
6
ByLayer
370
18
48
1
60
0
100
AcDbSpline
70
4
71
3
72
8
73
4
40
0
40
0
40
0
40
0
40
1
40
1
40
1
40
1
41
1
10
70.9006855910232
20
-0.205977113270535
30
0
41
1
10
70.9239176296733
20
-0.215862717097877
30
0
41
1
10
70.9471524058641
20
-0.225300598072607
30
0
41
1
10
70.9703990297244
20
-0.234293831191564
30
0
0
SPLINE
5
FC
100
AcDbEntity
8
1
62
256
6
ByLayer
370
18
48
1
60
0
100
AcDbSpline
70
4
71
3
72
16
73
12
40
0
40
0
40
0
40
0
40
0.488042981812366
40
0.488042981812366
40
0.610053727265463
40
0.610053727265463
40
0.732064472718559
40
0.732064472718559
40
0.976085963624752
40
0.976085963624752
40
1
40
1
40
1
40
1
41
1
10
18.1466149405062
20
-5.1202557761485
30
0
41
1
10
18.6972108340459
20
-5.2136658642867
30
0
41
1
10
19.2479899765366
20
-5.28447980805291
30
0
41
1
10
19.9374705467299
20
-5.3450747862791
30
0
41
1
10
20.0754515659352
20
-5.35579635534583
30
0
41
1
10
20.3513357607014
20
-5.37442269054822
30
0
41
1
10
20.4891549599014
20
-5.38232281249708
30
0
41
1
10
20.9022540373713
20
-5.40177684419135
30
0
41
1
10
21.1772091668467
20
-5.40906449318916
30
0
41
1
10
21.4790776154877
20
-5.41080946328233
30
0
41
1
10
21.5060197323481
20
-5.4109106426568
30
0
41
1
10
21.5329614010251
20
-5.41095727906705
30
0
0
SPLINE
5
FD
100
AcDbEntity
8
1
62
256
6
ByLayer
370
18
48
1
60
0
100
AcDbSpline
70
4
71
3
72
63
73
59
40
0
40
0
40
0
40
0
40
0.0287572539189132
40
0.0287572539189132
40
0.0709851994007011
40
0.0709851994007011
40
0.113213144882489
40
0.113213144882489
40
0.134327117623383
40
0.134327117623383
40
0.155441090364277
40
0.155441090364277
40
0.197669035846065
40
0.197669035846065
40
0.239896981327853
40
0.239896981327853
40
0.282124926809641
40
0.282124926809641
40
0.303238899550535
40
0.303238899550535
40
0.324352872291429
40
0.324352872291429
40
0.366580817773215
40
0.366580817773215
40
0.408808763255001
40
0.408808763255001
40
0.451036708736788
40
0.451036708736788
40
0.493264654218574
40
0.493264654218574
40
0.514378626959467
40
0.514378626959467
40
0.53549259970036
40
0.53549259970036
40
0.577720545182147
40
0.577720545182147
40
0.619948490663933
40
0.619948490663933
40
0.662176436145719
40
0.662176436145719
40
0.683290408886612
40
0.683290408886612
40
0.704404381627506
40
0.704404381627506
40
0.746632327109292
40
0.746632327109292
40
0.767746299850185
40
0.767746299850185
40
0.788860272591078
40
0.831088218072864
40
0.831088218072864
40
0.852202190813757
40
0.852202190813757
40
0.873316163554649
40
0.873316163554649
40
0.915544109036432
40
0.915544109036432
40
1
40
1
40
1
40
1
41
1
10
51.4043318526855
20
5.26994147978695
30
0
41
1
10
51.5911300700815
20
5.29627576279694
30
0
41
1
10
51.7778469284123
20
5.32006362695813
30
0
41
1
10
52.2388607696474
20
5.37234424140081
30
0
41
1
10
52.5132103582478
20
5.39784202365539
30
0
41
1
10
53.0621154725882
20
5.43759821500331
30
0
41
1
10
53.336701002718
20
5.45183096056718
30
0
41
1
10
53.7493271659163
20
5.46457369032598
30
0
41
1
10
53.8869994768262
20
5.46738904576949
30
0
41
1
10
54.1620059264912
20
5.4701502630341
30
0
41
1
10
54.2994089961936
20
5.47009868736646
30
0
41
1
10
54.711317649276
20
5.46564745759062
30
0
41
1
10
54.9855522809341
20
5.45693903345705
30
0
41
1
10
55.5340905390228
20
5.42819023998834
30
0
41
1
10
55.8083554339584
20
5.40816485039136
30
0
41
1
10
56.356779453829
20
5.35674762849774
30
0
41
1
10
56.6309807929705
20
5.32534531915718
30
0
41
1
10
57.0429483368019
20
5.26996680768005
30
0
41
1
10
57.1803732712143
20
5.25012814062632
30
0
41
1
10
57.4554119796937
20
5.20767991657488
30
0
41
1
10
57.5930521810089
20
5.1850636816184
30
0
41
1
10
58.0054184589335
20
5.11318021676485
30
0
41
1
10
58.2798828015974
20
5.05984563719119
30
0
41
1
10
58.8286203132113
20
4.94291467404688
30
0
41
1
10
59.1028573270463
20
4.87930859053631
30
0
41
1
10
59.6509329464952
20
4.74165617117518
30
0
41
1
10
59.9248211837657
20
4.66762893186288
30
0
41
1
10
60.473350273994
20
4.51019271968121
30
0
41
1
10
60.7479544866337
20
4.42676626087754
30
0
41
1
10
61.1604538659286
20
4.29465879786616
30
0
41
1
10
61.2980914310468
20
4.24944773044425
30
0
41
1
10
61.5730381989441
20
4.15690176474331
30
0
41
1
10
61.7104102364565
20
4.10954734544563
30
0
41
1
10
62.1222557266667
20
3.96428513610158
30
0
41
1
10
62.3964548392239
20
3.86317483032548
30
0
41
1
10
62.9443593784168
20
3.6526883939118
30
0
41
1
10
63.2181050261666
20
3.54335475989404
30
0
41
1
10
63.766229667481
20
3.31804361361807
30
0
41
1
10
64.0405669707034
20
3.20202075267261
30
0
41
1
10
64.4525105888476
20
3.02299283974003
30
0
41
1
10
64.5898991719226
20
2.96248530425075
30
0
41
1
10
64.8648347318434
20
2.8398151582542
30
0
41
1
10
65.002426012811
20
2.77763155605317
30
0
41
1
10
65.4147096929383
20
2.58896368847388
30
0
41
1
10
65.6891213272891
20
2.46026182427872
30
0
41
1
10
66.1002255391463
20
2.26305567668138
30
0
41
1
10
66.2371871621778
20
2.19664813187234
30
0
41
1
10
66.5112178401093
20
2.06293234359487
30
0
41
1
10
66.9223989302856
20
1.86096497812329
30
0
41
1
10
67.3340005240151
20
1.65487954211409
30
0
41
1
10
67.7460065295039
20
1.44628225962543
30
0
41
1
10
67.8834099931318
20
1.37633216969749
30
0
41
1
10
68.1583780345946
20
1.23563948881727
30
0
41
1
10
68.2959261792174
20
1.1649049008843
30
0
41
1
10
68.7081167290293
20
0.951967535375843
30
0
41
1
10
68.9825465127282
20
0.808903946050521
30
0
41
1
10
69.8051381158214
20
0.37713429435621
30
0
41
1
10
70.3526090021036
20
0.0858609234755647
30
0
41
1
10
70.9006855910222
20
-0.205977113270905
30
0
0
SPLINE
5
FE
100
AcDbEntity
8
1
62
256
6
ByLayer
370
18
48
1
60
0
100
AcDbSpline
70
4
71
3
72
45
73
41
40
0
40
0
40
0
40
0
40
0.0226636533424598
40
0.0226636533424598
40
0.0358709012702648
40
0.0358709012702648
40
0.0490781491980694
40
0.0490781491980694
40
0.101907140909289
40
0.101907140909289
40
0.154736132620508
40
0.154736132620508
40
0.207565124331727
40
0.207565124331727
40
0.260394116042947
40
0.260394116042947
40
0.313223107754166
40
0.313223107754166
40
0.366052099465385
40
0.366052099465385
40
0.471710082887825
40
0.471710082887825
40
0.524539074599046
40
0.53774632252685
40
0.53774632252685
40
0.550953570454655
40
0.550953570454655
40
0.577368066310264
40
0.577368066310264
40
0.683026049732694
40
0.683026049732694
40
0.709440545588302
40
0.709440545588302
40
0.73585504144391
40
0.73585504144391
40
0.788684033155128
40
0.788684033155128
40
0.894342016577564
40
0.894342016577564
40
1
40
1
40
1
40
1
41
1
10
55.3678953107275
20
0.274938583281909
30
0
41
1
10
55.4866152630419
20
0.214901744837505
30
0
41
1
10
55.6054669930115
20
0.154733227208851
30
0
41
1
10
55.7938145840119
20
0.0593446906981967
30
0
41
1
10
55.8632470464494
20
0.0241725582489778
30
0
41
1
10
56.0020271361273
20
-0.0461284711088865
30
0
41
1
10
56.0713654845376
20
-0.0812523771999167
30
0
41
1
10
56.4178131145966
20
-0.256710507753923
30
0
41
1
10
56.6941881116152
20
-0.396566357493953
30
0
41
1
10
57.2456768613914
20
-0.674681905062073
30
0
41
1
10
57.5207972176427
20
-0.812928392480643
30
0
41
1
10
58.0701934370654
20
-1.08700640738988
30
0
41
1
10
58.3444635827915
20
-1.22285121739975
30
0
41
1
10
58.8924504443036
20
-1.49158021944936
30
0
41
1
10
59.1661730503771
20
-1.6244532889387
30
0
41
1
10
59.7134721445582
20
-1.88644862305998
30
0
41
1
10
59.9870423303527
20
-2.01558502198208
30
0
41
1
10
60.5343077047393
20
-2.26961517899954
30
0
41
1
10
60.8080071624829
20
-2.39450048427966
30
0
41
1
10
61.6298635859668
20
-2.76171035781087
30
0
41
1
10
62.1787707231823
20
-2.99661099922929
30
0
41
1
10
63.0057616403293
20
-3.33009389877535
30
0
41
1
10
63.3510949667778
20
-3.46512320544946
30
0
41
1
10
63.6976229841719
20
-3.59482586289042
30
0
41
1
10
63.8363369579913
20
-3.64626718036257
30
0
41
1
10
63.9057230823638
20
-3.67176001240512
30
0
41
1
10
64.1136447019634
20
-3.74741989702767
30
0
41
1
10
64.2520685750173
20
-3.79681460153782
30
0
41
1
10
64.9433528821468
20
-4.03841742726962
30
0
41
1
10
65.4937028010162
20
-4.21451421101352
30
0
41
1
10
66.1799181951502
20
-4.41117212849051
30
0
41
1
10
66.3170852346055
20
-4.44934297209366
30
0
41
1
10
66.5913505534308
20
-4.52337358353628
30
0
41
1
10
66.7284384536851
20
-4.55922327824214
30
0
41
1
10
67.1395524392703
20
-4.66314960250972
30
0
41
1
10
67.4134504622056
20
-4.72762045804788
30
0
41
1
10
68.2352482131921
20
-4.90615330242525
30
0
41
1
10
68.7832418644933
20
-5.00534039861569
30
0
41
1
10
69.8821511773336
20
-5.16141627973732
30
0
41
1
10
70.4330661273172
20
-5.21831241155016
30
0
41
1
10
70.9867918126336
20
-5.25283249687996
30
0
0
SPLINE
5
FF
100
AcDbEntity
8
1
62
256
6
ByLayer
370
18
48
1
60
0
100
AcDbSpline
70
4
71
3
72
39
73
35
40
0
40
0
40
0
40
0
40
0.109027477429552
40
0.109027477429552
40
0.218054954859105
40
0.218054954859105
40
0.272568693573882
40
0.272568693573882
40
0.299825562931271
40
0.299825562931271
40
0.32708243228866
40
0.32708243228866
40
0.436109909718212
40
0.463366779075602
40
0.463366779075602
40
0.476995213754298
40
0.476995213754298
40
0.490623648432994
40
0.490623648432994
40
0.545137387147775
40
0.545137387147775
40
0.654164864577338
40
0.654164864577338
40
0.763192342006901
40
0.763192342006901
40
0.817706080721683
40
0.817706080721683
40
0.872219819436465
40
0.872219819436465
40
0.926733558151246
40
0.926733558151246
40
0.981247296866027
40
0.994875731544723
40
1
40
1
40
1
40
1
41
1
10
70.9844329669446
20
-5.26394867216811
30
0
41
1
10
70.4309473759175
20
-5.22991397369537
30
0
41
1
10
69.8802774192309
20
-5.17346821670293
30
0
41
1
10
68.7818615964091
20
-5.01822626498316
30
0
41
1
10
68.2341165299849
20
-4.91942235453672
30
0
41
1
10
67.4126944245624
20
-4.74140874864111
30
0
41
1
10
67.1389221526953
20
-4.6771016804804
30
0
41
1
10
66.7279973931545
20
-4.57340707510249
30
0
41
1
10
66.590972607706
20
-4.53763232044258
30
0
41
1
10
66.3168341304886
20
-4.46374352410856
30
0
41
1
10
66.1797309872528
20
-4.42563960337296
30
0
41
1
10
65.493834475474
20
-4.2293077212812
30
0
41
1
10
64.8062101115574
20
-4.00946433752816
30
0
41
1
10
64.1143976074193
20
-3.76268811336388
30
0
41
1
10
63.9065682977898
20
-3.68708227680097
30
0
41
1
10
63.8372145617566
20
-3.66160722583365
30
0
41
1
10
63.6985515740676
20
-3.61019456015725
30
0
41
1
10
63.6292714895931
20
-3.58426800428336
30
0
41
1
10
63.2831123620571
20
-3.45356273287877
30
0
41
1
10
63.0069531370955
20
-3.34557638627893
30
0
41
1
10
62.1802903380774
20
-3.01217029793952
30
0
41
1
10
61.6316104719808
20
-2.77727243556518
30
0
41
1
10
60.5362720223079
20
-2.28756141475057
30
0
41
1
10
59.9895834852476
20
-2.03280628050061
30
0
41
1
10
59.1690080431156
20
-1.63957916909584
30
0
41
1
10
58.8954107276381
20
-1.50661510839197
30
0
41
1
10
58.34767755977
20
-1.23767427985157
30
0
41
1
10
58.0735355778694
20
-1.10170913548311
30
0
41
1
10
57.5243962132743
20
-0.827364037909291
30
0
41
1
10
57.2494048254616
20
-0.688970147817287
30
0
41
1
10
56.6981763234706
20
-0.410527877024265
30
0
41
1
10
56.3528713361997
20
-0.235484642085709
30
0
41
1
10
55.9802832297805
20
-0.0463969472753263
30
0
41
1
10
55.8848205755695
20
0.0020528522356358
30
0
41
1
10
55.8587349334659
20
0.0152917362425455
30
0
0
SPLINE
5
100
100
AcDbEntity
8
1
62
256
6
ByLayer
370
18
48
1
60
0
100
AcDbSpline
70
4
71
3
72
14
73
10
40
0
40
0
40
0
40
0
40
0.25
40
0.25
40
0.5
40
0.5
40
0.75
40
0.75
40
1
40
1
40
1
40
1
41
1
10
70.9867918112595
20
-5.25283249679762
30
0
41
1
10
70.9869557881186
20
-5.25299918865448
30
0
41
1
10
70.9870481184698
20
-5.25335911651339
30
0
41
1
10
70.9870460090002
20
-5.25455841844391
30
0
41
1
10
70.9869462551137
20
-5.25539641886391
30
0
41
1
10
70.9865259639876
20
-5.25747428210963
30
0
41
1
10
70.9861993348453
20
-5.25873182194113
30
0
41
1
10
70.9853944864636
20
-5.26134630907973
30
0
41
1
10
70.9849207191263
20
-5.26269459939948
30
0
41
1
10
70.9844329669427
20
-5.26394867217294
30
0
0
SPLINE
5
101
100
AcDbEntity
8
SK1
62
256
6
ByLayer
370
18
48
1
60
0
100
AcDbSpline
70
4
71
3
72
20
73
16
40
0
40
0
40
0
40
0
40
0.211651493799213
40
0.211651493799213
40
0.317477240698819
40
0.317477240698819
40
0.423302987598426
40
0.423302987598426
40
0.634954481397639
40
0.634954481397639
40
0.740780228297246
40
0.740780228297246
40
0.846605975196853
40
0.846605975196853
40
1
40
1
40
1
40
1
41
1
10
-45
20
3.6177118498729
30
0
41
1
10
-45
20
3.59781774341283
30
0
41
1
10
-45
20
3.57602160091562
30
0
41
1
10
-45
20
3.54037994877973
30
0
41
1
10
-45
20
3.5280078024108
30
0
41
1
10
-45
20
3.50263306082564
30
0
41
1
10
-45
20
3.48958811550372
30
0
41
1
10
-45
20
3.44939946748445
30
0
41
1
10
-45
20
3.42120609126999
30
0
41
1
10
-45
20
3.3768131104506
30
0
41
1
10
-45
20
3.36166393028148
30
0
41
1
10
-45
20
3.33064939012863
30
0
41
1
10
-45
20
3.31472518700932
30
0
41
1
10
-45
20
3.27528297810574
30
0
41
1
10
-45
20
3.25154834066638
30
0
41
1
10
-45
20
3.22742784987528
30
0
0
SPLINE
5
102
100
AcDbEntity
8
SK1
62
256
6
ByLayer
370
18
48
1
60
0
100
AcDbSpline
70
4
71
3
72
16
73
12
40
0
40
0
40
0
40
0
40
0.0946648980419539
40
0.0946648980419539
40
0.320998673531465
40
0.320998673531465
40
0.547332449020977
40
0.547332449020977
40
0.773666224510489
40
0.773666224510489
40
1
40
1
40
1
40
1
41
1
10
-44.7458274583111
20
3.45529677913297
30
0
41
1
10
-44.7525816923205
20
3.46179928337116
30
0
41
1
10
-44.7595502983517
20
3.46815336181893
30
0
41
1
10
-44.7838270656877
20
3.48925143201697
30
0
41
1
10
-44.8017833058388
20
3.5031509919551
30
0
41
1
10
-44.8388274312895
20
3.52940073454928
30
0
41
1
10
-44.8579414490636
20
3.54176588563303
30
0
41
1
10
-44.8971041433766
20
3.56529663867457
30
0
41
1
10
-44.9171544273087
20
3.57646017769054
30
0
41
1
10
-44.9580278061927
20
3.59779542339734
30
0
41
1
10
-44.9788763963552
20
3.60797738278086
30
0
41
1
10
-44.9999999999999
20
3.61771184987305
30
0
0
SPLINE
5
103
100
AcDbEntity
8
SK1
62
256
6
ByLayer
370
18
48
1
60
0
100
AcDbSpline
70
4
71
3
72
8
73
4
40
0
40
0
40
0
40
0
40
1
40
1
40
1
40
1
41
1
10
-44.25
20
4.81983837123673
30
0
41
1
10
-44.5004726395445
20
4.59239579571013
30
0
41
1
10
-44.7505581295625
20
4.3646180848846
30
0
41
1
10
-45
20
4.13628322591416
30
0
0
SPLINE
5
104
100
AcDbEntity
8
SK1
62
256
6
ByLayer
370
18
48
1
60
0
100
AcDbSpline
70
4
71
3
72
20
73
16
40
0
40
0
40
0
40
0
40
0.0624999999999996
40
0.0624999999999996
40
0.124999999999999
40
0.124999999999999
40
0.249999999999999
40
0.249999999999999
40
0.374999999999998
40
0.374999999999998
40
0.499999999999997
40
0.499999999999997
40
0.749999999999999
40
0.749999999999999
40
1
40
1
40
1
40
1
41
1
10
-44.15
20
4.88181348904669
30
0
41
1
10
-44.15
20
4.88304587253231
30
0
41
1
10
-44.1502569146169
20
4.88402052262308
30
0
41
1
10
-44.1512466991598
20
4.8854919253198
30
0
41
1
10
-44.1519837129547
20
4.88598288784164
30
0
41
1
10
-44.1547653438365
20
4.88676572873365
30
0
41
1
10
-44.1574101181635
20
4.88639893361716
30
0
41
1
10
-44.1638373738149
20
4.8842744784908
30
0
41
1
10
-44.1675465419207
20
4.88254912621156
30
0
41
1
10
-44.1757372414659
20
4.87807103243495
30
0
41
1
10
-44.1802613014627
20
4.87528551593903
30
0
41
1
10
-44.1944507164524
20
4.86584230709923
30
0
41
1
10
-44.2047953517104
20
4.85809815464788
30
0
41
1
10
-44.226908544871
20
4.84025773374526
30
0
41
1
10
-44.2382901766631
20
4.83047151816871
30
0
41
1
10
-44.25
20
4.81983837123676
30
0
0
SPLINE
5
105
100
AcDbEntity
8
SK1
62
256
6
ByLayer
370
18
48
1
60
0
100
AcDbSpline
70
4
71
3
72
20
73
16
40
0
40
0
40
0
40
0
40
0.250000000000001
40
0.250000000000001
40
0.375
40
0.375
40
0.5
40
0.5
40
0.625
40
0.625
40
0.75
40
0.75
40
0.875
40
0.875
40
1
40
1
40
1
40
1
41
1
10
-44.25
20
3.90691933343484
30
0
41
1
10
-44.2382877407461
20
3.91755469230989
30
0
41
1
10
-44.226914977972
20
3.9291538404924
30
0
41
1
10
-44.2103576071414
20
3.94800061365657
30
0
41
1
10
-44.2049751381096
20
3.95447579844804
30
0
41
1
10
-44.1946946812026
20
3.96757872933824
30
0
41
1
10
-44.1897650588918
20
3.97424129760242
30
0
41
1
10
-44.1803754339179
20
3.98781333230758
30
0
41
1
10
-44.1758982216171
20
3.99474806815797
30
0
41
1
10
-44.1675998620729
20
4.00881680180589
30
0
41
1
10
-44.1638730040088
20
4.01578584011736
30
0
41
1
10
-44.1574568338975
20
4.0295601863921
30
0
41
1
10
-44.1547730646344
20
4.03638848137308
30
0
41
1
10
-44.1510607548749
20
4.04907103597191
30
0
41
1
10
-44.15
20
4.05508657455095
30
0
41
1
10
-44.15
20
4.060186355025
30
0
0
SPLINE
5
106
100
AcDbEntity
8
SK1
62
256
6
ByLayer
370
18
48
1
60
0
100
AcDbSpline
70
4
71
3
72
8
73
4
40
0
40
0
40
0
40
0
40
1
40
1
40
1
40
1
41
1
10
-45
20
3.22336418811227
30
0
41
1
10
-44.7505665310593
20
3.45169135649502
30
0
41
1
10
-44.5004720940846
20
3.67947725321508
30
0
41
1
10
-44.25
20
3.90691933343484
30
0
0
SPLINE
5
107
100
AcDbEntity
8
1
62
256
6
ByLayer
370
18
48
1
60
0
100
AcDbSpline
70
4
71
3
72
36
73
32
40
0
40
0
40
0
40
0
40
1.96449771331E-05
40
3.67579456907E-05
40
5.16508086765E-05
40
6.495207016E-05
40
7.64179970564E-05
40
8.68000360641E-05
40
9.67035490568E-05
40
0.0010227042205067
40
0.0017722848191323
40
0.0031627399842957
40
0.0058114519561718
40
0.0110708089084959
40
0.0221550738221697
40
0.0473612574191441
40
0.106276481785587
40
0.149885191597912
40
0.181871111639817
40
0.24108409210898
40
0.303946895276979
40
0.404828655154467
40
0.494262501207735
40
0.596820378703668
40
0.712712695494675
40
0.772705958708556
40
0.818520889046838
40
0.847226255115395
40
0.892800930840452
40
0.95526000223669
40
1
40
1
40
1
40
1
41
1
10
41.3921849477137
20
0.241605238122077
30
0
41
1
10
41.3922177175915
20
0.241598108764038
30
0
41
1
10
41.3922730097676
20
0.241586346571125
30
0
41
1
10
41.3923269197318
20
0.241575851975853
30
0
41
1
10
41.3923407703074
20
0.241581106722435
30
0
41
1
10
41.3922972892501
20
0.24159310981716
30
0
41
1
10
41.3922493093929
20
0.241608706863133
30
0
41
1
10
41.3921877792514
20
0.241627213831663
30
0
41
1
10
41.3899004261806
20
0.242280837214452
30
0
41
1
10
41.3847909017907
20
0.243652281062254
30
0
41
1
10
41.3764460819434
20
0.24595785805235
30
0
41
1
10
41.3630287339342
20
0.249637142434835
30
0
41
1
10
41.3371364613284
20
0.256754738411473
30
0
41
1
10
41.2838474489757
20
0.271395354251354
30
0
41
1
10
41.1667617432063
20
0.303628548270012
30
0
41
1
10
40.8969271946625
20
0.378333541212442
30
0
41
1
10
40.5339797044374
20
0.480681984815249
30
0
41
1
10
40.1512852293035
20
0.591228632180474
30
0
41
1
10
39.7634874458203
20
0.705474028606545
30
0
41
1
10
39.3215908556291
20
0.838881139135992
30
0
41
1
10
38.6836077268079
20
1.0376242784273
30
0
41
1
10
37.9619349900976
20
1.27175653038682
30
0
41
1
10
37.1311522110859
20
1.55365057568713
30
0
41
1
10
36.2614002654707
20
1.86174792570674
30
0
41
1
10
35.4788233550398
20
2.15217873661555
30
0
41
1
10
34.8583779510224
20
2.39079330942991
30
0
41
1
10
34.4828994274801
20
2.53823641007242
30
0
41
1
10
34.1483853473397
20
2.67147191454509
30
0
41
1
10
33.7683129299185
20
2.82509511069301
30
0
41
1
10
33.3446841670616
20
2.999287566547
30
0
41
1
10
33.0486609538335
20
3.12451982267731
30
0
41
1
10
32.9252950511438
20
3.17723073074799
30
0
0
SPLINE
5
108
100
AcDbEntity
8
1
62
256
6
ByLayer
370
18
48
1
60
0
100
AcDbSpline
70
4
71
3
72
17
73
13
40
0
40
0
40
0
40
0
40
0.0144266593880641
40
0.133327713997564
40
0.257672184759492
40
0.339264054005762
40
0.408271037064901
40
0.483203810339182
40
0.575965048809472
40
0.698458196261689
40
0.850738154425523
40
1
40
1
40
1
40
1
41
1
10
70.8689206417721
20
1.18819076983397
30
0
41
1
10
70.8425290709703
20
1.19668013494916
30
0
41
1
10
70.5986881450077
20
1.2753809755078
30
0
41
1
10
70.1290284808033
20
1.43406222715035
30
0
41
1
10
69.5383825754129
20
1.63840767368365
30
0
41
1
10
69.0399453630037
20
1.81651206361767
30
0
41
1
10
68.631803139795
20
1.96530379805475
30
0
41
1
10
68.204607912542
20
2.12411180979859
30
0
41
1
10
67.682302957071
20
2.32256707536402
30
0
41
1
10
67.0230375216568
20
2.58011355696254
30
0
41
1
10
66.2656077014561
20
2.8857160212948
30
0
41
1
10
65.7300414740355
20
3.11074694420336
30
0
41
1
10
65.4656411933113
20
3.2239344150243
30
0
0
SPLINE
5
109
100
AcDbEntity
8
1
62
256
6
ByLayer
370
18
48
1
60
0
100
AcDbSpline
70
4
71
2
72
6
73
3
40
0
40
0
40
0
40
1
40
1
40
1
41
1
10
55.8917447040342
20
-0.0014613233449552
30
0
41
1
10
55.8917091656613
20
-0.0014432355546603
30
0
41
1
10
55.8916736272679
20
-0.001424461165044
30
0
0
SPLINE
5
10A
100
AcDbEntity
8
1
62
256
6
ByLayer
370
18
48
1
60
0
100
AcDbSpline
70
4
71
3
72
38
73
34
40
0
40
0
40
0
40
0
40
0.0500152346065651
40
0.0834950242424244
40
0.107440203128746
40
0.136280086487909
40
0.182284723817176
40
0.217623726761379
40
0.238522986486808
40
0.256999609452421
40
0.277553878251948
40
0.308240374184631
40
0.338742755821944
40
0.375191921091913
40
0.408515894548062
40
0.457967144287742
40
0.502279319352233
40
0.544069969599562
40
0.59151955772769
40
0.629547562499261
40
0.658003047160093
40
0.697864178844332
40
0.733845047944193
40
0.757901886349966
40
0.785873038557501
40
0.813534577051053
40
0.84917441157331
40
0.888901161216345
40
0.918551739901085
40
0.94228824914545
40
0.964811345290668
40
0.996121679983103
40
1
40
1
40
1
40
1
41
1
10
39.5623034725435
20
-5.23443872585062
30
0
41
1
10
39.7597605903381
20
-5.23485179227055
30
0
41
1
10
40.0893797121848
20
-5.23547263219206
30
0
41
1
10
40.5136880002011
20
-5.23608074494342
30
0
41
1
10
40.8540916279993
20
-5.23654687668267
30
0
41
1
10
41.244188656165
20
-5.23705192451661
30
0
41
1
10
41.6792340208445
20
-5.23766580891095
30
0
41
1
10
42.0829192805059
20
-5.23864388019467
30
0
41
1
10
42.3779473673998
20
-5.23944620123135
30
0
41
1
10
42.6142697953561
20
-5.24001230075831
30
0
41
1
10
42.8895036983741
20
-5.24053550100615
30
0
41
1
10
43.2121793664952
20
-5.24108454495993
30
0
41
1
10
43.5975115164873
20
-5.24153633777146
30
0
41
1
10
43.9934910855763
20
-5.24188849208244
30
0
41
1
10
44.4642271716155
20
-5.24233760198698
30
0
41
1
10
44.9660298514201
20
-5.24300762486138
30
0
41
1
10
45.501251625345
20
-5.24513153190924
30
0
41
1
10
46.028568336209
20
-5.24636410097392
30
0
41
1
10
46.5311083618843
20
-5.24661982817693
30
0
41
1
10
46.9808839975564
20
-5.2468201890859
30
0
41
1
10
47.4010281637066
20
-5.24701085081782
30
0
41
1
10
47.8112944819618
20
-5.24721678013927
30
0
41
1
10
48.2069101116547
20
-5.24767879827792
30
0
41
1
10
48.551708437111
20
-5.24950289302313
30
0
41
1
10
48.8665826142446
20
-5.25054662107971
30
0
41
1
10
49.2268980391082
20
-5.25127772482458
30
0
41
1
10
49.6337216606
20
-5.25180803206607
30
0
41
1
10
50.0483690670517
20
-5.25226992231129
30
0
41
1
10
50.4160241847084
20
-5.25259557963633
30
0
41
1
10
50.7157511461135
20
-5.25286024233603
30
0
41
1
10
51.0220309348372
20
-5.25320146767129
30
0
41
1
10
51.2499019439678
20
-5.25356706433172
30
0
41
1
10
51.3888414983243
20
-5.25386487708869
30
0
41
1
10
51.4041547280114
20
-5.25389846017055
30
0
0
SPLINE
5
10B
100
AcDbEntity
8
1
62
256
6
ByLayer
370
18
48
1
60
0
100
AcDbSpline
70
4
71
3
72
17
73
13
40
0
40
0
40
0
40
0
40
0.154972039833976
40
0.26355528291981
40
0.334687898074512
40
0.411896110078333
40
0.500714368926948
40
0.581349011163647
40
0.641384632668459
40
0.715937181986067
40
0.84499210107381
40
1
40
1
40
1
40
1
41
1
10
21.5302264485575
20
5.20365064144238
30
0
41
1
10
21.3528425517583
20
5.20322063349022
30
0
41
1
10
21.0511699824944
20
5.20254342976614
30
0
41
1
10
20.6679242547658
20
5.20158963020012
30
0
41
1
10
20.373910048584
20
5.20118623440541
30
0
41
1
10
20.1030433889044
20
5.20092766439498
30
0
41
1
10
19.8225250570043
20
5.20054331150814
30
0
41
1
10
19.5598391279692
20
5.19999410031508
30
0
41
1
10
19.313939617621
20
5.19992868335933
30
0
41
1
10
19.0142795627693
20
5.19957287226356
30
0
41
1
10
18.6030639315111
20
5.19844346508708
30
0
41
1
10
18.2781405094686
20
5.19700656587162
30
0
41
1
10
18.100629474791
20
5.19604509630264
30
0
0
SPLINE
5
10C
100
AcDbEntity
8
1
62
256
6
ByLayer
370
18
48
1
60
0
100
AcDbSpline
70
4
71
3
72
36
73
32
40
0
40
0
40
0
40
0
40
0.048128876891876
40
0.0829835895132706
40
0.111529859378891
40
0.138765604794446
40
0.163159390550224
40
0.185416990624835
40
0.215827496946959
40
0.253117924591794
40
0.279332258549909
40
0.301800561227964
40
0.326903527515834
40
0.361342649152034
40
0.41762109168429
40
0.457299991973152
40
0.48701098508806
40
0.521437431828128
40
0.569175743217632
40
0.603366204146264
40
0.635947909871102
40
0.675938734831512
40
0.716613313842623
40
0.749220986336974
40
0.795316916604614
40
0.832480332789041
40
0.860980719903965
40
0.89314026490955
40
0.94281454854678
40
0.977755032046544
40
1
40
1
40
1
40
1
41
1
10
54.1877326453148
20
5.25875619683581
30
0
41
1
10
53.9973549394911
20
5.25857942765111
30
0
41
1
10
53.669022483929
20
5.25817818189503
30
0
41
1
10
53.2268242079113
20
5.25739754228564
30
0
41
1
10
52.8684145555882
20
5.25665071685705
30
0
41
1
10
52.5505803285597
20
5.25611919665994
30
0
41
1
10
52.2578370729513
20
5.2557228371154
30
0
41
1
10
51.9524719293265
20
5.25523033441891
30
0
41
1
10
51.5960177346472
20
5.25431358072967
30
0
41
1
10
51.2238781217025
20
5.25349073177941
30
0
41
1
10
50.8832136893234
20
5.25303448772121
30
0
41
1
10
50.5908371340243
20
5.25274486004031
30
0
41
1
10
50.2658794770281
20
5.25246921608434
30
0
41
1
10
49.8068975688102
20
5.2520214209377
30
0
41
1
10
49.2904573240843
20
5.25139140930307
30
0
41
1
10
48.7918018010555
20
5.25046601770774
30
0
41
1
10
48.382366562956
20
5.24856504058562
30
0
41
1
10
47.9385369296043
20
5.24708133162522
30
0
41
1
10
47.4790063752327
20
5.24709716544444
30
0
41
1
10
47.0250835598683
20
5.24682567789657
30
0
41
1
10
46.6020781142775
20
5.24666955200428
30
0
41
1
10
46.153324364954
20
5.24639071679047
30
0
41
1
10
45.7044846566519
20
5.24577083524682
30
0
41
1
10
45.2314525048737
20
5.24400661213878
30
0
41
1
10
44.7723355563343
20
5.2426763803642
30
0
41
1
10
44.3294845486687
20
5.24221047159347
30
0
41
1
10
43.9418720742951
20
5.2418416762132
30
0
41
1
10
43.5046234145021
20
5.24145579478085
30
0
41
1
10
43.0422408059291
20
5.24082813533076
30
0
41
1
10
42.6187523278228
20
5.24004744579972
30
0
41
1
10
42.3923003511499
20
5.23946766588918
30
0
41
1
10
42.3041992872436
20
5.23923791214713
30
0
0
SPLINE
5
10D
100
AcDbEntity
8
1
62
256
6
ByLayer
370
18
48
1
60
0
100
AcDbSpline
70
4
71
3
72
9
73
5
40
0
40
0
40
0
40
0
40
0.758738630996367
40
1
40
1
40
1
40
1
41
1
10
18.100629474791
20
-5.19604509630264
30
0
41
1
10
18.2781405094686
20
-5.19700656587162
30
0
41
1
10
18.5118241233869
20
-5.19803997798886
30
0
41
1
10
18.7459239062055
20
-5.1987928973343
30
0
41
1
10
18.802372253565
20
-5.19895625501115
30
0
0
LINE
5
82
100
AcDbEntity
8
4
62
256
6
ByLayer
370
18
48
0.05
60
0
100
AcDbLine
10
0
20
0
30
0
11
73
21
0
31
0
39
0
210
0
220
0
230
1
0
LINE
5
84
100
AcDbEntity
8
81
62
256
6
ByLayer
370
18
48
1
60
0
100
AcDbLine
10
73
20
0
30
0
11
76
21
0
31
0
39
0
210
0
220
0
230
1
0
LINE
5
85
100
AcDbEntity
8
80
62
256
6
ByLayer
370
18
48
1
60
0
100
AcDbLine
10
0
20
0
30
0
11
-3
21
0
31
0
39
0
210
0
220
0
230
1
0
LINE
5
86
100
AcDbEntity
8
SK4
62
256
6
ByLayer
370
18
48
0.05
60
0
100
AcDbLine
10
-48
20
0
30
0
11
76
21
0
31
0
39
0
210
0
220
0
230
1
0
LINE
5
88
100
AcDbEntity
8
1
62
256
6
ByLayer
370
18
48
1
60
0
100
AcDbLine
10
0
20
6
30
0
11
0
21
-6
31
0
39
0
210
0
220
0
230
1
0
LINE
5
89
100
AcDbEntity
8
1
62
256
6
ByLayer
370
13
48
1
60
0
100
AcDbLine
10
72.87848
20
0.564103
30
0
11
71.740635
21
1.706251
31
0
39
0
210
0
220
0
230
1
0
LINE
5
8A
100
AcDbEntity
8
1
62
256
6
ByLayer
370
13
48
1
60
0
100
AcDbLine
10
0.634504
20
-5.687242
30
0
11
0.634504
21
5.687242
31
0
39
0
210
0
220
0
230
1
0
LINE
5
8B
100
AcDbEntity
8
1
62
256
6
ByLayer
370
18
48
1
60
0
100
AcDbLine
10
18.000168
20
5.404598
30
0
11
18.000168
21
2.663223
31
0
39
0
210
0
220
0
230
1
0
LINE
5
8C
100
AcDbEntity
8
1
62
256
6
ByLayer
370
18
48
1
60
0
100
AcDbLine
10
18.000168
20
-5.147677
30
0
11
18.000168
21
-5.404598
31
0
39
0
210
0
220
0
230
1
0
LINE
5
8D
100
AcDbEntity
8
1
62
256
6
ByLayer
370
18
48
1
60
0
100
AcDbLine
10
18.000168
20
1.9997
30
0
11
18.000168
21
1.921653
31
0
39
0
210
0
220
0
230
1
0
LINE
5
8E
100
AcDbEntity
8
1
62
256
6
ByLayer
370
13
48
1
60
0
100
AcDbLine
10
1.270448
20
-5.374485
30
0
11
1.270448
21
5.374485
31
0
39
0
210
0
220
0
230
1
0
LINE
5
8F
100
AcDbEntity
8
SK1
62
256
6
ByLayer
370
18
48
1
60
0
100
AcDbLine
10
-45
20
4.136283
30
0
11
-45
21
3.617712
31
0
39
0
210
0
220
0
230
1
0
LINE
5
91
100
AcDbEntity
8
SK1
62
256
6
ByLayer
370
13
48
1
60
0
100
AcDbLine
10
-44.25
20
3.906801
30
0
11
-44.25
21
4.819838
31
0
39
0
210
0
220
0
230
1
0
LINE
5
92
100
AcDbEntity
8
SK1
62
256
6
ByLayer
370
18
48
1
60
0
100
AcDbLine
10
-44.15
20
4.060186
30
0
11
-44.15
21
4.881813
31
0
39
0
210
0
220
0
230
1
0
LINE
5
93
100
AcDbEntity
8
SK1
62
256
6
ByLayer
370
18
48
1
60
0
100
AcDbLine
10
-45
20
-4.255
30
0
11
-45
21
3.223364
31
0
39
0
210
0
220
0
230
1
0
LINE
5
94
100
AcDbEntity
8
SK1
62
256
6
ByLayer
370
18
48
1
60
0
100
AcDbLine
10
-45
20
4.136283
30
0
11
-45
21
4.255
31
0
39
0
210
0
220
0
230
1
0
LINE
5
95
100
AcDbEntity
8
SK1
62
256
6
ByLayer
370
18
48
1
60
0
100
AcDbLine
10
-43.255
20
-6
30
0
11
-43.255
21
6
31
0
39
0
210
0
220
0
230
1
0
LINE
5
96
100
AcDbEntity
8
SK1
62
256
6
ByLayer
370
18
48
1
60
0
100
AcDbLine
10
0
20
6
30
0
11
0
21
-6
31
0
39
0
210
0
220
0
230
1
0
LINE
5
97
100
AcDbEntity
8
1
62
256
6
ByLayer
370
18
48
1
60
0
100
AcDbLine
10
1.270448
20
-5.374485
30
0
11
18.000168
21
-5.404598
31
0
39
0
210
0
220
0
230
1
0
LINE
5
98
100
AcDbEntity
8
1
62
256
6
ByLayer
370
18
48
1
60
0
100
AcDbLine
10
21.531973
20
-5.410955
30
0
11
23.115989
21
-5.413807
31
0
39
0
210
0
220
0
230
1
0
LINE
5
99
100
AcDbEntity
8
1
62
256
6
ByLayer
370
18
48
1
60
0
100
AcDbLine
10
38.283302
20
-5.441108
30
0
11
39.5636
21
-5.443412
31
0
39
0
210
0
220
0
230
1
0
LINE
5
9A
100
AcDbEntity
8
1
62
256
6
ByLayer
370
18
48
1
60
0
100
AcDbLine
10
54.186572
20
-5.469734
30
0
11
55.684452
21
-5.47243
31
0
39
0
210
0
220
0
230
1
0
LINE
5
9B
100
AcDbEntity
8
1
62
256
6
ByLayer
370
18
48
1
60
0
100
AcDbLine
10
55.684452
20
5.47243
30
0
11
54.186572
21
5.469734
31
0
39
0
210
0
220
0
230
1
0
LINE
5
9C
100
AcDbEntity
8
1
62
256
6
ByLayer
370
18
48
1
60
0
100
AcDbLine
10
39.5636
20
5.443412
30
0
11
38.283302
21
5.441108
31
0
39
0
210
0
220
0
230
1
0
LINE
5
9D
100
AcDbEntity
8
1
62
256
6
ByLayer
370
18
48
1
60
0
100
AcDbLine
10
23.115989
20
5.413807
30
0
11
21.531973
21
5.410955
31
0
39
0
210
0
220
0
230
1
0
LINE
5
9E
100
AcDbEntity
8
1
62
256
6
ByLayer
370
18
48
1
60
0
100
AcDbLine
10
18.000168
20
5.404598
30
0
11
1.270448
21
5.374485
31
0
39
0
210
0
220
0
230
1
0
LINE
5
9F
100
AcDbEntity
8
SK1
62
256
6
ByLayer
370
18
48
1
60
0
100
AcDbLine
10
-45
20
-4.255
30
0
11
-43.255
21
-6
31
0
39
0
210
0
220
0
230
1
0
LINE
5
A0
100
AcDbEntity
8
SK1
62
256
6
ByLayer
370
18
48
1
60
0
100
AcDbLine
10
-43.255
20
6
30
0
11
-45
21
4.255
31
0
39
0
210
0
220
0
230
1
0
LINE
5
A1
100
AcDbEntity
8
SK1
62
256
6
ByLayer
370
18
48
1
60
0
100
AcDbLine
10
-43.255
20
-6
30
0
11
0
21
-6
31
0
39
0
210
0
220
0
230
1
0
LINE
5
A2
100
AcDbEntity
8
SK1
62
256
6
ByLayer
370
18
48
1
60
0
100
AcDbLine
10
0
20
6
30
0
11
-43.255
21
6
31
0
39
0
210
0
220
0
230
1
0
LINE
5
A3
100
AcDbEntity
8
2
62
256
6
ByLayer
370
13
48
1
60
0
100
AcDbLine
10
80.5
20
-5.5
30
0
11
80.5
21
27.083885
31
0
39
0
210
0
220
0
230
1
0
LINE
5
A5
100
AcDbEntity
8
2
62
256
6
ByLayer
370
13
48
1
60
0
100
AcDbLine
10
74.5875
20
5.5
30
0
11
82.5
21
5.5
31
0
39
0
210
0
220
0
230
1
0
LINE
5
A6
100
AcDbEntity
8
2
62
256
6
ByLayer
370
13
48
1
60
0
100
AcDbLine
10
74.5875
20
-5.5
30
0
11
82.5
21
-5.5
31
0
39
0
210
0
220
0
230
1
0
LINE
5
A7
100
AcDbEntity
8
1
62
256
6
ByLayer
370
18
48
1
60
1
100
AcDbLine
10
80.5
20
5.5
30
0
11
80.960784
21
2.000002
31
0
39
0
210
0
220
0
230
1
0
LINE
5
A8
100
AcDbEntity
8
1
62
256
6
ByLayer
370
18
48
1
60
1
100
AcDbLine
10
80.960784
20
2.000002
30
0
11
80.039216
21
1.999998
31
0
39
0
210
0
220
0
230
1
0
LINE
5
A9
100
AcDbEntity
8
1
62
256
6
ByLayer
370
18
48
1
60
1
100
AcDbLine
10
80.039216
20
1.999998
30
0
11
80.5
21
5.5
31
0
39
0
210
0
220
0
230
1
0
LINE
5
AA
100
AcDbEntity
8
1
62
256
6
ByLayer
370
18
48
1
60
1
100
AcDbLine
10
80.5
20
-5.5
30
0
11
80.039216
21
-2.000002
31
0
39
0
210
0
220
0
230
1
0
LINE
5
AB
100
AcDbEntity
8
1
62
256
6
ByLayer
370
18
48
1
60
1
100
AcDbLine
10
80.039216
20
-2.000002
30
0
11
80.960784
21
-1.999998
31
0
39
0
210
0
220
0
230
1
0
LINE
5
AC
100
AcDbEntity
8
1
62
256
6
ByLayer
370
18
48
1
60
1
100
AcDbLine
10
80.960784
20
-1.999998
30
0
11
80.5
21
-5.5
31
0
39
0
210
0
220
0
230
1
0
LINE
5
AD
100
AcDbEntity
8
SK2
62
256
6
ByLayer
370
13
48
1
60
0
100
AcDbLine
10
-53.5
20
-6
30
0
11
-53.5
21
15.333771
31
0
39
0
210
0
220
0
230
1
0
LINE
5
AF
100
AcDbEntity
8
SK2
62
256
6
ByLayer
370
13
48
1
60
0
100
AcDbLine
10
-46.5875
20
6
30
0
11
-55.5
21
6
31
0
39
0
210
0
220
0
230
1
0
LINE
5
B0
100
AcDbEntity
8
SK2
62
256
6
ByLayer
370
13
48
1
60
0
100
AcDbLine
10
-46.5875
20
-6
30
0
11
-55.5
21
-6
31
0
39
0
210
0
220
0
230
1
0
LINE
5
B1
100
AcDbEntity
8
1
62
256
6
ByLayer
370
18
48
1
60
1
100
AcDbLine
10
-53.5
20
6
30
0
11
-53.039216
21
2.500002
31
0
39
0
210
0
220
0
230
1
0
LINE
5
B2
100
AcDbEntity
8
1
62
256
6
ByLayer
370
18
48
1
60
1
100
AcDbLine
10
-53.039216
20
2.500002
30
0
11
-53.960784
21
2.499998
31
0
39
0
210
0
220
0
230
1
0
LINE
5
B3
100
AcDbEntity
8
1
62
256
6
ByLayer
370
18
48
1
60
1
100
AcDbLine
10
-53.960784
20
2.499998
30
0
11
-53.5
21
6
31
0
39
0
210
0
220
0
230
1
0
LINE
5
B4
100
AcDbEntity
8
1
62
256
6
ByLayer
370
18
48
1
60
1
100
AcDbLine
10
-53.5
20
-6
30
0
11
-53.960784
21
-2.500002
31
0
39
0
210
0
220
0
230
1
0
LINE
5
B5
100
AcDbEntity
8
1
62
256
6
ByLayer
370
18
48
1
60
1
100
AcDbLine
10
-53.960784
20
-2.500002
30
0
11
-53.039216
21
-2.499998
31
0
39
0
210
0
220
0
230
1
0
LINE
5
B6
100
AcDbEntity
8
1
62
256
6
ByLayer
370
18
48
1
60
1
100
AcDbLine
10
-53.039216
20
-2.499998
30
0
11
-53.5
21
-6
31
0
39
0
210
0
220
0
230
1
0
LINE
5
B7
100
AcDbEntity
8
SK2
62
256
6
ByLayer
370
13
48
1
60
0
100
AcDbLine
10
73.542996
20
1.491748
30
0
11
81.132147
21
22.341063
31
0
39
0
210
0
220
0
230
1
0
LINE
5
B8
100
AcDbEntity
8
SK2
62
256
6
ByLayer
370
13
48
1
60
0
100
AcDbLine
10
73.542996
20
-1.491748
30
0
11
81.132147
21
-22.341063
31
0
39
0
210
0
220
0
230
1
0
LINE
5
B9
100
AcDbEntity
8
1
62
256
6
ByLayer
370
18
48
1
60
1
100
AcDbLine
10
80.448057
20
20.461696
30
0
11
83.861154
21
19.559986
31
0
39
0
210
0
220
0
230
1
0
LINE
5
BA
100
AcDbEntity
8
1
62
256
6
ByLayer
370
18
48
1
60
1
100
AcDbLine
10
83.861154
20
19.559986
30
0
11
83.511479
21
18.707335
31
0
39
0
210
0
220
0
230
1
0
LINE
5
BB
100
AcDbEntity
8
1
62
256
6
ByLayer
370
18
48
1
60
1
100
AcDbLine
10
83.511479
20
18.707335
30
0
11
80.448057
21
20.461696
31
0
39
0
210
0
220
0
230
1
0
LINE
5
BC
100
AcDbEntity
8
1
62
256
6
ByLayer
370
18
48
1
60
1
100
AcDbLine
10
80.448057
20
-20.461696
30
0
11
83.511476
21
-18.707336
31
0
39
0
210
0
220
0
230
1
0
LINE
5
BD
100
AcDbEntity
8
1
62
256
6
ByLayer
370
18
48
1
60
1
100
AcDbLine
10
83.511476
20
-18.707336
30
0
11
83.861157
21
-19.559985
31
0
39
0
210
0
220
0
230
1
0
LINE
5
BE
100
AcDbEntity
8
1
62
256
6
ByLayer
370
18
48
1
60
1
100
AcDbLine
10
83.861157
20
-19.559985
30
0
11
80.448057
21
-20.461696
31
0
39
0
210
0
220
0
230
1
0
LINE
5
10E
100
AcDbEntity
8
1
62
256
6
ByLayer
370
13
48
0.05
60
0
100
AcDbLine
10
-51.5
20
0
30
0
11
77.506526
21
0
31
0
39
0
210
0
220
0
230
1
0
LINE
5
113
100
AcDbEntity
8
1
62
256
6
ByLayer
370
18
48
1
60
1
100
AcDbLine
10
80.5
20
5.5
30
0
11
80.960784
21
2.000002
31
0
39
0
210
0
220
0
230
1
0
LINE
5
114
100
AcDbEntity
8
1
62
256
6
ByLayer
370
18
48
1
60
1
100
AcDbLine
10
80.960784
20
2.000002
30
0
11
80.039216
21
1.999998
31
0
39
0
210
0
220
0
230
1
0
LINE
5
115
100
AcDbEntity
8
1
62
256
6
ByLayer
370
18
48
1
60
1
100
AcDbLine
10
80.039216
20
1.999998
30
0
11
80.5
21
5.5
31
0
39
0
210
0
220
0
230
1
0
LINE
5
117
100
AcDbEntity
8
1
62
256
6
ByLayer
370
18
48
1
60
1
100
AcDbLine
10
80.5
20
-5.5
30
0
11
80.039216
21
-2.000002
31
0
39
0
210
0
220
0
230
1
0
LINE
5
118
100
AcDbEntity
8
1
62
256
6
ByLayer
370
18
48
1
60
1
100
AcDbLine
10
80.039216
20
-2.000002
30
0
11
80.960784
21
-1.999998
31
0
39
0
210
0
220
0
230
1
0
LINE
5
119
100
AcDbEntity
8
1
62
256
6
ByLayer
370
18
48
1
60
1
100
AcDbLine
10
80.960784
20
-1.999998
30
0
11
80.5
21
-5.5
31
0
39
0
210
0
220
0
230
1
0
LINE
5
11D
100
AcDbEntity
8
1
62
256
6
ByLayer
370
18
48
1
60
1
100
AcDbLine
10
-53.5
20
6
30
0
11
-53.039216
21
2.500002
31
0
39
0
210
0
220
0
230
1
0
LINE
5
11E
100
AcDbEntity
8
1
62
256
6
ByLayer
370
18
48
1
60
1
100
AcDbLine
10
-53.039216
20
2.500002
30
0
11
-53.960784
21
2.499998
31
0
39
0
210
0
220
0
230
1
0
LINE
5
11F
100
AcDbEntity
8
1
62
256
6
ByLayer
370
18
48
1
60
1
100
AcDbLine
10
-53.960784
20
2.499998
30
0
11
-53.5
21
6
31
0
39
0
210
0
220
0
230
1
0
LINE
5
121
100
AcDbEntity
8
1
62
256
6
ByLayer
370
18
48
1
60
1
100
AcDbLine
10
-53.5
20
-6
30
0
11
-53.960784
21
-2.500002
31
0
39
0
210
0
220
0
230
1
0
LINE
5
122
100
AcDbEntity
8
1
62
256
6
ByLayer
370
18
48
1
60
1
100
AcDbLine
10
-53.960784
20
-2.500002
30
0
11
-53.039216
21
-2.499998
31
0
39
0
210
0
220
0
230
1
0
LINE
5
123
100
AcDbEntity
8
1
62
256
6
ByLayer
370
18
48
1
60
1
100
AcDbLine
10
-53.039216
20
-2.499998
30
0
11
-53.5
21
-6
31
0
39
0
210
0
220
0
230
1
0
LINE
5
126
100
AcDbEntity
8
1
62
256
6
ByLayer
370
18
48
1
60
1
100
AcDbLine
10
80.448057
20
20.461696
30
0
11
83.861154
21
19.559986
31
0
39
0
210
0
220
0
230
1
0
LINE
5
127
100
AcDbEntity
8
1
62
256
6
ByLayer
370
18
48
1
60
1
100
AcDbLine
10
83.861154
20
19.559986
30
0
11
83.511479
21
18.707335
31
0
39
0
210
0
220
0
230
1
0
LINE
5
128
100
AcDbEntity
8
1
62
256
6
ByLayer
370
18
48
1
60
1
100
AcDbLine
10
83.511479
20
18.707335
30
0
11
80.448057
21
20.461696
31
0
39
0
210
0
220
0
230
1
0
LINE
5
12A
100
AcDbEntity
8
1
62
256
6
ByLayer
370
18
48
1
60
1
100
AcDbLine
10
80.448057
20
-20.461696
30
0
11
83.511476
21
-18.707336
31
0
39
0
210
0
220
0
230
1
0
LINE
5
12B
100
AcDbEntity
8
1
62
256
6
ByLayer
370
18
48
1
60
1
100
AcDbLine
10
83.511476
20
-18.707336
30
0
11
83.861157
21
-19.559985
31
0
39
0
210
0
220
0
230
1
0
LINE
5
12C
100
AcDbEntity
8
1
62
256
6
ByLayer
370
18
48
1
60
1
100
AcDbLine
10
83.861157
20
-19.559985
30
0
11
80.448057
21
-20.461696
31
0
39
0
210
0
220
0
230
1
0
MTEXT
5
10F
100
AcDbEntity
8
2
62
256
6
ByLayer
370
18
48
1
60
0
100
AcDbMText
10
79.158886
20
19.158438
30
0
210
0
220
0
230
1
1
%%c
40
3
41
0
44
1.084337
50
90
71
7
72
5
7
iso_b_vert
0
MTEXT
5
112
100
AcDbEntity
8
2
62
256
6
ByLayer
370
18
48
1
60
0
100
AcDbMText
10
79.158886
20
25.135
30
0
210
0
220
0
230
1
1
\W0.4657;11
40
3
41
0
44
1.084337
50
90
71
7
72
5
7
iso_b_vert
0
MTEXT
5
11B
100
AcDbEntity
8
SK2
62
256
6
ByLayer
370
18
48
1
60
0
100
AcDbMText
10
-54.841114
20
6.658437
30
0
210
0
220
0
230
1
1
%%c
40
3
41
0
44
1.084337
50
90
71
7
72
5
7
iso_b_vert
0
MTEXT
5
11C
100
AcDbEntity
8
SK2
62
256
6
ByLayer
370
18
48
1
60
0
100
AcDbMText
10
-54.841114
20
12.635
30
0
210
0
220
0
230
1
1
\W0.5321;12
40
3
41
0
44
1.084337
50
90
71
7
72
5
7
iso_b_vert
0
MTEXT
5
125
100
AcDbEntity
8
SK2
62
256
6
ByLayer
370
18
48
1
60
0
100
AcDbMText
10
91.334434
20
-2.114886
30
0
210
0
220
0
230
1
1
\W0.7071;140%%d
40
3
41
0
44
1.084337
50
0
71
7
72
5
7
iso_b_vert
0
MTEXT
5
12E
100
AcDbEntity
8
SK6
62
256
6
ByLayer
370
18
48
1
60
0
100
AcDbMText
10
-8.653337
20
-83.981039
30
0
210
0
220
0
230
1
1
\W0.7307;860.1-1100-055A1-SD S2BM
40
3
41
0
44
1.084337
50
0
71
7
72
5
7
iso_b_vert
0
HATCH
5
116
100
AcDbEntity
8
2
62
256
6
ByLayer
370
13
48
1
60
0
100
AcDbHatch
10
0
20
0
30
0
210
0
220
0
230
1
2
ANSI31
70
0
71
0
91
1
92
5
93
3
72
1
10
80.5
20
5.5
11
80.9607837415528
21
2.00000169255318
72
1
10
80.9607837415528
20
2.00000169255318
11
80.0392162584472
21
1.99999830744682
72
1
10
80.0392162584472
20
1.99999830744682
11
80.5
21
5.5
97
0
75
0
76
1
52
0
41
0.0062
77
0
78
1
53
45
43
0
44
0
45
-0.0139193969876572
46
0.0139193969876572
79
0
47
0
98
1
10
0
20
0
0
HATCH
5
11A
100
AcDbEntity
8
2
62
256
6
ByLayer
370
13
48
1
60
0
100
AcDbHatch
10
0
20
0
30
0
210
0
220
0
230
1
2
ANSI31
70
0
71
0
91
1
92
5
93
3
72
1
10
80.5
20
-5.5
11
80.0392162584472
21
-2.00000169255318
72
1
10
80.0392162584472
20
-2.00000169255318
11
80.9607837415528
21
-1.99999830744682
72
1
10
80.9607837415528
20
-1.99999830744682
11
80.5
21
-5.5
97
0
75
0
76
1
52
0
41
0.0062
77
0
78
1
53
45
43
0
44
0
45
-0.0139193969876572
46
0.0139193969876572
79
0
47
0
98
1
10
0
20
0
0
HATCH
5
120
100
AcDbEntity
8
SK2
62
256
6
ByLayer
370
13
48
1
60
0
100
AcDbHatch
10
0
20
0
30
0
210
0
220
0
230
1
2
ANSI31
70
0
71
0
91
1
92
5
93
3
72
1
10
-53.5
20
6
11
-53.0392162584472
21
2.50000169255318
72
1
10
-53.0392162584472
20
2.50000169255318
11
-53.9607837415528
21
2.49999830744682
72
1
10
-53.9607837415528
20
2.49999830744682
11
-53.5
21
6
97
0
75
0
76
1
52
0
41
0.0062
77
0
78
1
53
45
43
0
44
0
45
-0.0139193969876572
46
0.0139193969876572
79
0
47
0
98
1
10
0
20
0
0
HATCH
5
124
100
AcDbEntity
8
SK2
62
256
6
ByLayer
370
13
48
1
60
0
100
AcDbHatch
10
0
20
0
30
0
210
0
220
0
230
1
2
ANSI31
70
0
71
0
91
1
92
5
93
3
72
1
10
-53.5
20
-6
11
-53.9607837415528
21
-2.50000169255318
72
1
10
-53.9607837415528
20
-2.50000169255318
11
-53.0392162584472
21
-2.49999830744682
72
1
10
-53.0392162584472
20
-2.49999830744682
11
-53.5
21
-6
97
0
75
0
76
1
52
0
41
0.0062
77
0
78
1
53
45
43
0
44
0
45
-0.0139193969876572
46
0.0139193969876572
79
0
47
0
98
1
10
0
20
0
0
HATCH
5
129
100
AcDbEntity
8
SK2
62
256
6
ByLayer
370
13
48
1
60
0
100
AcDbHatch
10
0
20
0
30
0
210
0
220
0
230
1
2
ANSI31
70
0
71
0
91
1
92
5
93
3
72
1
10
80.4480573272285
20
20.4616959539244
11
83.8611540823314
21
19.5599862728651
72
1
10
83.8611540823314
20
19.5599862728651
11
83.5114789043768
21
18.7073351743192
72
1
10
83.5114789043768
20
18.7073351743192
11
80.4480573272285
21
20.4616959539244
97
0
75
0
76
1
52
0
41
0.0062
77
0
78
1
53
45
43
0
44
0
45
-0.0139193969876572
46
0.0139193969876572
79
0
47
0
98
1
10
0
20
0
0
HATCH
5
12D
100
AcDbEntity
8
SK2
62
256
6
ByLayer
370
13
48
1
60
0
100
AcDbHatch
10
0
20
0
30
0
210
0
220
0
230
1
2
ANSI31
70
0
71
0
91
1
92
5
93
3
72
1
10
80.4480573272285
20
-20.4616959539244
11
83.5114757724191
21
-18.7073364587594
72
1
10
83.5114757724191
20
-18.7073364587594
11
83.861157214289
21
-19.5599849884249
72
1
10
83.861157214289
20
-19.5599849884249
11
80.4480573272285
21
-20.4616959539244
97
0
75
0
76
1
52
0
41
0.0062
77
0
78
1
53
45
43
0
44
0
45
-0.0139193969876572
46
0.0139193969876572
79
0
47
0
98
1
10
0
20
0
0
DIMENSION
5
131
100
AcDbEntity
8
SK2
62
256
6
ByLayer
370
18
48
1
60
0
100
AcDbDimension
2
_U0
10
17.7
20
-44.648662
30
0
11
45.35
21
-44.648662
31
0
70
32
71
1
72
1
41
1
210
0
220
0
230
1
3
Standard
100
AcDbAlignedDimension
13
73
23
-5.5
33
0
14
17.7
24
-5.5
34
0
50
0
100
AcDbRotatedDimension
1001
ACAD
1000
DSTYLE
1002
{
1070
   371
1070
    13
1070
   372
1070
    13
1070
   170
1070
     0
1070
   144
1040
1.0
1070
   277
1070
     2
1070
   284
1070
     8
1070
   278
1070
    46
1070
   146
1040
1.166667
1070
   345
1005
16
1070
   347
1005
16
1070
   346
1005
16
1070
   344
1005
0
1070
   343
1005
0
1070
   172
1070
     1
1070
    76
1070
     0
1070
    75
1070
     0
1070
   282
1070
     0
1070
   281
1070
     0
1070
     3
1000

1070
    71
1070
     0
1070
    74
1070
     0
1070
   279
1070
     0
1070
   173
1070
     1
1070
   340
1005
110
1070
   271
1070
     2
1070
   272
1070
     2
1070
    77
1070
     1
1070
    73
1070
     1
1070
   171
1070
     3
1070
   274
1070
     4
1070
   177
1070
     2
1070
   176
1070
     2
1070
   178
1070
     2
1070
    78
1070
     8
1070
    48
1040
-0.1
1070
    41
1040
3.5
1070
   147
1040
1.5
1070
    42
1040
1.5875
1070
    44
1040
2.0
1070
   140
1040
3.0
1002
}
1001
ACAD_DSTYLE_DIM_LINETYPE
1070
   380
1005
16
1001
ACAD_DSTYLE_DIM_EXT1_LINETYPE
1070
   381
1005
16
1001
ACAD_DSTYLE_DIM_EXT2_LINETYPE
1070
   382
1005
16
0
DIMENSION
5
14C
100
AcDbEntity
8
SK2
62
256
6
ByLayer
370
18
48
1
60
0
100
AcDbDimension
2
_U1
10
2
20
-54.648662
30
0
11
37.5
21
-54.648662
31
0
70
32
71
1
72
1
41
1
210
0
220
0
230
1
3
Standard
100
AcDbAlignedDimension
13
73
23
-5.5
33
0
14
2
24
-5.5
34
0
50
0
100
AcDbRotatedDimension
1001
ACAD
1000
DSTYLE
1002
{
1070
   371
1070
    13
1070
   372
1070
    13
1070
     3
1000

1070
   170
1070
     0
1070
   144
1040
1.0
1070
   277
1070
     2
1070
   284
1070
     8
1070
   278
1070
    46
1070
   146
1040
1.166667
1070
   345
1005
16
1070
   347
1005
16
1070
   346
1005
16
1070
   344
1005
0
1070
   343
1005
0
1070
   172
1070
     1
1070
    76
1070
     0
1070
    75
1070
     0
1070
   282
1070
     0
1070
   281
1070
     0
1070
    71
1070
     0
1070
    74
1070
     0
1070
   279
1070
     0
1070
   173
1070
     1
1070
   340
1005
110
1070
   271
1070
     2
1070
   272
1070
     2
1070
    77
1070
     1
1070
    73
1070
     1
1070
   171
1070
     3
1070
   274
1070
     4
1070
   177
1070
     2
1070
   176
1070
     2
1070
   178
1070
     2
1070
    78
1070
     8
1070
    48
1040
-0.1
1070
    41
1040
3.5
1070
   147
1040
1.5
1070
    42
1040
1.5875
1070
    44
1040
2.0
1070
   140
1040
3.0
1002
}
1001
ACAD_DSTYLE_DIM_LINETYPE
1070
   380
1005
16
1001
ACAD_DSTYLE_DIM_EXT1_LINETYPE
1070
   381
1005
16
1001
ACAD_DSTYLE_DIM_EXT2_LINETYPE
1070
   382
1005
16
0
DIMENSION
5
164
100
AcDbEntity
8
SK2
62
256
6
ByLayer
370
18
48
1
60
0
100
AcDbDimension
2
_U2
10
0
20
-62.648662
30
0
11
-22.5
21
-62.648662
31
0
70
32
71
1
72
1
41
1
210
0
220
0
230
1
3
Standard
100
AcDbAlignedDimension
13
-45
23
-6
33
0
14
0
24
-6
34
0
50
0
100
AcDbRotatedDimension
1001
ACAD
1000
DSTYLE
1002
{
1070
   371
1070
    13
1070
   372
1070
    13
1070
     3
1000

1070
   170
1070
     0
1070
   144
1040
1.0
1070
   277
1070
     2
1070
   284
1070
     8
1070
   278
1070
    46
1070
   146
1040
1.166667
1070
   345
1005
16
1070
   347
1005
16
1070
   346
1005
16
1070
   344
1005
0
1070
   343
1005
0
1070
   172
1070
     1
1070
    76
1070
     0
1070
    75
1070
     0
1070
   282
1070
     0
1070
   281
1070
     0
1070
    71
1070
     0
1070
    74
1070
     0
1070
   279
1070
     0
1070
   173
1070
     1
1070
   340
1005
110
1070
   271
1070
     2
1070
   272
1070
     2
1070
    77
1070
     1
1070
    73
1070
     1
1070
   171
1070
     3
1070
   274
1070
     4
1070
   177
1070
     2
1070
   176
1070
     2
1070
   178
1070
     2
1070
    78
1070
     8
1070
    48
1040
-0.1
1070
    41
1040
3.5
1070
   147
1040
1.5
1070
    42
1040
1.5875
1070
    44
1040
2.0
1070
   140
1040
3.0
1002
}
1001
ACAD_DSTYLE_DIM_LINETYPE
1070
   380
1005
16
1001
ACAD_DSTYLE_DIM_EXT1_LINETYPE
1070
   381
1005
16
1001
ACAD_DSTYLE_DIM_EXT2_LINETYPE
1070
   382
1005
16
0
DIMENSION
5
17C
100
AcDbEntity
8
SK2
62
256
6
ByLayer
370
18
48
1
60
0
100
AcDbDimension
2
_U3
10
73
20
-70.648662
30
0
11
14
21
-70.648662
31
0
70
32
71
1
72
1
41
1
210
0
220
0
230
1
3
Standard
100
AcDbAlignedDimension
13
-45
23
-6
33
0
14
73
24
-5.5
34
0
50
0
100
AcDbRotatedDimension
1001
ACAD
1000
DSTYLE
1002
{
1070
   371
1070
    13
1070
   372
1070
    13
1070
     3
1000

1070
   170
1070
     0
1070
   144
1040
1.0
1070
   277
1070
     2
1070
   284
1070
     8
1070
   278
1070
    46
1070
   146
1040
1.166667
1070
   345
1005
16
1070
   347
1005
16
1070
   346
1005
16
1070
   344
1005
0
1070
   343
1005
0
1070
   172
1070
     1
1070
    76
1070
     0
1070
    75
1070
     0
1070
   282
1070
     0
1070
   281
1070
     0
1070
    71
1070
     0
1070
    74
1070
     0
1070
   279
1070
     0
1070
   173
1070
     1
1070
   340
1005
110
1070
   271
1070
     2
1070
   272
1070
     2
1070
    77
1070
     1
1070
    73
1070
     1
1070
   171
1070
     3
1070
   274
1070
     4
1070
   177
1070
     2
1070
   176
1070
     2
1070
   178
1070
     2
1070
    78
1070
     8
1070
    48
1040
-0.1
1070
    41
1040
3.5
1070
   147
1040
1.5
1070
    42
1040
1.5875
1070
    44
1040
2.0
1070
   140
1040
3.0
1002
}
1001
ACAD_DSTYLE_DIM_LINETYPE
1070
   380
1005
16
1001
ACAD_DSTYLE_DIM_EXT1_LINETYPE
1070
   381
1005
16
1001
ACAD_DSTYLE_DIM_EXT2_LINETYPE
1070
   382
1005
16
0
DIMENSION
5
194
100
AcDbEntity
8
2
62
256
6
ByLayer
370
18
48
1
60
0
100
AcDbDimension
2
_U4
10
0
20
-62.648662
30
0
11
36.5
21
-62.648662
31
0
70
32
71
1
72
1
41
1
210
0
220
0
230
1
3
Standard
100
AcDbAlignedDimension
13
73
23
-5.5
33
0
14
0
24
-5.5
34
0
50
0
100
AcDbRotatedDimension
1001
ACAD
1000
DSTYLE
1002
{
1070
   371
1070
    13
1070
   372
1070
    13
1070
     3
1000

1070
   170
1070
     0
1070
   144
1040
1.0
1070
   277
1070
     2
1070
   284
1070
     8
1070
   278
1070
    46
1070
   146
1040
1.166667
1070
   345
1005
16
1070
   347
1005
16
1070
   346
1005
16
1070
   344
1005
0
1070
   343
1005
0
1070
   172
1070
     1
1070
    76
1070
     0
1070
    75
1070
     0
1070
   282
1070
     0
1070
   281
1070
     0
1070
    71
1070
     0
1070
    74
1070
     0
1070
   279
1070
     0
1070
   173
1070
     1
1070
   340
1005
110
1070
   271
1070
     2
1070
   272
1070
     2
1070
    77
1070
     1
1070
    73
1070
     1
1070
   171
1070
     3
1070
   274
1070
     4
1070
   177
1070
     2
1070
   176
1070
     2
1070
   178
1070
     2
1070
    78
1070
     8
1070
    48
1040
-0.1
1070
    41
1040
3.5
1070
   147
1040
1.5
1070
    42
1040
1.5875
1070
    44
1040
2.0
1070
   140
1040
3.0
1002
}
1001
ACAD_DSTYLE_DIM_LINETYPE
1070
   380
1005
16
1001
ACAD_DSTYLE_DIM_EXT1_LINETYPE
1070
   381
1005
16
1001
ACAD_DSTYLE_DIM_EXT2_LINETYPE
1070
   382
1005
16
0
ENDSEC
0
SECTION
2
OBJECTS
0
DICTIONARY
5
21c
330
0
100
AcDbDictionary
280
0
281
1
3
ACAD_GROUP
350
21d
3
ACAD_MLINESTYLE
350
21e
0
DICTIONARY
5
21d
330
0
100
AcDbDictionary
280
0
281
1
0
DICTIONARY
5
21e
330
0
100
AcDbDictionary
280
0
281
1
3
Standard
350
18
0
MLINESTYLE
5
18
330
21e
100
AcDbMlineStyle
2
Standard
70
0
3

62
256
51
90
52
90
71
2
49
-0.5
62
256
6
ByLayer
49
0.5
62
256
6
ByLayer
0
RASTERVARIABLES
5
20a
330

100
AcDbRasterVariables
90
0
70
1
71
1
72
1
0
ENDSEC
0
EOF
