0
SECTION
2
HEADER
9
$ACADVER
1
AC1015
9
$DWGCODEPAGE
3
ANSI_1252
9
$HANDSEED
5
226
9
$ANGBASE
50
0
9
$ANGDIR
70
0
9
$ATTMODE
70
1
9
$AUNITS
70
0
9
$AUPREC
70
0
9
$CECOLOR
62
256
9
$CELTSCALE
40
1
9
$CELTYPE
6
ByLayer
9
$CELWEIGHT
370
18
9
$CLAYER
8
0
9
$CMLJUST
70
0
9
$CMLSCALE
40
1
9
$CMLSTYLE
2
Standard
9
$DIMSTYLE
2
Standard
9
$TEXTSIZE
40
0.2
9
$TEXTSTYLE
7
Standard
9
$LUNITS
70
2
9
$LUPREC
70
4
9
$EXTNAMES
290
1
9
$INSUNITS
70
4
9
$LTSCALE
40
1
9
$LWDISPLAY
290
1
9
$PDMODE
70
0
9
$PDSIZE
40
0
9
$PLINEGEN
70
0
0
ENDSEC
0
SECTION
2
CLASSES
0
CLASS
1
RASTERVARIABLES
2
AcDbRasterVariables
3
ISM
90
0
280
0
281
0
0
ENDSEC
0
SECTION
2
TABLES
0
TABLE
2
VPORT
5
21c
100
AcDbSymbolTable
0
VPORT
5
1
100
AcDbSymbolTableRecord
100
AcDbViewportTableRecord
2
*Active
70
0
10
0
20
0
11
1
21
1
12
-1
22
1
13
0
23
0
14
0.5
24
0.5
15
10
25
10
16
0
26
0
36
1
17
0
27
0
37
0
0
ENDTAB
0
TABLE
2
LTYPE
5
21d
100
AcDbSymbolTable
0
LTYPE
5
14
100
AcDbSymbolTableRecord
100
AcDbLinetypeTableRecord
70
0
2
ByBlock
3

72
65
73
0
40
0
0
LTYPE
5
15
100
AcDbSymbolTableRecord
100
AcDbLinetypeTableRecord
70
0
2
ByLayer
3

72
65
73
0
40
0
0
LTYPE
5
16
100
AcDbSymbolTableRecord
100
AcDbLinetypeTableRecord
70
0
2
Continuous
3
Solid line
72
65
73
0
40
0
0
LTYPE
5
6E
100
AcDbSymbolTableRecord
100
AcDbLinetypeTableRecord
70
0
2
CENTER
3
____ _ ____ _ ____ _ ____
72
65
73
4
40
47.5
49
22
74
0
49
-8.5
74
0
49
8.5
74
0
49
-8.5
74
0
0
LTYPE
5
6F
100
AcDbSymbolTableRecord
100
AcDbLinetypeTableRecord
70
0
2
DASHED
3
__ __ __ __ __ __ __ __ __
72
65
73
2
40
25.72
49
12.86
74
0
49
-12.86
74
0
0
ENDTAB
0
TABLE
2
LAYER
5
21e
100
AcDbSymbolTable
0
LAYER
5
10
100
AcDbSymbolTableRecord
100
AcDbLayerTableRecord
2
0
70
0
62
7
6
Continuous
290
1
370
-3
390
0
0
LAYER
5
71
100
AcDbSymbolTableRecord
100
AcDbLayerTableRecord
2
80
70
0
62
-6
6
Continuous
290
1
370
-3
390
0
0
LAYER
5
73
100
AcDbSymbolTableRecord
100
AcDbLayerTableRecord
2
81
70
0
62
-3
6
Continuous
290
1
370
-3
390
0
0
LAYER
5
75
100
AcDbSymbolTableRecord
100
AcDbLayerTableRecord
2
1
70
0
62
4
6
Continuous
290
1
370
-3
390
0
0
LAYER
5
83
100
AcDbSymbolTableRecord
100
AcDbLayerTableRecord
2
4
70
0
62
-2
6
CENTER
290
1
370
-3
390
0
0
LAYER
5
A1
100
AcDbSymbolTableRecord
100
AcDbLayerTableRecord
2
2
70
0
62
7
6
Continuous
290
1
370
-3
390
0
0
LAYER
5
131
100
AcDbSymbolTableRecord
100
AcDbLayerTableRecord
2
Defpoints
70
0
62
7
6
Continuous
290
0
370
-3
390
0
0
LAYER
5
208
100
AcDbSymbolTableRecord
100
AcDbLayerTableRecord
2
SK4
70
0
62
2
6
CENTER
290
1
370
-3
390
0
0
LAYER
5
209
100
AcDbSymbolTableRecord
100
AcDbLayerTableRecord
2
SK1
70
0
62
4
6
Continuous
290
1
370
-3
390
0
0
LAYER
5
20a
100
AcDbSymbolTableRecord
100
AcDbLayerTableRecord
2
SK2
70
0
62
7
6
Continuous
290
1
370
-3
390
0
0
LAYER
5
20b
100
AcDbSymbolTableRecord
100
AcDbLayerTableRecord
2
SK6
70
0
62
5
6
Continuous
290
1
370
-3
390
0
0
ENDTAB
0
TABLE
2
STYLE
5
21f
100
AcDbSymbolTable
0
STYLE
5
11
100
AcDbSymbolTableRecord
100
AcDbTextStyleTableRecord
2
Standard
3
txt
70
0
71
0
40
0
41
1
42
0
50
0
0
STYLE
5
10D
100
AcDbSymbolTableRecord
100
AcDbTextStyleTableRecord
2
iso_b_vert
3
simplex.shx
70
0
71
0
40
0
41
1
42
0
50
0
0
STYLE
5
10E
100
AcDbSymbolTableRecord
100
AcDbTextStyleTableRecord
2
DWGDirectTextStyle
3
simplex
70
0
71
0
40
0
41
1
42
0
50
0
0
ENDTAB
0
TABLE
2
DIMSTYLE
5
220
100
AcDbSymbolTable
100
AcDbDimStyleTable
0
DIMSTYLE
105
27
100
AcDbSymbolTableRecord
100
AcDbDimStyleTableRecord
2
Standard
70
0
3
<>
41
0.18
42
0.0625
44
0.18
140
0.18
147
0.09
73
0
74
0
77
1
271
2
275
0
278
52
280
0
340
11
0
ENDTAB
0
TABLE
2
VIEW
5
221
100
AcDbSymbolTable
0
ENDTAB
0
TABLE
2
UCS
5
222
100
AcDbSymbolTable
0
ENDTAB
0
TABLE
2
APPID
5
223
100
AcDbSymbolTable
0
APPID
5
12
100
AcDbSymbolTableRecord
100
AcDbRegAppTableRecord
2
ACAD
70
0
0
APPID
5
12D
100
AcDbSymbolTableRecord
100
AcDbRegAppTableRecord
2
ACAD_DSTYLE_DIMBREAK
70
0
0
APPID
5
1C7
100
AcDbSymbolTableRecord
100
AcDbRegAppTableRecord
2
ACAD_DSTYLE_DIM_LINETYPE
70
0
0
APPID
5
1C8
100
AcDbSymbolTableRecord
100
AcDbRegAppTableRecord
2
ACAD_DSTYLE_DIM_EXT1_LINETYPE
70
0
0
APPID
5
1C9
100
AcDbSymbolTableRecord
100
AcDbRegAppTableRecord
2
ACAD_DSTYLE_DIM_EXT2_LINETYPE
70
0
0
APPID
5
204
100
AcDbSymbolTableRecord
100
AcDbRegAppTableRecord
2
ACAD_MLEADERVER
70
0
0
ENDTAB
0
TABLE
2
BLOCK_RECORD
5
224
100
AcDbSymbolTable
0
BLOCK_RECORD
5
1F
100
AcDbSymbolTableRecord
100
AcDbBlockTableRecord
2
*Model_Space
340
0
70
0
0
BLOCK_RECORD
5
1B
100
AcDbSymbolTableRecord
100
AcDbBlockTableRecord
2
*Paper_Space
340
0
70
0
0
BLOCK_RECORD
5
23
100
AcDbSymbolTableRecord
100
AcDbBlockTableRecord
2
*Paper_Space0
340
0
70
0
0
BLOCK_RECORD
5
132
100
AcDbSymbolTableRecord
100
AcDbBlockTableRecord
2
*D1
340
0
70
0
0
BLOCK_RECORD
5
13E
100
AcDbSymbolTableRecord
100
AcDbBlockTableRecord
2
_U0
340
0
70
0
0
BLOCK_RECORD
5
14C
100
AcDbSymbolTableRecord
100
AcDbBlockTableRecord
2
*D3
340
0
70
0
0
BLOCK_RECORD
5
158
100
AcDbSymbolTableRecord
100
AcDbBlockTableRecord
2
_U1
340
0
70
0
0
BLOCK_RECORD
5
164
100
AcDbSymbolTableRecord
100
AcDbBlockTableRecord
2
*D5
340
0
70
0
0
BLOCK_RECORD
5
170
100
AcDbSymbolTableRecord
100
AcDbBlockTableRecord
2
_U2
340
0
70
0
0
BLOCK_RECORD
5
17C
100
AcDbSymbolTableRecord
100
AcDbBlockTableRecord
2
*D7
340
0
70
0
0
BLOCK_RECORD
5
188
100
AcDbSymbolTableRecord
100
AcDbBlockTableRecord
2
_U3
340
0
70
0
0
BLOCK_RECORD
5
194
100
AcDbSymbolTableRecord
100
AcDbBlockTableRecord
2
*D9
340
0
70
0
0
BLOCK_RECORD
5
1A0
100
AcDbSymbolTableRecord
100
AcDbBlockTableRecord
2
_U4
340
0
70
0
0
ENDTAB
0
ENDSEC
0
SECTION
2
BLOCKS
0
BLOCK
5
20
100
AcDbEntity
8
0
100
AcDbBlockBegin
2
*Model_Space
70
0
10
0
20
0
30
0
3
*Model_Space
0
ENDBLK
5
21
100
AcDbEntity
8
0
100
AcDbBlockEnd
0
BLOCK
5
1C
100
AcDbEntity
8
0
100
AcDbBlockBegin
2
*Paper_Space
70
0
10
0
20
0
30
0
3
*Paper_Space
0
ENDBLK
5
1D
100
AcDbEntity
8
0
100
AcDbBlockEnd
0
BLOCK
5
24
100
AcDbEntity
8
0
100
AcDbBlockBegin
2
*Paper_Space0
70
0
10
0
20
0
30
0
3
*Paper_Space0
0
ENDBLK
5
25
100
AcDbEntity
8
0
100
AcDbBlockEnd
0
BLOCK
5
133
100
AcDbEntity
8
0
100
AcDbBlockBegin
2
*D1
70
1
10
0
20
0
30
0
3
*D1
0
LINE
5
135
100
AcDbEntity
8
0
62
256
6
ByLayer
370
-2
48
1
60
0
100
AcDbLine
10
57
20
-7.144
30
0
11
57
21
-23.809417
31
0
39
0
210
0
220
0
230
1
0
LINE
5
136
100
AcDbEntity
8
0
62
256
6
ByLayer
370
-2
48
1
60
0
100
AcDbLine
10
21.7
20
-7.144
30
0
11
21.7
21
-23.809417
31
0
39
0
210
0
220
0
230
1
0
LINE
5
137
100
AcDbEntity
8
0
62
256
6
ByLayer
370
-2
48
1
60
0
100
AcDbLine
10
53.5
20
-21.809417
30
0
11
25.2
21
-21.809417
31
0
39
0
210
0
220
0
230
1
0
SOLID
5
138
100
AcDbEntity
8
0
62
256
6
ByLayer
370
-1
48
1
60
0
100
AcDbTrace
10
53.5
20
-22.39275
30
0
11
53.5
21
-21.226083
31
0
12
57
22
-21.809417
32
0
13
57
23
-21.809417
33
0
39
0
210
0
220
0
230
1
0
SOLID
5
139
100
AcDbEntity
8
0
62
256
6
ByLayer
370
-1
48
1
60
0
100
AcDbTrace
10
25.2
20
-21.226083
30
0
11
25.2
21
-22.39275
31
0
12
21.7
22
-21.809417
32
0
13
21.7
23
-21.809417
33
0
39
0
210
0
220
0
230
1
0
MTEXT
5
13A
100
AcDbEntity
8
0
62
256
6
ByLayer
370
18
48
1
60
0
100
AcDbMText
10
39.35
20
-15.809417
30
0
210
0
220
0
230
1
1
\A1;35.3
40
3
41
0
44
1
50
0
71
5
72
5
7
iso_b_vert
0
POINT
5
13B
100
AcDbEntity
8
Defpoints
62
0
6
ByLayer
370
-1
48
1
60
0
100
AcDbPoint
10
57
20
-5.5565
30
0
39
0
210
0
220
0
230
1
50
360
0
POINT
5
13C
100
AcDbEntity
8
Defpoints
62
0
6
ByLayer
370
-1
48
1
60
0
100
AcDbPoint
10
21.7
20
-5.5565
30
0
39
0
210
0
220
0
230
1
50
360
0
POINT
5
13D
100
AcDbEntity
8
Defpoints
62
0
6
ByLayer
370
-1
48
1
60
0
100
AcDbPoint
10
21.7
20
-21.809417
30
0
39
0
210
0
220
0
230
1
50
360
0
ENDBLK
5
134
100
AcDbEntity
8
0
100
AcDbBlockEnd
0
BLOCK
5
147
100
AcDbEntity
8
0
100
AcDbBlockBegin
2
_U0
70
0
10
0
20
0
30
0
3
_U0
0
MTEXT
5
13F
100
AcDbEntity
8
SK2
62
256
6
ByLayer
370
18
48
1
60
0
100
AcDbMText
10
35.988544
20
-19.611802
30
0
210
0
220
0
230
1
1
\W0.7346;35.3
40
3
41
0
44
1.084337
50
0
71
7
72
5
7
iso_b_vert
0
MTEXT
5
140
100
AcDbEntity
8
SK2
62
256
6
ByLayer
370
18
48
1
60
0
100
AcDbMText
10
33.888544
20
-19.611802
30
0
210
0
220
0
230
1
1
\W1.1313;{\H1.88x;(}
40
3
41
0
44
1.084337
50
0
71
7
72
5
7
iso_b_vert
0
MTEXT
5
141
100
AcDbEntity
8
SK2
62
256
6
ByLayer
370
18
48
1
60
0
100
AcDbMText
10
43.029456
20
-19.611802
30
0
210
0
220
0
230
1
1
\W1.1313;{\H1.88x;)}
40
3
41
0
44
1.084337
50
0
71
7
72
5
7
iso_b_vert
0
LINE
5
142
100
AcDbEntity
8
SK2
62
256
6
ByLayer
370
13
48
1
60
0
100
AcDbLine
10
57
20
-7.144
30
0
11
57
21
-23.809417
31
0
39
0
210
0
220
0
230
1
0
LINE
5
143
100
AcDbEntity
8
SK2
62
256
6
ByLayer
370
13
48
1
60
0
100
AcDbLine
10
21.7
20
-7.144
30
0
11
21.7
21
-23.809417
31
0
39
0
210
0
220
0
230
1
0
LINE
5
144
100
AcDbEntity
8
SK2
62
256
6
ByLayer
370
13
48
1
60
0
100
AcDbLine
10
57
20
-21.809417
30
0
11
21.7
21
-21.809417
31
0
39
0
210
0
220
0
230
1
0
SOLID
5
145
100
AcDbEntity
8
SK2
62
256
6
ByLayer
370
18
48
1
60
0
100
AcDbTrace
10
57
20
-21.809417
30
0
11
53.500002
21
-22.270201
31
0
12
53.499998
22
-21.348633
32
0
13
53.499998
23
-21.348633
33
0
39
0
210
0
220
0
230
1
0
SOLID
5
146
100
AcDbEntity
8
SK2
62
256
6
ByLayer
370
18
48
1
60
0
100
AcDbTrace
10
21.7
20
-21.809417
30
0
11
25.199998
21
-21.348633
31
0
12
25.200002
22
-22.270201
32
0
13
25.200002
23
-22.270201
33
0
39
0
210
0
220
0
230
1
0
ENDBLK
5
148
100
AcDbEntity
8
0
100
AcDbBlockEnd
0
BLOCK
5
14D
100
AcDbEntity
8
0
100
AcDbBlockBegin
2
*D3
70
1
10
0
20
0
30
0
3
*D3
0
LINE
5
14F
100
AcDbEntity
8
0
62
256
6
ByLayer
370
-2
48
1
60
0
100
AcDbLine
10
57
20
-7.144
30
0
11
57
21
-33.809417
31
0
39
0
210
0
220
0
230
1
0
LINE
5
150
100
AcDbEntity
8
0
62
256
6
ByLayer
370
-2
48
1
60
0
100
AcDbLine
10
2
20
-7.144
30
0
11
2
21
-33.809417
31
0
39
0
210
0
220
0
230
1
0
LINE
5
151
100
AcDbEntity
8
0
62
256
6
ByLayer
370
-2
48
1
60
0
100
AcDbLine
10
53.5
20
-31.809417
30
0
11
5.5
21
-31.809417
31
0
39
0
210
0
220
0
230
1
0
SOLID
5
152
100
AcDbEntity
8
0
62
256
6
ByLayer
370
-1
48
1
60
0
100
AcDbTrace
10
53.5
20
-32.39275
30
0
11
53.5
21
-31.226083
31
0
12
57
22
-31.809417
32
0
13
57
23
-31.809417
33
0
39
0
210
0
220
0
230
1
0
SOLID
5
153
100
AcDbEntity
8
0
62
256
6
ByLayer
370
-1
48
1
60
0
100
AcDbTrace
10
5.5
20
-31.226083
30
0
11
5.5
21
-32.39275
31
0
12
2
22
-31.809417
32
0
13
2
23
-31.809417
33
0
39
0
210
0
220
0
230
1
0
MTEXT
5
154
100
AcDbEntity
8
0
62
256
6
ByLayer
370
18
48
1
60
0
100
AcDbMText
10
29.5
20
-25.809417
30
0
210
0
220
0
230
1
1
\A1;55
40
3
41
0
44
1
50
0
71
5
72
5
7
iso_b_vert
0
POINT
5
155
100
AcDbEntity
8
Defpoints
62
0
6
ByLayer
370
-1
48
1
60
0
100
AcDbPoint
10
57
20
-5.5565
30
0
39
0
210
0
220
0
230
1
50
360
0
POINT
5
156
100
AcDbEntity
8
Defpoints
62
0
6
ByLayer
370
-1
48
1
60
0
100
AcDbPoint
10
2
20
-5.5565
30
0
39
0
210
0
220
0
230
1
50
360
0
POINT
5
157
100
AcDbEntity
8
Defpoints
62
0
6
ByLayer
370
-1
48
1
60
0
100
AcDbPoint
10
2
20
-31.809417
30
0
39
0
210
0
220
0
230
1
50
360
0
ENDBLK
5
14E
100
AcDbEntity
8
0
100
AcDbBlockEnd
0
BLOCK
5
15F
100
AcDbEntity
8
0
100
AcDbBlockBegin
2
_U1
70
0
10
0
20
0
30
0
3
_U1
0
MTEXT
5
159
100
AcDbEntity
8
SK2
62
256
6
ByLayer
370
18
48
1
60
0
100
AcDbMText
10
27.867172
20
-30.924302
30
0
210
0
220
0
230
1
1
\W0.6740;55
40
3
41
0
44
1.084337
50
0
71
7
72
5
7
iso_b_vert
0
LINE
5
15A
100
AcDbEntity
8
SK2
62
256
6
ByLayer
370
13
48
1
60
0
100
AcDbLine
10
57
20
-7.144
30
0
11
57
21
-33.809417
31
0
39
0
210
0
220
0
230
1
0
LINE
5
15B
100
AcDbEntity
8
SK2
62
256
6
ByLayer
370
13
48
1
60
0
100
AcDbLine
10
2
20
-7.144
30
0
11
2
21
-33.809417
31
0
39
0
210
0
220
0
230
1
0
LINE
5
15C
100
AcDbEntity
8
SK2
62
256
6
ByLayer
370
13
48
1
60
0
100
AcDbLine
10
57
20
-31.809417
30
0
11
2
21
-31.809417
31
0
39
0
210
0
220
0
230
1
0
SOLID
5
15D
100
AcDbEntity
8
SK2
62
256
6
ByLayer
370
18
48
1
60
0
100
AcDbTrace
10
57
20
-31.809417
30
0
11
53.500002
21
-32.270201
31
0
12
53.499998
22
-31.348633
32
0
13
53.499998
23
-31.348633
33
0
39
0
210
0
220
0
230
1
0
SOLID
5
15E
100
AcDbEntity
8
SK2
62
256
6
ByLayer
370
18
48
1
60
0
100
AcDbTrace
10
2
20
-31.809417
30
0
11
5.499998
21
-31.348633
31
0
12
5.500002
22
-32.270201
32
0
13
5.500002
23
-32.270201
33
0
39
0
210
0
220
0
230
1
0
ENDBLK
5
160
100
AcDbEntity
8
0
100
AcDbBlockEnd
0
BLOCK
5
165
100
AcDbEntity
8
0
100
AcDbBlockBegin
2
*D5
70
1
10
0
20
0
30
0
3
*D5
0
LINE
5
167
100
AcDbEntity
8
0
62
256
6
ByLayer
370
-2
48
1
60
0
100
AcDbLine
10
-45
20
-7.5875
30
0
11
-45
21
-41.809417
31
0
39
0
210
0
220
0
230
1
0
LINE
5
168
100
AcDbEntity
8
0
62
256
6
ByLayer
370
-2
48
1
60
0
100
AcDbLine
10
0
20
-7.5875
30
0
11
0
21
-41.809417
31
0
39
0
210
0
220
0
230
1
0
LINE
5
169
100
AcDbEntity
8
0
62
256
6
ByLayer
370
-2
48
1
60
0
100
AcDbLine
10
-41.5
20
-39.809417
30
0
11
-3.5
21
-39.809417
31
0
39
0
210
0
220
0
230
1
0
SOLID
5
16A
100
AcDbEntity
8
0
62
256
6
ByLayer
370
-1
48
1
60
0
100
AcDbTrace
10
-41.5
20
-39.226083
30
0
11
-41.5
21
-40.39275
31
0
12
-45
22
-39.809417
32
0
13
-45
23
-39.809417
33
0
39
0
210
0
220
0
230
1
0
SOLID
5
16B
100
AcDbEntity
8
0
62
256
6
ByLayer
370
-1
48
1
60
0
100
AcDbTrace
10
-3.5
20
-40.39275
30
0
11
-3.5
21
-39.226083
31
0
12
0
22
-39.809417
32
0
13
0
23
-39.809417
33
0
39
0
210
0
220
0
230
1
0
MTEXT
5
16C
100
AcDbEntity
8
0
62
256
6
ByLayer
370
18
48
1
60
0
100
AcDbMText
10
-22.5
20
-33.809417
30
0
210
0
220
0
230
1
1
\A1;45
40
3
41
0
44
1
50
0
71
5
72
5
7
iso_b_vert
0
POINT
5
16D
100
AcDbEntity
8
Defpoints
62
0
6
ByLayer
370
-1
48
1
60
0
100
AcDbPoint
10
-45
20
-6
30
0
39
0
210
0
220
0
230
1
50
360
0
POINT
5
16E
100
AcDbEntity
8
Defpoints
62
0
6
ByLayer
370
-1
48
1
60
0
100
AcDbPoint
10
0
20
-6
30
0
39
0
210
0
220
0
230
1
50
360
0
POINT
5
16F
100
AcDbEntity
8
Defpoints
62
0
6
ByLayer
370
-1
48
1
60
0
100
AcDbPoint
10
0
20
-39.809417
30
0
39
0
210
0
220
0
230
1
50
360
0
ENDBLK
5
166
100
AcDbEntity
8
0
100
AcDbBlockEnd
0
BLOCK
5
177
100
AcDbEntity
8
0
100
AcDbBlockBegin
2
_U2
70
0
10
0
20
0
30
0
3
_U2
0
MTEXT
5
171
100
AcDbEntity
8
SK2
62
256
6
ByLayer
370
18
48
1
60
0
100
AcDbMText
10
-24.290771
20
-38.924302
30
0
210
0
220
0
230
1
1
\W0.7361;45
40
3
41
0
44
1.084337
50
0
71
7
72
5
7
iso_b_vert
0
LINE
5
172
100
AcDbEntity
8
SK2
62
256
6
ByLayer
370
13
48
1
60
0
100
AcDbLine
10
-45
20
-7.5875
30
0
11
-45
21
-41.809417
31
0
39
0
210
0
220
0
230
1
0
LINE
5
173
100
AcDbEntity
8
SK2
62
256
6
ByLayer
370
13
48
1
60
0
100
AcDbLine
10
0
20
-7.5875
30
0
11
0
21
-41.809417
31
0
39
0
210
0
220
0
230
1
0
LINE
5
174
100
AcDbEntity
8
SK2
62
256
6
ByLayer
370
13
48
1
60
0
100
AcDbLine
10
-45
20
-39.809417
30
0
11
0
21
-39.809417
31
0
39
0
210
0
220
0
230
1
0
SOLID
5
175
100
AcDbEntity
8
SK2
62
256
6
ByLayer
370
18
48
1
60
0
100
AcDbTrace
10
-45
20
-39.809417
30
0
11
-41.500002
21
-39.348633
31
0
12
-41.499998
22
-40.270201
32
0
13
-41.499998
23
-40.270201
33
0
39
0
210
0
220
0
230
1
0
SOLID
5
176
100
AcDbEntity
8
SK2
62
256
6
ByLayer
370
18
48
1
60
0
100
AcDbTrace
10
0
20
-39.809417
30
0
11
-3.499998
21
-40.270201
31
0
12
-3.500002
22
-39.348633
32
0
13
-3.500002
23
-39.348633
33
0
39
0
210
0
220
0
230
1
0
ENDBLK
5
178
100
AcDbEntity
8
0
100
AcDbBlockEnd
0
BLOCK
5
17D
100
AcDbEntity
8
0
100
AcDbBlockBegin
2
*D7
70
1
10
0
20
0
30
0
3
*D7
0
LINE
5
17F
100
AcDbEntity
8
0
62
256
6
ByLayer
370
-2
48
1
60
0
100
AcDbLine
10
-45
20
-7.5875
30
0
11
-45
21
-49.809417
31
0
39
0
210
0
220
0
230
1
0
LINE
5
180
100
AcDbEntity
8
0
62
256
6
ByLayer
370
-2
48
1
60
0
100
AcDbLine
10
57
20
-7.144
30
0
11
57
21
-49.809417
31
0
39
0
210
0
220
0
230
1
0
LINE
5
181
100
AcDbEntity
8
0
62
256
6
ByLayer
370
-2
48
1
60
0
100
AcDbLine
10
-41.5
20
-47.809417
30
0
11
53.5
21
-47.809417
31
0
39
0
210
0
220
0
230
1
0
SOLID
5
182
100
AcDbEntity
8
0
62
256
6
ByLayer
370
-1
48
1
60
0
100
AcDbTrace
10
-41.5
20
-47.226083
30
0
11
-41.5
21
-48.39275
31
0
12
-45
22
-47.809417
32
0
13
-45
23
-47.809417
33
0
39
0
210
0
220
0
230
1
0
SOLID
5
183
100
AcDbEntity
8
0
62
256
6
ByLayer
370
-1
48
1
60
0
100
AcDbTrace
10
53.5
20
-48.39275
30
0
11
53.5
21
-47.226083
31
0
12
57
22
-47.809417
32
0
13
57
23
-47.809417
33
0
39
0
210
0
220
0
230
1
0
MTEXT
5
184
100
AcDbEntity
8
0
62
256
6
ByLayer
370
18
48
1
60
0
100
AcDbMText
10
6
20
-41.809417
30
0
210
0
220
0
230
1
1
\A1;102
40
3
41
0
44
1
50
0
71
5
72
5
7
iso_b_vert
0
POINT
5
185
100
AcDbEntity
8
Defpoints
62
0
6
ByLayer
370
-1
48
1
60
0
100
AcDbPoint
10
-45
20
-6
30
0
39
0
210
0
220
0
230
1
50
360
0
POINT
5
186
100
AcDbEntity
8
Defpoints
62
0
6
ByLayer
370
-1
48
1
60
0
100
AcDbPoint
10
57
20
-5.5565
30
0
39
0
210
0
220
0
230
1
50
360
0
POINT
5
187
100
AcDbEntity
8
Defpoints
62
0
6
ByLayer
370
-1
48
1
60
0
100
AcDbPoint
10
57
20
-47.809417
30
0
39
0
210
0
220
0
230
1
50
360
0
ENDBLK
5
17E
100
AcDbEntity
8
0
100
AcDbBlockEnd
0
BLOCK
5
18F
100
AcDbEntity
8
0
100
AcDbBlockBegin
2
_U3
70
0
10
0
20
0
30
0
3
_U3
0
MTEXT
5
189
100
AcDbEntity
8
SK2
62
256
6
ByLayer
370
18
48
1
60
0
100
AcDbMText
10
3.621201
20
-46.924302
30
0
210
0
220
0
230
1
1
\W0.6217;102
40
3
41
0
44
1.084337
50
0
71
7
72
5
7
iso_b_vert
0
LINE
5
18A
100
AcDbEntity
8
SK2
62
256
6
ByLayer
370
13
48
1
60
0
100
AcDbLine
10
-45
20
-7.5875
30
0
11
-45
21
-49.809417
31
0
39
0
210
0
220
0
230
1
0
LINE
5
18B
100
AcDbEntity
8
SK2
62
256
6
ByLayer
370
13
48
1
60
0
100
AcDbLine
10
57
20
-7.144
30
0
11
57
21
-49.809417
31
0
39
0
210
0
220
0
230
1
0
LINE
5
18C
100
AcDbEntity
8
SK2
62
256
6
ByLayer
370
13
48
1
60
0
100
AcDbLine
10
-45
20
-47.809417
30
0
11
57
21
-47.809417
31
0
39
0
210
0
220
0
230
1
0
SOLID
5
18D
100
AcDbEntity
8
SK2
62
256
6
ByLayer
370
18
48
1
60
0
100
AcDbTrace
10
-45
20
-47.809417
30
0
11
-41.500002
21
-47.348633
31
0
12
-41.499998
22
-48.270201
32
0
13
-41.499998
23
-48.270201
33
0
39
0
210
0
220
0
230
1
0
SOLID
5
18E
100
AcDbEntity
8
SK2
62
256
6
ByLayer
370
18
48
1
60
0
100
AcDbTrace
10
57
20
-47.809417
30
0
11
53.500002
21
-48.270201
31
0
12
53.499998
22
-47.348633
32
0
13
53.499998
23
-47.348633
33
0
39
0
210
0
220
0
230
1
0
ENDBLK
5
190
100
AcDbEntity
8
0
100
AcDbBlockEnd
0
BLOCK
5
195
100
AcDbEntity
8
0
100
AcDbBlockBegin
2
*D9
70
1
10
0
20
0
30
0
3
*D9
0
LINE
5
197
100
AcDbEntity
8
0
62
256
6
ByLayer
370
-2
48
1
60
0
100
AcDbLine
10
57
20
-7.144
30
0
11
57
21
-41.809417
31
0
39
0
210
0
220
0
230
1
0
LINE
5
198
100
AcDbEntity
8
0
62
256
6
ByLayer
370
-2
48
1
60
0
100
AcDbLine
10
0
20
-7.144
30
0
11
0
21
-41.809417
31
0
39
0
210
0
220
0
230
1
0
LINE
5
199
100
AcDbEntity
8
0
62
256
6
ByLayer
370
-2
48
1
60
0
100
AcDbLine
10
53.5
20
-39.809417
30
0
11
3.5
21
-39.809417
31
0
39
0
210
0
220
0
230
1
0
SOLID
5
19A
100
AcDbEntity
8
0
62
256
6
ByLayer
370
-1
48
1
60
0
100
AcDbTrace
10
53.5
20
-40.39275
30
0
11
53.5
21
-39.226083
31
0
12
57
22
-39.809417
32
0
13
57
23
-39.809417
33
0
39
0
210
0
220
0
230
1
0
SOLID
5
19B
100
AcDbEntity
8
0
62
256
6
ByLayer
370
-1
48
1
60
0
100
AcDbTrace
10
3.5
20
-39.226083
30
0
11
3.5
21
-40.39275
31
0
12
0
22
-39.809417
32
0
13
0
23
-39.809417
33
0
39
0
210
0
220
0
230
1
0
MTEXT
5
19C
100
AcDbEntity
8
0
62
256
6
ByLayer
370
18
48
1
60
0
100
AcDbMText
10
28.5
20
-33.809417
30
0
210
0
220
0
230
1
1
\A1;57
40
3
41
0
44
1
50
0
71
5
72
5
7
iso_b_vert
0
POINT
5
19D
100
AcDbEntity
8
Defpoints
62
0
6
ByLayer
370
-1
48
1
60
0
100
AcDbPoint
10
57
20
-5.5565
30
0
39
0
210
0
220
0
230
1
50
360
0
POINT
5
19E
100
AcDbEntity
8
Defpoints
62
0
6
ByLayer
370
-1
48
1
60
0
100
AcDbPoint
10
0
20
-5.5565
30
0
39
0
210
0
220
0
230
1
50
360
0
POINT
5
19F
100
AcDbEntity
8
Defpoints
62
0
6
ByLayer
370
-1
48
1
60
0
100
AcDbPoint
10
0
20
-39.809417
30
0
39
0
210
0
220
0
230
1
50
360
0
ENDBLK
5
196
100
AcDbEntity
8
0
100
AcDbBlockEnd
0
BLOCK
5
1A7
100
AcDbEntity
8
0
100
AcDbBlockBegin
2
_U4
70
0
10
0
20
0
30
0
3
_U4
0
MTEXT
5
1A1
100
AcDbEntity
8
2
62
256
6
ByLayer
370
18
48
1
60
0
100
AcDbMText
10
26.867172
20
-38.924302
30
0
210
0
220
0
230
1
1
\W0.6740;57
40
3
41
0
44
1.084337
50
0
71
7
72
5
7
iso_b_vert
0
LINE
5
1A2
100
AcDbEntity
8
2
62
256
6
ByLayer
370
13
48
1
60
0
100
AcDbLine
10
57
20
-7.144
30
0
11
57
21
-41.809417
31
0
39
0
210
0
220
0
230
1
0
LINE
5
1A3
100
AcDbEntity
8
2
62
256
6
ByLayer
370
13
48
1
60
0
100
AcDbLine
10
0
20
-7.144
30
0
11
0
21
-41.809417
31
0
39
0
210
0
220
0
230
1
0
LINE
5
1A4
100
AcDbEntity
8
2
62
256
6
ByLayer
370
13
48
1
60
0
100
AcDbLine
10
57
20
-39.809417
30
0
11
0
21
-39.809417
31
0
39
0
210
0
220
0
230
1
0
SOLID
5
1A5
100
AcDbEntity
8
2
62
256
6
ByLayer
370
18
48
1
60
0
100
AcDbTrace
10
57
20
-39.809417
30
0
11
53.500002
21
-40.270201
31
0
12
53.499998
22
-39.348633
32
0
13
53.499998
23
-39.348633
33
0
39
0
210
0
220
0
230
1
0
SOLID
5
1A6
100
AcDbEntity
8
2
62
256
6
ByLayer
370
18
48
1
60
0
100
AcDbTrace
10
0
20
-39.809417
30
0
11
3.499998
21
-39.348633
31
0
12
3.500002
22
-40.270201
32
0
13
3.500002
23
-40.270201
33
0
39
0
210
0
220
0
230
1
0
ENDBLK
5
1A8
100
AcDbEntity
8
0
100
AcDbBlockEnd
0
ENDSEC
0
SECTION
2
ENTITIES
0
ARC
5
BC
100
AcDbEntity
8
1
62
256
6
ByLayer
370
18
48
1
60
0
100
AcDbCircle
39
0
10
1.19877
20
-6.259694
30
0
40
0.799999999999998
210
0
220
0
230
1
100
AcDbArc
50
89.896868
51
138.52381
0
ARC
5
BD
100
AcDbEntity
8
1
62
256
6
ByLayer
370
18
48
1
60
0
100
AcDbCircle
39
0
10
1.19877
20
6.259694
30
0
40
0.799999999999998
210
0
220
0
230
1
100
AcDbArc
50
221.47619
51
270.103132
0
ARC
5
BE
100
AcDbEntity
8
1
62
256
6
ByLayer
370
18
48
1
60
0
100
AcDbCircle
39
0
10
0
20
-5.2
30
0
40
0.800000000000002
210
0
220
0
230
1
100
AcDbArc
50
270
51
318.52381
0
ARC
5
BF
100
AcDbEntity
8
1
62
256
6
ByLayer
370
18
48
1
60
0
100
AcDbCircle
39
0
10
0
20
5.2
30
0
40
0.800000000000002
210
0
220
0
230
1
100
AcDbArc
50
41.47619
51
90
0
ARC
5
C0
100
AcDbEntity
8
SK2
62
256
6
ByLayer
370
13
48
1
60
0
100
AcDbCircle
39
0
10
57
20
0
30
0
40
21.7834999813676
210
0
220
0
230
1
100
AcDbArc
50
7.915871
51
70.003648
0
ARC
5
C1
100
AcDbEntity
8
SK2
62
256
6
ByLayer
370
13
48
1
60
0
100
AcDbCircle
39
0
10
57
20
0
30
0
40
21.7834999813676
210
0
220
0
230
1
100
AcDbArc
50
289.996352
51
352.084129
0
ELLIPSE
5
C2
100
AcDbEntity
8
1
62
256
6
ByLayer
370
13
48
1
60
0
100
AcDbEllipse
10
21.758701
20
-5.225579
30
0
11
-0.00382899746739772
21
0.00923789902492238
31
0
210
0
220
0
230
1
40
0.478491
41
0.176248172783705
42
1.53765047579819
0
ELLIPSE
5
C3
100
AcDbEntity
8
1
62
256
6
ByLayer
370
13
48
1
60
0
100
AcDbEllipse
10
21.79984
20
-5.219473
30
0
11
-0.000882733205456282
21
-0.0099609629096782
31
0
210
0
220
0
230
1
40
0.446867
41
-2.9515986295302
42
-1.38117287122692
0
ELLIPSE
5
C4
100
AcDbEntity
8
1
62
256
6
ByLayer
370
13
48
1
60
0
100
AcDbEllipse
10
21.800465
20
-0.002517
30
0
11
9.5715489145665E-05
21
0.00999954191676487
31
0
210
0
220
0
230
1
40
0.009559
41
-1.57017681307651
42
0.000689712485757744
0
ELLIPSE
5
C5
100
AcDbEntity
8
1
62
256
6
ByLayer
370
18
48
1
60
0
100
AcDbEllipse
10
21.840924
20
-0.012559
30
0
11
-0.00459114768445975
21
-0.0088837696356603
31
0
210
0
220
0
230
1
40
0.007104
41
1.57721876777543
42
-3.14097968800992
0
POINT
5
70
100
AcDbEntity
8
80
62
256
6
ByLayer
370
18
48
1
60
0
100
AcDbPoint
10
0
20
0
30
0
39
0
210
0
220
0
230
1
50
360
0
POINT
5
72
100
AcDbEntity
8
81
62
256
6
ByLayer
370
18
48
1
60
0
100
AcDbPoint
10
57
20
0
30
0
39
0
210
0
220
0
230
1
50
360
0
POINT
5
74
100
AcDbEntity
8
1
62
256
6
ByLayer
370
18
48
1
60
0
100
AcDbPoint
10
-211.28325
20
-169.657401
30
0
39
0
210
0
220
0
230
1
50
360
0
POINT
5
76
100
AcDbEntity
8
1
62
256
6
ByLayer
370
13
48
1
60
1
100
AcDbPoint
10
-46.5
20
0
30
0
39
0
210
0
220
0
230
1
50
360
0
POINT
5
77
100
AcDbEntity
8
1
62
256
6
ByLayer
370
13
48
1
60
1
100
AcDbPoint
10
56.485939
20
0
30
0
39
0
210
0
220
0
230
1
50
360
0
POINT
5
78
100
AcDbEntity
8
1
62
256
6
ByLayer
370
18
48
1
60
1
100
AcDbPoint
10
57
20
-5.5565
30
0
39
0
210
0
220
0
230
1
50
360
0
POINT
5
79
100
AcDbEntity
8
1
62
256
6
ByLayer
370
18
48
1
60
1
100
AcDbPoint
10
21.7
20
-5.5565
30
0
39
0
210
0
220
0
230
1
50
360
0
POINT
5
7A
100
AcDbEntity
8
1
62
256
6
ByLayer
370
18
48
1
60
1
100
AcDbPoint
10
57
20
-5.5565
30
0
39
0
210
0
220
0
230
1
50
360
0
POINT
5
7B
100
AcDbEntity
8
1
62
256
6
ByLayer
370
18
48
1
60
1
100
AcDbPoint
10
2
20
-5.5565
30
0
39
0
210
0
220
0
230
1
50
360
0
POINT
5
7C
100
AcDbEntity
8
1
62
256
6
ByLayer
370
18
48
1
60
1
100
AcDbPoint
10
-45
20
-6
30
0
39
0
210
0
220
0
230
1
50
360
0
POINT
5
7D
100
AcDbEntity
8
1
62
256
6
ByLayer
370
18
48
1
60
1
100
AcDbPoint
10
0
20
-6
30
0
39
0
210
0
220
0
230
1
50
360
0
POINT
5
7E
100
AcDbEntity
8
1
62
256
6
ByLayer
370
18
48
1
60
1
100
AcDbPoint
10
-45
20
-6
30
0
39
0
210
0
220
0
230
1
50
360
0
POINT
5
7F
100
AcDbEntity
8
1
62
256
6
ByLayer
370
18
48
1
60
1
100
AcDbPoint
10
57
20
-5.5565
30
0
39
0
210
0
220
0
230
1
50
360
0
POINT
5
80
100
AcDbEntity
8
1
62
256
6
ByLayer
370
18
48
1
60
1
100
AcDbPoint
10
57
20
-5.5565
30
0
39
0
210
0
220
0
230
1
50
360
0
POINT
5
81
100
AcDbEntity
8
1
62
256
6
ByLayer
370
18
48
1
60
1
100
AcDbPoint
10
0
20
-5.5565
30
0
39
0
210
0
220
0
230
1
50
360
0
SPLINE
5
C6
100
AcDbEntity
8
1
62
256
6
ByLayer
370
18
48
1
60
0
100
AcDbSpline
70
4
71
3
72
12
73
8
40
0
40
0
40
0
40
0
40
0.182140070073781
40
0.182140070073781
40
0.845032009154272
40
0.845032009154272
40
1
40
1
40
1
40
1
41
1
10
21.7807243508114
20
-0.0056883195735224
30
0
41
1
10
21.7796942613704
20
-0.0054898606967413
30
0
41
1
10
21.7786677429735
20
-0.0052753411312381
30
0
41
1
10
21.7739216307013
20
-0.0042064052691444
30
0
41
1
10
21.7702570021021
20
-0.003153612985983
30
0
41
1
10
21.7659276926834
20
-0.0016466398323871
30
0
41
1
10
21.7651142330146
20
-0.0013515441287382
30
0
41
1
10
21.7643075087213
20
-0.0010470615091833
30
0
0
SPLINE
5
C7
100
AcDbEntity
8
1
62
256
6
ByLayer
370
18
48
1
60
0
100
AcDbSpline
70
4
71
3
72
8
73
4
40
0
40
0
40
0
40
0
40
1
40
1
40
1
40
1
41
1
10
56.4438218830125
20
1.79426315911635
30
0
41
1
10
56.5895078513741
20
1.38656867911465
30
0
41
1
10
56.7339859601796
20
0.978449684486264
30
0
41
1
10
56.8772319291988
20
0.569897641695405
30
0
0
SPLINE
5
C8
100
AcDbEntity
8
1
62
256
6
ByLayer
370
18
48
1
60
0
100
AcDbSpline
70
4
71
3
72
10
73
6
40
0
40
0
40
0
40
0
40
0.679868346829725
40
0.679868346829725
40
1
40
1
40
1
40
1
41
1
10
54.887438954762
20
5.55625167593604
30
0
41
1
10
54.9110763573672
20
5.51776368869346
30
0
41
1
10
54.9347261861923
20
5.4791296366011
30
0
41
1
10
54.9695294506168
20
5.42209324000561
30
0
41
1
10
54.9806735322991
20
5.4038026801808
30
0
41
1
10
54.9918199169504
20
5.38548113761686
30
0
0
SPLINE
5
C9
100
AcDbEntity
8
1
62
256
6
ByLayer
370
18
48
1
60
0
100
AcDbSpline
70
4
71
3
72
18
73
14
40
0
40
0
40
0
40
0
40
0.249999999999842
40
0.249999999999842
40
0.374999999999854
40
0.374999999999854
40
0.499999999999867
40
0.499999999999867
40
0.749999999999901
40
0.749999999999901
40
0.874999999999951
40
0.874999999999951
40
1
40
1
40
1
40
1
41
1
10
21.7541565894069
20
-5.22710356947454
30
0
41
1
10
21.7446726355601
20
-5.2305586410653
30
0
41
1
10
21.7366599802745
20
-5.23478996185418
30
0
41
1
10
21.7262852724449
20
-5.24199632491269
30
0
41
1
10
21.7231298018312
20
-5.24453721240513
30
0
41
1
10
21.7175011220316
20
-5.24973591282563
30
0
41
1
10
21.7150016250969
20
-5.25241192396931
30
0
41
1
10
21.7083554528305
20
-5.26064594252898
30
0
41
1
10
21.7050397409845
20
-5.26646399471565
30
0
41
1
10
21.701773432607
20
-5.27525765392056
30
0
41
1
10
21.7009618159457
20
-5.2782075479796
30
0
41
1
10
21.6998765698646
20
-5.28414325064156
30
0
41
1
10
21.6996037318951
20
-5.2871540033666
30
0
41
1
10
21.6996037318951
20
-5.29012060817885
30
0
0
SPLINE
5
CA
100
AcDbEntity
8
1
62
256
6
ByLayer
370
18
48
1
60
0
100
AcDbSpline
70
4
71
3
72
8
73
4
40
0
40
0
40
0
40
0
40
1
40
1
40
1
40
1
41
1
10
56.8772319291987
20
0.569897641695377
30
0
41
1
10
56.9166581226535
20
0.457450136291214
30
0
41
1
10
56.9568613250034
20
0.345434033523617
30
0
41
1
10
56.9978398337467
20
0.233834008720436
30
0
0
SPLINE
5
CB
100
AcDbEntity
8
1
62
256
6
ByLayer
370
13
48
1
60
0
100
AcDbSpline
70
4
71
3
72
10
73
6
40
0
40
0
40
0
40
0
40
0.5
40
0.5
40
1
40
1
40
1
40
1
41
1
10
21.7953018957601
20
-5.22096284663846
30
0
41
1
10
21.7881837580755
20
-5.22033817582843
30
0
41
1
10
21.7811878982921
20
-5.22054178321525
30
0
41
1
10
21.7674391860428
20
-5.22256646902594
30
0
41
1
10
21.7606372669785
20
-5.22441298127711
30
0
41
1
10
21.7541565894069
20
-5.22710356947454
30
0
0
SPLINE
5
CC
100
AcDbEntity
8
1
62
256
6
ByLayer
370
13
48
1
60
0
100
AcDbSpline
70
4
71
3
72
8
73
4
40
0
40
0
40
0
40
0
40
1
40
1
40
1
40
1
41
1
10
21.7528455772959
20
-5.41531805252043
30
0
41
1
10
21.7532775695836
20
-5.35258082675199
30
0
41
1
10
21.7537145703478
20
-5.28984268094359
30
0
41
1
10
21.7541565894069
20
-5.22710356947454
30
0
0
SPLINE
5
CD
100
AcDbEntity
8
1
62
256
6
ByLayer
370
18
48
1
60
0
100
AcDbSpline
70
4
71
3
72
8
73
4
40
0
40
0
40
0
40
0
40
1
40
1
40
1
40
1
41
1
10
23.7518368331858
20
-5.29827283087144
30
0
41
1
10
23.1021820916558
20
-5.3039697556415
30
0
41
1
10
22.4507696765614
20
-5.27848513796226
30
0
41
1
10
21.79530189576
20
-5.22096284663846
30
0
0
SPLINE
5
CE
100
AcDbEntity
8
1
62
256
6
ByLayer
370
13
48
1
60
0
100
AcDbSpline
70
4
71
3
72
10
73
6
40
0
40
0
40
0
40
0
40
0.5
40
0.5
40
1
40
1
40
1
40
1
41
1
10
21.8410163034562
20
-0.012534479543973
30
0
41
1
10
21.834740842811
20
-0.0092972174290935
30
0
41
1
10
21.8282137182522
20
-0.0068518526919377
30
0
41
1
10
21.8146746057749
20
-0.0034866483228484
30
0
41
1
10
21.8076209348881
20
-0.002579038572776
30
0
41
1
10
21.8005602272611
20
-0.0025116112332455
30
0
0
SPLINE
5
CF
100
AcDbEntity
8
1
62
256
6
ByLayer
370
18
48
1
60
0
100
AcDbSpline
70
4
71
3
72
8
73
4
40
0
40
0
40
0
40
0
40
1
40
1
40
1
40
1
41
1
10
21.7998659424103
20
-5.20961649255571
30
0
41
1
10
22.3872996700059
20
-5.26157809362104
30
0
41
1
10
22.9714840760782
20
-5.28785391852884
30
0
41
1
10
23.5540720703813
20
-5.2890544980711
30
0
0
SPLINE
5
D0
100
AcDbEntity
8
1
62
256
6
ByLayer
370
18
48
1
60
0
100
AcDbSpline
70
4
71
3
72
10
73
6
40
0
40
0
40
0
40
0
40
0.5
40
0.5
40
1
40
1
40
1
40
1
41
1
10
56.4438218830124
20
1.79426315911633
30
0
41
1
10
56.3254940143964
20
1.77943643913562
30
0
41
1
10
56.207048482116
20
1.76566150177087
30
0
41
1
10
55.9698579469936
20
1.7407885616058
30
0
41
1
10
55.8511291339076
20
1.72954584034991
30
0
41
1
10
55.732305118153
20
1.71915412532667
30
0
0
SPLINE
5
D1
100
AcDbEntity
8
1
62
256
6
ByLayer
370
18
48
1
60
0
100
AcDbSpline
70
4
71
3
72
28
73
24
40
0
40
0
40
0
40
0
40
0.124999999999998
40
0.124999999999998
40
0.249999999999995
40
0.249999999999995
40
0.281249999999994
40
0.281249999999994
40
0.312499999999994
40
0.374999999999992
40
0.374999999999992
40
0.437499999999991
40
0.437499999999991
40
0.453124999999989
40
0.453124999999989
40
0.468749999999987
40
0.499999999999987
40
0.499999999999987
40
0.749999999999991
40
0.749999999999991
40
0.874999999999996
40
0.874999999999996
40
1
40
1
40
1
40
1
41
1
10
56.4438218830125
20
1.79426315911633
30
0
41
1
10
56.3797606828532
20
1.91205863064519
30
0
41
1
10
56.3175453385097
20
2.03423188472649
30
0
41
1
10
56.1963880493562
20
2.28740279427572
30
0
41
1
10
56.1374444078018
20
2.41839010165907
30
0
41
1
10
56.0654856070857
20
2.58772478161109
30
0
41
1
10
56.0511621518235
20
2.62191556869183
30
0
41
1
10
56.0228359833481
20
2.69047552168112
30
0
41
1
10
55.9807829071806
20
2.79368598424207
30
0
41
1
10
55.9399695772892
20
2.8979754576558
30
0
41
1
10
55.8865434250792
20
3.03794159617738
30
0
41
1
10
55.8603022381669
20
3.10846084601633
30
0
41
1
10
55.8281276105998
20
3.19689111864687
30
0
41
1
10
55.821729089802
20
3.21458991372972
30
0
41
1
10
55.8089309127975
20
3.24998710057557
30
0
41
1
10
55.7897504105197
20
3.30308855425693
30
0
41
1
10
55.7706193985603
20
3.35620803251848
30
0
41
1
10
55.656031418805
20
3.67498705021163
30
0
41
1
10
55.5556965565233
20
3.95853531959915
30
0
41
1
10
55.4071761868926
20
4.38383216644223
30
0
41
1
10
55.3579765539208
20
4.52564370717238
30
0
41
1
10
55.2603257296778
20
4.80856090465051
30
0
41
1
10
55.2118558641992
20
4.94972806509867
30
0
41
1
10
55.1636624641023
20
5.09053793872695
30
0
0
SPLINE
5
D2
100
AcDbEntity
8
1
62
256
6
ByLayer
370
18
48
1
60
0
100
AcDbSpline
70
4
71
3
72
8
73
4
40
0
40
0
40
0
40
0
40
1
40
1
40
1
40
1
41
1
10
55.1636624641025
20
5.0905379387269
30
0
41
1
10
55.1188451303909
20
5.16830956210228
30
0
41
1
10
55.0740513942678
20
5.24607819383658
30
0
41
1
10
55.029287824344
20
5.32382890222954
30
0
0
SPLINE
5
D3
100
AcDbEntity
8
1
62
256
6
ByLayer
370
18
48
1
60
0
100
AcDbSpline
70
4
71
3
72
26
73
22
40
0
40
0
40
0
40
0
40
0.1375610387675
40
0.1375610387675
40
0.206341558151251
40
0.206341558151251
40
0.275122077535001
40
0.275122077535001
40
0.412683116302503
40
0.412683116302503
40
0.550244155070004
40
0.550244155070004
40
0.619024674453754
40
0.619024674453754
40
0.687805193837505
40
0.687805193837505
40
0.825366232605001
40
0.825366232605001
40
0.962927271372498
40
0.962927271372498
40
1
40
1
40
1
40
1
41
1
10
55.0292878243481
20
5.32382890223309
30
0
41
1
10
54.6824850727172
20
5.32741604141321
30
0
41
1
10
54.3356516129058
20
5.32223035255655
30
0
41
1
10
53.8146952151376
20
5.30107853865894
30
0
41
1
10
53.6408439372366
20
5.29179506852816
30
0
41
1
10
53.2934570497902
20
5.26880676607914
30
0
41
1
10
53.1198778151797
20
5.25510257230564
30
0
41
1
10
52.5993824987853
20
5.20737657871703
30
0
41
1
10
52.2527264714915
20
5.16672794153251
30
0
41
1
10
51.5592194254509
20
5.06829168856081
30
0
41
1
10
51.2123544748682
20
5.01046816155153
30
0
41
1
10
50.6913990525363
20
4.91126424207872
30
0
41
1
10
50.5175902896777
20
4.87610923916952
30
0
41
1
10
50.1700767358484
20
4.80179478607732
30
0
41
1
10
49.9963370808534
20
4.76262728691844
30
0
41
1
10
49.4749977124133
20
4.63918254574838
30
0
41
1
10
49.1273451114129
20
4.54898166533579
30
0
41
1
10
48.4325047830648
20
4.35379652216295
30
0
41
1
10
48.0852421223709
20
4.24876215348661
30
0
41
1
10
47.6441018051451
20
4.10636490535867
30
0
41
1
10
47.5504510571625
20
4.07562523078596
30
0
41
1
10
47.4568250061941
20
4.04439856110577
30
0
0
SPLINE
5
D4
100
AcDbEntity
8
1
62
256
6
ByLayer
370
18
48
1
60
0
100
AcDbSpline
70
4
71
3
72
24
73
20
40
0
40
0
40
0
40
0
40
0.0618817902362677
40
0.0618817902362677
40
0.195898677345373
40
0.195898677345373
40
0.329915564454478
40
0.329915564454478
40
0.463932451563582
40
0.463932451563582
40
0.597949338672687
40
0.597949338672687
40
0.731966225781792
40
0.731966225781792
40
0.865983112890896
40
0.865983112890896
40
0.932991556445448
40
0.932991556445448
40
1
40
1
40
1
40
1
41
1
10
54.7720832956805
20
1.24262231144627
30
0
41
1
10
54.7878640272799
20
1.23738310357635
30
0
41
1
10
54.8037595831195
20
1.23191147664758
30
0
41
1
10
54.8543625901378
20
1.21401802203823
30
0
41
1
10
54.8894247036458
20
1.20087831210074
30
0
41
1
10
54.9604368992718
20
1.17280152933466
30
0
41
1
10
54.9963889317216
20
1.1578605087829
30
0
41
1
10
55.069057127013
20
1.12643176930004
30
0
41
1
10
55.1057558537473
20
1.10997934329677
30
0
41
1
10
55.179947908203
20
1.0754661164992
30
0
41
1
10
55.2174698048164
20
1.05736282831407
30
0
41
1
10
55.2933423451705
20
1.01941642391219
30
0
41
1
10
55.3314447721714
20
0.999725446535763
30
0
41
1
10
55.4079297732873
20
0.959133293854592
30
0
41
1
10
55.4463126452653
20
0.938230831821926
30
0
41
1
10
55.5040714201474
20
0.906080266460407
30
0
41
1
10
55.5233580993808
20
0.895217597413449
30
0
41
1
10
55.5619477166668
20
0.8734220234021
30
0
41
1
10
55.5812424977912
20
0.862524355272853
30
0
41
1
10
55.6005529611083
20
0.851558942176439
30
0
0
SPLINE
5
D5
100
AcDbEntity
8
1
62
256
6
ByLayer
370
18
48
1
60
0
100
AcDbSpline
70
4
71
3
72
27
73
23
40
0
40
0
40
0
40
0
40
0.154481960057171
40
0.154481960057171
40
0.308963920114342
40
0.308963920114342
40
0.34758441012865
40
0.34758441012865
40
0.386204900142958
40
0.386204900142958
40
0.463445880171575
40
0.617927840228808
40
0.617927840228808
40
0.695168820257438
40
0.695168820257438
40
0.733789310271766
40
0.733789310271766
40
0.772409800286094
40
0.772409800286094
40
0.926891760343407
40
0.926891760343407
40
1
40
1
40
1
40
1
41
1
10
55.732305118153
20
1.71915412532664
30
0
41
1
10
55.6670855253752
20
1.71345036739712
30
0
41
1
10
55.6026312907793
20
1.70428210564208
30
0
41
1
10
55.4752606732943
20
1.67901815785231
30
0
41
1
10
55.4123448811097
20
1.66291967444064
30
0
41
1
10
55.3346300050435
20
1.63863861289903
30
0
41
1
10
55.3191333467339
20
1.63357534227364
30
0
41
1
10
55.288231111852
20
1.6230426409054
30
0
41
1
10
55.272831902666
20
1.61757418283719
30
0
41
1
10
55.2271732167901
20
1.60073169714573
30
0
41
1
10
55.1376010929382
20
1.56515726630644
30
0
41
1
10
55.0528905781003
20
1.52488608528239
30
0
41
1
10
54.9709304400886
20
1.48279668863802
30
0
41
1
10
54.9440695938841
20
1.46846257594581
30
0
41
1
10
54.9044204473548
20
1.44664640267888
30
0
41
1
10
54.8912867697389
20
1.43930791294173
30
0
41
1
10
54.8653830150956
20
1.42463926533122
30
0
41
1
10
54.8526075342484
20
1.41730664324976
30
0
41
1
10
54.7895684461025
20
1.38071138981923
30
0
41
1
10
54.7418049525297
20
1.35166367538468
30
0
41
1
10
54.6746880148741
20
1.31023276681287
30
0
41
1
10
54.6536260459807
20
1.29712770756015
30
0
41
1
10
54.6330361103652
20
1.28427914109935
30
0
0
SPLINE
5
D6
100
AcDbEntity
8
1
62
256
6
ByLayer
370
18
48
1
60
0
100
AcDbSpline
70
4
71
3
72
8
73
4
40
0
40
0
40
0
40
0
40
1
40
1
40
1
40
1
41
1
10
55.1636624641024
20
-5.09053793872698
30
0
41
1
10
55.1188451303927
20
-5.16830956209907
30
0
41
1
10
55.0740513942716
20
-5.24607819383004
30
0
41
1
10
55.0292878243496
20
-5.3238289022197
30
0
0
SPLINE
5
D7
100
AcDbEntity
8
1
62
256
6
ByLayer
370
18
48
1
60
0
100
AcDbSpline
70
4
71
3
72
8
73
4
40
0
40
0
40
0
40
0
40
1
40
1
40
1
40
1
41
1
10
21.6996037318951
20
5.49332063121992
30
0
41
1
10
21.6996037318951
20
5.43570747398854
30
0
41
1
10
21.6996037318951
20
5.37783581234976
30
0
41
1
10
21.6996037318951
20
5.31971110778849
30
0
0
SPLINE
5
D8
100
AcDbEntity
8
1
62
256
6
ByLayer
370
18
48
1
60
0
100
AcDbSpline
70
2053
71
3
72
122
73
118
40
0
40
0
40
0
40
0
40
0.0312499999999947
40
0.0312499999999947
40
0.0624999999999894
40
0.0624999999999894
40
0.0781249999999878
40
0.0781249999999878
40
0.0937499999999863
40
0.0937499999999863
40
0.124999999999981
40
0.124999999999981
40
0.140624999999978
40
0.140624999999978
40
0.156249999999975
40
0.156249999999975
40
0.187499999999968
40
0.187499999999968
40
0.195312499999967
40
0.195312499999967
40
0.203124999999966
40
0.218749999999964
40
0.234374999999962
40
0.234374999999962
40
0.242187499999961
40
0.242187499999961
40
0.24999999999996
40
0.24999999999996
40
0.281249999999957
40
0.281249999999957
40
0.296874999999955
40
0.296874999999955
40
0.304687499999954
40
0.304687499999954
40
0.312499999999953
40
0.312499999999953
40
0.343749999999951
40
0.343749999999951
40
0.351562499999951
40
0.351562499999951
40
0.359374999999951
40
0.374999999999954
40
0.390624999999956
40
0.390624999999956
40
0.398437499999957
40
0.398437499999957
40
0.406249999999959
40
0.406249999999959
40
0.437499999999966
40
0.437499999999966
40
0.468749999999973
40
0.468749999999973
40
0.484374999999978
40
0.484374999999978
40
0.492187499999982
40
0.492187499999982
40
0.499999999999986
40
0.499999999999986
40
0.531249999999995
40
0.531249999999995
40
0.539062499999997
40
0.539062499999997
40
0.546874999999998
40
0.546874999999998
40
0.562499999999999
40
0.562499999999999
40
0.593750000000001
40
0.593750000000001
40
0.6015625
40
0.6015625
40
0.609375
40
0.609375
40
0.624999999999998
40
0.624999999999998
40
0.656249999999992
40
0.656249999999992
40
0.67187499999999
40
0.67187499999999
40
0.687499999999987
40
0.687499999999987
40
0.718749999999983
40
0.718749999999983
40
0.726562499999982
40
0.726562499999982
40
0.734374999999981
40
0.74999999999998
40
0.765624999999978
40
0.765624999999978
40
0.773437499999977
40
0.773437499999977
40
0.781249999999977
40
0.781249999999977
40
0.812499999999976
40
0.812499999999976
40
0.820312499999977
40
0.820312499999977
40
0.828124999999978
40
0.828124999999978
40
0.843749999999981
40
0.859374999999985
40
0.859374999999985
40
0.874999999999988
40
0.874999999999988
40
0.906249999999992
40
0.906249999999992
40
0.921874999999993
40
0.921874999999993
40
0.937499999999994
40
0.953124999999995
40
0.953124999999995
40
0.968749999999996
40
0.968749999999996
40
0.984374999999996
40
0.984374999999996
40
0.992187499999998
40
0.992187499999998
40
1
40
1
40
1
40
1
41
1
10
55.5139202964472
20
-2.49000861381027
30
0
41
1
10
55.4936262201823
20
-2.51563699253242
30
0
41
1
10
55.4742584095487
20
-2.53667110124914
30
0
41
1
10
55.4371566767112
20
-2.57011292560441
30
0
41
1
10
55.4194239454742
20
-2.58251787917402
30
0
41
1
10
55.3939887494045
20
-2.59438504811672
30
0
41
1
10
55.3858089002955
20
-2.59715967710377
30
0
41
1
10
55.3700600934052
20
-2.60038514664302
30
0
41
1
10
55.3624827337418
20
-2.60083982218652
30
0
41
1
10
55.3406073849509
20
-2.59873569988378
30
0
41
1
10
55.3271589020505
20
-2.59274094248133
30
0
41
1
10
55.3086782331708
20
-2.57634833631673
30
0
41
1
10
55.3028712192971
20
-2.56969756775899
30
0
41
1
10
55.2920084296492
20
-2.55412912390668
30
0
41
1
10
55.2869401621567
20
-2.54520055862651
30
0
41
1
10
55.2728068475022
20
-2.51494995719474
30
0
41
1
10
55.2648005903119
20
-2.49020099809675
30
0
41
1
10
55.2566740914718
20
-2.45293401951386
30
0
41
1
10
55.2551496331949
20
-2.44518320612801
30
0
41
1
10
55.2523256280282
20
-2.42921234911276
30
0
41
1
10
55.2484162824471
20
-2.40449679035666
30
0
41
1
10
55.2435162369132
20
-2.3595306238621
30
0
41
1
10
55.2413400375447
20
-2.31946876139392
30
0
41
1
10
55.2403948712963
20
-2.28781566013581
30
0
41
1
10
55.2401945836444
20
-2.2769963129409
30
0
41
1
10
55.2400327383446
20
-2.25480152383542
30
0
41
1
10
55.2400719308404
20
-2.24338635475655
30
0
41
1
10
55.2408853023653
20
-2.18540591678703
30
0
41
1
10
55.2434695272489
20
-2.13636426670953
30
0
41
1
10
55.2503894630125
20
-2.05877069188517
30
0
41
1
10
55.2532077968368
20
-2.03222925150698
30
0
41
1
10
55.2582674127998
20
-1.9913438038806
30
0
41
1
10
55.260098293779
20
-1.97750392321112
30
0
41
1
10
55.2639949456281
20
-1.94984758386033
30
0
41
1
10
55.2660654176695
20
-1.93598875787654
30
0
41
1
10
55.2770288826164
20
-1.86654530648818
30
0
41
1
10
55.2877332324663
20
-1.81051741305194
30
0
41
1
10
55.3037541179808
20
-1.73990613881287
30
0
41
1
10
55.3071017332004
20
-1.72571664036533
30
0
41
1
10
55.3139830793143
20
-1.6976439173514
30
0
41
1
10
55.3246077421057
20
-1.65588761752596
30
0
41
1
10
55.3438114231581
20
-1.58801118145044
30
0
41
1
10
55.3607820868073
20
-1.53550787312679
30
0
41
1
10
55.3741340242378
20
-1.49681246643877
30
0
41
1
10
55.3786772776749
20
-1.48406386796051
30
0
41
1
10
55.3878654877934
20
-1.45908528384569
30
0
41
1
10
55.3925221486405
20
-1.4468210757874
30
0
41
1
10
55.4161138630057
20
-1.38659157160876
30
0
41
1
10
55.4359681944927
20
-1.34186967220524
30
0
41
1
10
55.477629083521
20
-1.25902471394937
30
0
41
1
10
55.498798519097
20
-1.22216288970407
30
0
41
1
10
55.5310107270174
20
-1.17296184432351
30
0
41
1
10
55.5418247253205
20
-1.15758534406783
30
0
41
1
10
55.5581551485431
20
-1.13603087871684
30
0
41
1
10
55.5636148329569
20
-1.12910239122857
30
0
41
1
10
55.5744742460685
20
-1.11586007083443
30
0
41
1
10
55.5798860061814
20
-1.10953003009212
30
0
41
1
10
55.6068548854696
20
-1.079291472802
30
0
41
1
10
55.628146170781
20
-1.0595805047094
30
0
41
1
10
55.6543617419439
20
-1.04024169141093
30
0
41
1
10
55.6595846847109
20
-1.03664119170085
30
0
41
1
10
55.6699881335916
20
-1.02997609951083
30
0
41
1
10
55.6751748483668
20
-1.0269090794462
30
0
41
1
10
55.6905455467287
20
-1.01857973505685
30
0
41
1
10
55.7005782728374
20
-1.01416035122011
30
0
41
1
10
55.7300287233862
20
-1.00418480281806
30
0
41
1
10
55.7488049029513
20
-1.0018833546398
30
0
41
1
10
55.7710969207575
20
-1.00448881126914
30
0
41
1
10
55.7754959186163
20
-1.00528626423139
30
0
41
1
10
55.7841703231654
20
-1.00744440915503
30
0
41
1
10
55.7884537093613
20
-1.00880910929362
30
0
41
1
10
55.8010075569057
20
-1.01372480125724
30
0
41
1
10
55.8090076753796
20
-1.01809711343398
30
0
41
1
10
55.8318816376514
20
-1.03446848665203
30
0
41
1
10
55.8456398854127
20
-1.04969013744093
30
0
41
1
10
55.8637871062161
20
-1.079402299983
30
0
41
1
10
55.869418694273
20
-1.09046035917794
30
0
41
1
10
55.8797663095099
20
-1.11506548694174
30
0
41
1
10
55.8844179534115
20
-1.1284706511488
30
0
41
1
10
55.8966794703311
20
-1.17180646425282
30
0
41
1
10
55.9026536448707
20
-1.20491289029826
30
0
41
1
10
55.9070272355011
20
-1.25217132361703
30
0
41
1
10
55.9077469396597
20
-1.26194111206769
30
0
41
1
10
55.908854244693
20
-1.28200702196972
30
0
41
1
10
55.9100093649955
20
-1.31274131337668
30
0
41
1
10
55.9094247921789
20
-1.36712146354628
30
0
41
1
10
55.9062533071009
20
-1.41404851079528
30
0
41
1
10
55.9028218422836
20
-1.45059164322893
30
0
41
1
10
55.9015022375848
20
-1.46299778959099
30
0
41
1
10
55.8985007899764
20
-1.48827728110373
30
0
41
1
10
55.8968112785952
20
-1.50120159116196
30
0
41
1
10
55.8875384687694
20
-1.56626602595594
30
0
41
1
10
55.8775252094122
20
-1.61974411954623
30
0
41
1
10
55.8619377368037
20
-1.68838050859091
30
0
41
1
10
55.8586652261906
20
-1.70219815792228
30
0
41
1
10
55.8518085655258
20
-1.7300181831713
30
0
41
1
10
55.8482115301715
20
-1.74406732880064
30
0
41
1
10
55.8370847318726
20
-1.78599036584512
30
0
41
1
10
55.8213235976204
20
-1.84145924338998
30
0
41
1
10
55.8038564962282
20
-1.89612888932493
30
0
41
1
10
55.7855776374131
20
-1.95041350709442
30
0
41
1
10
55.7759772456283
20
-1.97750285055514
30
0
41
1
10
55.7466115607762
20
-2.0565392591885
30
0
41
1
10
55.7261844225704
20
-2.10665385481968
30
0
41
1
10
55.6944799562211
20
-2.17828312945059
30
0
41
1
10
55.6837033267507
20
-2.20161429449374
30
0
41
1
10
55.6622366785701
20
-2.24621030344088
30
0
41
1
10
55.640756518871
20
-2.28897801820983
30
0
41
1
10
55.6192679072039
20
-2.3282668099915
30
0
41
1
10
55.5977795077402
20
-2.3658496530031
30
0
41
1
10
55.5869961218552
20
-2.38384722469539
30
0
41
1
10
55.5657092251469
20
-2.4176868533489
30
0
41
1
10
55.5551885232259
20
-2.4335657703495
30
0
41
1
10
55.5395829472732
20
-2.45586836876521
30
0
41
1
10
55.5344103597882
20
-2.46304945618792
30
0
41
1
10
55.5241225547556
20
-2.4769074938057
30
0
41
1
10
55.5189938155134
20
-2.48360151912973
30
0
41
1
10
55.5139202964472
20
-2.49000861381027
30
0
0
SPLINE
5
D9
100
AcDbEntity
8
1
62
256
6
ByLayer
370
18
48
1
60
0
100
AcDbSpline
70
4
71
3
72
15
73
11
40
0
40
0
40
0
40
0
40
0.500000000000022
40
0.500000000000022
40
0.562500000000025
40
0.562500000000025
40
0.625000000000029
40
0.625000000000029
40
0.750000000000023
40
1
40
1
40
1
40
1
41
1
10
55.1636624641022
20
-5.09053793872721
30
0
41
1
10
55.1222823582429
20
-5.15203017608656
30
0
41
1
10
55.0843101818029
20
-5.20381191085224
30
0
41
1
10
55.0454007635802
20
-5.24992623582531
30
0
41
1
10
55.0411303511233
20
-5.25488094391466
30
0
41
1
10
55.0326950686629
20
-5.26444700784447
30
0
41
1
10
55.0285292545906
20
-5.26905898077504
30
0
41
1
10
55.0162590063982
20
-5.28229956640234
30
0
41
1
10
54.9925546767802
20
-5.30648295422282
30
0
41
1
10
54.9712410684443
20
-5.3239114084711
30
0
41
1
10
54.957998953283
20
-5.33262406619039
30
0
0
SPLINE
5
DA
100
AcDbEntity
8
1
62
256
6
ByLayer
370
18
48
1
60
0
100
AcDbSpline
70
4
71
3
72
28
73
24
40
0
40
0
40
0
40
0
40
0.124999999999998
40
0.124999999999998
40
0.249999999999997
40
0.249999999999997
40
0.281249999999996
40
0.281249999999996
40
0.312499999999996
40
0.374999999999995
40
0.374999999999995
40
0.437499999999994
40
0.437499999999994
40
0.453124999999994
40
0.453124999999994
40
0.468749999999994
40
0.499999999999993
40
0.499999999999993
40
0.749999999999997
40
0.749999999999997
40
0.874999999999998
40
0.874999999999998
40
1
40
1
40
1
40
1
41
1
10
56.4438218830125
20
-1.79426315911635
30
0
41
1
10
56.3797606828532
20
-1.91205863064516
30
0
41
1
10
56.3175453385098
20
-2.03423188472647
30
0
41
1
10
56.1963880493563
20
-2.28740279427566
30
0
41
1
10
56.1374444078019
20
-2.41839010165901
30
0
41
1
10
56.0654856070857
20
-2.58772478161106
30
0
41
1
10
56.0511621518235
20
-2.62191556869183
30
0
41
1
10
56.0228359833481
20
-2.69047552168109
30
0
41
1
10
55.9807829071805
20
-2.79368598424202
30
0
41
1
10
55.9399695772893
20
-2.89797545765577
30
0
41
1
10
55.8865434250793
20
-3.03794159617735
30
0
41
1
10
55.8603022381669
20
-3.1084608460163
30
0
41
1
10
55.8281276105998
20
-3.19689111864682
30
0
41
1
10
55.821729089802
20
-3.2145899137297
30
0
41
1
10
55.8089309127976
20
-3.24998710057554
30
0
41
1
10
55.7897504105197
20
-3.3030885542569
30
0
41
1
10
55.7706193985603
20
-3.35620803251845
30
0
41
1
10
55.656031418805
20
-3.67498705021163
30
0
41
1
10
55.5556965565234
20
-3.95853531959918
30
0
41
1
10
55.4071761868926
20
-4.38383216644226
30
0
41
1
10
55.3579765539208
20
-4.52564370717243
30
0
41
1
10
55.2603257296778
20
-4.80856090465056
30
0
41
1
10
55.2118558641992
20
-4.94972806509873
30
0
41
1
10
55.1636624641023
20
-5.09053793872704
30
0
0
SPLINE
5
DB
100
AcDbEntity
8
1
62
256
6
ByLayer
370
18
48
1
60
0
100
AcDbSpline
70
4
71
3
72
8
73
4
40
0
40
0
40
0
40
0
40
1
40
1
40
1
40
1
41
1
10
56.4438218830125
20
-1.79426315911635
30
0
41
1
10
56.5895078513742
20
-1.38656867911462
30
0
41
1
10
56.7339859601796
20
-0.978449684486236
30
0
41
1
10
56.8772319291987
20
-0.569897641695377
30
0
0
SPLINE
5
DC
100
AcDbEntity
8
1
62
256
6
ByLayer
370
18
48
1
60
0
100
AcDbSpline
70
4
71
3
72
8
73
4
40
0
40
0
40
0
40
0
40
1
40
1
40
1
40
1
41
1
10
56.8772319291988
20
-0.569897641695349
30
0
41
1
10
56.9166581226535
20
-0.457450136291214
30
0
41
1
10
56.9568613250035
20
-0.345434033523617
30
0
41
1
10
56.9978398337468
20
-0.233834008720464
30
0
0
SPLINE
5
DD
100
AcDbEntity
8
1
62
256
6
ByLayer
370
18
48
1
60
0
100
AcDbSpline
70
4
71
3
72
8
73
4
40
0
40
0
40
0
40
0
40
1
40
1
40
1
40
1
41
1
10
56.9978398337468
20
0.233834008720464
30
0
41
1
10
57.0007145228585
20
0.0782441141689105
30
0
41
1
10
57.0007256093113
20
-0.0776440701476702
30
0
41
1
10
56.9978398337467
20
-0.233834008720436
30
0
0
SPLINE
5
DE
100
AcDbEntity
8
1
62
256
6
ByLayer
370
18
48
1
60
0
100
AcDbSpline
70
4
71
3
72
58
73
54
40
0
40
0
40
0
40
0
40
0.0625000000000115
40
0.0625000000000115
40
0.0937500000000172
40
0.109375000000023
40
0.109375000000023
40
0.125000000000028
40
0.125000000000028
40
0.18750000000005
40
0.18750000000005
40
0.250000000000072
40
0.250000000000072
40
0.28125000000008
40
0.28125000000008
40
0.296875000000084
40
0.296875000000084
40
0.312500000000088
40
0.312500000000088
40
0.375000000000091
40
0.375000000000091
40
0.437500000000095
40
0.437500000000095
40
0.453125000000094
40
0.453125000000094
40
0.468750000000094
40
0.468750000000094
40
0.500000000000092
40
0.500000000000092
40
0.562500000000096
40
0.562500000000096
40
0.593750000000098
40
0.593750000000098
40
0.609375000000099
40
0.609375000000099
40
0.625000000000099
40
0.625000000000099
40
0.687500000000094
40
0.687500000000094
40
0.718750000000091
40
0.734375000000088
40
0.734375000000088
40
0.750000000000084
40
0.750000000000084
40
0.812500000000064
40
0.812500000000064
40
0.875000000000043
40
0.875000000000043
40
0.906250000000032
40
0.906250000000032
40
0.937500000000022
40
0.937500000000022
40
1
40
1
40
1
40
1
41
1
10
56.9978398337468
20
0.233834008720436
30
0
41
1
10
56.9775800868568
20
0.17511884744664
30
0
41
1
10
56.9562374811526
20
0.116915423203267
30
0
41
1
10
56.922603196022
20
0.0303861570570518
30
0
41
1
10
56.9053799598921
20
-0.0126840294158228
30
0
41
1
10
56.8875381122111
20
-0.0554560627657281
30
0
41
1
10
56.8755042014698
20
-0.0839033735269936
30
0
41
1
10
56.8694071935426
20
-0.098117184126238
30
0
41
1
10
56.8387004933187
20
-0.168712174866926
30
0
41
1
10
56.8135585487646
20
-0.223391208468513
30
0
41
1
10
56.7622102424236
20
-0.329169322618213
30
0
41
1
10
56.7360040448598
20
-0.380269337950892
30
0
41
1
10
56.69590987679
20
-0.454113053811511
30
0
41
1
10
56.6824137798247
20
-0.478258457809943
30
0
41
1
10
56.6619684853791
20
-0.513742144351397
30
0
41
1
10
56.6551198188251
20
-0.525447517716771
30
0
41
1
10
56.6413540940561
20
-0.548606524690882
30
0
41
1
10
56.6344432112262
20
-0.560048760496755
30
0
41
1
10
56.6000291918391
20
-0.616110176255631
30
0
41
1
10
56.572705286754
20
-0.65770511401422
30
0
41
1
10
56.5184767377943
20
-0.734423433814641
30
0
41
1
10
56.4915721691688
20
-0.769548166593751
30
0
41
1
10
56.4581946527488
20
-0.809204876119196
30
0
41
1
10
56.4515317584347
20
-0.816922781373478
30
0
41
1
10
56.4382307476018
20
-0.831922412198082
30
0
41
1
10
56.4315798687513
20
-0.839217091489928
30
0
41
1
10
56.4118321038304
20
-0.860254382756722
30
0
41
1
10
56.3988988613204
20
-0.873200792989451
30
0
41
1
10
56.3607621463481
20
-0.908876969362183
30
0
41
1
10
56.3362199138878
20
-0.928457435499524
30
0
41
1
10
56.3006359597234
20
-0.95154697779725
30
0
41
1
10
56.2889800091415
20
-0.95819314512687
30
0
41
1
10
56.2717962816088
20
-0.966558222478568
30
0
41
1
10
56.2661071528932
20
-0.969083283846004
30
0
41
1
10
56.254887946051
20
-0.973567614826919
30
0
41
1
10
56.2493629822085
20
-0.975526077288237
30
0
41
1
10
56.2221464612427
20
-0.983928757988821
30
0
41
1
10
56.2016744397027
20
-0.986222147464474
30
0
41
1
10
56.1727025116085
20
-0.983340298777563
30
0
41
1
10
56.1586521749436
20
-0.980313506216589
30
0
41
1
10
56.1452274773754
20
-0.974923875881245
30
0
41
1
10
56.1364143729499
20
-0.970804694742782
30
0
41
1
10
56.1320686519374
20
-0.968477294871775
30
0
41
1
10
56.1107888109963
20
-0.955592675136046
30
0
41
1
10
56.0951876508166
20
-0.941328663539423
30
0
41
1
10
56.066450716241
20
-0.905520855214121
30
0
41
1
10
56.0533167154452
20
-0.883973355951127
30
0
41
1
10
56.0352928212648
20
-0.846404470064442
30
0
41
1
10
56.0295552639718
20
-0.832973315329951
30
0
41
1
10
56.0187137698126
20
-0.804625282073744
30
0
41
1
10
56.0135992518408
20
-0.789692252918286
30
0
41
1
10
55.999119515263
20
-0.742702891687202
30
0
41
1
10
55.9906146078195
20
-0.70846285950887
30
0
41
1
10
55.9831604750835
20
-0.67144957082175
30
0
0
SPLINE
5
DF
100
AcDbEntity
8
1
62
256
6
ByLayer
370
18
48
1
60
0
100
AcDbSpline
70
4
71
3
72
8
73
4
40
0
40
0
40
0
40
0
40
1
40
1
40
1
40
1
41
1
10
55.9831604750836
20
-0.671449570821721
30
0
41
1
10
55.8844166956905
20
-0.181140081816949
30
0
41
1
10
55.7570034268521
20
0.326455520110557
30
0
41
1
10
55.6005529611045
20
0.851558942178741
30
0
0
SPLINE
5
E0
100
AcDbEntity
8
1
62
256
6
ByLayer
370
18
48
1
60
0
100
AcDbSpline
70
4
71
3
72
19
73
15
40
0
40
0
40
0
40
0
40
0.25
40
0.25
40
0.499999999999999
40
0.499999999999999
40
0.624999999999999
40
0.624999999999999
40
0.749999999999999
40
0.749999999999999
40
0.874999999999999
40
0.937499999999999
40
0.937499999999999
40
1
40
1
40
1
40
1
41
1
10
54.9859137075992
20
0.514697994970703
30
0
41
1
10
55.0361313318177
20
0.557342857558353
30
0
41
1
10
55.0867875761094
20
0.596409374500183
30
0
41
1
10
55.1887499673338
20
0.667429958489635
30
0
41
1
10
55.2400594022818
20
0.699485118126091
30
0
41
1
10
55.3173342747928
20
0.742156148482707
30
0
41
1
10
55.3431445252443
20
0.75548785258627
30
0
41
1
10
55.3948391611027
20
0.780372698504237
30
0
41
1
10
55.4207379288425
20
0.791926168263728
30
0
41
1
10
55.4723806590093
20
0.812839140816521
30
0
41
1
10
55.5110224468385
20
0.82688262307596
30
0
41
1
10
55.5494694004195
20
0.838341795005107
30
0
41
1
10
55.5750501520512
20
0.845390940162616
30
0
41
1
10
55.587811989487
20
0.848594299270047
30
0
41
1
10
55.600552961104
20
0.851558942178457
30
0
0
SPLINE
5
E1
100
AcDbEntity
8
1
62
256
6
ByLayer
370
18
48
1
60
0
100
AcDbSpline
70
4
71
3
72
23
73
19
40
0
40
0
40
0
40
0
40
0.500000000000025
40
0.500000000000025
40
0.750000000000009
40
0.750000000000009
40
0.874999999999969
40
0.874999999999969
40
0.937499999999952
40
0.937499999999952
40
0.968749999999944
40
0.984374999999943
40
0.984374999999943
40
0.992187499999975
40
0.992187499999975
40
0.996093749999987
40
0.996093749999987
40
1
40
1
40
1
40
1
41
1
10
54.887438954762
20
-5.55625167593601
30
0
41
1
10
54.9110763573681
20
-5.5177636886919
30
0
41
1
10
54.9347261861943
20
-5.47912963659797
30
0
41
1
10
54.9702186429685
20
-5.42096377560193
30
0
41
1
10
54.9820522301268
20
-5.40153974608816
30
0
41
1
10
54.9998064899862
20
-5.3723513444067
30
0
41
1
10
55.005725966965
20
-5.36261155668265
30
0
41
1
10
55.0146038719399
20
-5.34799370440663
30
0
41
1
10
55.0175579352411
20
-5.34313048887356
30
0
41
1
10
55.0219802599112
20
-5.33585148477093
30
0
41
1
10
55.0241944596739
20
-5.33220485647038
30
0
41
1
10
55.0264338468713
20
-5.32850317798176
30
0
41
1
10
55.0275585837808
20
-5.32664121089064
30
0
41
1
10
55.0279363979177
20
-5.32601436442312
30
0
41
1
10
55.0284892676584
20
-5.32510364715614
30
0
41
1
10
55.0286721796607
20
-5.32480326262859
30
0
41
1
10
55.0290170128916
20
-5.32424459947515
30
0
41
1
10
55.0291896011021
20
-5.32396855163933
30
0
41
1
10
55.0292878243476
20
-5.32382890222505
30
0
0
SPLINE
5
E2
100
AcDbEntity
8
1
62
256
6
ByLayer
370
18
48
1
60
0
100
AcDbSpline
70
4
71
3
72
57
73
53
40
0
40
0
40
0
40
0
40
0.0512084005866025
40
0.0512084005866025
40
0.0775637227925294
40
0.0775637227925294
40
0.103919044998456
40
0.103919044998456
40
0.156629689410312
40
0.156629689410312
40
0.18298501161624
40
0.18298501161624
40
0.209340333822169
40
0.209340333822169
40
0.262050978234026
40
0.262050978234026
40
0.314761622645883
40
0.314761622645883
40
0.341116944851811
40
0.341116944851811
40
0.367472267057739
40
0.367472267057739
40
0.420182911469593
40
0.420182911469593
40
0.472893555881447
40
0.472893555881447
40
0.499248878087374
40
0.499248878087374
40
0.5256042002933
40
0.5256042002933
40
0.578314844705156
40
0.578314844705156
40
0.604670166911084
40
0.604670166911084
40
0.631025489117012
40
0.631025489117012
40
0.683736133528867
40
0.683736133528867
40
0.736446777940723
40
0.736446777940723
40
0.789157422352578
40
0.789157422352578
40
0.841868066764434
40
0.841868066764434
40
0.894578711176289
40
0.894578711176289
40
0.920934033382217
40
0.920934033382217
40
0.947289355588145
40
0.973644677794072
40
0.973644677794072
40
1
40
1
40
1
40
1
41
1
10
41.459942461476
20
-1.49923758663488
30
0
41
1
10
41.1231060903904
20
-1.33359895035773
30
0
41
1
10
40.7863485412148
20
-1.16568890640696
30
0
41
1
10
40.2759040969518
20
-0.908860556220759
30
0
41
1
10
40.1023972411173
20
-0.821156145948947
30
0
41
1
10
39.7551879659513
20
-0.645008366649421
30
0
41
1
10
39.5814233026953
20
-0.556531508893301
30
0
41
1
10
39.0601652616459
20
-0.290493412227079
30
0
41
1
10
38.7128936413302
20
-0.112481514302203
30
0
41
1
10
38.1917842177928
20
0.154440995689526
30
0
41
1
10
38.0180071580952
20
0.243427523798118
30
0
41
1
10
37.6705132606729
20
0.421142777024784
30
0
41
1
10
37.4969195818559
20
0.509819097940891
30
0
41
1
10
36.9764260351493
20
0.774990070506533
30
0
41
1
10
36.6297754806327
20
0.950541573156045
30
0
41
1
10
35.9364075956146
20
1.29776139005574
30
0
41
1
10
35.5897009065332
20
1.46945980359857
30
0
41
1
10
35.0691361061008
20
1.72327786420144
30
0
41
1
10
34.8955281808951
20
1.80725656049091
30
0
41
1
10
34.5480260337322
20
1.97373483243436
30
0
41
1
10
34.3743025240253
20
2.0561503615576
30
0
41
1
10
33.8535633813943
20
2.30049247598066
30
0
41
1
10
33.5067788126433
20
2.45960931432254
30
0
41
1
10
32.8134312977977
20
2.76926814016593
30
0
41
1
10
32.466823887839
20
2.91969163064942
30
0
41
1
10
31.9463820513607
20
3.13769183281951
30
0
41
1
10
31.7728160609786
20
3.20909429439161
30
0
41
1
10
31.4254340574819
20
3.34926293623613
30
0
41
1
10
31.2516205779513
20
3.41803332985773
30
0
41
1
10
30.7303848987687
20
3.61994845239127
30
0
41
1
10
30.3828546587885
20
3.74879994739797
30
0
41
1
10
29.8614901329617
20
3.93226734602428
30
0
41
1
10
29.6877736643096
20
3.99177282479098
30
0
41
1
10
29.3405818956819
20
4.1073344143731
30
0
41
1
10
29.1670799365197
20
4.16340019154916
30
0
41
1
10
28.6467698712048
20
4.32631842749436
30
0
41
1
10
28.3001355191364
20
4.42784403319416
30
0
41
1
10
27.6064878910815
20
4.61549551108092
30
0
41
1
10
27.2594817699972
20
4.70167589851306
30
0
41
1
10
26.5644639308236
20
4.85837172136735
30
0
41
1
10
26.2169927751327
20
4.92877294354653
30
0
41
1
10
25.5218721049366
20
5.05276170362009
30
0
41
1
10
25.1742691704076
20
5.10638005980107
30
0
41
1
10
24.4791012056331
20
5.19659172756934
30
0
41
1
10
24.1318141578864
20
5.23314281018463
30
0
41
1
10
23.6106776755791
20
5.27459198537326
30
0
41
1
10
23.4369043907288
20
5.28619126599884
30
0
41
1
10
23.089349822025
20
5.30493192471923
30
0
41
1
10
22.7419103522507
20
5.31921077596581
30
0
41
1
10
22.3945555108091
20
5.32458275149443
30
0
41
1
10
22.0471431615454
20
5.32549710718067
30
0
41
1
10
21.8733796170042
20
5.32372498411098
30
0
41
1
10
21.699603731895
20
5.31971110778954
30
0
0
SPLINE
5
E3
100
AcDbEntity
8
1
62
256
6
ByLayer
370
18
48
1
60
0
100
AcDbSpline
70
4
71
3
72
18
73
14
40
0
40
0
40
0
40
0
40
0.250000000000006
40
0.250000000000006
40
0.375000000000009
40
0.375000000000009
40
0.500000000000013
40
0.500000000000013
40
0.750000000000008
40
0.750000000000008
40
0.875000000000004
40
0.875000000000004
40
1
40
1
40
1
40
1
41
1
10
21.7541565894069
20
-5.21680503005314
30
0
41
1
10
21.7446728947898
20
-5.22082066177055
30
0
41
1
10
21.7366595125882
20
-5.22573959408618
30
0
41
1
10
21.7262838082664
20
-5.2341197426494
30
0
41
1
10
21.7231280508753
20
-5.23707485743447
30
0
41
1
10
21.7174990506499
20
-5.24312172934339
30
0
41
1
10
21.7149994935945
20
-5.24623466614986
30
0
41
1
10
21.7083533958948
20
-5.25581414508568
30
0
41
1
10
21.7050381027229
20
-5.26258432924115
30
0
41
1
10
21.7017725917919
20
-5.27281880043023
30
0
41
1
10
21.7009612490347
20
-5.27625232384571
30
0
41
1
10
21.699876423012
20
-5.28316177545722
30
0
41
1
10
21.6996037318951
20
-5.28666678031053
30
0
41
1
10
21.6996037318951
20
-5.29012060817885
30
0
0
SPLINE
5
E4
100
AcDbEntity
8
1
62
256
6
ByLayer
370
13
48
1
60
0
100
AcDbSpline
70
4
71
3
72
10
73
6
40
0
40
0
40
0
40
0
40
0.5
40
0.5
40
1
40
1
40
1
40
1
41
1
10
21.7998659424102
20
-5.20961649255568
30
0
41
1
10
21.7919473116058
20
-5.20898403501582
30
0
41
1
10
21.7841701314397
20
-5.20927380060908
30
0
41
1
10
21.768895470766
20
-5.21164813213312
30
0
41
1
10
21.7613418810697
20
-5.21376259920052
30
0
41
1
10
21.7541565894069
20
-5.21680503005317
30
0
0
SPLINE
5
E5
100
AcDbEntity
8
1
62
256
6
ByLayer
370
13
48
1
60
0
100
AcDbSpline
70
4
71
3
72
44
73
40
40
0
40
0
40
0
40
0
40
0.0624999999999998
40
0.125
40
0.125
40
0.15625
40
0.15625
40
0.1875
40
0.1875
40
0.25
40
0.25
40
0.312499999999999
40
0.312499999999999
40
0.374999999999999
40
0.437499999999999
40
0.437499999999999
40
0.468749999999999
40
0.484374999999999
40
0.484374999999999
40
0.5
40
0.5
40
0.5625
40
0.625
40
0.625
40
0.65625
40
0.65625
40
0.6875
40
0.6875
40
0.75
40
0.765625
40
0.765625
40
0.78125
40
0.78125
40
0.8125
40
0.8125
40
0.875
40
0.9375
40
0.9375
40
1
40
1
40
1
40
1
41
1
10
21.8005602272612
20
-0.0025116112332455
30
0
41
1
10
21.8005524973663
20
-0.157626278011236
30
0
41
1
10
21.8005351071536
20
-0.466233701691664
30
0
41
1
10
21.8005144015464
20
-0.771660075489137
30
0
41
1
10
21.8004977850411
20
-0.999532652810871
30
0
41
1
10
21.8004920645703
20
-1.07529036759305
30
0
41
1
10
21.8004802811085
20
-1.22640198517644
30
0
41
1
10
21.8004742137164
20
-1.30180350236569
30
0
41
1
10
21.8004556213793
20
-1.52624645558504
30
0
41
1
10
21.8004426808424
20
-1.67389276399666
30
0
41
1
10
21.8004158599863
20
-1.96520822716499
30
0
41
1
10
21.8004021069484
20
-2.1074967625045
30
0
41
1
10
21.8003740706765
20
-2.38533157131607
30
0
41
1
10
21.8003454966704
20
-2.65649905138045
30
0
41
1
10
21.8003159977449
20
-2.914466591576
30
0
41
1
10
21.8002935427294
20
-3.10292984261102
30
0
41
1
10
21.8002822319066
20
-3.19590660127724
30
0
41
1
10
21.8002707933613
20
-3.28697268182668
30
0
41
1
10
21.8002631385575
20
-3.34725442465722
30
0
41
1
10
21.8002592934472
20
-3.37720485797621
30
0
41
1
10
21.8002400637577
20
-3.52533245398942
30
0
41
1
10
21.8002091921083
20
-3.7526143115293
30
0
41
1
10
21.8001779906411
20
-3.96069236795702
30
0
41
1
10
21.8001543851574
20
-4.10947229966072
30
0
41
1
10
21.8001464782451
20
-4.15786952041705
30
0
41
1
10
21.8001306698125
20
-4.25166946427026
30
0
41
1
10
21.8001227571444
20
-4.29714441590991
30
0
41
1
10
21.8000989649811
20
-4.4293217237601
30
0
41
1
10
21.8000790494808
20
-4.5324004096415
30
0
41
1
10
21.800058881084
20
-4.62660300651697
30
0
41
1
10
21.8000507899
20
-4.66356833432403
30
0
41
1
10
21.8000467286711
20
-4.68171002085433
30
0
41
1
10
21.8000345373071
20
-4.73491389569162
30
0
41
1
10
21.8000264013787
20
-4.76875141334946
30
0
41
1
10
21.8000019285944
20
-4.86545057151571
30
0
41
1
10
21.7999691260812
20
-4.98156523525569
30
0
41
1
10
21.7999355294301
20
-5.07245676180821
30
0
41
1
10
21.7999012887101
20
-5.15065260638514
30
0
41
1
10
21.7998838465685
20
-5.18340369575446
30
0
41
1
10
21.7998659424102
20
-5.20961649255568
30
0
0
SPLINE
5
E6
100
AcDbEntity
8
1
62
256
6
ByLayer
370
18
48
1
60
0
100
AcDbSpline
70
4
71
3
72
14
73
10
40
0
40
0
40
0
40
0
40
0.0990990539414497
40
0.0990990539414497
40
0.324324290456086
40
0.324324290456086
40
0.549549526970722
40
0.549549526970722
40
1
40
1
40
1
40
1
41
1
10
26.3515053875565
20
-5.30523608481829
30
0
41
1
10
26.1993142431075
20
-5.32648560612543
30
0
41
1
10
26.0472573003888
20
-5.34600709273278
30
0
41
1
10
25.5499614820752
20
-5.4042255776464
30
0
41
1
10
25.2051337801359
20
-5.43569344589048
30
0
41
1
10
24.5158389024378
20
-5.48059728536467
30
0
41
1
10
24.1714010130054
20
-5.49403245007773
30
0
41
1
10
23.1373353268695
20
-5.50708233884012
30
0
41
1
10
22.4469426202832
20
-5.47949064846253
30
0
41
1
10
21.7528455772959
20
-5.41531805252043
30
0
0
SPLINE
5
E7
100
AcDbEntity
8
1
62
256
6
ByLayer
370
18
48
1
60
0
100
AcDbSpline
70
4
71
3
72
16
73
12
40
0
40
0
40
0
40
0
40
0.249999999999695
40
0.249999999999695
40
0.374999999999679
40
0.374999999999679
40
0.499999999999664
40
0.499999999999664
40
0.749999999999832
40
0.749999999999832
40
1
40
1
40
1
40
1
41
1
10
21.7528455772959
20
-5.41531805252043
30
0
41
1
10
21.744786720236
20
-5.41457297258805
30
0
41
1
10
21.7374844154655
20
-5.41365581518485
30
0
41
1
10
21.7276352638602
20
-5.41201647189834
30
0
41
1
10
21.7245253312716
20
-5.41142146130457
30
0
41
1
10
21.7188631579976
20
-5.41017268780166
30
0
41
1
10
21.7162883610797
20
-5.40951599449866
30
0
41
1
10
21.7093229446302
20
-5.40744716103697
30
0
41
1
10
21.7056742764637
20
-5.40591705996886
30
0
41
1
10
21.7008536678459
20
-5.40274739194882
30
0
41
1
10
21.6996037318951
20
-5.4010768643025
30
0
41
1
10
21.6996037318951
20
-5.39936970891691
30
0
0
SPLINE
5
E8
100
AcDbEntity
8
1
62
256
6
ByLayer
370
18
48
1
60
0
100
AcDbSpline
70
4
71
3
72
27
73
23
40
0
40
0
40
0
40
0
40
0.124999999999912
40
0.124999999999912
40
0.187499999999867
40
0.187499999999867
40
0.249999999999823
40
0.312499999999779
40
0.312499999999779
40
0.374999999999735
40
0.374999999999735
40
0.499999999999788
40
0.499999999999788
40
0.624999999999841
40
0.624999999999841
40
0.687499999999867
40
0.687499999999867
40
0.749999999999894
40
0.749999999999894
40
0.874999999999947
40
0.874999999999947
40
1
40
1
40
1
40
1
41
1
10
21.6996037318951
20
-0.0926636488206327
30
0
41
1
10
21.6996037318951
20
-0.0839824497907102
30
0
41
1
10
21.7007154074658
20
-0.0754902474291725
30
0
41
1
10
21.7039998606521
20
-0.0630268823899769
30
0
41
1
10
21.7053810716518
20
-0.0588903049922749
30
0
41
1
10
21.7086361973408
20
-0.0509090758610569
30
0
41
1
10
21.7123801641852
20
-0.043198637405709
30
0
41
1
10
21.7170813967929
20
-0.0360184980592066
30
0
41
1
10
21.7222752598576
20
-0.0291112791048818
30
0
41
1
10
21.7251083519588
20
-0.025814867320463
30
0
41
1
10
21.7341062447214
20
-0.0166137256742331
30
0
41
1
10
21.7408739097255
20
-0.0112658536731374
30
0
41
1
10
21.755731822876
20
-0.0023861227280122
30
0
41
1
10
21.7635856454744
20
0.0010204018501838
30
0
41
1
10
21.7759939203863
20
0.0046038711126073
30
0
41
1
10
21.7802564959645
20
0.0055404073632417
30
0
41
1
10
21.7887590899992
20
0.0068388228156664
30
0
41
1
10
21.7930250150009
20
0.0072107876032135
30
0
41
1
10
21.8058660912374
20
0.0075059808931712
30
0
41
1
10
21.814595627875
20
0.0065743603703083
30
0
41
1
10
21.8312237278952
20
0.0025892565615209
30
0
41
1
10
21.8392141834908
20
-0.0004343395365822
30
0
41
1
10
21.846865719694
20
-0.00453783980808
30
0
0
SPLINE
5
E9
100
AcDbEntity
8
1
62
256
6
ByLayer
370
18
48
1
60
0
100
AcDbSpline
70
4
71
3
72
134
73
130
40
0
40
0
40
0
40
0
40
0.0074625345938158
40
0.0074625345938158
40
0.0262598802275337
40
0.0262598802275337
40
0.0450572258612517
40
0.0450572258612517
40
0.0638545714949696
40
0.0638545714949696
40
0.0732532443118288
40
0.0732532443118288
40
0.082651917128688
40
0.082651917128688
40
0.101449262762406
40
0.101449262762406
40
0.120246608396124
40
0.120246608396124
40
0.139043954029842
40
0.139043954029842
40
0.148442626846701
40
0.148442626846701
40
0.15784129966356
40
0.15784129966356
40
0.167239972480419
40
0.167239972480419
40
0.176638645297278
40
0.176638645297278
40
0.214233336564713
40
0.214233336564713
40
0.233030682198431
40
0.233030682198431
40
0.251828027832149
40
0.251828027832149
40
0.261226700649008
40
0.261226700649008
40
0.270625373465867
40
0.270625373465867
40
0.289422719099585
40
0.289422719099585
40
0.32701741036702
40
0.32701741036702
40
0.345814756000738
40
0.345814756000738
40
0.355213428817597
40
0.355213428817597
40
0.364612101634456
40
0.364612101634456
40
0.383409447268173
40
0.383409447268173
40
0.402206792901889
40
0.402206792901889
40
0.421004138535606
40
0.421004138535606
40
0.439801484169323
40
0.439801484169323
40
0.449200156986182
40
0.449200156986182
40
0.458598829803041
40
0.458598829803041
40
0.4679975026199
40
0.4679975026199
40
0.477396175436759
40
0.477396175436759
40
0.496193521070478
40
0.496193521070478
40
0.514990866704196
40
0.514990866704196
40
0.533788212337915
40
0.533788212337915
40
0.543186885154774
40
0.543186885154774
40
0.552585557971633
40
0.552585557971633
40
0.571382903605353
40
0.571382903605353
40
0.580781576422212
40
0.580781576422212
40
0.590180249239072
40
0.590180249239072
40
0.627774940506513
40
0.627774940506513
40
0.637173613323374
40
0.637173613323374
40
0.646572286140234
40
0.646572286140234
40
0.665369631773955
40
0.665369631773955
40
0.684166977407676
40
0.684166977407676
40
0.702964323041397
40
0.702964323041397
40
0.721761668675118
40
0.721761668675118
40
0.731160341491979
40
0.731160341491979
40
0.74055901430884
40
0.74055901430884
40
0.759356359942562
40
0.759356359942562
40
0.778153705576285
40
0.778153705576285
40
0.787552378393146
40
0.787552378393146
40
0.796951051210007
40
0.796951051210007
40
0.806349724026869
40
0.806349724026869
40
0.81574839684373
40
0.81574839684373
40
0.853343088111176
40
0.853343088111176
40
0.872140433744898
40
0.872140433744898
40
0.890937779378621
40
0.890937779378621
40
0.900336452195482
40
0.900336452195482
40
0.909735125012343
40
0.909735125012343
40
0.928532470646066
40
0.928532470646066
40
0.966127161913511
40
0.966127161913511
40
0.984924507547233
40
0.984924507547233
40
0.994323180364094
40
0.994323180364094
40
1
40
1
40
1
40
1
41
1
10
7.09371222243553
20
5.47030399373031
30
0
41
1
10
7.19397515070239
20
5.47048910301103
30
0
41
1
10
7.29419103230401
20
5.46990861217702
30
0
41
1
10
7.6466940487426
20
5.46517666723591
30
0
41
1
10
7.8987407360413
20
5.4569358355827
30
0
41
1
10
8.40259949540749
20
5.43076953806928
30
0
41
1
10
8.65436892936302
20
5.41282405372485
30
0
41
1
10
9.15842706450135
20
5.36746399226735
30
0
41
1
10
9.41054717767042
20
5.340008271915
30
0
41
1
10
9.78900243509923
20
5.29168106650712
30
0
41
1
10
9.91519959175147
20
5.27438056089596
30
0
41
1
10
10.1677262681444
20
5.23740602987598
30
0
41
1
10
10.2941076526246
20
5.21772457008427
30
0
41
1
10
10.6731668358264
20
5.15520931366041
30
0
41
1
10
10.925519667194
20
5.10894185534514
30
0
41
1
10
11.4298502967011
20
5.0075037610018
30
0
41
1
10
11.6818640280642
20
4.95236321339436
30
0
41
1
10
12.1857385829507
20
4.83339064391504
30
0
41
1
10
12.4375790574657
20
4.76953835908324
30
0
41
1
10
12.8154100917368
20
4.66737938530659
30
0
41
1
10
12.9413459696734
20
4.632242151848
30
0
41
1
10
13.1934048144806
20
4.56000439960062
30
0
41
1
10
13.31951579439
20
4.52289425378959
30
0
41
1
10
13.5718253179742
20
4.44660938480263
30
0
41
1
10
13.6980372949145
20
4.40744842237393
30
0
41
1
10
13.9506039594345
20
4.32711241039559
30
0
41
1
10
14.0770137187027
20
4.28591764671197
30
0
41
1
10
14.7084622589785
20
4.07531349654678
30
0
41
1
10
15.2121932305737
20
3.8919462326582
30
0
41
1
10
15.9677461730325
20
3.59748444927465
30
0
41
1
10
16.2195947006659
20
3.49610910915686
30
0
41
1
10
16.7233863003584
20
3.28704490783642
30
0
41
1
10
16.9753317762647
20
3.17935525604392
30
0
41
1
10
17.3536157795188
20
3.01349651563842
30
0
41
1
10
17.4798298681793
20
2.95758381670302
30
0
41
1
10
17.7324150795918
20
2.84437489638441
30
0
41
1
10
17.858795671418
20
2.78707826247873
30
0
41
1
10
18.2375094540452
20
2.61351607398879
30
0
41
1
10
18.4896410058507
20
2.49545331977814
30
0
41
1
10
19.2454582458058
20
2.13498693320415
30
0
41
1
10
19.7486215356918
20
1.88639321123378
30
0
41
1
10
20.5042983520084
20
1.50463739518864
30
0
41
1
10
20.7562988588831
20
1.3758246927728
30
0
41
1
10
21.1346303744368
20
1.18055332570432
30
0
41
1
10
21.2607984860785
20
1.11512533015298
30
0
41
1
10
21.5132842519299
20
0.98365361133375
30
0
41
1
10
21.6395199253292
20
0.91770467784545
30
0
41
1
10
22.0180301967346
20
0.719684230767683
30
0
41
1
10
22.2700803549475
20
0.58705590437927
30
0
41
1
10
22.7738177807381
20
0.320981307524562
30
0
41
1
10
23.025495050574
20
0.187516057931561
30
0
41
1
10
23.5288430534384
20
-0.0795574768490894
30
0
41
1
10
23.7805053182299
20
-0.213181799074363
30
0
41
1
10
24.2841437664884
20
-0.479966047028341
30
0
41
1
10
24.5361538056126
20
-0.613061685518772
30
0
41
1
10
24.9145633910227
20
-0.812055310085015
30
0
41
1
10
25.0407994264791
20
-0.878304477925155
30
0
41
1
10
25.293266435482
20
-1.01044100653903
30
0
41
1
10
25.4194017047776
20
-1.07627823847901
30
0
41
1
10
25.6715104804114
20
-1.20742685732821
30
0
41
1
10
25.7974678254394
20
-1.27276777087087
30
0
41
1
10
26.0493901662918
20
-1.40261262015366
30
0
41
1
10
26.1753278724251
20
-1.46716782379298
30
0
41
1
10
26.5530076565225
20
-1.6598509943251
30
0
41
1
10
26.8046543985232
20
-1.78692653436147
30
0
41
1
10
27.3078978862425
20
-2.0379017018528
30
0
41
1
10
27.559511036766
20
-2.16177133257713
30
0
41
1
10
28.0630659099634
20
-2.40565820879127
30
0
41
1
10
28.3149945224425
20
-2.52569775240119
30
0
41
1
10
28.6934080953475
20
-2.70238846874949
30
0
41
1
10
28.8196911204088
20
-2.76075142090988
30
0
41
1
10
29.0720509418465
20
-2.87616235538664
30
0
41
1
10
29.1981402185955
20
-2.93322122688562
30
0
41
1
10
29.5761796153074
20
-3.10239180112958
30
0
41
1
10
29.8278833235559
20
-3.21252384952271
30
0
41
1
10
30.2052759189161
20
-3.37325824798106
30
0
41
1
10
30.3310982227387
20
-3.42601545955586
30
0
41
1
10
30.5827064620539
20
-3.53002292411159
30
0
41
1
10
30.7085001193323
20
-3.58126101388257
30
0
41
1
10
31.3374877482538
20
-3.83351757234453
30
0
41
1
10
31.8406761085082
20
-4.02281271001942
30
0
41
1
10
32.4713153517921
20
-4.24139985967514
30
0
41
1
10
32.5975377611549
20
-4.28421911625071
30
0
41
1
10
32.8497225306712
20
-4.36783272996973
30
0
41
1
10
32.9757471388047
20
-4.40864466459954
30
0
41
1
10
33.3536423503385
20
-4.528080587423
30
0
41
1
10
33.6053135245992
20
-4.60372825484825
30
0
41
1
10
34.1083714454006
20
-4.74682989772251
30
0
41
1
10
34.3597201549078
20
-4.81431174367597
30
0
41
1
10
34.862806030154
20
-4.94045243089505
30
0
41
1
10
35.1144058039986
20
-4.99924299946142
30
0
41
1
10
35.6179455293561
20
-5.10804072766643
30
0
41
1
10
35.869876250254
20
-5.15805211161467
30
0
41
1
10
36.2482911378103
20
-5.22623782751083
30
0
41
1
10
36.3744053674685
20
-5.24780836952297
30
0
41
1
10
36.6264208652452
20
-5.28858199935812
30
0
41
1
10
36.7523533442221
20
-5.30779113471476
30
0
41
1
10
37.1300004975518
20
-5.36185685373943
30
0
41
1
10
37.3815902695037
20
-5.3931428606152
30
0
41
1
10
37.8845641854022
20
-5.44617472910696
30
0
41
1
10
38.1359395043713
20
-5.46792067441928
30
0
41
1
10
38.5130468207074
20
-5.4932949233818
30
0
41
1
10
38.6387433412156
20
-5.50054688924348
30
0
41
1
10
38.8903125865303
20
-5.51260382043242
30
0
41
1
10
39.0161551625395
20
-5.51741608127222
30
0
41
1
10
39.2679317010684
20
-5.52460819385874
30
0
41
1
10
39.3938732980998
20
-5.5269867291056
30
0
41
1
10
39.6458918472012
20
-5.5292977409097
30
0
41
1
10
39.7720121678074
20
-5.52922964047838
30
0
41
1
10
40.4025172404126
20
-5.52274789250498
30
0
41
1
10
40.9054189055928
20
-5.4979159091265
30
0
41
1
10
41.6596172656602
20
-5.43184573163603
30
0
41
1
10
41.9109877702599
20
-5.40502681424067
30
0
41
1
10
42.4138063504665
20
-5.34183123694785
30
0
41
1
10
42.6652462371756
20
-5.30544418251992
30
0
41
1
10
43.0427786206493
20
-5.24380208245424
30
0
41
1
10
43.1687303938106
20
-5.22210668573607
30
0
41
1
10
43.4207737411165
20
-5.17637250511871
30
0
41
1
10
43.5469277862305
20
-5.15232665227936
30
0
41
1
10
43.9250364317709
20
-5.07683068500393
30
0
41
1
10
44.1767530921937
20
-5.02199534412756
30
0
41
1
10
44.9312928438493
20
-4.8443785350224
30
0
41
1
10
45.4335399468141
20
-4.70850046327456
30
0
41
1
10
46.1877520962219
20
-4.48045927205993
30
0
41
1
10
46.4392517818531
20
-4.40036526246598
30
0
41
1
10
46.8168244048817
20
-4.2742605000862
30
0
41
1
10
46.9427373991794
20
-4.23123331858449
30
0
41
1
10
47.1448186475664
20
-4.16065034118139
30
0
41
1
10
47.2209434351108
20
-4.13373086909493
30
0
41
1
10
47.2970535139435
20
-4.10649712237176
30
0
0
SPLINE
5
EA
100
AcDbEntity
8
1
62
256
6
ByLayer
370
18
48
1
60
0
100
AcDbSpline
70
4
71
3
72
25
73
21
40
0
40
0
40
0
40
0
40
0.212483387381261
40
0.212483387381261
40
0.318725081071892
40
0.318725081071892
40
0.371845927917204
40
0.371845927917204
40
0.424966774762517
40
0.424966774762517
40
0.637450162143769
40
0.637450162143769
40
0.743691855834395
40
0.743691855834395
40
0.849933549525021
40
0.849933549525021
40
0.903054396370333
40
0.903054396370333
40
0.956175243215645
40
1
40
1
40
1
40
1
41
1
10
21.699603731895
20
5.49332063121977
30
0
41
1
10
21.1948010285304
20
5.48318849077921
30
0
41
1
10
20.6904875163864
20
5.45360360384336
30
0
41
1
10
19.9332880947636
20
5.38035675839711
30
0
41
1
10
19.6807310599499
20
5.35113748917595
30
0
41
1
10
19.3014221456637
20
5.30017448264067
30
0
41
1
10
19.1748607929306
20
5.28199031961168
30
0
41
1
10
18.9217734071349
20
5.24328750065402
30
0
41
1
10
18.795310613548
20
5.22277964878302
30
0
41
1
10
18.1633329983399
20
5.11451840476059
30
0
41
1
10
17.6588722257034
20
5.00955051336823
30
0
41
1
10
16.9018245004291
20
4.8262388249874
30
0
41
1
10
16.6494236285302
20
4.76082408106015
30
0
41
1
10
16.1442845520898
20
4.62157369489174
30
0
41
1
10
15.8915678358886
20
4.5477136690215
30
0
41
1
10
15.5119810435422
20
4.43083486484403
30
0
41
1
10
15.385354921629
20
4.39085692700979
30
0
41
1
10
15.1323150692127
20
4.30905084480074
30
0
41
1
10
14.9015146197718
20
4.23268522812023
30
0
41
1
10
14.6708370001761
20
4.15326343352862
30
0
41
1
10
14.5665750033625
20
4.11674666424133
30
0
0
SPLINE
5
EB
100
AcDbEntity
8
1
62
256
6
ByLayer
370
18
48
1
60
0
100
AcDbSpline
70
4
71
3
72
94
73
90
40
0
40
0
40
0
40
0
40
0.0156249999999992
40
0.0156249999999992
40
0.0312499999999985
40
0.0624999999999979
40
0.0624999999999979
40
0.0937499999999974
40
0.0937499999999974
40
0.109374999999997
40
0.109374999999997
40
0.124999999999996
40
0.124999999999996
40
0.156249999999995
40
0.156249999999995
40
0.171874999999995
40
0.171874999999995
40
0.187499999999995
40
0.187499999999995
40
0.203124999999995
40
0.203124999999995
40
0.218749999999994
40
0.218749999999994
40
0.249999999999995
40
0.249999999999995
40
0.265624999999995
40
0.265624999999995
40
0.281249999999995
40
0.296874999999995
40
0.296874999999995
40
0.312499999999995
40
0.312499999999995
40
0.343749999999995
40
0.343749999999995
40
0.374999999999994
40
0.374999999999994
40
0.390624999999994
40
0.390624999999994
40
0.406249999999994
40
0.406249999999994
40
0.437499999999993
40
0.437499999999993
40
0.453124999999993
40
0.453124999999993
40
0.468749999999993
40
0.468749999999993
40
0.484374999999993
40
0.484374999999993
40
0.499999999999992
40
0.499999999999992
40
0.515624999999992
40
0.515624999999992
40
0.531249999999991
40
0.531249999999991
40
0.562499999999992
40
0.562499999999992
40
0.578124999999992
40
0.578124999999992
40
0.593749999999991
40
0.609374999999991
40
0.609374999999991
40
0.624999999999991
40
0.624999999999991
40
0.656249999999991
40
0.656249999999991
40
0.687499999999992
40
0.687499999999992
40
0.718749999999992
40
0.718749999999992
40
0.749999999999993
40
0.749999999999993
40
0.781249999999993
40
0.781249999999993
40
0.812499999999993
40
0.812499999999993
40
0.843749999999994
40
0.843749999999994
40
0.874999999999994
40
0.874999999999994
40
0.890624999999995
40
0.890624999999995
40
0.906249999999996
40
0.921874999999996
40
0.921874999999996
40
0.937499999999997
40
0.937499999999997
40
0.968749999999999
40
0.968749999999999
40
1
40
1
40
1
40
1
41
1
10
21.6996037318951
20
5.48854076598516
30
0
41
1
10
21.8727194882458
20
5.49380132539716
30
0
41
1
10
22.0458604556642
20
5.49678282087694
30
0
41
1
10
22.3920698584612
20
5.49817751039228
30
0
41
1
10
22.9109556407632
20
5.49341902725078
30
0
41
1
10
23.4289828816024
20
5.46819864859759
30
0
41
1
10
24.1196733089647
20
5.41656590679054
30
0
41
1
10
24.4650128959655
20
5.38174818954491
30
0
41
1
10
24.983547009334
20
5.31615749964899
30
0
41
1
10
25.1564795490473
20
5.29206664555284
30
0
41
1
10
25.502614662479
20
5.23945646292728
30
0
41
1
10
25.6756631294904
20
5.21095978761446
30
0
41
1
10
26.1946164295937
20
5.11903107975002
30
0
41
1
10
26.5404482452975
20
5.0491408235645
30
0
41
1
10
27.0595799664927
20
4.93180283066934
30
0
41
1
10
27.2326246878353
20
4.89062021444011
30
0
41
1
10
27.5785786993797
20
4.80425927524414
30
0
41
1
10
27.7515234213464
20
4.75907308958102
30
0
41
1
10
28.0974440461087
20
4.66478115279762
30
0
41
1
10
28.2704205413946
20
4.61567608098025
30
0
41
1
10
28.6164944406102
20
4.51363340196494
30
0
41
1
10
28.7895612462511
20
4.46070239515228
30
0
41
1
10
29.3084986255535
20
4.29647101372308
30
0
41
1
10
29.6542837562183
20
4.17967728161034
30
0
41
1
10
30.1732559411602
20
3.99417157515029
30
0
41
1
10
30.3462942419457
20
3.93061735083316
30
0
41
1
10
30.6921796533781
20
3.80033874726993
30
0
41
1
10
31.0379708249699
20
3.66685595433248
30
0
41
1
10
31.3837718413171
20
3.52723835479435
30
0
41
1
10
31.7296777550241
20
3.38469356484188
30
0
41
1
10
31.9026979035763
20
3.31195072579385
30
0
41
1
10
32.4216346534832
20
3.08973351433119
30
0
41
1
10
32.7676654484527
20
2.93617070296239
30
0
41
1
10
33.4593369055668
20
2.6200237675171
30
0
41
1
10
33.8050839757352
20
2.45737162543642
30
0
41
1
10
34.3240794985094
20
2.2073603907009
30
0
41
1
10
34.497045924989
20
2.12306470733461
30
0
41
1
10
34.8429656542775
20
1.9527344006828
30
0
41
1
10
35.0159591794914
20
1.86667957792861
30
0
41
1
10
35.5347030115976
20
1.60633764663945
30
0
41
1
10
35.8802866506522
20
1.42983781358183
30
0
41
1
10
36.3988880320037
20
1.16175311750524
30
0
41
1
10
36.5718294580722
20
1.07181715945495
30
0
41
1
10
36.9176650558435
20
0.891134802114038
30
0
41
1
10
37.0905617187832
20
0.800387480326918
30
0
41
1
10
37.4364127744199
20
0.618266597432381
30
0
41
1
10
37.6093307771378
20
0.526912229967138
30
0
41
1
10
37.9550438841669
20
0.343909192006635
30
0
41
1
10
38.1278701338487
20
0.252246443760839
30
0
41
1
10
38.4735460792294
20
0.0687568063996196
30
0
41
1
10
38.646395296219
20
-0.0230709862738365
30
0
41
1
10
38.9922025995281
20
-0.206729924378607
30
0
41
1
10
39.1651433586139
20
-0.298551730251518
30
0
41
1
10
39.6836874270751
20
-0.57345708385887
30
0
41
1
10
40.0291999062352
20
-0.756083700610731
30
0
41
1
10
40.5477746926857
20
-1.02796810425258
30
0
41
1
10
40.7206924507478
20
-1.11825616330668
30
0
41
1
10
41.0663422871998
20
-1.29775858258762
30
0
41
1
10
41.411901310552
20
-1.47624128853821
30
0
41
1
10
41.7574633611316
20
-1.65234801882355
30
0
41
1
10
42.1031220482051
20
-1.82709370586602
30
0
41
1
10
42.2760199851261
20
-1.91379572151501
30
0
41
1
10
42.7945789824125
20
-2.1713856777327
30
0
41
1
10
43.1403410418948
20
-2.33987103019351
30
0
41
1
10
43.8314496521655
20
-2.6683821848529
30
0
41
1
10
44.17691149642
20
-2.82846358714934
30
0
41
1
10
44.8683432775179
20
-3.1391281119088
30
0
41
1
10
45.21401378515
20
-3.28957219134998
30
0
41
1
10
45.9052901874529
20
-3.57920726277598
30
0
41
1
10
46.250963229732
20
-3.71842027263975
30
0
41
1
10
46.9418801375016
20
-3.98400619887391
30
0
41
1
10
47.2871951558541
20
-4.11041213070166
30
0
41
1
10
47.9783352881369
20
-4.34941149520213
30
0
41
1
10
48.323995763202
20
-4.46193339289582
30
0
41
1
10
49.0151311627946
20
-4.67187054728041
30
0
41
1
10
49.3604334908454
20
-4.76924261357399
30
0
41
1
10
50.0512483309541
20
-4.94805965102242
30
0
41
1
10
50.3968319581664
20
-5.02951116952676
30
0
41
1
10
50.9150879158423
20
-5.13901837996534
30
0
41
1
10
51.0878658371728
20
-5.17342008632437
30
0
41
1
10
51.4332575200963
20
-5.23789372360133
30
0
41
1
10
51.7785558911727
20
-5.29805335761461
30
0
41
1
10
52.1238630889831
20
-5.34947143539819
30
0
41
1
10
52.4692712005635
20
-5.39646465637114
30
0
41
1
10
52.6420503732139
20
-5.41775079149804
30
0
41
1
10
53.1602625951119
20
-5.47485284776309
30
0
41
1
10
53.5057712151051
20
-5.50393340699486
30
0
41
1
10
54.1966015877199
20
-5.54382209250369
30
0
41
1
10
54.5420675691328
20
-5.5546361452476
30
0
41
1
10
54.887438954762
20
-5.55625167593607
30
0
0
SPLINE
5
EC
100
AcDbEntity
8
1
62
256
6
ByLayer
370
18
48
1
60
0
100
AcDbSpline
70
4
71
3
72
10
73
6
40
0
40
0
40
0
40
0
40
0.5
40
0.5
40
1
40
1
40
1
40
1
41
1
10
54.8473608059656
20
-5.50971503465422
30
0
41
1
10
54.8540228118626
20
-5.5245679972663
30
0
41
1
10
54.860689868219
20
-5.53588049883967
30
0
41
1
10
54.8740545973558
20
-5.55141162291778
30
0
41
1
10
54.8807563902312
20
-5.55562054866553
30
0
41
1
10
54.887438954762
20
-5.55625167593607
30
0
0
SPLINE
5
ED
100
AcDbEntity
8
1
62
256
6
ByLayer
370
18
48
1
60
0
100
AcDbSpline
70
4
71
3
72
8
73
4
40
0
40
0
40
0
40
0
40
1
40
1
40
1
40
1
41
1
10
54.8792099949437
20
-0.207360406182261
30
0
41
1
10
54.9088630664521
20
0.0336961606863895
30
0
41
1
10
54.9439761831985
20
0.274441540417769
30
0
41
1
10
54.9859137075941
20
0.514697994971016
30
0
0
SPLINE
5
EE
100
AcDbEntity
8
1
62
256
6
ByLayer
370
18
48
1
60
0
100
AcDbSpline
70
4
71
3
72
34
73
30
40
0
40
0
40
0
40
0
40
0.0954198511986488
40
0.0954198511986488
40
0.190839702397298
40
0.190839702397298
40
0.286259553595946
40
0.286259553595946
40
0.381679404794595
40
0.381679404794595
40
0.42938933039392
40
0.42938933039392
40
0.477099255993246
40
0.477099255993246
40
0.572519107191899
40
0.572519107191899
40
0.667938958390552
40
0.667938958390552
40
0.763358809589204
40
0.763358809589204
40
0.811068735188532
40
0.811068735188532
40
0.858778660787859
40
0.858778660787859
40
0.906488586387187
40
0.906488586387187
40
0.954198511986514
40
0.954198511986514
40
1
40
1
40
1
40
1
41
1
10
6.6365005794274
20
-5.46415690108654
30
0
41
1
10
6.88944436806486
20
-5.47048939250226
30
0
41
1
10
7.14203667943923
20
-5.47195110823162
30
0
41
1
10
7.64669404874263
20
-5.46517666723591
30
0
41
1
10
7.8987407360413
20
-5.4569358355827
30
0
41
1
10
8.40259949540749
20
-5.43076953806928
30
0
41
1
10
8.65436892936305
20
-5.41282405372485
30
0
41
1
10
9.15842706450132
20
-5.36746399226735
30
0
41
1
10
9.4105471776704
20
-5.34000827191502
30
0
41
1
10
9.78900243509923
20
-5.29168106650712
30
0
41
1
10
9.91519959175147
20
-5.27438056089596
30
0
41
1
10
10.1677262681444
20
-5.23740602987598
30
0
41
1
10
10.2941076526246
20
-5.21772457008427
30
0
41
1
10
10.6731668358264
20
-5.15520931366041
30
0
41
1
10
10.925519667194
20
-5.10894185534514
30
0
41
1
10
11.4298502967011
20
-5.0075037610018
30
0
41
1
10
11.6818640280642
20
-4.95236321339439
30
0
41
1
10
12.1857385829507
20
-4.83339064391504
30
0
41
1
10
12.4375790574656
20
-4.76953835908324
30
0
41
1
10
12.8154100917368
20
-4.66737938530659
30
0
41
1
10
12.9413459696734
20
-4.632242151848
30
0
41
1
10
13.1934048144806
20
-4.56000439960064
30
0
41
1
10
13.31951579439
20
-4.52289425378959
30
0
41
1
10
13.5718253179742
20
-4.44660938480266
30
0
41
1
10
13.6980372949146
20
-4.40744842237396
30
0
41
1
10
13.9506039594345
20
-4.32711241039559
30
0
41
1
10
14.0770137187028
20
-4.28591764671197
30
0
41
1
10
14.3245414391223
20
-4.20336085565737
30
0
41
1
10
14.4456972068603
20
-4.16206758099389
30
0
41
1
10
14.5667900676323
20
-4.11994385751598
30
0
0
SPLINE
5
EF
100
AcDbEntity
8
1
62
256
6
ByLayer
370
18
48
1
60
0
100
AcDbSpline
70
4
71
3
72
52
73
48
40
0
40
0
40
0
40
0
40
0.0152634136272415
40
0.0152634136272415
40
0.113737072264514
40
0.113737072264514
40
0.16297390158315
40
0.16297390158315
40
0.212210730901786
40
0.212210730901786
40
0.236829145561104
40
0.236829145561104
40
0.261447560220422
40
0.261447560220422
40
0.310684389539059
40
0.310684389539059
40
0.409158048176331
40
0.409158048176331
40
0.458394877494968
40
0.458394877494968
40
0.483013292154287
40
0.483013292154287
40
0.507631706813606
40
0.507631706813606
40
0.556868536132245
40
0.556868536132245
40
0.606105365450885
40
0.606105365450885
40
0.655342194769524
40
0.655342194769524
40
0.704579024088163
40
0.704579024088163
40
0.729197438747483
40
0.729197438747483
40
0.753815853406803
40
0.753815853406803
40
0.778434268066123
40
0.778434268066123
40
0.803052682725443
40
0.803052682725443
40
0.852289512044082
40
0.852289512044082
40
0.901526341362721
40
0.901526341362721
40
0.950763170681361
40
0.950763170681361
40
1
40
1
40
1
40
1
41
1
10
39.6635741512881
20
5.52892919080588
30
0
41
1
10
39.7417405385281
20
5.52906862525231
30
0
41
1
10
39.8199305710561
20
5.52873702745012
30
0
41
1
10
40.4025172404126
20
5.52274789250498
30
0
41
1
10
40.9054189055929
20
5.4979159091265
30
0
41
1
10
41.6596172656602
20
5.43184573163603
30
0
41
1
10
41.9109877702599
20
5.40502681424067
30
0
41
1
10
42.4138063504665
20
5.34183123694785
30
0
41
1
10
42.6652462371756
20
5.30544418251992
30
0
41
1
10
43.0427786206494
20
5.24380208245427
30
0
41
1
10
43.1687303938106
20
5.22210668573609
30
0
41
1
10
43.4207737411165
20
5.17637250511871
30
0
41
1
10
43.5469277862305
20
5.15232665227936
30
0
41
1
10
43.9250364317708
20
5.07683068500393
30
0
41
1
10
44.1767530921937
20
5.02199534412759
30
0
41
1
10
44.9312928438493
20
4.84437853502243
30
0
41
1
10
45.4335399468142
20
4.70850046327456
30
0
41
1
10
46.1877520962219
20
4.48045927205993
30
0
41
1
10
46.4392517818531
20
4.40036526246598
30
0
41
1
10
46.8168244048817
20
4.2742605000862
30
0
41
1
10
46.9427373991793
20
4.23123331858449
30
0
41
1
10
47.1947086753367
20
4.14322474266169
30
0
41
1
10
47.3207742907674
20
4.09828633971372
30
0
41
1
10
47.6986135785613
20
3.96102968239705
30
0
41
1
10
47.9501726342097
20
3.86605563828769
30
0
41
1
10
48.4528550085042
20
3.6695108518808
30
0
41
1
10
48.7039699436379
20
3.56792673253634
30
0
41
1
10
49.2061020821705
20
3.35864690478664
30
0
41
1
10
49.4571114195341
20
3.25093975544166
30
0
41
1
10
49.9593625715359
20
3.02990847223092
30
0
41
1
10
50.2106343129395
20
2.9166335299025
30
0
41
1
10
50.5878770205381
20
2.74275008325776
30
0
41
1
10
50.7136781924068
20
2.68412295352869
30
0
41
1
10
50.965424506646
20
2.56559003533636
30
0
41
1
10
51.0914159780865
20
2.50566198171666
30
0
41
1
10
51.3433650698584
20
2.38467865031674
30
0
41
1
10
51.4692183971678
20
2.32364822835444
30
0
41
1
10
51.7208572079534
20
2.20081555214966
30
0
41
1
10
51.8466152169122
20
2.13896616079813
30
0
41
1
10
52.22368210104
20
1.95208283924154
30
0
41
1
10
52.4748085274957
20
1.82575677172292
30
0
41
1
10
52.9767936943255
20
1.57005312295865
30
0
41
1
10
53.2276653603852
20
1.44069811598925
30
0
41
1
10
53.7294986202822
20
1.17958024609473
30
0
41
1
10
53.980451032351
20
1.04780026411043
30
0
41
1
10
54.4828161630096
20
0.782509943031272
30
0
41
1
10
54.734218310256
20
0.648981388474766
30
0
41
1
10
54.9859137075931
20
0.51469799496553
30
0
0
SPLINE
5
F0
100
AcDbEntity
8
1
62
256
6
ByLayer
370
18
48
1
60
0
100
AcDbSpline
70
4
71
3
72
35
73
31
40
0
40
0
40
0
40
0
40
0.125000000000003
40
0.125000000000003
40
0.187500000000005
40
0.187500000000005
40
0.218750000000007
40
0.218750000000007
40
0.250000000000008
40
0.250000000000008
40
0.375000000000008
40
0.375000000000008
40
0.437500000000008
40
0.437500000000008
40
0.500000000000008
40
0.500000000000008
40
0.531250000000008
40
0.531250000000008
40
0.562500000000007
40
0.625000000000006
40
0.625000000000006
40
0.750000000000002
40
0.750000000000002
40
0.781250000000001
40
0.781250000000001
40
0.812500000000001
40
0.812500000000001
40
0.875
40
0.875
40
1
40
1
40
1
40
1
41
1
10
21.6996037318951
20
-5.49332063121977
30
0
41
1
10
21.1948010285306
20
-5.48318849077921
30
0
41
1
10
20.6904875163866
20
-5.45360360384336
30
0
41
1
10
19.9332880947633
20
-5.38035675839708
30
0
41
1
10
19.6807310599495
20
-5.3511374891759
30
0
41
1
10
19.301422145663
20
-5.30017448264059
30
0
41
1
10
19.1748607929297
20
-5.28199031961151
30
0
41
1
10
18.9217734071342
20
-5.24328750065391
30
0
41
1
10
18.7953106135474
20
-5.2227796487829
30
0
41
1
10
18.1633329983397
20
-5.11451840476056
30
0
41
1
10
17.6588722257034
20
-5.0095505133682
30
0
41
1
10
16.9018245004289
20
-4.82623882498734
30
0
41
1
10
16.6494236285299
20
-4.76082408106006
30
0
41
1
10
16.1442845520892
20
-4.62157369489157
30
0
41
1
10
15.8915678358879
20
-4.54771366902128
30
0
41
1
10
15.511981043541
20
-4.43083486484363
30
0
41
1
10
15.3853549216278
20
-4.39085692700942
30
0
41
1
10
15.1323150692118
20
-4.30905084480042
30
0
41
1
10
14.752917297651
20
-4.18351839950998
30
0
41
1
10
14.373851435951
20
-4.0497275738222
30
0
41
1
10
13.6158161469994
20
-3.7715964195047
30
0
41
1
10
13.1105668898845
20
-3.5721204746911
30
0
41
1
10
12.4774791412167
20
-3.30747698874333
30
0
41
1
10
12.3508713782749
20
-3.25381271757962
30
0
41
1
10
12.0978242596573
20
-3.1451356588608
30
0
41
1
10
11.9713575364861
20
-3.09011088149561
30
0
41
1
10
11.5920897882269
20
-2.92304049309246
30
0
41
1
10
11.3394123149195
20
-2.80901145266873
30
0
41
1
10
10.581297959407
20
-2.45994410325631
30
0
41
1
10
10.0757755599286
20
-2.21794495662476
30
0
41
1
10
9.56920431893343
20
-1.9682112656441
30
0
0
SPLINE
5
F1
100
AcDbEntity
8
1
62
256
6
ByLayer
370
18
48
1
60
0
100
AcDbSpline
70
4
71
3
72
10
73
6
40
0
40
0
40
0
40
0
40
0.922509169100286
40
0.922509169100286
40
1
40
1
40
1
40
1
41
1
10
21.6996037318951
20
-5.48854076598516
30
0
41
1
10
21.8727194882458
20
-5.49380132539716
30
0
41
1
10
22.0458604556642
20
-5.49678282087692
30
0
41
1
10
22.2335059633693
20
-5.49753874264013
30
0
41
1
10
22.2480457622613
20
-5.49758120720344
30
0
41
1
10
22.2625845818213
20
-5.497607565229
30
0
0
SPLINE
5
F2
100
AcDbEntity
8
1
62
256
6
ByLayer
370
18
48
1
60
0
100
AcDbSpline
70
4
71
3
72
25
73
21
40
0
40
0
40
0
40
0
40
0.044172881088885
40
0.044172881088885
40
0.180719612361899
40
0.180719612361899
40
0.317266343634913
40
0.317266343634913
40
0.453813074907927
40
0.453813074907927
40
0.522086440544436
40
0.522086440544436
40
0.590359806180945
40
0.658633171817454
40
0.658633171817454
40
0.726906537453964
40
0.726906537453964
40
0.863453268726982
40
0.863453268726982
40
1
40
1
40
1
40
1
41
1
10
47.2974559534987
20
4.11178664897957
30
0
41
1
10
47.4092080121006
20
4.15187273986834
30
0
41
1
10
47.5209732713774
20
4.19125365391002
30
0
41
1
10
47.9783352881368
20
4.34941149520213
30
0
41
1
10
48.3239957632021
20
4.46193339289582
30
0
41
1
10
49.0151311627945
20
4.67187054728041
30
0
41
1
10
49.3604334908453
20
4.76924261357399
30
0
41
1
10
50.0512483309541
20
4.94805965102239
30
0
41
1
10
50.3968319581664
20
5.02951116952676
30
0
41
1
10
50.9150879158423
20
5.13901837996534
30
0
41
1
10
51.0878658371728
20
5.17342008632437
30
0
41
1
10
51.4332575200963
20
5.2378937236013
30
0
41
1
10
51.7785558911727
20
5.29805335761458
30
0
41
1
10
52.123863088983
20
5.34947143539819
30
0
41
1
10
52.4692712005635
20
5.39646465637114
30
0
41
1
10
52.6420503732139
20
5.41775079149804
30
0
41
1
10
53.1602625951119
20
5.47485284776309
30
0
41
1
10
53.5057712151051
20
5.50393340699486
30
0
41
1
10
54.1966015877199
20
5.54382209250369
30
0
41
1
10
54.5420675691328
20
5.5546361452476
30
0
41
1
10
54.887438954762
20
5.55625167593607
30
0
0
SPLINE
5
F3
100
AcDbEntity
8
1
62
256
6
ByLayer
370
18
48
1
60
0
100
AcDbSpline
70
4
71
3
72
14
73
10
40
0
40
0
40
0
40
0
40
0.25
40
0.25
40
0.5
40
0.5
40
0.75
40
0.75
40
1
40
1
40
1
40
1
41
1
10
54.966090257881
20
-5.3067724342786
30
0
41
1
10
54.9662543770045
20
-5.30693932997195
30
0
41
1
10
54.9663471047039
20
-5.30729855938654
30
0
41
1
10
54.9663462079242
20
-5.30849636260416
30
0
41
1
10
54.9662472398292
20
-5.30933322387239
30
0
41
1
10
54.965827866244
20
-5.31141080064785
30
0
41
1
10
54.9655012909843
20
-5.31266920134016
30
0
41
1
10
54.9646956769625
20
-5.31528611505809
30
0
41
1
10
54.9642210747803
20
-5.31663600975563
30
0
41
1
10
54.9637327152084
20
-5.31789054360303
30
0
0
SPLINE
5
F4
100
AcDbEntity
8
1
62
256
6
ByLayer
370
18
48
1
60
0
100
AcDbSpline
70
4
71
3
72
8
73
4
40
0
40
0
40
0
40
0
40
1
40
1
40
1
40
1
41
1
10
54.8473608059663
20
-5.50971503465124
30
0
41
1
10
54.8841988170358
20
-5.45093734042095
30
0
41
1
10
54.9210765985717
20
-5.39190666867458
30
0
41
1
10
54.957998953283
20
-5.33262406619048
30
0
0
SPLINE
5
F5
100
AcDbEntity
8
1
62
256
6
ByLayer
370
18
48
1
60
0
100
AcDbSpline
70
4
71
3
72
8
73
4
40
0
40
0
40
0
40
0
40
1
40
1
40
1
40
1
41
1
10
54.9637327152084
20
-5.31789054360303
30
0
41
1
10
54.9618207249966
20
-5.32280220413909
30
0
41
1
10
54.9599094697588
20
-5.32771337728957
30
0
41
1
10
54.957998953283
20
-5.33262406619048
30
0
0
SPLINE
5
F6
100
AcDbEntity
8
1
62
256
6
ByLayer
370
18
48
1
60
0
100
AcDbSpline
70
4
71
3
72
48
73
44
40
0
40
0
40
0
40
0
40
0.068544792960804
40
0.068544792960804
40
0.0856809912010054
40
0.0856809912010054
40
0.102817189441207
40
0.137089585921608
40
0.137089585921608
40
0.171361982402009
40
0.20563437888241
40
0.20563437888241
40
0.274179171843214
40
0.274179171843214
40
0.308451568323617
40
0.308451568323617
40
0.34272396480402
40
0.34272396480402
40
0.411268757764828
40
0.411268757764828
40
0.548358343686443
40
0.548358343686443
40
0.582630740166848
40
0.582630740166848
40
0.59976693840705
40
0.59976693840705
40
0.616903136647253
40
0.616903136647253
40
0.685447929608067
40
0.685447929608067
40
0.753992722568881
40
0.753992722568881
40
0.788265119049288
40
0.788265119049288
40
0.822537515529695
40
0.822537515529695
40
0.891082308490511
40
0.891082308490511
40
0.92535470497092
40
0.92535470497092
40
0.959627101451329
40
0.959627101451329
40
1
40
1
40
1
40
1
41
1
10
54.9637327152083
20
-5.31789054360303
30
0
41
1
10
54.6160081751379
20
-5.2962869236857
30
0
41
1
10
54.2684005759043
20
-5.26564259570722
30
0
41
1
10
53.8335879876436
20
-5.2162915868735
30
0
41
1
10
53.7465786267402
20
-5.20586466764254
30
0
41
1
10
53.5727398443845
20
-5.18393994331021
30
0
41
1
10
53.312215729077
20
-5.14944369255397
30
0
41
1
10
53.0523412712645
20
-5.1101764455052
30
0
41
1
10
52.706327923148
20
-5.0536726192986
30
0
41
1
10
52.3608012972123
20
-4.99302119309306
30
0
41
1
10
52.0161417719333
20
-4.92437183993948
30
0
41
1
10
51.4996350065322
20
-4.81547944050436
30
0
41
1
10
51.1559356117348
20
-4.73497683753257
30
0
41
1
10
50.6407792535197
20
-4.60290615606021
30
0
41
1
10
50.4691272189763
20
-4.55699965069243
30
0
41
1
10
50.1259041014844
20
-4.46157668983804
30
0
41
1
10
49.9543336178655
20
-4.41206251162703
30
0
41
1
10
49.4395761989568
20
-4.25814957029922
30
0
41
1
10
49.0963420485789
20
-4.14837347320594
30
0
41
1
10
48.065422414997
20
-3.79897359110822
30
0
41
1
10
47.376535805799
20
-3.5393290857302
30
0
41
1
10
46.5097015048493
20
-3.18541473008827
30
0
41
1
10
46.3360446462816
20
-3.11315878583105
30
0
41
1
10
46.0751245600074
20
-3.0026606726712
30
0
41
1
10
45.9880770197069
20
-2.96547410921872
30
0
41
1
10
45.8142478565093
20
-2.89060188601474
30
0
41
1
10
45.7274128489206
20
-2.85289375893333
30
0
41
1
10
45.2935928028521
20
-2.66305775344517
30
0
41
1
10
44.9476677923567
20
-2.50704752416507
30
0
41
1
10
44.2573854003986
20
-2.18817323967934
30
0
41
1
10
43.9130289735349
20
-2.02530909528161
30
0
41
1
10
43.3971326327379
20
-1.77686910160443
30
0
41
1
10
43.225272618069
20
-1.69336534755234
30
0
41
1
10
42.8817233586697
20
-1.52508795427676
30
0
41
1
10
42.7100368685996
20
-1.44031136202003
30
0
41
1
10
42.1950413282671
20
-1.18440298647778
30
0
41
1
10
41.8517895418428
20
-1.01169870146668
30
0
41
1
10
41.336492670101
20
-0.750559905647492
30
0
41
1
10
41.1646550223554
20
-0.663169665260995
30
0
41
1
10
40.820801093736
20
-0.487790685338098
30
0
41
1
10
40.6487891915748
20
-0.399795292338695
30
0
41
1
10
40.273818575284
20
-0.207737248179967
30
0
41
1
10
40.0707985111958
20
-0.103607764077026
30
0
41
1
10
39.8674951957947
20
0.0006331069343162
30
0
0
SPLINE
5
F7
100
AcDbEntity
8
1
62
256
6
ByLayer
370
18
48
1
60
0
100
AcDbSpline
70
4
71
3
72
77
73
73
40
0
40
0
40
0
40
0
40
0.0330316438964605
40
0.0330316438964605
40
0.0495474658446903
40
0.0495474658446903
40
0.0578053768188051
40
0.0578053768188051
40
0.06606328779292
40
0.06606328779292
40
0.132126575585839
40
0.132126575585839
40
0.165158219482298
40
0.165158219482298
40
0.173416130456413
40
0.173416130456413
40
0.181674041430528
40
0.198189863378757
40
0.198189863378757
40
0.264253151171671
40
0.264253151171671
40
0.280768973119901
40
0.280768973119901
40
0.29728479506813
40
0.29728479506813
40
0.330316438964589
40
0.330316438964589
40
0.363348082861047
40
0.363348082861047
40
0.396379726757505
40
0.396379726757505
40
0.40463763773162
40
0.40463763773162
40
0.412895548705735
40
0.412895548705735
40
0.429411370653965
40
0.429411370653965
40
0.462443014550426
40
0.462443014550426
40
0.528506302343348
40
0.528506302343348
40
0.561537946239809
40
0.561537946239809
40
0.59456959013627
40
0.59456959013627
40
0.660632877929191
40
0.660632877929191
40
0.693664521825651
40
0.693664521825651
40
0.726696165722111
40
0.726696165722111
40
0.759727809618571
40
0.759727809618571
40
0.776243631566801
40
0.776243631566801
40
0.792759453515031
40
0.82579109741149
40
0.82579109741149
40
0.858822741307949
40
0.858822741307949
40
0.875338563256178
40
0.883596474230293
40
0.883596474230293
40
0.891854385204407
40
0.891854385204407
40
0.924886029100865
40
0.924886029100865
40
0.957917672997323
40
0.957917672997323
40
0.990949316893781
40
0.990949316893781
40
1
40
1
40
1
40
1
41
1
10
54.847360805969
20
-5.5097150346534
30
0
41
1
10
54.501385813456
20
-5.48517673604712
30
0
41
1
10
54.1555631772025
20
-5.45149588721131
30
0
41
1
10
53.6365246432353
20
-5.38749558407301
30
0
41
1
10
53.4634607662807
20
-5.36391555031233
30
0
41
1
10
53.2037196698749
20
-5.32520488545129
30
0
41
1
10
53.1170986699191
20
-5.31174169350317
30
0
41
1
10
52.9439650830223
20
-5.28373483606279
30
0
41
1
10
52.8574350775737
20
-5.26918900270857
30
0
41
1
10
52.0789535043101
20
-5.13343394874363
30
0
41
1
10
51.3892151720993
20
-4.9781640353234
30
0
41
1
10
50.3530125342173
20
-4.69752534081761
30
0
41
1
10
50.0074033071951
20
-4.59597733339257
30
0
41
1
10
49.5746192162462
20
-4.45949156170343
30
0
41
1
10
49.4879813949277
20
-4.43170404656834
30
0
41
1
10
49.3148497944878
20
-4.375263700971
30
0
41
1
10
49.0553958494243
20
-4.28931583671425
30
0
41
1
10
48.7966173375445
20
-4.19959187342172
30
0
41
1
10
47.9352805533455
20
-3.8925026966688
30
0
41
1
10
47.2502098672767
20
-3.62123551829455
30
0
41
1
10
46.3952240801607
20
-3.25601231502284
30
0
41
1
10
46.224302212746
20
-3.18164957426862
30
0
41
1
10
45.8825558732212
20
-3.03037143035559
30
0
41
1
10
45.7117227860279
20
-2.95346883076209
30
0
41
1
10
45.1991083966347
20
-2.71935219367279
30
0
41
1
10
44.8572341705265
20
-2.55869619433352
30
0
41
1
10
44.1725811121664
20
-2.22929177958397
30
0
41
1
10
43.8297967582646
20
-2.06055188338604
30
0
41
1
10
43.142597458688
20
-1.71618240644045
30
0
41
1
10
42.7982401998719
20
-1.54044406656453
30
0
41
1
10
42.3663006770443
20
-1.31724987612594
30
0
41
1
10
42.2798363975496
20
-1.27243850534504
30
0
41
1
10
42.1067437014491
20
-1.18249005171975
30
0
41
1
10
42.0200735305173
20
-1.137331134276
30
0
41
1
10
41.7601528470522
20
-1.00158014958311
30
0
41
1
10
41.5870266998497
20
-0.910732846129378
30
0
41
1
10
41.0679743719696
20
-0.637409458220475
30
0
41
1
10
40.7224241722171
20
-0.454057894072321
30
0
41
1
10
39.6859667788447
20
0.0970243056544007
30
0
41
1
10
38.9951493999944
20
0.465586727228384
30
0
41
1
10
37.9548823976088
20
1.01211721436866
30
0
41
1
10
37.609424785654
20
1.19220019765035
30
0
41
1
10
36.9204813034296
20
1.54675845817644
30
0
41
1
10
36.5769782460517
20
1.7212601395189
30
0
41
1
10
35.5481694645449
20
2.23435929667073
30
0
41
1
10
34.8645024603944
20
2.56244654877443
30
0
41
1
10
33.8382031828675
20
3.02675761865638
30
0
41
1
10
33.4960165039187
20
3.17696392906859
30
0
41
1
10
32.8105876989186
20
3.46678925950062
30
0
41
1
10
32.467358401247
20
3.60643124384617
30
0
41
1
10
31.7791737417142
20
3.87402867184713
30
0
41
1
10
31.434205089574
20
4.00196405223076
30
0
41
1
10
30.914869082139
20
4.18415495079489
30
0
41
1
10
30.7412991980481
20
4.24331688526749
30
0
41
1
10
30.3946439599935
20
4.35785667394199
30
0
41
1
10
29.8750902022556
20
4.52410219221048
30
0
41
1
10
29.3563782416625
20
4.67323794618881
30
0
41
1
10
28.6648529052873
20
4.85625928389319
30
0
41
1
10
28.3191104682929
20
4.93982970772146
30
0
41
1
10
27.7999479035826
20
5.05274404254956
30
0
41
1
10
27.5402383309855
20
5.10609807188004
30
0
41
1
10
27.280214141
20
5.15468935678152
30
0
41
1
10
27.1067815262092
20
5.18601404687337
30
0
41
1
10
27.0200035063171
20
5.20114459295939
30
0
41
1
10
26.5865395151916
20
5.27398811732604
30
0
41
1
10
26.2406502253692
20
5.32336655832498
30
0
41
1
10
25.5499614820751
20
5.4042255776464
30
0
41
1
10
25.2051337801359
20
5.43569344589048
30
0
41
1
10
24.5158389024378
20
5.48059728536467
30
0
41
1
10
24.1714010130054
20
5.49403245007773
30
0
41
1
10
23.7322676526574
20
5.49957430450846
30
0
41
1
10
23.6378037928333
20
5.50008503676517
30
0
41
1
10
23.5433139577235
20
5.49991386590054
30
0
0
SPLINE
5
F8
100
AcDbEntity
8
1
62
256
6
ByLayer
370
18
48
1
60
0
100
AcDbSpline
70
4
71
3
72
8
73
4
40
0
40
0
40
0
40
0
40
1
40
1
40
1
40
1
41
1
10
22.4414217801367
20
-0.320906348008293
30
0
41
1
10
22.2415245826219
20
-0.218710455248754
30
0
41
1
10
22.0414051485133
20
-0.115907164519143
30
0
41
1
10
21.8410163034562
20
-0.012534479543973
30
0
0
SPLINE
5
F9
100
AcDbEntity
8
1
62
256
6
ByLayer
370
18
48
1
60
0
100
AcDbSpline
70
4
71
3
72
54
73
50
40
0
40
0
40
0
40
0
40
0.0632571091206972
40
0.0632571091206972
40
0.0948856636810468
40
0.0948856636810468
40
0.110699940961222
40
0.110699940961222
40
0.126514218241396
40
0.126514218241396
40
0.1897713273621
40
0.1897713273621
40
0.221399881922451
40
0.221399881922451
40
0.253028436482803
40
0.253028436482803
40
0.316285545603506
40
0.316285545603506
40
0.379542654724209
40
0.379542654724209
40
0.411171209284559
40
0.411171209284559
40
0.44279976384491
40
0.44279976384491
40
0.506056872965609
40
0.506056872965609
40
0.569313982086308
40
0.569313982086308
40
0.600942536646658
40
0.600942536646658
40
0.632571091207008
40
0.632571091207008
40
0.695828200327709
40
0.695828200327709
40
0.727456754888059
40
0.727456754888059
40
0.75908530944841
40
0.75908530944841
40
0.79071386400876
40
0.79071386400876
40
0.806528141288936
40
0.806528141288936
40
0.822342418569111
40
0.822342418569111
40
0.885599527689812
40
0.885599527689812
40
0.948856636810514
40
0.948856636810514
40
1
40
1
40
1
40
1
41
1
10
21.846865719694
20
-0.00453783980808
30
0
41
1
10
22.1921836263642
20
-0.189730993985592
30
0
41
1
10
22.537810008677
20
-0.373527083635196
30
0
41
1
10
23.0567445726328
20
-0.647102677944531
30
0
41
1
10
23.2298067430068
20
-0.737938270080292
30
0
41
1
10
23.4895455460913
20
-0.873622317670566
30
0
41
1
10
23.5761495244195
20
-0.918755202905771
30
0
41
1
10
23.7494109937522
20
-1.00882191366992
30
0
41
1
10
23.8361038391044
20
-1.05377346003212
30
0
41
1
10
24.2692329309663
20
-1.2777647708607
30
0
41
1
10
24.6144701333172
20
-1.45442308745646
30
0
41
1
10
25.1306134577759
20
-1.71534592641356
30
0
41
1
10
25.3023548439467
20
-1.80168114738589
30
0
41
1
10
25.6452477492748
20
-1.97301999310346
30
0
41
1
10
25.8164477985609
20
-2.05793055858396
30
0
41
1
10
26.3299155227164
20
-2.30930930662942
30
0
41
1
10
26.6719227352678
20
-2.47267355614014
30
0
41
1
10
27.3555649026687
20
-2.79069625612235
30
0
41
1
10
27.6971964071518
20
-2.94535973748589
30
0
41
1
10
28.2095597711367
20
-3.17046547854548
30
0
41
1
10
28.3803221570844
20
-3.24436973169702
30
0
41
1
10
28.7217960825448
20
-3.38988577103049
30
0
41
1
10
28.892548851242
20
-3.46142957344711
30
0
41
1
10
29.4055954690003
20
-3.67129354558389
30
0
41
1
10
29.7485448005483
20
-3.80507136539077
30
0
41
1
10
30.4362282539604
20
-4.06045876222447
30
0
41
1
10
30.7809652509161
20
-4.18206073463477
30
0
41
1
10
31.2995862761687
20
-4.35490893206176
30
0
41
1
10
31.4728310164964
20
-4.41096668995158
30
0
41
1
10
31.8185762950049
20
-4.51939305999519
30
0
41
1
10
31.9912344978348
20
-4.57177666373249
30
0
41
1
10
32.5091850663939
20
-4.72280397487197
30
0
41
1
10
32.8543542092553
20
-4.81546946157721
30
0
41
1
10
33.3718062521562
20
-4.94260587495589
30
0
41
1
10
33.5442436037439
20
-4.98299893348337
30
0
41
1
10
33.8890880849361
20
-5.05973259947149
30
0
41
1
10
34.0615412091791
20
-5.09603281761966
30
0
41
1
10
34.4068781140712
20
-5.16424467704166
30
0
41
1
10
34.5797342365676
20
-5.19618125288014
30
0
41
1
10
34.8392790890353
20
-5.24085904229986
30
0
41
1
10
34.9258376345273
20
-5.25521338031294
30
0
41
1
10
35.0990404018105
20
-5.28284530487801
30
0
41
1
10
35.1856723177126
20
-5.29612028942066
30
0
41
1
10
35.6182157968283
20
-5.35968130467455
30
0
41
1
10
35.9629268657664
20
-5.40165010422427
30
0
41
1
10
36.6499786806344
20
-5.46784018800489
30
0
41
1
10
36.9923544968993
20
-5.49202003357618
30
0
41
1
10
37.6104958858521
20
-5.5194143332925
30
0
41
1
10
37.886438581013
20
-5.52575154301894
30
0
41
1
10
38.1624011733256
20
-5.5262251082373
30
0
0
SPLINE
5
FA
100
AcDbEntity
8
1
62
256
6
ByLayer
370
18
48
1
60
0
100
AcDbSpline
70
4
71
3
72
8
73
4
40
0
40
0
40
0
40
0
40
1
40
1
40
1
40
1
41
1
10
54.9496201393081
20
-0.236358009410878
30
0
41
1
10
54.9515243941956
20
-0.237105120726938
30
0
41
1
10
54.9524902146109
20
-0.242420035695119
30
0
41
1
10
54.9517469899407
20
-0.248217770988191
30
0
0
SPLINE
5
FB
100
AcDbEntity
8
1
62
256
6
ByLayer
370
18
48
1
60
0
100
AcDbSpline
70
4
71
3
72
60
73
56
40
0
40
0
40
0
40
0
40
0.0044317719547179
40
0.0044317719547179
40
0.0199274796567506
40
0.0199274796567506
40
0.0354231873587831
40
0.0354231873587831
40
0.0974060181669134
40
0.0974060181669134
40
0.159388848975044
40
0.159388848975044
40
0.190380264379108
40
0.190380264379108
40
0.221371679783172
40
0.221371679783172
40
0.283354510591301
40
0.283354510591301
40
0.314345925995365
40
0.314345925995365
40
0.345337341399429
40
0.345337341399429
40
0.407320172207557
40
0.407320172207557
40
0.469303003015686
40
0.469303003015686
40
0.484798710717719
40
0.484798710717719
40
0.500294418419753
40
0.500294418419753
40
0.53128583382382
40
0.53128583382382
40
0.593268664631954
40
0.593268664631954
40
0.655251495440089
40
0.655251495440089
40
0.717234326248223
40
0.717234326248223
40
0.74822574165229
40
0.74822574165229
40
0.779217157056357
40
0.810208572460425
40
0.810208572460425
40
0.841199987864492
40
0.841199987864492
40
0.872191403268559
40
0.872191403268559
40
0.903182818672626
40
0.903182818672626
40
0.934174234076694
40
0.934174234076694
40
0.949669941778727
40
0.949669941778727
40
0.965165649480761
40
1
40
1
40
1
40
1
41
1
10
37.824894380328
20
5.3237414881356
30
0
41
1
10
37.8497105748905
20
5.32424616690588
30
0
41
1
10
37.8745282249008
20
5.32470383325108
30
0
41
1
10
37.9861285880743
20
5.32654947105874
30
0
41
1
10
38.0729316280679
20
5.32740426334664
30
0
41
1
10
38.2466137473488
20
5.32790501048828
30
0
41
1
10
38.3335324029272
20
5.32754804745741
30
0
41
1
10
38.7678435007128
20
5.32265266842702
30
0
41
1
10
39.1142147538995
20
5.30890165463893
30
0
41
1
10
39.8052093335149
20
5.26437545482295
30
0
41
1
10
40.1498152338925
20
5.23359094244077
30
0
41
1
10
40.6654448248985
20
5.17611566612069
30
0
41
1
10
40.8371251062321
20
5.1550247814813
30
0
41
1
10
41.1803454651179
20
5.10844378920433
30
0
41
1
10
41.3518804376829
20
5.08298068870403
30
0
41
1
10
41.866452002027
20
5.00012541580543
30
0
41
1
10
42.2094185651844
20
4.93631465853127
30
0
41
1
10
42.7235643528996
20
4.82943115741131
30
0
41
1
10
42.8949175712399
20
4.79191068925402
30
0
41
1
10
43.2379743060241
20
4.71260839207653
30
0
41
1
10
43.4096646837205
20
4.67084924318928
30
0
41
1
10
43.9253142603864
20
4.53953682883892
30
0
41
1
10
44.2698434221709
20
4.44394706768117
30
0
41
1
10
44.9604281732001
20
4.23826286774215
30
0
41
1
10
45.3064759801769
20
4.12815690763347
30
0
41
1
10
45.7397679036627
20
3.98214550162817
30
0
41
1
10
45.8265140526796
20
3.95250582664636
30
0
41
1
10
45.9999261252793
20
3.89242519774527
30
0
41
1
10
46.0865486432218
20
3.86199957870627
30
0
41
1
10
46.3462083832647
20
3.76954020000642
30
0
41
1
10
46.5190324936628
20
3.70633287679414
30
0
41
1
10
47.036749390943
20
3.5123882955169
30
0
41
1
10
47.3808965760823
20
3.37732695980225
30
0
41
1
10
48.0681643446175
20
3.09713232309667
30
0
41
1
10
48.4112729645994
20
2.95199160937946
30
0
41
1
10
49.0966736202528
20
2.65286214293258
30
0
41
1
10
49.4389660309417
20
2.49886846704516
30
0
41
1
10
49.9520047742693
20
2.26185477450946
30
0
41
1
10
50.1229556431634
20
2.18185154579791
30
0
41
1
10
50.4651090494546
20
2.02013567952196
30
0
41
1
10
50.8075084261567
20
1.85670182948593
30
0
41
1
10
51.1503460842254
20
1.69007484273311
30
0
41
1
10
51.493419449907
20
1.52195255982053
30
0
41
1
10
51.6650735603437
20
1.43714374393412
30
0
41
1
10
52.0087296260086
20
1.26621067922997
30
0
41
1
10
52.1807311964469
20
1.1800861052624
30
0
41
1
10
52.5252353377548
20
1.006750105268
30
0
41
1
10
52.6977393823964
20
0.919539336638763
30
0
41
1
10
53.0433006608793
20
0.744175772240908
30
0
41
1
10
53.2163583906726
20
0.656024047557167
30
0
41
1
10
53.4763733575793
20
0.523145313658233
30
0
41
1
10
53.5631479999599
20
0.47872766413883
30
0
41
1
10
53.7366393977838
20
0.389788428702474
30
0
41
1
10
54.0183144188987
20
0.24517269193592
30
0
41
1
10
54.2997692506075
20
0.100024473691775
30
0
41
1
10
54.494488190895
20
-0.0006412987000033
30
0
0
SPLINE
5
FC
100
AcDbEntity
8
1
62
256
6
ByLayer
370
18
48
1
60
0
100
AcDbSpline
70
4
71
3
72
8
73
4
40
0
40
0
40
0
40
0
40
1
40
1
40
1
40
1
41
1
10
54.879209994953
20
-0.207360406182858
30
0
41
1
10
54.9026742598396
20
-0.217481453326997
30
0
41
1
10
54.9261412043411
20
-0.227146333958046
30
0
41
1
10
54.9496201393082
20
-0.236358009410935
30
0
0
SPLINE
5
FD
100
AcDbEntity
8
1
62
256
6
ByLayer
370
18
48
1
60
0
100
AcDbSpline
70
4
71
3
72
58
73
54
40
0
40
0
40
0
40
0
40
0.0485252123094816
40
0.0485252123094816
40
0.101384922736734
40
0.101384922736734
40
0.154244633163987
40
0.154244633163987
40
0.207104343591239
40
0.207104343591239
40
0.259964054018492
40
0.259964054018492
40
0.286393909232118
40
0.286393909232118
40
0.312823764445744
40
0.312823764445744
40
0.365683474872995
40
0.365683474872995
40
0.378898402479807
40
0.378898402479807
40
0.39211333008662
40
0.39211333008662
40
0.418543185300245
40
0.418543185300245
40
0.471402895727496
40
0.471402895727496
40
0.524262606154747
40
0.524262606154747
40
0.550692461368372
40
0.550692461368372
40
0.577122316581998
40
0.577122316581998
40
0.629982027009248
40
0.629982027009248
40
0.682841737436499
40
0.682841737436499
40
0.73570144786375
40
0.73570144786375
40
0.762131303077375
40
0.762131303077375
40
0.788561158291
40
0.788561158291
40
0.814991013504626
40
0.814991013504626
40
0.841420868718251
40
0.841420868718251
40
0.867850723931877
40
0.867850723931877
40
0.894280579145502
40
0.894280579145502
40
0.947140289572751
40
0.947140289572751
40
1
40
1
40
1
40
1
41
1
10
35.3572789812125
20
5.32116218132862
30
0
41
1
10
35.674740467396
20
5.36650452356082
30
0
41
1
10
35.9910960022816
20
5.40436389882552
30
0
41
1
10
36.6499786806344
20
5.46784018800486
30
0
41
1
10
36.9923544968993
20
5.49202003357618
30
0
41
1
10
37.6759502286894
20
5.52231508693475
30
0
41
1
10
38.0171349003631
20
5.52842205006854
30
0
41
1
10
38.6998700219634
20
5.52272862161348
30
0
41
1
10
39.0414147963167
20
5.51097887517506
30
0
41
1
10
39.7248238446568
20
5.4698426511398
30
0
41
1
10
40.0666870904459
20
5.44045581938187
30
0
41
1
10
40.5797148245994
20
5.38287606586221
30
0
41
1
10
40.7507657237881
20
5.36142438820056
30
0
41
1
10
41.0932850455788
20
5.3141132960736
30
0
41
1
10
41.2647538108878
20
5.28825739791029
30
0
41
1
10
41.7799776428221
20
5.20417629572958
30
0
41
1
10
42.1245442351092
20
5.13947000068433
30
0
41
1
10
42.55646770228
20
5.04737730332815
30
0
41
1
10
42.6429366575471
20
5.02838891696467
30
0
41
1
10
42.8157197237818
20
4.98939606715064
30
0
41
1
10
42.902071550815
20
4.9693842791531
30
0
41
1
10
43.1610883327865
20
4.90787721256675
30
0
41
1
10
43.3337229011802
20
4.86491911169279
30
0
41
1
10
43.8515628564016
20
4.73031981070031
30
0
41
1
10
44.1966996364729
20
4.63296324181943
30
0
41
1
10
44.8868668464248
20
4.42319321488483
30
0
41
1
10
45.2318999983918
20
4.31078526260052
30
0
41
1
10
45.7493659972776
20
4.13064454745216
30
0
41
1
10
45.9218330148556
20
4.06865691388748
30
0
41
1
10
46.2671828102366
20
3.94135627368445
30
0
41
1
10
46.4401250686963
20
3.87604271135828
30
0
41
1
10
46.9582679274475
20
3.67569271095701
30
0
41
1
10
47.303194204911
20
3.53606371461484
30
0
41
1
10
47.9930559484853
20
3.24628862165793
30
0
41
1
10
48.337995942327
20
3.09616538163414
30
0
41
1
10
49.0279992266988
20
2.78562791424631
30
0
41
1
10
49.3730646255538
20
2.62521167557563
30
0
41
1
10
49.8910800761644
20
2.37724177322673
30
0
41
1
10
50.0639224992897
20
2.29328520903888
30
0
41
1
10
50.4091195612478
20
2.1240747989543
30
0
41
1
10
50.5815826202071
20
2.03880328438373
30
0
41
1
10
50.9262095458018
20
1.86688843072292
30
0
41
1
10
51.0983707995984
20
1.7802402286265
30
0
41
1
10
51.4424105834315
20
1.60560589848893
30
0
41
1
10
51.6142860846892
20
1.51761398863664
30
0
41
1
10
51.957866930255
20
1.34049867341787
30
0
41
1
10
52.1295711116087
20
1.25137304035042
30
0
41
1
10
52.472959823239
20
1.07226953904981
30
0
41
1
10
52.644648404787
20
0.98229944120726
30
0
41
1
10
53.1597786748283
20
0.711289029134065
30
0
41
1
10
53.5032839458934
20
0.529148771153615
30
0
41
1
10
54.1907684790247
20
0.162476289085475
30
0
41
1
10
54.5347452958408
20
-0.0220614792818026
30
0
41
1
10
54.8792099949507
20
-0.207360406182545
30
0
0
SPLINE
5
FE
100
AcDbEntity
8
1
62
256
6
ByLayer
370
18
48
1
60
0
100
AcDbSpline
70
4
71
3
72
56
73
52
40
0
40
0
40
0
40
0
40
0.061474150203386
40
0.0768426877542315
40
0.0768426877542315
40
0.092211225305077
40
0.092211225305077
40
0.122948300406768
40
0.153685375508459
40
0.153685375508459
40
0.18442245061015
40
0.215159525711841
40
0.215159525711841
40
0.245896600813533
40
0.276633675915224
40
0.276633675915224
40
0.307370751016915
40
0.307370751016915
40
0.368844901220295
40
0.368844901220295
40
0.430319051423675
40
0.430319051423675
40
0.491793201627055
40
0.491793201627055
40
0.522530276728745
40
0.522530276728745
40
0.537898814279588
40
0.537898814279588
40
0.553267351830432
40
0.553267351830432
40
0.614741502033806
40
0.614741502033806
40
0.67621565223718
40
0.67621565223718
40
0.706952727338867
40
0.706952727338867
40
0.737689802440555
40
0.737689802440555
40
0.799163952643931
40
0.799163952643931
40
0.829901027745619
40
0.829901027745619
40
0.860638102847307
40
0.860638102847307
40
0.922112253050681
40
0.922112253050681
40
0.983586403254056
40
0.983586403254056
40
0.998954940804899
40
0.998954940804899
40
1
40
1
40
1
40
1
41
1
10
54.9517469899257
20
-0.248217770980432
30
0
41
1
10
54.605406089811
20
-0.0688970094628587
30
0
41
1
10
54.17223835021
20
0.154614504413814
30
0
41
1
10
53.7385530693212
20
0.376894278128646
30
0
41
1
10
53.5650330949839
20
0.465698713117121
30
0
41
1
10
53.4782402239561
20
0.510052252229116
30
0
41
1
10
53.2181681160976
20
0.642743985704868
30
0
41
1
10
52.871975851727
20
0.818809742451606
30
0
41
1
10
52.5268892637642
20
0.993015801668946
30
0
41
1
10
52.1823066134577
20
1.16614911828918
30
0
41
1
10
51.8382248614363
20
1.3382070861106
30
0
41
1
10
51.4948387931632
20
1.50765565632093
30
0
41
1
10
51.1516879055881
20
1.67561947959106
30
0
41
1
10
50.8087726484629
20
1.84209842329463
30
0
41
1
10
50.4662965363214
20
2.00541011261487
30
0
41
1
10
50.1240670585698
20
2.16701810867323
30
0
41
1
10
49.9530781239976
20
2.24697084715729
30
0
41
1
10
49.4399269193514
20
2.48384205650808
30
0
41
1
10
49.0975620029753
20
2.63776176105685
30
0
41
1
10
48.4120222565925
20
2.93678796046731
30
0
41
1
10
48.068847954594
20
3.08190184406112
30
0
41
1
10
47.3814550352858
20
3.36209099118466
30
0
41
1
10
47.0372479701484
20
3.49717084553424
30
0
41
1
10
46.5194466467956
20
3.69117341269975
30
0
41
1
10
46.3465955243325
20
3.75440600840676
30
0
41
1
10
46.0868979486509
20
3.84691464783725
30
0
41
1
10
46.0002630143832
20
3.87735780154671
30
0
41
1
10
45.8268260246492
20
3.93747361173172
30
0
41
1
10
45.7400598681574
20
3.96713384842917
30
0
41
1
10
45.3066771312587
20
4.11324624730446
30
0
41
1
10
44.9605569074857
20
4.22345626431218
30
0
41
1
10
44.269825721652
20
4.42939977830173
30
0
41
1
10
43.9252234328028
20
4.52514472003733
30
0
41
1
10
43.4094622391801
20
4.6567238207918
30
0
41
1
10
43.2377343478173
20
4.69857728458709
30
0
41
1
10
42.8946030084284
20
4.77808040132928
30
0
41
1
10
42.7232121889907
20
4.81570423126112
30
0
41
1
10
42.2089537536857
20
4.92289854390449
30
0
41
1
10
41.8659150489875
20
4.98693648639278
30
0
41
1
10
41.3512375731354
20
5.07016812731936
30
0
41
1
10
41.1796674548736
20
5.09576126614772
30
0
41
1
10
40.8363781004782
20
5.14261057059963
30
0
41
1
10
40.6646634868037
20
5.16383848530123
30
0
41
1
10
40.1489312029107
20
5.22172713324829
30
0
41
1
10
39.8042613548361
20
5.25280359747427
30
0
41
1
10
39.1131484077205
20
5.29795550686242
30
0
41
1
10
38.7667229290601
20
5.31203913009037
30
0
41
1
10
38.3323497814244
20
5.31737563485214
30
0
41
1
10
38.2454156372699
20
5.31782205163992
30
0
41
1
10
38.152652839124
20
5.31765052771777
30
0
41
1
10
38.1467467759207
20
5.3176368144527
30
0
41
1
10
38.1408408828974
20
5.31762031645977
30
0
0
SPLINE
5
FF
100
AcDbEntity
8
1
62
256
6
ByLayer
370
18
48
1
60
0
100
AcDbSpline
70
4
71
3
72
47
73
43
40
0
40
0
40
0
40
0
40
0.0745942896787097
40
0.0745942896787097
40
0.107644493618756
40
0.107644493618756
40
0.140694697558802
40
0.140694697558802
40
0.206795105438894
40
0.206795105438894
40
0.23984530937894
40
0.23984530937894
40
0.272895513318987
40
0.272895513318987
40
0.338995921199077
40
0.338995921199077
40
0.405096329079167
40
0.405096329079167
40
0.421621431049189
40
0.421621431049189
40
0.438146533019212
40
0.438146533019212
40
0.471196736959259
40
0.471196736959259
40
0.603397552719446
40
0.603397552719446
40
0.669497960599538
40
0.669497960599538
40
0.702548164539584
40
0.702548164539584
40
0.735598368479631
40
0.735598368479631
40
0.801698776359723
40
0.801698776359723
40
0.834748980299768
40
0.867799184239813
40
0.900849388179858
40
0.917374490149882
40
0.917374490149882
40
0.933899592119906
40
0.933899592119906
40
1
40
1
40
1
40
1
41
1
10
39.3113843624036
20
0.29622621551664
30
0
41
1
10
39.7019880455869
20
0.0967456610148361
30
0
41
1
10
40.0913165586556
20
-0.102821706549008
30
0
41
1
10
40.6520240252866
20
-0.38950254879839
30
0
41
1
10
40.824028551567
20
-0.477340585156952
30
0
41
1
10
41.1678674813061
20
-0.652415199212783
30
0
41
1
10
41.3396974053294
20
-0.739658678510466
30
0
41
1
10
41.85497085849
20
-1.00037193215158
30
0
41
1
10
42.198206973753
20
-1.17281157043396
30
0
41
1
10
42.713179795385
20
-1.42834834014897
30
0
41
1
10
42.8848590881183
20
-1.51300474679255
30
0
41
1
10
43.2283922923911
20
-1.68105314818979
30
0
41
1
10
43.4002431781354
20
-1.76444869476296
30
0
41
1
10
43.9161102871293
20
-2.01257950571295
30
0
41
1
10
44.2604456146927
20
-2.17525631630988
30
0
41
1
10
44.9506803123728
20
-2.49379578522277
30
0
41
1
10
45.2965783140102
20
-2.64965937993557
30
0
41
1
10
45.730361171718
20
-2.83933603346841
30
0
41
1
10
45.8171886530379
20
-2.87701331478644
30
0
41
1
10
45.9910022455141
20
-2.95182642575779
30
0
41
1
10
46.0780415998783
20
-2.98898459112451
30
0
41
1
10
46.3389434844244
20
-3.09940587600971
30
0
41
1
10
46.5125883661104
20
-3.17161891901174
30
0
41
1
10
47.3793657450258
20
-3.52535016270838
30
0
41
1
10
48.0682179301605
20
-3.78494224199201
30
0
41
1
10
49.0990891998837
20
-4.13440871612804
30
0
41
1
10
49.4423079783718
20
-4.24423106023792
30
0
41
1
10
49.957043318597
20
-4.39824655655551
30
0
41
1
10
50.1286068408818
20
-4.44779996147309
30
0
41
1
10
50.4718148108635
20
-4.54331369094274
30
0
41
1
10
50.6434583791029
20
-4.58927233118166
30
0
41
1
10
51.1585876649615
20
-4.72151703287793
30
0
41
1
10
51.5022675058017
20
-4.8021578130955
30
0
41
1
10
52.018741870895
20
-4.91128956395292
30
0
41
1
10
52.3633791418812
20
-4.98010886791235
30
0
41
1
10
52.8816279831435
20
-5.0713776527075
30
0
41
1
10
53.3147137888727
20
-5.13709359574128
30
0
41
1
10
53.5752126003948
20
-5.17176430758133
30
0
41
1
10
53.7490339971774
20
-5.19380811330521
30
0
41
1
10
53.8360356363416
20
-5.20429612298142
30
0
41
1
10
54.2708123204512
20
-5.25395947972459
30
0
41
1
10
54.6183925315282
20
-5.28487524009458
30
0
41
1
10
54.9660902587585
20
-5.30677243433385
30
0
0
SPLINE
5
100
100
AcDbEntity
8
1
62
256
6
ByLayer
370
18
48
1
60
0
100
AcDbSpline
70
4
71
3
72
44
73
40
40
0
40
0
40
0
40
0
40
0.0625000000000008
40
0.0625000000000008
40
0.125000000000001
40
0.187500000000002
40
0.187500000000002
40
0.218750000000002
40
0.218750000000002
40
0.250000000000003
40
0.250000000000003
40
0.312500000000003
40
0.312500000000003
40
0.375000000000003
40
0.437500000000003
40
0.437500000000003
40
0.468750000000004
40
0.468750000000004
40
0.500000000000004
40
0.500000000000004
40
0.562500000000004
40
0.625000000000005
40
0.687500000000005
40
0.687500000000005
40
0.703125000000005
40
0.703125000000005
40
0.718750000000005
40
0.718750000000005
40
0.750000000000004
40
0.750000000000004
40
0.812500000000003
40
0.875000000000002
40
0.875000000000002
40
0.937500000000001
40
0.937500000000001
40
0.953125000000001
40
0.953125000000001
40
0.968750000000001
40
1
40
1
40
1
40
1
41
1
10
54.9517469899415
20
-0.248217770981739
30
0
41
1
10
54.9316758618895
20
-0.404788310321862
30
0
41
1
10
54.9141389646172
20
-0.560115037172778
30
0
41
1
10
54.8832614755258
20
-0.868278250655464
30
0
41
1
10
54.8565818506444
20
-1.17395101054527
30
0
41
1
10
54.8368483784894
20
-1.47453965699333
30
0
41
1
10
54.8241989480299
20
-1.69799724374212
30
0
41
1
10
54.8203417969017
20
-1.77215204415279
30
0
41
1
10
54.8132806190135
20
-1.91978125452809
30
0
41
1
10
54.8100723545774
20
-1.99338965012674
30
0
41
1
10
54.8014147355917
20
-2.21108827983133
30
0
41
1
10
54.796894274826
20
-2.35264116632103
30
0
41
1
10
54.7897968095697
20
-2.62875866474044
30
0
41
1
10
54.7846442687794
20
-2.89788693726604
30
0
41
1
10
54.7826078370861
20
-3.15305820170963
30
0
41
1
10
54.782075378665
20
-3.3390906651033
30
0
41
1
10
54.7820648927112
20
-3.40020922395288
30
0
41
1
10
54.7823635825531
20
-3.52062689746271
30
0
41
1
10
54.7826718437117
20
-3.57952442611577
30
0
41
1
10
54.7840459153487
20
-3.75213294807901
30
0
41
1
10
54.7870662897184
20
-3.97160427509775
30
0
41
1
10
54.7951197690252
20
-4.26946978234221
30
0
41
1
10
54.80313323736
20
-4.44711886008548
30
0
41
1
10
54.8091669272357
20
-4.55144496623311
30
0
41
1
10
54.8104253709622
20
-4.57197432895308
30
0
41
1
10
54.8130524820195
20
-4.61235461801249
30
0
41
1
10
54.8144210640082
20
-4.63220023104896
30
0
41
1
10
54.81868069479
20
-4.69042011151137
30
0
41
1
10
54.8217318555314
20
-4.72758107266338
30
0
41
1
10
54.8315898887705
20
-4.83419470565048
30
0
41
1
10
54.846605036323
20
-4.96338013239776
30
0
41
1
10
54.8663049699591
20
-5.06710175445218
30
0
41
1
10
54.8889577912607
20
-5.15803977121439
30
0
41
1
10
54.901759581246
20
-5.19711761933891
30
0
41
1
10
54.9200887664746
20
-5.23776270184962
30
0
41
1
10
54.9238745431317
20
-5.24548628864102
30
0
41
1
10
54.9316726454698
20
-5.26006599197598
30
0
41
1
10
54.9437116424869
20
-5.28064194397155
30
0
41
1
10
54.9568245764128
20
-5.29734999588382
30
0
41
1
10
54.9660902579447
20
-5.30677243434337
30
0
0
SPLINE
5
101
100
AcDbEntity
8
1
62
256
6
ByLayer
370
18
48
1
60
0
100
AcDbSpline
70
4
71
3
72
116
73
112
40
0
40
0
40
0
40
0
40
0.0625000000000969
40
0.0625000000000969
40
0.125000000000194
40
0.125000000000194
40
0.156250000000242
40
0.156250000000242
40
0.187500000000291
40
0.187500000000291
40
0.250000000000388
40
0.250000000000388
40
0.281250000000437
40
0.281250000000437
40
0.296875000000461
40
0.296875000000461
40
0.300781250000467
40
0.300781250000467
40
0.302734375000471
40
0.302734375000471
40
0.303710937500472
40
0.303710937500472
40
0.304687500000473
40
0.304687500000473
40
0.306640625000475
40
0.306640625000475
40
0.308593750000477
40
0.308593750000477
40
0.309570312500477
40
0.309570312500477
40
0.310546875000478
40
0.310546875000478
40
0.311523437500478
40
0.311523437500478
40
0.312500000000479
40
0.32812500000047
40
0.32812500000047
40
0.343750000000461
40
0.343750000000461
40
0.375000000000442
40
0.375000000000442
40
0.406250000000423
40
0.406250000000423
40
0.414062500000419
40
0.414062500000419
40
0.421875000000414
40
0.421875000000414
40
0.437500000000404
40
0.437500000000404
40
0.468750000000384
40
0.468750000000384
40
0.484375000000375
40
0.484375000000375
40
0.500000000000365
40
0.500000000000365
40
0.50781250000036
40
0.50781250000036
40
0.515625000000355
40
0.515625000000355
40
0.531250000000345
40
0.531250000000345
40
0.546875000000334
40
0.546875000000334
40
0.554687500000329
40
0.554687500000329
40
0.562500000000324
40
0.562500000000324
40
0.593750000000303
40
0.593750000000303
40
0.597656250000301
40
0.597656250000301
40
0.601562500000298
40
0.601562500000298
40
0.609375000000293
40
0.609375000000293
40
0.625000000000282
40
0.625000000000282
40
0.640625000000272
40
0.640625000000272
40
0.644531250000269
40
0.644531250000269
40
0.648437500000267
40
0.656250000000261
40
0.656250000000261
40
0.671875000000249
40
0.671875000000249
40
0.687500000000237
40
0.687500000000237
40
0.703125000000225
40
0.703125000000225
40
0.710937500000219
40
0.710937500000219
40
0.718750000000214
40
0.718750000000214
40
0.75000000000019
40
0.75000000000019
40
0.781250000000166
40
0.781250000000166
40
0.812500000000142
40
0.812500000000142
40
0.82812500000013
40
0.82812500000013
40
0.843750000000118
40
0.843750000000118
40
0.875000000000094
40
0.875000000000094
40
0.906250000000071
40
0.906250000000071
40
0.937500000000047
40
0.937500000000047
40
1
40
1
40
1
40
1
41
1
10
9.56928145101168
20
-1.96823591462871
30
0
41
1
10
9.26147588546684
20
-1.81644125531858
30
0
41
1
10
8.95163618452943
20
-1.66664319084089
30
0
41
1
10
8.32636198591413
20
-1.374815252698
30
0
41
1
10
8.01091797059357
20
-1.23280553465585
30
0
41
1
10
7.53250369538739
20
-1.0283715523419
30
0
41
1
10
7.37216693240856
20
-0.961663828741251
30
0
41
1
10
7.05027894749111
20
-0.831766760562175
30
0
41
1
10
6.88864640065322
20
-0.768540894486847
30
0
41
1
10
6.40152819938865
20
-0.584521553251591
30
0
41
1
10
6.07381701998941
20
-0.469400308321809
30
0
41
1
10
5.57731881534392
20
-0.309644110581303
30
0
41
1
10
5.41094275070213
20
-0.258521785598532
30
0
41
1
10
5.16038917870154
20
-0.185290099007659
30
0
41
1
10
5.0767034733027
20
-0.161453087296025
30
0
41
1
10
4.97188328484316
20
-0.132385816943412
30
0
41
1
10
4.95090868079439
20
-0.126608832310751
30
0
41
1
10
4.9194325511061
20
-0.117998728340893
30
0
41
1
10
4.90893919183026
20
-0.115133634600795
30
0
41
1
10
4.89319203729087
20
-0.110862843400639
30
0
41
1
10
4.8879379712034
20
-0.109458194463656
30
0
41
1
10
4.87734556211683
20
-0.106967485336924
30
0
41
1
10
4.8719943742027
20
-0.105868620957409
30
0
41
1
10
4.85589690743112
20
-0.103229174150528
30
0
41
1
10
4.84513161000226
20
-0.10244439500633
30
0
41
1
10
4.82353094055975
20
-0.102904660252165
30
0
41
1
10
4.81256500367056
20
-0.104146657473706
30
0
41
1
10
4.79688670825956
20
-0.108098811022046
30
0
41
1
10
4.79175856434114
20
-0.109726211209164
30
0
41
1
10
4.78178141647814
20
-0.113864411807441
30
0
41
1
10
4.77689166740052
20
-0.116315918811779
30
0
41
1
10
4.76742553887965
20
-0.12184994941137
30
0
41
1
10
4.76277716104019
20
-0.124760326089898
30
0
41
1
10
4.75342383444212
20
-0.130484158091946
30
0
41
1
10
4.67394941598474
20
-0.179183349820335
30
0
41
1
10
4.59497603354458
20
-0.228671920525556
30
0
41
1
10
4.44732311074088
20
-0.323298047807555
30
0
41
1
10
4.37395991340992
20
-0.371372161794341
30
0
41
1
10
4.15578685848251
20
-0.517778234681259
30
0
41
1
10
4.01286236468698
20
-0.618292675538981
30
0
41
1
10
3.73295011341739
20
-0.826127034457159
30
0
41
1
10
3.59595561931937
20
-0.933439448955141
30
0
41
1
10
3.42921348015085
20
-1.07271091037234
30
0
41
1
10
3.39609136927859
20
-1.10082316196144
30
0
41
1
10
3.33032551606829
20
-1.15759217199786
30
0
41
1
10
3.29765799402389
20
-1.18627024512722
30
0
41
1
10
3.20058607848492
20
-1.27301666627486
30
0
41
1
10
3.13723961145217
20
-1.3316780529257
30
0
41
1
10
2.95170713703709
20
-1.51037810006616
30
0
41
1
10
2.83398442508772
20
-1.63310765027887
30
0
41
1
10
2.66855314551941
20
-1.82382910679945
30
0
41
1
10
2.61527737964389
20
-1.88851266796362
30
0
41
1
10
2.51298726601169
20
-2.02039448429301
30
0
41
1
10
2.46397074565158
20
-2.0875915047886
30
0
41
1
10
2.39415830532573
20
-2.19056386890853
30
0
41
1
10
2.37146972564187
20
-2.22531740823652
30
0
41
1
10
2.32782469772877
20
-2.2949811808856
30
0
41
1
10
2.30682638603832
20
-2.32994851329448
30
0
41
1
10
2.24641722232462
20
-2.43527042609176
30
0
41
1
10
2.20958667196595
20
-2.50604413493772
30
0
41
1
10
2.14352861913775
20
-2.64879874183396
30
0
41
1
10
2.11429936387032
20
-2.72077950017356
30
0
41
1
10
2.07683936037111
20
-2.82974191849388
30
0
41
1
10
2.06539000352709
20
-2.86634588573239
30
0
41
1
10
2.04499260643564
20
-2.93902388182457
30
0
41
1
10
2.03601703450943
20
-2.9751554544564
30
0
41
1
10
1.99728000369214
20
-3.15476199343391
30
0
41
1
10
1.98588385289162
20
-3.29509074377543
30
0
41
1
10
1.9959630911371
20
-3.44891458886616
30
0
41
1
10
1.99740203492979
20
-3.46594979846736
30
0
41
1
10
2.00092268962177
20
-3.49990638054729
30
0
41
1
10
2.00300776475666
20
-3.51684324294368
30
0
41
1
10
2.01017688769053
20
-3.56712343770474
30
0
41
1
10
2.01618350109373
20
-3.60005083665894
30
0
41
1
10
2.03771524022355
20
-3.6971327802564
30
0
41
1
10
2.05674679296908
20
-3.75958948163284
30
0
41
1
10
2.10341016747293
20
-3.88032281094249
30
0
41
1
10
2.13104341922607
20
-3.9385988084544
30
0
41
1
10
2.17059019725747
20
-4.00900489242221
30
0
41
1
10
2.17875221950669
20
-4.02296568361203
30
0
41
1
10
2.19547722426108
20
-4.05050208132118
30
0
41
1
10
2.2211977948046
20
-4.0912862504465
30
0
41
1
10
2.248743602736
20
-4.1305694453043
30
0
41
1
10
2.30609677992064
20
-4.20727527574653
30
0
41
1
10
2.34734164930987
20
-4.25593655264422
30
0
41
1
10
2.43510755801316
20
-4.34891770132566
30
0
41
1
10
2.48163061094738
20
-4.39323596570731
30
0
41
1
10
2.57938421913448
20
-4.47800220501668
30
0
41
1
10
2.63061607245879
20
-4.51844914166051
30
0
41
1
10
2.7106576808032
20
-4.57649823110847
30
0
41
1
10
2.73784314833247
20
-4.59538739915439
30
0
41
1
10
2.79288570903492
20
-4.6321161005429
30
0
41
1
10
2.8207823398424
20
-4.6499846582025
30
0
41
1
10
2.96201667170942
20
-4.73701758551738
30
0
41
1
10
3.08056193530047
20
-4.79931303461626
30
0
41
1
10
3.32641216345331
20
-4.91243863542701
30
0
41
1
10
3.45373420914805
20
-4.96324629803587
30
0
41
1
10
3.71565679232526
20
-5.05543747377476
30
0
41
1
10
3.85026554756803
20
-5.09681013642165
30
0
41
1
10
4.05687049118092
20
-5.15287674964284
30
0
41
1
10
4.12633746382815
20
-5.17051149023231
30
0
41
1
10
4.26611375573179
20
-5.20379854286404
30
0
41
1
10
4.33646601677458
20
-5.21946228778552
30
0
41
1
10
4.54880903588082
20
-5.26376594873935
30
0
41
1
10
4.69208190171094
20
-5.28972758194001
30
0
41
1
10
4.98160809710666
20
-5.33556500458181
30
0
41
1
10
5.12786301860419
20
-5.35543721995515
30
0
41
1
10
5.42303051875464
20
-5.38989164987188
30
0
41
1
10
5.57194405726011
20
-5.40447170453123
30
0
41
1
10
6.02230164439388
20
-5.44121220064045
30
0
41
1
10
6.32734493385649
20
-5.45641290022658
30
0
41
1
10
6.63649978149175
20
-5.46415690907253
30
0
0
SPLINE
5
102
100
AcDbEntity
8
1
62
256
6
ByLayer
370
18
48
1
60
0
100
AcDbSpline
70
4
71
3
72
10
73
6
40
0
40
0
40
0
40
0
40
0.219869423298248
40
0.219869423298248
40
1
40
1
40
1
40
1
41
1
10
12.7289043407367
20
-3.40709949309851
30
0
41
1
10
12.2758711177964
20
-3.55353184040206
30
0
41
1
10
11.8243816854
20
-3.70122009014054
30
0
41
1
10
9.77761904225719
20
-4.37766770482912
30
0
41
1
10
8.19931134185234
20
-4.91823945163372
30
0
41
1
10
6.63650057942723
20
-5.4641569010866
30
0
0
SPLINE
5
103
100
AcDbEntity
8
SK1
62
256
6
ByLayer
370
18
48
1
60
0
100
AcDbSpline
70
4
71
3
72
8
73
4
40
0
40
0
40
0
40
0
40
1
40
1
40
1
40
1
41
1
10
-44.25
20
-1.18277753981698
30
0
41
1
10
-44.5004726175863
20
-1.07395840152776
30
0
41
1
10
-44.7505581037392
20
-0.964978911093368
30
0
41
1
10
-45
20
-0.855732841892802
30
0
0
SPLINE
5
104
100
AcDbEntity
8
SK1
62
256
6
ByLayer
370
18
48
1
60
0
100
AcDbSpline
70
4
71
3
72
20
73
16
40
0
40
0
40
0
40
0
40
0.0625000000000012
40
0.0625000000000012
40
0.125000000000002
40
0.125000000000002
40
0.250000000000002
40
0.250000000000002
40
0.375000000000002
40
0.375000000000002
40
0.500000000000001
40
0.500000000000001
40
0.750000000000001
40
0.750000000000001
40
1
40
1
40
1
40
1
41
1
10
-44.15
20
-1.32475514828369
30
0
41
1
10
-44.15
20
-1.32068551185998
30
0
41
1
10
-44.150256914617
20
-1.3165711777076
30
0
41
1
10
-44.1512466991598
20
-1.30825960933328
30
0
41
1
10
-44.1519837129547
20
-1.30406704497486
30
0
41
1
10
-44.1547653438365
20
-1.29177666222174
30
0
41
1
10
-44.1574101181635
20
-1.28375913009739
30
0
41
1
10
-44.1638373738149
20
-1.26835716662103
30
0
41
1
10
-44.1675465419207
20
-1.26112202581825
30
0
41
1
10
-44.1757372414659
20
-1.24737595700077
30
0
41
1
10
-44.1802613014627
20
-1.24082548056072
30
0
41
1
10
-44.1944507164524
20
-1.22267149174212
30
0
41
1
10
-44.2047953517104
20
-1.21234706266219
30
0
41
1
10
-44.226908544871
20
-1.19478692771992
30
0
41
1
10
-44.2382901766631
20
-1.18786493378965
30
0
41
1
10
-44.25
20
-1.18277753981692
30
0
0
SPLINE
5
105
100
AcDbEntity
8
SK1
62
256
6
ByLayer
370
18
48
1
60
0
100
AcDbSpline
70
4
71
3
72
20
73
16
40
0
40
0
40
0
40
0
40
0.25
40
0.25
40
0.375
40
0.375
40
0.5
40
0.5
40
0.625
40
0.625
40
0.75
40
0.75
40
0.875
40
0.875
40
1
40
1
40
1
40
1
41
1
10
-44.25
20
-2.99251081388985
30
0
41
1
10
-44.2382877407461
20
-2.99759926615943
30
0
41
1
10
-44.226914977972
20
-3.00090794972118
30
0
41
1
10
-44.2103576071414
20
-3.00317357556963
30
0
41
1
10
-44.2049751381096
20
-3.00345614872424
30
0
41
1
10
-44.1946946812026
20
-3.00302878892438
30
0
41
1
10
-44.1897650588918
20
-3.00232480374183
30
0
41
1
10
-44.1803754339179
20
-2.99981394239177
30
0
41
1
10
-44.1758982216171
20
-2.99800202047945
30
0
41
1
10
-44.1675998620729
20
-2.99301861246877
30
0
41
1
10
-44.1638730040088
20
-2.98991049560962
30
0
41
1
10
-44.1574568338975
20
-2.98217286521171
30
0
41
1
10
-44.1547730646344
20
-2.97750301922645
30
0
41
1
10
-44.1510607548749
20
-2.96668671735446
30
0
41
1
10
-44.15
20
-2.96037721130151
30
0
41
1
10
-44.15
20
-2.95351509494927
30
0
0
SPLINE
5
106
100
AcDbEntity
8
SK1
62
256
6
ByLayer
370
18
48
1
60
0
100
AcDbSpline
70
4
71
3
72
8
73
4
40
0
40
0
40
0
40
0
40
1
40
1
40
1
40
1
41
1
10
-45
20
-2.66546611596564
30
0
41
1
10
-44.7505691128487
20
-2.77470736359473
30
0
41
1
10
-44.5004762238101
20
-2.88369010885779
30
0
41
1
10
-44.25
20
-2.99251081388982
30
0
0
SPLINE
5
107
100
AcDbEntity
8
1
62
256
6
ByLayer
370
18
48
1
60
0
100
AcDbSpline
70
4
71
3
72
32
73
28
40
0
40
0
40
0
40
0
40
0.0611761356523037
40
0.117322136639403
40
0.16763038957062
40
0.207285569817796
40
0.244691658335831
40
0.293316685190973
40
0.343000234056683
40
0.370233625016653
40
0.390930254681688
40
0.420608785096418
40
0.460570988311726
40
0.499734874164218
40
0.531877820100114
40
0.559312008201306
40
0.591994337522534
40
0.631250374798336
40
0.671363165193641
40
0.706498365721971
40
0.738020003783621
40
0.778291563936458
40
0.827296254665508
40
0.869548272018945
40
0.919646246342021
40
0.973342322799143
40
1
40
1
40
1
40
1
41
1
10
23.5371551807551
20
-5.28902135655511
30
0
41
1
10
23.7739391574086
20
-5.2886649065351
30
0
41
1
10
24.2294269059691
20
-5.28857507961868
30
0
41
1
10
24.8967399046627
20
-5.29041400247723
30
0
41
1
10
25.4603968133556
20
-5.29274124035268
30
0
41
1
10
25.9647599923
20
-5.29373145555269
30
0
41
1
10
26.4598196376038
20
-5.29503754568589
30
0
41
1
10
26.995701526781
20
-5.29588458033916
30
0
41
1
10
27.4910961139326
20
-5.29663464115987
30
0
41
1
10
27.8763505491453
20
-5.29722633438169
30
0
41
1
10
28.1826404982049
20
-5.29770764644627
30
0
41
1
10
28.5391695373518
20
-5.29844900391842
30
0
41
1
10
28.9685772518056
20
-5.30028629298155
30
0
41
1
10
29.4077124867549
20
-5.30133883149435
30
0
41
1
10
29.7974075256045
20
-5.30175209847096
30
0
41
1
10
30.1615213727284
20
-5.30198250018304
30
0
41
1
10
30.5537089926257
20
-5.3022184513122
30
0
41
1
10
30.9959335765409
20
-5.30254523763588
30
0
41
1
10
31.4478394272777
20
-5.30293723922185
30
0
41
1
10
31.8692181186357
20
-5.30436600314709
30
0
41
1
10
32.2912227786581
20
-5.30592977490417
30
0
41
1
10
32.767965947347
20
-5.30685530256289
30
0
41
1
10
33.2870568429163
20
-5.30750763892053
30
0
41
1
10
33.8449292887993
20
-5.30938312897825
30
0
41
1
10
34.4213215164971
20
-5.31121299787668
30
0
41
1
10
34.9361459611115
20
-5.31109542722288
30
0
41
1
10
35.2533019602804
20
-5.31092638678641
30
0
41
1
10
35.3585119558661
20
-5.31087735504931
30
0
0
SPLINE
5
108
100
AcDbEntity
8
1
62
256
6
ByLayer
370
18
48
1
60
0
100
AcDbSpline
70
4
71
3
72
16
73
12
40
0
40
0
40
0
40
0
40
0.0866331975188672
40
0.19426365752147
40
0.301621490607658
40
0.407537992868642
40
0.489525845669063
40
0.577678958598183
40
0.691079195067571
40
0.841060451540142
40
1
40
1
40
1
40
1
41
1
10
54.777646550671
20
1.24112358504621
30
0
41
1
10
54.6181457569782
20
1.2934117799696
30
0
41
1
10
54.2609920858959
20
1.41214378520957
30
0
41
1
10
53.7082786399137
20
1.60191142031113
30
0
41
1
10
53.1221854416198
20
1.80934048456402
30
0
41
1
10
52.584800991944
20
2.00534710062269
30
0
41
1
10
52.0838390033184
20
2.19277352061786
30
0
41
1
10
51.5705182818569
20
2.38916830732793
30
0
41
1
10
50.9360480799917
20
2.63832866281035
30
0
41
1
10
50.1767943147539
20
2.94600186048422
30
0
41
1
10
49.6246046526254
20
3.17910612031895
30
0
41
1
10
49.3412930964464
20
3.30109105410051
30
0
0
SPLINE
5
109
100
AcDbEntity
8
1
62
256
6
ByLayer
370
18
48
1
60
0
100
AcDbSpline
70
4
71
3
72
37
73
33
40
0
40
0
40
0
40
0
40
4.4216422047E-06
40
1.74845971518E-05
40
2.99496793E-05
40
4.25583837373E-05
40
6.92407719921E-05
40
0.0002604815530071
40
0.0004029851365658
40
0.0006584608568028
40
0.0011178728110454
40
0.0019484749683953
40
0.0034643085114921
40
0.0062569024228972
40
0.0113936219836124
40
0.0593584987881831
40
0.124487991573731
40
0.195523588662679
40
0.263141179853038
40
0.329071237990418
40
0.396173762702508
40
0.466972769217459
40
0.521802888467755
40
0.56548595809831
40
0.617110107388043
40
0.675215855610024
40
0.719932919328673
40
0.76330124266502
40
0.806811087305366
40
0.865231352105804
40
0.942366062112548
40
1
40
1
40
1
40
1
41
1
10
25.3751958763939
20
0.267623006930307
30
0
41
1
10
25.3751978742041
20
0.267622953389861
30
0
41
1
10
25.3752036819182
20
0.267623302163145
30
0
41
1
10
25.3751977648869
20
0.267628112722463
30
0
41
1
10
25.3751583756512
20
0.267642346409275
30
0
41
1
10
25.3750717244748
20
0.267669747671391
30
0
41
1
10
25.3745297713866
20
0.267827689944568
30
0
41
1
10
25.3734576471661
20
0.268118651325068
30
0
41
1
10
25.3718445163913
20
0.268566419583067
30
0
41
1
10
25.3694503444636
20
0.269227337746287
30
0
41
1
10
25.3651614197354
20
0.270413327541348
30
0
41
1
10
25.3573514390885
20
0.272571155441369
30
0
41
1
10
25.3430394018036
20
0.276524871881008
30
0
41
1
10
25.3166797112797
20
0.283803690440891
30
0
41
1
10
25.1607936912393
20
0.326902570145677
30
0
41
1
10
24.8304399024545
20
0.418615017060574
30
0
41
1
10
24.296276123011
20
0.569817242896221
30
0
41
1
10
23.7070207756948
20
0.743443644246099
30
0
41
1
10
23.116922424339
20
0.923719677818411
30
0
41
1
10
22.5396870179769
20
1.10621452527943
30
0
41
1
10
21.9549554292492
20
1.29722359279373
30
0
41
1
10
21.4037096597189
20
1.48328454745442
30
0
41
1
10
20.9208367345989
20
1.65102593094031
30
0
41
1
10
20.493753651567
20
1.80267379561809
30
0
41
1
10
20.058500766618
20
1.9604572066157
30
0
41
1
10
19.6215660998868
20
2.12257832481072
30
0
41
1
10
19.209085930499
20
2.27890878216388
30
0
41
1
10
18.8386580364303
20
2.42182915299486
30
0
41
1
10
18.4306266974991
20
2.58196254414213
30
0
41
1
10
17.9291213769837
20
2.78285468819857
30
0
41
1
10
17.3897110189593
20
3.00384292467066
30
0
41
1
10
17.0153181518909
20
3.1626350137409
30
0
41
1
10
16.8555059692829
20
3.23127744494386
30
0
0
SPLINE
5
10A
100
AcDbEntity
8
1
62
256
6
ByLayer
370
18
48
1
60
0
100
AcDbSpline
70
4
71
3
72
29
73
25
40
0
40
0
40
0
40
0
40
0.0668661029342489
40
0.122462608617005
40
0.168129811617174
40
0.205615169184578
40
0.235631010883734
40
0.267634712471529
40
0.306950466665679
40
0.350369048023345
40
0.390408185176274
40
0.425294429150136
40
0.467787384979722
40
0.518029002305939
40
0.562828485921698
40
0.602386322201602
40
0.663175073055859
40
0.728747694590542
40
0.7964852019535
40
0.854185417733695
40
0.912525116523809
40
0.94295546050052
40
0.974677096870457
40
1
40
1
40
1
40
1
41
1
10
38.1589573651077
20
5.31767425449567
30
0
41
1
10
37.8972066969798
20
5.3164255581998
30
0
41
1
10
37.4178579966134
20
5.31443212749286
30
0
41
1
10
36.7514731868638
20
5.31173066054669
30
0
41
1
10
36.2141950017933
20
5.31106108027763
30
0
41
1
10
35.7689916530298
20
5.31027279285195
30
0
41
1
10
35.3770698735899
20
5.31073837092436
30
0
41
1
10
34.9789619719182
20
5.31108683243244
30
0
41
1
10
34.5265338335416
20
5.31110636393973
30
0
41
1
10
34.0429791361771
20
5.3102444213763
30
0
41
1
10
33.5766165562783
20
5.30823555806103
30
0
41
1
10
33.1141714802661
20
5.30733417450148
30
0
41
1
10
32.6113329175967
20
5.30661176919378
30
0
41
1
10
32.0694502097899
20
5.30527133463482
30
0
41
1
10
31.5391303632878
20
5.30306481618112
30
0
41
1
10
30.9672519288492
20
5.30251195911239
30
0
41
1
10
30.3135263688756
20
5.3020092708928
30
0
41
1
10
29.5487716561647
20
5.30184566612326
30
0
41
1
10
28.7961886013753
20
5.29946000040124
30
0
41
1
10
28.0721071551286
20
5.29733605097792
30
0
41
1
10
27.4950129679491
20
5.29666782020183
30
0
41
1
10
27.0202720154924
20
5.29591991125048
30
0
41
1
10
26.6756233009548
20
5.29536676926992
30
0
41
1
10
26.4508642546
20
5.29493964041546
30
0
41
1
10
26.3510928539628
20
5.29473491712662
30
0
0
LINE
5
82
100
AcDbEntity
8
4
62
256
6
ByLayer
370
18
48
0.05
60
0
100
AcDbLine
10
0
20
0
30
0
11
57
21
0
31
0
39
0
210
0
220
0
230
1
0
LINE
5
84
100
AcDbEntity
8
81
62
256
6
ByLayer
370
18
48
1
60
0
100
AcDbLine
10
57
20
0
30
0
11
60
21
0
31
0
39
0
210
0
220
0
230
1
0
LINE
5
85
100
AcDbEntity
8
80
62
256
6
ByLayer
370
18
48
1
60
0
100
AcDbLine
10
0
20
0
30
0
11
-3
21
0
31
0
39
0
210
0
220
0
230
1
0
LINE
5
86
100
AcDbEntity
8
SK4
62
256
6
ByLayer
370
18
48
0.05
60
0
100
AcDbLine
10
-48
20
0
30
0
11
60
21
0
31
0
39
0
210
0
220
0
230
1
0
LINE
5
88
100
AcDbEntity
8
1
62
256
6
ByLayer
370
18
48
1
60
0
100
AcDbLine
10
0
20
6
30
0
11
0
21
-6
31
0
39
0
210
0
220
0
230
1
0
LINE
5
89
100
AcDbEntity
8
1
62
256
6
ByLayer
370
13
48
1
60
0
100
AcDbLine
10
56.877232
20
0.569898
30
0
11
55.732305
21
1.719154
31
0
39
0
210
0
220
0
230
1
0
LINE
5
8A
100
AcDbEntity
8
1
62
256
6
ByLayer
370
18
48
1
60
0
100
AcDbLine
10
21.699604
20
-5.39937
30
0
11
21.699604
21
-0.092664
31
0
39
0
210
0
220
0
230
1
0
LINE
5
8B
100
AcDbEntity
8
1
62
256
6
ByLayer
370
18
48
1
60
0
100
AcDbLine
10
21.699604
20
-5.488541
30
0
11
21.699604
21
-5.493321
31
0
39
0
210
0
220
0
230
1
0
LINE
5
8C
100
AcDbEntity
8
1
62
256
6
ByLayer
370
13
48
1
60
0
100
AcDbLine
10
1.20021
20
-5.459695
30
0
11
1.20021
21
5.459695
31
0
39
0
210
0
220
0
230
1
0
LINE
5
8D
100
AcDbEntity
8
1
62
256
6
ByLayer
370
13
48
1
60
0
100
AcDbLine
10
0.599385
20
-5.729847
30
0
11
0.599385
21
5.729847
31
0
39
0
210
0
220
0
230
1
0
LINE
5
8E
100
AcDbEntity
8
SK1
62
256
6
ByLayer
370
18
48
1
60
0
100
AcDbLine
10
-45
20
-0.855753
30
0
11
-45
21
-2.665466
31
0
39
0
210
0
220
0
230
1
0
LINE
5
90
100
AcDbEntity
8
SK1
62
256
6
ByLayer
370
13
48
1
60
0
100
AcDbLine
10
-44.25
20
-2.992511
30
0
11
-44.25
21
-1.182719
31
0
39
0
210
0
220
0
230
1
0
LINE
5
91
100
AcDbEntity
8
SK1
62
256
6
ByLayer
370
18
48
1
60
0
100
AcDbLine
10
-44.15
20
-2.953515
30
0
11
-44.15
21
-1.324755
31
0
39
0
210
0
220
0
230
1
0
LINE
5
92
100
AcDbEntity
8
SK1
62
256
6
ByLayer
370
18
48
1
60
0
100
AcDbLine
10
-45
20
-4.255
30
0
11
-45
21
-2.665466
31
0
39
0
210
0
220
0
230
1
0
LINE
5
93
100
AcDbEntity
8
SK1
62
256
6
ByLayer
370
18
48
1
60
0
100
AcDbLine
10
-45
20
4.255
30
0
11
-45
21
-0.855733
31
0
39
0
210
0
220
0
230
1
0
LINE
5
94
100
AcDbEntity
8
SK1
62
256
6
ByLayer
370
18
48
1
60
0
100
AcDbLine
10
-43.255
20
-6
30
0
11
-43.255
21
6
31
0
39
0
210
0
220
0
230
1
0
LINE
5
95
100
AcDbEntity
8
SK1
62
256
6
ByLayer
370
18
48
1
60
0
100
AcDbLine
10
0
20
6
30
0
11
0
21
-6
31
0
39
0
210
0
220
0
230
1
0
LINE
5
96
100
AcDbEntity
8
1
62
256
6
ByLayer
370
18
48
1
60
0
100
AcDbLine
10
1.20021
20
-5.459695
30
0
11
7.093369
21
-5.470303
31
0
39
0
210
0
220
0
230
1
0
LINE
5
97
100
AcDbEntity
8
1
62
256
6
ByLayer
370
18
48
1
60
0
100
AcDbLine
10
22.262619
20
-5.497608
30
0
11
23.54324
21
-5.499913
31
0
39
0
210
0
220
0
230
1
0
LINE
5
98
100
AcDbEntity
8
1
62
256
6
ByLayer
370
18
48
1
60
0
100
AcDbLine
10
38.162361
20
-5.526227
30
0
11
39.663538
21
-5.528929
31
0
39
0
210
0
220
0
230
1
0
LINE
5
99
100
AcDbEntity
8
1
62
256
6
ByLayer
370
18
48
1
60
0
100
AcDbLine
10
39.663538
20
5.528929
30
0
11
38.162361
21
5.526227
31
0
39
0
210
0
220
0
230
1
0
LINE
5
9A
100
AcDbEntity
8
1
62
256
6
ByLayer
370
18
48
1
60
0
100
AcDbLine
10
23.54324
20
5.499913
30
0
11
22.262619
21
5.497608
31
0
39
0
210
0
220
0
230
1
0
LINE
5
9B
100
AcDbEntity
8
1
62
256
6
ByLayer
370
18
48
1
60
0
100
AcDbLine
10
7.093369
20
5.470303
30
0
11
1.20021
21
5.459695
31
0
39
0
210
0
220
0
230
1
0
LINE
5
9C
100
AcDbEntity
8
SK1
62
256
6
ByLayer
370
18
48
1
60
0
100
AcDbLine
10
-45
20
-4.255
30
0
11
-43.255
21
-6
31
0
39
0
210
0
220
0
230
1
0
LINE
5
9D
100
AcDbEntity
8
SK1
62
256
6
ByLayer
370
18
48
1
60
0
100
AcDbLine
10
-43.255
20
6
30
0
11
-45
21
4.255
31
0
39
0
210
0
220
0
230
1
0
LINE
5
9E
100
AcDbEntity
8
SK1
62
256
6
ByLayer
370
18
48
1
60
0
100
AcDbLine
10
-43.255
20
-6
30
0
11
0
21
-6
31
0
39
0
210
0
220
0
230
1
0
LINE
5
9F
100
AcDbEntity
8
SK1
62
256
6
ByLayer
370
18
48
1
60
0
100
AcDbLine
10
0
20
6
30
0
11
-43.255
21
6
31
0
39
0
210
0
220
0
230
1
0
LINE
5
A0
100
AcDbEntity
8
2
62
256
6
ByLayer
370
13
48
1
60
0
100
AcDbLine
10
64.5
20
-5.5565
30
0
11
64.5
21
33.581527
31
0
39
0
210
0
220
0
230
1
0
LINE
5
A2
100
AcDbEntity
8
2
62
256
6
ByLayer
370
13
48
1
60
0
100
AcDbLine
10
58.5875
20
5.5565
30
0
11
66.5
21
5.5565
31
0
39
0
210
0
220
0
230
1
0
LINE
5
A3
100
AcDbEntity
8
2
62
256
6
ByLayer
370
13
48
1
60
0
100
AcDbLine
10
58.5875
20
-5.5565
30
0
11
66.5
21
-5.5565
31
0
39
0
210
0
220
0
230
1
0
LINE
5
A4
100
AcDbEntity
8
1
62
256
6
ByLayer
370
18
48
1
60
1
100
AcDbLine
10
64.5
20
5.5565
30
0
11
64.960784
21
2.056502
31
0
39
0
210
0
220
0
230
1
0
LINE
5
A5
100
AcDbEntity
8
1
62
256
6
ByLayer
370
18
48
1
60
1
100
AcDbLine
10
64.960784
20
2.056502
30
0
11
64.039216
21
2.056498
31
0
39
0
210
0
220
0
230
1
0
LINE
5
A6
100
AcDbEntity
8
1
62
256
6
ByLayer
370
18
48
1
60
1
100
AcDbLine
10
64.039216
20
2.056498
30
0
11
64.5
21
5.5565
31
0
39
0
210
0
220
0
230
1
0
LINE
5
A7
100
AcDbEntity
8
1
62
256
6
ByLayer
370
18
48
1
60
1
100
AcDbLine
10
64.5
20
-5.5565
30
0
11
64.039216
21
-2.056502
31
0
39
0
210
0
220
0
230
1
0
LINE
5
A8
100
AcDbEntity
8
1
62
256
6
ByLayer
370
18
48
1
60
1
100
AcDbLine
10
64.039216
20
-2.056502
30
0
11
64.960784
21
-2.056498
31
0
39
0
210
0
220
0
230
1
0
LINE
5
A9
100
AcDbEntity
8
1
62
256
6
ByLayer
370
18
48
1
60
1
100
AcDbLine
10
64.960784
20
-2.056498
30
0
11
64.5
21
-5.5565
31
0
39
0
210
0
220
0
230
1
0
LINE
5
AA
100
AcDbEntity
8
SK2
62
256
6
ByLayer
370
13
48
1
60
0
100
AcDbLine
10
-53.5
20
-6
30
0
11
-53.5
21
15.333771
31
0
39
0
210
0
220
0
230
1
0
LINE
5
AC
100
AcDbEntity
8
SK2
62
256
6
ByLayer
370
13
48
1
60
0
100
AcDbLine
10
-46.5875
20
6
30
0
11
-55.5
21
6
31
0
39
0
210
0
220
0
230
1
0
LINE
5
AD
100
AcDbEntity
8
SK2
62
256
6
ByLayer
370
13
48
1
60
0
100
AcDbLine
10
-46.5875
20
-6
30
0
11
-55.5
21
-6
31
0
39
0
210
0
220
0
230
1
0
LINE
5
AE
100
AcDbEntity
8
1
62
256
6
ByLayer
370
18
48
1
60
1
100
AcDbLine
10
-53.5
20
6
30
0
11
-53.039216
21
2.500002
31
0
39
0
210
0
220
0
230
1
0
LINE
5
AF
100
AcDbEntity
8
1
62
256
6
ByLayer
370
18
48
1
60
1
100
AcDbLine
10
-53.039216
20
2.500002
30
0
11
-53.960784
21
2.499998
31
0
39
0
210
0
220
0
230
1
0
LINE
5
B0
100
AcDbEntity
8
1
62
256
6
ByLayer
370
18
48
1
60
1
100
AcDbLine
10
-53.960784
20
2.499998
30
0
11
-53.5
21
6
31
0
39
0
210
0
220
0
230
1
0
LINE
5
B1
100
AcDbEntity
8
1
62
256
6
ByLayer
370
18
48
1
60
1
100
AcDbLine
10
-53.5
20
-6
30
0
11
-53.960784
21
-2.500002
31
0
39
0
210
0
220
0
230
1
0
LINE
5
B2
100
AcDbEntity
8
1
62
256
6
ByLayer
370
18
48
1
60
1
100
AcDbLine
10
-53.960784
20
-2.500002
30
0
11
-53.039216
21
-2.499998
31
0
39
0
210
0
220
0
230
1
0
LINE
5
B3
100
AcDbEntity
8
1
62
256
6
ByLayer
370
18
48
1
60
1
100
AcDbLine
10
-53.039216
20
-2.499998
30
0
11
-53.5
21
-6
31
0
39
0
210
0
220
0
230
1
0
LINE
5
B4
100
AcDbEntity
8
SK2
62
256
6
ByLayer
370
13
48
1
60
0
100
AcDbLine
10
57.542862
20
1.491797
30
0
11
65.133013
21
22.349697
31
0
39
0
210
0
220
0
230
1
0
LINE
5
B5
100
AcDbEntity
8
SK2
62
256
6
ByLayer
370
13
48
1
60
0
100
AcDbLine
10
57.542862
20
-1.491797
30
0
11
65.133013
21
-22.349697
31
0
39
0
210
0
220
0
230
1
0
LINE
5
B6
100
AcDbEntity
8
1
62
256
6
ByLayer
370
18
48
1
60
1
100
AcDbLine
10
64.449093
20
20.470268
30
0
11
67.862284
21
19.568918
31
0
39
0
210
0
220
0
230
1
0
LINE
5
B7
100
AcDbEntity
8
1
62
256
6
ByLayer
370
18
48
1
60
1
100
AcDbLine
10
67.862284
20
19.568918
30
0
11
67.512699
21
18.71623
31
0
39
0
210
0
220
0
230
1
0
LINE
5
B8
100
AcDbEntity
8
1
62
256
6
ByLayer
370
18
48
1
60
1
100
AcDbLine
10
67.512699
20
18.71623
30
0
11
64.449093
21
20.470268
31
0
39
0
210
0
220
0
230
1
0
LINE
5
B9
100
AcDbEntity
8
1
62
256
6
ByLayer
370
18
48
1
60
1
100
AcDbLine
10
64.449093
20
-20.470268
30
0
11
67.512696
21
-18.716232
31
0
39
0
210
0
220
0
230
1
0
LINE
5
BA
100
AcDbEntity
8
1
62
256
6
ByLayer
370
18
48
1
60
1
100
AcDbLine
10
67.512696
20
-18.716232
30
0
11
67.862287
21
-19.568917
31
0
39
0
210
0
220
0
230
1
0
LINE
5
BB
100
AcDbEntity
8
1
62
256
6
ByLayer
370
18
48
1
60
1
100
AcDbLine
10
67.862287
20
-19.568917
30
0
11
64.449093
21
-20.470268
31
0
39
0
210
0
220
0
230
1
0
LINE
5
10B
100
AcDbEntity
8
1
62
256
6
ByLayer
370
13
48
0.05
60
0
100
AcDbLine
10
-51.5
20
0
30
0
11
61.485939
21
0
31
0
39
0
210
0
220
0
230
1
0
LINE
5
110
100
AcDbEntity
8
1
62
256
6
ByLayer
370
18
48
1
60
1
100
AcDbLine
10
64.5
20
5.5565
30
0
11
64.960784
21
2.056502
31
0
39
0
210
0
220
0
230
1
0
LINE
5
111
100
AcDbEntity
8
1
62
256
6
ByLayer
370
18
48
1
60
1
100
AcDbLine
10
64.960784
20
2.056502
30
0
11
64.039216
21
2.056498
31
0
39
0
210
0
220
0
230
1
0
LINE
5
112
100
AcDbEntity
8
1
62
256
6
ByLayer
370
18
48
1
60
1
100
AcDbLine
10
64.039216
20
2.056498
30
0
11
64.5
21
5.5565
31
0
39
0
210
0
220
0
230
1
0
LINE
5
114
100
AcDbEntity
8
1
62
256
6
ByLayer
370
18
48
1
60
1
100
AcDbLine
10
64.5
20
-5.5565
30
0
11
64.039216
21
-2.056502
31
0
39
0
210
0
220
0
230
1
0
LINE
5
115
100
AcDbEntity
8
1
62
256
6
ByLayer
370
18
48
1
60
1
100
AcDbLine
10
64.039216
20
-2.056502
30
0
11
64.960784
21
-2.056498
31
0
39
0
210
0
220
0
230
1
0
LINE
5
116
100
AcDbEntity
8
1
62
256
6
ByLayer
370
18
48
1
60
1
100
AcDbLine
10
64.960784
20
-2.056498
30
0
11
64.5
21
-5.5565
31
0
39
0
210
0
220
0
230
1
0
LINE
5
11A
100
AcDbEntity
8
1
62
256
6
ByLayer
370
18
48
1
60
1
100
AcDbLine
10
-53.5
20
6
30
0
11
-53.039216
21
2.500002
31
0
39
0
210
0
220
0
230
1
0
LINE
5
11B
100
AcDbEntity
8
1
62
256
6
ByLayer
370
18
48
1
60
1
100
AcDbLine
10
-53.039216
20
2.500002
30
0
11
-53.960784
21
2.499998
31
0
39
0
210
0
220
0
230
1
0
LINE
5
11C
100
AcDbEntity
8
1
62
256
6
ByLayer
370
18
48
1
60
1
100
AcDbLine
10
-53.960784
20
2.499998
30
0
11
-53.5
21
6
31
0
39
0
210
0
220
0
230
1
0
LINE
5
11E
100
AcDbEntity
8
1
62
256
6
ByLayer
370
18
48
1
60
1
100
AcDbLine
10
-53.5
20
-6
30
0
11
-53.960784
21
-2.500002
31
0
39
0
210
0
220
0
230
1
0
LINE
5
11F
100
AcDbEntity
8
1
62
256
6
ByLayer
370
18
48
1
60
1
100
AcDbLine
10
-53.960784
20
-2.500002
30
0
11
-53.039216
21
-2.499998
31
0
39
0
210
0
220
0
230
1
0
LINE
5
120
100
AcDbEntity
8
1
62
256
6
ByLayer
370
18
48
1
60
1
100
AcDbLine
10
-53.039216
20
-2.499998
30
0
11
-53.5
21
-6
31
0
39
0
210
0
220
0
230
1
0
LINE
5
123
100
AcDbEntity
8
1
62
256
6
ByLayer
370
18
48
1
60
1
100
AcDbLine
10
64.449093
20
20.470268
30
0
11
67.862284
21
19.568918
31
0
39
0
210
0
220
0
230
1
0
LINE
5
124
100
AcDbEntity
8
1
62
256
6
ByLayer
370
18
48
1
60
1
100
AcDbLine
10
67.862284
20
19.568918
30
0
11
67.512699
21
18.71623
31
0
39
0
210
0
220
0
230
1
0
LINE
5
125
100
AcDbEntity
8
1
62
256
6
ByLayer
370
18
48
1
60
1
100
AcDbLine
10
67.512699
20
18.71623
30
0
11
64.449093
21
20.470268
31
0
39
0
210
0
220
0
230
1
0
LINE
5
127
100
AcDbEntity
8
1
62
256
6
ByLayer
370
18
48
1
60
1
100
AcDbLine
10
64.449093
20
-20.470268
30
0
11
67.512696
21
-18.716232
31
0
39
0
210
0
220
0
230
1
0
LINE
5
128
100
AcDbEntity
8
1
62
256
6
ByLayer
370
18
48
1
60
1
100
AcDbLine
10
67.512696
20
-18.716232
30
0
11
67.862287
21
-19.568917
31
0
39
0
210
0
220
0
230
1
0
LINE
5
129
100
AcDbEntity
8
1
62
256
6
ByLayer
370
18
48
1
60
1
100
AcDbLine
10
67.862287
20
-19.568917
30
0
11
64.449093
21
-20.470268
31
0
39
0
210
0
220
0
230
1
0
MTEXT
5
10C
100
AcDbEntity
8
2
62
256
6
ByLayer
370
18
48
1
60
0
100
AcDbMText
10
63.158886
20
19.214938
30
0
210
0
220
0
230
1
1
%%c
40
3
41
0
44
1.084337
50
90
71
7
72
5
7
iso_b_vert
0
MTEXT
5
10F
100
AcDbEntity
8
2
62
256
6
ByLayer
370
18
48
1
60
0
100
AcDbMText
10
63.158886
20
25.1915
30
0
210
0
220
0
230
1
1
\W0.5551;11.113
40
3
41
0
44
1.084337
50
90
71
7
72
5
7
iso_b_vert
0
MTEXT
5
118
100
AcDbEntity
8
SK2
62
256
6
ByLayer
370
18
48
1
60
0
100
AcDbMText
10
-54.841114
20
6.658437
30
0
210
0
220
0
230
1
1
%%c
40
3
41
0
44
1.084337
50
90
71
7
72
5
7
iso_b_vert
0
MTEXT
5
119
100
AcDbEntity
8
SK2
62
256
6
ByLayer
370
18
48
1
60
0
100
AcDbMText
10
-54.841114
20
12.635
30
0
210
0
220
0
230
1
1
\W0.5321;12
40
3
41
0
44
1.084337
50
90
71
7
72
5
7
iso_b_vert
0
MTEXT
5
122
100
AcDbEntity
8
SK2
62
256
6
ByLayer
370
18
48
1
60
0
100
AcDbMText
10
75.342843
20
-2.114886
30
0
210
0
220
0
230
1
1
\W0.7071;140%%d
40
3
41
0
44
1.084337
50
0
71
7
72
5
7
iso_b_vert
0
MTEXT
5
12B
100
AcDbEntity
8
SK6
62
256
6
ByLayer
370
18
48
1
60
0
100
AcDbMText
10
-15.899246
20
-46.772287
30
0
210
0
220
0
230
1
1
\W0.7093;860.1-1111-035A1-SD S2BM
40
3
41
0
44
1.084337
50
0
71
7
72
5
7
iso_b_vert
0
HATCH
5
113
100
AcDbEntity
8
2
62
256
6
ByLayer
370
13
48
1
60
0
100
AcDbHatch
10
0
20
0
30
0
210
0
220
0
230
1
2
ANSI31
70
0
71
0
91
1
92
5
93
3
72
1
10
64.5
20
5.55650000000003
11
64.9607837415528
21
2.05650169255321
72
1
10
64.9607837415528
20
2.05650169255321
11
64.0392162584472
21
2.05649830744684
72
1
10
64.0392162584472
20
2.05649830744684
11
64.5
21
5.55650000000003
97
0
75
0
76
1
52
0
41
0.0062
77
0
78
1
53
45
43
0
44
0
45
-0.0139193969876572
46
0.0139193969876572
79
0
47
0
98
1
10
0
20
0
0
HATCH
5
117
100
AcDbEntity
8
2
62
256
6
ByLayer
370
13
48
1
60
0
100
AcDbHatch
10
0
20
0
30
0
210
0
220
0
230
1
2
ANSI31
70
0
71
0
91
1
92
5
93
3
72
1
10
64.5
20
-5.55649999999997
11
64.0392162584472
21
-2.05650169255316
72
1
10
64.0392162584472
20
-2.05650169255316
11
64.9607837415528
21
-2.05649830744679
72
1
10
64.9607837415528
20
-2.05649830744679
11
64.5
21
-5.55649999999997
97
0
75
0
76
1
52
0
41
0.0062
77
0
78
1
53
45
43
0
44
0
45
-0.0139193969876572
46
0.0139193969876572
79
0
47
0
98
1
10
0
20
0
0
HATCH
5
11D
100
AcDbEntity
8
SK2
62
256
6
ByLayer
370
13
48
1
60
0
100
AcDbHatch
10
0
20
0
30
0
210
0
220
0
230
1
2
ANSI31
70
0
71
0
91
1
92
5
93
3
72
1
10
-53.5
20
6
11
-53.0392162584472
21
2.50000169255318
72
1
10
-53.0392162584472
20
2.50000169255318
11
-53.9607837415528
21
2.49999830744682
72
1
10
-53.9607837415528
20
2.49999830744682
11
-53.5
21
6
97
0
75
0
76
1
52
0
41
0.0062
77
0
78
1
53
45
43
0
44
0
45
-0.0139193969876572
46
0.0139193969876572
79
0
47
0
98
1
10
0
20
0
0
HATCH
5
121
100
AcDbEntity
8
SK2
62
256
6
ByLayer
370
13
48
1
60
0
100
AcDbHatch
10
0
20
0
30
0
210
0
220
0
230
1
2
ANSI31
70
0
71
0
91
1
92
5
93
3
72
1
10
-53.5
20
-6
11
-53.9607837415528
21
-2.50000169255318
72
1
10
-53.9607837415528
20
-2.50000169255318
11
-53.0392162584472
21
-2.49999830744682
72
1
10
-53.0392162584472
20
-2.49999830744682
11
-53.5
21
-6
97
0
75
0
76
1
52
0
41
0.0062
77
0
78
1
53
45
43
0
44
0
45
-0.0139193969876572
46
0.0139193969876572
79
0
47
0
98
1
10
0
20
0
0
HATCH
5
126
100
AcDbEntity
8
SK2
62
256
6
ByLayer
370
13
48
1
60
0
100
AcDbHatch
10
0
20
0
30
0
210
0
220
0
230
1
2
ANSI31
70
0
71
0
91
1
92
5
93
3
72
1
10
64.4490925676923
20
20.4702684729877
11
67.8622843096043
21
19.5689184069458
72
1
10
67.8622843096043
20
19.5689184069458
11
67.5126989704438
21
18.7162304707271
72
1
10
67.5126989704438
20
18.7162304707271
11
64.4490925676923
21
20.4702684729877
97
0
75
0
76
1
52
0
41
0.0062
77
0
78
1
53
45
43
0
44
0
45
-0.0139193969876572
46
0.0139193969876572
79
0
47
0
98
1
10
0
20
0
0
HATCH
5
12A
100
AcDbEntity
8
SK2
62
256
6
ByLayer
370
13
48
1
60
0
100
AcDbHatch
10
0
20
0
30
0
210
0
220
0
230
1
2
ANSI31
70
0
71
0
91
1
92
5
93
3
72
1
10
64.4490925676925
20
-20.4702684729876
11
67.512695838351
21
-18.7162317548371
72
1
10
67.512695838351
20
-18.7162317548371
11
67.8622874416974
21
-19.5689171228355
72
1
10
67.8622874416974
20
-19.5689171228355
11
64.4490925676925
21
-20.4702684729876
97
0
75
0
76
1
52
0
41
0.0062
77
0
78
1
53
45
43
0
44
0
45
-0.0139193969876572
46
0.0139193969876572
79
0
47
0
98
1
10
0
20
0
0
DIMENSION
5
12E
100
AcDbEntity
8
SK2
62
256
6
ByLayer
370
18
48
1
60
0
100
AcDbDimension
2
_U0
10
21.7
20
-21.809417
30
0
11
39.35
21
-21.809417
31
0
70
32
71
1
72
1
41
1
210
0
220
0
230
1
3
Standard
100
AcDbAlignedDimension
13
57
23
-5.5565
33
0
14
21.7
24
-5.5565
34
0
50
0
100
AcDbRotatedDimension
1001
ACAD
1000
DSTYLE
1002
{
1070
   371
1070
    13
1070
   372
1070
    13
1070
   170
1070
     0
1070
   144
1040
1.0
1070
   277
1070
     2
1070
   284
1070
     8
1070
   278
1070
    46
1070
   146
1040
1.166667
1070
   345
1005
16
1070
   347
1005
16
1070
   346
1005
16
1070
   344
1005
0
1070
   343
1005
0
1070
   172
1070
     1
1070
    76
1070
     0
1070
    75
1070
     0
1070
   282
1070
     0
1070
   281
1070
     0
1070
     3
1000

1070
    71
1070
     0
1070
    74
1070
     0
1070
   279
1070
     0
1070
   173
1070
     1
1070
   340
1005
10D
1070
   271
1070
     2
1070
   272
1070
     2
1070
    77
1070
     1
1070
    73
1070
     1
1070
   171
1070
     3
1070
   274
1070
     4
1070
   177
1070
     2
1070
   176
1070
     2
1070
   178
1070
     2
1070
    78
1070
     8
1070
    48
1040
-0.1
1070
    41
1040
3.5
1070
   147
1040
1.5
1070
    42
1040
1.5875
1070
    44
1040
2.0
1070
   140
1040
3.0
1002
}
1001
ACAD_DSTYLE_DIM_LINETYPE
1070
   380
1005
16
1001
ACAD_DSTYLE_DIM_EXT1_LINETYPE
1070
   381
1005
16
1001
ACAD_DSTYLE_DIM_EXT2_LINETYPE
1070
   382
1005
16
0
DIMENSION
5
149
100
AcDbEntity
8
SK2
62
256
6
ByLayer
370
18
48
1
60
0
100
AcDbDimension
2
_U1
10
2
20
-31.809417
30
0
11
29.5
21
-31.809417
31
0
70
32
71
1
72
1
41
1
210
0
220
0
230
1
3
Standard
100
AcDbAlignedDimension
13
57
23
-5.5565
33
0
14
2
24
-5.5565
34
0
50
0
100
AcDbRotatedDimension
1001
ACAD
1000
DSTYLE
1002
{
1070
   371
1070
    13
1070
   372
1070
    13
1070
     3
1000

1070
   170
1070
     0
1070
   144
1040
1.0
1070
   277
1070
     2
1070
   284
1070
     8
1070
   278
1070
    46
1070
   146
1040
1.166667
1070
   345
1005
16
1070
   347
1005
16
1070
   346
1005
16
1070
   344
1005
0
1070
   343
1005
0
1070
   172
1070
     1
1070
    76
1070
     0
1070
    75
1070
     0
1070
   282
1070
     0
1070
   281
1070
     0
1070
    71
1070
     0
1070
    74
1070
     0
1070
   279
1070
     0
1070
   173
1070
     1
1070
   340
1005
10D
1070
   271
1070
     2
1070
   272
1070
     2
1070
    77
1070
     1
1070
    73
1070
     1
1070
   171
1070
     3
1070
   274
1070
     4
1070
   177
1070
     2
1070
   176
1070
     2
1070
   178
1070
     2
1070
    78
1070
     8
1070
    48
1040
-0.1
1070
    41
1040
3.5
1070
   147
1040
1.5
1070
    42
1040
1.5875
1070
    44
1040
2.0
1070
   140
1040
3.0
1002
}
1001
ACAD_DSTYLE_DIM_LINETYPE
1070
   380
1005
16
1001
ACAD_DSTYLE_DIM_EXT1_LINETYPE
1070
   381
1005
16
1001
ACAD_DSTYLE_DIM_EXT2_LINETYPE
1070
   382
1005
16
0
DIMENSION
5
161
100
AcDbEntity
8
SK2
62
256
6
ByLayer
370
18
48
1
60
0
100
AcDbDimension
2
_U2
10
0
20
-39.809417
30
0
11
-22.5
21
-39.809417
31
0
70
32
71
1
72
1
41
1
210
0
220
0
230
1
3
Standard
100
AcDbAlignedDimension
13
-45
23
-6
33
0
14
0
24
-6
34
0
50
0
100
AcDbRotatedDimension
1001
ACAD
1000
DSTYLE
1002
{
1070
   371
1070
    13
1070
   372
1070
    13
1070
     3
1000

1070
   170
1070
     0
1070
   144
1040
1.0
1070
   277
1070
     2
1070
   284
1070
     8
1070
   278
1070
    46
1070
   146
1040
1.166667
1070
   345
1005
16
1070
   347
1005
16
1070
   346
1005
16
1070
   344
1005
0
1070
   343
1005
0
1070
   172
1070
     1
1070
    76
1070
     0
1070
    75
1070
     0
1070
   282
1070
     0
1070
   281
1070
     0
1070
    71
1070
     0
1070
    74
1070
     0
1070
   279
1070
     0
1070
   173
1070
     1
1070
   340
1005
10D
1070
   271
1070
     2
1070
   272
1070
     2
1070
    77
1070
     1
1070
    73
1070
     1
1070
   171
1070
     3
1070
   274
1070
     4
1070
   177
1070
     2
1070
   176
1070
     2
1070
   178
1070
     2
1070
    78
1070
     8
1070
    48
1040
-0.1
1070
    41
1040
3.5
1070
   147
1040
1.5
1070
    42
1040
1.5875
1070
    44
1040
2.0
1070
   140
1040
3.0
1002
}
1001
ACAD_DSTYLE_DIM_LINETYPE
1070
   380
1005
16
1001
ACAD_DSTYLE_DIM_EXT1_LINETYPE
1070
   381
1005
16
1001
ACAD_DSTYLE_DIM_EXT2_LINETYPE
1070
   382
1005
16
0
DIMENSION
5
179
100
AcDbEntity
8
SK2
62
256
6
ByLayer
370
18
48
1
60
0
100
AcDbDimension
2
_U3
10
57
20
-47.809417
30
0
11
6
21
-47.809417
31
0
70
32
71
1
72
1
41
1
210
0
220
0
230
1
3
Standard
100
AcDbAlignedDimension
13
-45
23
-6
33
0
14
57
24
-5.5565
34
0
50
0
100
AcDbRotatedDimension
1001
ACAD
1000
DSTYLE
1002
{
1070
   371
1070
    13
1070
   372
1070
    13
1070
     3
1000

1070
   170
1070
     0
1070
   144
1040
1.0
1070
   277
1070
     2
1070
   284
1070
     8
1070
   278
1070
    46
1070
   146
1040
1.166667
1070
   345
1005
16
1070
   347
1005
16
1070
   346
1005
16
1070
   344
1005
0
1070
   343
1005
0
1070
   172
1070
     1
1070
    76
1070
     0
1070
    75
1070
     0
1070
   282
1070
     0
1070
   281
1070
     0
1070
    71
1070
     0
1070
    74
1070
     0
1070
   279
1070
     0
1070
   173
1070
     1
1070
   340
1005
10D
1070
   271
1070
     2
1070
   272
1070
     2
1070
    77
1070
     1
1070
    73
1070
     1
1070
   171
1070
     3
1070
   274
1070
     4
1070
   177
1070
     2
1070
   176
1070
     2
1070
   178
1070
     2
1070
    78
1070
     8
1070
    48
1040
-0.1
1070
    41
1040
3.5
1070
   147
1040
1.5
1070
    42
1040
1.5875
1070
    44
1040
2.0
1070
   140
1040
3.0
1002
}
1001
ACAD_DSTYLE_DIM_LINETYPE
1070
   380
1005
16
1001
ACAD_DSTYLE_DIM_EXT1_LINETYPE
1070
   381
1005
16
1001
ACAD_DSTYLE_DIM_EXT2_LINETYPE
1070
   382
1005
16
0
DIMENSION
5
191
100
AcDbEntity
8
2
62
256
6
ByLayer
370
18
48
1
60
0
100
AcDbDimension
2
_U4
10
0
20
-39.809417
30
0
11
28.5
21
-39.809417
31
0
70
32
71
1
72
1
41
1
210
0
220
0
230
1
3
Standard
100
AcDbAlignedDimension
13
57
23
-5.5565
33
0
14
0
24
-5.5565
34
0
50
0
100
AcDbRotatedDimension
1001
ACAD
1000
DSTYLE
1002
{
1070
   371
1070
    13
1070
   372
1070
    13
1070
     3
1000

1070
   170
1070
     0
1070
   144
1040
1.0
1070
   277
1070
     2
1070
   284
1070
     8
1070
   278
1070
    46
1070
   146
1040
1.166667
1070
   345
1005
16
1070
   347
1005
16
1070
   346
1005
16
1070
   344
1005
0
1070
   343
1005
0
1070
   172
1070
     1
1070
    76
1070
     0
1070
    75
1070
     0
1070
   282
1070
     0
1070
   281
1070
     0
1070
    71
1070
     0
1070
    74
1070
     0
1070
   279
1070
     0
1070
   173
1070
     1
1070
   340
1005
10D
1070
   271
1070
     2
1070
   272
1070
     2
1070
    77
1070
     1
1070
    73
1070
     1
1070
   171
1070
     3
1070
   274
1070
     4
1070
   177
1070
     2
1070
   176
1070
     2
1070
   178
1070
     2
1070
    78
1070
     8
1070
    48
1040
-0.1
1070
    41
1040
3.5
1070
   147
1040
1.5
1070
    42
1040
1.5875
1070
    44
1040
2.0
1070
   140
1040
3.0
1002
}
1001
ACAD_DSTYLE_DIM_LINETYPE
1070
   380
1005
16
1001
ACAD_DSTYLE_DIM_EXT1_LINETYPE
1070
   381
1005
16
1001
ACAD_DSTYLE_DIM_EXT2_LINETYPE
1070
   382
1005
16
0
ENDSEC
0
SECTION
2
OBJECTS
0
DICTIONARY
5
219
330
0
100
AcDbDictionary
280
0
281
1
3
ACAD_GROUP
350
21a
3
ACAD_MLINESTYLE
350
21b
0
DICTIONARY
5
21a
330
0
100
AcDbDictionary
280
0
281
1
0
DICTIONARY
5
21b
330
0
100
AcDbDictionary
280
0
281
1
3
Standard
350
18
0
MLINESTYLE
5
18
330
21b
100
AcDbMlineStyle
2
Standard
70
0
3

62
256
51
90
52
90
71
2
49
-0.5
62
256
6
ByLayer
49
0.5
62
256
6
ByLayer
0
RASTERVARIABLES
5
207
330

100
AcDbRasterVariables
90
0
70
1
71
1
72
1
0
ENDSEC
0
EOF
