0
SECTION
2
HEADER
9
$ACADVER
1
AC1015
9
$DWGCODEPAGE
3
ANSI_1252
9
$HANDSEED
5
227
9
$ANGBASE
50
0
9
$ANGDIR
70
0
9
$ATTMODE
70
1
9
$AUNITS
70
0
9
$AUPREC
70
0
9
$CECOLOR
62
256
9
$CELTSCALE
40
1
9
$CELTYPE
6
ByLayer
9
$CELWEIGHT
370
18
9
$CLAYER
8
0
9
$CMLJUST
70
0
9
$CMLSCALE
40
1
9
$CMLSTYLE
2
Standard
9
$DIMSTYLE
2
Standard
9
$TEXTSIZE
40
0.2
9
$TEXTSTYLE
7
Standard
9
$LUNITS
70
2
9
$LUPREC
70
4
9
$EXTNAMES
290
1
9
$INSUNITS
70
4
9
$LTSCALE
40
1
9
$LWDISPLAY
290
1
9
$PDMODE
70
0
9
$PDSIZE
40
0
9
$PLINEGEN
70
0
0
ENDSEC
0
SECTION
2
CLASSES
0
CLASS
1
RASTERVARIABLES
2
AcDbRasterVariables
3
ISM
90
0
280
0
281
0
0
ENDSEC
0
SECTION
2
TABLES
0
TABLE
2
VPORT
5
21d
100
AcDbSymbolTable
0
VPORT
5
1
100
AcDbSymbolTableRecord
100
AcDbViewportTableRecord
2
*Active
70
0
10
0
20
0
11
1
21
1
12
-1
22
1
13
0
23
0
14
0.5
24
0.5
15
10
25
10
16
0
26
0
36
1
17
0
27
0
37
0
0
ENDTAB
0
TABLE
2
LTYPE
5
21e
100
AcDbSymbolTable
0
LTYPE
5
14
100
AcDbSymbolTableRecord
100
AcDbLinetypeTableRecord
70
0
2
ByBlock
3

72
65
73
0
40
0
0
LTYPE
5
15
100
AcDbSymbolTableRecord
100
AcDbLinetypeTableRecord
70
0
2
ByLayer
3

72
65
73
0
40
0
0
LTYPE
5
16
100
AcDbSymbolTableRecord
100
AcDbLinetypeTableRecord
70
0
2
Continuous
3
Solid line
72
65
73
0
40
0
0
LTYPE
5
6E
100
AcDbSymbolTableRecord
100
AcDbLinetypeTableRecord
70
0
2
CENTER
3
____ _ ____ _ ____ _ ____
72
65
73
4
40
47.5
49
22
74
0
49
-8.5
74
0
49
8.5
74
0
49
-8.5
74
0
0
LTYPE
5
6F
100
AcDbSymbolTableRecord
100
AcDbLinetypeTableRecord
70
0
2
DASHED
3
__ __ __ __ __ __ __ __ __
72
65
73
2
40
25.72
49
12.86
74
0
49
-12.86
74
0
0
ENDTAB
0
TABLE
2
LAYER
5
21f
100
AcDbSymbolTable
0
LAYER
5
10
100
AcDbSymbolTableRecord
100
AcDbLayerTableRecord
2
0
70
0
62
7
6
Continuous
290
1
370
-3
390
0
0
LAYER
5
71
100
AcDbSymbolTableRecord
100
AcDbLayerTableRecord
2
80
70
0
62
-6
6
Continuous
290
1
370
-3
390
0
0
LAYER
5
73
100
AcDbSymbolTableRecord
100
AcDbLayerTableRecord
2
81
70
0
62
-3
6
Continuous
290
1
370
-3
390
0
0
LAYER
5
75
100
AcDbSymbolTableRecord
100
AcDbLayerTableRecord
2
1
70
0
62
4
6
Continuous
290
1
370
-3
390
0
0
LAYER
5
83
100
AcDbSymbolTableRecord
100
AcDbLayerTableRecord
2
4
70
0
62
-2
6
CENTER
290
1
370
-3
390
0
0
LAYER
5
A5
100
AcDbSymbolTableRecord
100
AcDbLayerTableRecord
2
2
70
0
62
7
6
Continuous
290
1
370
-3
390
0
0
LAYER
5
132
100
AcDbSymbolTableRecord
100
AcDbLayerTableRecord
2
Defpoints
70
0
62
7
6
Continuous
290
0
370
-3
390
0
0
LAYER
5
209
100
AcDbSymbolTableRecord
100
AcDbLayerTableRecord
2
SK4
70
0
62
2
6
CENTER
290
1
370
-3
390
0
0
LAYER
5
20a
100
AcDbSymbolTableRecord
100
AcDbLayerTableRecord
2
SK1
70
0
62
4
6
Continuous
290
1
370
-3
390
0
0
LAYER
5
20b
100
AcDbSymbolTableRecord
100
AcDbLayerTableRecord
2
SK2
70
0
62
7
6
Continuous
290
1
370
-3
390
0
0
LAYER
5
20c
100
AcDbSymbolTableRecord
100
AcDbLayerTableRecord
2
SK6
70
0
62
5
6
Continuous
290
1
370
-3
390
0
0
ENDTAB
0
TABLE
2
STYLE
5
220
100
AcDbSymbolTable
0
STYLE
5
11
100
AcDbSymbolTableRecord
100
AcDbTextStyleTableRecord
2
Standard
3
txt
70
0
71
0
40
0
41
1
42
0
50
0
0
STYLE
5
10E
100
AcDbSymbolTableRecord
100
AcDbTextStyleTableRecord
2
iso_b_vert
3
simplex.shx
70
0
71
0
40
0
41
1
42
0
50
0
0
STYLE
5
10F
100
AcDbSymbolTableRecord
100
AcDbTextStyleTableRecord
2
DWGDirectTextStyle
3
simplex
70
0
71
0
40
0
41
1
42
0
50
0
0
ENDTAB
0
TABLE
2
DIMSTYLE
5
221
100
AcDbSymbolTable
100
AcDbDimStyleTable
0
DIMSTYLE
105
27
100
AcDbSymbolTableRecord
100
AcDbDimStyleTableRecord
2
Standard
70
0
3
<>
41
0.18
42
0.0625
44
0.18
140
0.18
147
0.09
73
0
74
0
77
1
271
2
275
0
278
52
280
0
340
11
0
ENDTAB
0
TABLE
2
VIEW
5
222
100
AcDbSymbolTable
0
ENDTAB
0
TABLE
2
UCS
5
223
100
AcDbSymbolTable
0
ENDTAB
0
TABLE
2
APPID
5
224
100
AcDbSymbolTable
0
APPID
5
12
100
AcDbSymbolTableRecord
100
AcDbRegAppTableRecord
2
ACAD
70
0
0
APPID
5
12E
100
AcDbSymbolTableRecord
100
AcDbRegAppTableRecord
2
ACAD_DSTYLE_DIMBREAK
70
0
0
APPID
5
1C8
100
AcDbSymbolTableRecord
100
AcDbRegAppTableRecord
2
ACAD_DSTYLE_DIM_LINETYPE
70
0
0
APPID
5
1C9
100
AcDbSymbolTableRecord
100
AcDbRegAppTableRecord
2
ACAD_DSTYLE_DIM_EXT1_LINETYPE
70
0
0
APPID
5
1CA
100
AcDbSymbolTableRecord
100
AcDbRegAppTableRecord
2
ACAD_DSTYLE_DIM_EXT2_LINETYPE
70
0
0
APPID
5
205
100
AcDbSymbolTableRecord
100
AcDbRegAppTableRecord
2
ACAD_MLEADERVER
70
0
0
ENDTAB
0
TABLE
2
BLOCK_RECORD
5
225
100
AcDbSymbolTable
0
BLOCK_RECORD
5
1F
100
AcDbSymbolTableRecord
100
AcDbBlockTableRecord
2
*Model_Space
340
0
70
0
0
BLOCK_RECORD
5
1B
100
AcDbSymbolTableRecord
100
AcDbBlockTableRecord
2
*Paper_Space
340
0
70
0
0
BLOCK_RECORD
5
23
100
AcDbSymbolTableRecord
100
AcDbBlockTableRecord
2
*Paper_Space0
340
0
70
0
0
BLOCK_RECORD
5
133
100
AcDbSymbolTableRecord
100
AcDbBlockTableRecord
2
*D1
340
0
70
0
0
BLOCK_RECORD
5
13F
100
AcDbSymbolTableRecord
100
AcDbBlockTableRecord
2
_U0
340
0
70
0
0
BLOCK_RECORD
5
14D
100
AcDbSymbolTableRecord
100
AcDbBlockTableRecord
2
*D3
340
0
70
0
0
BLOCK_RECORD
5
159
100
AcDbSymbolTableRecord
100
AcDbBlockTableRecord
2
_U1
340
0
70
0
0
BLOCK_RECORD
5
165
100
AcDbSymbolTableRecord
100
AcDbBlockTableRecord
2
*D5
340
0
70
0
0
BLOCK_RECORD
5
171
100
AcDbSymbolTableRecord
100
AcDbBlockTableRecord
2
_U2
340
0
70
0
0
BLOCK_RECORD
5
17D
100
AcDbSymbolTableRecord
100
AcDbBlockTableRecord
2
*D7
340
0
70
0
0
BLOCK_RECORD
5
189
100
AcDbSymbolTableRecord
100
AcDbBlockTableRecord
2
_U3
340
0
70
0
0
BLOCK_RECORD
5
195
100
AcDbSymbolTableRecord
100
AcDbBlockTableRecord
2
*D9
340
0
70
0
0
BLOCK_RECORD
5
1A1
100
AcDbSymbolTableRecord
100
AcDbBlockTableRecord
2
_U4
340
0
70
0
0
ENDTAB
0
ENDSEC
0
SECTION
2
BLOCKS
0
BLOCK
5
20
100
AcDbEntity
8
0
100
AcDbBlockBegin
2
*Model_Space
70
0
10
0
20
0
30
0
3
*Model_Space
0
ENDBLK
5
21
100
AcDbEntity
8
0
100
AcDbBlockEnd
0
BLOCK
5
1C
100
AcDbEntity
8
0
100
AcDbBlockBegin
2
*Paper_Space
70
0
10
0
20
0
30
0
3
*Paper_Space
0
ENDBLK
5
1D
100
AcDbEntity
8
0
100
AcDbBlockEnd
0
BLOCK
5
24
100
AcDbEntity
8
0
100
AcDbBlockBegin
2
*Paper_Space0
70
0
10
0
20
0
30
0
3
*Paper_Space0
0
ENDBLK
5
25
100
AcDbEntity
8
0
100
AcDbBlockEnd
0
BLOCK
5
134
100
AcDbEntity
8
0
100
AcDbBlockBegin
2
*D1
70
1
10
0
20
0
30
0
3
*D1
0
LINE
5
136
100
AcDbEntity
8
0
62
256
6
ByLayer
370
-2
48
1
60
0
100
AcDbLine
10
73
20
-6.9375
30
0
11
73
21
-47.799084
31
0
39
0
210
0
220
0
230
1
0
LINE
5
137
100
AcDbEntity
8
0
62
256
6
ByLayer
370
-2
48
1
60
0
100
AcDbLine
10
17.6
20
-6.9375
30
0
11
17.6
21
-47.799084
31
0
39
0
210
0
220
0
230
1
0
LINE
5
138
100
AcDbEntity
8
0
62
256
6
ByLayer
370
-2
48
1
60
0
100
AcDbLine
10
69.5
20
-45.799084
30
0
11
21.1
21
-45.799084
31
0
39
0
210
0
220
0
230
1
0
SOLID
5
139
100
AcDbEntity
8
0
62
256
6
ByLayer
370
-1
48
1
60
0
100
AcDbTrace
10
69.5
20
-46.382417
30
0
11
69.5
21
-45.21575
31
0
12
73
22
-45.799084
32
0
13
73
23
-45.799084
33
0
39
0
210
0
220
0
230
1
0
SOLID
5
13A
100
AcDbEntity
8
0
62
256
6
ByLayer
370
-1
48
1
60
0
100
AcDbTrace
10
21.1
20
-45.21575
30
0
11
21.1
21
-46.382417
31
0
12
17.6
22
-45.799084
32
0
13
17.6
23
-45.799084
33
0
39
0
210
0
220
0
230
1
0
MTEXT
5
13B
100
AcDbEntity
8
0
62
256
6
ByLayer
370
18
48
1
60
0
100
AcDbMText
10
45.3
20
-39.799084
30
0
210
0
220
0
230
1
1
\A1;55.4
40
3
41
0
44
1
50
0
71
5
72
5
7
iso_b_vert
0
POINT
5
13C
100
AcDbEntity
8
Defpoints
62
0
6
ByLayer
370
-1
48
1
60
0
100
AcDbPoint
10
73
20
-5.35
30
0
39
0
210
0
220
0
230
1
50
360
0
POINT
5
13D
100
AcDbEntity
8
Defpoints
62
0
6
ByLayer
370
-1
48
1
60
0
100
AcDbPoint
10
17.6
20
-5.35
30
0
39
0
210
0
220
0
230
1
50
360
0
POINT
5
13E
100
AcDbEntity
8
Defpoints
62
0
6
ByLayer
370
-1
48
1
60
0
100
AcDbPoint
10
17.6
20
-45.799084
30
0
39
0
210
0
220
0
230
1
50
360
0
ENDBLK
5
135
100
AcDbEntity
8
0
100
AcDbBlockEnd
0
BLOCK
5
148
100
AcDbEntity
8
0
100
AcDbBlockBegin
2
_U0
70
0
10
0
20
0
30
0
3
_U0
0
MTEXT
5
140
100
AcDbEntity
8
SK2
62
256
6
ByLayer
370
18
48
1
60
0
100
AcDbMText
10
41.780601
20
-43.601469
30
0
210
0
220
0
230
1
1
\W0.7528;55.4
40
3
41
0
44
1.084337
50
0
71
7
72
5
7
iso_b_vert
0
MTEXT
5
141
100
AcDbEntity
8
SK2
62
256
6
ByLayer
370
18
48
1
60
0
100
AcDbMText
10
39.680601
20
-43.601469
30
0
210
0
220
0
230
1
1
\W1.1313;{\H1.88x;(}
40
3
41
0
44
1.084337
50
0
71
7
72
5
7
iso_b_vert
0
MTEXT
5
142
100
AcDbEntity
8
SK2
62
256
6
ByLayer
370
18
48
1
60
0
100
AcDbMText
10
49.137399
20
-43.601469
30
0
210
0
220
0
230
1
1
\W1.1313;{\H1.88x;)}
40
3
41
0
44
1.084337
50
0
71
7
72
5
7
iso_b_vert
0
LINE
5
143
100
AcDbEntity
8
SK2
62
256
6
ByLayer
370
13
48
1
60
0
100
AcDbLine
10
73
20
-6.9375
30
0
11
73
21
-47.799084
31
0
39
0
210
0
220
0
230
1
0
LINE
5
144
100
AcDbEntity
8
SK2
62
256
6
ByLayer
370
13
48
1
60
0
100
AcDbLine
10
17.6
20
-6.9375
30
0
11
17.6
21
-47.799084
31
0
39
0
210
0
220
0
230
1
0
LINE
5
145
100
AcDbEntity
8
SK2
62
256
6
ByLayer
370
13
48
1
60
0
100
AcDbLine
10
73
20
-45.799084
30
0
11
17.6
21
-45.799084
31
0
39
0
210
0
220
0
230
1
0
SOLID
5
146
100
AcDbEntity
8
SK2
62
256
6
ByLayer
370
18
48
1
60
0
100
AcDbTrace
10
73
20
-45.799084
30
0
11
69.500002
21
-46.259868
31
0
12
69.499998
22
-45.3383
32
0
13
69.499998
23
-45.3383
33
0
39
0
210
0
220
0
230
1
0
SOLID
5
147
100
AcDbEntity
8
SK2
62
256
6
ByLayer
370
18
48
1
60
0
100
AcDbTrace
10
17.6
20
-45.799084
30
0
11
21.099998
21
-45.3383
31
0
12
21.100002
22
-46.259868
32
0
13
21.100002
23
-46.259868
33
0
39
0
210
0
220
0
230
1
0
ENDBLK
5
149
100
AcDbEntity
8
0
100
AcDbBlockEnd
0
BLOCK
5
14E
100
AcDbEntity
8
0
100
AcDbBlockBegin
2
*D3
70
1
10
0
20
0
30
0
3
*D3
0
LINE
5
150
100
AcDbEntity
8
0
62
256
6
ByLayer
370
-2
48
1
60
0
100
AcDbLine
10
73
20
-6.9375
30
0
11
73
21
-57.799084
31
0
39
0
210
0
220
0
230
1
0
LINE
5
151
100
AcDbEntity
8
0
62
256
6
ByLayer
370
-2
48
1
60
0
100
AcDbLine
10
2
20
-6.9375
30
0
11
2
21
-57.799084
31
0
39
0
210
0
220
0
230
1
0
LINE
5
152
100
AcDbEntity
8
0
62
256
6
ByLayer
370
-2
48
1
60
0
100
AcDbLine
10
69.5
20
-55.799084
30
0
11
5.5
21
-55.799084
31
0
39
0
210
0
220
0
230
1
0
SOLID
5
153
100
AcDbEntity
8
0
62
256
6
ByLayer
370
-1
48
1
60
0
100
AcDbTrace
10
69.5
20
-56.382417
30
0
11
69.5
21
-55.21575
31
0
12
73
22
-55.799084
32
0
13
73
23
-55.799084
33
0
39
0
210
0
220
0
230
1
0
SOLID
5
154
100
AcDbEntity
8
0
62
256
6
ByLayer
370
-1
48
1
60
0
100
AcDbTrace
10
5.5
20
-55.21575
30
0
11
5.5
21
-56.382417
31
0
12
2
22
-55.799084
32
0
13
2
23
-55.799084
33
0
39
0
210
0
220
0
230
1
0
MTEXT
5
155
100
AcDbEntity
8
0
62
256
6
ByLayer
370
18
48
1
60
0
100
AcDbMText
10
37.5
20
-49.799084
30
0
210
0
220
0
230
1
1
\A1;71
40
3
41
0
44
1
50
0
71
5
72
5
7
iso_b_vert
0
POINT
5
156
100
AcDbEntity
8
Defpoints
62
0
6
ByLayer
370
-1
48
1
60
0
100
AcDbPoint
10
73
20
-5.35
30
0
39
0
210
0
220
0
230
1
50
360
0
POINT
5
157
100
AcDbEntity
8
Defpoints
62
0
6
ByLayer
370
-1
48
1
60
0
100
AcDbPoint
10
2
20
-5.35
30
0
39
0
210
0
220
0
230
1
50
360
0
POINT
5
158
100
AcDbEntity
8
Defpoints
62
0
6
ByLayer
370
-1
48
1
60
0
100
AcDbPoint
10
2
20
-55.799084
30
0
39
0
210
0
220
0
230
1
50
360
0
ENDBLK
5
14F
100
AcDbEntity
8
0
100
AcDbBlockEnd
0
BLOCK
5
160
100
AcDbEntity
8
0
100
AcDbBlockBegin
2
_U1
70
0
10
0
20
0
30
0
3
_U1
0
MTEXT
5
15A
100
AcDbEntity
8
SK2
62
256
6
ByLayer
370
18
48
1
60
0
100
AcDbMText
10
36.242115
20
-54.913969
30
0
210
0
220
0
230
1
1
\W0.6351;71
40
3
41
0
44
1.084337
50
0
71
7
72
5
7
iso_b_vert
0
LINE
5
15B
100
AcDbEntity
8
SK2
62
256
6
ByLayer
370
13
48
1
60
0
100
AcDbLine
10
73
20
-6.9375
30
0
11
73
21
-57.799084
31
0
39
0
210
0
220
0
230
1
0
LINE
5
15C
100
AcDbEntity
8
SK2
62
256
6
ByLayer
370
13
48
1
60
0
100
AcDbLine
10
2
20
-6.9375
30
0
11
2
21
-57.799084
31
0
39
0
210
0
220
0
230
1
0
LINE
5
15D
100
AcDbEntity
8
SK2
62
256
6
ByLayer
370
13
48
1
60
0
100
AcDbLine
10
73
20
-55.799084
30
0
11
2
21
-55.799084
31
0
39
0
210
0
220
0
230
1
0
SOLID
5
15E
100
AcDbEntity
8
SK2
62
256
6
ByLayer
370
18
48
1
60
0
100
AcDbTrace
10
73
20
-55.799084
30
0
11
69.500002
21
-56.259868
31
0
12
69.499998
22
-55.3383
32
0
13
69.499998
23
-55.3383
33
0
39
0
210
0
220
0
230
1
0
SOLID
5
15F
100
AcDbEntity
8
SK2
62
256
6
ByLayer
370
18
48
1
60
0
100
AcDbTrace
10
2
20
-55.799084
30
0
11
5.499998
21
-55.3383
31
0
12
5.500002
22
-56.259868
32
0
13
5.500002
23
-56.259868
33
0
39
0
210
0
220
0
230
1
0
ENDBLK
5
161
100
AcDbEntity
8
0
100
AcDbBlockEnd
0
BLOCK
5
166
100
AcDbEntity
8
0
100
AcDbBlockBegin
2
*D5
70
1
10
0
20
0
30
0
3
*D5
0
LINE
5
168
100
AcDbEntity
8
0
62
256
6
ByLayer
370
-2
48
1
60
0
100
AcDbLine
10
-45
20
-7.5875
30
0
11
-45
21
-65.799084
31
0
39
0
210
0
220
0
230
1
0
LINE
5
169
100
AcDbEntity
8
0
62
256
6
ByLayer
370
-2
48
1
60
0
100
AcDbLine
10
0
20
-7.5875
30
0
11
0
21
-65.799084
31
0
39
0
210
0
220
0
230
1
0
LINE
5
16A
100
AcDbEntity
8
0
62
256
6
ByLayer
370
-2
48
1
60
0
100
AcDbLine
10
-41.5
20
-63.799084
30
0
11
-3.5
21
-63.799084
31
0
39
0
210
0
220
0
230
1
0
SOLID
5
16B
100
AcDbEntity
8
0
62
256
6
ByLayer
370
-1
48
1
60
0
100
AcDbTrace
10
-41.5
20
-63.21575
30
0
11
-41.5
21
-64.382417
31
0
12
-45
22
-63.799084
32
0
13
-45
23
-63.799084
33
0
39
0
210
0
220
0
230
1
0
SOLID
5
16C
100
AcDbEntity
8
0
62
256
6
ByLayer
370
-1
48
1
60
0
100
AcDbTrace
10
-3.5
20
-64.382417
30
0
11
-3.5
21
-63.21575
31
0
12
0
22
-63.799084
32
0
13
0
23
-63.799084
33
0
39
0
210
0
220
0
230
1
0
MTEXT
5
16D
100
AcDbEntity
8
0
62
256
6
ByLayer
370
18
48
1
60
0
100
AcDbMText
10
-22.5
20
-57.799084
30
0
210
0
220
0
230
1
1
\A1;45
40
3
41
0
44
1
50
0
71
5
72
5
7
iso_b_vert
0
POINT
5
16E
100
AcDbEntity
8
Defpoints
62
0
6
ByLayer
370
-1
48
1
60
0
100
AcDbPoint
10
-45
20
-6
30
0
39
0
210
0
220
0
230
1
50
360
0
POINT
5
16F
100
AcDbEntity
8
Defpoints
62
0
6
ByLayer
370
-1
48
1
60
0
100
AcDbPoint
10
0
20
-6
30
0
39
0
210
0
220
0
230
1
50
360
0
POINT
5
170
100
AcDbEntity
8
Defpoints
62
0
6
ByLayer
370
-1
48
1
60
0
100
AcDbPoint
10
0
20
-63.799084
30
0
39
0
210
0
220
0
230
1
50
360
0
ENDBLK
5
167
100
AcDbEntity
8
0
100
AcDbBlockEnd
0
BLOCK
5
178
100
AcDbEntity
8
0
100
AcDbBlockBegin
2
_U2
70
0
10
0
20
0
30
0
3
_U2
0
MTEXT
5
172
100
AcDbEntity
8
SK2
62
256
6
ByLayer
370
18
48
1
60
0
100
AcDbMText
10
-24.290771
20
-62.913969
30
0
210
0
220
0
230
1
1
\W0.7361;45
40
3
41
0
44
1.084337
50
0
71
7
72
5
7
iso_b_vert
0
LINE
5
173
100
AcDbEntity
8
SK2
62
256
6
ByLayer
370
13
48
1
60
0
100
AcDbLine
10
-45
20
-7.5875
30
0
11
-45
21
-65.799084
31
0
39
0
210
0
220
0
230
1
0
LINE
5
174
100
AcDbEntity
8
SK2
62
256
6
ByLayer
370
13
48
1
60
0
100
AcDbLine
10
0
20
-7.5875
30
0
11
0
21
-65.799084
31
0
39
0
210
0
220
0
230
1
0
LINE
5
175
100
AcDbEntity
8
SK2
62
256
6
ByLayer
370
13
48
1
60
0
100
AcDbLine
10
-45
20
-63.799084
30
0
11
0
21
-63.799084
31
0
39
0
210
0
220
0
230
1
0
SOLID
5
176
100
AcDbEntity
8
SK2
62
256
6
ByLayer
370
18
48
1
60
0
100
AcDbTrace
10
-45
20
-63.799084
30
0
11
-41.500002
21
-63.3383
31
0
12
-41.499998
22
-64.259868
32
0
13
-41.499998
23
-64.259868
33
0
39
0
210
0
220
0
230
1
0
SOLID
5
177
100
AcDbEntity
8
SK2
62
256
6
ByLayer
370
18
48
1
60
0
100
AcDbTrace
10
0
20
-63.799084
30
0
11
-3.499998
21
-64.259868
31
0
12
-3.500002
22
-63.3383
32
0
13
-3.500002
23
-63.3383
33
0
39
0
210
0
220
0
230
1
0
ENDBLK
5
179
100
AcDbEntity
8
0
100
AcDbBlockEnd
0
BLOCK
5
17E
100
AcDbEntity
8
0
100
AcDbBlockBegin
2
*D7
70
1
10
0
20
0
30
0
3
*D7
0
LINE
5
180
100
AcDbEntity
8
0
62
256
6
ByLayer
370
-2
48
1
60
0
100
AcDbLine
10
-45
20
-7.5875
30
0
11
-45
21
-73.799084
31
0
39
0
210
0
220
0
230
1
0
LINE
5
181
100
AcDbEntity
8
0
62
256
6
ByLayer
370
-2
48
1
60
0
100
AcDbLine
10
73
20
-6.9375
30
0
11
73
21
-73.799084
31
0
39
0
210
0
220
0
230
1
0
LINE
5
182
100
AcDbEntity
8
0
62
256
6
ByLayer
370
-2
48
1
60
0
100
AcDbLine
10
-41.5
20
-71.799084
30
0
11
69.5
21
-71.799084
31
0
39
0
210
0
220
0
230
1
0
SOLID
5
183
100
AcDbEntity
8
0
62
256
6
ByLayer
370
-1
48
1
60
0
100
AcDbTrace
10
-41.5
20
-71.21575
30
0
11
-41.5
21
-72.382417
31
0
12
-45
22
-71.799084
32
0
13
-45
23
-71.799084
33
0
39
0
210
0
220
0
230
1
0
SOLID
5
184
100
AcDbEntity
8
0
62
256
6
ByLayer
370
-1
48
1
60
0
100
AcDbTrace
10
69.5
20
-72.382417
30
0
11
69.5
21
-71.21575
31
0
12
73
22
-71.799084
32
0
13
73
23
-71.799084
33
0
39
0
210
0
220
0
230
1
0
MTEXT
5
185
100
AcDbEntity
8
0
62
256
6
ByLayer
370
18
48
1
60
0
100
AcDbMText
10
14
20
-65.799084
30
0
210
0
220
0
230
1
1
\A1;118
40
3
41
0
44
1
50
0
71
5
72
5
7
iso_b_vert
0
POINT
5
186
100
AcDbEntity
8
Defpoints
62
0
6
ByLayer
370
-1
48
1
60
0
100
AcDbPoint
10
-45
20
-6
30
0
39
0
210
0
220
0
230
1
50
360
0
POINT
5
187
100
AcDbEntity
8
Defpoints
62
0
6
ByLayer
370
-1
48
1
60
0
100
AcDbPoint
10
73
20
-5.35
30
0
39
0
210
0
220
0
230
1
50
360
0
POINT
5
188
100
AcDbEntity
8
Defpoints
62
0
6
ByLayer
370
-1
48
1
60
0
100
AcDbPoint
10
73
20
-71.799084
30
0
39
0
210
0
220
0
230
1
50
360
0
ENDBLK
5
17F
100
AcDbEntity
8
0
100
AcDbBlockEnd
0
BLOCK
5
190
100
AcDbEntity
8
0
100
AcDbBlockBegin
2
_U3
70
0
10
0
20
0
30
0
3
_U3
0
MTEXT
5
18A
100
AcDbEntity
8
SK2
62
256
6
ByLayer
370
18
48
1
60
0
100
AcDbMText
10
11.996143
20
-70.913969
30
0
210
0
220
0
230
1
1
\W0.5296;118
40
3
41
0
44
1.084337
50
0
71
7
72
5
7
iso_b_vert
0
LINE
5
18B
100
AcDbEntity
8
SK2
62
256
6
ByLayer
370
13
48
1
60
0
100
AcDbLine
10
-45
20
-7.5875
30
0
11
-45
21
-73.799084
31
0
39
0
210
0
220
0
230
1
0
LINE
5
18C
100
AcDbEntity
8
SK2
62
256
6
ByLayer
370
13
48
1
60
0
100
AcDbLine
10
73
20
-6.9375
30
0
11
73
21
-73.799084
31
0
39
0
210
0
220
0
230
1
0
LINE
5
18D
100
AcDbEntity
8
SK2
62
256
6
ByLayer
370
13
48
1
60
0
100
AcDbLine
10
-45
20
-71.799084
30
0
11
73
21
-71.799084
31
0
39
0
210
0
220
0
230
1
0
SOLID
5
18E
100
AcDbEntity
8
SK2
62
256
6
ByLayer
370
18
48
1
60
0
100
AcDbTrace
10
-45
20
-71.799084
30
0
11
-41.500002
21
-71.3383
31
0
12
-41.499998
22
-72.259868
32
0
13
-41.499998
23
-72.259868
33
0
39
0
210
0
220
0
230
1
0
SOLID
5
18F
100
AcDbEntity
8
SK2
62
256
6
ByLayer
370
18
48
1
60
0
100
AcDbTrace
10
73
20
-71.799084
30
0
11
69.500002
21
-72.259868
31
0
12
69.499998
22
-71.3383
32
0
13
69.499998
23
-71.3383
33
0
39
0
210
0
220
0
230
1
0
ENDBLK
5
191
100
AcDbEntity
8
0
100
AcDbBlockEnd
0
BLOCK
5
196
100
AcDbEntity
8
0
100
AcDbBlockBegin
2
*D9
70
1
10
0
20
0
30
0
3
*D9
0
LINE
5
198
100
AcDbEntity
8
0
62
256
6
ByLayer
370
-2
48
1
60
0
100
AcDbLine
10
73
20
-6.9375
30
0
11
73
21
-65.799084
31
0
39
0
210
0
220
0
230
1
0
LINE
5
199
100
AcDbEntity
8
0
62
256
6
ByLayer
370
-2
48
1
60
0
100
AcDbLine
10
0
20
-6.9375
30
0
11
0
21
-65.799084
31
0
39
0
210
0
220
0
230
1
0
LINE
5
19A
100
AcDbEntity
8
0
62
256
6
ByLayer
370
-2
48
1
60
0
100
AcDbLine
10
69.5
20
-63.799084
30
0
11
3.5
21
-63.799084
31
0
39
0
210
0
220
0
230
1
0
SOLID
5
19B
100
AcDbEntity
8
0
62
256
6
ByLayer
370
-1
48
1
60
0
100
AcDbTrace
10
69.5
20
-64.382417
30
0
11
69.5
21
-63.21575
31
0
12
73
22
-63.799084
32
0
13
73
23
-63.799084
33
0
39
0
210
0
220
0
230
1
0
SOLID
5
19C
100
AcDbEntity
8
0
62
256
6
ByLayer
370
-1
48
1
60
0
100
AcDbTrace
10
3.5
20
-63.21575
30
0
11
3.5
21
-64.382417
31
0
12
0
22
-63.799084
32
0
13
0
23
-63.799084
33
0
39
0
210
0
220
0
230
1
0
MTEXT
5
19D
100
AcDbEntity
8
0
62
256
6
ByLayer
370
18
48
1
60
0
100
AcDbMText
10
36.5
20
-57.799084
30
0
210
0
220
0
230
1
1
\A1;73
40
3
41
0
44
1
50
0
71
5
72
5
7
iso_b_vert
0
POINT
5
19E
100
AcDbEntity
8
Defpoints
62
0
6
ByLayer
370
-1
48
1
60
0
100
AcDbPoint
10
73
20
-5.35
30
0
39
0
210
0
220
0
230
1
50
360
0
POINT
5
19F
100
AcDbEntity
8
Defpoints
62
0
6
ByLayer
370
-1
48
1
60
0
100
AcDbPoint
10
0
20
-5.35
30
0
39
0
210
0
220
0
230
1
50
360
0
POINT
5
1A0
100
AcDbEntity
8
Defpoints
62
0
6
ByLayer
370
-1
48
1
60
0
100
AcDbPoint
10
0
20
-63.799084
30
0
39
0
210
0
220
0
230
1
50
360
0
ENDBLK
5
197
100
AcDbEntity
8
0
100
AcDbBlockEnd
0
BLOCK
5
1A8
100
AcDbEntity
8
0
100
AcDbBlockBegin
2
_U4
70
0
10
0
20
0
30
0
3
_U4
0
MTEXT
5
1A2
100
AcDbEntity
8
2
62
256
6
ByLayer
370
18
48
1
60
0
100
AcDbMText
10
34.867172
20
-62.913969
30
0
210
0
220
0
230
1
1
\W0.6740;73
40
3
41
0
44
1.084337
50
0
71
7
72
5
7
iso_b_vert
0
LINE
5
1A3
100
AcDbEntity
8
2
62
256
6
ByLayer
370
13
48
1
60
0
100
AcDbLine
10
73
20
-6.9375
30
0
11
73
21
-65.799084
31
0
39
0
210
0
220
0
230
1
0
LINE
5
1A4
100
AcDbEntity
8
2
62
256
6
ByLayer
370
13
48
1
60
0
100
AcDbLine
10
0
20
-6.9375
30
0
11
0
21
-65.799084
31
0
39
0
210
0
220
0
230
1
0
LINE
5
1A5
100
AcDbEntity
8
2
62
256
6
ByLayer
370
13
48
1
60
0
100
AcDbLine
10
73
20
-63.799084
30
0
11
0
21
-63.799084
31
0
39
0
210
0
220
0
230
1
0
SOLID
5
1A6
100
AcDbEntity
8
2
62
256
6
ByLayer
370
18
48
1
60
0
100
AcDbTrace
10
73
20
-63.799084
30
0
11
69.500002
21
-64.259868
31
0
12
69.499998
22
-63.3383
32
0
13
69.499998
23
-63.3383
33
0
39
0
210
0
220
0
230
1
0
SOLID
5
1A7
100
AcDbEntity
8
2
62
256
6
ByLayer
370
18
48
1
60
0
100
AcDbTrace
10
0
20
-63.799084
30
0
11
3.499998
21
-63.3383
31
0
12
3.500002
22
-64.259868
32
0
13
3.500002
23
-64.259868
33
0
39
0
210
0
220
0
230
1
0
ENDBLK
5
1A9
100
AcDbEntity
8
0
100
AcDbBlockEnd
0
ENDSEC
0
SECTION
2
ENTITIES
0
ARC
5
C0
100
AcDbEntity
8
1
62
256
6
ByLayer
370
18
48
1
60
0
100
AcDbCircle
39
0
10
1.371162
20
-6.024569
30
0
40
0.799999999999998
210
0
220
0
230
1
100
AcDbArc
50
89.896868
51
148.978771
0
ARC
5
C1
100
AcDbEntity
8
1
62
256
6
ByLayer
370
18
48
1
60
0
100
AcDbCircle
39
0
10
1.371162
20
6.024569
30
0
40
0.799999999999998
210
0
220
0
230
1
100
AcDbArc
50
211.021229
51
270.103132
0
ARC
5
C2
100
AcDbEntity
8
1
62
256
6
ByLayer
370
18
48
1
60
0
100
AcDbCircle
39
0
10
0
20
-5.2
30
0
40
0.799999999999998
210
0
220
0
230
1
100
AcDbArc
50
270
51
328.978771
0
ARC
5
C3
100
AcDbEntity
8
1
62
256
6
ByLayer
370
18
48
1
60
0
100
AcDbCircle
39
0
10
0
20
5.2
30
0
40
0.799999999999998
210
0
220
0
230
1
100
AcDbArc
50
31.021229
51
90
0
ARC
5
C4
100
AcDbEntity
8
SK2
62
256
6
ByLayer
370
13
48
1
60
0
100
AcDbCircle
39
0
10
73
20
0
30
0
40
21.4884237898863
210
0
220
0
230
1
100
AcDbArc
50
8.025282
51
70.002277
0
ARC
5
C5
100
AcDbEntity
8
SK2
62
256
6
ByLayer
370
13
48
1
60
0
100
AcDbCircle
39
0
10
73
20
0
30
0
40
21.4884237898863
210
0
220
0
230
1
100
AcDbArc
50
289.997723
51
351.974718
0
ELLIPSE
5
C6
100
AcDbEntity
8
1
62
256
6
ByLayer
370
18
48
1
60
0
100
AcDbEllipse
10
19.599764
20
5.153966
30
0
11
0.1
21
0
31
0
210
0
220
0
230
1
40
0.999913
41
-3.11447838326354
42
-1.54735037675165
0
POINT
5
70
100
AcDbEntity
8
80
62
256
6
ByLayer
370
18
48
1
60
0
100
AcDbPoint
10
0
20
0
30
0
39
0
210
0
220
0
230
1
50
360
0
POINT
5
72
100
AcDbEntity
8
81
62
256
6
ByLayer
370
18
48
1
60
0
100
AcDbPoint
10
73
20
0
30
0
39
0
210
0
220
0
230
1
50
360
0
POINT
5
74
100
AcDbEntity
8
1
62
256
6
ByLayer
370
18
48
1
60
0
100
AcDbPoint
10
-203.430788
20
-207.361812
30
0
39
0
210
0
220
0
230
1
50
360
0
POINT
5
76
100
AcDbEntity
8
1
62
256
6
ByLayer
370
13
48
1
60
1
100
AcDbPoint
10
-46.5
20
0
30
0
39
0
210
0
220
0
230
1
50
360
0
POINT
5
77
100
AcDbEntity
8
1
62
256
6
ByLayer
370
13
48
1
60
1
100
AcDbPoint
10
72.560718
20
0
30
0
39
0
210
0
220
0
230
1
50
360
0
POINT
5
78
100
AcDbEntity
8
1
62
256
6
ByLayer
370
18
48
1
60
1
100
AcDbPoint
10
73
20
-5.35
30
0
39
0
210
0
220
0
230
1
50
360
0
POINT
5
79
100
AcDbEntity
8
1
62
256
6
ByLayer
370
18
48
1
60
1
100
AcDbPoint
10
17.6
20
-5.35
30
0
39
0
210
0
220
0
230
1
50
360
0
POINT
5
7A
100
AcDbEntity
8
1
62
256
6
ByLayer
370
18
48
1
60
1
100
AcDbPoint
10
73
20
-5.35
30
0
39
0
210
0
220
0
230
1
50
360
0
POINT
5
7B
100
AcDbEntity
8
1
62
256
6
ByLayer
370
18
48
1
60
1
100
AcDbPoint
10
2
20
-5.35
30
0
39
0
210
0
220
0
230
1
50
360
0
POINT
5
7C
100
AcDbEntity
8
1
62
256
6
ByLayer
370
18
48
1
60
1
100
AcDbPoint
10
-45
20
-6
30
0
39
0
210
0
220
0
230
1
50
360
0
POINT
5
7D
100
AcDbEntity
8
1
62
256
6
ByLayer
370
18
48
1
60
1
100
AcDbPoint
10
0
20
-6
30
0
39
0
210
0
220
0
230
1
50
360
0
POINT
5
7E
100
AcDbEntity
8
1
62
256
6
ByLayer
370
18
48
1
60
1
100
AcDbPoint
10
-45
20
-6
30
0
39
0
210
0
220
0
230
1
50
360
0
POINT
5
7F
100
AcDbEntity
8
1
62
256
6
ByLayer
370
18
48
1
60
1
100
AcDbPoint
10
73
20
-5.35
30
0
39
0
210
0
220
0
230
1
50
360
0
POINT
5
80
100
AcDbEntity
8
1
62
256
6
ByLayer
370
18
48
1
60
1
100
AcDbPoint
10
73
20
-5.35
30
0
39
0
210
0
220
0
230
1
50
360
0
POINT
5
81
100
AcDbEntity
8
1
62
256
6
ByLayer
370
18
48
1
60
1
100
AcDbPoint
10
0
20
-5.35
30
0
39
0
210
0
220
0
230
1
50
360
0
SPLINE
5
C7
100
AcDbEntity
8
1
62
256
6
ByLayer
370
18
48
1
60
0
100
AcDbSpline
70
4
71
3
72
8
73
4
40
0
40
0
40
0
40
0
40
1
40
1
40
1
40
1
41
1
10
72.4594646296756
20
1.74164762369475
30
0
41
1
10
72.6014399430132
20
1.34442576544652
30
0
41
1
10
72.7422246211498
20
0.946785444130654
30
0
41
1
10
72.8817944427599
20
0.548718146870954
30
0
0
SPLINE
5
C8
100
AcDbEntity
8
1
62
256
6
ByLayer
370
18
48
1
60
0
100
AcDbSpline
70
4
71
3
72
8
73
4
40
0
40
0
40
0
40
0
40
1
40
1
40
1
40
1
41
1
10
72.8817944427599
20
0.548718146870954
30
0
41
1
10
72.9197553651
20
0.440449743407612
30
0
41
1
10
72.9584644683073
20
0.332596565521072
30
0
41
1
10
72.9979201134774
20
0.22514387593688
30
0
0
SPLINE
5
C9
100
AcDbEntity
8
1
62
256
6
ByLayer
370
18
48
1
60
0
100
AcDbSpline
70
4
71
3
72
26
73
22
40
0
40
0
40
0
40
0
40
0.500000000000024
40
0.500000000000024
40
0.750000000000039
40
0.750000000000039
40
0.875000000000043
40
0.875000000000043
40
0.937500000000012
40
0.937500000000012
40
0.96875
40
0.96875
40
0.984374999999994
40
0.984374999999994
40
0.992187500000028
40
0.992187500000028
40
0.996093750000014
40
0.996093750000014
40
0.998046875000007
40
0.998046875000007
40
1
40
1
40
1
40
1
41
1
10
70.9661536358422
20
5.34977309327306
30
0
41
1
10
70.988851380037
20
5.3127595617064
30
0
41
1
10
71.0115504089922
20
5.27563432269335
30
0
41
1
10
71.0456368940253
20
5.21970196571235
30
0
41
1
10
71.0570108735285
20
5.20100523507148
30
0
41
1
10
71.0740630152675
20
5.17293943504566
30
0
41
1
10
71.0797442876587
20
5.16358353533042
30
0
41
1
10
71.0882542381222
20
5.14956518075147
30
0
41
1
10
71.0910879791074
20
5.14489696773771
30
0
41
1
10
71.0953676691443
20
5.13782945590546
30
0
41
1
10
71.0968039641922
20
5.1354524073995
30
0
41
1
10
71.0989179262263
20
5.13197286113714
30
0
41
1
10
71.0996046306307
20
5.13085098999932
30
0
41
1
10
71.1006806554775
20
5.12906993652169
30
0
41
1
10
71.1010492843497
20
5.128454112631
30
0
41
1
10
71.1016019100895
20
5.12753085637382
30
0
41
1
10
71.1017874477058
20
5.12722096849819
30
0
41
1
10
71.1020438774676
20
5.12680244082648
30
0
41
1
10
71.1021264019713
20
5.12666953434146
30
0
41
1
10
71.1022397818585
20
5.12650106205101
30
0
41
1
10
71.1022614320316
20
5.12648059915492
30
0
41
1
10
71.1022593847548
20
5.12650026398344
30
0
0
SPLINE
5
CA
100
AcDbEntity
8
1
62
256
6
ByLayer
370
18
48
1
60
0
100
AcDbSpline
70
4
71
3
72
8
73
4
40
0
40
0
40
0
40
0
40
1
40
1
40
1
40
1
41
1
10
71.2312532378579
20
-4.90246730778881
30
0
41
1
10
71.1882334701476
20
-4.97715389958955
30
0
41
1
10
71.1452337559095
20
-5.05183535525572
30
0
41
1
10
71.1022593847348
20
-5.12650026417651
30
0
0
SPLINE
5
CB
100
AcDbEntity
8
1
62
256
6
ByLayer
370
18
48
1
60
0
100
AcDbSpline
70
4
71
3
72
10
73
6
40
0
40
0
40
0
40
0
40
0.5
40
0.5
40
1
40
1
40
1
40
1
41
1
10
72.4594646296756
20
1.74164762369475
30
0
41
1
10
72.3434198632026
20
1.72804599739683
30
0
41
1
10
72.2272798100269
20
1.71574736544909
30
0
41
1
10
71.9948725574303
20
1.69288875798523
30
0
41
1
10
71.8786071480563
20
1.68230430454449
30
0
41
1
10
71.7622877290184
20
1.67245840417274
30
0
0
SPLINE
5
CC
100
AcDbEntity
8
1
62
256
6
ByLayer
370
18
48
1
60
0
100
AcDbSpline
70
4
71
3
72
24
73
20
40
0
40
0
40
0
40
0
40
0.124999999999997
40
0.124999999999997
40
0.249999999999994
40
0.249999999999994
40
0.312499999999995
40
0.312499999999995
40
0.374999999999996
40
0.374999999999996
40
0.437499999999996
40
0.468749999999997
40
0.468749999999997
40
0.484374999999999
40
0.484374999999999
40
0.500000000000001
40
0.75
40
0.75
40
1
40
1
40
1
40
1
41
1
10
72.4594646296757
20
1.7416476236948
30
0
41
1
10
72.3977009442095
20
1.8555340680158
30
0
41
1
10
72.3378242858163
20
1.97322139202495
30
0
41
1
10
72.2213937416941
20
2.21606205868324
30
0
41
1
10
72.1648412640072
20
2.34121744544413
30
0
41
1
10
72.0821327004288
20
2.53455260643074
30
0
41
1
10
72.0549162717091
20
2.59993298639921
30
0
41
1
10
72.0011211747583
20
2.73257922738949
30
0
41
1
10
71.9747427932271
20
2.79934993029008
30
0
41
1
10
71.9230117621521
20
2.93349166073744
30
0
41
1
10
71.8849628797589
20
3.03461220412893
30
0
41
1
10
71.8479041313795
20
3.13644572712019
30
0
41
1
10
71.8295265115032
20
3.18747486349471
30
0
41
1
10
71.8234311502432
20
3.20450736545601
30
0
41
1
10
71.8112633466918
20
3.23856003485247
30
0
41
1
10
71.7079291583127
20
3.52799608291119
30
0
41
1
10
71.6061828226395
20
3.81723587299183
30
0
41
1
10
71.4171029272337
20
4.36075043696584
30
0
41
1
10
71.3237930984443
20
4.6320377001511
30
0
41
1
10
71.2312532378581
20
4.9024673077887
30
0
0
SPLINE
5
CD
100
AcDbEntity
8
1
62
256
6
ByLayer
370
18
48
1
60
0
100
AcDbSpline
70
4
71
3
72
8
73
4
40
0
40
0
40
0
40
0
40
1
40
1
40
1
40
1
41
1
10
71.231253237858
20
4.90246730778867
30
0
41
1
10
71.1882334702357
20
4.97715389943659
30
0
41
1
10
71.1452337560856
20
5.05183535494999
30
0
41
1
10
71.1022593849986
20
5.12650026371807
30
0
0
SPLINE
5
CE
100
AcDbEntity
8
1
62
256
6
ByLayer
370
18
48
1
60
0
100
AcDbSpline
70
4
71
3
72
30
73
26
40
0
40
0
40
0
40
0
40
0.106655294011687
40
0.106655294011687
40
0.213310588023376
40
0.213310588023376
40
0.26663823502922
40
0.26663823502922
40
0.319965882035064
40
0.319965882035064
40
0.426621176046756
40
0.426621176046756
40
0.533276470058448
40
0.533276470058448
40
0.63993176407014
40
0.63993176407014
40
0.693259411075984
40
0.693259411075984
40
0.746587058081828
40
0.746587058081828
40
0.85324235209352
40
0.85324235209352
40
0.959897646105212
40
0.959897646105212
40
1
40
1
40
1
40
1
41
1
10
71.102259384216
20
5.12650026418163
30
0
41
1
10
70.8330886257293
20
5.12915497773352
30
0
41
1
10
70.564087491283
20
5.12654319886903
30
0
41
1
10
70.0262155183168
20
5.11097902619827
30
0
41
1
10
69.7573471979639
20
5.09805254761415
30
0
41
1
10
69.3537704837442
20
5.07105176665868
30
0
41
1
10
69.2191805147213
20
5.06077333603835
30
0
41
1
10
68.9501000781849
20
5.03769237414787
30
0
41
1
10
68.8155884375541
20
5.02488936238498
30
0
41
1
10
68.4120862325534
20
4.98274960362693
30
0
41
1
10
68.1431281039445
20
4.94969203642236
30
0
41
1
10
67.605025389332
20
4.87381597426517
30
0
41
1
10
67.3358137571459
20
4.83095963708305
30
0
41
1
10
66.7978059485949
20
4.73568911898684
30
0
41
1
10
66.5288785435218
20
4.68328846258075
30
0
41
1
10
66.1253758400651
20
4.59763913541104
30
0
41
1
10
65.9908567943708
20
4.56791502372633
30
0
41
1
10
65.7217503134353
20
4.50612946423465
30
0
41
1
10
65.5871341877763
20
4.4740559767464
30
0
41
1
10
65.1836435887972
20
4.37451910826408
30
0
41
1
10
64.9149708698078
20
4.30372043979276
30
0
41
1
10
64.3780040332154
20
4.15367452739829
30
0
41
1
10
64.1097067046967
20
4.07443541148754
30
0
41
1
10
63.7404616772805
20
3.96000668603531
30
0
41
1
10
63.6395586479829
20
3.92818248082679
30
0
41
1
10
63.5386437338132
20
3.89581265314362
30
0
0
SPLINE
5
CF
100
AcDbEntity
8
1
62
256
6
ByLayer
370
18
48
1
60
0
100
AcDbSpline
70
4
71
3
72
22
73
18
40
0
40
0
40
0
40
0
40
0.0129080460987158
40
0.0129080460987158
40
0.0888381963988174
40
0.0888381963988174
40
0.240698496999014
40
0.240698496999014
40
0.392558797599212
40
0.392558797599212
40
0.544419098199409
40
0.544419098199409
40
0.696279398799605
40
0.696279398799605
40
0.848139699399803
40
0.848139699399803
40
1
40
1
40
1
40
1
41
1
10
24.8152156709701
20
-1.41056630873243
30
0
41
1
10
24.7923580164755
20
-1.39972660673828
30
0
41
1
10
24.769497258441
20
-1.38887552028854
30
0
41
1
10
24.6121386434315
20
-1.31411692343832
30
0
41
1
10
24.4775132851912
20
-1.24982336516305
30
0
41
1
10
24.0738162291969
20
-1.05614890071118
30
0
41
1
10
23.8047462068958
20
-0.925884968938789
30
0
41
1
10
23.2664430867184
20
-0.663634503638775
30
0
41
1
10
22.9972672590698
20
-0.531633043898239
30
0
41
1
10
22.4590106448887
20
-0.266729817725263
30
0
41
1
10
22.1898857154939
20
-0.133930351886875
30
0
41
1
10
21.6519479385412
20
0.131405801322359
30
0
41
1
10
21.3830609292963
20
0.26399322414747
30
0
41
1
10
20.8451800056129
20
0.528456439458807
30
0
41
1
10
20.5761319404296
20
0.660342681538822
30
0
41
1
10
20.0378759839572
20
0.9227787457651
30
0
41
1
10
19.7688770432079
20
1.05323990517814
30
0
41
1
10
19.4997640933019
20
1.18245737033055
30
0
0
SPLINE
5
D0
100
AcDbEntity
8
1
62
256
6
ByLayer
370
18
48
1
60
0
100
AcDbSpline
70
4
71
3
72
21
73
17
40
0
40
0
40
0
40
0
40
0.0415714794389041
40
0.0415714794389041
40
0.201309566199083
40
0.201309566199083
40
0.361047652959263
40
0.361047652959263
40
0.440916696339367
40
0.440916696339367
40
0.520785739719472
40
0.680523826479648
40
0.680523826479648
40
0.840261913239824
40
0.840261913239824
40
1
40
1
40
1
40
1
41
1
10
71.0267730186731
20
1.07871418177768
30
0
41
1
10
71.0348789630897
20
1.07611246284793
30
0
41
1
10
71.0430222126475
20
1.07344442222882
30
0
41
1
10
71.0826453228926
20
1.06018758223234
30
0
41
1
10
71.1146823028104
20
1.04860832718273
30
0
41
1
10
71.1798945323701
20
1.02342618256648
30
0
41
1
10
71.2130538484645
20
1.00985161992099
30
0
41
1
10
71.2635294015513
20
0.988180273866391
30
0
41
1
10
71.280488335128
20
0.980732452691996
30
0
41
1
10
71.3144770475564
20
0.965495626059493
30
0
41
1
10
71.3656244314938
20
0.942104453878414
30
0
41
1
10
71.4172339644429
20
0.917205932353255
30
0
41
1
10
71.4864122145762
20
0.882815656642038
30
0
41
1
10
71.5211801761012
20
0.865037224196698
30
0
41
1
10
71.5910058024751
20
0.828535460357017
30
0
41
1
10
71.6260646737336
20
0.809808194126845
30
0
41
1
10
71.661215352474
20
0.790781487793254
30
0
0
SPLINE
5
D1
100
AcDbEntity
8
1
62
256
6
ByLayer
370
18
48
1
60
0
100
AcDbSpline
70
4
71
3
72
29
73
25
40
0
40
0
40
0
40
0
40
0.142521265827333
40
0.142521265827333
40
0.285042531654665
40
0.285042531654665
40
0.356303164568331
40
0.356303164568331
40
0.427563797481998
40
0.427563797481998
40
0.570085063309359
40
0.570085063309359
40
0.641345696223039
40
0.641345696223039
40
0.67697601267988
40
0.67697601267988
40
0.71260632913672
40
0.855127594964129
40
0.855127594964129
40
0.926388227877834
40
0.926388227877834
40
0.997648860791539
40
0.997648860791539
40
1
40
1
40
1
40
1
41
1
10
71.7622877290184
20
1.67245840417269
30
0
41
1
10
71.6998029373966
20
1.66716935580789
30
0
41
1
10
71.6380520148686
20
1.65849878128608
30
0
41
1
10
71.5160408872634
20
1.63430692830298
30
0
41
1
10
71.4557812288963
20
1.61878306691054
30
0
41
1
10
71.3664800785296
20
1.59051620824423
30
0
41
1
10
71.3367750105877
20
1.5802174859497
30
0
41
1
10
71.2786438825586
20
1.55839233241076
30
0
41
1
10
71.2501439179983
20
1.54685045782185
30
0
41
1
10
71.1662369540852
20
1.51061520335386
30
0
41
1
10
71.112419306113
20
1.48431641721893
30
0
41
1
10
71.034494401477
20
1.44273295959908
30
0
41
1
10
71.0089871559474
20
1.42851495475105
30
0
41
1
10
70.9713885597332
20
1.40677975993538
30
0
41
1
10
70.958974408698
20
1.39947082235778
30
0
41
1
10
70.9345534855543
20
1.38485536584403
30
0
41
1
10
70.8743975177582
20
1.34824991459055
30
0
41
1
10
70.8184955474852
20
1.31158483841895
30
0
41
1
10
70.7549120851317
20
1.26842297373088
30
0
41
1
10
70.7343033740969
20
1.25417356575389
30
0
41
1
10
70.6941824278594
20
1.22609660687391
30
0
41
1
10
70.6746079738708
20
1.21222540596551
30
0
41
1
10
70.6551463344884
20
1.19837685514494
30
0
41
1
10
70.6545254921623
20
1.19793501452378
30
0
41
1
10
70.6539054053279
20
1.19749365329602
30
0
0
SPLINE
5
D2
100
AcDbEntity
8
1
62
256
6
ByLayer
370
18
48
1
60
0
100
AcDbSpline
70
4
71
3
72
26
73
22
40
0
40
0
40
0
40
0
40
0.500000000000094
40
0.500000000000094
40
0.75000000000011
40
0.75000000000011
40
0.875000000000086
40
0.875000000000086
40
0.937500000000073
40
0.937500000000073
40
0.96875000000003
40
0.96875000000003
40
0.984375000000042
40
0.984375000000042
40
0.992187500000017
40
0.992187500000017
40
0.996093750000009
40
0.996093750000009
40
0.998046875000004
40
0.998046875000004
40
1
40
1
40
1
40
1
41
1
10
70.9661536358428
20
-5.34977309327203
30
0
41
1
10
70.9888513801826
20
-5.31275956146894
30
0
41
1
10
71.0115504092828
20
-5.27563432221811
30
0
41
1
10
71.0456368945341
20
-5.21970196487666
30
0
41
1
10
71.0570108741104
20
-5.20100523411443
30
0
41
1
10
71.0740630159577
20
-5.17293943390922
30
0
41
1
10
71.0797442883847
20
-5.16358353413457
30
0
41
1
10
71.0882542389016
20
-5.14956517946749
30
0
41
1
10
71.0910879799062
20
-5.14489696642062
30
0
41
1
10
71.095367669976
20
-5.13782945453104
30
0
41
1
10
71.0968039650333
20
-5.13545240600934
30
0
41
1
10
71.0989179270624
20
-5.13197285976372
30
0
41
1
10
71.0996046314677
20
-5.13085098862609
30
0
41
1
10
71.1006806563591
20
-5.12906993505658
30
0
41
1
10
71.1010492852533
20
-5.12845411111599
30
0
41
1
10
71.1016019109836
20
-5.12753085488285
30
0
41
1
10
71.1017874486
20
-5.12722096701052
30
0
41
1
10
71.1020438782744
20
-5.12680243952374
30
0
41
1
10
71.1021264027338
20
-5.12666953314064
30
0
41
1
10
71.1022397822071
20
-5.12650106160086
30
0
41
1
10
71.1022614321442
20
-5.1264805991226
30
0
41
1
10
71.1022593847348
20
-5.12650026417651
30
0
0
SPLINE
5
D3
100
AcDbEntity
8
1
62
256
6
ByLayer
370
18
48
1
60
0
100
AcDbSpline
70
4
71
3
72
79
73
75
40
0
40
0
40
0
40
0
40
0.0290503066876989
40
0.0290503066876989
40
0.0594694825714295
40
0.0594694825714295
40
0.08988865845516
40
0.08988865845516
40
0.105098246397025
40
0.105098246397025
40
0.120307834338889
40
0.120307834338889
40
0.150727010222619
40
0.150727010222619
40
0.165936598164484
40
0.165936598164484
40
0.181146186106349
40
0.181146186106349
40
0.21156536199008
40
0.21156536199008
40
0.24198453787381
40
0.24198453787381
40
0.272403713757541
40
0.272403713757541
40
0.302822889641271
40
0.302822889641271
40
0.318032477583136
40
0.318032477583136
40
0.333242065525002
40
0.333242065525002
40
0.363661241408734
40
0.363661241408734
40
0.394080417292465
40
0.394080417292465
40
0.45491876905993
40
0.45491876905993
40
0.485337944943663
40
0.485337944943663
40
0.515757120827395
40
0.515757120827395
40
0.530966708769262
40
0.530966708769262
40
0.546176296711129
40
0.546176296711129
40
0.576595472594863
40
0.576595472594863
40
0.59180506053673
40
0.59180506053673
40
0.607014648478597
40
0.607014648478597
40
0.637433824362331
40
0.637433824362331
40
0.667853000246066
40
0.667853000246066
40
0.698272176129801
40
0.698272176129801
40
0.728691352013536
40
0.743900939955403
40
0.743900939955403
40
0.75911052789727
40
0.75911052789727
40
0.789529703781003
40
0.789529703781003
40
0.819948879664735
40
0.819948879664735
40
0.880787231432199
40
0.880787231432199
40
0.911206407315931
40
0.911206407315931
40
0.941625583199663
40
0.941625583199663
40
0.972044759083394
40
0.972044759083394
40
1
40
1
40
1
40
1
41
1
10
57.3573791447563
20
-1.35957067781658
30
0
41
1
10
57.1009420187342
20
-1.2376449597796
30
0
41
1
10
56.8446394430548
20
-1.11453922168545
30
0
41
1
10
56.3199979647445
20
-0.860567856743728
30
0
41
1
10
56.0516883585925
20
-0.72955749698346
30
0
41
1
10
55.5147004718303
20
-0.466295395732203
30
0
41
1
10
55.2460170421427
20
-0.334050080553368
30
0
41
1
10
54.8424924492048
20
-0.135190458981754
30
0
41
1
10
54.7078788184034
20
-0.0688098719403456
30
0
41
1
10
54.4387376983051
20
0.0639102477346682
30
0
41
1
10
54.3041779153555
20
0.13026372581399
30
0
41
1
10
53.9004801090333
20
0.329201048743357
30
0
41
1
10
53.6313033030699
20
0.461681449199631
30
0
41
1
10
53.2276214582557
20
0.659614934967664
30
0
41
1
10
53.0930520889375
20
0.72545701850018
30
0
41
1
10
52.8241256666662
20
0.856593503366668
30
0
41
1
10
52.6897397774122
20
0.921908333443668
30
0
41
1
10
52.2867569434792
20
1.11698461751945
30
0
41
1
10
52.0183316152283
20
1.24587442944522
30
0
41
1
10
51.481677118966
20
1.50082860321817
30
0
41
1
10
51.2134432058083
20
1.62688302959484
30
0
41
1
10
50.6769301030144
20
1.87564572192622
30
0
41
1
10
50.408678416103
20
1.99839526921426
30
0
41
1
10
49.8716738110554
20
2.23970992013258
30
0
41
1
10
49.6029292578703
20
2.35828875067915
30
0
41
1
10
49.1992355522187
20
2.53263645688281
30
0
41
1
10
49.0646538688613
20
2.59013402735306
30
0
41
1
10
48.7956080805341
20
2.7037529106853
30
0
41
1
10
48.6611144051094
20
2.7598858437662
30
0
41
1
10
48.2576710070425
20
2.9261727519428
30
0
41
1
10
47.9887692927582
20
3.03423152996325
30
0
41
1
10
47.4507952571362
20
3.24426594511036
30
0
41
1
10
47.1815505294284
20
3.34619856251081
30
0
41
1
10
46.3751174196602
20
3.64097513488352
30
0
41
1
10
45.8385968238773
20
3.82319653651743
30
0
41
1
10
45.0339507290253
20
4.07264963136586
30
0
41
1
10
44.7657723008664
20
4.15184326155071
30
0
41
1
10
44.2289838876069
20
4.30174285360005
30
0
41
1
10
43.9603908595724
20
4.37245787154674
30
0
41
1
10
43.55698900096
20
4.47196270091373
30
0
41
1
10
43.4223898998693
20
4.50404909437773
30
0
41
1
10
43.1532818321082
20
4.56592631899622
30
0
41
1
10
43.0187679568067
20
4.59571940780208
30
0
41
1
10
42.6153002153978
20
4.68161582286572
30
0
41
1
10
42.3464403349824
20
4.73423742141586
30
0
41
1
10
41.9430613852437
20
4.80600523938372
30
0
41
1
10
41.8085774740326
20
4.828727697544
30
0
41
1
10
41.5395194981323
20
4.8717379544247
30
0
41
1
10
41.4049109715482
20
4.8920306073
30
0
41
1
10
41.0014369616826
20
4.94915295548643
30
0
41
1
10
40.7327767944011
20
4.98226120606742
30
0
41
1
10
40.1958293392305
20
5.03846606743411
30
0
41
1
10
39.9275377095099
20
5.06155875098221
30
0
41
1
10
39.3911039906549
20
5.09755220316731
30
0
41
1
10
39.1229507705583
20
5.11045367047259
30
0
41
1
10
38.5863026037114
20
5.12600115351191
30
0
41
1
10
38.1835857981391
20
5.12997163028894
30
0
41
1
10
37.7802152502801
20
5.12242362301228
30
0
41
1
10
37.5111210937689
20
5.11482135990792
30
0
41
1
10
37.3765162936883
20
5.10973546781315
30
0
41
1
10
36.9729547401066
20
5.09063240803178
30
0
41
1
10
36.7041010131555
20
5.07274740846549
30
0
41
1
10
36.1663482784318
20
5.02676525735185
30
0
41
1
10
35.8974269650067
20
4.99867876677513
30
0
41
1
10
35.09006975962
20
4.89940547007288
30
0
41
1
10
34.5517233524498
20
4.81335950702803
30
0
41
1
10
33.7443218181473
20
4.65569733256575
30
0
41
1
10
33.4753468481659
20
4.59843821605017
30
0
41
1
10
32.9375984267422
20
4.47485854786331
30
0
41
1
10
32.668791773422
20
4.40852722054984
30
0
41
1
10
32.1310334241007
20
4.26715474070554
30
0
41
1
10
31.8620770991073
20
4.19211954819554
30
0
41
1
10
31.3455551701794
20
4.04002579307797
30
0
41
1
10
31.0984312813297
20
3.96370369955309
30
0
41
1
10
30.8513632019148
20
3.88412809520389
30
0
0
SPLINE
5
D4
100
AcDbEntity
8
1
62
256
6
ByLayer
370
18
48
1
60
0
100
AcDbSpline
70
4
71
3
72
71
73
67
40
0
40
0
40
0
40
0
40
0.0166922710148707
40
0.0166922710148707
40
0.0332611262504488
40
0.0332611262504488
40
0.049829981486027
40
0.049829981486027
40
0.066398836721605
40
0.066398836721605
40
0.0829676919571831
40
0.0829676919571831
40
0.0995365471927611
40
0.0995365471927611
40
0.103678761001656
40
0.105749867906103
40
0.106785421358327
40
0.107044309721383
40
0.107173753902911
40
0.107173753902911
40
0.107303198084439
40
0.107303198084439
40
0.107562086447494
40
0.107562086447494
40
0.10782097481055
40
0.10782097481055
40
0.109892081714997
40
0.109892081714997
40
0.111963188619444
40
0.111963188619444
40
0.116105402428338
40
0.116105402428338
40
0.149243112899487
40
0.149243112899487
40
0.182380823370637
40
0.182380823370637
40
0.248656244312937
40
0.248656244312937
40
0.381207086197535
40
0.381207086197535
40
0.513757928082134
40
0.513757928082134
40
0.530326783317709
40
0.530326783317709
40
0.538611210935496
40
0.538611210935496
40
0.54275342474439
40
0.543788978196613
40
0.543788978196613
40
0.544306754922725
40
0.544306754922725
40
0.544565643285781
40
0.544565643285781
40
0.544695087467309
40
0.544695087467309
40
0.544824531648837
40
0.544824531648837
40
0.546895638553284
40
0.546895638553284
40
0.580033349024438
40
0.580033349024438
40
0.646308769966747
40
0.646308769966747
40
0.778859611851365
40
0.778859611851365
40
1
40
1
40
1
40
1
41
1
10
8.99406785209516
20
4.94851596780012
30
0
41
1
10
8.96248063263133
20
4.86577644114314
30
0
41
1
10
8.9289346974995
20
4.78164588779424
30
0
41
1
10
8.8594603162496
20
4.61095169782487
30
0
41
1
10
8.82346486261608
20
4.52434325987883
30
0
41
1
10
8.74937030013166
20
4.34759370502525
30
0
41
1
10
8.71112269065841
20
4.25753209885283
30
0
41
1
10
8.62969834852433
20
4.07543125162942
30
0
41
1
10
8.58698024385205
20
3.98313703523155
30
0
41
1
10
8.4982741043988
20
3.79558218011905
30
0
41
1
10
8.45227318665448
20
3.70008416030726
30
0
41
1
10
8.35634915871046
20
3.50781527379399
30
0
41
1
10
8.3066684925935
20
3.41092397030616
30
0
41
1
10
8.24285419111268
20
3.28861396604174
30
0
41
1
10
8.22358569865315
20
3.25184063855554
30
0
41
1
10
8.20090582216559
20
3.20879869033291
30
0
41
1
10
8.19033085514832
20
3.18878152765655
30
0
41
1
10
8.18584912759417
20
3.18030696732041
30
0
41
1
10
8.18462621196198
20
3.17799525336304
30
0
41
1
10
8.18381079570835
20
3.17645400551399
30
0
41
1
10
8.18322064822121
20
3.17561830933232
30
0
41
1
10
8.18434387048436
20
3.17306453057864
30
0
41
1
10
8.1859830957151
20
3.17189914753774
30
0
41
1
10
8.1888376733136
20
3.16947580075913
30
0
41
1
10
8.19031339532265
20
3.16832593526397
30
0
41
1
10
8.20371593473897
20
3.15815632500409
30
0
41
1
10
8.21624342755263
20
3.1500329985742
30
0
41
1
10
8.24114338714006
20
3.13360650490344
30
0
41
1
10
8.25365836646904
20
3.12550245589833
30
0
41
1
10
8.29126852924898
20
3.10130818436306
30
0
41
1
10
8.31643652298837
20
3.08534538312193
30
0
41
1
10
8.54320437777537
20
2.94217000688036
30
0
41
1
10
8.7458929053457
20
2.81718644723813
30
0
41
1
10
9.15089022236239
20
2.56708422799011
30
0
41
1
10
9.35346072529663
20
2.44245351465452
30
0
41
1
10
9.96115380133097
20
2.06969369960706
30
0
41
1
10
10.3663463318512
20
1.82273430051214
30
0
41
1
10
11.5813032366856
20
1.08508315474148
30
0
41
1
10
12.3905847909667
20
0.597347883223705
30
0
41
1
10
14.0068966264791
20
-0.36572559455243
30
0
41
1
10
14.8146764862656
20
-0.840821419790643
30
0
41
1
10
15.7205546540766
20
-1.36985841751556
30
0
41
1
10
15.8211638464744
20
-1.42856340221877
30
0
41
1
10
15.971809630395
20
-1.51670353456382
30
0
41
1
10
16.0219969695104
20
-1.54608014054281
30
0
41
1
10
16.0969693528578
20
-1.59038685287203
30
0
41
1
10
16.1281946642539
20
-1.60885950840782
30
0
41
1
10
16.1589295754594
20
-1.62774411116433
30
0
41
1
10
16.1680305896812
20
-1.63351163213579
30
0
41
1
10
16.1710486837674
20
-1.63544635843073
30
0
41
1
10
16.1754498234481
20
-1.63843998027082
30
0
41
1
10
16.1769149901129
20
-1.63944921496702
30
0
41
1
10
16.1789201198073
20
-1.64106251486643
30
0
41
1
10
16.1798840724929
20
-1.64166584866868
30
0
41
1
10
16.1798011139875
20
-1.64286169991192
30
0
41
1
10
16.1783137459988
20
-1.64246136299002
30
0
41
1
10
16.162898524506
20
-1.64101794321823
30
0
41
1
10
16.1483911973203
20
-1.63965399416145
30
0
41
1
10
15.9017857033902
20
-1.61637444087657
30
0
41
1
10
15.6699776800656
20
-1.59307289975718
30
0
41
1
10
14.9754343010149
20
-1.51898886511313
30
0
41
1
10
14.5139790580019
20
-1.46406833409509
30
0
41
1
10
13.1346222681628
20
-1.28281411668561
30
0
41
1
10
12.2215040513786
20
-1.13996555445911
30
0
41
1
10
9.80061044237291
20
-0.70038984045388
30
0
41
1
10
8.30321388055003
20
-0.36444049486758
30
0
41
1
10
6.81956680252509
20
0.0310568718732327
30
0
0
SPLINE
5
D5
100
AcDbEntity
8
1
62
256
6
ByLayer
370
18
48
1
60
0
100
AcDbSpline
70
2053
71
3
72
121
73
117
40
0
40
0
40
0
40
0
40
0.0312500000000035
40
0.0312500000000035
40
0.062500000000007
40
0.062500000000007
40
0.0937500000000105
40
0.0937500000000105
40
0.125000000000014
40
0.125000000000014
40
0.140625000000015
40
0.140625000000015
40
0.156250000000016
40
0.156250000000016
40
0.187500000000019
40
0.187500000000019
40
0.203125000000021
40
0.203125000000021
40
0.218750000000022
40
0.234375000000024
40
0.234375000000024
40
0.242187500000025
40
0.242187500000025
40
0.250000000000025
40
0.250000000000025
40
0.281250000000028
40
0.281250000000028
40
0.29687500000003
40
0.29687500000003
40
0.304687500000031
40
0.304687500000031
40
0.312500000000031
40
0.312500000000031
40
0.343750000000036
40
0.343750000000036
40
0.351562500000036
40
0.351562500000036
40
0.359375000000036
40
0.375000000000036
40
0.390625000000037
40
0.390625000000037
40
0.398437500000036
40
0.398437500000036
40
0.406250000000035
40
0.406250000000035
40
0.437500000000024
40
0.437500000000024
40
0.468750000000013
40
0.468750000000013
40
0.484375000000006
40
0.484375000000006
40
0.492187500000001
40
0.492187500000001
40
0.499999999999996
40
0.499999999999996
40
0.531249999999979
40
0.531249999999979
40
0.539062499999976
40
0.539062499999976
40
0.546874999999973
40
0.546874999999973
40
0.56249999999997
40
0.56249999999997
40
0.593749999999964
40
0.593749999999964
40
0.601562499999964
40
0.601562499999964
40
0.609374999999964
40
0.609374999999964
40
0.624999999999964
40
0.624999999999964
40
0.656249999999965
40
0.656249999999965
40
0.671874999999966
40
0.671874999999966
40
0.687499999999967
40
0.687499999999967
40
0.718749999999968
40
0.718749999999968
40
0.726562499999968
40
0.726562499999968
40
0.734374999999968
40
0.749999999999968
40
0.765624999999969
40
0.765624999999969
40
0.773437499999969
40
0.773437499999969
40
0.781249999999969
40
0.781249999999969
40
0.81249999999997
40
0.81249999999997
40
0.820312499999971
40
0.820312499999971
40
0.828124999999972
40
0.828124999999972
40
0.843749999999973
40
0.859374999999975
40
0.859374999999975
40
0.867187499999976
40
0.867187499999976
40
0.874999999999976
40
0.874999999999976
40
0.90624999999998
40
0.90624999999998
40
0.921874999999983
40
0.921874999999983
40
0.937499999999986
40
0.953124999999989
40
0.953124999999989
40
0.968749999999992
40
0.968749999999992
40
0.984374999999995
40
0.984374999999995
40
0.992187499999997
40
0.992187499999997
40
1
40
1
40
1
40
1
41
1
10
71.5234164995699
20
-2.51497636116927
30
0
41
1
10
71.5033126320604
20
-2.541256535391
30
0
41
1
10
71.4841256590106
20
-2.56294883293577
30
0
41
1
10
71.4473663857142
20
-2.59772059685281
30
0
41
1
10
71.4297952927831
20
-2.61079725492598
30
0
41
1
10
71.3961807109885
20
-2.62797580731438
30
0
41
1
10
71.3805888357808
20
-2.63183944153448
30
0
41
1
10
71.3516610330242
20
-2.63034325811199
30
0
41
1
10
71.338313171266
20
-2.62499265373407
30
0
41
1
10
71.3199460857543
20
-2.60954914486416
30
0
41
1
10
71.3141773047209
20
-2.60321611232612
30
0
41
1
10
71.3033680798182
20
-2.58826393404459
30
0
41
1
10
71.2983186790335
20
-2.57963731646873
30
0
41
1
10
71.2842162935655
20
-2.55027384664479
30
0
41
1
10
71.2761967779182
20
-2.52609143857785
30
0
41
1
10
71.2663614534745
20
-2.48218154393936
30
0
41
1
10
71.2634974090314
20
-2.46645289083159
30
0
41
1
10
71.2586207347988
20
-2.43302225386179
30
0
41
1
10
71.2545820099124
20
-2.39755811807058
30
0
41
1
10
71.2522384155049
20
-2.35796025027093
30
0
41
1
10
71.2511480484361
20
-2.32663755288775
30
0
41
1
10
71.2508960789221
20
-2.31592540386754
30
0
41
1
10
71.2506240049229
20
-2.29393892107655
30
0
41
1
10
71.250604514319
20
-2.28262470434655
30
0
41
1
10
71.2511080838337
20
-2.22518794707119
30
0
41
1
10
71.2533942247389
20
-2.17650754319018
30
0
41
1
10
71.2597944251282
20
-2.09933717449417
30
0
41
1
10
71.2624273401367
20
-2.07291689672161
30
0
41
1
10
71.2671903204606
20
-2.03218077208447
30
0
41
1
10
71.2689185016745
20
-2.0183892772499
30
0
41
1
10
71.2726059657877
20
-1.99081989500883
30
0
41
1
10
71.2745699170428
20
-1.9769979491366
30
0
41
1
10
71.2849918871913
20
-1.9077062482194
30
0
41
1
10
71.2952346225287
20
-1.85169635067169
30
0
41
1
10
71.3106538448514
20
-1.78097306799148
30
0
41
1
10
71.3138800420725
20
-1.76675203972155
30
0
41
1
10
71.3205207197061
20
-1.73859907019025
30
0
41
1
10
71.3307849390133
20
-1.6967040475987
30
0
41
1
10
71.3493928090985
20
-1.62850848705352
30
0
41
1
10
71.3658965774839
20
-1.57566065404666
30
0
41
1
10
71.378903855375
20
-1.53667409468403
30
0
41
1
10
71.3833372540975
20
-1.52381217973235
30
0
41
1
10
71.3923080639433
20
-1.49860710487036
30
0
41
1
10
71.396857856302
20
-1.48622639427108
30
0
41
1
10
71.4199245888666
20
-1.42539886436052
30
0
41
1
10
71.4393887330581
20
-1.38014935375131
30
0
41
1
10
71.4803364926603
20
-1.2961624818509
30
0
41
1
10
71.5012093141472
20
-1.25867733559127
30
0
41
1
10
71.5330172513006
20
-1.20855598277916
30
0
41
1
10
71.543705868683
20
-1.19286989994327
30
0
41
1
10
71.5598622520595
20
-1.17084653681849
30
0
41
1
10
71.5652667322624
20
-1.16376048854554
30
0
41
1
10
71.5760206407602
20
-1.15020514250511
30
0
41
1
10
71.5813820774493
20
-1.14371912850146
30
0
41
1
10
71.6081111582902
20
-1.11270281192293
30
0
41
1
10
71.629248224194
20
-1.09237623067983
30
0
41
1
10
71.6553149893413
20
-1.07226872961704
30
0
41
1
10
71.6605103814688
20
-1.06851454133394
30
0
41
1
10
71.6708631212533
20
-1.06154200541826
30
0
41
1
10
71.6760250386519
20
-1.05832210474779
30
0
41
1
10
71.6913262488822
20
-1.0495378558137
30
0
41
1
10
71.7013218963275
20
-1.04481750444273
30
0
41
1
10
71.7306874165533
20
-1.03394375718506
30
0
41
1
10
71.7494418879308
20
-1.03104973189616
30
0
41
1
10
71.7717482582205
20
-1.03291645559858
30
0
41
1
10
71.7761522140517
20
-1.03356626590451
30
0
41
1
10
71.7848407093151
20
-1.03542920080062
30
0
41
1
10
71.7891309377158
20
-1.03664554048379
30
0
41
1
10
71.8017057273212
20
-1.04111580437925
30
0
41
1
10
71.8097291416663
20
-1.04519303627441
30
0
41
1
10
71.8326993890551
20
-1.06068480103136
30
0
41
1
10
71.8465568287702
20
-1.07532745281097
30
0
41
1
10
71.8649026518663
20
-1.10418378874795
30
0
41
1
10
71.8706087911462
20
-1.11495870637435
30
0
41
1
10
71.8811224027618
20
-1.13900246544603
30
0
41
1
10
71.8858524752484
20
-1.15209930794288
30
0
41
1
10
71.8983938651207
20
-1.19457439655002
30
0
41
1
10
71.9045881771398
20
-1.2271311523715
30
0
41
1
10
71.9092748506103
20
-1.27374502329505
30
0
41
1
10
71.9100594677463
20
-1.28339246885983
30
0
41
1
10
71.9112982749432
20
-1.30319255100699
30
0
41
1
10
71.9126553461317
20
-1.33353867510473
30
0
41
1
10
71.9124285857427
20
-1.38732627650845
30
0
41
1
10
71.9095626931017
20
-1.43384173454694
30
0
41
1
10
71.9063668529523
20
-1.47010204899979
30
0
41
1
10
71.9051268656407
20
-1.48241824389723
30
0
41
1
10
71.9022867151797
20
-1.50752701506263
30
0
41
1
10
71.9006791996029
20
-1.52037026170709
30
0
41
1
10
71.8918170535065
20
-1.5850545472573
30
0
41
1
10
71.8821329684514
20
-1.63831833655152
30
0
41
1
10
71.8669557542845
20
-1.70680058693753
30
0
41
1
10
71.8637652526877
20
-1.72059315144418
30
0
41
1
10
71.8570725401288
20
-1.7483747643015
30
0
41
1
10
71.8535573506588
20
-1.76241217586446
30
0
41
1
10
71.8426687682274
20
-1.80433380611069
30
0
41
1
10
71.8272182144094
20
-1.85984549940548
30
0
41
1
10
71.8100503379066
20
-1.91464348393436
30
0
41
1
10
71.7965623282389
20
-1.95548496478091
30
0
41
1
10
71.7919640759402
20
-1.96905586195487
30
0
41
1
10
71.7825656860903
20
-1.99611245241545
30
0
41
1
10
71.7777841615716
20
-2.00954307477224
30
0
41
1
10
71.7536536925213
20
-2.07575546807999
30
0
41
1
10
71.7334849756412
20
-2.12621489147398
30
0
41
1
10
71.7021565783273
20
-2.19845640656178
30
0
41
1
10
71.6915004452344
20
-2.22201550558373
30
0
41
1
10
71.6702658717624
20
-2.26709155492915
30
0
41
1
10
71.6490126844272
20
-2.31036014568758
30
0
41
1
10
71.6277432963322
20
-2.35019106490378
30
0
41
1
10
71.6064711287688
20
-2.38833678860198
30
0
41
1
10
71.5957942017171
20
-2.40662832019584
30
0
41
1
10
71.5747129606639
20
-2.44107208420536
30
0
41
1
10
71.564293141119
20
-2.45725906145074
30
0
41
1
10
71.5488363131999
20
-2.48003278686482
30
0
41
1
10
71.5437128766356
20
-2.48737242279012
30
0
41
1
10
71.5335225384351
20
-2.50155058027272
30
0
41
1
10
71.5284424664472
20
-2.50840631761383
30
0
41
1
10
71.5234164995699
20
-2.51497636116927
30
0
0
SPLINE
5
D6
100
AcDbEntity
8
1
62
256
6
ByLayer
370
18
48
1
60
0
100
AcDbSpline
70
4
71
3
72
13
73
9
40
0
40
0
40
0
40
0
40
0.499999999999994
40
0.499999999999994
40
0.624999999999995
40
0.624999999999995
40
0.749999999999997
40
1
40
1
40
1
40
1
41
1
10
71.2312532378582
20
-4.9024673077883
30
0
41
1
10
71.19160232244
20
-4.96135001242976
30
0
41
1
10
71.1551861421767
20
-5.0109847720218
30
0
41
1
10
71.1136938194276
20
-5.06014384462046
30
0
41
1
10
71.105576661352
20
-5.06934969133044
30
0
41
1
10
71.0898985494856
20
-5.08626666775845
30
0
41
1
10
71.0671763169899
20
-5.10945307454003
30
0
41
1
10
71.0467288551042
20
-5.12619905020358
30
0
41
1
10
71.0340187060735
20
-5.13458803786881
30
0
0
SPLINE
5
D7
100
AcDbEntity
8
1
62
256
6
ByLayer
370
18
48
1
60
0
100
AcDbSpline
70
4
71
3
72
24
73
20
40
0
40
0
40
0
40
0
40
0.124999999999981
40
0.124999999999981
40
0.249999999999962
40
0.249999999999962
40
0.312499999999952
40
0.312499999999952
40
0.374999999999942
40
0.374999999999942
40
0.437499999999933
40
0.468749999999928
40
0.468749999999928
40
0.484374999999928
40
0.484374999999928
40
0.499999999999928
40
0.749999999999964
40
0.749999999999964
40
1
40
1
40
1
40
1
41
1
10
72.4594646296756
20
-1.7416476236948
30
0
41
1
10
72.3977009442094
20
-1.85553406801583
30
0
41
1
10
72.3378242858163
20
-1.97322139202501
30
0
41
1
10
72.221393741694
20
-2.21606205868335
30
0
41
1
10
72.1648412640072
20
-2.34121744544427
30
0
41
1
10
72.0821327004288
20
-2.53455260643088
30
0
41
1
10
72.054916271709
20
-2.59993298639935
30
0
41
1
10
72.0011211747582
20
-2.73257922738964
30
0
41
1
10
71.9747427932271
20
-2.79934993029028
30
0
41
1
10
71.9230117621519
20
-2.93349166073764
30
0
41
1
10
71.8849628797588
20
-3.03461220412913
30
0
41
1
10
71.8479041313794
20
-3.13644572712042
30
0
41
1
10
71.8295265115031
20
-3.18747486349497
30
0
41
1
10
71.8234311502432
20
-3.20450736545624
30
0
41
1
10
71.8112633466917
20
-3.23856003485272
30
0
41
1
10
71.7079291583126
20
-3.52799608291139
30
0
41
1
10
71.6061828226395
20
-3.81723587299206
30
0
41
1
10
71.4171029272337
20
-4.36075043696604
30
0
41
1
10
71.3237930984443
20
-4.6320377001513
30
0
41
1
10
71.2312532378581
20
-4.9024673077889
30
0
0
SPLINE
5
D8
100
AcDbEntity
8
1
62
256
6
ByLayer
370
18
48
1
60
0
100
AcDbSpline
70
4
71
3
72
8
73
4
40
0
40
0
40
0
40
0
40
1
40
1
40
1
40
1
41
1
10
72.4594646296756
20
-1.74164762369477
30
0
41
1
10
72.6014399430132
20
-1.34442576544649
30
0
41
1
10
72.7422246211498
20
-0.946785444130626
30
0
41
1
10
72.8817944427599
20
-0.548718146870897
30
0
0
SPLINE
5
D9
100
AcDbEntity
8
1
62
256
6
ByLayer
370
18
48
1
60
0
100
AcDbSpline
70
4
71
3
72
8
73
4
40
0
40
0
40
0
40
0
40
1
40
1
40
1
40
1
41
1
10
72.88179444276
20
-0.548718146870925
30
0
41
1
10
72.9197553651
20
-0.440449743407612
30
0
41
1
10
72.9584644683073
20
-0.332596565521101
30
0
41
1
10
72.9979201134774
20
-0.225143875936908
30
0
0
SPLINE
5
DA
100
AcDbEntity
8
1
62
256
6
ByLayer
370
18
48
1
60
0
100
AcDbSpline
70
4
71
3
72
8
73
4
40
0
40
0
40
0
40
0
40
1
40
1
40
1
40
1
41
1
10
72.9979201134774
20
0.22514387593688
30
0
41
1
10
73.0006880391374
20
0.0753324546552392
30
0
41
1
10
73.0006985718733
20
-0.0747623800486963
30
0
41
1
10
72.9979201134774
20
-0.225143875936936
30
0
0
SPLINE
5
DB
100
AcDbEntity
8
1
62
256
6
ByLayer
370
18
48
1
60
0
100
AcDbSpline
70
4
71
3
72
57
73
53
40
0
40
0
40
0
40
0
40
0.0624999999999813
40
0.0624999999999813
40
0.0937499999999745
40
0.0937499999999745
40
0.124999999999968
40
0.124999999999968
40
0.187499999999954
40
0.187499999999954
40
0.249999999999941
40
0.249999999999941
40
0.281249999999931
40
0.281249999999931
40
0.296874999999926
40
0.296874999999926
40
0.312499999999921
40
0.312499999999921
40
0.374999999999895
40
0.374999999999895
40
0.437499999999869
40
0.437499999999869
40
0.453124999999867
40
0.453124999999867
40
0.468749999999865
40
0.468749999999865
40
0.499999999999867
40
0.499999999999867
40
0.562499999999872
40
0.562499999999872
40
0.593749999999877
40
0.593749999999877
40
0.609374999999879
40
0.609374999999879
40
0.624999999999882
40
0.624999999999882
40
0.687499999999896
40
0.687499999999896
40
0.718749999999903
40
0.734374999999906
40
0.734374999999906
40
0.74999999999991
40
0.74999999999991
40
0.812499999999932
40
0.812499999999932
40
0.874999999999954
40
0.874999999999954
40
0.906249999999965
40
0.906249999999965
40
0.937499999999976
40
0.937499999999976
40
1
40
1
40
1
40
1
41
1
10
72.9979201134774
20
0.225143875936851
30
0
41
1
10
72.9784132933817
20
0.168610786255528
30
0
41
1
10
72.9578638574929
20
0.112570415572264
30
0
41
1
10
72.9254795462449
20
0.0292568955719616
30
0
41
1
10
72.9144241080741
20
0.0016105357375977
30
0
41
1
10
72.8917838341288
20
-0.0534270295653698
30
0
41
1
10
72.88017360833
20
-0.080876504092771
30
0
41
1
10
72.8446949769188
20
-0.162442209222689
30
0
41
1
10
72.8204873996013
20
-0.215089168597842
30
0
41
1
10
72.7710473853975
20
-0.31693617853216
30
0
41
1
10
72.7458151066309
20
-0.366137129135922
30
0
41
1
10
72.7072109854805
20
-0.437236540609661
30
0
41
1
10
72.6942164531734
20
-0.460484612487875
30
0
41
1
10
72.6745309811527
20
-0.494649594580295
30
0
41
1
10
72.6679368362659
20
-0.505919953170178
30
0
41
1
10
72.6546826965172
20
-0.528218286169619
30
0
41
1
10
72.6480286475403
20
-0.53923528636065
30
0
41
1
10
72.6148935798322
20
-0.593213253481991
30
0
41
1
10
72.5885851316715
20
-0.633262370193677
30
0
41
1
10
72.5363719152704
20
-0.707129554740106
30
0
41
1
10
72.5104672194825
20
-0.740948923113734
30
0
41
1
10
72.4783301344746
20
-0.779131843290344
30
0
41
1
10
72.4719148578472
20
-0.786562922766763
30
0
41
1
10
72.4591081615536
20
-0.801005112078684
30
0
41
1
10
72.4527044538509
20
-0.808028694227716
30
0
41
1
10
72.4336905885894
20
-0.828284162288128
30
0
41
1
10
72.4212379929934
20
-0.840749436246114
30
0
41
1
10
72.3845185787757
20
-0.875099754539036
30
0
41
1
10
72.3608884260426
20
-0.893952538455665
30
0
41
1
10
72.3266269026416
20
-0.916183988342027
30
0
41
1
10
72.3154041301026
20
-0.922583159621411
30
0
41
1
10
72.2988590131586
20
-0.930637359897133
30
0
41
1
10
72.2933813134145
20
-0.933068580686466
30
0
41
1
10
72.2825790536096
20
-0.937386257416108
30
0
41
1
10
72.2772594177674
20
-0.93927193620101
30
0
41
1
10
72.2510543629369
20
-0.947362342346764
30
0
41
1
10
72.2313431570989
20
-0.94957050102505
30
0
41
1
10
72.2034479325327
20
-0.946795752447002
30
0
41
1
10
72.1899197581141
20
-0.943881446642848
30
0
41
1
10
72.1769939717396
20
-0.938692114816433
30
0
41
1
10
72.1685083947262
20
-0.934726017616697
30
0
41
1
10
72.1643241767082
20
-0.932485112494817
30
0
41
1
10
72.1438351730128
20
-0.92007933267206
30
0
41
1
10
72.1288138093916
20
-0.906345424269148
30
0
41
1
10
72.1011448451195
20
-0.87186836595211
30
0
41
1
10
72.0884989521551
20
-0.851121651103483
30
0
41
1
10
72.0711448922498
20
-0.814948963351782
30
0
41
1
10
72.0656205637126
20
-0.802016959783145
30
0
41
1
10
72.0551819793968
20
-0.774722443825283
30
0
41
1
10
72.0502575357454
20
-0.760344381019394
30
0
41
1
10
72.0363159194959
20
-0.715101317474875
30
0
41
1
10
72.0281270857297
20
-0.682133770970182
30
0
41
1
10
72.0209499760139
20
-0.646496032380213
30
0
0
SPLINE
5
DC
100
AcDbEntity
8
1
62
256
6
ByLayer
370
18
48
1
60
0
100
AcDbSpline
70
4
71
3
72
8
73
4
40
0
40
0
40
0
40
0
40
1
40
1
40
1
40
1
41
1
10
72.0209499760139
20
-0.646496032380213
30
0
41
1
10
71.9277037123211
20
-0.183484304606992
30
0
41
1
10
71.8079049468708
20
0.295540191515329
30
0
41
1
10
71.661215352474
20
0.790781487793254
30
0
0
SPLINE
5
DD
100
AcDbEntity
8
1
62
256
6
ByLayer
370
18
48
1
60
0
100
AcDbSpline
70
4
71
3
72
16
73
12
40
0
40
0
40
0
40
0
40
0.250000000000002
40
0.250000000000002
40
0.500000000000005
40
0.500000000000005
40
0.750000000000007
40
0.750000000000007
40
0.875000000000003
40
0.875000000000003
40
1
40
1
40
1
40
1
41
1
10
71.0606926806462
20
0.495157569382769
30
0
41
1
10
71.1104455056628
20
0.534786960853381
30
0
41
1
10
71.1604409449833
20
0.5705997753102
30
0
41
1
10
71.2607080663365
20
0.635259277200646
30
0
41
1
10
71.3109884068379
20
0.664181918716224
30
0
41
1
10
71.4115121686838
20
0.714281576544522
30
0
41
1
10
71.4617601822969
20
0.735515810352581
30
0
41
1
10
71.5368450257235
20
0.761084575276556
30
0
41
1
10
71.5618241159474
20
0.768549706578341
30
0
41
1
10
71.6116320444904
20
0.781243088160267
30
0
41
1
10
71.6364585595994
20
0.78645493753973
30
0
41
1
10
71.661215352474
20
0.790781487793254
30
0
0
SPLINE
5
DE
100
AcDbEntity
8
1
62
256
6
ByLayer
370
18
48
1
60
0
100
AcDbSpline
70
4
71
3
72
42
73
38
40
0
40
0
40
0
40
0
40
0.0170858005259085
40
0.0170858005259085
40
0.0650796564850018
40
0.0650796564850018
40
0.113073512444095
40
0.113073512444095
40
0.161067368403188
40
0.161067368403188
40
0.185064296382735
40
0.185064296382735
40
0.209061224362282
40
0.209061224362282
40
0.257055080321375
40
0.257055080321375
40
0.305048936280468
40
0.305048936280468
40
0.353042792239561
40
0.353042792239561
40
0.44903050415775
40
0.44903050415775
40
0.545018216075938
40
0.545018216075938
40
0.641005927994127
40
0.641005927994127
40
0.68899978395322
40
0.68899978395322
40
0.736993639912313
40
0.736993639912313
40
0.832981351830502
40
0.832981351830502
40
0.880975207789595
40
0.880975207789595
40
0.928969063748688
40
0.928969063748688
40
1
40
1
40
1
40
1
41
1
10
40.0051323925737
20
-5.09696843578692
30
0
41
1
10
39.9100865873751
20
-5.09854486654399
30
0
41
1
10
39.8150164532708
20
-5.09950028245421
30
0
41
1
10
39.4527502249129
20
-5.10068387541673
30
0
41
1
10
39.1852827234825
20
-5.09643368038883
30
0
41
1
10
38.6494341092157
20
-5.07778091405362
30
0
41
1
10
38.3810547422264
20
-5.06338560678364
30
0
41
1
10
37.8430362355676
20
-5.02432643007077
30
0
41
1
10
37.5733939842659
20
-4.99965375193213
30
0
41
1
10
37.167802870004
20
-4.95501440064612
30
0
41
1
10
37.0327214436684
20
-4.93889643370736
30
0
41
1
10
36.7629732805026
20
-4.9042374485868
30
0
41
1
10
36.6282699948552
20
-4.88569231219785
30
0
41
1
10
36.2246110098626
20
-4.82644642653676
30
0
41
1
10
35.9561061756891
20
-4.78213363005136
30
0
41
1
10
35.4199640978053
20
-4.68419156146157
30
0
41
1
10
35.1523388560928
20
-4.63059735902951
30
0
41
1
10
34.6177400098125
20
-4.51454629044682
30
0
41
1
10
34.3507490397056
20
-4.45202479083091
30
0
41
1
10
33.5501782410444
20
-4.25168176295321
30
0
41
1
10
33.0170004796573
20
-4.10109857892488
30
0
41
1
10
31.9494371109628
20
-3.76853600548296
30
0
41
1
10
31.4150638322345
20
-3.58650186433781
30
0
41
1
10
30.3426808226317
20
-3.19420412910054
30
0
41
1
10
29.8046579542238
20
-2.98398607622963
30
0
41
1
10
28.9928961153096
20
-2.65017304163212
30
0
41
1
10
28.7230121703922
20
-2.53643616997255
30
0
41
1
10
28.1845528912365
20
-2.30456603823026
30
0
41
1
10
27.9159574120796
20
-2.18642428446094
30
0
41
1
10
27.1114610414726
20
-1.82658107884356
30
0
41
1
10
26.5768468729104
20
-1.57947010935914
30
0
41
1
10
25.7757171357118
20
-1.20162632279116
30
0
41
1
10
25.5088069553385
20
-1.0744791879188
30
0
41
1
10
24.9750223145647
20
-0.818277087064672
30
0
41
1
10
24.7081484621724
20
-0.689221112895638
30
0
41
1
10
24.0458824267664
20
-0.367746990779608
30
0
41
1
10
23.650288375277
20
-0.174647099125878
30
0
41
1
10
23.2538728062925
20
0.018755731767925
30
0
0
SPLINE
5
DF
100
AcDbEntity
8
1
62
256
6
ByLayer
370
13
48
1
60
0
100
AcDbSpline
70
4
71
3
72
8
73
4
40
0
40
0
40
0
40
0
40
1
40
1
40
1
40
1
41
1
10
19.645169845941
20
5.16596078106232
30
0
41
1
10
19.6449104389846
20
5.12874865119386
30
0
41
1
10
19.6446493084353
20
5.09153689712528
30
0
41
1
10
19.6443864546066
20
5.05432552976112
30
0
0
SPLINE
5
E0
100
AcDbEntity
8
1
62
256
6
ByLayer
370
18
48
1
60
0
100
AcDbSpline
70
4
71
3
72
53
73
49
40
0
40
0
40
0
40
0
40
0.0090804821252834
40
0.0090804821252834
40
0.0568724919665883
40
0.0568724919665883
40
0.104664501807893
40
0.104664501807893
40
0.152456511649198
40
0.152456511649198
40
0.200248521490503
40
0.200248521490503
40
0.248040531331808
40
0.248040531331808
40
0.295832541173113
40
0.295832541173113
40
0.391416560855725
40
0.391416560855725
40
0.439208570697031
40
0.439208570697031
40
0.463104575617684
40
0.463104575617684
40
0.487000580538337
40
0.487000580538337
40
0.582584600220943
40
0.582584600220943
40
0.630376610062245
40
0.630376610062245
40
0.678168619903546
40
0.678168619903546
40
0.725960629744848
40
0.725960629744848
40
0.77375263958615
40
0.77375263958615
40
0.821544649427452
40
0.821544649427452
40
0.845440654348102
40
0.845440654348102
40
0.869336659268752
40
0.869336659268752
40
0.917128669110052
40
0.917128669110052
40
0.941024674030701
40
0.952972676491027
40
0.952972676491027
40
0.964920678951351
40
0.964920678951351
40
1
40
1
40
1
40
1
41
1
10
21.1108694656167
20
5.06335785383939
30
0
41
1
10
21.1622171553889
20
5.06454686238104
30
0
41
1
10
21.2135447530325
20
5.0655454367365
30
0
41
1
10
21.5347899269539
20
5.07061679290339
30
0
41
1
10
21.8040456118324
20
5.06968202747751
30
0
41
1
10
22.3412713142529
20
5.0583168871344
30
0
41
1
10
22.6092630192982
20
5.04781082994859
30
0
41
1
10
23.1445360002018
20
5.01644580726222
30
0
41
1
10
23.4118040190281
20
4.99563384273671
30
0
41
1
10
23.9458238737677
20
4.94422084707284
30
0
41
1
10
24.2125802308114
20
4.91360925797258
30
0
41
1
10
24.7459135880452
20
4.84272464456851
30
0
41
1
10
25.0124786050929
20
4.80246678129868
30
0
41
1
10
25.5453775583881
20
4.71304690373941
30
0
41
1
10
25.8117338726357
20
4.6638571186476
30
0
41
1
10
26.6118285791712
20
4.50172340150178
30
0
41
1
10
27.1465287313733
20
4.3742911671184
30
0
41
1
10
27.9512631344598
20
4.15745567070462
30
0
41
1
10
28.2199499616756
20
4.08089221659014
30
0
41
1
10
28.6235772669133
20
3.95993134001591
30
0
41
1
10
28.7582268132633
20
3.91858950242448
30
0
41
1
10
29.0279046868272
20
3.8338177566315
30
0
41
1
10
29.1630207517463
20
3.79035709438693
30
0
41
1
10
29.8372620597343
20
3.56860822348233
30
0
41
1
10
30.3741163542284
20
3.37650941753665
30
0
41
1
10
31.1765530152845
20
3.07064380226095
30
0
41
1
10
31.4435500419446
20
2.96571562535712
30
0
41
1
10
31.9766488851652
20
2.75024194615904
30
0
41
1
10
32.2427905537274
20
2.63972219039408
30
0
41
1
10
32.775338825544
20
2.41387902026531
30
0
41
1
10
33.0417067319674
20
2.29854268642791
30
0
41
1
10
33.5745710185422
20
2.06360289818315
30
0
41
1
10
33.841072006435
20
1.94399627605475
30
0
41
1
10
34.3742764511394
20
1.70091048923899
30
0
41
1
10
34.6409673981422
20
1.57741445794653
30
0
41
1
10
35.0410247759516
20
1.3893126911143
30
0
41
1
10
35.1744005743688
20
1.32615536354408
30
0
41
1
10
35.4414785689558
20
1.19919968771984
30
0
41
1
10
35.5751669019696
20
1.13538955918642
30
0
41
1
10
35.9766851335662
20
0.943049481385913
30
0
41
1
10
36.2449673521625
20
0.813605339385106
30
0
41
1
10
36.6483209263762
20
0.617874408681445
30
0
41
1
10
36.8502349166581
20
0.519623553599956
30
0
41
1
10
37.0525735845737
20
0.420917854305713
30
0
41
1
10
37.1875682210372
20
0.355026795201667
30
0
41
1
10
37.2550930186197
20
0.32204960831524
30
0
41
1
10
37.5205795440147
20
0.192350779176479
30
0
41
1
10
37.7182301461349
20
0.0956867852728749
30
0
41
1
10
37.9155257578136
20
-0.000886022010036
30
0
0
SPLINE
5
E1
100
AcDbEntity
8
1
62
256
6
ByLayer
370
18
48
1
60
0
100
AcDbSpline
70
4
71
3
72
8
73
4
40
0
40
0
40
0
40
0
40
1
40
1
40
1
40
1
41
1
10
70.9276238555098
20
-5.30538489934403
30
0
41
1
10
70.9630515321619
20
-5.24868207398026
30
0
41
1
10
70.9985150424806
20
-5.19174948656138
30
0
41
1
10
71.0340187060735
20
-5.13458803786878
30
0
0
SPLINE
5
E2
100
AcDbEntity
8
1
62
256
6
ByLayer
370
18
48
1
60
0
100
AcDbSpline
70
4
71
3
72
8
73
4
40
0
40
0
40
0
40
0
40
1
40
1
40
1
40
1
41
1
10
71.0393899632631
20
-5.12074036147524
30
0
41
1
10
71.0375988924889
20
-5.12535666681111
30
0
41
1
10
71.0358084719748
20
-5.1299725589472
30
0
41
1
10
71.0340187060735
20
-5.13458803786875
30
0
0
SPLINE
5
E3
100
AcDbEntity
8
1
62
256
6
ByLayer
370
18
48
1
60
0
100
AcDbSpline
70
4
71
3
72
38
73
34
40
0
40
0
40
0
40
0
40
0.105965875989905
40
0.105965875989905
40
0.21193175197981
40
0.21193175197981
40
0.264914689974763
40
0.264914689974763
40
0.291406158972238
40
0.291406158972238
40
0.317897627969713
40
0.317897627969713
40
0.423863503959611
40
0.423863503959611
40
0.47684644195456
40
0.47684644195456
40
0.503337910952034
40
0.503337910952034
40
0.529829379949508
40
0.529829379949508
40
0.635795255939397
40
0.635795255939397
40
0.741761131929286
40
0.741761131929286
40
0.794744069924231
40
0.794744069924231
40
0.847727007919176
40
0.847727007919176
40
0.900709945914121
40
0.900709945914121
40
0.953692883909066
40
0.953692883909066
40
1
40
1
40
1
40
1
41
1
10
71.039389963263
20
-5.12074036147521
30
0
41
1
10
70.5007555986181
20
-5.08855981274289
30
0
41
1
10
69.9648720372583
20
-5.0356841060522
30
0
41
1
10
68.896169948328
20
-4.89092596231575
30
0
41
1
10
68.3633525544837
20
-4.79903700433581
30
0
41
1
10
67.5646729477064
20
-4.63377789530583
30
0
41
1
10
67.2985401624223
20
-4.57411919258286
30
0
41
1
10
66.8991947289664
20
-4.47796398689368
30
0
41
1
10
66.7660504063143
20
-4.44479638467169
30
0
41
1
10
66.4997185388145
20
-4.37631420681242
30
0
41
1
10
66.3665399933479
20
-4.34101015958825
30
0
41
1
10
65.7003883913829
20
-4.1591322177353
30
0
41
1
10
65.1665090787637
20
-3.99628421996411
30
0
41
1
10
64.362564018363
20
-3.72825925757166
30
0
41
1
10
64.094064007219
20
-3.63495804124648
30
0
41
1
10
63.6902804166562
20
-3.48939008658755
30
0
41
1
10
63.5555130149986
20
-3.4399331226862
30
0
41
1
10
63.285592329704
20
-3.33918515620891
30
0
41
1
10
63.150719496126
20
-3.28799763605267
30
0
41
1
10
62.4774585120704
20
-3.02842417722741
30
0
41
1
10
61.9416135112689
20
-2.80882301643058
30
0
41
1
10
60.8729172710428
20
-2.35067130752361
30
0
41
1
10
60.340047830223
20
-2.11216780105605
30
0
41
1
10
59.5410826304706
20
-1.74386477873378
30
0
41
1
10
59.2748259373242
20
-1.61931139261932
30
0
41
1
10
58.7421783748601
20
-1.36721660508698
30
0
41
1
10
58.4757915905093
20
-1.23967362265944
30
0
41
1
10
57.9425463813185
20
-0.982220261135808
30
0
41
1
10
57.6756869179954
20
-0.85230443014126
30
0
41
1
10
57.1411520548933
20
-0.590816965234268
30
0
41
1
10
56.8734725193358
20
-0.459255409771487
30
0
41
1
10
56.3708400872014
20
-0.211617368168731
30
0
41
1
10
56.1360134705272
20
-0.0956795675359388
30
0
41
1
10
55.9006745161569
20
0.0204830009951706
30
0
0
SPLINE
5
E4
100
AcDbEntity
8
1
62
256
6
ByLayer
370
18
48
1
60
0
100
AcDbSpline
70
4
71
3
72
14
73
10
40
0
40
0
40
0
40
0
40
0.25
40
0.25
40
0.5
40
0.5
40
0.75
40
0.75
40
1
40
1
40
1
40
1
41
1
10
71.0417522754399
20
-5.10962943867102
30
0
41
1
10
71.0419158653363
20
-5.10979557568254
30
0
41
1
10
71.0420070925015
20
-5.11015744866728
30
0
41
1
10
71.042001648667
20
-5.11136090950984
30
0
41
1
10
71.0418997465274
20
-5.11220200845935
30
0
41
1
10
71.0414769784183
20
-5.1142806224565
30
0
41
1
10
71.04115023923
20
-5.11553575097309
30
0
41
1
10
71.0403475237935
20
-5.11814360178036
30
0
41
1
10
71.0398760487518
20
-5.11948752486649
30
0
41
1
10
71.0393899632621
20
-5.12074036147786
30
0
0
SPLINE
5
E5
100
AcDbEntity
8
1
62
256
6
ByLayer
370
18
48
1
60
0
100
AcDbSpline
70
4
71
3
72
53
73
49
40
0
40
0
40
0
40
0
40
0.0195379227617219
40
0.0195379227617219
40
0.0670754766702499
40
0.0670754766702499
40
0.0789598651473823
40
0.0789598651473823
40
0.0908442536245148
40
0.114613030578782
40
0.114613030578782
40
0.162150584487316
40
0.162150584487316
40
0.185919361441583
40
0.185919361441583
40
0.209688138395851
40
0.209688138395851
40
0.257225692304387
40
0.257225692304387
40
0.304763246212923
40
0.304763246212923
40
0.352300800121459
40
0.352300800121459
40
0.399838354029995
40
0.399838354029995
40
0.447375907938531
40
0.447375907938531
40
0.542451015755605
40
0.542451015755605
40
0.566219792709873
40
0.566219792709873
40
0.589988569664142
40
0.589988569664142
40
0.637526123572681
40
0.637526123572681
40
0.732601231389759
40
0.732601231389759
40
0.780138785298298
40
0.780138785298298
40
0.827676339206839
40
0.827676339206839
40
0.875213893115378
40
0.875213893115378
40
0.922751447023918
40
0.922751447023918
40
0.970289000932458
40
0.970289000932458
40
1
40
1
40
1
40
1
41
1
10
38.4585956473525
20
-0.277414957885867
30
0
41
1
10
38.3484500330504
20
-0.223585249572125
30
0
41
1
10
38.2382112454622
20
-0.169686708870444
30
0
41
1
10
37.8593874571208
20
0.0154767327064746
30
0
41
1
10
37.5902725400476
20
0.146888764871619
30
0
41
1
10
37.2529897022314
20
0.311358666459739
30
0
41
1
10
37.1854602116273
20
0.344278062564371
30
0
41
1
10
37.0504501529589
20
0.410057749960203
30
0
41
1
10
36.8480879508759
20
0.508598658249269
30
0
41
1
10
36.6461493188521
20
0.606691470522065
30
0
41
1
10
36.2427452254828
20
0.802115156896207
30
0
41
1
10
35.9744281089367
20
0.931367575389999
30
0
41
1
10
35.5728557083938
20
1.12344030510815
30
0
41
1
10
35.4391490317339
20
1.18716472285499
30
0
41
1
10
35.172034141299
20
1.31395687745365
30
0
41
1
10
35.038639061311
20
1.37703446258144
30
0
41
1
10
34.6385206092369
20
1.56489625979799
30
0
41
1
10
34.3717891951561
20
1.68824344326617
30
0
41
1
10
33.8385068280438
20
1.93106285440888
30
0
41
1
10
33.571967836858
20
2.05055041409571
30
0
41
1
10
33.0390286157363
20
2.28527872529193
30
0
41
1
10
32.7726244888712
20
2.40052425898784
30
0
41
1
10
32.2400049300894
20
2.62621571234274
30
0
41
1
10
31.9738248951524
20
2.73666742421165
30
0
41
1
10
31.4406481428009
20
2.95201848022126
30
0
41
1
10
31.1736142273538
20
3.05689761645149
30
0
41
1
10
30.3710747462592
20
3.36265704805007
30
0
41
1
10
29.8341630142442
20
3.55474039860661
30
0
41
1
10
29.1598613196946
20
3.77653881790843
30
0
41
1
10
29.024732689553
20
3.82001218875988
30
0
41
1
10
28.7550240549721
20
3.90481482013004
30
0
41
1
10
28.6203581928658
20
3.94617454972786
30
0
41
1
10
28.21668021483
20
4.06719678976705
30
0
41
1
10
27.9479590966919
20
4.14381530094332
30
0
41
1
10
27.143120788817
20
4.36085790891318
30
0
41
1
10
26.6083493960746
20
4.48848225941489
30
0
41
1
10
25.8081437129843
20
4.65097703811773
30
0
41
1
10
25.5417478621302
20
4.70029695680549
30
0
41
1
10
25.0087681290429
20
4.78999570948537
30
0
41
1
10
24.7421639581041
20
4.83040458741903
30
0
41
1
10
24.2087551985473
20
4.9016144461124
30
0
41
1
10
23.9419616766684
20
4.93239945058284
30
0
41
1
10
23.4078687121918
20
4.98417941058477
30
0
41
1
10
23.1405651187327
20
5.00518514700445
30
0
41
1
10
22.6052242981801
20
5.03695894386991
30
0
41
1
10
22.3371992642174
20
5.04767969282986
30
0
41
1
10
21.9006503140503
20
5.05727687010571
30
0
41
1
10
21.7324965283967
20
5.05911691555576
30
0
41
1
10
21.5640792210934
20
5.05899646661206
30
0
0
SPLINE
5
E6
100
AcDbEntity
8
1
62
256
6
ByLayer
370
13
48
1
60
0
100
AcDbSpline
70
4
71
3
72
48
73
44
40
0
40
0
40
0
40
0
40
0.0516278580909281
40
0.0516278580909281
40
0.0881037097028151
40
0.0881037097028151
40
0.124579561314702
40
0.124579561314702
40
0.197531264538476
40
0.197531264538476
40
0.21576919034442
40
0.21576919034442
40
0.234007116150363
40
0.270482967762251
40
0.270482967762251
40
0.343434670986025
40
0.343434670986025
40
0.379910522597912
40
0.398148448403855
40
0.398148448403855
40
0.416386374209799
40
0.416386374209799
40
0.489338077433574
40
0.489338077433574
40
0.525813929045461
40
0.525813929045461
40
0.562289780657348
40
0.562289780657348
40
0.635241483881123
40
0.635241483881123
40
0.671717335493011
40
0.671717335493011
40
0.689955261298955
40
0.689955261298955
40
0.708193187104899
40
0.708193187104899
40
0.781144890328674
40
0.854096593552449
40
0.927048296776225
40
0.927048296776225
40
0.963524148388112
40
0.963524148388112
40
1
40
1
40
1
40
1
41
1
10
19.6002566552802
20
5.05397968198912
30
0
41
1
10
19.600252577307
20
5.05261455311606
30
0
41
1
10
19.6002483798421
20
5.04803584143764
30
0
41
1
10
19.6002410447177
20
5.03466080354713
30
0
41
1
10
19.6002379525646
20
5.02747780259153
30
0
41
1
10
19.600231715221
20
5.0099086839424
30
0
41
1
10
19.6002285674592
20
4.99952277130083
30
0
41
1
10
19.6002190536483
20
4.96358745479486
30
0
41
1
10
19.600212617989
20
4.93326967123019
30
0
41
1
10
19.6002044984447
20
4.88737115566181
30
0
41
1
10
19.6002028695181
20
4.87778318550161
30
0
41
1
10
19.6001996115263
20
4.85784343685538
30
0
41
1
10
19.6001947250558
20
4.82679456543099
30
0
41
1
10
19.6001898433373
20
4.79235253644814
30
0
41
1
10
19.6001800921589
20
4.71898465214883
30
0
41
1
10
19.6001736085879
20
4.66410277834049
30
0
41
1
10
19.6001639166236
20
4.57283025219874
30
0
41
1
10
19.6001590786622
20
4.524953376757
30
0
41
1
10
19.6001542511619
20
4.47368730909758
30
0
41
1
10
19.6001510347666
20
4.43875154728437
30
0
41
1
10
19.6001494266457
20
4.42089390770136
30
0
41
1
10
19.6001414120047
20
4.32995173049287
30
0
41
1
10
19.6001350701723
20
4.25176821531915
30
0
41
1
10
19.6001256255747
20
4.12640883483323
30
0
41
1
10
19.6001224885422
20
4.08327306987997
30
0
41
1
10
19.6001162283032
20
3.99428956746863
30
0
41
1
10
19.6001131018576
20
3.9483906201034
30
0
41
1
10
19.6001037691911
20
3.807219052009
30
0
41
1
10
19.6000976007294
20
3.70835474771354
30
0
41
1
10
19.6000883524759
20
3.5529689532114
30
0
41
1
10
19.6000852703023
20
3.49999042766476
30
0
41
1
10
19.6000806368684
20
3.41873675887831
30
0
41
1
10
19.6000790892465
20
3.39132860780495
30
0
41
1
10
19.6000759974321
20
3.33607220405136
30
0
41
1
10
19.6000744531345
20
3.30822274804041
30
0
41
1
10
19.6000667345752
20
3.16788015125371
30
0
41
1
10
19.6000544043762
20
2.93633494751026
30
0
41
1
10
19.6000355581542
20
2.56854510859517
30
0
41
1
10
19.6000224631889
20
2.30973327965438
30
0
41
1
10
19.6000123183177
20
2.11041210552864
30
0
41
1
10
19.6000088825678
20
2.04310173128019
30
0
41
1
10
19.6000018797285
20
1.90670756531245
30
0
41
1
10
19.5999983233856
20
1.83783423635907
30
0
41
1
10
19.5999947072012
20
1.76839470271932
30
0
0
SPLINE
5
E7
100
AcDbEntity
8
1
62
256
6
ByLayer
370
18
48
1
60
0
100
AcDbSpline
70
4
71
3
72
41
73
37
40
0
40
0
40
0
40
0
40
0.0072222646203023
40
0.0072222646203023
40
0.102252199518566
40
0.102252199518566
40
0.149767166967696
40
0.149767166967696
40
0.197282134416827
40
0.197282134416827
40
0.292312069315086
40
0.292312069315086
40
0.339827036764216
40
0.339827036764216
40
0.387342004213345
40
0.387342004213345
40
0.482371939111604
40
0.482371939111604
40
0.577401874009864
40
0.577401874009864
40
0.672431808908123
40
0.672431808908123
40
0.719946776357251
40
0.719946776357251
40
0.76746174380638
40
0.76746174380638
40
0.814976711255509
40
0.838734194980073
40
0.838734194980073
40
0.862491678704637
40
0.862491678704637
40
0.910006646153768
40
0.910006646153768
40
0.957521613602898
40
0.957521613602898
40
1
40
1
40
1
40
1
41
1
10
22.7175387417552
20
0.290800158781309
30
0
41
1
10
22.7583361261478
20
0.270971423412533
30
0
41
1
10
22.7991226196618
20
0.251140882790821
30
0
41
1
10
23.376428716839
20
-0.0296262190514653
30
0
41
1
10
23.9111736727836
20
-0.290659692576526
30
0
41
1
10
24.7122787606171
20
-0.678841182907689
30
0
41
1
10
24.9791454648285
20
-0.807674699198998
30
0
41
1
10
25.5129162161082
20
-1.0634522428509
30
0
41
1
10
25.7798195583568
20
-1.19039749330574
30
0
41
1
10
26.5809260756737
20
-1.56767090448309
30
0
41
1
10
27.1155219043577
20
-1.81444704999043
30
0
41
1
10
27.919982645249
20
-2.17385647983016
30
0
41
1
10
28.1885650614468
20
-2.29186472134182
30
0
41
1
10
28.7269943859967
20
-2.52349112650197
30
0
41
1
10
28.9968594223409
20
-2.6371175301253
30
0
41
1
10
29.8085660873716
20
-2.97064339035302
30
0
41
1
10
30.3465602222254
20
-3.18073042975183
30
0
41
1
10
31.4188994346906
20
-3.57287762054762
30
0
41
1
10
31.9532591192778
20
-3.75489373003666
30
0
41
1
10
33.0207939905978
20
-4.08753263079851
30
0
41
1
10
33.5539567882559
20
-4.23820741961163
30
0
41
1
10
34.3545032085665
20
-4.43876896070688
30
0
41
1
10
34.6214855396548
20
-4.50137700296528
30
0
41
1
10
35.1560667284798
20
-4.61762652511132
30
0
41
1
10
35.4236827413997
20
-4.67133298584406
30
0
41
1
10
35.9597996471744
20
-4.76952857048698
30
0
41
1
10
36.3625355494861
20
-4.83620656648645
30
0
41
1
10
36.7666198093764
20
-4.89207809411971
30
0
41
1
10
37.0363497578947
20
-4.92690138242577
30
0
41
1
10
37.1714200853366
20
-4.94310456694527
30
0
41
1
10
37.5769847420065
20
-4.98801039417245
30
0
41
1
10
37.8466113266689
20
-5.01287353155263
30
0
41
1
10
38.3846029201145
20
-5.0523360545547
30
0
41
1
10
38.6529712174249
20
-5.06694413797015
30
0
41
1
10
39.1604010785009
20
-5.08503253575122
30
0
41
1
10
39.3995522442186
20
-5.0895224834066
30
0
41
1
10
39.6384449311196
20
-5.08992968348326
30
0
0
SPLINE
5
E8
100
AcDbEntity
8
1
62
256
6
ByLayer
370
18
48
1
60
0
100
AcDbSpline
70
4
71
3
72
8
73
4
40
0
40
0
40
0
40
0
40
1
40
1
40
1
40
1
41
1
10
71.0255078761611
20
-0.22916932682287
30
0
41
1
10
71.0274066122769
20
-0.229879217636181
30
0
41
1
10
71.0283841740201
20
-0.235137434078695
30
0
41
1
10
71.0276464484967
20
-0.240902625782041
30
0
0
SPLINE
5
E9
100
AcDbEntity
8
1
62
256
6
ByLayer
370
18
48
1
60
0
100
AcDbSpline
70
4
71
3
72
52
73
48
40
0
40
0
40
0
40
0
40
0.0113229598851499
40
0.0113229598851499
40
0.0597116162574197
40
0.0597116162574197
40
0.0839059444435541
40
0.0839059444435541
40
0.0960031085366205
40
0.0960031085366205
40
0.108100272629687
40
0.108100272629687
40
0.156488929001946
40
0.156488929001946
40
0.204877585374206
40
0.204877585374206
40
0.253266241746465
40
0.253266241746465
40
0.301654898118725
40
0.301654898118725
40
0.350043554490985
40
0.350043554490985
40
0.398432210863243
40
0.398432210863243
40
0.446820867235503
40
0.446820867235503
40
0.543598179980022
40
0.543598179980022
40
0.567792508166152
40
0.567792508166152
40
0.591986836352282
40
0.591986836352282
40
0.640375492724543
40
0.640375492724543
40
0.688764149096803
40
0.688764149096803
40
0.737152805469064
40
0.737152805469064
40
0.761347133655193
40
0.761347133655193
40
0.785541461841322
40
0.785541461841322
40
0.833930118213583
40
0.833930118213583
40
0.930707430958106
40
0.930707430958106
40
1
40
1
40
1
40
1
41
1
10
53.9915998506395
20
5.12257943015825
30
0
41
1
10
54.0541328038112
20
5.12366177465933
30
0
41
1
10
54.1166999274384
20
5.12444379410132
30
0
41
1
10
54.4469200624528
20
5.12677705085272
30
0
41
1
10
54.7153681153904
20
5.12270531969938
30
0
41
1
10
55.1192065665066
20
5.10857598057581
30
0
41
1
10
55.2540148052386
20
5.10252290838659
30
0
41
1
10
55.4565172306991
20
5.09148192629164
30
0
41
1
10
55.5240652301771
20
5.08747438503462
30
0
41
1
10
55.6590033999605
20
5.078832538206
30
0
41
1
10
55.7264257973762
20
5.0741963989299
30
0
41
1
10
56.0633096005409
20
5.04947833928571
30
0
41
1
10
56.3320808387958
20
5.02480243525594
30
0
41
1
10
56.8682376865046
20
4.96668602925072
30
0
41
1
10
57.1356249726543
20
4.93319716132078
30
0
41
1
10
57.6699108233713
20
4.85555775963576
30
0
41
1
10
57.9367807966919
20
4.8115176533851
30
0
41
1
10
58.4700569741107
20
4.71414842497995
30
0
41
1
10
58.7364761710916
20
4.66078081477707
30
0
41
1
10
59.2691588924395
20
4.54500502784336
30
0
41
1
10
59.5353972644785
20
4.48262436767942
30
0
41
1
10
60.067592841944
20
4.34966680548834
30
0
41
1
10
60.3336050695013
20
4.27902636689694
30
0
41
1
10
60.8664483116863
20
4.12873764757654
30
0
41
1
10
61.1332379663114
20
4.04915036777439
30
0
41
1
10
61.9348019220792
20
3.79826893957542
30
0
41
1
10
62.4707601066162
20
3.61477839827248
30
0
41
1
10
63.1431111429489
20
3.36726750849849
30
0
41
1
10
63.2777157301684
20
3.31685480919063
30
0
41
1
10
63.5473473064272
20
3.21420833911665
30
0
41
1
10
63.6820717361032
20
3.16208882938153
30
0
41
1
10
64.0856697719114
20
3.00358125328449
30
0
41
1
10
64.3541290009442
20
2.89499421609238
30
0
41
1
10
64.8900403119266
20
2.672774629289
30
0
41
1
10
65.1574869354875
20
2.55912333217702
30
0
41
1
10
65.6914564355723
20
2.32714263847302
30
0
41
1
10
65.9579706996763
20
2.20880589661044
30
0
41
1
10
66.3571466332649
20
2.02811704665322
30
0
41
1
10
66.4901270414315
20
1.96737334470052
30
0
41
1
10
66.7561241956971
20
1.84503578687836
30
0
41
1
10
66.8891280562197
20
1.7834338850665
30
0
41
1
10
67.2881784355345
20
1.5974426738029
30
0
41
1
10
67.5542652588234
20
1.47186655451341
30
0
41
1
10
68.3529247088079
20
1.09119169531513
30
0
41
1
10
68.8858927643898
20
0.832127242266296
30
0
41
1
10
69.8021765355889
20
0.381053734786065
30
0
41
1
10
70.1850092539458
20
0.190897862650417
30
0
41
1
10
70.568630686931
20
-0.0006374366869295
30
0
0
SPLINE
5
EA
100
AcDbEntity
8
1
62
256
6
ByLayer
370
18
48
1
60
0
100
AcDbSpline
70
4
71
3
72
8
73
4
40
0
40
0
40
0
40
0
40
1
40
1
40
1
40
1
41
1
10
70.9576727336479
20
-0.202531661567121
30
0
41
1
10
70.9802790753221
20
-0.211833970367564
30
0
41
1
10
71.0028879031661
20
-0.220712274316895
30
0
41
1
10
71.0255078761611
20
-0.22916932682287
30
0
0
SPLINE
5
EB
100
AcDbEntity
8
1
62
256
6
ByLayer
370
18
48
1
60
0
100
AcDbSpline
70
4
71
3
72
50
73
46
40
0
40
0
40
0
40
0
40
0.0955064212040488
40
0.0955064212040488
40
0.191012842408098
40
0.191012842408098
40
0.238766053010123
40
0.238766053010123
40
0.262642658311136
40
0.262642658311136
40
0.286519263612149
40
0.286519263612149
40
0.334272474214174
40
0.334272474214174
40
0.3820256848162
40
0.3820256848162
40
0.429778895418225
40
0.429778895418225
40
0.453655500719239
40
0.453655500719239
40
0.477532106020253
40
0.477532106020253
40
0.573038527224308
40
0.573038527224308
40
0.620791737826334
40
0.620791737826334
40
0.668544948428361
40
0.668544948428361
40
0.716298159030388
40
0.716298159030388
40
0.764051369632414
40
0.764051369632414
40
0.81180458023444
40
0.81180458023444
40
0.859557790836467
40
0.859557790836467
40
0.907311001438494
40
0.907311001438494
40
0.919249304088999
40
0.919249304088999
40
0.931187606739506
40
0.931187606739506
40
0.955064212040516
40
0.955064212040516
40
1
40
1
40
1
40
1
41
1
10
71.0276464484818
20
-0.240902625774623
30
0
41
1
10
70.4908586398126
20
0.0274974126355403
30
0
41
1
10
69.9558202339547
20
0.293697374634462
30
0
41
1
10
68.8877478305034
20
0.818607797419673
30
0
41
1
10
68.3547092792143
20
1.07731857818359
30
0
41
1
10
67.5559447103512
20
1.45754305340543
30
0
41
1
10
67.289823292353
20
1.58298329651197
30
0
41
1
10
66.8907215579928
20
1.76879215101187
30
0
41
1
10
66.7577006499746
20
1.83033682899148
30
0
41
1
10
66.4916702795877
20
1.95256910897478
30
0
41
1
10
66.3586734570658
20
2.01326377203071
30
0
41
1
10
65.9594483466176
20
2.1938066414005
30
0
41
1
10
65.6929032881765
20
2.31205667743765
30
0
41
1
10
65.1588773955299
20
2.54389548397506
30
0
41
1
10
64.8914049040443
20
2.65748993456853
30
0
41
1
10
64.355446105826
20
2.87962406444802
30
0
41
1
10
64.0869658388892
20
2.98818388014342
30
0
41
1
10
63.6833411291616
20
3.14667695386717
30
0
41
1
10
63.5486177760004
20
3.19879186642126
30
0
41
1
10
63.2789475974737
20
3.30144825583054
30
0
41
1
10
63.1443235674864
20
3.35186834937838
30
0
41
1
10
62.4718759956226
20
3.59942877360996
30
0
41
1
10
61.9358400810539
20
3.7830182387471
30
0
41
1
10
61.1341555398603
20
4.03413793675495
30
0
41
1
10
60.8673254347132
20
4.11382031376186
30
0
41
1
10
60.3344014053868
20
4.26433242369524
30
0
41
1
10
60.0683482016264
20
4.33509490863844
30
0
41
1
10
59.5360733691333
20
4.46830700971191
30
0
41
1
10
59.269797141625
20
4.53082700780405
30
0
41
1
10
58.7370414455544
20
4.64691577384045
30
0
41
1
10
58.4705870838951
20
4.70045397931204
30
0
41
1
10
57.9372433104875
20
4.79818718330949
30
0
41
1
10
57.6703412776443
20
4.8424230771794
30
0
41
1
10
57.1359953840098
20
4.92048640192951
30
0
41
1
10
56.8685782466851
20
4.95419356964138
30
0
41
1
10
56.3323661737922
20
5.01275392998676
30
0
41
1
10
56.0635710893111
20
5.03766274254167
30
0
41
1
10
55.7266625798098
20
5.06269171419862
30
0
41
1
10
55.6592354745585
20
5.06739093632876
30
0
41
1
10
55.5242883418947
20
5.07616060305938
30
0
41
1
10
55.4567364087302
20
5.08023292259486
30
0
41
1
10
55.2542080958726
20
5.091471206134
30
0
41
1
10
55.1193821559811
20
5.09765867368552
30
0
41
1
10
54.7313754791841
20
5.11162731231667
30
0
41
1
10
54.478686830126
20
5.11602430839949
30
0
41
1
10
54.2267430228324
20
5.11518477164333
30
0
0
SPLINE
5
EC
100
AcDbEntity
8
1
62
256
6
ByLayer
370
18
48
1
60
0
100
AcDbSpline
70
4
71
3
72
44
73
40
40
0
40
0
40
0
40
0
40
0.0045433624926418
40
0.0045433624926418
40
0.0173056270760686
40
0.0173056270760686
40
0.0300678916594957
40
0.0300678916594957
40
0.0811169499932081
40
0.0811169499932081
40
0.13216600832692
40
0.13216600832692
40
0.183215066660633
40
0.183215066660633
40
0.234264124994345
40
0.234264124994345
40
0.285313183328057
40
0.285313183328057
40
0.387411299995479
40
0.387411299995479
40
0.489509416662902
40
0.489509416662902
40
0.515033945829757
40
0.515033945829757
40
0.540558474996612
40
0.540558474996612
40
0.591607533330322
40
0.591607533330322
40
0.693705649997743
40
0.693705649997743
40
0.719230179164599
40
0.719230179164599
40
0.744754708331454
40
0.744754708331454
40
0.795803766665163
40
0.795803766665163
40
0.897901883332582
40
0.897901883332582
40
1
40
1
40
1
40
1
41
1
10
55.3249285093733
20
0.314981252443317
30
0
41
1
10
55.3489467086711
20
0.303174135445403
30
0
41
1
10
55.3729707358805
20
0.291361388455471
30
0
41
1
10
55.4645006607745
20
0.246346214453638
30
0
41
1
10
55.5320181811149
20
0.213121065547767
30
0
41
1
10
55.6669077536461
20
0.146716826649197
30
0
41
1
10
55.7343068574045
20
0.113524459969852
30
0
41
1
10
56.0710870944253
20
-0.0523622060559319
30
0
41
1
10
56.3398228464763
20
-0.184829838200727
30
0
41
1
10
56.8762308384421
20
-0.44862415919485
30
0
41
1
10
57.1439029381074
20
-0.579949132959342
30
0
41
1
10
57.6784236047765
20
-0.840989251044363
30
0
41
1
10
57.9452761503525
20
-0.970694708719265
30
0
41
1
10
58.4785086689197
20
-1.22775031677591
30
0
41
1
10
58.7448898669656
20
-1.35510544969344
30
0
41
1
10
59.2775253401761
20
-1.60685029459816
30
0
41
1
10
59.5437754528029
20
-1.73124184496098
30
0
41
1
10
60.3427213093977
20
-2.09909325083575
30
0
41
1
10
60.8755767685074
20
-2.3373434128253
30
0
41
1
10
61.9442289044893
20
-2.79509663765322
30
0
41
1
10
62.4800456247897
20
-3.01454923795083
30
0
41
1
10
63.1532600963202
20
-3.27400163699028
30
0
41
1
10
63.2881200288864
20
-3.3251669864687
30
0
41
1
10
63.5580271674568
20
-3.4258826048538
30
0
41
1
10
63.6927884088667
20
-3.47532729451487
30
0
41
1
10
64.0965546465892
20
-3.62087058598075
30
0
41
1
10
64.365044677561
20
-3.71417145615288
30
0
41
1
10
65.1689644422043
20
-3.98223962321148
30
0
41
1
10
65.7028329552417
20
-4.14517608389019
30
0
41
1
10
66.3689801877133
20
-4.32722867501133
30
0
41
1
10
66.5021584218264
20
-4.3625703432628
30
0
41
1
10
66.7684886463523
20
-4.43113693984159
30
0
41
1
10
66.9016316643981
20
-4.46435141448345
30
0
41
1
10
67.3009733019713
20
-4.5606566030406
30
0
41
1
10
67.5671036908259
20
-4.62042775102165
30
0
41
1
10
68.3657749818316
20
-4.78606246825214
30
0
41
1
10
68.8985854251804
20
-4.87825279590226
30
0
41
1
10
69.9672675592975
20
-5.02371465485999
30
0
41
1
10
70.5031382643752
20
-5.07699238789942
30
0
41
1
10
71.0417522765847
20
-5.10962943873852
30
0
0
SPLINE
5
ED
100
AcDbEntity
8
1
62
256
6
ByLayer
370
18
48
1
60
0
100
AcDbSpline
70
4
71
3
72
43
73
39
40
0
40
0
40
0
40
0
40
0.0625000000000003
40
0.0625000000000003
40
0.125000000000001
40
0.187500000000001
40
0.187500000000001
40
0.218750000000001
40
0.218750000000001
40
0.250000000000001
40
0.250000000000001
40
0.3125
40
0.375
40
0.4375
40
0.4375
40
0.46875
40
0.46875
40
0.5
40
0.5
40
0.562499999999999
40
0.624999999999999
40
0.687499999999999
40
0.687499999999999
40
0.703124999999999
40
0.703124999999999
40
0.718749999999999
40
0.718749999999999
40
0.749999999999999
40
0.749999999999999
40
0.812499999999999
40
0.874999999999999
40
0.874999999999999
40
0.937499999999999
40
0.937499999999999
40
0.953124999999999
40
0.953124999999999
40
0.96875
40
1
40
1
40
1
40
1
41
1
10
71.0276464484975
20
-0.240902625775931
30
0
41
1
10
71.0083603777736
20
-0.391619784639858
30
0
41
1
10
70.9915088194027
20
-0.541136892025492
30
0
41
1
10
70.9618371102305
20
-0.837768496310815
30
0
41
1
10
70.9361983075842
20
-1.13199728320703
30
0
41
1
10
70.9172331492476
20
-1.42132094042927
30
0
41
1
10
70.9050757480196
20
-1.63639969286723
30
0
41
1
10
70.9013685374537
20
-1.70777321470959
30
0
41
1
10
70.8945816987518
20
-1.84986386047976
30
0
41
1
10
70.8914978999533
20
-1.92071196624733
30
0
41
1
10
70.8831757416561
20
-2.13025193214619
30
0
41
1
10
70.8744845990788
20
-2.40274416435409
30
0
41
1
10
70.8670535104095
20
-2.7912906083975
30
0
41
1
10
70.8650958400039
20
-3.03687918573408
30
0
41
1
10
70.864584361736
20
-3.21592198103147
30
0
41
1
10
70.8645744745536
20
-3.27474359048941
30
0
41
1
10
70.8648621707869
20
-3.39063457881778
30
0
41
1
10
70.8651589515284
20
-3.44733259420849
30
0
41
1
10
70.8664815803632
20
-3.61347156062834
30
0
41
1
10
70.8693885371663
20
-3.82471113244802
30
0
41
1
10
70.8771393643964
20
-4.11138976734551
30
0
41
1
10
70.8848531737915
20
-4.28235677959555
30
0
41
1
10
70.8906609522726
20
-4.38275641711579
30
0
41
1
10
70.891872281738
20
-4.4025129855678
30
0
41
1
10
70.8944010436703
20
-4.44137295357328
30
0
41
1
10
70.8957186634062
20
-4.46047521766599
30
0
41
1
10
70.8998197036796
20
-4.51651318427193
30
0
41
1
10
70.902757312769
20
-4.55228060587714
30
0
41
1
10
70.9122485880152
20
-4.65489386520395
30
0
41
1
10
70.9267054093708
20
-4.77922544222159
30
0
41
1
10
70.9456730339134
20
-4.87903840973593
30
0
41
1
10
70.9674835829883
20
-4.96654339082934
30
0
41
1
10
70.979809296
20
-5.00414250408431
30
0
41
1
10
70.9974564995468
20
-5.04324492239945
30
0
41
1
10
71.0011014459177
20
-5.05067523400345
30
0
41
1
10
71.008610442572
20
-5.0647024122176
30
0
41
1
10
71.0202031321595
20
-5.08449755618145
30
0
41
1
10
71.0328300147241
20
-5.10056825724456
30
0
41
1
10
71.0417522755228
20
-5.109629438751
30
0
0
SPLINE
5
EE
100
AcDbEntity
8
1
62
256
6
ByLayer
370
18
48
1
60
0
100
AcDbSpline
70
4
71
3
72
56
73
52
40
0
40
0
40
0
40
0
40
0.0162667230459098
40
0.0162667230459098
40
0.0865333856854952
40
0.0865333856854952
40
0.121666717005288
40
0.121666717005288
40
0.139233382665184
40
0.139233382665184
40
0.156800048325081
40
0.156800048325081
40
0.227066710964662
40
0.227066710964662
40
0.297333373604243
40
0.297333373604243
40
0.314900039264138
40
0.314900039264138
40
0.332466704924032
40
0.332466704924032
40
0.367600036243821
40
0.367600036243821
40
0.437866698883398
40
0.437866698883398
40
0.473000030203186
40
0.473000030203186
40
0.490566695863081
40
0.490566695863081
40
0.508133361522975
40
0.578400024162548
40
0.578400024162548
40
0.613533355482334
40
0.613533355482334
40
0.64866668680212
40
0.64866668680212
40
0.666233352462014
40
0.666233352462014
40
0.683800018121907
40
0.718933349441694
40
0.718933349441694
40
0.754066680761482
40
0.754066680761482
40
0.78920001208127
40
0.78920001208127
40
0.824333343401058
40
0.824333343401058
40
0.859466674720846
40
0.859466674720846
40
0.929733337360423
40
0.929733337360423
40
1
40
1
40
1
40
1
41
1
10
42.4220886446692
20
-5.10666858885673
30
0
41
1
10
42.2980369760512
20
-5.12331823382223
30
0
41
1
10
42.1740502189654
20
-5.13886387298368
30
0
41
1
10
41.5147539150663
20
-5.215671910385
30
0
41
1
10
40.9803296108288
20
-5.25736372401894
30
0
41
1
10
40.1780524836745
20
-5.28845231589872
30
0
41
1
10
39.9105693062772
20
-5.29358372286964
30
0
41
1
10
39.5089954169185
20
-5.2933688191153
30
0
41
1
10
39.3750731017575
20
-5.29197868998494
30
0
41
1
10
39.1070579872412
20
-5.28655542769883
30
0
41
1
10
38.9729015669792
20
-5.28251942426806
30
0
41
1
10
38.3024644901103
20
-5.25575779714032
30
0
41
1
10
37.7674725915725
20
-5.213333651439
30
0
41
1
10
36.6977518925865
20
-5.08765477248176
30
0
41
1
10
36.1630401544786
20
-5.00437496693669
30
0
41
1
10
35.4930906120204
20
-4.87566519443834
30
0
41
1
10
35.3590245017896
20
-4.84869267626445
30
0
41
1
10
35.0907218845782
20
-4.79228992081767
30
0
41
1
10
34.9565589109834
20
-4.76287542315526
30
0
41
1
10
34.554458740835
20
-4.67118157364735
30
0
41
1
10
34.2867109802242
20
-4.60540747389791
30
0
41
1
10
33.4838588268582
20
-4.39477402240845
30
0
41
1
10
32.9491512375356
20
-4.23660774484489
30
0
41
1
10
32.1461139785646
20
-3.97478580902629
30
0
41
1
10
31.8782711944101
20
-3.88341555333011
30
0
41
1
10
31.4759896311603
20
-3.74054134745074
30
0
41
1
10
31.3417454552512
20
-3.69192278549633
30
0
41
1
10
31.073449726704
20
-3.5929492835094
30
0
41
1
10
30.4031452219003
20
-3.34116282925709
30
0
41
1
10
29.7344742263667
20
-3.06847384784729
30
0
41
1
10
28.93165652595
20
-2.72445329625501
30
0
41
1
10
28.6639872151989
20
-2.60697420349157
30
0
41
1
10
28.1282853018617
20
-2.36678717812398
30
0
41
1
10
27.8602453701061
20
-2.24408925140707
30
0
41
1
10
27.457573759329
20
-2.05669720930553
30
0
41
1
10
27.3233696280627
20
-1.99373022244473
30
0
41
1
10
27.0551850786142
20
-1.86697210744401
30
0
41
1
10
26.6531385284736
20
-1.67554926379452
30
0
41
1
10
26.2516034681057
20
-1.48061696081095
30
0
41
1
10
25.716370292214
20
-1.21818491149332
30
0
41
1
10
25.4488292191393
20
-1.08570395851638
30
0
41
1
10
24.9136263612877
20
-0.818737698643758
30
0
41
1
10
24.6459599334568
20
-0.684260774677512
30
0
41
1
10
24.1100992694183
20
-0.414095730349572
30
0
41
1
10
23.8418842351773
20
-0.278390161732659
30
0
41
1
10
23.3047310636881
20
-0.0063878073520982
30
0
41
1
10
23.0365611904329
20
0.129518227730216
30
0
41
1
10
22.2327923508596
20
0.536006193951522
30
0
41
1
10
21.6979143407478
20
0.805316641147414
30
0
41
1
10
20.6274353135815
20
1.3353645151995
30
0
41
1
10
20.0918331501294
20
1.59610131007338
30
0
41
1
10
19.5546251711928
20
1.85012762821188
30
0
0
SPLINE
5
EF
100
AcDbEntity
8
1
62
256
6
ByLayer
370
18
48
1
60
0
100
AcDbSpline
70
4
71
3
72
16
73
12
40
0
40
0
40
0
40
0
40
0.250000000000002
40
0.250000000000002
40
0.375
40
0.375
40
0.499999999999998
40
0.499999999999998
40
0.749999999999999
40
0.749999999999999
40
1
40
1
40
1
40
1
41
1
10
19.5546251711929
20
1.85012762821185
30
0
41
1
10
19.5463541127215
20
1.85403871407243
30
0
41
1
10
19.5388459326847
20
1.85891371908491
30
0
41
1
10
19.5286987867292
20
1.86763033076053
30
0
41
1
10
19.5254945546897
20
1.87079147487532
30
0
41
1
10
19.5196601411527
20
1.8774057343683
30
0
41
1
10
19.5170041091034
20
1.88087741489954
30
0
41
1
10
19.5098118114585
20
1.8917799955465
30
0
41
1
10
19.5060433387168
20
1.89978129182643
30
0
41
1
10
19.5010607326712
20
1.91616452290646
30
0
41
1
10
19.4997640933174
20
1.92473149108727
30
0
41
1
10
19.4997640933174
20
1.93335103889439
30
0
0
SPLINE
5
F0
100
AcDbEntity
8
1
62
256
6
ByLayer
370
18
48
1
60
0
100
AcDbSpline
70
4
71
3
72
27
73
23
40
0
40
0
40
0
40
0
40
0.124999999999882
40
0.124999999999882
40
0.187499999999847
40
0.187499999999847
40
0.249999999999813
40
0.312499999999778
40
0.312499999999778
40
0.374999999999743
40
0.374999999999743
40
0.499999999999677
40
0.499999999999677
40
0.624999999999611
40
0.624999999999611
40
0.687499999999675
40
0.687499999999675
40
0.74999999999974
40
0.74999999999974
40
0.87499999999987
40
0.87499999999987
40
1
40
1
40
1
40
1
41
1
10
19.4997640933174
20
5.18151193522712
30
0
41
1
10
19.4997640933174
20
5.18005920800621
30
0
41
1
10
19.5008531163281
20
5.17861903055686
30
0
41
1
10
19.5040695543561
20
5.17647990469183
30
0
41
1
10
19.5054218548166
20
5.17576544529061
30
0
41
1
10
19.5086127820927
20
5.17437731824333
30
0
41
1
10
19.5122831704166
20
5.17302804204726
30
0
41
1
10
19.5168910159805
20
5.17175768730772
30
0
41
1
10
19.5219800339432
20
5.17052962931223
30
0
41
1
10
19.5247633027061
20
5.1699386097028
30
0
41
1
10
19.5335994255999
20
5.16828251320072
30
0
41
1
10
19.5402223729197
20
5.16731215025075
30
0
41
1
10
19.5548545261211
20
5.16567989831481
30
0
41
1
10
19.5625889090776
20
5.16504744022569
30
0
41
1
10
19.574802702179
20
5.16437614211176
30
0
41
1
10
19.5790062628373
20
5.16419866051262
30
0
41
1
10
19.5874138066779
20
5.16394887042341
30
0
41
1
10
19.5916319750214
20
5.16387504334475
30
0
41
1
10
19.6043288507031
20
5.16380444966663
30
0
41
1
10
19.6129709681863
20
5.16396423790673
30
0
41
1
10
19.6295387291841
20
5.16467658789668
30
0
41
1
10
19.6375144450638
20
5.16522254730012
30
0
41
1
10
19.6451698459411
20
5.16596078106252
30
0
0
SPLINE
5
F1
100
AcDbEntity
8
1
62
256
6
ByLayer
370
18
48
1
60
0
100
AcDbSpline
70
4
71
3
72
122
73
118
40
0
40
0
40
0
40
0
40
0.0463832650472974
40
0.0463832650472974
40
0.0695748975709461
40
0.0695748975709461
40
0.0927665300945948
40
0.0927665300945948
40
0.115958162618244
40
0.115958162618244
40
0.139149795141892
40
0.139149795141892
40
0.162341427665541
40
0.162341427665541
40
0.173937243927366
40
0.173937243927366
40
0.185533060189191
40
0.185533060189191
40
0.231916325236491
40
0.231916325236491
40
0.255107957760141
40
0.255107957760141
40
0.278299590283791
40
0.278299590283791
40
0.289895406545616
40
0.289895406545616
40
0.30149122280744
40
0.30149122280744
40
0.324682855331089
40
0.324682855331089
40
0.347874487854739
40
0.347874487854739
40
0.371066120378388
40
0.371066120378388
40
0.382661936640213
40
0.382661936640213
40
0.394257752902038
40
0.394257752902038
40
0.417449385425689
40
0.417449385425689
40
0.44064101794934
40
0.44064101794934
40
0.452236834211166
40
0.452236834211166
40
0.463832650472992
40
0.463832650472992
40
0.487024282996645
40
0.487024282996645
40
0.498620099258472
40
0.498620099258472
40
0.510215915520298
40
0.510215915520298
40
0.533407548043951
40
0.533407548043951
40
0.556599180567604
40
0.556599180567604
40
0.579790813091257
40
0.579790813091257
40
0.591386629353084
40
0.591386629353084
40
0.60298244561491
40
0.60298244561491
40
0.614578261876737
40
0.614578261876737
40
0.626174078138563
40
0.626174078138563
40
0.649365710662216
40
0.649365710662216
40
0.660961526924042
40
0.660961526924042
40
0.672557343185868
40
0.672557343185868
40
0.684153159447694
40
0.684153159447694
40
0.69574897570952
40
0.69574897570952
40
0.718940608233173
40
0.718940608233173
40
0.730536424495
40
0.730536424495
40
0.742132240756826
40
0.742132240756826
40
0.753728057018652
40
0.753728057018652
40
0.765323873280479
40
0.765323873280479
40
0.776919689542305
40
0.776919689542305
40
0.788515505804132
40
0.788515505804132
40
0.811707138327785
40
0.811707138327785
40
0.823302954589612
40
0.823302954589612
40
0.834898770851439
40
0.834898770851439
40
0.846494587113266
40
0.846494587113266
40
0.858090403375093
40
0.858090403375093
40
0.881282035898747
40
0.881282035898747
40
0.904473668422402
40
0.904473668422402
40
0.927665300946057
40
0.927665300946057
40
0.939261117207884
40
0.939261117207884
40
0.950856933469711
40
0.950856933469711
40
0.974048565993365
40
0.974048565993365
40
0.985644382255192
40
0.985644382255192
40
0.997240198517019
40
0.997240198517019
40
1
40
1
40
1
40
1
41
1
10
19.6451698459411
20
5.16596078106252
30
0
41
1
10
20.1808946176841
20
5.21762236223955
30
0
41
1
10
20.716690983947
20
5.24808597754893
30
0
41
1
10
21.5213979270702
20
5.26248474306527
30
0
41
1
10
21.7899412918883
20
5.26205172022316
30
0
41
1
10
22.3258235634039
20
5.25068386679308
30
0
41
1
10
22.5933514666735
20
5.23974344605813
30
0
41
1
10
23.1282794876236
20
5.20750882710337
30
0
41
1
10
23.3956566540414
20
5.18622189392144
30
0
41
1
10
23.9304243517817
20
5.13340443843489
30
0
41
1
10
24.1978214802793
20
5.10187228984748
30
0
41
1
10
24.7329977920083
20
5.02870961591157
30
0
41
1
10
25.0007618223183
20
4.98707996444253
30
0
41
1
10
25.40267345896
20
4.91696037741787
30
0
41
1
10
25.5367533840941
20
4.89229740840258
30
0
41
1
10
25.8046760801551
20
4.84057754394215
30
0
41
1
10
25.9385533866037
20
4.81351626783268
30
0
41
1
10
26.6077892325244
20
4.67246074328722
30
0
41
1
10
27.142599073843
20
4.54120842579709
30
0
41
1
10
27.9447867417733
20
4.31781797851653
30
0
41
1
10
28.2121798479685
20
4.2389293670532
30
0
41
1
10
28.7469979112165
20
4.07221779550792
30
0
41
1
10
29.0144600343333
20
3.98441688870642
30
0
41
1
10
29.4165627540477
20
3.84709536026079
30
0
41
1
10
29.5506166788263
20
3.80042027759134
30
0
41
1
10
29.8185522704704
20
3.70534861667522
30
0
41
1
10
29.9524665294014
20
3.65694082073321
30
0
41
1
10
30.3540494284703
20
3.50911609687506
30
0
41
1
10
30.6215547953866
20
3.40709517601684
30
0
41
1
10
31.1562106006545
20
3.19622461154125
30
0
41
1
10
31.4233594393843
20
3.08737203361957
30
0
41
1
10
31.9574105919575
20
2.86291936421384
30
0
41
1
10
32.224364357607
20
2.74738567950766
30
0
41
1
10
32.6256397151478
20
2.57074058382926
30
0
41
1
10
32.7595263814066
20
2.51128392661431
30
0
41
1
10
33.0275296560761
20
2.39118237353739
30
0
41
1
10
33.1617100020152
20
2.33050777980463
30
0
41
1
10
33.5639580386394
20
2.14694284403493
30
0
41
1
10
33.8317835464351
20
2.02249700085667
30
0
41
1
10
34.3668558169975
20
1.7696599694201
30
0
41
1
10
34.6340889443091
20
1.64124436242133
30
0
41
1
10
35.0344645435763
20
1.44555730054674
30
0
41
1
10
35.1678640325935
20
1.379854188992
30
0
41
1
10
35.4348057591851
20
1.24799763641596
30
0
41
1
10
35.568334480686
20
1.1818191911639
30
0
41
1
10
35.9690942876488
20
0.982539107160704
30
0
41
1
10
36.2364960093829
20
0.848687980930009
30
0
41
1
10
36.637997937843
20
0.646522119491323
30
0
41
1
10
36.7719017954236
20
0.578908066095721
30
0
41
1
10
37.0399099670529
20
0.443347436705892
30
0
41
1
10
37.1739351857011
20
0.37544164023177
30
0
41
1
10
37.5756661997621
20
0.171764596533677
30
0
41
1
10
37.8432094428015
20
0.0359042924245045
30
0
41
1
10
38.3777775671828
20
-0.235897677868735
30
0
41
1
10
38.6448199214187
20
-0.371803724362195
30
0
41
1
10
39.1789069629508
20
-0.642665801649997
30
0
41
1
10
39.4459280536899
20
-0.777669407484581
30
0
41
1
10
39.8464030539787
20
-0.979570094566014
30
0
41
1
10
39.9799018815779
20
-1.04673665328593
30
0
41
1
10
40.2471973770167
20
-1.18025051483366
30
0
41
1
10
40.3809799675718
20
-1.24662558549036
30
0
41
1
10
40.6487635631105
20
-1.37871283869612
30
0
41
1
10
40.782830619507
20
-1.44445195280048
30
0
41
1
10
41.0508348949222
20
-1.5750721990658
30
0
41
1
10
41.1847574771578
20
-1.63994661525953
30
0
41
1
10
41.5863042285619
20
-1.83323676231927
30
0
41
1
10
41.8537032829477
20
-1.96032923073224
30
0
41
1
10
42.2544031093085
20
-2.1482159461157
30
0
41
1
10
42.3879022426019
20
-2.21038763069672
30
0
41
1
10
42.6547559797331
20
-2.33382471884315
30
0
41
1
10
42.7881169829144
20
-2.39507783762693
30
0
41
1
10
43.0548542534355
20
-2.51638762802111
30
0
41
1
10
43.1882323431853
20
-2.57644099794953
30
0
41
1
10
43.4551743306929
20
-2.69506061263971
30
0
41
1
10
43.5887323648942
20
-2.75363781134308
30
0
41
1
10
43.9896782190243
20
-2.92716472766048
30
0
41
1
10
44.2573314002068
20
-3.03992393196506
30
0
41
1
10
44.6593023596568
20
-3.20473921294052
30
0
41
1
10
44.7933320985138
20
-3.25893622657287
30
0
41
1
10
45.0610541056996
20
-3.36567060073173
30
0
41
1
10
45.1948055552705
20
-3.41823226298811
30
0
41
1
10
45.4620999594977
20
-3.52172247880105
30
0
41
1
10
45.5956420986707
20
-3.57265229350713
30
0
41
1
10
45.8625226478662
20
-3.67285869209511
30
0
41
1
10
45.9958685398237
20
-3.72212281462376
30
0
41
1
10
46.2625569934904
20
-3.81870754000059
30
0
41
1
10
46.3958987800551
20
-3.86602966846689
30
0
41
1
10
46.6627153028161
20
-3.95856130874881
30
0
41
1
10
46.796184137449
20
-4.00378007630712
30
0
41
1
10
47.1967517037114
20
-4.13634427396747
30
0
41
1
10
47.464009953458
20
-4.22060329263098
30
0
41
1
10
47.8652178608342
20
-4.34081960716043
30
0
41
1
10
47.9990079622432
20
-4.37986103873286
30
0
41
1
10
48.266706066542
20
-4.45586041215216
30
0
41
1
10
48.4006737304357
20
-4.49283416594287
30
0
41
1
10
48.6684387387256
20
-4.56458078455509
30
0
41
1
10
48.8021936567101
20
-4.59934308971046
30
0
41
1
10
49.0694780377295
20
-4.6666086795002
30
0
41
1
10
49.2030130672282
20
-4.69910525022141
30
0
41
1
10
49.6035090584856
20
-4.79299231079233
30
0
41
1
10
49.8703775963106
20
-4.85077727770837
30
0
41
1
10
50.4038641244421
20
-4.95675362240317
30
0
41
1
10
50.6704855260365
20
-5.00492376494176
30
0
41
1
10
51.2042842981749
20
-5.09110432702315
30
0
41
1
10
51.4714396384602
20
-5.1291430402012
30
0
41
1
10
51.872682927986
20
-5.1785825220054
30
0
41
1
10
52.0065151984687
20
-5.19379245367813
30
0
41
1
10
52.2743519824178
20
-5.22166388233387
30
0
41
1
10
52.4083319045288
20
-5.23432127980462
30
0
41
1
10
52.809771161034
20
-5.26838599102706
30
0
41
1
10
53.0769785460139
20
-5.28591687394183
30
0
41
1
10
53.4772585943093
20
-5.30436986003591
30
0
41
1
10
53.6105943627242
20
-5.30921333729589
30
0
41
1
10
53.8770898639904
20
-5.31626175089332
30
0
41
1
10
54.0102684575889
20
-5.31846094338954
30
0
41
1
10
54.1752572196743
20
-5.31953942324367
30
0
41
1
10
54.2069797658427
20
-5.3196719036541
30
0
41
1
10
54.2387064241247
20
-5.31972965332733
30
0
0
SPLINE
5
F2
100
AcDbEntity
8
1
62
256
6
ByLayer
370
18
48
1
60
0
100
AcDbSpline
70
4
71
3
72
125
73
121
40
0
40
0
40
0
40
0
40
0.0060890456382062
40
0.0060890456382062
40
0.0185665860582691
40
0.0185665860582691
40
0.043521666898395
40
0.043521666898395
40
0.0684767477385209
40
0.0684767477385209
40
0.0809542881585839
40
0.0809542881585839
40
0.0934318285786468
40
0.0934318285786468
40
0.118386909418774
40
0.118386909418774
40
0.130864449838837
40
0.130864449838837
40
0.143341990258899
40
0.143341990258899
40
0.168297071099025
40
0.168297071099025
40
0.174535841309057
40
0.174535841309057
40
0.180774611519089
40
0.180774611519089
40
0.193252151939153
40
0.193252151939153
40
0.218207232779282
40
0.218207232779282
40
0.24316231361941
40
0.24316231361941
40
0.268117394459538
40
0.268117394459538
40
0.280594934879603
40
0.280594934879603
40
0.293072475299668
40
0.293072475299668
40
0.318027556139798
40
0.318027556139798
40
0.342982636979927
40
0.342982636979927
40
0.355460177399992
40
0.355460177399992
40
0.367937717820057
40
0.367937717820057
40
0.374176488030089
40
0.374176488030089
40
0.380415258240122
40
0.392892798660186
40
0.392892798660186
40
0.405370339080251
40
0.405370339080251
40
0.417847879500315
40
0.417847879500315
40
0.442802960340444
40
0.442802960340444
40
0.467758041180572
40
0.467758041180572
40
0.492713122020701
40
0.492713122020701
40
0.517668202860829
40
0.517668202860829
40
0.542623283700957
40
0.542623283700957
40
0.555100824121022
40
0.555100824121022
40
0.561339594331053
40
0.561339594331053
40
0.567578364541085
40
0.567578364541085
40
0.59253344538121
40
0.59253344538121
40
0.617488526221335
40
0.617488526221335
40
0.629966066641398
40
0.629966066641398
40
0.64244360706146
40
0.64244360706146
40
0.667398687901585
40
0.667398687901585
40
0.679876228321648
40
0.679876228321648
40
0.692353768741711
40
0.692353768741711
40
0.717308849581837
40
0.717308849581837
40
0.742263930421963
40
0.742263930421963
40
0.754741470842025
40
0.754741470842025
40
0.760980241052056
40
0.760980241052056
40
0.767219011262088
40
0.767219011262088
40
0.792174092102212
40
0.792174092102212
40
0.817129172942336
40
0.817129172942336
40
0.829606713362399
40
0.829606713362399
40
0.842084253782461
40
0.842084253782461
40
0.891994415462709
40
0.891994415462709
40
0.904471955882771
40
0.904471955882771
40
0.916949496302832
40
0.916949496302832
40
0.941904577142955
40
0.941904577142955
40
0.948143347352985
40
0.948143347352985
40
0.954382117563016
40
0.954382117563016
40
0.966859657983076
40
0.966859657983076
40
0.991814738823198
40
0.991814738823198
40
1
40
1
40
1
40
1
41
1
10
23.1666292159657
20
5.2637992172051
30
0
41
1
10
23.248679437389
20
5.26394670714217
30
0
41
1
10
23.3306706834314
20
5.26359864814717
30
0
41
1
10
23.5805293685244
20
5.26103290453122
30
0
41
1
10
23.7482473007174
20
5.25723961089733
30
0
41
1
10
24.2508560238613
20
5.23971941456176
30
0
41
1
10
24.585180625239
20
5.21984802452289
30
0
41
1
10
25.2528688265389
20
5.16399908730224
30
0
41
1
10
25.5862216229149
20
5.12801492790891
30
0
41
1
10
26.0859780871672
20
5.06216138627829
30
0
41
1
10
26.2525381969581
20
5.03824064744629
30
0
41
1
10
26.5857403491755
20
4.9865485013402
30
0
41
1
10
26.7523685979748
20
4.95877010463482
30
0
41
1
10
27.2523771699661
20
4.86966536019284
30
0
41
1
10
27.5858944084387
20
4.80257753491153
30
0
41
1
10
28.0868450568531
20
4.69064693878718
30
0
41
1
10
28.2539389768109
20
4.65145128649985
30
0
41
1
10
28.5884245244218
20
4.56933190944554
30
0
41
1
10
28.7558079158585
20
4.52639829496511
30
0
41
1
10
29.2586461355002
20
4.39221363336071
30
0
41
1
10
29.5948044116059
20
4.29561156255218
30
0
41
1
10
30.016380990739
20
4.16602382787531
30
0
41
1
10
30.1007668259848
20
4.13966599840671
30
0
41
1
10
30.2696886208571
20
4.08607567783255
30
0
41
1
10
30.354145245076
20
4.05886793759765
30
0
41
1
10
30.607185525892
20
3.97613422753153
30
0
41
1
10
30.7755752708874
20
3.9194556394346
30
0
41
1
10
31.2799336604115
20
3.74501819491567
30
0
41
1
10
31.6150545048802
20
3.62279569399536
30
0
41
1
10
32.2841675204074
20
3.36827009688557
30
0
41
1
10
32.6180864254547
20
3.23586515340577
30
0
41
1
10
33.2850921696479
20
2.9615530495943
30
0
41
1
10
33.6181911561303
20
2.81966396096516
30
0
41
1
10
34.1176436344613
20
2.60042128626714
30
0
41
1
10
34.2840881400579
20
2.52625910910072
30
0
41
1
10
34.6170754037597
20
2.37608367661849
30
0
41
1
10
34.7836234440977
20
2.300080984717
30
0
41
1
10
35.2834806905889
20
2.06942095825554
30
0
41
1
10
35.6169807545568
20
1.91207064095226
30
0
41
1
10
36.285036543281
20
1.59114270779259
30
0
41
1
10
36.6195828316141
20
1.42754558907586
30
0
41
1
10
37.1226517041305
20
1.17827434824454
30
0
41
1
10
37.2905679144555
20
1.09457474400219
30
0
41
1
10
37.6269905833774
20
0.926225396758241
30
0
41
1
10
37.7954838044733
20
0.841549014456831
30
0
41
1
10
38.0486735380847
20
0.713823677224354
30
0
41
1
10
38.1331269804734
20
0.671141028214862
30
0
41
1
10
38.3017820415584
20
0.585768240970935
30
0
41
1
10
38.5545383489258
20
0.457621454983041
30
0
41
1
10
38.8066563016569
20
0.329292019925248
30
0
41
1
10
39.1423166539125
20
0.15816380098363
30
0
41
1
10
39.3098962226539
20
0.0725840993077611
30
0
41
1
10
39.6446323613899
20
-0.0984498338714843
30
0
41
1
10
39.8117802146333
20
-0.183921616456359
30
0
41
1
10
40.3128321013026
20
-0.439659833745822
30
0
41
1
10
40.6463523122515
20
-0.609236773611912
30
0
41
1
10
41.3127093410026
20
-0.945905698770503
30
0
41
1
10
41.6455692381915
20
-1.11295030130663
30
0
41
1
10
42.3111793158621
20
-1.44342044360238
30
0
41
1
10
42.6438876081208
20
-1.6069232834532
30
0
41
1
10
43.3101894906717
20
-1.92838032700513
30
0
41
1
10
43.6437180959597
20
-2.08646279124449
30
0
41
1
10
44.3119744334327
20
-2.39646991801916
30
0
41
1
10
44.6467146909525
20
-2.54837058567057
30
0
41
1
10
45.1501683830912
20
-2.77073494967414
30
0
41
1
10
45.31820362013
20
-2.84395325595506
30
0
41
1
10
45.5707129245006
20
-2.95218476461579
30
0
41
1
10
45.6549598722581
20
-2.98799408302042
30
0
41
1
10
45.8236154770815
20
-3.05906304645569
30
0
41
1
10
45.9080351565378
20
-3.09432743626334
30
0
41
1
10
46.3295100644528
20
-3.26883126758321
30
0
41
1
10
46.6655015709131
20
-3.40299198760204
30
0
41
1
10
47.3356688730177
20
-3.65976443173918
30
0
41
1
10
47.6698352556385
20
-3.78238850020568
30
0
41
1
10
48.1701712083198
20
-3.95709861558578
30
0
41
1
10
48.3368163514396
20
-4.01377120736305
30
0
41
1
10
48.6699729184183
20
-4.12383319159869
30
0
41
1
10
48.8364721502136
20
-4.17723965253265
30
0
41
1
10
49.3357840498545
20
-4.33254000108317
30
0
41
1
10
49.6684234580603
20
-4.42949890941239
30
0
41
1
10
50.1674348444816
20
-4.56460953130122
30
0
41
1
10
50.3337787041729
20
-4.60792684918536
30
0
41
1
10
50.6665540648539
20
-4.69103465341843
30
0
41
1
10
50.8329774128432
20
-4.73083177218013
30
0
41
1
10
51.3326062728372
20
-4.84470163173208
30
0
41
1
10
51.6661959872305
20
-4.91324193706154
30
0
41
1
10
52.3347442700382
20
-5.03517729596112
30
0
41
1
10
52.6697235099865
20
-5.08855269350261
30
0
41
1
10
53.1736671195077
20
-5.156760038177
30
0
41
1
10
53.3418930251296
20
-5.17751973298999
30
0
41
1
10
53.5946688253561
20
-5.20562562407389
30
0
41
1
10
53.6790223022507
20
-5.21449003817696
30
0
41
1
10
53.8474947921549
20
-5.23115121177
30
0
41
1
10
53.9316617653795
20
-5.23895445720524
30
0
41
1
10
54.352171572753
20
-5.27534460613128
30
0
41
1
10
54.687512997848
20
-5.29606752497526
30
0
41
1
10
55.3565393483547
20
-5.32091731584057
30
0
41
1
10
55.6902356131624
20
-5.32503928638926
30
0
41
1
10
56.1899684466585
20
-5.31884618330341
30
0
41
1
10
56.356403705987
20
-5.31471684062905
30
0
41
1
10
56.6891568348686
20
-5.30235818554098
30
0
41
1
10
56.8554821650887
20
-5.29413198655908
30
0
41
1
10
57.6869621971198
20
-5.24283399430419
30
0
41
1
10
58.3515600424325
20
-5.16924678460902
30
0
41
1
10
59.1843336561078
20
-5.03733717222295
30
0
41
1
10
59.3510051135765
20
-5.00896595424047
30
0
41
1
10
59.6847302231584
20
-4.94833254235385
30
0
41
1
10
59.8517716954704
20
-4.91606335467944
30
0
41
1
10
60.3534874081209
20
-4.81340645420229
30
0
41
1
10
60.6887629762771
20
-4.7371770052614
30
0
41
1
10
61.1092131471432
20
-4.63227649511381
30
0
41
1
10
61.1933709593013
20
-4.61081557662877
30
0
41
1
10
61.361830628994
20
-4.56693414283464
30
0
41
1
10
61.4461491752015
20
-4.5445081532616
30
0
41
1
10
61.6987165214275
20
-4.47597077572317
30
0
41
1
10
61.8667695409952
20
-4.42853667435162
30
0
41
1
10
62.3701996778263
20
-4.28133056550834
30
0
41
1
10
62.7048831015888
20
-4.17670530721315
30
0
41
1
10
63.148366413945
20
-4.02960828492633
30
0
41
1
10
63.2578242231767
20
-3.99261864724684
30
0
41
1
10
63.3672143487428
20
-3.95498489967943
30
0
0
SPLINE
5
F3
100
AcDbEntity
8
1
62
256
6
ByLayer
370
18
48
1
60
0
100
AcDbSpline
70
4
71
3
72
109
73
105
40
0
40
0
40
0
40
0
40
0.0011187394821465
40
0.0011187394821465
40
0.0210963646925023
40
0.0210963646925023
40
0.0410739899028582
40
0.0410739899028582
40
0.0610516151132141
40
0.0610516151132141
40
0.0810292403235698
40
0.0810292403235698
40
0.101006865533926
40
0.101006865533926
40
0.120984490744281
40
0.120984490744281
40
0.140962115954637
40
0.140962115954637
40
0.160939741164993
40
0.180917366375349
40
0.180917366375349
40
0.190906178980527
40
0.190906178980527
40
0.200894991585706
40
0.200894991585706
40
0.240850242006421
40
0.240850242006421
40
0.260827867216779
40
0.260827867216779
40
0.280805492427137
40
0.280805492427137
40
0.320760742847853
40
0.320760742847853
40
0.330749555453032
40
0.330749555453032
40
0.340738368058211
40
0.36071599326857
40
0.36071599326857
40
0.380693618478928
40
0.380693618478928
40
0.390682431084107
40
0.390682431084107
40
0.400671243689287
40
0.400671243689287
40
0.440626494110003
40
0.440626494110003
40
0.450615306715182
40
0.450615306715182
40
0.460604119320361
40
0.460604119320361
40
0.480581744530719
40
0.480581744530719
40
0.490570557135898
40
0.490570557135898
40
0.500559369741078
40
0.510548182346257
40
0.510548182346257
40
0.520536994951436
40
0.520536994951436
40
0.560492245372154
40
0.560492245372154
40
0.580469870582512
40
0.580469870582512
40
0.60044749579287
40
0.60044749579287
40
0.61043630839805
40
0.61043630839805
40
0.620425121003229
40
0.620425121003229
40
0.640402746213586
40
0.660380371423944
40
0.670369184029123
40
0.670369184029123
40
0.680357996634301
40
0.680357996634301
40
0.700335621844658
40
0.700335621844658
40
0.720313247055015
40
0.720313247055015
40
0.740290872265371
40
0.740290872265371
40
0.760268497475728
40
0.760268497475728
40
0.780246122686085
40
0.780246122686085
40
0.800223747896441
40
0.800223747896441
40
0.810212560501619
40
0.810212560501619
40
0.820201373106798
40
0.840178998317154
40
0.860156623527509
40
0.860156623527509
40
0.880134248737865
40
0.880134248737865
40
0.900111873948221
40
0.900111873948221
40
0.920089499158577
40
0.920089499158577
40
0.940067124368933
40
0.940067124368933
40
0.960044749579288
40
0.960044749579288
40
1
40
1
40
1
40
1
41
1
10
30.7273172388574
20
3.92772792696485
30
0
41
1
10
30.7423500090896
20
3.93284074031908
30
0
41
1
10
30.7573829235939
20
3.93794137225493
30
0
41
1
10
31.0408657693509
20
4.03389494264377
30
0
41
1
10
31.309391014375
20
4.12086789546311
30
0
41
1
10
31.8462157717854
20
4.28639917379732
30
0
41
1
10
32.1146452995914
20
4.36499888065961
30
0
41
1
10
32.6515547303787
20
4.51338354620728
30
0
41
1
10
32.9198977389571
20
4.58313182062344
30
0
41
1
10
33.4567007057417
20
4.71339932821442
30
0
41
1
10
33.7251822299397
20
4.77391875775322
30
0
41
1
10
34.26190196224
20
4.88529650321965
30
0
41
1
10
34.5302379219596
20
4.93617856175561
30
0
41
1
10
35.067098572192
20
5.02805466222136
30
0
41
1
10
35.3354982157636
20
5.06902554432526
30
0
41
1
10
35.8722833219649
20
5.14078498844319
30
0
41
1
10
36.1407398944849
20
5.1715783750679
30
0
41
1
10
36.6771460415234
20
5.22274807844082
30
0
41
1
10
37.2131685048749
20
5.26352565947957
30
0
41
1
10
37.7490479831761
20
5.28337951510576
30
0
41
1
10
38.1511484494332
20
5.2903738514531
30
0
41
1
10
38.2852138560788
20
5.29138934597711
30
0
41
1
10
38.5534503554946
20
5.29078122284267
30
0
41
1
10
38.6876579397319
20
5.28915622403406
30
0
41
1
10
39.3582620789715
20
5.27444120715992
30
0
41
1
10
39.8938322654186
20
5.24158822984467
30
0
41
1
10
40.6977610055751
20
5.16121753691689
30
0
41
1
10
40.9658586889047
20
5.12924154567105
30
0
41
1
10
41.5024545157981
20
5.05504397323139
30
0
41
1
10
41.7704824148459
20
5.01288869386929
30
0
41
1
10
42.5742584806404
20
4.87161003018517
30
0
41
1
10
43.1097022894989
20
4.75767231629123
30
0
41
1
10
43.78013155349
20
4.59180264820324
30
0
41
1
10
43.9142806075884
20
4.55745424721368
30
0
41
1
10
44.1823819393992
20
4.48654474024735
30
0
41
1
10
44.5843700819214
20
4.37682989016855
30
0
41
1
10
44.9860574893323
20
4.25728063041652
30
0
41
1
10
45.5217088214896
20
4.0895336528493
30
0
41
1
10
45.7895690708656
20
4.00148724526727
30
0
41
1
10
46.1916472683002
20
3.86344007767937
30
0
41
1
10
46.3257608145696
20
3.81641401293049
30
0
41
1
10
46.5939270928307
20
3.72049018757798
30
0
41
1
10
46.7279465256487
20
3.67160502589042
30
0
41
1
10
47.3978292392758
20
3.42271845498203
30
0
41
1
10
47.9330554652053
20
3.20933902385039
30
0
41
1
10
48.6028946039256
20
2.92730461904057
30
0
41
1
10
48.7369022019505
20
2.87013164503333
30
0
41
1
10
49.0050378232417
20
2.75431681744013
30
0
41
1
10
49.1391314073705
20
2.69568955394894
30
0
41
1
10
49.5412758819374
20
2.5178725147953
30
0
41
1
10
49.8092985853602
20
2.39670100850972
30
0
41
1
10
50.211468852709
20
2.21142813705487
30
0
41
1
10
50.3455552207998
20
2.1490811456014
30
0
41
1
10
50.6136386764214
20
2.02336881579382
30
0
41
1
10
50.8816756453021
20
1.89661843941178
30
0
41
1
10
51.1497003117774
20
1.76793842025475
30
0
41
1
10
51.4177601374194
20
1.63836878156153
30
0
41
1
10
51.5518390538475
20
1.57312368376412
30
0
41
1
10
52.221862480022
20
1.24514351371695
30
0
41
1
10
52.7569083614466
20
0.977042755028407
30
0
41
1
10
53.560053688197
20
0.57023280772691
30
0
41
1
10
53.8278648727994
20
0.433853419981091
30
0
41
1
10
54.3640114755099
20
0.160185200385399
30
0
41
1
10
54.6319528768377
20
0.0230954715713949
30
0
41
1
10
55.0338975214325
20
-0.182445433967473
30
0
41
1
10
55.1678851930393
20
-0.250943546255826
30
0
41
1
10
55.43591397198
20
-0.387828136612399
30
0
41
1
10
55.5699249235936
20
-0.45619912569191
30
0
41
1
10
55.9717166523006
20
-0.660827834538054
30
0
41
1
10
56.5070232466322
20
-0.932489344432383
30
0
41
1
10
57.1759406097322
20
-1.26753423945095
30
0
41
1
10
57.577557577439
20
-1.4658211270592
30
0
41
1
10
57.8454035306237
20
-1.59732264421862
30
0
41
1
10
57.9794097409566
20
-1.66274431950137
30
0
41
1
10
58.3813202989275
20
-1.85769504348144
30
0
41
1
10
58.6491500954089
20
-1.98592699971687
30
0
41
1
10
59.1849350779072
20
-2.23828910950482
30
0
41
1
10
59.452926978722
20
-2.36243366243397
30
0
41
1
10
59.9886821780229
20
-2.60568717227844
30
0
41
1
10
60.2565290989047
20
-2.72483718479555
30
0
41
1
10
60.7924713340011
20
-2.95765378891812
30
0
41
1
10
61.0603126551924
20
-3.07120913453929
30
0
41
1
10
61.5960230351185
20
-3.29208360745423
30
0
41
1
10
61.8639841694909
20
-3.39943721312977
30
0
41
1
10
62.3996851260594
20
-3.60717045056387
30
0
41
1
10
62.6674515092622
20
-3.70756462292627
30
0
41
1
10
63.0692206699168
20
-3.85258875651417
30
0
41
1
10
63.2031791573876
20
-3.90000691154719
30
0
41
1
10
63.4709175501629
20
-3.99283671176571
30
0
41
1
10
63.8723501409941
20
-4.12910610608841
30
0
41
1
10
64.5408551587954
20
-4.34094439680374
30
0
41
1
10
65.0757790198624
20
-4.49328445899792
30
0
41
1
10
65.611113582896
20
-4.6366627234423
30
0
41
1
10
65.879049395489
20
-4.70387717876949
30
0
41
1
10
66.4146034674899
20
-4.82876667628733
30
0
41
1
10
66.6823418338198
20
-4.88648132861383
30
0
41
1
10
67.2180458458681
20
-4.99218595372264
30
0
41
1
10
67.4857651939234
20
-5.04012620052879
30
0
41
1
10
68.0212063994324
20
-5.12594874729555
30
0
41
1
10
68.2890252329997
20
-5.16384166419277
30
0
41
1
10
68.8244463156913
20
-5.22928654691646
30
0
41
1
10
69.0920725431763
20
-5.25684590281864
30
0
41
1
10
69.8952217811316
20
-5.32381641699601
30
0
41
1
10
70.4307274768323
20
-5.34744589637941
30
0
41
1
10
70.966153635843
20
-5.34977309327368
30
0
0
SPLINE
5
F4
100
AcDbEntity
8
1
62
256
6
ByLayer
370
18
48
1
60
0
100
AcDbSpline
70
4
71
3
72
10
73
6
40
0
40
0
40
0
40
0
40
0.5
40
0.5
40
1
40
1
40
1
40
1
41
1
10
70.9276238555093
20
-5.30538489934636
30
0
41
1
10
70.9340284725002
20
-5.31959535546159
30
0
41
1
10
70.9404380131689
20
-5.33040734229829
30
0
41
1
10
70.9532865375951
20
-5.34522158097053
30
0
41
1
10
70.9597293369
20
-5.34921438276399
30
0
41
1
10
70.9661536358418
20
-5.34977309327365
30
0
0
SPLINE
5
F5
100
AcDbEntity
8
1
62
256
6
ByLayer
370
18
48
1
60
0
100
AcDbSpline
70
4
71
3
72
77
73
73
40
0
40
0
40
0
40
0
40
0.0512400077837765
40
0.0512400077837765
40
0.102480015567553
40
0.102480015567553
40
0.128100019459441
40
0.128100019459441
40
0.153720023351328
40
0.153720023351328
40
0.166530025297272
40
0.166530025297272
40
0.179340027243216
40
0.179340027243216
40
0.204960031135104
40
0.204960031135104
40
0.256200038918878
40
0.256200038918878
40
0.281820042810765
40
0.281820042810765
40
0.294630044756708
40
0.294630044756708
40
0.307440046702651
40
0.307440046702651
40
0.358680054486426
40
0.358680054486426
40
0.4099200622702
40
0.4099200622702
40
0.422730064216143
40
0.422730064216143
40
0.435540066162086
40
0.435540066162086
40
0.461160070053973
40
0.461160070053973
40
0.512400077837745
40
0.512400077837745
40
0.525210079783687
40
0.525210079783687
40
0.53802008172963
40
0.53802008172963
40
0.563640085621515
40
0.563640085621515
40
0.614880093405284
40
0.614880093405284
40
0.640500097297168
40
0.653310099243111
40
0.653310099243111
40
0.666120101189054
40
0.666120101189054
40
0.717360108972824
40
0.717360108972824
40
0.768600116756594
40
0.768600116756594
40
0.781410118702537
40
0.781410118702537
40
0.79422012064848
40
0.79422012064848
40
0.819840124540364
40
0.819840124540364
40
0.871080132324133
40
0.871080132324133
40
0.896700136216018
40
0.896700136216018
40
0.90951013816196
40
0.90951013816196
40
0.922320140107902
40
0.922320140107902
40
0.973560147891673
40
0.973560147891673
40
0.999180151783559
40
0.999180151783559
40
1
40
1
40
1
40
1
41
1
10
70.9276238555119
20
-5.30538489934571
30
0
41
1
10
70.3928666973085
20
-5.26898703086795
30
0
41
1
10
69.8583346343229
20
-5.21154126013059
30
0
41
1
10
68.7873894118903
20
-5.05565823042085
30
0
41
1
10
68.2534113649525
20
-4.95757285640852
30
0
41
1
10
67.4528283336094
20
-4.78183234375936
30
0
41
1
10
67.1860269520865
20
-4.71848477337571
30
0
41
1
10
66.6521471387966
20
-4.58261794580415
30
0
41
1
10
66.3851288835348
20
-4.51004129251263
30
0
41
1
10
65.984202135122
20
-4.39446207766588
30
0
41
1
10
65.8504842654258
20
-4.35482696532026
30
0
41
1
10
65.5828616863581
20
-4.2733738707187
30
0
41
1
10
65.4489177678856
20
-4.23154242857834
30
0
41
1
10
65.0475077946877
20
-4.10307478110965
30
0
41
1
10
64.7802377442841
20
-4.01339863119202
30
0
41
1
10
63.978977893493
20
-3.73293252779246
30
0
41
1
10
63.4455088375884
20
-3.5307353698457
30
0
41
1
10
62.6443032323758
20
-3.20761837911721
30
0
41
1
10
62.3770757945423
20
-3.09659874882567
30
0
41
1
10
61.9757571522337
20
-2.92545319258903
30
0
41
1
10
61.8418773865715
20
-2.86762358157125
30
0
41
1
10
61.5740337686771
20
-2.75053786372834
30
0
41
1
10
61.4402075810922
20
-2.69134229684551
30
0
41
1
10
60.7714523535537
20
-2.3922854234244
30
0
41
1
10
60.2376219168998
20
-2.14323202847706
30
0
41
1
10
59.1695757464616
20
-1.63049889384709
30
0
41
1
10
58.6354343546912
20
-1.36668527390606
30
0
41
1
10
57.9659816761449
20
-1.03059876636522
30
0
41
1
10
57.831981356896
20
-0.96305925728737
30
0
41
1
10
57.5642702441366
20
-0.827707695444701
30
0
41
1
10
57.4304958857557
20
-0.759863890925431
30
0
41
1
10
57.0293443128376
20
-0.555969917904577
30
0
41
1
10
56.7621418519791
20
-0.41955081952699
30
0
41
1
10
55.9608047507575
20
-0.0096595504704169
30
0
41
1
10
55.4269350385048
20
0.264436145035091
30
0
41
1
10
54.7584150084216
20
0.604905689746516
30
0
41
1
10
54.6246518418218
20
0.672892061470407
30
0
41
1
10
54.3569624171661
20
0.80856181517413
30
0
41
1
10
54.2229910912721
20
0.876267853934991
30
0
41
1
10
53.8210719413094
20
1.0786393138446
30
0
41
1
10
53.5534777666533
20
1.21235238691406
30
0
41
1
10
52.7513095509923
20
1.60907679469651
30
0
41
1
10
52.2173736698833
20
1.86771401362262
30
0
41
1
10
51.4156942695519
20
2.24314570375233
30
0
41
1
10
51.0146629482001
20
2.42773607520399
30
0
41
1
10
50.6129826993576
20
2.60697988961783
30
0
41
1
10
50.3450108682584
20
2.72521365233618
30
0
41
1
10
50.2109391145558
20
2.78369576780136
30
0
41
1
10
49.5413180936878
20
3.07222089801908
30
0
41
1
10
49.0069695079863
20
3.29110047603473
30
0
41
1
10
47.9381892518001
20
3.70081126956632
30
0
41
1
10
47.4037514944354
20
3.89163892394606
30
0
41
1
10
46.7340126268836
20
4.11030338722256
30
0
41
1
10
46.5999249494489
20
4.15306326504924
30
0
41
1
10
46.3318518239897
20
4.23648415272442
30
0
41
1
10
46.1979166823006
20
4.27712646882949
30
0
41
1
10
45.796316364218
20
4.39574237161935
30
0
41
1
10
45.5288629662827
20
4.47041332271473
30
0
41
1
10
44.7268383859193
20
4.68073442581149
30
0
41
1
10
44.1925891244952
20
4.80267193301938
30
0
41
1
10
43.3898582961931
20
4.95642474343563
30
0
41
1
10
43.1220936463674
20
5.0028476849005
30
0
41
1
10
42.7199199393557
20
5.06501691421224
30
0
41
1
10
42.5858068378978
20
5.08448508875233
30
0
41
1
10
42.3178539129794
20
5.12082652801854
30
0
41
1
10
42.1839544582817
20
5.13771002883297
30
0
41
1
10
41.5147539150663
20
5.215671910385
30
0
41
1
10
40.9803296108287
20
5.25736372401894
30
0
41
1
10
40.1780524836744
20
5.28845231589872
30
0
41
1
10
39.9105693062771
20
5.29358372286964
30
0
41
1
10
39.6342863858421
20
5.29343586904142
30
0
41
1
10
39.6257191280551
20
5.29342588372245
30
0
41
1
10
39.6171516012005
20
5.29341049695481
30
0
0
SPLINE
5
F6
100
AcDbEntity
8
1
62
256
6
ByLayer
370
18
48
1
60
0
100
AcDbSpline
70
4
71
3
72
27
73
23
40
0
40
0
40
0
40
0
40
0.124999999999925
40
0.124999999999925
40
0.187499999999889
40
0.187499999999889
40
0.249999999999852
40
0.312499999999816
40
0.312499999999816
40
0.374999999999779
40
0.374999999999779
40
0.499999999999706
40
0.499999999999706
40
0.624999999999633
40
0.624999999999633
40
0.687499999999694
40
0.687499999999694
40
0.749999999999755
40
0.749999999999755
40
0.874999999999878
40
0.874999999999878
40
1
40
1
40
1
40
1
41
1
10
19.4997640933174
20
-5.18151193522712
30
0
41
1
10
19.4997640933174
20
-5.18005920800621
30
0
41
1
10
19.5008531163281
20
-5.17861903055683
30
0
41
1
10
19.5040695543561
20
-5.1764799046918
30
0
41
1
10
19.5054218548167
20
-5.17576544529058
30
0
41
1
10
19.5086127820928
20
-5.17437731824333
30
0
41
1
10
19.512283170417
20
-5.17302804204726
30
0
41
1
10
19.5168910159806
20
-5.17175768730769
30
0
41
1
10
19.5219800339433
20
-5.1705296293122
30
0
41
1
10
19.5247633027062
20
-5.16993860970277
30
0
41
1
10
19.5335994256
20
-5.16828251320069
30
0
41
1
10
19.5402223729198
20
-5.16731215025072
30
0
41
1
10
19.5548545261212
20
-5.16567989831481
30
0
41
1
10
19.5625889090777
20
-5.16504744022569
30
0
41
1
10
19.5748027021791
20
-5.16437614211176
30
0
41
1
10
19.5790062628374
20
-5.16419866051262
30
0
41
1
10
19.587413806678
20
-5.16394887042341
30
0
41
1
10
19.5916319750215
20
-5.16387504334475
30
0
41
1
10
19.6043288507031
20
-5.16380444966666
30
0
41
1
10
19.6129709681863
20
-5.16396423790673
30
0
41
1
10
19.6295387291841
20
-5.16467658789668
30
0
41
1
10
19.6375144450638
20
-5.16522254730012
30
0
41
1
10
19.6451698459411
20
-5.16596078106252
30
0
0
SPLINE
5
F7
100
AcDbEntity
8
1
62
256
6
ByLayer
370
18
48
1
60
0
100
AcDbSpline
70
4
71
3
72
10
73
6
40
0
40
0
40
0
40
0
40
0.828843639790987
40
0.828843639790987
40
1
40
1
40
1
40
1
41
1
10
19.6451698459411
20
-5.16596078106252
30
0
41
1
10
20.1808946176841
20
-5.21762236223958
30
0
41
1
10
20.716690983947
20
-5.2480859775489
30
0
41
1
10
21.3639436980425
20
-5.25966738633349
30
0
41
1
10
21.4747776038134
20
-5.26075709527248
30
0
41
1
10
21.585599895353
20
-5.26095299275656
30
0
0
SPLINE
5
F8
100
AcDbEntity
8
1
62
256
6
ByLayer
370
18
48
1
60
0
100
AcDbSpline
70
4
71
3
72
63
73
59
40
0
40
0
40
0
40
0
40
0.0123456651072571
40
0.0123456651072571
40
0.0329217970841863
40
0.0329217970841863
40
0.0534979290611158
40
0.0534979290611158
40
0.094650193014976
40
0.094650193014976
40
0.115226324991906
40
0.115226324991906
40
0.135802456968836
40
0.135802456968836
40
0.176954720922698
40
0.176954720922698
40
0.21810698487656
40
0.21810698487656
40
0.238683116853492
40
0.238683116853492
40
0.259259248830424
40
0.259259248830424
40
0.300411512784288
40
0.300411512784288
40
0.341563776738152
40
0.341563776738152
40
0.382716040692015
40
0.382716040692015
40
0.423868304645879
40
0.423868304645879
40
0.444444436622812
40
0.444444436622812
40
0.465020568599744
40
0.465020568599744
40
0.506172832553609
40
0.506172832553609
40
0.588477360461342
40
0.588477360461342
40
0.609053492438274
40
0.609053492438274
40
0.629629624415207
40
0.629629624415207
40
0.670781888369072
40
0.670781888369072
40
0.711934152322937
40
0.711934152322937
40
0.753086416276802
40
0.753086416276802
40
0.773662548253734
40
0.773662548253734
40
0.794238680230667
40
0.8148148122076
40
0.8148148122076
40
0.835390944184532
40
0.835390944184532
40
0.917695472092266
40
0.917695472092266
40
1
40
1
40
1
40
1
41
1
10
51.4982790414157
20
5.13106843902594
30
0
41
1
10
51.5784686487061
20
5.14186981033259
30
0
41
1
10
51.6586865984204
20
5.15221480965258
30
0
41
1
10
51.8726829279861
20
5.17858252200543
30
0
41
1
10
52.0065151984686
20
5.19379245367816
30
0
41
1
10
52.2743519824178
20
5.22166388233387
30
0
41
1
10
52.4083319045288
20
5.23432127980465
30
0
41
1
10
52.809771161034
20
5.26838599102709
30
0
41
1
10
53.0769785460139
20
5.28591687394183
30
0
41
1
10
53.4772585943095
20
5.30436986003593
30
0
41
1
10
53.6105943627242
20
5.30921333729589
30
0
41
1
10
53.8770898639904
20
5.31626175089332
30
0
41
1
10
54.0102684575889
20
5.31846094338954
30
0
41
1
10
54.4100797519025
20
5.32107438457751
30
0
41
1
10
54.6769183006426
20
5.31753085621287
30
0
41
1
10
55.2110680421793
20
5.30001652571548
30
0
41
1
10
55.478383659436
20
5.28604220551119
30
0
41
1
10
55.8797508942322
20
5.25722534689797
30
0
41
1
10
56.0136615794364
20
5.24630394316517
30
0
41
1
10
56.2813288851768
20
5.22184036258127
30
0
41
1
10
56.4150290530606
20
5.20830416374136
30
0
41
1
10
56.8157361889007
20
5.16376681675925
30
0
41
1
10
57.0823417945811
20
5.12880956435163
30
0
41
1
10
57.6157289631598
20
5.04902999742239
30
0
41
1
10
57.8824904696649
20
5.00422712629433
30
0
41
1
10
58.4160813973371
20
4.90484047396478
30
0
41
1
10
58.6829248407629
20
4.85025757608159
30
0
41
1
10
59.2170299255322
20
4.73154864845833
30
0
41
1
10
59.4842724011411
20
4.66741581630589
30
0
41
1
10
59.8853652503304
20
4.56387504628233
30
0
41
1
10
60.0190841957169
20
4.52814904737011
30
0
41
1
10
60.2862394886533
20
4.45453812021876
30
0
41
1
10
60.4197395286768
20
4.41663802284958
30
0
41
1
10
60.8201882253535
20
4.29987567759193
30
0
41
1
10
61.0870594725889
20
4.21793003507119
30
0
41
1
10
61.8874837163143
20
3.96002411204995
30
0
41
1
10
62.4208190989494
20
3.7719875190069
30
0
41
1
10
63.087921917874
20
3.51755751496231
30
0
41
1
10
63.2213729323649
20
3.46571129799281
30
0
41
1
10
63.4884684589286
20
3.36028741245193
30
0
41
1
10
63.622176056414
20
3.30668509466648
30
0
41
1
10
64.0232624995093
20
3.14375225836929
30
0
41
1
10
64.2904528257369
20
3.03231641957913
30
0
41
1
10
64.824434481852
20
2.80389245334803
30
0
41
1
10
65.0912267897021
20
2.68690523822471
30
0
41
1
10
65.6244623765261
20
2.44745053839193
30
0
41
1
10
65.8909041873614
20
2.32497942723694
30
0
41
1
10
66.2904140471927
20
2.13729375342532
30
0
41
1
10
66.4235681129158
20
2.07408401495374
30
0
41
1
10
66.690109516876
20
1.94684730782203
30
0
41
1
10
66.9568703870443
20
1.81877154088841
30
0
41
1
10
67.2240538469181
20
1.68900028530558
30
0
41
1
10
67.4914614301022
20
1.55840676397548
30
0
41
1
10
67.6252939431583
20
1.49269020151306
30
0
41
1
10
68.2937254556188
20
1.16279439024947
30
0
41
1
10
68.8271551484656
20
0.89410700775619
30
0
41
1
10
69.8927344390186
20
0.349788009406836
30
0
41
1
10
70.4249088357526
20
0.0741992468225305
30
0
41
1
10
70.9576727336466
20
-0.202531661567292
30
0
0
SPLINE
5
F9
100
AcDbEntity
8
1
62
256
6
ByLayer
370
18
48
1
60
0
100
AcDbSpline
70
4
71
3
72
8
73
4
40
0
40
0
40
0
40
0
40
1
40
1
40
1
40
1
41
1
10
70.9576727336401
20
-0.202531661566866
30
0
41
1
10
70.9862636323554
20
0.0302481737996061
30
0
41
1
10
71.0201537437813
20
0.262867887886273
30
0
41
1
10
71.0606926806403
20
0.495157569382997
30
0
0
SPLINE
5
FA
100
AcDbEntity
8
1
62
256
6
ByLayer
370
18
48
1
60
0
100
AcDbSpline
70
4
71
3
72
70
73
66
40
0
40
0
40
0
40
0
40
0.042041536761084
40
0.042041536761084
40
0.0840830735221681
40
0.0840830735221681
40
0.126124610283252
40
0.126124610283252
40
0.168166147044336
40
0.168166147044336
40
0.21020768380542
40
0.21020768380542
40
0.231228452185962
40
0.231228452185962
40
0.252249220566504
40
0.252249220566504
40
0.294290757327588
40
0.294290757327588
40
0.31531152570813
40
0.31531152570813
40
0.336332294088671
40
0.336332294088671
40
0.420415367610838
40
0.420415367610838
40
0.44143613599138
40
0.44143613599138
40
0.46245690437192
40
0.46245690437192
40
0.504498441133002
40
0.504498441133002
40
0.546539977894083
40
0.546539977894083
40
0.588581514655164
40
0.588581514655164
40
0.630623051416245
40
0.630623051416245
40
0.651643819796786
40
0.651643819796786
40
0.672664588177327
40
0.672664588177327
40
0.693685356557867
40
0.693685356557867
40
0.714706124938408
40
0.714706124938408
40
0.756747661699489
40
0.756747661699489
40
0.798789198460571
40
0.798789198460571
40
0.819809966841112
40
0.819809966841112
40
0.840830735221652
40
0.840830735221652
40
0.882872271982733
40
0.882872271982733
40
0.903893040363274
40
0.903893040363274
40
0.924913808743815
40
0.924913808743815
40
0.966955345504897
40
0.966955345504897
40
0.977465729695169
40
0.977465729695169
40
0.98797611388544
40
0.98797611388544
40
1
40
1
40
1
40
1
41
1
10
6.81956680252623
20
0.0310568718729485
30
0
41
1
10
7.15812553430004
20
-0.139532618163969
30
0
41
1
10
7.495418243334
20
-0.309668228642948
30
0
41
1
10
8.16804775622487
20
-0.647893845284074
30
0
41
1
10
8.50335107371916
20
-0.816050834143766
30
0
41
1
10
9.17275204877333
20
-1.1488244201708
30
0
41
1
10
9.50681297964439
20
-1.31351356377522
30
0
41
1
10
10.1746176713101
20
-1.63764536728198
30
0
41
1
10
10.5083043285147
20
-1.79720584973347
30
0
41
1
10
11.1756466213871
20
-2.11056199852743
30
0
41
1
10
11.5093191774215
20
-2.26432423294875
30
0
41
1
10
12.0102381885531
20
-2.48980787656444
30
0
41
1
10
12.1772734825267
20
-2.56411940340712
30
0
41
1
10
12.5116421412231
20
-2.71072632790077
30
0
41
1
10
12.6789872052248
20
-2.78300187020196
30
0
41
1
10
13.181542120135
20
-2.99667382102135
30
0
41
1
10
13.5172468972674
20
-3.1349583139561
30
0
41
1
10
14.0222083260789
20
-3.33538175259738
30
0
41
1
10
14.1907643922967
20
-3.4010196099143
30
0
41
1
10
14.5284162562045
20
-3.52982454960767
30
0
41
1
10
14.6976580962383
20
-3.59304474393204
30
0
41
1
10
15.541572770035
20
-3.90112582638548
30
0
41
1
10
16.2124549271392
20
-4.1222132443296
30
0
41
1
10
17.0481903585344
20
-4.36472852347916
30
0
41
1
10
17.2151945920596
20
-4.41153515056004
30
0
41
1
10
17.5489936842129
20
-4.50167540732602
30
0
41
1
10
17.7157800651586
20
-4.54501660993336
30
0
41
1
10
18.2160702764556
20
-4.66958812923986
30
0
41
1
10
18.549521602026
20
-4.74536512800444
30
0
41
1
10
19.216561485512
20
-4.88216385396134
30
0
41
1
10
19.5501776214922
20
-4.94315628773725
30
0
41
1
10
20.2181331287348
20
-5.04982240104334
30
0
41
1
10
20.5524291103124
20
-5.09550624703198
30
0
41
1
10
21.222769464034
20
-5.17081966041479
30
0
41
1
10
21.5587394810805
20
-5.20050387048204
30
0
41
1
10
22.0642243648823
20
-5.23276580611616
30
0
41
1
10
22.2330027055015
20
-5.24147420359643
30
0
41
1
10
22.5710536211052
20
-5.25473119661743
30
0
41
1
10
22.7397529483257
20
-5.25925813020658
30
0
41
1
10
23.0765794019614
20
-5.26413394196931
30
0
41
1
10
23.2446979094972
20
-5.26448148356187
30
0
41
1
10
23.5805293685245
20
-5.26103290453122
30
0
41
1
10
23.7482473007174
20
-5.25723961089733
30
0
41
1
10
24.2508560238613
20
-5.23971941456176
30
0
41
1
10
24.5851806252391
20
-5.21984802452289
30
0
41
1
10
25.252868826539
20
-5.16399908730224
30
0
41
1
10
25.5862216229149
20
-5.12801492790891
30
0
41
1
10
26.0859780871672
20
-5.06216138627829
30
0
41
1
10
26.2525381969581
20
-5.03824064744629
30
0
41
1
10
26.5857403491756
20
-4.9865485013402
30
0
41
1
10
26.7523685979748
20
-4.95877010463482
30
0
41
1
10
27.2523771699661
20
-4.86966536019287
30
0
41
1
10
27.5858944084387
20
-4.80257753491153
30
0
41
1
10
28.0868450568532
20
-4.69064693878718
30
0
41
1
10
28.253938976811
20
-4.65145128649985
30
0
41
1
10
28.5884245244218
20
-4.56933190944557
30
0
41
1
10
28.7558079158585
20
-4.52639829496511
30
0
41
1
10
29.2586461355002
20
-4.39221363336071
30
0
41
1
10
29.5948044116059
20
-4.29561156255221
30
0
41
1
10
30.016380990739
20
-4.16602382787531
30
0
41
1
10
30.1007668259848
20
-4.13966599840671
30
0
41
1
10
30.2696886208571
20
-4.08607567783258
30
0
41
1
10
30.354145245076
20
-4.05886793759765
30
0
41
1
10
30.5349847520719
20
-3.99974089548382
30
0
41
1
10
30.6313781081876
20
-3.96769352647331
30
0
41
1
10
30.7276783420313
20
-3.93515832423756
30
0
0
SPLINE
5
FB
100
AcDbEntity
8
1
62
256
6
ByLayer
370
18
48
1
60
0
100
AcDbSpline
70
4
71
3
72
51
73
47
40
0
40
0
40
0
40
0
40
0.0188383270640439
40
0.0188383270640439
40
0.0515437161619112
40
0.0515437161619112
40
0.0842491052597786
40
0.0842491052597786
40
0.215070661651249
40
0.215070661651249
40
0.247776050749115
40
0.247776050749115
40
0.280481439846981
40
0.280481439846981
40
0.345892218042713
40
0.345892218042713
40
0.362244912591645
40
0.362244912591645
40
0.378597607140578
40
0.378597607140578
40
0.411302996238441
40
0.411302996238441
40
0.476713774434171
40
0.476713774434171
40
0.542124552629901
40
0.542124552629901
40
0.607535330825631
40
0.607535330825631
40
0.672946109021361
40
0.672946109021361
40
0.738356887217091
40
0.738356887217091
40
0.771062276314955
40
0.771062276314955
40
0.803767665412819
40
0.803767665412819
40
0.869178443608546
40
0.869178443608546
40
0.885531138157479
40
0.885531138157479
40
0.901883832706412
40
0.934589221804275
40
0.934589221804275
40
0.967294610902137
40
0.967294610902137
40
1
40
1
40
1
40
1
41
1
10
55.7354031538916
20
5.32242349065552
30
0
41
1
10
55.8314483173772
20
5.32260435725968
30
0
41
1
10
55.9274420146034
20
5.32209962823939
30
0
41
1
10
56.1899684466585
20
5.31884618330341
30
0
41
1
10
56.3564037059869
20
5.31471684062905
30
0
41
1
10
56.6891568348686
20
5.30235818554098
30
0
41
1
10
56.8554821650887
20
5.29413198655908
30
0
41
1
10
57.6869621971199
20
5.24283399430419
30
0
41
1
10
58.3515600424325
20
5.16924678460902
30
0
41
1
10
59.1843336561079
20
5.03733717222298
30
0
41
1
10
59.3510051135765
20
5.00896595424047
30
0
41
1
10
59.6847302231583
20
4.94833254235388
30
0
41
1
10
59.8517716954704
20
4.91606335467944
30
0
41
1
10
60.353487408121
20
4.81340645420229
30
0
41
1
10
60.6887629762772
20
4.7371770052614
30
0
41
1
10
61.1092131471432
20
4.63227649511384
30
0
41
1
10
61.1933709593012
20
4.61081557662877
30
0
41
1
10
61.3618306289939
20
4.56693414283464
30
0
41
1
10
61.4461491752015
20
4.5445081532616
30
0
41
1
10
61.6987165214275
20
4.47597077572317
30
0
41
1
10
61.8667695409953
20
4.42853667435165
30
0
41
1
10
62.3701996778263
20
4.28133056550834
30
0
41
1
10
62.7048831015887
20
4.17670530721318
30
0
41
1
10
63.3727797639371
20
3.95517361145494
30
0
41
1
10
63.7060107760778
20
3.8382872983511
30
0
41
1
10
64.371575932839
20
3.59308725303836
30
0
41
1
10
64.703863031884
20
3.46469574609301
30
0
41
1
10
65.3684982292364
20
3.19794028771906
30
0
41
1
10
65.7008029180815
20
3.05952061861314
30
0
41
1
10
66.3658325007779
20
2.77330620599091
30
0
41
1
10
66.6985701253926
20
2.62553102021806
30
0
41
1
10
67.1984183650123
20
2.3974892769053
30
0
41
1
10
67.3651520801928
20
2.32040038250091
30
0
41
1
10
67.6990063613711
20
2.16433104754626
30
0
41
1
10
67.8661398178332
20
2.08537546334412
30
0
41
1
10
68.3682396180254
20
1.84587839981694
30
0
41
1
10
68.7038788389318
20
1.68265644053608
30
0
41
1
10
69.1249112812488
20
1.47474355865299
30
0
41
1
10
69.2091886057349
20
1.43296875680477
30
0
41
1
10
69.3776302045169
20
1.34918126644277
30
0
41
1
10
69.6302247536812
20
1.22309406740402
30
0
41
1
10
69.8826499124828
20
1.09585346196553
30
0
41
1
10
70.2191552628788
20
0.925342486963757
30
0
41
1
10
70.38738551636
20
0.839674299822093
30
0
41
1
10
70.7239611629766
20
0.667820064026984
30
0
41
1
10
70.8922943784828
20
0.581610918393011
30
0
41
1
10
71.0606926806393
20
0.495157569377199
30
0
0
SPLINE
5
FC
100
AcDbEntity
8
1
62
256
6
ByLayer
370
18
48
1
60
0
100
AcDbSpline
70
4
71
3
72
107
73
103
40
0
40
0
40
0
40
0
40
0.0625000000000255
40
0.0625000000000255
40
0.125000000000051
40
0.125000000000051
40
0.156250000000064
40
0.156250000000064
40
0.187500000000076
40
0.187500000000076
40
0.250000000000102
40
0.250000000000102
40
0.265625000000109
40
0.265625000000109
40
0.273437500000112
40
0.273437500000112
40
0.277343750000114
40
0.277343750000114
40
0.279296875000115
40
0.279296875000115
40
0.281250000000115
40
0.281250000000115
40
0.283203125000116
40
0.283203125000116
40
0.284179687500115
40
0.284179687500115
40
0.285156250000115
40
0.285156250000115
40
0.286132812500114
40
0.286132812500114
40
0.287109375000114
40
0.287109375000114
40
0.289062500000113
40
0.296875000000112
40
0.296875000000112
40
0.312500000000111
40
0.312500000000111
40
0.343750000000107
40
0.343750000000107
40
0.375000000000104
40
0.375000000000104
40
0.390625000000102
40
0.390625000000102
40
0.4062500000001
40
0.4062500000001
40
0.437500000000096
40
0.437500000000096
40
0.468750000000092
40
0.468750000000092
40
0.48437500000009
40
0.48437500000009
40
0.492187500000089
40
0.492187500000089
40
0.500000000000087
40
0.500000000000087
40
0.515625000000085
40
0.515625000000085
40
0.531250000000083
40
0.531250000000083
40
0.539062500000081
40
0.539062500000081
40
0.54687500000008
40
0.562500000000078
40
0.578125000000076
40
0.578125000000076
40
0.593750000000073
40
0.593750000000073
40
0.609375000000071
40
0.609375000000071
40
0.61718750000007
40
0.61718750000007
40
0.625000000000068
40
0.625000000000068
40
0.640625000000066
40
0.640625000000066
40
0.656250000000063
40
0.656250000000063
40
0.67187500000006
40
0.67187500000006
40
0.679687500000059
40
0.679687500000059
40
0.687500000000058
40
0.687500000000058
40
0.718750000000052
40
0.718750000000052
40
0.750000000000047
40
0.750000000000047
40
0.781250000000042
40
0.781250000000042
40
0.789062500000041
40
0.789062500000041
40
0.79687500000004
40
0.79687500000004
40
0.812500000000036
40
0.812500000000036
40
0.84375000000003
40
0.84375000000003
40
0.875000000000024
40
0.875000000000024
40
0.937500000000012
40
0.937500000000012
40
1
40
1
40
1
40
1
41
1
10
8.99407465744412
20
4.94851955554105
30
0
41
1
10
8.69446021840409
20
4.99763868351141
30
0
41
1
10
8.39286741113929
20
5.0389039627816
30
0
41
1
10
7.78441048833255
20
5.10751830373081
30
0
41
1
10
7.47753504267109
20
5.13486629235945
30
0
41
1
10
7.01239839743741
20
5.16717186964795
30
0
41
1
10
6.85650539901553
20
5.17649356444483
30
0
41
1
10
6.5434585730566
20
5.19254336376599
30
0
41
1
10
6.38626209442867
20
5.19927558619216
30
0
41
1
10
5.91251570218759
20
5.21611671242508
30
0
41
1
10
5.59374559486068
20
5.22287257200767
30
0
41
1
10
5.19208878141018
20
5.22747399176865
30
0
41
1
10
5.11159873468256
20
5.22820202672844
30
0
41
1
10
4.9906279342886
20
5.22903778857565
30
0
41
1
10
4.95026577405221
20
5.22927364653364
30
0
41
1
10
4.88966502866023
20
5.22956728624305
30
0
41
1
10
4.86945510957153
20
5.2296551301508
30
0
41
1
10
4.83912660422428
20
5.22977237847323
30
0
41
1
10
4.82902579886164
20
5.22981144401118
30
0
41
1
10
4.80858636364482
20
5.22986079014197
30
0
41
1
10
4.79832653890318
20
5.22987172426426
30
0
41
1
10
4.77768087697817
20
5.22985667532663
30
0
41
1
10
4.76730637985722
20
5.22983416793392
30
0
41
1
10
4.75163748435062
20
5.22976835366322
30
0
41
1
10
4.74644973749986
20
5.2297428147115
30
0
41
1
10
4.73635759528639
20
5.22967687275678
30
0
41
1
10
4.7314428635249
20
5.22963621785314
30
0
41
1
10
4.72182761022512
20
5.22954023916918
30
0
41
1
10
4.71711619368367
20
5.2294849849014
30
0
41
1
10
4.70793952129554
20
5.2293578919996
30
0
41
1
10
4.70344885089352
20
5.2292888917425
30
0
41
1
10
4.68987429927276
20
5.22907895699197
30
0
41
1
10
4.64465808952187
20
5.22833520245484
30
0
41
1
10
4.59960292985127
20
5.22736906040902
30
0
41
1
10
4.49181014674679
20
5.22460338577804
30
0
41
1
10
4.42039766501858
20
5.22216426684824
30
0
41
1
10
4.20761317226555
20
5.21288021722714
30
0
41
1
10
4.06797019759023
20
5.20409017654382
30
0
41
1
10
3.79415100917987
20
5.18020523570206
30
0
41
1
10
3.65992668042173
20
5.16511607970818
30
0
41
1
10
3.46344238965176
20
5.13658512867187
30
0
41
1
10
3.39875928122044
20
5.12608779683063
30
0
41
1
10
3.27120117456056
20
5.10285637290605
30
0
41
1
10
3.20822075159347
20
5.09009570557291
30
0
41
1
10
3.02361935055126
20
5.04827944149878
30
0
41
1
10
2.90602851033734
20
5.01569103520035
30
0
41
1
10
2.6843032365513
20
4.93859074563056
30
0
41
1
10
2.5801354039875
20
4.89411120032833
30
0
41
1
10
2.43693578506466
20
4.81552397034446
30
0
41
1
10
2.39139197039961
20
4.7873366415682
30
0
41
1
10
2.32693100787523
20
4.74150824852978
30
0
41
1
10
2.30618377201654
20
4.72570292853359
30
0
41
1
10
2.26644123836022
20
4.69312783310406
30
0
41
1
10
2.24741451262648
20
4.67633598747022
30
0
41
1
10
2.1929869815032
20
4.62436745565276
30
0
41
1
10
2.16023419061895
20
4.58760124394314
30
0
41
1
10
2.10254154788774
20
4.50932439179104
30
0
41
1
10
2.07759917431397
20
4.46781536670218
30
0
41
1
10
2.04677210727482
20
4.40151362931059
30
0
41
1
10
2.03769029140688
20
4.378934523168
30
0
41
1
10
2.02196739961337
20
4.33292081016214
30
0
41
1
10
2.00202086585759
20
4.26256377161045
30
0
41
1
10
1.98700778903057
20
4.13856586925135
30
0
41
1
10
1.99469477302568
20
4.03201758444135
30
0
41
1
10
2.01245030612665
20
3.92168189660879
30
0
41
1
10
2.02617826097105
20
3.86576474628103
30
0
41
1
10
2.06240361152172
20
3.752740222222
30
0
41
1
10
2.08490827138391
20
3.69559937892245
30
0
41
1
10
2.124726350533
20
3.6090110742152
30
0
41
1
10
2.13901057227358
20
3.5800019985505
30
0
41
1
10
2.16952864378661
20
3.52170077348887
30
0
41
1
10
2.18578127077134
20
3.49238510784053
30
0
41
1
10
2.23680102902264
20
3.40494250501126
30
0
41
1
10
2.27397529698493
20
3.347009863203
30
0
41
1
10
2.35378332942688
20
3.23176866007785
30
0
41
1
10
2.3964197967442
20
3.17446045789998
30
0
41
1
10
2.48650548447677
20
3.06039555448262
30
0
41
1
10
2.53395638802473
20
3.0036390749122
30
0
41
1
10
2.60836513927572
20
2.91887752860308
30
0
41
1
10
2.63370776784237
20
2.89068600193556
30
0
41
1
10
2.68541943070895
20
2.83442212089935
30
0
41
1
10
2.71181370397116
20
2.80632507727961
30
0
41
1
10
2.84541010522469
20
2.66696785185664
30
0
41
1
10
2.95800989386413
20
2.55841630430987
30
0
41
1
10
3.19204378937897
20
2.34588363789905
30
0
41
1
10
3.31349894372639
20
2.24191335214547
30
0
41
1
10
3.56364968482578
20
2.03776636456831
30
0
41
1
10
3.69235497499906
20
1.93759463939577
30
0
41
1
10
3.85708541431708
20
1.81442874156599
30
0
41
1
10
3.89022489436093
20
1.78989848521999
30
0
41
1
10
3.95687687412422
20
1.74103736788641
30
0
41
1
10
3.99040802784381
20
1.71669329991164
30
0
41
1
10
4.09129256894815
20
1.64412955455364
30
0
41
1
10
4.1589977024145
20
1.59633196682222
30
0
41
1
10
4.36334974823501
20
1.45453742807172
30
0
41
1
10
4.50122892714776
20
1.36213316673181
30
0
41
1
10
4.77982524229543
20
1.18101681865153
30
0
41
1
10
4.92054413329205
20
1.09230695229724
30
0
41
1
10
5.34646910509164
20
0.831115028296807
30
0
41
1
10
5.63541899830361
20
0.663539726613067
30
0
41
1
10
6.22156227418387
20
0.339364591300239
30
0
41
1
10
6.51876959699669
20
0.182782362778681
30
0
41
1
10
6.81956395850267
20
0.0310567040094725
30
0
0
SPLINE
5
FD
100
AcDbEntity
8
1
62
256
6
ByLayer
370
18
48
1
60
0
100
AcDbSpline
70
4
71
3
72
31
73
27
40
0
40
0
40
0
40
0
40
0.125000000000003
40
0.125000000000003
40
0.156250000000001
40
0.156250000000001
40
0.171875000000002
40
0.171875000000002
40
0.187500000000003
40
0.250000000000003
40
0.250000000000003
40
0.375000000000003
40
0.375000000000003
40
0.437500000000003
40
0.437500000000003
40
0.500000000000002
40
0.500000000000002
40
0.750000000000002
40
0.750000000000002
40
0.875000000000002
40
0.875000000000002
40
0.906250000000001
40
0.906250000000001
40
0.937500000000001
40
0.937500000000001
40
1
40
1
40
1
40
1
41
1
10
19.4997640933064
20
1.17084118574414
30
0
41
1
10
19.0629882755825
20
1.38635613185991
30
0
41
1
10
18.6249680445102
20
1.5991121187781
30
0
41
1
10
18.075106965673
20
1.86003380843971
30
0
41
1
10
17.9650175591173
20
1.91196617139082
30
0
41
1
10
17.7996940683983
20
1.98945929095564
30
0
41
1
10
17.7445360402483
20
2.01523142439504
30
0
41
1
10
17.6343136712348
20
2.06656271023101
30
0
41
1
10
17.3589241428979
20
2.19439220055165
30
0
41
1
10
17.0843397148829
20
2.31968070862413
30
0
41
1
10
16.4264477134554
20
2.61475351599785
30
0
41
1
10
15.989364561862
20
2.80404481481958
30
0
41
1
10
15.3350777111523
20
3.07548889771991
30
0
41
1
10
15.1172027145389
20
3.16388385646147
30
0
41
1
10
14.6817615483178
20
3.33630460032327
30
0
41
1
10
14.4642120870648
20
3.42035494469567
30
0
41
1
10
13.3766248551185
20
3.82874868451876
30
0
41
1
10
12.5069985542842
20
4.11748169708048
30
0
41
1
10
11.1959751956258
20
4.48328790768781
30
0
41
1
10
10.7577055093251
20
4.59380813546201
30
0
41
1
10
10.2074777136098
20
4.71661143609862
30
0
41
1
10
10.0973132761307
20
4.74040529065314
30
0
41
1
10
9.87672490938442
20
4.78643061966017
30
0
41
1
10
9.7663447642407
20
4.80865225631825
30
0
41
1
10
9.4353546095945
20
4.87283122154483
30
0
41
1
10
9.21472489075526
20
4.91233798307172
30
0
41
1
10
8.99406785208984
20
4.94851596778614
30
0
0
SPLINE
5
FE
100
AcDbEntity
8
1
62
256
6
ByLayer
370
18
48
1
60
0
100
AcDbSpline
70
4
71
3
72
58
73
54
40
0
40
0
40
0
40
0
40
0.0213702613520309
40
0.0213702613520309
40
0.0427405227040618
40
0.0427405227040618
40
0.0854810454081253
40
0.0854810454081253
40
0.128221568112189
40
0.128221568112189
40
0.149591829464222
40
0.149591829464222
40
0.170962090816254
40
0.170962090816254
40
0.256443136224381
40
0.256443136224381
40
0.277813397576414
40
0.277813397576414
40
0.299183658928447
40
0.299183658928447
40
0.341924181632512
40
0.341924181632512
40
0.384664704336577
40
0.40603496568861
40
0.40603496568861
40
0.427405227040642
40
0.427405227040642
40
0.512886272448777
40
0.512886272448777
40
0.53425653380081
40
0.53425653380081
40
0.555626795152844
40
0.555626795152844
40
0.598367317856913
40
0.598367317856913
40
0.641107840560981
40
0.641107840560981
40
0.683848363265051
40
0.683848363265051
40
0.726588885969119
40
0.726588885969119
40
0.769329408673188
40
0.769329408673188
40
0.812069931377257
40
0.812069931377257
40
0.854810454081326
40
0.854810454081326
40
0.897550976785395
40
0.897550976785395
40
0.940291499489464
40
0.983032022193533
40
0.983032022193533
40
1
40
1
40
1
40
1
41
1
10
19.4997640933173
20
1.24880156937525
30
0
41
1
10
19.6340758241718
20
1.18291616598157
30
0
41
1
10
19.7683809479038
20
1.11671321203519
30
0
41
1
10
20.0370189157555
20
0.983750980305558
30
0
41
1
10
20.1713809077068
20
0.916977142578986
30
0
41
1
10
20.5743419469812
20
0.716058824825808
30
0
41
1
10
20.8427541998525
20
0.581348361410079
30
0
41
1
10
21.3794743128458
20
0.311094614342665
30
0
41
1
10
21.6477786124811
20
0.175544385963377
30
0
41
1
10
22.0503704882511
20
-0.0279824884151196
30
0
41
1
10
22.1845905334091
20
-0.0958580128433937
30
0
41
1
10
22.4531149514152
20
-0.231598717123347
30
0
41
1
10
22.5874578981473
20
-0.299483361505537
30
0
41
1
10
23.2589808940509
20
-0.638426455063097
30
0
41
1
10
23.795223569452
20
-0.907879509071194
30
0
41
1
10
24.4660340199241
20
-1.23919061954302
30
0
41
1
10
24.6002207387653
20
-1.30517914714085
30
0
41
1
10
24.8686831808105
20
-1.43653143217841
30
0
41
1
10
25.0029971979421
20
-1.50191367437355
30
0
41
1
10
25.4058366161775
20
-1.69685979584364
30
0
41
1
10
25.6741639695303
20
-1.82517849945293
30
0
41
1
10
26.2106936156445
20
-2.07790287358918
30
0
41
1
10
26.6130003920901
20
-2.26450581715002
30
0
41
1
10
27.0155100179926
20
-2.44608200532682
30
0
41
1
10
27.2839342959704
20
-2.56594388327659
30
0
41
1
10
27.4182266429324
20
-2.62529699486058
30
0
41
1
10
28.0895120423268
20
-2.91869443813883
30
0
41
1
10
28.6255628965229
20
-3.14246770309174
30
0
41
1
10
29.2960976327184
20
-3.40577336645299
30
0
41
1
10
29.4302285223594
20
-3.45761378038452
30
0
41
1
10
29.6985817870355
20
-3.55958487343176
30
0
41
1
10
29.8328324208325
20
-3.60972583265243
30
0
41
1
10
30.2355709839323
20
-3.75740355114573
30
0
41
1
10
30.5039662486376
20
-3.8521646308327
30
0
41
1
10
31.0408657693509
20
-4.03389494264377
30
0
41
1
10
31.309391014375
20
-4.12086789546308
30
0
41
1
10
31.8462157717854
20
-4.28639917379732
30
0
41
1
10
32.1146452995914
20
-4.36499888065961
30
0
41
1
10
32.6515547303788
20
-4.51338354620728
30
0
41
1
10
32.9198977389571
20
-4.58313182062344
30
0
41
1
10
33.4567007057417
20
-4.71339932821442
30
0
41
1
10
33.7251822299397
20
-4.77391875775322
30
0
41
1
10
34.26190196224
20
-4.88529650321965
30
0
41
1
10
34.5302379219595
20
-4.93617856175561
30
0
41
1
10
35.067098572192
20
-5.02805466222136
30
0
41
1
10
35.3354982157636
20
-5.06902554432526
30
0
41
1
10
35.8722833219649
20
-5.14078498844319
30
0
41
1
10
36.1407398944849
20
-5.1715783750679
30
0
41
1
10
36.6771460415235
20
-5.22274807844082
30
0
41
1
10
37.2131685048749
20
-5.26352565947957
30
0
41
1
10
37.749047983176
20
-5.28337951510576
30
0
41
1
10
38.1235374898678
20
-5.28989357263157
30
0
41
1
10
38.2299801412209
20
-5.29091511737096
30
0
41
1
10
38.336453389154
20
-5.29110523560101
30
0
0
SPLINE
5
FF
100
AcDbEntity
8
1
62
256
6
ByLayer
370
18
48
1
60
0
100
AcDbSpline
70
4
71
3
72
22
73
18
40
0
40
0
40
0
40
0
40
0.0489274441268623
40
0.154602172557211
40
0.26027690098756
40
0.26027690098756
40
0.365951629417909
40
0.365951629417909
40
0.471626357848258
40
0.471626357848258
40
0.577301086278607
40
0.577301086278607
40
0.682975814708957
40
0.682975814708957
40
0.788650543139306
40
0.788650543139306
40
1
40
1
40
1
40
1
41
1
10
63.3667660249022
20
3.95670949801962
30
0
41
1
10
63.4907211302161
20
3.99955368095311
30
0
41
1
10
63.8822439017335
20
4.13224127681704
30
0
41
1
10
64.5408551587954
20
4.34094439680374
30
0
41
1
10
65.0757790198624
20
4.49328445899792
30
0
41
1
10
65.611113582896
20
4.63666272344227
30
0
41
1
10
65.879049395489
20
4.70387717876949
30
0
41
1
10
66.41460346749
20
4.82876667628733
30
0
41
1
10
66.6823418338199
20
4.88648132861383
30
0
41
1
10
67.2180458458681
20
4.99218595372264
30
0
41
1
10
67.4857651939234
20
5.04012620052879
30
0
41
1
10
68.0212063994324
20
5.12594874729552
30
0
41
1
10
68.2890252329996
20
5.16384166419277
30
0
41
1
10
68.8244463156913
20
5.22928654691646
30
0
41
1
10
69.0920725431763
20
5.25684590281864
30
0
41
1
10
69.8952217811315
20
5.32381641699601
30
0
41
1
10
70.4307274768323
20
5.34744589637941
30
0
41
1
10
70.9661536358429
20
5.34977309327368
30
0
0
SPLINE
5
100
100
AcDbEntity
8
SK1
62
256
6
ByLayer
370
18
48
1
60
0
100
AcDbSpline
70
4
71
3
72
20
73
16
40
0
40
0
40
0
40
0
40
0.20358299010359
40
0.20358299010359
40
0.305374485155385
40
0.305374485155385
40
0.407165980207179
40
0.407165980207179
40
0.610748970310765
40
0.610748970310765
40
0.712540465362557
40
0.712540465362557
40
0.814331960414349
40
0.814331960414349
40
1
40
1
40
1
40
1
41
1
10
-45
20
3.61170780102765
30
0
41
1
10
-45
20
3.59205184523606
30
0
41
1
10
-45
20
3.57048416063677
30
0
41
1
10
-45
20
3.53517015744066
30
0
41
1
10
-45
20
3.52290476973738
30
0
41
1
10
-45
20
3.49773544739676
30
0
41
1
10
-45
20
3.48478957273349
30
0
41
1
10
-45
20
3.44488740600556
30
0
41
1
10
-45
20
3.41687075204041
30
0
41
1
10
-45
20
3.37272141512403
30
0
41
1
10
-45
20
3.35764986579159
30
0
41
1
10
-45
20
3.3267832808333
30
0
41
1
10
-45
20
3.31092964445051
30
0
41
1
10
-45
20
3.26564393376165
30
0
41
1
10
-45
20
3.23575472968443
30
0
41
1
10
-45
20
3.20524380102941
30
0
0
SPLINE
5
101
100
AcDbEntity
8
SK1
62
256
6
ByLayer
370
18
48
1
60
0
100
AcDbSpline
70
4
71
3
72
16
73
12
40
0
40
0
40
0
40
0
40
0.133918927388407
40
0.133918927388407
40
0.350439195541305
40
0.350439195541305
40
0.566959463694203
40
0.566959463694203
40
0.783479731847102
40
0.783479731847102
40
1
40
1
40
1
40
1
41
1
10
-44.7362683847351
20
3.44055603617377
30
0
41
1
10
-44.7459451336734
20
3.450347096722
30
0
41
1
10
-44.7561153698914
20
3.45979787366875
30
0
41
1
10
-44.7838206653931
20
3.48377582057367
30
0
41
1
10
-44.8017775980658
20
3.49761831627805
30
0
41
1
10
-44.8388229027638
20
3.52376008868333
30
0
41
1
10
-44.8579375091811
20
3.53607435970056
30
0
41
1
10
-44.897101361662
20
3.55950827770582
30
0
41
1
10
-44.917152215291
20
3.57062586995957
30
0
41
1
10
-44.9580267053354
20
3.59187331027931
30
0
41
1
10
-44.9788757656964
20
3.60201333633324
30
0
41
1
10
-44.9999999999999
20
3.61170780102779
30
0
0
SPLINE
5
102
100
AcDbEntity
8
SK1
62
256
6
ByLayer
370
18
48
1
60
0
100
AcDbSpline
70
4
71
3
72
8
73
4
40
0
40
0
40
0
40
0
40
1
40
1
40
1
40
1
41
1
10
-44.25
20
4.80889457447879
30
0
41
1
10
-44.5004726447443
20
4.58239268735539
30
0
41
1
10
-44.7505581356776
20
4.35555705486874
30
0
41
1
10
-45
20
4.12816658502567
30
0
0
SPLINE
5
103
100
AcDbEntity
8
SK1
62
256
6
ByLayer
370
18
48
1
60
0
100
AcDbSpline
70
4
71
3
72
20
73
16
40
0
40
0
40
0
40
0
40
0.0625000000000003
40
0.0625000000000003
40
0.125000000000001
40
0.125000000000001
40
0.250000000000001
40
0.250000000000001
40
0.375000000000001
40
0.375000000000001
40
0.500000000000001
40
0.500000000000001
40
0.750000000000001
40
0.750000000000001
40
1
40
1
40
1
40
1
41
1
10
-44.15
20
4.86971428017713
30
0
41
1
10
-44.15
20
4.87097886057566
30
0
41
1
10
-44.1502569146169
20
4.87198614430707
30
0
41
1
10
-44.1512466991598
20
4.87352362424056
30
0
41
1
10
-44.1519837129547
20
4.87404799475345
30
0
41
1
10
-44.1547653438365
20
4.87492897130301
30
0
41
1
10
-44.1574101181635
20
4.87462646300159
30
0
41
1
10
-44.1638373738149
20
4.8726259400834
30
0
41
1
10
-44.1675465419207
20
4.87095902833886
30
0
41
1
10
-44.1757372414659
20
4.86659233357616
30
0
41
1
10
-44.1802613014627
20
4.86386010215591
30
0
41
1
10
-44.1944507164524
20
4.85456509552546
30
0
41
1
10
-44.2047953517104
20
4.84690595491784
30
0
41
1
10
-44.226908544871
20
4.82921155530292
30
0
41
1
10
-44.2382901766631
20
4.81948374315391
30
0
41
1
10
-44.25
20
4.80889457447881
30
0
0
SPLINE
5
104
100
AcDbEntity
8
SK1
62
256
6
ByLayer
370
18
48
1
60
0
100
AcDbSpline
70
4
71
3
72
20
73
16
40
0
40
0
40
0
40
0
40
0.250000000000001
40
0.250000000000001
40
0.375000000000001
40
0.375000000000001
40
0.500000000000001
40
0.500000000000001
40
0.625000000000001
40
0.625000000000001
40
0.75
40
0.75
40
0.875
40
0.875
40
1
40
1
40
1
40
1
41
1
10
-44.25
20
3.88176962049568
30
0
41
1
10
-44.2382877407461
20
3.89236099196535
30
0
41
1
10
-44.226914977972
20
3.90393010323052
30
0
41
1
10
-44.2103576071414
20
3.92275296811539
30
0
41
1
10
-44.2049751381096
20
3.92922390747756
30
0
41
1
10
-44.1946946812026
20
3.94232624505443
30
0
41
1
10
-44.1897650588918
20
3.94899240715944
30
0
41
1
10
-44.1803754339179
20
3.96258038174167
30
0
41
1
10
-44.1758982216171
20
3.96952749627462
30
0
41
1
10
-44.1675998620729
20
3.98363180855642
30
0
41
1
10
-44.1638730040088
20
3.9906235901295
30
0
41
1
10
-44.1574568338975
20
4.00445565074716
30
0
41
1
10
-44.1547730646344
20
4.01131923259908
30
0
41
1
10
-44.1510607548749
20
4.02408447850686
30
0
41
1
10
-44.15
20
4.0301486772137
30
0
41
1
10
-44.15
20
4.03530182159233
30
0
0
SPLINE
5
105
100
AcDbEntity
8
SK1
62
256
6
ByLayer
370
18
48
1
60
0
100
AcDbSpline
70
4
71
3
72
8
73
4
40
0
40
0
40
0
40
0
40
1
40
1
40
1
40
1
41
1
10
-45
20
3.20104163104256
30
0
41
1
10
-44.7505654564997
20
3.42842542724577
30
0
41
1
10
-44.50047133651
20
3.65526891640587
30
0
41
1
10
-44.25
20
3.88176962049568
30
0
0
SPLINE
5
106
100
AcDbEntity
8
1
62
256
6
ByLayer
370
18
48
1
60
0
100
AcDbSpline
70
4
71
3
72
27
73
23
40
0
40
0
40
0
40
0
40
9.56466861882E-05
40
0.0003085878467082
40
0.0005688576902887
40
0.0017633165979571
40
0.0044909904223612
40
0.0196890746101878
40
0.0389154247722563
40
0.0761941538872225
40
0.147264796083062
40
0.260437945706852
40
0.355293730132566
40
0.453902648792201
40
0.517105739972626
40
0.579771386744353
40
0.629500901097001
40
0.678701221203525
40
0.736773643124878
40
0.815679610810101
40
0.916404103295755
40
1
40
1
40
1
40
1
41
1
10
41.7219833520121
20
0.103362532594929
30
0
41
1
10
41.7219942952202
20
0.103362770614609
30
0
41
1
10
41.7219285118945
20
0.103389523828668
30
0
41
1
10
41.7212453762898
20
0.103582035959079
30
0
41
1
10
41.7179363124465
20
0.104472730010997
30
0
41
1
10
41.7065618396096
20
0.107463475065487
30
0
41
1
10
41.6526795404054
20
0.121574935666189
30
0
41
1
10
41.5439310156456
20
0.150148326067409
30
0
41
1
10
41.3370749293898
20
0.205115752013455
30
0
41
1
10
40.9676382602212
20
0.304925081648008
30
0
41
1
10
40.3283559032161
20
0.483207226287561
30
0
41
1
10
39.5255610586259
20
0.718871882926038
30
0
41
1
10
38.647784149691
20
0.991008759134047
30
0
41
1
10
37.9162158002198
20
1.22896079981783
30
0
41
1
10
37.2784926735419
20
1.44446849975395
30
0
41
1
10
36.7810107884607
20
1.61746944377197
30
0
41
1
10
36.3242812805464
20
1.78028559254892
30
0
41
1
10
35.8817351041176
20
1.94144512316399
30
0
41
1
10
35.3585221345797
20
2.13628302376648
30
0
41
1
10
34.6928402026494
20
2.39137732811042
30
0
41
1
10
33.9587161598665
20
2.6819058890942
30
0
41
1
10
33.4478440890166
20
2.89335157411426
30
0
41
1
10
33.216727828854
20
2.99073488485774
30
0
0
SPLINE
5
107
100
AcDbEntity
8
1
62
256
6
ByLayer
370
18
48
1
60
0
100
AcDbSpline
70
4
71
3
72
17
73
13
40
0
40
0
40
0
40
0
40
0.036926292326212
40
0.155295812173921
40
0.304016365642018
40
0.434785456843823
40
0.560151154961513
40
0.61999598343089
40
0.685060743793299
40
0.774414339732015
40
0.890088483996028
40
1
40
1
40
1
40
1
41
1
10
71.0287780405646
20
1.07879992248849
30
0
41
1
10
70.9622938441937
20
1.09996652440213
30
0
41
1
10
70.6828877223409
20
1.18960398679391
30
0
41
1
10
70.1380055375493
20
1.37174575864685
30
0
41
1
10
69.4271821981141
20
1.61700022341506
30
0
41
1
10
68.7069265423275
20
1.87586151903633
30
0
41
1
10
68.1468525687574
20
2.08401856977372
30
0
41
1
10
67.7044539023522
20
2.2524206399514
30
0
41
1
10
67.3264103236686
20
2.39858763523776
30
0
41
1
10
66.8510220326725
20
2.58598492051721
30
0
41
1
10
66.2983590958385
20
2.80894990147843
30
0
41
1
10
65.9042029631373
20
2.97302738657186
30
0
41
1
10
65.7125324217319
20
3.05393873593118
30
0
0
SPLINE
5
108
100
AcDbEntity
8
1
62
256
6
ByLayer
370
18
48
1
60
0
100
AcDbSpline
70
4
71
2
72
6
73
3
40
0
40
0
40
0
40
1
40
1
40
1
41
1
10
55.9476117190571
20
-0.0026854538946566
30
0
41
1
10
55.9475922197393
20
-0.0026756383581699
30
0
41
1
10
55.9475727204192
20
-0.0026654633476824
30
0
0
SPLINE
5
109
100
AcDbEntity
8
1
62
256
6
ByLayer
370
18
48
1
60
0
100
AcDbSpline
70
4
71
3
72
31
73
27
40
0
40
0
40
0
40
0
40
0.0651260098062501
40
0.115378223261166
40
0.151433191726991
40
0.181688339927447
40
0.209645895934771
40
0.236476329683547
40
0.283650092561047
40
0.332112760321306
40
0.3687586468623
40
0.412085494525373
40
0.464853069305732
40
0.511828816602113
40
0.557600017140384
40
0.605175861986103
40
0.638523780597482
40
0.672993841949468
40
0.715374004073146
40
0.766479021099661
40
0.814034310731497
40
0.845508701417422
40
0.8780726249549
40
0.915666142387621
40
0.963080554637086
40
1
40
1
40
1
40
1
41
1
10
39.6187172564576
20
-5.08989966896539
30
0
41
1
10
39.8759829946215
20
-5.09029023645547
30
0
41
1
10
40.3318226696203
20
-5.09104828810649
30
0
41
1
10
40.9331750698823
20
-5.09192188751825
30
0
41
1
10
41.3922814314013
20
-5.09304648664516
30
0
41
1
10
41.7631666977358
20
-5.09335966267884
30
0
41
1
10
42.1007322293901
20
-5.09374677446772
30
0
41
1
10
42.5038671644687
20
-5.09447132702297
30
0
41
1
10
42.9891785146122
20
-5.09569802150475
30
0
41
1
10
43.5132475298847
20
-5.09713099543745
30
0
41
1
10
44.0221184722564
20
-5.09776813389152
30
0
41
1
10
44.5480355624527
20
-5.09818529808348
30
0
41
1
10
45.1148831794507
20
-5.09857571085163
30
0
41
1
10
45.6914149743253
20
-5.0993404688075
30
0
41
1
10
46.2473726825417
20
-5.10173579108994
30
0
41
1
10
46.7493395675622
20
-5.10296626275067
30
0
41
1
10
47.206532756688
20
-5.1031945423434
30
0
41
1
10
47.6431406148929
20
-5.10329984923328
30
0
41
1
10
48.1501022199564
20
-5.10335549175414
30
0
41
1
10
48.708906952668
20
-5.10375434444597
30
0
41
1
10
49.22450699907
20
-5.10534047096189
30
0
41
1
10
49.6666286234853
20
-5.10659954770756
30
0
41
1
10
50.0692969199071
20
-5.10735971776222
30
0
41
1
10
50.5351135043026
20
-5.10874574829083
30
0
41
1
10
51.0181939851242
20
-5.11005106610853
30
0
41
1
10
51.3523221253545
20
-5.11032241998532
30
0
41
1
10
51.498596975902
20
-5.11036867025345
30
0
0
SPLINE
5
10A
100
AcDbEntity
8
1
62
256
6
ByLayer
370
18
48
1
60
0
100
AcDbSpline
70
4
71
3
72
11
73
7
40
0
40
0
40
0
40
0
40
0.22328144524827
40
0.47095415813516
40
0.74599265959035
40
1
40
1
40
1
40
1
41
1
10
21.58189982618
20
5.05901151479657
30
0
41
1
10
21.4358903578029
20
5.05873537001492
30
0
41
1
10
21.1266745971804
20
5.05817361328087
30
0
41
1
10
20.6297089167013
20
5.05708863758141
30
0
41
1
10
20.1140564814582
20
5.05661968526468
30
0
41
1
10
19.7664333138196
20
5.05504576651771
30
0
41
1
10
19.6001745840996
20
5.0541357363669
30
0
0
SPLINE
5
10B
100
AcDbEntity
8
1
62
256
6
ByLayer
370
18
48
1
60
0
100
AcDbSpline
70
4
71
3
72
30
73
26
40
0
40
0
40
0
40
0
40
0.043718824177759
40
0.0856153849578715
40
0.129674220473924
40
0.170401611623279
40
0.20754056592747
40
0.240505727610751
40
0.280392732967822
40
0.325302386319915
40
0.370251272506895
40
0.410594336245029
40
0.470631821106966
40
0.535951879982477
40
0.586078518346529
40
0.630125311246831
40
0.673488184075877
40
0.715607365329305
40
0.75726674371767
40
0.804425534199144
40
0.849141353816428
40
0.883595104858626
40
0.924974901409906
40
0.975107896513993
40
1
40
1
40
1
40
1
41
1
10
54.2399471573793
20
5.11523601865369
30
0
41
1
10
54.0791010730057
20
5.11312963165122
30
0
41
1
10
53.7585845619279
20
5.11008504320154
30
0
41
1
10
53.2356730251285
20
5.1075968081669
30
0
41
1
10
52.7509396386957
20
5.11047643795547
30
0
41
1
10
52.2705873539462
20
5.1102679183625
30
0
41
1
10
51.832355076286
20
5.11044673157531
30
0
41
1
10
51.397721495753
20
5.11037017832481
30
0
41
1
10
50.9323082351087
20
5.1099164672404
30
0
41
1
10
50.4195583883267
20
5.10833508361827
30
0
41
1
10
49.904993150174
20
5.10705002809803
30
0
41
1
10
49.3306642138388
20
5.10576012496085
30
0
41
1
10
48.6758058977407
20
5.10354683185227
30
0
41
1
10
47.9822869472343
20
5.1033274702429
30
0
41
1
10
47.3519626088183
20
5.10325215534547
30
0
41
1
10
46.8084137765854
20
5.10304861641723
30
0
41
1
10
46.2965121835624
20
5.10192626518801
30
0
41
1
10
45.7940491310517
20
5.09970948456103
30
0
41
1
10
45.2765802143777
20
5.09873212345957
30
0
41
1
10
44.7488491895891
20
5.09830641470703
30
0
41
1
10
44.2495979922867
20
5.09797543113413
30
0
41
1
10
43.7731710442846
20
5.09748376082143
30
0
41
1
10
43.2754178978395
20
5.09661973595388
30
0
41
1
10
42.8151087419075
20
5.0951890476444
30
0
41
1
10
42.5191165293666
20
5.09452407235563
30
0
41
1
10
42.4208517762214
20
5.09433114645418
30
0
0
LINE
5
82
100
AcDbEntity
8
4
62
256
6
ByLayer
370
18
48
0.05
60
0
100
AcDbLine
10
0
20
0
30
0
11
73
21
0
31
0
39
0
210
0
220
0
230
1
0
LINE
5
84
100
AcDbEntity
8
81
62
256
6
ByLayer
370
18
48
1
60
0
100
AcDbLine
10
73
20
0
30
0
11
76
21
0
31
0
39
0
210
0
220
0
230
1
0
LINE
5
85
100
AcDbEntity
8
80
62
256
6
ByLayer
370
18
48
1
60
0
100
AcDbLine
10
0
20
0
30
0
11
-3
21
0
31
0
39
0
210
0
220
0
230
1
0
LINE
5
86
100
AcDbEntity
8
SK4
62
256
6
ByLayer
370
18
48
0.05
60
0
100
AcDbLine
10
-48
20
0
30
0
11
76
21
0
31
0
39
0
210
0
220
0
230
1
0
LINE
5
88
100
AcDbEntity
8
1
62
256
6
ByLayer
370
18
48
1
60
0
100
AcDbLine
10
0
20
6
30
0
11
0
21
-6
31
0
39
0
210
0
220
0
230
1
0
LINE
5
89
100
AcDbEntity
8
1
62
256
6
ByLayer
370
13
48
1
60
0
100
AcDbLine
10
72.881794
20
0.548718
30
0
11
71.762288
21
1.672458
31
0
39
0
210
0
220
0
230
1
0
LINE
5
8A
100
AcDbEntity
8
1
62
256
6
ByLayer
370
13
48
1
60
0
100
AcDbLine
10
0.685581
20
-5.612285
30
0
11
0.685581
21
5.612285
31
0
39
0
210
0
220
0
230
1
0
LINE
5
8B
100
AcDbEntity
8
1
62
256
6
ByLayer
370
18
48
1
60
0
100
AcDbLine
10
19.60026
20
5.054331
30
0
11
19.600257
21
5.05398
31
0
39
0
210
0
220
0
230
1
0
LINE
5
8C
100
AcDbEntity
8
1
62
256
6
ByLayer
370
18
48
1
60
0
100
AcDbLine
10
19.499764
20
5.257199
30
0
11
19.499764
21
1.933351
31
0
39
0
210
0
220
0
230
1
0
LINE
5
8D
100
AcDbEntity
8
1
62
256
6
ByLayer
370
18
48
1
60
0
100
AcDbLine
10
19.499764
20
-5.181512
30
0
11
19.499764
21
-5.257199
31
0
39
0
210
0
220
0
230
1
0
LINE
5
8E
100
AcDbEntity
8
1
62
256
6
ByLayer
370
18
48
1
60
0
100
AcDbLine
10
19.499764
20
1.248802
30
0
11
19.499764
21
1.170841
31
0
39
0
210
0
220
0
230
1
0
LINE
5
8F
100
AcDbEntity
8
1
62
256
6
ByLayer
370
13
48
1
60
0
100
AcDbLine
10
1.372602
20
-5.22457
30
0
11
1.372602
21
5.22457
31
0
39
0
210
0
220
0
230
1
0
LINE
5
90
100
AcDbEntity
8
SK1
62
256
6
ByLayer
370
18
48
1
60
0
100
AcDbLine
10
-45
20
4.128167
30
0
11
-45
21
3.611708
31
0
39
0
210
0
220
0
230
1
0
LINE
5
92
100
AcDbEntity
8
SK1
62
256
6
ByLayer
370
13
48
1
60
0
100
AcDbLine
10
-44.25
20
3.881709
30
0
11
-44.25
21
4.808895
31
0
39
0
210
0
220
0
230
1
0
LINE
5
93
100
AcDbEntity
8
SK1
62
256
6
ByLayer
370
18
48
1
60
0
100
AcDbLine
10
-44.15
20
4.035302
30
0
11
-44.15
21
4.869714
31
0
39
0
210
0
220
0
230
1
0
LINE
5
94
100
AcDbEntity
8
SK1
62
256
6
ByLayer
370
18
48
1
60
0
100
AcDbLine
10
-45
20
-4.255
30
0
11
-45
21
3.201042
31
0
39
0
210
0
220
0
230
1
0
LINE
5
95
100
AcDbEntity
8
SK1
62
256
6
ByLayer
370
18
48
1
60
0
100
AcDbLine
10
-45
20
4.128167
30
0
11
-45
21
4.255
31
0
39
0
210
0
220
0
230
1
0
LINE
5
96
100
AcDbEntity
8
SK1
62
256
6
ByLayer
370
18
48
1
60
0
100
AcDbLine
10
-43.255
20
-6
30
0
11
-43.255
21
6
31
0
39
0
210
0
220
0
230
1
0
LINE
5
97
100
AcDbEntity
8
SK1
62
256
6
ByLayer
370
18
48
1
60
0
100
AcDbLine
10
0
20
6
30
0
11
0
21
-6
31
0
39
0
210
0
220
0
230
1
0
LINE
5
98
100
AcDbEntity
8
1
62
256
6
ByLayer
370
18
48
1
60
0
100
AcDbLine
10
1.372602
20
-5.22457
30
0
11
19.499764
21
-5.257199
31
0
39
0
210
0
220
0
230
1
0
LINE
5
99
100
AcDbEntity
8
1
62
256
6
ByLayer
370
18
48
1
60
0
100
AcDbLine
10
21.585308
20
-5.260953
30
0
11
23.166296
21
-5.263799
31
0
39
0
210
0
220
0
230
1
0
LINE
5
9A
100
AcDbEntity
8
1
62
256
6
ByLayer
370
18
48
1
60
0
100
AcDbLine
10
38.33619
20
-5.291105
30
0
11
39.616618
21
-5.29341
31
0
39
0
210
0
220
0
230
1
0
LINE
5
9B
100
AcDbEntity
8
1
62
256
6
ByLayer
370
18
48
1
60
0
100
AcDbLine
10
54.239198
20
-5.31973
30
0
11
55.7365
21
-5.322425
31
0
39
0
210
0
220
0
230
1
0
LINE
5
9C
100
AcDbEntity
8
1
62
256
6
ByLayer
370
18
48
1
60
0
100
AcDbLine
10
55.7365
20
5.322425
30
0
11
54.239198
21
5.31973
31
0
39
0
210
0
220
0
230
1
0
LINE
5
9D
100
AcDbEntity
8
1
62
256
6
ByLayer
370
18
48
1
60
0
100
AcDbLine
10
39.616618
20
5.29341
30
0
11
38.33619
21
5.291105
31
0
39
0
210
0
220
0
230
1
0
LINE
5
9E
100
AcDbEntity
8
1
62
256
6
ByLayer
370
18
48
1
60
0
100
AcDbLine
10
23.166296
20
5.263799
30
0
11
21.585308
21
5.260953
31
0
39
0
210
0
220
0
230
1
0
LINE
5
9F
100
AcDbEntity
8
1
62
256
6
ByLayer
370
18
48
1
60
0
100
AcDbLine
10
19.499764
20
5.257199
30
0
11
1.372602
21
5.22457
31
0
39
0
210
0
220
0
230
1
0
LINE
5
A0
100
AcDbEntity
8
SK1
62
256
6
ByLayer
370
18
48
1
60
0
100
AcDbLine
10
-45
20
-4.255
30
0
11
-43.255
21
-6
31
0
39
0
210
0
220
0
230
1
0
LINE
5
A1
100
AcDbEntity
8
SK1
62
256
6
ByLayer
370
18
48
1
60
0
100
AcDbLine
10
-43.255
20
6
30
0
11
-45
21
4.255
31
0
39
0
210
0
220
0
230
1
0
LINE
5
A2
100
AcDbEntity
8
SK1
62
256
6
ByLayer
370
18
48
1
60
0
100
AcDbLine
10
-43.255
20
-6
30
0
11
0
21
-6
31
0
39
0
210
0
220
0
230
1
0
LINE
5
A3
100
AcDbEntity
8
SK1
62
256
6
ByLayer
370
18
48
1
60
0
100
AcDbLine
10
0
20
6
30
0
11
-43.255
21
6
31
0
39
0
210
0
220
0
230
1
0
LINE
5
A4
100
AcDbEntity
8
2
62
256
6
ByLayer
370
13
48
1
60
0
100
AcDbLine
10
80.5
20
-5.35
30
0
11
80.5
21
31.141027
31
0
39
0
210
0
220
0
230
1
0
LINE
5
A6
100
AcDbEntity
8
2
62
256
6
ByLayer
370
13
48
1
60
0
100
AcDbLine
10
74.5875
20
5.35
30
0
11
82.5
21
5.35
31
0
39
0
210
0
220
0
230
1
0
LINE
5
A7
100
AcDbEntity
8
2
62
256
6
ByLayer
370
13
48
1
60
0
100
AcDbLine
10
74.5875
20
-5.35
30
0
11
82.5
21
-5.35
31
0
39
0
210
0
220
0
230
1
0
LINE
5
A8
100
AcDbEntity
8
1
62
256
6
ByLayer
370
18
48
1
60
1
100
AcDbLine
10
80.5
20
5.35
30
0
11
80.960784
21
1.850002
31
0
39
0
210
0
220
0
230
1
0
LINE
5
A9
100
AcDbEntity
8
1
62
256
6
ByLayer
370
18
48
1
60
1
100
AcDbLine
10
80.960784
20
1.850002
30
0
11
80.039216
21
1.849998
31
0
39
0
210
0
220
0
230
1
0
LINE
5
AA
100
AcDbEntity
8
1
62
256
6
ByLayer
370
18
48
1
60
1
100
AcDbLine
10
80.039216
20
1.849998
30
0
11
80.5
21
5.35
31
0
39
0
210
0
220
0
230
1
0
LINE
5
AB
100
AcDbEntity
8
1
62
256
6
ByLayer
370
18
48
1
60
1
100
AcDbLine
10
80.5
20
-5.35
30
0
11
80.039216
21
-1.850002
31
0
39
0
210
0
220
0
230
1
0
LINE
5
AC
100
AcDbEntity
8
1
62
256
6
ByLayer
370
18
48
1
60
1
100
AcDbLine
10
80.039216
20
-1.850002
30
0
11
80.960784
21
-1.849998
31
0
39
0
210
0
220
0
230
1
0
LINE
5
AD
100
AcDbEntity
8
1
62
256
6
ByLayer
370
18
48
1
60
1
100
AcDbLine
10
80.960784
20
-1.849998
30
0
11
80.5
21
-5.35
31
0
39
0
210
0
220
0
230
1
0
LINE
5
AE
100
AcDbEntity
8
SK2
62
256
6
ByLayer
370
13
48
1
60
0
100
AcDbLine
10
-53.5
20
-6
30
0
11
-53.5
21
15.333771
31
0
39
0
210
0
220
0
230
1
0
LINE
5
B0
100
AcDbEntity
8
SK2
62
256
6
ByLayer
370
13
48
1
60
0
100
AcDbLine
10
-46.5875
20
6
30
0
11
-55.5
21
6
31
0
39
0
210
0
220
0
230
1
0
LINE
5
B1
100
AcDbEntity
8
SK2
62
256
6
ByLayer
370
13
48
1
60
0
100
AcDbLine
10
-46.5875
20
-6
30
0
11
-55.5
21
-6
31
0
39
0
210
0
220
0
230
1
0
LINE
5
B2
100
AcDbEntity
8
1
62
256
6
ByLayer
370
18
48
1
60
1
100
AcDbLine
10
-53.5
20
6
30
0
11
-53.039216
21
2.500002
31
0
39
0
210
0
220
0
230
1
0
LINE
5
B3
100
AcDbEntity
8
1
62
256
6
ByLayer
370
18
48
1
60
1
100
AcDbLine
10
-53.039216
20
2.500002
30
0
11
-53.960784
21
2.499998
31
0
39
0
210
0
220
0
230
1
0
LINE
5
B4
100
AcDbEntity
8
1
62
256
6
ByLayer
370
18
48
1
60
1
100
AcDbLine
10
-53.960784
20
2.499998
30
0
11
-53.5
21
6
31
0
39
0
210
0
220
0
230
1
0
LINE
5
B5
100
AcDbEntity
8
1
62
256
6
ByLayer
370
18
48
1
60
1
100
AcDbLine
10
-53.5
20
-6
30
0
11
-53.960784
21
-2.500002
31
0
39
0
210
0
220
0
230
1
0
LINE
5
B6
100
AcDbEntity
8
1
62
256
6
ByLayer
370
18
48
1
60
1
100
AcDbLine
10
-53.960784
20
-2.500002
30
0
11
-53.039216
21
-2.499998
31
0
39
0
210
0
220
0
230
1
0
LINE
5
B7
100
AcDbEntity
8
1
62
256
6
ByLayer
370
18
48
1
60
1
100
AcDbLine
10
-53.039216
20
-2.499998
30
0
11
-53.5
21
-6
31
0
39
0
210
0
220
0
230
1
0
LINE
5
B8
100
AcDbEntity
8
SK2
62
256
6
ByLayer
370
13
48
1
60
0
100
AcDbLine
10
73.542898
20
1.491784
30
0
11
81.032637
21
22.072218
31
0
39
0
210
0
220
0
230
1
0
LINE
5
B9
100
AcDbEntity
8
SK2
62
256
6
ByLayer
370
13
48
1
60
0
100
AcDbLine
10
73.542898
20
-1.491784
30
0
11
81.032637
21
-22.072218
31
0
39
0
210
0
220
0
230
1
0
LINE
5
BA
100
AcDbEntity
8
1
62
256
6
ByLayer
370
18
48
1
60
1
100
AcDbLine
10
80.348671
20
20.192805
30
0
11
83.761347
21
19.289503
31
0
39
0
210
0
220
0
230
1
0
LINE
5
BB
100
AcDbEntity
8
1
62
256
6
ByLayer
370
18
48
1
60
1
100
AcDbLine
10
83.761347
20
19.289503
30
0
11
83.411274
21
18.437015
31
0
39
0
210
0
220
0
230
1
0
LINE
5
BC
100
AcDbEntity
8
1
62
256
6
ByLayer
370
18
48
1
60
1
100
AcDbLine
10
83.411274
20
18.437015
30
0
11
80.348671
21
20.192805
31
0
39
0
210
0
220
0
230
1
0
LINE
5
BD
100
AcDbEntity
8
1
62
256
6
ByLayer
370
18
48
1
60
1
100
AcDbLine
10
80.348671
20
-20.192805
30
0
11
83.411271
21
-18.437017
31
0
39
0
210
0
220
0
230
1
0
LINE
5
BE
100
AcDbEntity
8
1
62
256
6
ByLayer
370
18
48
1
60
1
100
AcDbLine
10
83.411271
20
-18.437017
30
0
11
83.76135
21
-19.289502
31
0
39
0
210
0
220
0
230
1
0
LINE
5
BF
100
AcDbEntity
8
1
62
256
6
ByLayer
370
18
48
1
60
1
100
AcDbLine
10
83.76135
20
-19.289502
30
0
11
80.348671
21
-20.192805
31
0
39
0
210
0
220
0
230
1
0
LINE
5
10C
100
AcDbEntity
8
1
62
256
6
ByLayer
370
13
48
0.05
60
0
100
AcDbLine
10
-51.5
20
0
30
0
11
77.560718
21
0
31
0
39
0
210
0
220
0
230
1
0
LINE
5
111
100
AcDbEntity
8
1
62
256
6
ByLayer
370
18
48
1
60
1
100
AcDbLine
10
80.5
20
5.35
30
0
11
80.960784
21
1.850002
31
0
39
0
210
0
220
0
230
1
0
LINE
5
112
100
AcDbEntity
8
1
62
256
6
ByLayer
370
18
48
1
60
1
100
AcDbLine
10
80.960784
20
1.850002
30
0
11
80.039216
21
1.849998
31
0
39
0
210
0
220
0
230
1
0
LINE
5
113
100
AcDbEntity
8
1
62
256
6
ByLayer
370
18
48
1
60
1
100
AcDbLine
10
80.039216
20
1.849998
30
0
11
80.5
21
5.35
31
0
39
0
210
0
220
0
230
1
0
LINE
5
115
100
AcDbEntity
8
1
62
256
6
ByLayer
370
18
48
1
60
1
100
AcDbLine
10
80.5
20
-5.35
30
0
11
80.039216
21
-1.850002
31
0
39
0
210
0
220
0
230
1
0
LINE
5
116
100
AcDbEntity
8
1
62
256
6
ByLayer
370
18
48
1
60
1
100
AcDbLine
10
80.039216
20
-1.850002
30
0
11
80.960784
21
-1.849998
31
0
39
0
210
0
220
0
230
1
0
LINE
5
117
100
AcDbEntity
8
1
62
256
6
ByLayer
370
18
48
1
60
1
100
AcDbLine
10
80.960784
20
-1.849998
30
0
11
80.5
21
-5.35
31
0
39
0
210
0
220
0
230
1
0
LINE
5
11B
100
AcDbEntity
8
1
62
256
6
ByLayer
370
18
48
1
60
1
100
AcDbLine
10
-53.5
20
6
30
0
11
-53.039216
21
2.500002
31
0
39
0
210
0
220
0
230
1
0
LINE
5
11C
100
AcDbEntity
8
1
62
256
6
ByLayer
370
18
48
1
60
1
100
AcDbLine
10
-53.039216
20
2.500002
30
0
11
-53.960784
21
2.499998
31
0
39
0
210
0
220
0
230
1
0
LINE
5
11D
100
AcDbEntity
8
1
62
256
6
ByLayer
370
18
48
1
60
1
100
AcDbLine
10
-53.960784
20
2.499998
30
0
11
-53.5
21
6
31
0
39
0
210
0
220
0
230
1
0
LINE
5
11F
100
AcDbEntity
8
1
62
256
6
ByLayer
370
18
48
1
60
1
100
AcDbLine
10
-53.5
20
-6
30
0
11
-53.960784
21
-2.500002
31
0
39
0
210
0
220
0
230
1
0
LINE
5
120
100
AcDbEntity
8
1
62
256
6
ByLayer
370
18
48
1
60
1
100
AcDbLine
10
-53.960784
20
-2.500002
30
0
11
-53.039216
21
-2.499998
31
0
39
0
210
0
220
0
230
1
0
LINE
5
121
100
AcDbEntity
8
1
62
256
6
ByLayer
370
18
48
1
60
1
100
AcDbLine
10
-53.039216
20
-2.499998
30
0
11
-53.5
21
-6
31
0
39
0
210
0
220
0
230
1
0
LINE
5
124
100
AcDbEntity
8
1
62
256
6
ByLayer
370
18
48
1
60
1
100
AcDbLine
10
80.348671
20
20.192805
30
0
11
83.761347
21
19.289503
31
0
39
0
210
0
220
0
230
1
0
LINE
5
125
100
AcDbEntity
8
1
62
256
6
ByLayer
370
18
48
1
60
1
100
AcDbLine
10
83.761347
20
19.289503
30
0
11
83.411274
21
18.437015
31
0
39
0
210
0
220
0
230
1
0
LINE
5
126
100
AcDbEntity
8
1
62
256
6
ByLayer
370
18
48
1
60
1
100
AcDbLine
10
83.411274
20
18.437015
30
0
11
80.348671
21
20.192805
31
0
39
0
210
0
220
0
230
1
0
LINE
5
128
100
AcDbEntity
8
1
62
256
6
ByLayer
370
18
48
1
60
1
100
AcDbLine
10
80.348671
20
-20.192805
30
0
11
83.411271
21
-18.437017
31
0
39
0
210
0
220
0
230
1
0
LINE
5
129
100
AcDbEntity
8
1
62
256
6
ByLayer
370
18
48
1
60
1
100
AcDbLine
10
83.411271
20
-18.437017
30
0
11
83.76135
21
-19.289502
31
0
39
0
210
0
220
0
230
1
0
LINE
5
12A
100
AcDbEntity
8
1
62
256
6
ByLayer
370
18
48
1
60
1
100
AcDbLine
10
83.76135
20
-19.289502
30
0
11
80.348671
21
-20.192805
31
0
39
0
210
0
220
0
230
1
0
MTEXT
5
10D
100
AcDbEntity
8
2
62
256
6
ByLayer
370
18
48
1
60
0
100
AcDbMText
10
79.158886
20
19.008437
30
0
210
0
220
0
230
1
1
%%c
40
3
41
0
44
1.084337
50
90
71
7
72
5
7
iso_b_vert
0
MTEXT
5
110
100
AcDbEntity
8
2
62
256
6
ByLayer
370
18
48
1
60
0
100
AcDbMText
10
79.158886
20
24.985
30
0
210
0
220
0
230
1
1
\W0.6563;10.7
40
3
41
0
44
1.084337
50
90
71
7
72
5
7
iso_b_vert
0
MTEXT
5
119
100
AcDbEntity
8
SK2
62
256
6
ByLayer
370
18
48
1
60
0
100
AcDbMText
10
-54.841114
20
6.658437
30
0
210
0
220
0
230
1
1
%%c
40
3
41
0
44
1.084337
50
90
71
7
72
5
7
iso_b_vert
0
MTEXT
5
11A
100
AcDbEntity
8
SK2
62
256
6
ByLayer
370
18
48
1
60
0
100
AcDbMText
10
-54.841114
20
12.635
30
0
210
0
220
0
230
1
1
\W0.5321;12
40
3
41
0
44
1.084337
50
90
71
7
72
5
7
iso_b_vert
0
MTEXT
5
123
100
AcDbEntity
8
SK2
62
256
6
ByLayer
370
18
48
1
60
0
100
AcDbMText
10
91.047767
20
-2.114886
30
0
210
0
220
0
230
1
1
\W0.7071;140%%d
40
3
41
0
44
1.084337
50
0
71
7
72
5
7
iso_b_vert
0
MTEXT
5
12C
100
AcDbEntity
8
SK6
62
256
6
ByLayer
370
18
48
1
60
0
100
AcDbMText
10
-9.171613
20
-84.476697
30
0
210
0
220
0
230
1
1
\W0.7415;860.1-1070-055A1-SD S2BM
40
3
41
0
44
1.084337
50
0
71
7
72
5
7
iso_b_vert
0
HATCH
5
114
100
AcDbEntity
8
2
62
256
6
ByLayer
370
13
48
1
60
0
100
AcDbHatch
10
0
20
0
30
0
210
0
220
0
230
1
2
ANSI31
70
0
71
0
91
1
92
5
93
3
72
1
10
80.5
20
5.34999999999999
11
80.9607837415528
21
1.85000169255318
72
1
10
80.9607837415528
20
1.85000169255318
11
80.0392162584472
21
1.84999830744681
72
1
10
80.0392162584472
20
1.84999830744681
11
80.5
21
5.34999999999999
97
0
75
0
76
1
52
0
41
0.0062
77
0
78
1
53
45
43
0
44
0
45
-0.0139193969876572
46
0.0139193969876572
79
0
47
0
98
1
10
0
20
0
0
HATCH
5
118
100
AcDbEntity
8
2
62
256
6
ByLayer
370
13
48
1
60
0
100
AcDbHatch
10
0
20
0
30
0
210
0
220
0
230
1
2
ANSI31
70
0
71
0
91
1
92
5
93
3
72
1
10
80.5
20
-5.35000000000002
11
80.0392162584472
21
-1.85000169255321
72
1
10
80.0392162584472
20
-1.85000169255321
11
80.9607837415528
21
-1.84999830744684
72
1
10
80.9607837415528
20
-1.84999830744684
11
80.5
21
-5.35000000000002
97
0
75
0
76
1
52
0
41
0.0062
77
0
78
1
53
45
43
0
44
0
45
-0.0139193969876572
46
0.0139193969876572
79
0
47
0
98
1
10
0
20
0
0
HATCH
5
11E
100
AcDbEntity
8
SK2
62
256
6
ByLayer
370
13
48
1
60
0
100
AcDbHatch
10
0
20
0
30
0
210
0
220
0
230
1
2
ANSI31
70
0
71
0
91
1
92
5
93
3
72
1
10
-53.5
20
6
11
-53.0392162584472
21
2.50000169255318
72
1
10
-53.0392162584472
20
2.50000169255318
11
-53.9607837415528
21
2.49999830744682
72
1
10
-53.9607837415528
20
2.49999830744682
11
-53.5
21
6
97
0
75
0
76
1
52
0
41
0.0062
77
0
78
1
53
45
43
0
44
0
45
-0.0139193969876572
46
0.0139193969876572
79
0
47
0
98
1
10
0
20
0
0
HATCH
5
122
100
AcDbEntity
8
SK2
62
256
6
ByLayer
370
13
48
1
60
0
100
AcDbHatch
10
0
20
0
30
0
210
0
220
0
230
1
2
ANSI31
70
0
71
0
91
1
92
5
93
3
72
1
10
-53.5
20
-6
11
-53.9607837415528
21
-2.50000169255318
72
1
10
-53.9607837415528
20
-2.50000169255318
11
-53.0392162584472
21
-2.49999830744682
72
1
10
-53.0392162584472
20
-2.49999830744682
11
-53.5
21
-6
97
0
75
0
76
1
52
0
41
0.0062
77
0
78
1
53
45
43
0
44
0
45
-0.0139193969876572
46
0.0139193969876572
79
0
47
0
98
1
10
0
20
0
0
HATCH
5
127
100
AcDbEntity
8
SK2
62
256
6
ByLayer
370
13
48
1
60
0
100
AcDbHatch
10
0
20
0
30
0
210
0
220
0
230
1
2
ANSI31
70
0
71
0
91
1
92
5
93
3
72
1
10
80.3486713862668
20
20.1928052986804
11
83.7613470662795
21
19.2895032939999
72
1
10
83.7613470662795
20
19.2895032939999
11
83.4112741116531
21
18.4370154334599
72
1
10
83.4112741116531
20
18.4370154334599
11
80.3486713862668
21
20.1928052986804
97
0
75
0
76
1
52
0
41
0.0062
77
0
78
1
53
45
43
0
44
0
45
-0.0139193969876572
46
0.0139193969876572
79
0
47
0
98
1
10
0
20
0
0
HATCH
5
12B
100
AcDbEntity
8
SK2
62
256
6
ByLayer
370
13
48
1
60
0
100
AcDbHatch
10
0
20
0
30
0
210
0
220
0
230
1
2
ANSI31
70
0
71
0
91
1
92
5
93
3
72
1
10
80.3486713862664
20
-20.1928052986805
11
83.4112709802947
21
-18.4370167193613
72
1
10
83.4112709802947
20
-18.4370167193613
11
83.7613501976371
21
-19.2895020080989
72
1
10
83.7613501976371
20
-19.2895020080989
11
80.3486713862664
21
-20.1928052986805
97
0
75
0
76
1
52
0
41
0.0062
77
0
78
1
53
45
43
0
44
0
45
-0.0139193969876572
46
0.0139193969876572
79
0
47
0
98
1
10
0
20
0
0
DIMENSION
5
12F
100
AcDbEntity
8
SK2
62
256
6
ByLayer
370
18
48
1
60
0
100
AcDbDimension
2
_U0
10
17.6
20
-45.799084
30
0
11
45.3
21
-45.799084
31
0
70
32
71
1
72
1
41
1
210
0
220
0
230
1
3
Standard
100
AcDbAlignedDimension
13
73
23
-5.35
33
0
14
17.6
24
-5.35
34
0
50
0
100
AcDbRotatedDimension
1001
ACAD
1000
DSTYLE
1002
{
1070
   371
1070
    13
1070
   372
1070
    13
1070
   170
1070
     0
1070
   144
1040
1.0
1070
   277
1070
     2
1070
   284
1070
     8
1070
   278
1070
    46
1070
   146
1040
1.166667
1070
   345
1005
16
1070
   347
1005
16
1070
   346
1005
16
1070
   344
1005
0
1070
   343
1005
0
1070
   172
1070
     1
1070
    76
1070
     0
1070
    75
1070
     0
1070
   282
1070
     0
1070
   281
1070
     0
1070
     3
1000

1070
    71
1070
     0
1070
    74
1070
     0
1070
   279
1070
     0
1070
   173
1070
     1
1070
   340
1005
10E
1070
   271
1070
     2
1070
   272
1070
     2
1070
    77
1070
     1
1070
    73
1070
     1
1070
   171
1070
     3
1070
   274
1070
     4
1070
   177
1070
     2
1070
   176
1070
     2
1070
   178
1070
     2
1070
    78
1070
     8
1070
    48
1040
-0.1
1070
    41
1040
3.5
1070
   147
1040
1.5
1070
    42
1040
1.5875
1070
    44
1040
2.0
1070
   140
1040
3.0
1002
}
1001
ACAD_DSTYLE_DIM_LINETYPE
1070
   380
1005
16
1001
ACAD_DSTYLE_DIM_EXT1_LINETYPE
1070
   381
1005
16
1001
ACAD_DSTYLE_DIM_EXT2_LINETYPE
1070
   382
1005
16
0
DIMENSION
5
14A
100
AcDbEntity
8
SK2
62
256
6
ByLayer
370
18
48
1
60
0
100
AcDbDimension
2
_U1
10
2
20
-55.799084
30
0
11
37.5
21
-55.799084
31
0
70
32
71
1
72
1
41
1
210
0
220
0
230
1
3
Standard
100
AcDbAlignedDimension
13
73
23
-5.35
33
0
14
2
24
-5.35
34
0
50
0
100
AcDbRotatedDimension
1001
ACAD
1000
DSTYLE
1002
{
1070
   371
1070
    13
1070
   372
1070
    13
1070
     3
1000

1070
   170
1070
     0
1070
   144
1040
1.0
1070
   277
1070
     2
1070
   284
1070
     8
1070
   278
1070
    46
1070
   146
1040
1.166667
1070
   345
1005
16
1070
   347
1005
16
1070
   346
1005
16
1070
   344
1005
0
1070
   343
1005
0
1070
   172
1070
     1
1070
    76
1070
     0
1070
    75
1070
     0
1070
   282
1070
     0
1070
   281
1070
     0
1070
    71
1070
     0
1070
    74
1070
     0
1070
   279
1070
     0
1070
   173
1070
     1
1070
   340
1005
10E
1070
   271
1070
     2
1070
   272
1070
     2
1070
    77
1070
     1
1070
    73
1070
     1
1070
   171
1070
     3
1070
   274
1070
     4
1070
   177
1070
     2
1070
   176
1070
     2
1070
   178
1070
     2
1070
    78
1070
     8
1070
    48
1040
-0.1
1070
    41
1040
3.5
1070
   147
1040
1.5
1070
    42
1040
1.5875
1070
    44
1040
2.0
1070
   140
1040
3.0
1002
}
1001
ACAD_DSTYLE_DIM_LINETYPE
1070
   380
1005
16
1001
ACAD_DSTYLE_DIM_EXT1_LINETYPE
1070
   381
1005
16
1001
ACAD_DSTYLE_DIM_EXT2_LINETYPE
1070
   382
1005
16
0
DIMENSION
5
162
100
AcDbEntity
8
SK2
62
256
6
ByLayer
370
18
48
1
60
0
100
AcDbDimension
2
_U2
10
0
20
-63.799084
30
0
11
-22.5
21
-63.799084
31
0
70
32
71
1
72
1
41
1
210
0
220
0
230
1
3
Standard
100
AcDbAlignedDimension
13
-45
23
-6
33
0
14
0
24
-6
34
0
50
0
100
AcDbRotatedDimension
1001
ACAD
1000
DSTYLE
1002
{
1070
   371
1070
    13
1070
   372
1070
    13
1070
     3
1000

1070
   170
1070
     0
1070
   144
1040
1.0
1070
   277
1070
     2
1070
   284
1070
     8
1070
   278
1070
    46
1070
   146
1040
1.166667
1070
   345
1005
16
1070
   347
1005
16
1070
   346
1005
16
1070
   344
1005
0
1070
   343
1005
0
1070
   172
1070
     1
1070
    76
1070
     0
1070
    75
1070
     0
1070
   282
1070
     0
1070
   281
1070
     0
1070
    71
1070
     0
1070
    74
1070
     0
1070
   279
1070
     0
1070
   173
1070
     1
1070
   340
1005
10E
1070
   271
1070
     2
1070
   272
1070
     2
1070
    77
1070
     1
1070
    73
1070
     1
1070
   171
1070
     3
1070
   274
1070
     4
1070
   177
1070
     2
1070
   176
1070
     2
1070
   178
1070
     2
1070
    78
1070
     8
1070
    48
1040
-0.1
1070
    41
1040
3.5
1070
   147
1040
1.5
1070
    42
1040
1.5875
1070
    44
1040
2.0
1070
   140
1040
3.0
1002
}
1001
ACAD_DSTYLE_DIM_LINETYPE
1070
   380
1005
16
1001
ACAD_DSTYLE_DIM_EXT1_LINETYPE
1070
   381
1005
16
1001
ACAD_DSTYLE_DIM_EXT2_LINETYPE
1070
   382
1005
16
0
DIMENSION
5
17A
100
AcDbEntity
8
SK2
62
256
6
ByLayer
370
18
48
1
60
0
100
AcDbDimension
2
_U3
10
73
20
-71.799084
30
0
11
14
21
-71.799084
31
0
70
32
71
1
72
1
41
1
210
0
220
0
230
1
3
Standard
100
AcDbAlignedDimension
13
-45
23
-6
33
0
14
73
24
-5.35
34
0
50
0
100
AcDbRotatedDimension
1001
ACAD
1000
DSTYLE
1002
{
1070
   371
1070
    13
1070
   372
1070
    13
1070
     3
1000

1070
   170
1070
     0
1070
   144
1040
1.0
1070
   277
1070
     2
1070
   284
1070
     8
1070
   278
1070
    46
1070
   146
1040
1.166667
1070
   345
1005
16
1070
   347
1005
16
1070
   346
1005
16
1070
   344
1005
0
1070
   343
1005
0
1070
   172
1070
     1
1070
    76
1070
     0
1070
    75
1070
     0
1070
   282
1070
     0
1070
   281
1070
     0
1070
    71
1070
     0
1070
    74
1070
     0
1070
   279
1070
     0
1070
   173
1070
     1
1070
   340
1005
10E
1070
   271
1070
     2
1070
   272
1070
     2
1070
    77
1070
     1
1070
    73
1070
     1
1070
   171
1070
     3
1070
   274
1070
     4
1070
   177
1070
     2
1070
   176
1070
     2
1070
   178
1070
     2
1070
    78
1070
     8
1070
    48
1040
-0.1
1070
    41
1040
3.5
1070
   147
1040
1.5
1070
    42
1040
1.5875
1070
    44
1040
2.0
1070
   140
1040
3.0
1002
}
1001
ACAD_DSTYLE_DIM_LINETYPE
1070
   380
1005
16
1001
ACAD_DSTYLE_DIM_EXT1_LINETYPE
1070
   381
1005
16
1001
ACAD_DSTYLE_DIM_EXT2_LINETYPE
1070
   382
1005
16
0
DIMENSION
5
192
100
AcDbEntity
8
2
62
256
6
ByLayer
370
18
48
1
60
0
100
AcDbDimension
2
_U4
10
0
20
-63.799084
30
0
11
36.5
21
-63.799084
31
0
70
32
71
1
72
1
41
1
210
0
220
0
230
1
3
Standard
100
AcDbAlignedDimension
13
73
23
-5.35
33
0
14
0
24
-5.35
34
0
50
0
100
AcDbRotatedDimension
1001
ACAD
1000
DSTYLE
1002
{
1070
   371
1070
    13
1070
   372
1070
    13
1070
     3
1000

1070
   170
1070
     0
1070
   144
1040
1.0
1070
   277
1070
     2
1070
   284
1070
     8
1070
   278
1070
    46
1070
   146
1040
1.166667
1070
   345
1005
16
1070
   347
1005
16
1070
   346
1005
16
1070
   344
1005
0
1070
   343
1005
0
1070
   172
1070
     1
1070
    76
1070
     0
1070
    75
1070
     0
1070
   282
1070
     0
1070
   281
1070
     0
1070
    71
1070
     0
1070
    74
1070
     0
1070
   279
1070
     0
1070
   173
1070
     1
1070
   340
1005
10E
1070
   271
1070
     2
1070
   272
1070
     2
1070
    77
1070
     1
1070
    73
1070
     1
1070
   171
1070
     3
1070
   274
1070
     4
1070
   177
1070
     2
1070
   176
1070
     2
1070
   178
1070
     2
1070
    78
1070
     8
1070
    48
1040
-0.1
1070
    41
1040
3.5
1070
   147
1040
1.5
1070
    42
1040
1.5875
1070
    44
1040
2.0
1070
   140
1040
3.0
1002
}
1001
ACAD_DSTYLE_DIM_LINETYPE
1070
   380
1005
16
1001
ACAD_DSTYLE_DIM_EXT1_LINETYPE
1070
   381
1005
16
1001
ACAD_DSTYLE_DIM_EXT2_LINETYPE
1070
   382
1005
16
0
ENDSEC
0
SECTION
2
OBJECTS
0
DICTIONARY
5
21a
330
0
100
AcDbDictionary
280
0
281
1
3
ACAD_GROUP
350
21b
3
ACAD_MLINESTYLE
350
21c
0
DICTIONARY
5
21b
330
0
100
AcDbDictionary
280
0
281
1
0
DICTIONARY
5
21c
330
0
100
AcDbDictionary
280
0
281
1
3
Standard
350
18
0
MLINESTYLE
5
18
330
21c
100
AcDbMlineStyle
2
Standard
70
0
3

62
256
51
90
52
90
71
2
49
-0.5
62
256
6
ByLayer
49
0.5
62
256
6
ByLayer
0
RASTERVARIABLES
5
208
330

100
AcDbRasterVariables
90
0
70
1
71
1
72
1
0
ENDSEC
0
EOF
