0
SECTION
2
HEADER
9
$ACADVER
1
AC1015
9
$DWGCODEPAGE
3
ANSI_1252
9
$HANDSEED
5
229
9
$ANGBASE
50
0
9
$ANGDIR
70
0
9
$ATTMODE
70
1
9
$AUNITS
70
0
9
$AUPREC
70
0
9
$CECOLOR
62
256
9
$CELTSCALE
40
1
9
$CELTYPE
6
ByLayer
9
$CELWEIGHT
370
18
9
$CLAYER
8
0
9
$CMLJUST
70
0
9
$CMLSCALE
40
1
9
$CMLSTYLE
2
Standard
9
$DIMSTYLE
2
Standard
9
$TEXTSIZE
40
0.2
9
$TEXTSTYLE
7
Standard
9
$LUNITS
70
2
9
$LUPREC
70
4
9
$EXTNAMES
290
1
9
$INSUNITS
70
4
9
$LTSCALE
40
1
9
$LWDISPLAY
290
1
9
$PDMODE
70
0
9
$PDSIZE
40
0
9
$PLINEGEN
70
0
0
ENDSEC
0
SECTION
2
CLASSES
0
CLASS
1
RASTERVARIABLES
2
AcDbRasterVariables
3
ISM
90
0
280
0
281
0
0
ENDSEC
0
SECTION
2
TABLES
0
TABLE
2
VPORT
5
21f
100
AcDbSymbolTable
0
VPORT
5
1
100
AcDbSymbolTableRecord
100
AcDbViewportTableRecord
2
*Active
70
0
10
0
20
0
11
1
21
1
12
-1
22
1
13
0
23
0
14
0.5
24
0.5
15
10
25
10
16
0
26
0
36
1
17
0
27
0
37
0
0
ENDTAB
0
TABLE
2
LTYPE
5
220
100
AcDbSymbolTable
0
LTYPE
5
14
100
AcDbSymbolTableRecord
100
AcDbLinetypeTableRecord
70
0
2
ByBlock
3

72
65
73
0
40
0
0
LTYPE
5
15
100
AcDbSymbolTableRecord
100
AcDbLinetypeTableRecord
70
0
2
ByLayer
3

72
65
73
0
40
0
0
LTYPE
5
16
100
AcDbSymbolTableRecord
100
AcDbLinetypeTableRecord
70
0
2
Continuous
3
Solid line
72
65
73
0
40
0
0
LTYPE
5
6E
100
AcDbSymbolTableRecord
100
AcDbLinetypeTableRecord
70
0
2
CENTER
3
____ _ ____ _ ____ _ ____
72
65
73
4
40
47.5
49
22
74
0
49
-8.5
74
0
49
8.5
74
0
49
-8.5
74
0
0
LTYPE
5
6F
100
AcDbSymbolTableRecord
100
AcDbLinetypeTableRecord
70
0
2
DASHED
3
__ __ __ __ __ __ __ __ __
72
65
73
2
40
25.72
49
12.86
74
0
49
-12.86
74
0
0
ENDTAB
0
TABLE
2
LAYER
5
221
100
AcDbSymbolTable
0
LAYER
5
10
100
AcDbSymbolTableRecord
100
AcDbLayerTableRecord
2
0
70
0
62
7
6
Continuous
290
1
370
-3
390
0
0
LAYER
5
71
100
AcDbSymbolTableRecord
100
AcDbLayerTableRecord
2
80
70
0
62
-6
6
Continuous
290
1
370
-3
390
0
0
LAYER
5
73
100
AcDbSymbolTableRecord
100
AcDbLayerTableRecord
2
81
70
0
62
-3
6
Continuous
290
1
370
-3
390
0
0
LAYER
5
75
100
AcDbSymbolTableRecord
100
AcDbLayerTableRecord
2
1
70
0
62
4
6
Continuous
290
1
370
-3
390
0
0
LAYER
5
87
100
AcDbSymbolTableRecord
100
AcDbLayerTableRecord
2
4
70
0
62
-2
6
CENTER
290
1
370
-3
390
0
0
LAYER
5
A6
100
AcDbSymbolTableRecord
100
AcDbLayerTableRecord
2
2
70
0
62
7
6
Continuous
290
1
370
-3
390
0
0
LAYER
5
134
100
AcDbSymbolTableRecord
100
AcDbLayerTableRecord
2
Defpoints
70
0
62
7
6
Continuous
290
0
370
-3
390
0
0
LAYER
5
20b
100
AcDbSymbolTableRecord
100
AcDbLayerTableRecord
2
SK4
70
0
62
2
6
CENTER
290
1
370
-3
390
0
0
LAYER
5
20c
100
AcDbSymbolTableRecord
100
AcDbLayerTableRecord
2
SK1
70
0
62
4
6
Continuous
290
1
370
-3
390
0
0
LAYER
5
20d
100
AcDbSymbolTableRecord
100
AcDbLayerTableRecord
2
SK2
70
0
62
7
6
Continuous
290
1
370
-3
390
0
0
LAYER
5
20e
100
AcDbSymbolTableRecord
100
AcDbLayerTableRecord
2
SK6
70
0
62
5
6
Continuous
290
1
370
-3
390
0
0
ENDTAB
0
TABLE
2
STYLE
5
222
100
AcDbSymbolTable
0
STYLE
5
11
100
AcDbSymbolTableRecord
100
AcDbTextStyleTableRecord
2
Standard
3
txt
70
0
71
0
40
0
41
1
42
0
50
0
0
STYLE
5
110
100
AcDbSymbolTableRecord
100
AcDbTextStyleTableRecord
2
iso_b_vert
3
simplex.shx
70
0
71
0
40
0
41
1
42
0
50
0
0
STYLE
5
111
100
AcDbSymbolTableRecord
100
AcDbTextStyleTableRecord
2
DWGDirectTextStyle
3
simplex
70
0
71
0
40
0
41
1
42
0
50
0
0
ENDTAB
0
TABLE
2
DIMSTYLE
5
223
100
AcDbSymbolTable
100
AcDbDimStyleTable
0
DIMSTYLE
105
27
100
AcDbSymbolTableRecord
100
AcDbDimStyleTableRecord
2
Standard
70
0
3
<>
41
0.18
42
0.0625
44
0.18
140
0.18
147
0.09
73
0
74
0
77
1
271
2
275
0
278
52
280
0
340
11
0
ENDTAB
0
TABLE
2
VIEW
5
224
100
AcDbSymbolTable
0
ENDTAB
0
TABLE
2
UCS
5
225
100
AcDbSymbolTable
0
ENDTAB
0
TABLE
2
APPID
5
226
100
AcDbSymbolTable
0
APPID
5
12
100
AcDbSymbolTableRecord
100
AcDbRegAppTableRecord
2
ACAD
70
0
0
APPID
5
130
100
AcDbSymbolTableRecord
100
AcDbRegAppTableRecord
2
ACAD_DSTYLE_DIMBREAK
70
0
0
APPID
5
1CA
100
AcDbSymbolTableRecord
100
AcDbRegAppTableRecord
2
ACAD_DSTYLE_DIM_LINETYPE
70
0
0
APPID
5
1CB
100
AcDbSymbolTableRecord
100
AcDbRegAppTableRecord
2
ACAD_DSTYLE_DIM_EXT1_LINETYPE
70
0
0
APPID
5
1CC
100
AcDbSymbolTableRecord
100
AcDbRegAppTableRecord
2
ACAD_DSTYLE_DIM_EXT2_LINETYPE
70
0
0
APPID
5
207
100
AcDbSymbolTableRecord
100
AcDbRegAppTableRecord
2
ACAD_MLEADERVER
70
0
0
ENDTAB
0
TABLE
2
BLOCK_RECORD
5
227
100
AcDbSymbolTable
0
BLOCK_RECORD
5
1F
100
AcDbSymbolTableRecord
100
AcDbBlockTableRecord
2
*Model_Space
340
0
70
0
0
BLOCK_RECORD
5
1B
100
AcDbSymbolTableRecord
100
AcDbBlockTableRecord
2
*Paper_Space
340
0
70
0
0
BLOCK_RECORD
5
23
100
AcDbSymbolTableRecord
100
AcDbBlockTableRecord
2
*Paper_Space0
340
0
70
0
0
BLOCK_RECORD
5
135
100
AcDbSymbolTableRecord
100
AcDbBlockTableRecord
2
*D1
340
0
70
0
0
BLOCK_RECORD
5
141
100
AcDbSymbolTableRecord
100
AcDbBlockTableRecord
2
_U0
340
0
70
0
0
BLOCK_RECORD
5
14F
100
AcDbSymbolTableRecord
100
AcDbBlockTableRecord
2
*D3
340
0
70
0
0
BLOCK_RECORD
5
15B
100
AcDbSymbolTableRecord
100
AcDbBlockTableRecord
2
_U1
340
0
70
0
0
BLOCK_RECORD
5
167
100
AcDbSymbolTableRecord
100
AcDbBlockTableRecord
2
*D5
340
0
70
0
0
BLOCK_RECORD
5
173
100
AcDbSymbolTableRecord
100
AcDbBlockTableRecord
2
_U2
340
0
70
0
0
BLOCK_RECORD
5
17F
100
AcDbSymbolTableRecord
100
AcDbBlockTableRecord
2
*D7
340
0
70
0
0
BLOCK_RECORD
5
18B
100
AcDbSymbolTableRecord
100
AcDbBlockTableRecord
2
_U3
340
0
70
0
0
BLOCK_RECORD
5
197
100
AcDbSymbolTableRecord
100
AcDbBlockTableRecord
2
*D9
340
0
70
0
0
BLOCK_RECORD
5
1A3
100
AcDbSymbolTableRecord
100
AcDbBlockTableRecord
2
_U4
340
0
70
0
0
ENDTAB
0
ENDSEC
0
SECTION
2
BLOCKS
0
BLOCK
5
20
100
AcDbEntity
8
0
100
AcDbBlockBegin
2
*Model_Space
70
0
10
0
20
0
30
0
3
*Model_Space
0
ENDBLK
5
21
100
AcDbEntity
8
0
100
AcDbBlockEnd
0
BLOCK
5
1C
100
AcDbEntity
8
0
100
AcDbBlockBegin
2
*Paper_Space
70
0
10
0
20
0
30
0
3
*Paper_Space
0
ENDBLK
5
1D
100
AcDbEntity
8
0
100
AcDbBlockEnd
0
BLOCK
5
24
100
AcDbEntity
8
0
100
AcDbBlockBegin
2
*Paper_Space0
70
0
10
0
20
0
30
0
3
*Paper_Space0
0
ENDBLK
5
25
100
AcDbEntity
8
0
100
AcDbBlockEnd
0
BLOCK
5
136
100
AcDbEntity
8
0
100
AcDbBlockBegin
2
*D1
70
1
10
0
20
0
30
0
3
*D1
0
LINE
5
138
100
AcDbEntity
8
0
62
256
6
ByLayer
370
-2
48
1
60
0
100
AcDbLine
10
73
20
-6.8125
30
0
11
73
21
-48.727303
31
0
39
0
210
0
220
0
230
1
0
LINE
5
139
100
AcDbEntity
8
0
62
256
6
ByLayer
370
-2
48
1
60
0
100
AcDbLine
10
18.9
20
-6.8125
30
0
11
18.9
21
-48.727303
31
0
39
0
210
0
220
0
230
1
0
LINE
5
13A
100
AcDbEntity
8
0
62
256
6
ByLayer
370
-2
48
1
60
0
100
AcDbLine
10
69.5
20
-46.727303
30
0
11
22.4
21
-46.727303
31
0
39
0
210
0
220
0
230
1
0
SOLID
5
13B
100
AcDbEntity
8
0
62
256
6
ByLayer
370
-1
48
1
60
0
100
AcDbTrace
10
69.5
20
-47.310636
30
0
11
69.5
21
-46.14397
31
0
12
73
22
-46.727303
32
0
13
73
23
-46.727303
33
0
39
0
210
0
220
0
230
1
0
SOLID
5
13C
100
AcDbEntity
8
0
62
256
6
ByLayer
370
-1
48
1
60
0
100
AcDbTrace
10
22.4
20
-46.14397
30
0
11
22.4
21
-47.310636
31
0
12
18.9
22
-46.727303
32
0
13
18.9
23
-46.727303
33
0
39
0
210
0
220
0
230
1
0
MTEXT
5
13D
100
AcDbEntity
8
0
62
256
6
ByLayer
370
18
48
1
60
0
100
AcDbMText
10
45.95
20
-40.727303
30
0
210
0
220
0
230
1
1
\A1;54.1
40
3
41
0
44
1
50
0
71
5
72
5
7
iso_b_vert
0
POINT
5
13E
100
AcDbEntity
8
Defpoints
62
0
6
ByLayer
370
-1
48
1
60
0
100
AcDbPoint
10
73
20
-5.225
30
0
39
0
210
0
220
0
230
1
50
360
0
POINT
5
13F
100
AcDbEntity
8
Defpoints
62
0
6
ByLayer
370
-1
48
1
60
0
100
AcDbPoint
10
18.9
20
-5.225
30
0
39
0
210
0
220
0
230
1
50
360
0
POINT
5
140
100
AcDbEntity
8
Defpoints
62
0
6
ByLayer
370
-1
48
1
60
0
100
AcDbPoint
10
18.9
20
-46.727303
30
0
39
0
210
0
220
0
230
1
50
360
0
ENDBLK
5
137
100
AcDbEntity
8
0
100
AcDbBlockEnd
0
BLOCK
5
14A
100
AcDbEntity
8
0
100
AcDbBlockBegin
2
_U0
70
0
10
0
20
0
30
0
3
_U0
0
MTEXT
5
142
100
AcDbEntity
8
SK2
62
256
6
ByLayer
370
18
48
1
60
0
100
AcDbMText
10
42.805544
20
-44.529688
30
0
210
0
220
0
230
1
1
\W0.7531;54.1
40
3
41
0
44
1.084337
50
0
71
7
72
5
7
iso_b_vert
0
MTEXT
5
143
100
AcDbEntity
8
SK2
62
256
6
ByLayer
370
18
48
1
60
0
100
AcDbMText
10
40.705544
20
-44.529688
30
0
210
0
220
0
230
1
1
\W1.1313;{\H1.88x;(}
40
3
41
0
44
1.084337
50
0
71
7
72
5
7
iso_b_vert
0
MTEXT
5
144
100
AcDbEntity
8
SK2
62
256
6
ByLayer
370
18
48
1
60
0
100
AcDbMText
10
49.412456
20
-44.529688
30
0
210
0
220
0
230
1
1
\W1.1313;{\H1.88x;)}
40
3
41
0
44
1.084337
50
0
71
7
72
5
7
iso_b_vert
0
LINE
5
145
100
AcDbEntity
8
SK2
62
256
6
ByLayer
370
13
48
1
60
0
100
AcDbLine
10
73
20
-6.8125
30
0
11
73
21
-48.727303
31
0
39
0
210
0
220
0
230
1
0
LINE
5
146
100
AcDbEntity
8
SK2
62
256
6
ByLayer
370
13
48
1
60
0
100
AcDbLine
10
18.9
20
-6.8125
30
0
11
18.9
21
-48.727303
31
0
39
0
210
0
220
0
230
1
0
LINE
5
147
100
AcDbEntity
8
SK2
62
256
6
ByLayer
370
13
48
1
60
0
100
AcDbLine
10
73
20
-46.727303
30
0
11
18.9
21
-46.727303
31
0
39
0
210
0
220
0
230
1
0
SOLID
5
148
100
AcDbEntity
8
SK2
62
256
6
ByLayer
370
18
48
1
60
0
100
AcDbTrace
10
73
20
-46.727303
30
0
11
69.500002
21
-47.188087
31
0
12
69.499998
22
-46.266519
32
0
13
69.499998
23
-46.266519
33
0
39
0
210
0
220
0
230
1
0
SOLID
5
149
100
AcDbEntity
8
SK2
62
256
6
ByLayer
370
18
48
1
60
0
100
AcDbTrace
10
18.9
20
-46.727303
30
0
11
22.399998
21
-46.266519
31
0
12
22.400002
22
-47.188087
32
0
13
22.400002
23
-47.188087
33
0
39
0
210
0
220
0
230
1
0
ENDBLK
5
14B
100
AcDbEntity
8
0
100
AcDbBlockEnd
0
BLOCK
5
150
100
AcDbEntity
8
0
100
AcDbBlockBegin
2
*D3
70
1
10
0
20
0
30
0
3
*D3
0
LINE
5
152
100
AcDbEntity
8
0
62
256
6
ByLayer
370
-2
48
1
60
0
100
AcDbLine
10
73
20
-6.8125
30
0
11
73
21
-58.727303
31
0
39
0
210
0
220
0
230
1
0
LINE
5
153
100
AcDbEntity
8
0
62
256
6
ByLayer
370
-2
48
1
60
0
100
AcDbLine
10
2
20
-6.8125
30
0
11
2
21
-58.727303
31
0
39
0
210
0
220
0
230
1
0
LINE
5
154
100
AcDbEntity
8
0
62
256
6
ByLayer
370
-2
48
1
60
0
100
AcDbLine
10
69.5
20
-56.727303
30
0
11
5.5
21
-56.727303
31
0
39
0
210
0
220
0
230
1
0
SOLID
5
155
100
AcDbEntity
8
0
62
256
6
ByLayer
370
-1
48
1
60
0
100
AcDbTrace
10
69.5
20
-57.310636
30
0
11
69.5
21
-56.14397
31
0
12
73
22
-56.727303
32
0
13
73
23
-56.727303
33
0
39
0
210
0
220
0
230
1
0
SOLID
5
156
100
AcDbEntity
8
0
62
256
6
ByLayer
370
-1
48
1
60
0
100
AcDbTrace
10
5.5
20
-56.14397
30
0
11
5.5
21
-57.310636
31
0
12
2
22
-56.727303
32
0
13
2
23
-56.727303
33
0
39
0
210
0
220
0
230
1
0
MTEXT
5
157
100
AcDbEntity
8
0
62
256
6
ByLayer
370
18
48
1
60
0
100
AcDbMText
10
37.5
20
-50.727303
30
0
210
0
220
0
230
1
1
\A1;71
40
3
41
0
44
1
50
0
71
5
72
5
7
iso_b_vert
0
POINT
5
158
100
AcDbEntity
8
Defpoints
62
0
6
ByLayer
370
-1
48
1
60
0
100
AcDbPoint
10
73
20
-5.225
30
0
39
0
210
0
220
0
230
1
50
360
0
POINT
5
159
100
AcDbEntity
8
Defpoints
62
0
6
ByLayer
370
-1
48
1
60
0
100
AcDbPoint
10
2
20
-5.225
30
0
39
0
210
0
220
0
230
1
50
360
0
POINT
5
15A
100
AcDbEntity
8
Defpoints
62
0
6
ByLayer
370
-1
48
1
60
0
100
AcDbPoint
10
2
20
-56.727303
30
0
39
0
210
0
220
0
230
1
50
360
0
ENDBLK
5
151
100
AcDbEntity
8
0
100
AcDbBlockEnd
0
BLOCK
5
162
100
AcDbEntity
8
0
100
AcDbBlockBegin
2
_U1
70
0
10
0
20
0
30
0
3
_U1
0
MTEXT
5
15C
100
AcDbEntity
8
SK2
62
256
6
ByLayer
370
18
48
1
60
0
100
AcDbMText
10
36.242115
20
-55.842188
30
0
210
0
220
0
230
1
1
\W0.6351;71
40
3
41
0
44
1.084337
50
0
71
7
72
5
7
iso_b_vert
0
LINE
5
15D
100
AcDbEntity
8
SK2
62
256
6
ByLayer
370
13
48
1
60
0
100
AcDbLine
10
73
20
-6.8125
30
0
11
73
21
-58.727303
31
0
39
0
210
0
220
0
230
1
0
LINE
5
15E
100
AcDbEntity
8
SK2
62
256
6
ByLayer
370
13
48
1
60
0
100
AcDbLine
10
2
20
-6.8125
30
0
11
2
21
-58.727303
31
0
39
0
210
0
220
0
230
1
0
LINE
5
15F
100
AcDbEntity
8
SK2
62
256
6
ByLayer
370
13
48
1
60
0
100
AcDbLine
10
73
20
-56.727303
30
0
11
2
21
-56.727303
31
0
39
0
210
0
220
0
230
1
0
SOLID
5
160
100
AcDbEntity
8
SK2
62
256
6
ByLayer
370
18
48
1
60
0
100
AcDbTrace
10
73
20
-56.727303
30
0
11
69.500002
21
-57.188087
31
0
12
69.499998
22
-56.266519
32
0
13
69.499998
23
-56.266519
33
0
39
0
210
0
220
0
230
1
0
SOLID
5
161
100
AcDbEntity
8
SK2
62
256
6
ByLayer
370
18
48
1
60
0
100
AcDbTrace
10
2
20
-56.727303
30
0
11
5.499998
21
-56.266519
31
0
12
5.500002
22
-57.188087
32
0
13
5.500002
23
-57.188087
33
0
39
0
210
0
220
0
230
1
0
ENDBLK
5
163
100
AcDbEntity
8
0
100
AcDbBlockEnd
0
BLOCK
5
168
100
AcDbEntity
8
0
100
AcDbBlockBegin
2
*D5
70
1
10
0
20
0
30
0
3
*D5
0
LINE
5
16A
100
AcDbEntity
8
0
62
256
6
ByLayer
370
-2
48
1
60
0
100
AcDbLine
10
-45
20
-7.5875
30
0
11
-45
21
-66.727303
31
0
39
0
210
0
220
0
230
1
0
LINE
5
16B
100
AcDbEntity
8
0
62
256
6
ByLayer
370
-2
48
1
60
0
100
AcDbLine
10
0
20
-7.5875
30
0
11
0
21
-66.727303
31
0
39
0
210
0
220
0
230
1
0
LINE
5
16C
100
AcDbEntity
8
0
62
256
6
ByLayer
370
-2
48
1
60
0
100
AcDbLine
10
-41.5
20
-64.727303
30
0
11
-3.5
21
-64.727303
31
0
39
0
210
0
220
0
230
1
0
SOLID
5
16D
100
AcDbEntity
8
0
62
256
6
ByLayer
370
-1
48
1
60
0
100
AcDbTrace
10
-41.5
20
-64.14397
30
0
11
-41.5
21
-65.310636
31
0
12
-45
22
-64.727303
32
0
13
-45
23
-64.727303
33
0
39
0
210
0
220
0
230
1
0
SOLID
5
16E
100
AcDbEntity
8
0
62
256
6
ByLayer
370
-1
48
1
60
0
100
AcDbTrace
10
-3.5
20
-65.310636
30
0
11
-3.5
21
-64.14397
31
0
12
0
22
-64.727303
32
0
13
0
23
-64.727303
33
0
39
0
210
0
220
0
230
1
0
MTEXT
5
16F
100
AcDbEntity
8
0
62
256
6
ByLayer
370
18
48
1
60
0
100
AcDbMText
10
-22.5
20
-58.727303
30
0
210
0
220
0
230
1
1
\A1;45
40
3
41
0
44
1
50
0
71
5
72
5
7
iso_b_vert
0
POINT
5
170
100
AcDbEntity
8
Defpoints
62
0
6
ByLayer
370
-1
48
1
60
0
100
AcDbPoint
10
-45
20
-6
30
0
39
0
210
0
220
0
230
1
50
360
0
POINT
5
171
100
AcDbEntity
8
Defpoints
62
0
6
ByLayer
370
-1
48
1
60
0
100
AcDbPoint
10
0
20
-6
30
0
39
0
210
0
220
0
230
1
50
360
0
POINT
5
172
100
AcDbEntity
8
Defpoints
62
0
6
ByLayer
370
-1
48
1
60
0
100
AcDbPoint
10
0
20
-64.727303
30
0
39
0
210
0
220
0
230
1
50
360
0
ENDBLK
5
169
100
AcDbEntity
8
0
100
AcDbBlockEnd
0
BLOCK
5
17A
100
AcDbEntity
8
0
100
AcDbBlockBegin
2
_U2
70
0
10
0
20
0
30
0
3
_U2
0
MTEXT
5
174
100
AcDbEntity
8
SK2
62
256
6
ByLayer
370
18
48
1
60
0
100
AcDbMText
10
-24.290771
20
-63.842188
30
0
210
0
220
0
230
1
1
\W0.7361;45
40
3
41
0
44
1.084337
50
0
71
7
72
5
7
iso_b_vert
0
LINE
5
175
100
AcDbEntity
8
SK2
62
256
6
ByLayer
370
13
48
1
60
0
100
AcDbLine
10
-45
20
-7.5875
30
0
11
-45
21
-66.727303
31
0
39
0
210
0
220
0
230
1
0
LINE
5
176
100
AcDbEntity
8
SK2
62
256
6
ByLayer
370
13
48
1
60
0
100
AcDbLine
10
0
20
-7.5875
30
0
11
0
21
-66.727303
31
0
39
0
210
0
220
0
230
1
0
LINE
5
177
100
AcDbEntity
8
SK2
62
256
6
ByLayer
370
13
48
1
60
0
100
AcDbLine
10
-45
20
-64.727303
30
0
11
0
21
-64.727303
31
0
39
0
210
0
220
0
230
1
0
SOLID
5
178
100
AcDbEntity
8
SK2
62
256
6
ByLayer
370
18
48
1
60
0
100
AcDbTrace
10
-45
20
-64.727303
30
0
11
-41.500002
21
-64.266519
31
0
12
-41.499998
22
-65.188087
32
0
13
-41.499998
23
-65.188087
33
0
39
0
210
0
220
0
230
1
0
SOLID
5
179
100
AcDbEntity
8
SK2
62
256
6
ByLayer
370
18
48
1
60
0
100
AcDbTrace
10
0
20
-64.727303
30
0
11
-3.499998
21
-65.188087
31
0
12
-3.500002
22
-64.266519
32
0
13
-3.500002
23
-64.266519
33
0
39
0
210
0
220
0
230
1
0
ENDBLK
5
17B
100
AcDbEntity
8
0
100
AcDbBlockEnd
0
BLOCK
5
180
100
AcDbEntity
8
0
100
AcDbBlockBegin
2
*D7
70
1
10
0
20
0
30
0
3
*D7
0
LINE
5
182
100
AcDbEntity
8
0
62
256
6
ByLayer
370
-2
48
1
60
0
100
AcDbLine
10
-45
20
-7.5875
30
0
11
-45
21
-74.727303
31
0
39
0
210
0
220
0
230
1
0
LINE
5
183
100
AcDbEntity
8
0
62
256
6
ByLayer
370
-2
48
1
60
0
100
AcDbLine
10
73
20
-6.8125
30
0
11
73
21
-74.727303
31
0
39
0
210
0
220
0
230
1
0
LINE
5
184
100
AcDbEntity
8
0
62
256
6
ByLayer
370
-2
48
1
60
0
100
AcDbLine
10
-41.5
20
-72.727303
30
0
11
69.5
21
-72.727303
31
0
39
0
210
0
220
0
230
1
0
SOLID
5
185
100
AcDbEntity
8
0
62
256
6
ByLayer
370
-1
48
1
60
0
100
AcDbTrace
10
-41.5
20
-72.14397
30
0
11
-41.5
21
-73.310636
31
0
12
-45
22
-72.727303
32
0
13
-45
23
-72.727303
33
0
39
0
210
0
220
0
230
1
0
SOLID
5
186
100
AcDbEntity
8
0
62
256
6
ByLayer
370
-1
48
1
60
0
100
AcDbTrace
10
69.5
20
-73.310636
30
0
11
69.5
21
-72.14397
31
0
12
73
22
-72.727303
32
0
13
73
23
-72.727303
33
0
39
0
210
0
220
0
230
1
0
MTEXT
5
187
100
AcDbEntity
8
0
62
256
6
ByLayer
370
18
48
1
60
0
100
AcDbMText
10
14
20
-66.727303
30
0
210
0
220
0
230
1
1
\A1;118
40
3
41
0
44
1
50
0
71
5
72
5
7
iso_b_vert
0
POINT
5
188
100
AcDbEntity
8
Defpoints
62
0
6
ByLayer
370
-1
48
1
60
0
100
AcDbPoint
10
-45
20
-6
30
0
39
0
210
0
220
0
230
1
50
360
0
POINT
5
189
100
AcDbEntity
8
Defpoints
62
0
6
ByLayer
370
-1
48
1
60
0
100
AcDbPoint
10
73
20
-5.225
30
0
39
0
210
0
220
0
230
1
50
360
0
POINT
5
18A
100
AcDbEntity
8
Defpoints
62
0
6
ByLayer
370
-1
48
1
60
0
100
AcDbPoint
10
73
20
-72.727303
30
0
39
0
210
0
220
0
230
1
50
360
0
ENDBLK
5
181
100
AcDbEntity
8
0
100
AcDbBlockEnd
0
BLOCK
5
192
100
AcDbEntity
8
0
100
AcDbBlockBegin
2
_U3
70
0
10
0
20
0
30
0
3
_U3
0
MTEXT
5
18C
100
AcDbEntity
8
SK2
62
256
6
ByLayer
370
18
48
1
60
0
100
AcDbMText
10
11.996143
20
-71.842188
30
0
210
0
220
0
230
1
1
\W0.5296;118
40
3
41
0
44
1.084337
50
0
71
7
72
5
7
iso_b_vert
0
LINE
5
18D
100
AcDbEntity
8
SK2
62
256
6
ByLayer
370
13
48
1
60
0
100
AcDbLine
10
-45
20
-7.5875
30
0
11
-45
21
-74.727303
31
0
39
0
210
0
220
0
230
1
0
LINE
5
18E
100
AcDbEntity
8
SK2
62
256
6
ByLayer
370
13
48
1
60
0
100
AcDbLine
10
73
20
-6.8125
30
0
11
73
21
-74.727303
31
0
39
0
210
0
220
0
230
1
0
LINE
5
18F
100
AcDbEntity
8
SK2
62
256
6
ByLayer
370
13
48
1
60
0
100
AcDbLine
10
-45
20
-72.727303
30
0
11
73
21
-72.727303
31
0
39
0
210
0
220
0
230
1
0
SOLID
5
190
100
AcDbEntity
8
SK2
62
256
6
ByLayer
370
18
48
1
60
0
100
AcDbTrace
10
-45
20
-72.727303
30
0
11
-41.500002
21
-72.266519
31
0
12
-41.499998
22
-73.188087
32
0
13
-41.499998
23
-73.188087
33
0
39
0
210
0
220
0
230
1
0
SOLID
5
191
100
AcDbEntity
8
SK2
62
256
6
ByLayer
370
18
48
1
60
0
100
AcDbTrace
10
73
20
-72.727303
30
0
11
69.500002
21
-73.188087
31
0
12
69.499998
22
-72.266519
32
0
13
69.499998
23
-72.266519
33
0
39
0
210
0
220
0
230
1
0
ENDBLK
5
193
100
AcDbEntity
8
0
100
AcDbBlockEnd
0
BLOCK
5
198
100
AcDbEntity
8
0
100
AcDbBlockBegin
2
*D9
70
1
10
0
20
0
30
0
3
*D9
0
LINE
5
19A
100
AcDbEntity
8
0
62
256
6
ByLayer
370
-2
48
1
60
0
100
AcDbLine
10
73
20
-6.8125
30
0
11
73
21
-66.727303
31
0
39
0
210
0
220
0
230
1
0
LINE
5
19B
100
AcDbEntity
8
0
62
256
6
ByLayer
370
-2
48
1
60
0
100
AcDbLine
10
0
20
-6.8125
30
0
11
0
21
-66.727303
31
0
39
0
210
0
220
0
230
1
0
LINE
5
19C
100
AcDbEntity
8
0
62
256
6
ByLayer
370
-2
48
1
60
0
100
AcDbLine
10
69.5
20
-64.727303
30
0
11
3.5
21
-64.727303
31
0
39
0
210
0
220
0
230
1
0
SOLID
5
19D
100
AcDbEntity
8
0
62
256
6
ByLayer
370
-1
48
1
60
0
100
AcDbTrace
10
69.5
20
-65.310636
30
0
11
69.5
21
-64.14397
31
0
12
73
22
-64.727303
32
0
13
73
23
-64.727303
33
0
39
0
210
0
220
0
230
1
0
SOLID
5
19E
100
AcDbEntity
8
0
62
256
6
ByLayer
370
-1
48
1
60
0
100
AcDbTrace
10
3.5
20
-64.14397
30
0
11
3.5
21
-65.310636
31
0
12
0
22
-64.727303
32
0
13
0
23
-64.727303
33
0
39
0
210
0
220
0
230
1
0
MTEXT
5
19F
100
AcDbEntity
8
0
62
256
6
ByLayer
370
18
48
1
60
0
100
AcDbMText
10
36.5
20
-58.727303
30
0
210
0
220
0
230
1
1
\A1;73
40
3
41
0
44
1
50
0
71
5
72
5
7
iso_b_vert
0
POINT
5
1A0
100
AcDbEntity
8
Defpoints
62
0
6
ByLayer
370
-1
48
1
60
0
100
AcDbPoint
10
73
20
-5.225
30
0
39
0
210
0
220
0
230
1
50
360
0
POINT
5
1A1
100
AcDbEntity
8
Defpoints
62
0
6
ByLayer
370
-1
48
1
60
0
100
AcDbPoint
10
0
20
-5.225
30
0
39
0
210
0
220
0
230
1
50
360
0
POINT
5
1A2
100
AcDbEntity
8
Defpoints
62
0
6
ByLayer
370
-1
48
1
60
0
100
AcDbPoint
10
0
20
-64.727303
30
0
39
0
210
0
220
0
230
1
50
360
0
ENDBLK
5
199
100
AcDbEntity
8
0
100
AcDbBlockEnd
0
BLOCK
5
1AA
100
AcDbEntity
8
0
100
AcDbBlockBegin
2
_U4
70
0
10
0
20
0
30
0
3
_U4
0
MTEXT
5
1A4
100
AcDbEntity
8
2
62
256
6
ByLayer
370
18
48
1
60
0
100
AcDbMText
10
34.867172
20
-63.842188
30
0
210
0
220
0
230
1
1
\W0.6740;73
40
3
41
0
44
1.084337
50
0
71
7
72
5
7
iso_b_vert
0
LINE
5
1A5
100
AcDbEntity
8
2
62
256
6
ByLayer
370
13
48
1
60
0
100
AcDbLine
10
73
20
-6.8125
30
0
11
73
21
-66.727303
31
0
39
0
210
0
220
0
230
1
0
LINE
5
1A6
100
AcDbEntity
8
2
62
256
6
ByLayer
370
13
48
1
60
0
100
AcDbLine
10
0
20
-6.8125
30
0
11
0
21
-66.727303
31
0
39
0
210
0
220
0
230
1
0
LINE
5
1A7
100
AcDbEntity
8
2
62
256
6
ByLayer
370
13
48
1
60
0
100
AcDbLine
10
73
20
-64.727303
30
0
11
0
21
-64.727303
31
0
39
0
210
0
220
0
230
1
0
SOLID
5
1A8
100
AcDbEntity
8
2
62
256
6
ByLayer
370
18
48
1
60
0
100
AcDbTrace
10
73
20
-64.727303
30
0
11
69.500002
21
-65.188087
31
0
12
69.499998
22
-64.266519
32
0
13
69.499998
23
-64.266519
33
0
39
0
210
0
220
0
230
1
0
SOLID
5
1A9
100
AcDbEntity
8
2
62
256
6
ByLayer
370
18
48
1
60
0
100
AcDbTrace
10
0
20
-64.727303
30
0
11
3.499998
21
-64.266519
31
0
12
3.500002
22
-65.188087
32
0
13
3.500002
23
-65.188087
33
0
39
0
210
0
220
0
230
1
0
ENDBLK
5
1AB
100
AcDbEntity
8
0
100
AcDbBlockEnd
0
ENDSEC
0
SECTION
2
ENTITIES
0
ARC
5
C1
100
AcDbEntity
8
1
62
256
6
ByLayer
370
18
48
1
60
0
100
AcDbCircle
39
0
10
1.43894
20
-5.899609
30
0
40
0.799999999999998
210
0
220
0
230
1
100
AcDbArc
50
89.896868
51
154.071085
0
ARC
5
C2
100
AcDbEntity
8
1
62
256
6
ByLayer
370
18
48
1
60
0
100
AcDbCircle
39
0
10
1.43894
20
5.899609
30
0
40
0.799999999999998
210
0
220
0
230
1
100
AcDbArc
50
205.928915
51
270.103132
0
ARC
5
C3
100
AcDbEntity
8
1
62
256
6
ByLayer
370
18
48
1
60
0
100
AcDbCircle
39
0
10
0
20
-5.2
30
0
40
0.799999999999997
210
0
220
0
230
1
100
AcDbArc
50
270
51
334.071085
0
ARC
5
C4
100
AcDbEntity
8
1
62
256
6
ByLayer
370
18
48
1
60
0
100
AcDbCircle
39
0
10
0
20
5.2
30
0
40
0.799999999999997
210
0
220
0
230
1
100
AcDbArc
50
25.928915
51
90
0
ARC
5
C5
100
AcDbEntity
8
SK2
62
256
6
ByLayer
370
13
48
1
60
0
100
AcDbCircle
39
0
10
73
20
0
30
0
40
21.2424656388007
210
0
220
0
230
1
100
AcDbArc
50
8.118827
51
69.997526
0
ARC
5
C6
100
AcDbEntity
8
SK2
62
256
6
ByLayer
370
13
48
1
60
0
100
AcDbCircle
39
0
10
73
20
0
30
0
40
21.2424656388007
210
0
220
0
230
1
100
AcDbArc
50
290.002474
51
351.881173
0
ELLIPSE
5
C7
100
AcDbEntity
8
1
62
256
6
ByLayer
370
13
48
1
60
0
100
AcDbEllipse
10
20.850726
20
4.93416
30
0
11
-5.51880259824817E-05
21
0.00999984771292984
31
0
210
0
220
0
230
1
40
0.004793
41
3.07138031484421
42
-1.64110300208326
0
ELLIPSE
5
C8
100
AcDbEntity
8
1
62
256
6
ByLayer
370
18
48
1
60
0
100
AcDbEllipse
10
20.889165
20
4.934968
30
0
11
0.000377470442797844
21
-0.0099928732637222
31
0
210
0
220
0
230
1
40
0.430933
41
-0.0758278613518392
42
1.49111789064144
0
ELLIPSE
5
C9
100
AcDbEntity
8
1
62
256
6
ByLayer
370
18
48
1
60
0
100
AcDbEllipse
10
20.850261
20
5.036013
30
0
11
-0.1
21
1.22460635382238E-17
31
0
210
0
220
0
230
1
40
0.999934
41
0.00666070179666194
42
1.57539206705427
0
POINT
5
70
100
AcDbEntity
8
80
62
256
6
ByLayer
370
18
48
1
60
0
100
AcDbPoint
10
0
20
0
30
0
39
0
210
0
220
0
230
1
50
360
0
POINT
5
72
100
AcDbEntity
8
81
62
256
6
ByLayer
370
18
48
1
60
0
100
AcDbPoint
10
73
20
0
30
0
39
0
210
0
220
0
230
1
50
360
0
POINT
5
74
100
AcDbEntity
8
1
62
256
6
ByLayer
370
18
48
1
60
0
100
AcDbPoint
10
-203.553767
20
-207.762834
30
0
39
0
210
0
220
0
230
1
50
360
0
POINT
5
76
100
AcDbEntity
8
1
62
256
6
ByLayer
370
13
48
1
60
1
100
AcDbPoint
10
-46.5
20
0
30
0
39
0
210
0
220
0
230
1
50
360
0
POINT
5
77
100
AcDbEntity
8
1
62
256
6
ByLayer
370
13
48
1
60
1
100
AcDbPoint
10
72.605309
20
0
30
0
39
0
210
0
220
0
230
1
50
360
0
POINT
5
78
100
AcDbEntity
8
1
62
256
6
ByLayer
370
18
48
1
60
1
100
AcDbPoint
10
73
20
-5.225
30
0
39
0
210
0
220
0
230
1
50
360
0
POINT
5
79
100
AcDbEntity
8
1
62
256
6
ByLayer
370
18
48
1
60
1
100
AcDbPoint
10
18.9
20
-5.225
30
0
39
0
210
0
220
0
230
1
50
360
0
POINT
5
7A
100
AcDbEntity
8
1
62
256
6
ByLayer
370
18
48
1
60
1
100
AcDbPoint
10
73
20
-5.225
30
0
39
0
210
0
220
0
230
1
50
360
0
POINT
5
7B
100
AcDbEntity
8
1
62
256
6
ByLayer
370
18
48
1
60
1
100
AcDbPoint
10
2
20
-5.225
30
0
39
0
210
0
220
0
230
1
50
360
0
POINT
5
7C
100
AcDbEntity
8
1
62
256
6
ByLayer
370
18
48
1
60
1
100
AcDbPoint
10
-45
20
-6
30
0
39
0
210
0
220
0
230
1
50
360
0
POINT
5
7D
100
AcDbEntity
8
1
62
256
6
ByLayer
370
18
48
1
60
1
100
AcDbPoint
10
0
20
-6
30
0
39
0
210
0
220
0
230
1
50
360
0
POINT
5
7E
100
AcDbEntity
8
1
62
256
6
ByLayer
370
18
48
1
60
1
100
AcDbPoint
10
-45
20
-6
30
0
39
0
210
0
220
0
230
1
50
360
0
POINT
5
7F
100
AcDbEntity
8
1
62
256
6
ByLayer
370
18
48
1
60
1
100
AcDbPoint
10
73
20
-5.225
30
0
39
0
210
0
220
0
230
1
50
360
0
POINT
5
80
100
AcDbEntity
8
1
62
256
6
ByLayer
370
18
48
1
60
1
100
AcDbPoint
10
73
20
-5.225
30
0
39
0
210
0
220
0
230
1
50
360
0
POINT
5
81
100
AcDbEntity
8
1
62
256
6
ByLayer
370
18
48
1
60
1
100
AcDbPoint
10
0
20
-5.225
30
0
39
0
210
0
220
0
230
1
50
360
0
SPLINE
5
CA
100
AcDbEntity
8
1
62
256
6
ByLayer
370
18
48
1
60
0
100
AcDbSpline
70
4
71
3
72
8
73
4
40
0
40
0
40
0
40
0
40
1
40
1
40
1
40
1
41
1
10
72.4686763094049
20
1.71051616575423
30
0
41
1
10
72.6084928434803
20
1.31939485378055
30
0
41
1
10
72.7471275720332
20
0.927858181510771
30
0
41
1
10
72.8845562548472
20
0.5358976294184
30
0
0
SPLINE
5
CB
100
AcDbEntity
8
1
62
256
6
ByLayer
370
18
48
1
60
0
100
AcDbSpline
70
4
71
3
72
8
73
4
40
0
40
0
40
0
40
0
40
1
40
1
40
1
40
1
41
1
10
72.8845562548472
20
0.5358976294184
30
0
41
1
10
72.9216302228425
20
0.430158909770455
30
0
41
1
10
72.9594349077124
20
0.324825663874151
30
0
41
1
10
72.9979687089585
20
0.219883505003139
30
0
0
SPLINE
5
CC
100
AcDbEntity
8
1
62
256
6
ByLayer
370
18
48
1
60
0
100
AcDbSpline
70
4
71
3
72
24
73
20
40
0
40
0
40
0
40
0
40
0.499999999999963
40
0.499999999999963
40
0.749999999999907
40
0.749999999999907
40
0.874999999999882
40
0.874999999999882
40
0.937499999999866
40
0.937499999999866
40
0.968749999999858
40
0.968749999999858
40
0.984374999999858
40
0.984374999999858
40
0.992187499999896
40
0.992187499999896
40
0.996093749999948
40
0.996093749999948
40
1
40
1
40
1
40
1
41
1
10
71.0138118340351
20
5.2247863595378
30
0
41
1
10
71.0359633812413
20
5.18862655963073
30
0
41
1
10
71.0581272674133
20
5.15233675977083
30
0
41
1
10
71.0913826957247
20
5.0977285139511
30
0
41
1
10
71.1024681505223
20
5.07949961245245
30
0
41
1
10
71.1191016255478
20
5.05210656432766
30
0
41
1
10
71.1246473130848
20
5.04296658950193
30
0
41
1
10
71.1329691783101
20
5.02923993292475
30
0
41
1
10
71.1357443737263
20
5.02466012749665
30
0
41
1
10
71.1399026874764
20
5.01779770945191
30
0
41
1
10
71.1412869083707
20
5.01551389471371
30
0
41
1
10
71.1433658282634
20
5.01208199572739
30
0
41
1
10
71.1440595344106
20
5.01093635383373
30
0
41
1
10
71.1451026168314
20
5.00921229821756
30
0
41
1
10
71.1454540557999
20
5.00862975827576
30
0
41
1
10
71.1459583565495
20
5.00780407857957
30
0
41
1
10
71.1461223240723
20
5.00753737298174
30
0
41
1
10
71.1464157840562
20
5.00707169192833
30
0
41
1
10
71.1465484672213
20
5.00686874412716
30
0
41
1
10
71.1465964532589
20
5.00681663931999
30
0
0
SPLINE
5
CD
100
AcDbEntity
8
1
62
256
6
ByLayer
370
18
48
1
60
0
100
AcDbSpline
70
4
71
3
72
8
73
4
40
0
40
0
40
0
40
0
40
1
40
1
40
1
40
1
41
1
10
71.2723606497595
20
-4.7883365042459
30
0
41
1
10
71.2304197479447
20
-4.86117285644247
30
0
41
1
10
71.1884966901292
20
-4.93400290307207
30
0
41
1
10
71.1465964534803
20
-5.00681663907955
30
0
0
SPLINE
5
CE
100
AcDbEntity
8
1
62
256
6
ByLayer
370
18
48
1
60
0
100
AcDbSpline
70
4
71
3
72
10
73
6
40
0
40
0
40
0
40
0
40
0.5
40
0.5
40
1
40
1
40
1
40
1
41
1
10
72.4686763094106
20
1.71051616575625
30
0
41
1
10
72.3540574985726
20
1.69756667288615
30
0
41
1
10
72.2393398351627
20
1.68585021024751
30
0
41
1
10
72.0097704157959
20
1.66408987842328
30
0
41
1
10
71.8949189202294
20
1.65404276127626
30
0
41
1
10
71.7800179403753
20
1.64461288272503
30
0
0
SPLINE
5
CF
100
AcDbEntity
8
1
62
256
6
ByLayer
370
18
48
1
60
0
100
AcDbSpline
70
4
71
3
72
31
73
27
40
0
40
0
40
0
40
0
40
0.124999999999996
40
0.124999999999996
40
0.187499999999991
40
0.187499999999991
40
0.249999999999986
40
0.312499999999981
40
0.312499999999981
40
0.343749999999979
40
0.343749999999979
40
0.374999999999977
40
0.437499999999972
40
0.437499999999972
40
0.468749999999972
40
0.468749999999972
40
0.499999999999972
40
0.499999999999972
40
0.531249999999972
40
0.531249999999972
40
0.562499999999971
40
0.624999999999975
40
0.624999999999975
40
0.749999999999984
40
0.749999999999984
40
1
40
1
40
1
40
1
41
1
10
72.4686763094054
20
1.71051616575377
30
0
41
1
10
72.4084003459914
20
1.82193125656872
30
0
41
1
10
72.3496745074044
20
1.93744003113321
30
0
41
1
10
72.2636400468548
20
2.1169066962203
30
0
41
1
10
72.2352648767255
20
2.17785517354659
30
0
41
1
10
72.1795197869328
20
2.30100478692546
30
0
41
1
10
72.1247030424996
20
2.42555574726256
30
0
41
1
10
72.0715918159524
20
2.55285197564487
30
0
41
1
10
72.0323404963053
20
2.64933620033349
30
0
41
1
10
72.0193555106334
20
2.68166309609597
30
0
41
1
10
71.9936573185386
20
2.74642624537088
30
0
41
1
10
71.9554833693194
20
2.84381802784102
30
0
41
1
10
71.9183754473549
20
2.94192987652829
30
0
41
1
10
71.8818998357849
20
3.04048920670783
30
0
41
1
10
71.8698464681842
20
3.07341674151795
30
0
41
1
10
71.8459375844172
20
3.13941564927032
30
0
41
1
10
71.8340751460873
20
3.17251207983523
30
0
41
1
10
71.8105816578147
20
3.23866189037002
30
0
41
1
10
71.7988733731127
20
3.27173175085949
30
0
41
1
10
71.7754771618924
20
3.33786540083608
30
0
41
1
10
71.7404407803529
20
3.43705432792757
30
0
41
1
10
71.7055729140272
20
3.536204682886
30
0
41
1
10
71.6360621456105
20
3.73444060759917
30
0
41
1
10
71.5900179768138
20
3.86651223861975
30
0
41
1
10
71.4526631142412
20
4.26236158395105
30
0
41
1
10
71.3621789581322
20
4.52577403555645
30
0
41
1
10
71.2723606497595
20
4.78833650424613
30
0
0
SPLINE
5
D0
100
AcDbEntity
8
1
62
256
6
ByLayer
370
18
48
1
60
0
100
AcDbSpline
70
4
71
3
72
8
73
4
40
0
40
0
40
0
40
0
40
1
40
1
40
1
40
1
41
1
10
71.2723606497594
20
4.7883365042461
30
0
41
1
10
71.2304197479261
20
4.86117285647478
30
0
41
1
10
71.1884966900921
20
4.9340029031365
30
0
41
1
10
71.1465964534248
20
5.00681663917604
30
0
0
SPLINE
5
D1
100
AcDbEntity
8
1
62
256
6
ByLayer
370
18
48
1
60
0
100
AcDbSpline
70
4
71
3
72
29
73
25
40
0
40
0
40
0
40
0
40
0.0520453811306075
40
0.0520453811306075
40
0.104090762261215
40
0.156136143391823
40
0.156136143391823
40
0.208181524522431
40
0.208181524522431
40
0.312272286783645
40
0.312272286783645
40
0.41636304904486
40
0.41636304904486
40
0.520453811306074
40
0.520453811306074
40
0.624544573567289
40
0.624544573567289
40
0.728635335828504
40
0.728635335828504
40
0.832726098089718
40
0.832726098089718
40
0.936816860350932
40
0.936816860350932
40
1
40
1
40
1
40
1
41
1
10
71.1465964527035
20
5.00681663908716
30
0
41
1
10
71.0152032103701
20
5.00810701087519
30
0
41
1
10
70.8837662187486
20
5.00818857917494
30
0
41
1
10
70.6209960890783
20
5.00591827383823
30
0
41
1
10
70.3582678911641
20
5.00121691981647
30
0
41
1
10
70.0955591527825
20
4.99169557860188
30
0
41
1
10
69.8328330851405
20
4.9797913347879
30
0
41
1
10
69.701440372745
20
4.97264999624639
30
0
41
1
10
69.3073257086509
20
4.94769345194246
30
0
41
1
10
69.0448003795877
20
4.92632114698156
30
0
41
1
10
68.5199063428153
20
4.87417797291937
30
0
41
1
10
68.2575393027849
20
4.84342226353965
30
0
41
1
10
67.7327148679876
20
4.77281278212701
30
0
41
1
10
67.4702519859338
20
4.73296558048926
30
0
41
1
10
66.9450219686789
20
4.6443003522966
30
0
41
1
10
66.6821813041431
20
4.59542806349447
30
0
41
1
10
66.1567371462865
20
4.48899549832529
30
0
41
1
10
65.8940496064722
20
4.43141999708183
30
0
41
1
10
65.3685005517173
20
4.30763896488207
30
0
41
1
10
65.1056424280046
20
4.24144842905304
30
0
41
1
10
64.5800018967154
20
4.10103963870813
30
0
41
1
10
64.3171168456735
20
4.02676811364356
30
0
41
1
10
63.8952904836858
20
3.90157646272357
30
0
41
1
10
63.7360550884301
20
3.8529546794085
30
0
41
1
10
63.5768860694326
20
3.80304140674818
30
0
0
SPLINE
5
D2
100
AcDbEntity
8
1
62
256
6
ByLayer
370
18
48
1
60
0
100
AcDbSpline
70
4
71
3
72
18
73
14
40
0
40
0
40
0
40
0
40
0.0298796494401091
40
0.0298796494401091
40
0.126891684496098
40
0.126891684496098
40
0.223903719552087
40
0.223903719552087
40
0.417927789664066
40
0.417927789664066
40
0.611951859776043
40
0.611951859776043
40
1
40
1
40
1
40
1
41
1
10
24.8129832490277
20
-1.35654112859177
30
0
41
1
10
24.7725337300166
20
-1.33777588841252
30
0
41
1
10
24.7320787315136
20
-1.31897870689735
30
0
41
1
10
24.5602495543805
20
-1.23902199928497
30
0
41
1
10
24.4288187928283
20
-1.17756224712667
30
0
41
1
10
24.1660514543415
20
-1.05416645522104
30
0
41
1
10
24.0346835786095
20
-0.992216185764732
30
0
41
1
10
23.6405840664725
20
-0.805698432895696
30
0
41
1
10
23.3778294024068
20
-0.680462642121341
30
0
41
1
10
22.8521757897365
20
-0.428790259994258
30
0
41
1
10
22.5893554995173
20
-0.302325110982366
30
0
41
1
10
21.8011069237608
20
0.0775005267333313
30
0
41
1
10
21.2759357946215
20
0.330909912492842
30
0
41
1
10
20.7502606996844
20
0.58237796283737
30
0
0
SPLINE
5
D3
100
AcDbEntity
8
1
62
256
6
ByLayer
370
18
48
1
60
0
100
AcDbSpline
70
4
71
3
72
16
73
12
40
0
40
0
40
0
40
0
40
0.109885339661988
40
0.109885339661988
40
0.287908271729591
40
0.287908271729591
40
0.465931203797193
40
0.465931203797193
40
0.643954135864796
40
0.643954135864796
40
1
40
1
40
1
40
1
41
1
10
71.1652741784823
20
0.985018956830459
30
0
41
1
10
71.1833631265837
20
0.979268273703894
30
0
41
1
10
71.2016507039391
20
0.973153581829507
30
0
41
1
10
71.2501157154385
20
0.956124465005672
30
0
41
1
10
71.2806128070641
20
0.944624234505056
30
0
41
1
10
71.3425306552011
20
0.919931061619906
30
0
41
1
10
71.3739522610602
20
0.906736562717697
30
0
41
1
10
71.4376240850458
20
0.878829046829992
30
0
41
1
10
71.4699434340702
20
0.864082207031117
30
0
41
1
10
71.5673233251358
20
0.818095162819503
30
0
41
1
10
71.632927265461
20
0.785019770792957
30
0
41
1
10
71.698950954311
20
0.750460950174499
30
0
0
SPLINE
5
D4
100
AcDbEntity
8
1
62
256
6
ByLayer
370
18
48
1
60
0
100
AcDbSpline
70
4
71
3
72
30
73
26
40
0
40
0
40
0
40
0
40
0.134843615541296
40
0.134843615541296
40
0.269687231082592
40
0.269687231082592
40
0.337109038853225
40
0.337109038853225
40
0.404530846623858
40
0.404530846623858
40
0.539374462165153
40
0.539374462165153
40
0.606796269935812
40
0.606796269935812
40
0.674218077706472
40
0.674218077706472
40
0.809061693247815
40
0.809061693247815
40
0.876483501018486
40
0.876483501018486
40
0.910194404903822
40
0.910194404903822
40
0.943905308789157
40
0.943905308789157
40
1
40
1
40
1
40
1
41
1
10
71.7800179403753
20
1.64461288272497
30
0
41
1
10
71.7190167383818
20
1.6396065378965
30
0
41
1
10
71.6587279337285
20
1.63125682317383
30
0
41
1
10
71.5396094086566
20
1.60771707827931
30
0
41
1
10
71.4807802922277
20
1.59252418120002
30
0
41
1
10
71.3936163464821
20
1.56468119421581
30
0
41
1
10
71.3646518659218
20
1.55451930519888
30
0
41
1
10
71.3080735090948
20
1.5329649626446
30
0
41
1
10
71.2803482413242
20
1.52154314056958
30
0
41
1
10
71.198767116758
20
1.48560712811661
30
0
41
1
10
71.146503356041
20
1.45942443158265
30
0
41
1
10
71.0709336566204
20
1.41785007253526
30
0
41
1
10
71.0462037525471
20
1.40360153906372
30
0
41
1
10
70.9976837606159
20
1.37452879071756
30
0
41
1
10
70.9741700221514
20
1.35987198565513
30
0
41
1
10
70.9056712141402
20
1.31579493346769
30
0
41
1
10
70.8627157560459
20
1.2862762083488
30
0
41
1
10
70.801817470654
20
1.24262244471896
30
0
41
1
10
70.7821103297961
20
1.22817318485437
30
0
41
1
10
70.7533931276757
20
1.20674842948685
30
0
41
1
10
70.7439449728359
20
1.19963576812299
30
0
41
1
10
70.7254330181162
20
1.18559251052093
30
0
41
1
10
70.7163643362306
20
1.17865853351313
30
0
41
1
10
70.692683593525
20
1.16043472675412
30
0
41
1
10
70.6783833338432
20
1.14931306673475
30
0
41
1
10
70.6645460016578
20
1.13848023766852
30
0
0
SPLINE
5
D5
100
AcDbEntity
8
1
62
256
6
ByLayer
370
18
48
1
60
0
100
AcDbSpline
70
4
71
3
72
69
73
65
40
0
40
0
40
0
40
0
40
0.0165944745032588
40
0.0165944745032588
40
0.0331907155215104
40
0.0331907155215104
40
0.0497869565397621
40
0.0497869565397621
40
0.0829794385762654
40
0.0829794385762654
40
0.099575679594517
40
0.100612944658158
40
0.101131577189978
40
0.101131577189978
40
0.101261235322933
40
0.101261235322933
40
0.101390893455888
40
0.101390893455888
40
0.101650209721798
40
0.101650209721798
40
0.103724739849079
40
0.103724739849079
40
0.10787380010364
40
0.10787380010364
40
0.116171920612762
40
0.116171920612762
40
0.149364402649249
40
0.149364402649249
40
0.182556884685736
40
0.182556884685736
40
0.24894184875871
40
0.24894184875871
40
0.381711776904658
40
0.381711776904658
40
0.514481705050606
40
0.514481705050606
40
0.53107794606885
40
0.53107794606885
40
0.539376066577971
40
0.539376066577971
40
0.547674187087093
40
0.547674187087093
40
0.549748717214373
40
0.549748717214373
40
0.550008033480283
40
0.550008033480283
40
0.550137691613238
40
0.550137691613238
40
0.550267349746194
40
0.550267349746194
40
0.550526666012104
40
0.550526666012104
40
0.550785982278014
40
0.551823247341654
40
0.555972307596215
40
0.564270428105338
40
0.564270428105338
40
0.580866669123584
40
0.580866669123584
40
0.647251633196568
40
0.647251633196568
40
0.780021561342535
40
0.780021561342535
40
1
40
1
40
1
40
1
41
1
10
8.69107551891244
20
4.88356342670153
30
0
41
1
10
8.66023714461588
20
4.79891365862818
30
0
41
1
10
8.62761514782403
20
4.71297208624068
30
0
41
1
10
8.55985041370707
20
4.53798032697094
30
0
41
1
10
8.52490234876686
20
4.44881805859538
30
0
41
1
10
8.45194517824064
20
4.26765773129486
30
0
41
1
10
8.4131511497564
20
4.17608676152406
30
0
41
1
10
8.29114813100657
20
3.89764148782689
30
0
41
1
10
8.2026731345174
20
3.70590063501294
30
0
41
1
10
8.05930061322917
20
3.41429431800304
30
0
41
1
10
8.00680140677125
20
3.31016402241195
30
0
41
1
10
7.95136591256929
20
3.20202957124232
30
0
41
1
10
7.94660409377207
20
3.19275412009179
30
0
41
1
10
7.9446185956877
20
3.18888839065383
30
0
41
1
10
7.94401680820579
20
3.1880633396342
30
0
41
1
10
7.94471794250262
20
3.18635262963556
30
0
41
1
10
7.94539584371475
20
3.18568425494683
30
0
41
1
10
7.9473413822202
20
3.18373767204491
30
0
41
1
10
7.94877307786925
20
3.18257218764518
30
0
41
1
10
7.96171546226324
20
3.17230263404548
30
0
41
1
10
7.97408716487627
20
3.16443091144683
30
0
41
1
10
8.0107216849255
20
3.14023079522704
30
0
41
1
10
8.03538507940166
20
3.12450805295958
30
0
41
1
10
8.10944907795746
20
3.07749101049009
30
0
41
1
10
8.15901991483037
20
3.04650527002772
30
0
41
1
10
8.40698402324693
20
2.8918721974274
30
0
41
1
10
8.60588326798614
20
2.76937600329396
30
0
41
1
10
9.00360123846397
20
2.52485725019412
30
0
41
1
10
9.2025211768597
20
2.40299418619895
30
0
41
1
10
9.79933755250966
20
2.03850271749349
30
0
41
1
10
10.197287152952
20
1.79701992713109
30
0
41
1
10
11.3905763129157
20
1.07577417449494
30
0
41
1
10
12.1848956913713
20
0.599439418611951
30
0
41
1
10
13.7720126561488
20
-0.341217776052048
30
0
41
1
10
14.565374387336
20
-0.805295733637621
30
0
41
1
10
15.4550749879749
20
-1.32152928179289
30
0
41
1
10
15.553893899444
20
-1.37881101996126
30
0
41
1
10
15.7019394044455
20
-1.46472158588426
30
0
41
1
10
15.7512603565497
20
-1.493354296702
30
0
41
1
10
15.8497430016864
20
-1.55070887446686
30
0
41
1
10
15.8990380591518
20
-1.57931679560372
30
0
41
1
10
15.9598189532254
20
-1.61577525899887
30
0
41
1
10
15.9720535601685
20
-1.62301094548928
30
0
41
1
10
15.9851474991084
20
-1.6316766292
30
0
41
1
10
15.9865895250444
20
-1.63264838880423
30
0
41
1
10
15.9886662375911
20
-1.63415918222165
30
0
41
1
10
15.9893518243654
20
-1.6346721995825
30
0
41
1
10
15.9905922632925
20
-1.63575393462779
30
0
41
1
10
15.9912445840769
20
-1.63664075565893
30
0
41
1
10
15.9887067055357
20
-1.63670962367397
30
0
41
1
10
15.9868505736431
20
-1.63635239806743
30
0
41
1
10
15.9832912721802
20
-1.63600629987977
30
0
41
1
10
15.9743931024584
20
-1.6351406432457
30
0
41
1
10
15.9370225465774
20
-1.63149624970652
30
0
41
1
10
15.8445035554573
20
-1.62238652198064
30
0
41
1
10
15.7591401886477
20
-1.61378803378662
30
0
41
1
10
15.5884663707038
20
-1.59633842115821
30
0
41
1
10
15.4747437962863
20
-1.58436732950233
30
0
41
1
10
14.9066453619678
20
-1.52284444751001
30
0
41
1
10
14.4537683807419
20
-1.468287047785
30
0
41
1
10
13.0997247455314
20
-1.28864266111495
30
0
41
1
10
12.2031435463717
20
-1.14758105624756
30
0
41
1
10
9.83583385555295
20
-0.716565769329037
30
0
41
1
10
8.37474059961545
20
-0.389464855069065
30
0
41
1
10
6.92655205780744
20
-0.0054672168374452
30
0
0
SPLINE
5
D6
100
AcDbEntity
8
1
62
256
6
ByLayer
370
18
48
1
60
0
100
AcDbSpline
70
4
71
3
72
24
73
20
40
0
40
0
40
0
40
0
40
0.499999999999993
40
0.499999999999993
40
0.75000000000002
40
0.75000000000002
40
0.875000000000034
40
0.875000000000034
40
0.937500000000044
40
0.937500000000044
40
0.968750000000053
40
0.968750000000053
40
0.984375000000023
40
0.984375000000023
40
0.992187500000008
40
0.992187500000008
40
0.996093750000004
40
0.996093750000004
40
1
40
1
40
1
40
1
41
1
10
71.0138118340352
20
-5.22478635953775
30
0
41
1
10
71.0359633813744
20
-5.18862655941339
30
0
41
1
10
71.0581272676797
20
-5.15233675933467
30
0
41
1
10
71.0913826961911
20
-5.09772851318471
30
0
41
1
10
71.1024681510552
20
-5.07949961157578
30
0
41
1
10
71.119101626181
20
-5.05210656328444
30
0
41
1
10
71.1246473137515
20
-5.04296658840306
30
0
41
1
10
71.132969179027
20
-5.02923993174198
30
0
41
1
10
71.1357443744599
20
-5.02466012628605
30
0
41
1
10
71.1399026882341
20
-5.0177977082015
30
0
41
1
10
71.1412869091359
20
-5.01551389345127
30
0
41
1
10
71.1433658290427
20
-5.01208199444062
30
0
41
1
10
71.144059535195
20
-5.01093635253804
30
0
41
1
10
71.145102617624
20
-5.00921229690735
30
0
41
1
10
71.145454056595
20
-5.00862975696111
30
0
41
1
10
71.1459583573066
20
-5.00780407734646
30
0
41
1
10
71.146122324802
20
-5.00753737180204
30
0
41
1
10
71.1464157846755
20
-5.00707169096731
30
0
41
1
10
71.1465484676766
20
-5.0068687434707
30
0
41
1
10
71.1465964534803
20
-5.00681663907952
30
0
0
SPLINE
5
D7
100
AcDbEntity
8
1
62
256
6
ByLayer
370
18
48
1
60
0
100
AcDbSpline
70
4
71
3
72
86
73
82
40
0
40
0
40
0
40
0
40
0.0263227644816479
40
0.0263227644816479
40
0.0557336636795665
40
0.0557336636795665
40
0.085144562877485
40
0.085144562877485
40
0.0998500124764449
40
0.0998500124764449
40
0.114555462075405
40
0.114555462075405
40
0.143966361273324
40
0.143966361273324
40
0.173377260471242
40
0.173377260471242
40
0.188082710070202
40
0.188082710070202
40
0.202788159669162
40
0.202788159669162
40
0.232199058867081
40
0.232199058867081
40
0.261609958064999
40
0.261609958064999
40
0.291020857262918
40
0.291020857262918
40
0.320431756460836
40
0.320431756460836
40
0.335137206059796
40
0.335137206059796
40
0.349842655658755
40
0.349842655658755
40
0.379253554856672
40
0.379253554856672
40
0.40866445405459
40
0.40866445405459
40
0.438075353252507
40
0.438075353252507
40
0.467486252450425
40
0.467486252450425
40
0.496897151648342
40
0.496897151648342
40
0.511602601247301
40
0.511602601247301
40
0.526308050846259
40
0.526308050846259
40
0.555718950044178
40
0.555718950044178
40
0.585129849242096
40
0.585129849242096
40
0.614540748440015
40
0.614540748440015
40
0.673362546835853
40
0.673362546835853
40
0.688067996434813
40
0.688067996434813
40
0.702773446033773
40
0.702773446033773
40
0.732184345231691
40
0.732184345231691
40
0.791006143627529
40
0.791006143627529
40
0.820417042825447
40
0.820417042825447
40
0.835122492424407
40
0.835122492424407
40
0.849827942023367
40
0.849827942023367
40
0.879238841221287
40
0.879238841221287
40
0.908649740419207
40
0.908649740419207
40
0.923355190018167
40
0.923355190018167
40
0.938060639617126
40
0.938060639617126
40
0.967471538815048
40
0.967471538815048
40
0.996882438012969
40
0.996882438012969
40
1
40
1
40
1
40
1
41
1
10
57.6757882313054
20
-1.45462349113123
30
0
41
1
10
57.440584811216
20
-1.34630463351027
30
0
41
1
10
57.2055089569079
20
-1.23701346275121
30
0
41
1
10
56.7080309091094
20
-1.00372739848609
30
0
41
1
10
56.4456279903579
20
-0.879528078798785
30
0
41
1
10
55.9208011307591
20
-0.629500799005598
30
0
41
1
10
55.658399801827
20
-0.503631229301021
30
0
41
1
10
55.2644705037333
20
-0.314244878398881
30
0
41
1
10
55.1330728290666
20
-0.250997255732472
30
0
41
1
10
54.8703163044822
20
-0.124457547512918
30
0
41
1
10
54.7389884640106
20
-0.0611811859301952
30
0
41
1
10
54.3451065524775
20
0.128566771910243
30
0
41
1
10
54.0826561510773
20
0.254962177692704
30
0
41
1
10
53.5577869850547
20
0.507041003657406
30
0
41
1
10
53.2953753676199
20
0.632738999056102
30
0
41
1
10
52.9016154742346
20
0.820408467069086
30
0
41
1
10
52.7703310823873
20
0.88280354330314
30
0
41
1
10
52.5076434674887
20
1.00715240453729
30
0
41
1
10
52.3762191729151
20
1.06912219804821
30
0
41
1
10
51.9820581894149
20
1.25413007790274
30
0
41
1
10
51.7193476597541
20
1.37630386865865
30
0
41
1
10
51.1938198071398
20
1.61785284600955
30
0
41
1
10
50.9309617475653
20
1.73723296732447
30
0
41
1
10
50.4053430080159
20
1.97251289684655
30
0
41
1
10
50.142680866102
20
2.08843498282803
30
0
41
1
10
49.6171998809626
20
2.31595305118958
30
0
41
1
10
49.3543767003156
20
2.42755471447529
30
0
41
1
10
48.9601487258621
20
2.59124525402592
30
0
41
1
10
48.8287196444009
20
2.64520127545148
30
0
41
1
10
48.566140224057
20
2.75171085627653
30
0
41
1
10
48.4349526715723
20
2.80427845590086
30
0
41
1
10
48.0416510922168
20
2.95985303401156
30
0
41
1
10
47.7798022205133
20
3.06073874181422
30
0
41
1
10
47.2565989607497
20
3.25648766943971
30
0
41
1
10
46.9952046548938
20
3.35127565372662
30
0
41
1
10
46.4724856287208
20
3.53415284973025
30
0
41
1
10
46.2111701455503
20
3.62226335672568
30
0
41
1
10
45.688393113563
20
3.79153917325891
30
0
41
1
10
45.4269270921017
20
3.87269680451928
30
0
41
1
10
44.9036215861979
20
4.02774073713508
30
0
41
1
10
44.6418099062293
20
4.10167699161832
30
0
41
1
10
44.248538100643
20
4.20669492571571
30
0
41
1
10
44.1173544195221
20
4.24071602572724
30
0
41
1
10
43.8547676642294
20
4.30673310888778
30
0
41
1
10
43.7233228696354
20
4.33873833651393
30
0
41
1
10
43.3291380662052
20
4.43152084572333
30
0
41
1
10
43.0664304042531
20
4.48910230983032
30
0
41
1
10
42.5409061890224
20
4.59559183153002
30
0
41
1
10
42.2780630965737
20
4.64450474004312
30
0
41
1
10
41.7524999689548
20
4.73340042101467
30
0
41
1
10
41.4896879531202
20
4.77335345669894
30
0
41
1
10
40.7016569273167
20
4.87914788003133
30
0
41
1
10
40.1766659452616
20
4.93108878843276
30
0
41
1
10
39.5196702356829
20
4.97254081329109
30
0
41
1
10
39.3882874189431
20
4.97965225825035
30
0
41
1
10
39.1257571474723
20
4.99151064682115
30
0
41
1
10
38.9945721425584
20
4.99625991598225
30
0
41
1
10
38.6011647811186
20
5.00692048139987
30
0
41
1
10
38.3390973841181
20
5.00924093911519
30
0
41
1
10
37.5531322352496
20
5.00182146969848
30
0
41
1
10
37.0294693721549
20
4.97768248805102
30
0
41
1
10
36.2430520453607
20
4.91309048372398
30
0
41
1
10
35.9807367804489
20
4.88682889331142
30
0
41
1
10
35.5867065997444
20
4.84036472931038
30
0
41
1
10
35.455262842187
20
4.82369621335513
30
0
41
1
10
35.192572676873
20
4.78806862219773
30
0
41
1
10
35.0612762830656
20
4.76910255008218
30
0
41
1
10
34.6674894380825
20
4.70878662288911
30
0
41
1
10
34.4050949390711
20
4.66402864731327
30
0
41
1
10
33.8803198816113
20
4.56568290668781
30
0
41
1
10
33.6179671766321
20
4.5120778383174
30
0
41
1
10
33.2241903844438
20
4.42529117032697
30
0
41
1
10
33.0928865121456
20
4.39529775325198
30
0
41
1
10
32.8301557691309
20
4.33320626699407
30
0
41
1
10
32.6987215559592
20
4.30110570835635
30
0
41
1
10
32.3046801707112
20
4.2018220186705
30
0
41
1
10
32.0421730104005
20
4.13162251602512
30
0
41
1
10
31.5172915079185
20
3.98349802519843
30
0
41
1
10
31.2549146505015
20
3.90557067210787
30
0
41
1
10
30.9646834736789
20
3.81526990110848
30
0
41
1
10
30.9368667439507
20
3.80657388732652
30
0
41
1
10
30.9090491069723
20
3.79783663400198
30
0
0
SPLINE
5
D8
100
AcDbEntity
8
1
62
256
6
ByLayer
370
18
48
1
60
0
100
AcDbSpline
70
2053
71
3
72
121
73
117
40
0
40
0
40
0
40
0
40
0.031249999999998
40
0.031249999999998
40
0.062499999999996
40
0.062499999999996
40
0.093749999999994
40
0.093749999999994
40
0.124999999999992
40
0.124999999999992
40
0.140624999999992
40
0.140624999999992
40
0.156249999999992
40
0.156249999999992
40
0.187499999999993
40
0.187499999999993
40
0.203124999999993
40
0.203124999999993
40
0.218749999999993
40
0.234374999999994
40
0.234374999999994
40
0.242187499999994
40
0.242187499999994
40
0.249999999999994
40
0.249999999999994
40
0.281249999999995
40
0.281249999999995
40
0.296874999999996
40
0.296874999999996
40
0.304687499999996
40
0.304687499999996
40
0.312499999999997
40
0.312499999999997
40
0.343750000000002
40
0.343750000000002
40
0.351562500000003
40
0.351562500000003
40
0.359375000000004
40
0.375000000000008
40
0.390625000000012
40
0.390625000000012
40
0.398437500000013
40
0.398437500000013
40
0.406250000000014
40
0.406250000000014
40
0.437500000000017
40
0.437500000000017
40
0.468750000000019
40
0.468750000000019
40
0.484375000000021
40
0.484375000000021
40
0.492187500000021
40
0.492187500000021
40
0.500000000000021
40
0.500000000000021
40
0.531250000000021
40
0.531250000000021
40
0.539062500000021
40
0.539062500000021
40
0.54687500000002
40
0.54687500000002
40
0.56250000000002
40
0.56250000000002
40
0.593750000000018
40
0.593750000000018
40
0.601562500000018
40
0.601562500000018
40
0.609375000000017
40
0.609375000000017
40
0.625000000000014
40
0.625000000000014
40
0.656250000000009
40
0.656250000000009
40
0.671875000000007
40
0.671875000000007
40
0.687500000000005
40
0.687500000000005
40
0.718750000000001
40
0.718750000000001
40
0.7265625
40
0.7265625
40
0.734375
40
0.749999999999998
40
0.765624999999996
40
0.765624999999996
40
0.773437499999995
40
0.773437499999995
40
0.781249999999994
40
0.781249999999994
40
0.812499999999989
40
0.812499999999989
40
0.820312499999988
40
0.820312499999988
40
0.828124999999988
40
0.828124999999988
40
0.843749999999986
40
0.859374999999984
40
0.859374999999984
40
0.867187499999985
40
0.867187499999985
40
0.874999999999985
40
0.874999999999985
40
0.906249999999988
40
0.906249999999988
40
0.92187499999999
40
0.92187499999999
40
0.937499999999991
40
0.953124999999993
40
0.953124999999993
40
0.968749999999994
40
0.968749999999994
40
0.984374999999996
40
0.984374999999996
40
0.992187499999998
40
0.992187499999998
40
1
40
1
40
1
40
1
41
1
10
71.5295552839725
20
-2.530902257407
30
0
41
1
10
71.5095746459648
20
-2.55760407622688
30
0
41
1
10
71.4905052477943
20
-2.57972315630974
30
0
41
1
10
71.4539697031431
20
-2.61535889130826
30
0
41
1
10
71.4365047729708
20
-2.62887271346989
30
0
41
1
10
71.4030880513084
20
-2.6469349689331
30
0
41
1
10
71.3875917997158
20
-2.65123120318307
30
0
41
1
10
71.3588253078269
20
-2.6505902057884
30
0
41
1
10
71.3455464084912
20
-2.64566076445726
30
0
41
1
10
71.3272596686475
20
-2.6308382116529
30
0
41
1
10
71.3215179669676
20
-2.62471261745793
30
0
41
1
10
71.3107484054551
20
-2.61016312521232
30
0
41
1
10
71.3057138951928
20
-2.60173383905675
30
0
41
1
10
71.291640107869
20
-2.57295019693657
30
0
41
1
10
71.2836184474089
20
-2.54913817544244
30
0
41
1
10
71.2737398557377
20
-2.50575809123416
30
0
41
1
10
71.2708581243728
20
-2.49021724636876
30
0
41
1
10
71.2659274884442
20
-2.45713218705274
30
0
41
1
10
71.2618203239655
20
-2.42199898208085
30
0
41
1
10
71.2593770875083
20
-2.38270367380755
30
0
41
1
10
71.258199473377
20
-2.35159653684022
30
0
41
1
10
71.2579163318821
20
-2.34095434522297
30
0
41
1
10
71.2575775372019
20
-2.31910384686586
30
0
41
1
10
71.2575224145463
20
-2.30785648160565
30
0
41
1
10
71.2578375711158
20
-2.25077379106307
30
0
41
1
10
71.2599406293744
20
-2.20232956914407
30
0
41
1
10
71.2660189933711
20
-2.12543768923501
30
0
41
1
10
71.2685367148187
20
-2.09909752807366
30
0
41
1
10
71.273114810674
20
-2.05846087332495
30
0
41
1
10
71.2747788483993
20
-2.04470215520863
30
0
41
1
10
71.2783354838278
20
-2.01719187976727
30
0
41
1
10
71.2802327148755
20
-2.00339525215046
30
0
41
1
10
71.2903150190611
20
-1.934209164213
30
0
41
1
10
71.3002666408263
20
-1.87821732114685
30
0
41
1
10
71.3153044669664
20
-1.80742982594774
30
0
41
1
10
71.3184535078876
20
-1.7931904356731
30
0
41
1
10
71.3249409209491
20
-1.76498996934075
30
0
41
1
10
71.3349753247642
20
-1.72301165334298
30
0
41
1
10
71.3532020012005
20
-1.65461949233287
30
0
41
1
10
71.3694057447825
20
-1.60155562413465
30
0
41
1
10
71.3821910708324
20
-1.56238541994105
30
0
41
1
10
71.3865532433599
20
-1.54945251471963
30
0
41
1
10
71.3953833965487
20
-1.52410420188272
30
0
41
1
10
71.3998639793761
20
-1.51164964830664
30
0
41
1
10
71.4225904140055
20
-1.4504423170066
30
0
41
1
10
71.4418006250133
20
-1.40485539884986
30
0
41
1
10
71.4822825759771
20
-1.32013464678539
30
0
41
1
10
71.5029598832431
20
-1.28224755909687
30
0
41
1
10
71.5345012241609
20
-1.23153048282973
30
0
41
1
10
71.545106970394
20
-1.2156437126626
30
0
41
1
10
71.5611480406138
20
-1.19331600986752
30
0
41
1
10
71.5665158834221
20
-1.18612761914375
30
0
41
1
10
71.5771996944526
20
-1.17236884828293
30
0
41
1
10
71.5825276493359
20
-1.16578142344542
30
0
41
1
10
71.6090969479524
20
-1.13425920393013
30
0
41
1
10
71.6301304660414
20
-1.1135314980281
30
0
41
1
10
71.6560961954223
20
-1.09292258280834
30
0
41
1
10
71.6612728080913
20
-1.08906811562559
30
0
41
1
10
71.6715908258482
20
-1.08189492882715
30
0
41
1
10
71.6767356600387
20
-1.07857532595815
30
0
41
1
10
71.6919892400837
20
-1.0694941528848
30
0
41
1
10
71.7019591023607
20
-1.06457730936322
30
0
41
1
10
71.7312642408429
20
-1.0531170632726
30
0
41
1
10
71.7500009862042
20
-1.04983597781799
30
0
41
1
10
71.7723119355719
20
-1.05122013030422
30
0
41
1
10
71.776718152381
20
-1.0517734918997
30
0
41
1
10
71.785413858397
20
-1.05344357635329
30
0
41
1
10
71.7897070710207
20
-1.05456294335272
30
0
41
1
10
71.8022928005904
20
-1.05874278307152
30
0
41
1
10
71.8103294901259
20
-1.06262764782059
30
0
41
1
10
71.8333564812829
20
-1.07754603494868
30
0
41
1
10
71.8472741851145
20
-1.09181133225115
30
0
41
1
10
71.86574230256
20
-1.1201098841461
30
0
41
1
10
71.8714956057026
20
-1.13070261287109
30
0
41
1
10
71.882110119113
20
-1.1543757312121
30
0
41
1
10
71.8868892859259
20
-1.16727413026098
30
0
41
1
10
71.8996048263111
20
-1.20919000282527
30
0
41
1
10
71.9059366680521
20
-1.24138941184609
30
0
41
1
10
71.910819452724
20
-1.28758375106727
30
0
41
1
10
71.9116447385609
20
-1.29715080378415
30
0
41
1
10
71.9129658816249
20
-1.31677812482721
30
0
41
1
10
71.9144494743829
20
-1.34687185008457
30
0
41
1
10
71.9144472307575
20
-1.40027348476954
30
0
41
1
10
71.9117733852694
20
-1.44652003954908
30
0
41
1
10
71.9087257067329
20
-1.48259521334711
30
0
41
1
10
71.9075357969115
20
-1.494852456552
30
0
41
1
10
71.9047971226902
20
-1.51984919683048
30
0
41
1
10
71.9032412044435
20
-1.53263916105013
30
0
41
1
10
71.8946376380478
20
-1.5970723784429
30
0
41
1
10
71.8851610500166
20
-1.65019295768769
30
0
41
1
10
71.8702425953871
20
-1.71856933045322
30
0
41
1
10
71.8671038268202
20
-1.73234441185397
30
0
41
1
10
71.860514550944
20
-1.76009862052129
30
0
41
1
10
71.8570510849396
20
-1.77412682972678
30
0
41
1
10
71.8463130778643
20
-1.81604285841209
30
0
41
1
10
71.8310588955284
20
-1.87157605366423
30
0
41
1
10
71.8140803206903
20
-1.92645098215047
30
0
41
1
10
71.8007322619634
20
-1.96737076419404
30
0
41
1
10
71.7961803222705
20
-1.98097120138166
30
0
41
1
10
71.7868739858187
20
-2.00809380680084
30
0
41
1
10
71.7821355765436
20
-2.02156773104312
30
0
41
1
10
71.7582214808564
20
-2.08799764208777
30
0
41
1
10
71.7382168978666
20
-2.13867433462406
30
0
41
1
10
71.7071277227939
20
-2.21130408681691
30
0
41
1
10
71.6965484989585
20
-2.23500781394557
30
0
41
1
10
71.6754620644882
20
-2.28038961872673
30
0
41
1
10
71.6543538734148
20
-2.32397794135383
30
0
41
1
10
71.63322482148
20
-2.36415620431265
30
0
41
1
10
71.6120912557444
20
-2.40266314838323
30
0
41
1
10
71.6014827022538
20
-2.42114355725431
30
0
41
1
10
71.5805337625362
20
-2.45597615336376
30
0
41
1
10
71.5701789302531
20
-2.47236168766094
30
0
41
1
10
71.5548180795649
20
-2.49543946707215
30
0
41
1
10
71.5497263832041
20
-2.50288149094578
30
0
41
1
10
71.5395990430575
20
-2.51726650218069
30
0
41
1
10
71.5345504434744
20
-2.52422680270203
30
0
41
1
10
71.5295552839725
20
-2.530902257407
30
0
0
SPLINE
5
D9
100
AcDbEntity
8
1
62
256
6
ByLayer
370
18
48
1
60
0
100
AcDbSpline
70
4
71
3
72
13
73
9
40
0
40
0
40
0
40
0
40
0.500000000000007
40
0.500000000000007
40
0.625000000000005
40
0.625000000000005
40
0.750000000000004
40
1
40
1
40
1
40
1
41
1
10
71.2723606497595
20
-4.78833650424605
30
0
41
1
10
71.2337121316326
20
-4.84572003675564
30
0
41
1
10
71.1981993269134
20
-4.89412083567785
30
0
41
1
10
71.157719409767
20
-4.94208274469966
30
0
41
1
10
71.1498033306763
20
-4.95106121035772
30
0
41
1
10
71.1345223623509
20
-4.96755325282595
30
0
41
1
10
71.1123723831528
20
-4.99016416713096
30
0
41
1
10
71.0924311359186
20
-5.00651377485661
30
0
41
1
10
71.0800325240102
20
-5.01471331290713
30
0
0
SPLINE
5
DA
100
AcDbEntity
8
1
62
256
6
ByLayer
370
18
48
1
60
0
100
AcDbSpline
70
4
71
3
72
31
73
27
40
0
40
0
40
0
40
0
40
0.124999999999985
40
0.124999999999985
40
0.187499999999977
40
0.187499999999977
40
0.24999999999997
40
0.312499999999962
40
0.312499999999962
40
0.343749999999961
40
0.343749999999961
40
0.374999999999959
40
0.437499999999956
40
0.437499999999956
40
0.468749999999956
40
0.468749999999956
40
0.499999999999957
40
0.499999999999957
40
0.531249999999958
40
0.531249999999958
40
0.562499999999958
40
0.624999999999963
40
0.624999999999963
40
0.749999999999977
40
0.749999999999977
40
1
40
1
40
1
40
1
41
1
10
72.4686763094054
20
-1.7105161657538
30
0
41
1
10
72.4084003459914
20
-1.82193125656875
30
0
41
1
10
72.3496745074044
20
-1.93744003113329
30
0
41
1
10
72.2636400468548
20
-2.11690669622038
30
0
41
1
10
72.2352648767255
20
-2.17785517354667
30
0
41
1
10
72.1795197869328
20
-2.30100478692552
30
0
41
1
10
72.1247030424996
20
-2.42555574726262
30
0
41
1
10
72.0715918159524
20
-2.5528519756449
30
0
41
1
10
72.0323404963053
20
-2.64933620033352
30
0
41
1
10
72.0193555106334
20
-2.68166309609603
30
0
41
1
10
71.9936573185386
20
-2.74642624537091
30
0
41
1
10
71.9554833693194
20
-2.84381802784105
30
0
41
1
10
71.9183754473548
20
-2.94192987652832
30
0
41
1
10
71.8818998357848
20
-3.04048920670786
30
0
41
1
10
71.8698464681842
20
-3.07341674151797
30
0
41
1
10
71.8459375844171
20
-3.13941564927035
30
0
41
1
10
71.8340751460872
20
-3.17251207983529
30
0
41
1
10
71.8105816578149
20
-3.23866189037005
30
0
41
1
10
71.7988733731128
20
-3.27173175085949
30
0
41
1
10
71.7754771618924
20
-3.33786540083608
30
0
41
1
10
71.7404407803528
20
-3.43705432792754
30
0
41
1
10
71.7055729140272
20
-3.53620468288597
30
0
41
1
10
71.6360621456105
20
-3.73444060759911
30
0
41
1
10
71.590017976814
20
-3.86651223861966
30
0
41
1
10
71.4526631142413
20
-4.26236158395091
30
0
41
1
10
71.3621789581322
20
-4.52577403555625
30
0
41
1
10
71.2723606497595
20
-4.7883365042459
30
0
0
SPLINE
5
DB
100
AcDbEntity
8
1
62
256
6
ByLayer
370
18
48
1
60
0
100
AcDbSpline
70
4
71
3
72
8
73
4
40
0
40
0
40
0
40
0
40
1
40
1
40
1
40
1
41
1
10
72.4686763094049
20
-1.71051616575428
30
0
41
1
10
72.6084928434803
20
-1.31939485378055
30
0
41
1
10
72.7471275720332
20
-0.927858181510743
30
0
41
1
10
72.8845562548473
20
-0.535897629418344
30
0
0
SPLINE
5
DC
100
AcDbEntity
8
1
62
256
6
ByLayer
370
18
48
1
60
0
100
AcDbSpline
70
4
71
3
72
8
73
4
40
0
40
0
40
0
40
0
40
1
40
1
40
1
40
1
41
1
10
72.8845562548473
20
-0.535897629418344
30
0
41
1
10
72.9216302228425
20
-0.430158909770455
30
0
41
1
10
72.9594349077124
20
-0.324825663874179
30
0
41
1
10
72.9979687089585
20
-0.219883505003224
30
0
0
SPLINE
5
DD
100
AcDbEntity
8
1
62
256
6
ByLayer
370
18
48
1
60
0
100
AcDbSpline
70
4
71
3
72
8
73
4
40
0
40
0
40
0
40
0
40
1
40
1
40
1
40
1
41
1
10
72.9979687089586
20
0.219883505003139
30
0
41
1
10
73.0006720077249
20
0.0735699546814317
30
0
41
1
10
73.0006822054995
20
-0.0730180095503385
30
0
41
1
10
72.9979687089586
20
-0.219883505003196
30
0
0
SPLINE
5
DE
100
AcDbEntity
8
1
62
256
6
ByLayer
370
18
48
1
60
0
100
AcDbSpline
70
4
71
3
72
57
73
53
40
0
40
0
40
0
40
0
40
0.0624999999999923
40
0.0624999999999923
40
0.0937499999999911
40
0.0937499999999911
40
0.12499999999999
40
0.12499999999999
40
0.187499999999982
40
0.187499999999982
40
0.249999999999974
40
0.249999999999974
40
0.28124999999997
40
0.28124999999997
40
0.296874999999968
40
0.296874999999968
40
0.312499999999966
40
0.312499999999966
40
0.374999999999977
40
0.374999999999977
40
0.437499999999988
40
0.437499999999988
40
0.453124999999988
40
0.453124999999988
40
0.468749999999987
40
0.468749999999987
40
0.499999999999987
40
0.499999999999987
40
0.562499999999986
40
0.562499999999986
40
0.593749999999988
40
0.593749999999988
40
0.609374999999987
40
0.609374999999987
40
0.624999999999985
40
0.624999999999985
40
0.687499999999984
40
0.687499999999984
40
0.718749999999984
40
0.734374999999983
40
0.734374999999983
40
0.749999999999983
40
0.749999999999983
40
0.812499999999986
40
0.812499999999986
40
0.874999999999989
40
0.874999999999989
40
0.906249999999992
40
0.906249999999992
40
0.937499999999994
40
0.937499999999994
40
1
40
1
40
1
40
1
41
1
10
72.9979687089585
20
0.219883505003139
30
0
41
1
10
72.9789176556876
20
0.164671281903139
30
0
41
1
10
72.9588483468054
20
0.109940265675078
30
0
41
1
10
72.9272206783436
20
0.0285733232448706
30
0
41
1
10
72.916423544803
20
0.0015729063972856
30
0
41
1
10
72.894312249221
20
-0.0521787344827374
30
0
41
1
10
72.88297329038
20
-0.0789868661473747
30
0
41
1
10
72.8483235989551
20
-0.158646830503244
30
0
41
1
10
72.8246816192385
20
-0.210063720734183
30
0
41
1
10
72.7763967455536
20
-0.309531127632738
30
0
41
1
10
72.7517540060106
20
-0.357582523315841
30
0
41
1
10
72.7140518503076
20
-0.427020733587
30
0
41
1
10
72.7013609285685
20
-0.449725626215724
30
0
41
1
10
72.6821353974828
20
-0.483092361063029
30
0
41
1
10
72.6756953214018
20
-0.494099393517644
30
0
41
1
10
72.6627508578155
20
-0.515876737428329
30
0
41
1
10
72.6562522772726
20
-0.526636331072837
30
0
41
1
10
72.6238913933894
20
-0.579353130738127
30
0
41
1
10
72.5981976285971
20
-0.618466520423937
30
0
41
1
10
72.5472043471586
20
-0.69060783617266
30
0
41
1
10
72.5219049012723
20
-0.723637032388098
30
0
41
1
10
72.4905186827366
20
-0.760927828261572
30
0
41
1
10
72.4842532957501
20
-0.768185284385709
30
0
41
1
10
72.4717458213325
20
-0.78229003936795
30
0
41
1
10
72.4654917329687
20
-0.789149519130405
30
0
41
1
10
72.4469221168955
20
-0.808931728591318
30
0
41
1
10
72.4347604697948
20
-0.821105757830679
30
0
41
1
10
72.3988989858158
20
-0.854653498593478
30
0
41
1
10
72.3758209394551
20
-0.873065796904683
30
0
41
1
10
72.3423599189372
20
-0.894777820391937
30
0
41
1
10
72.33139936071
20
-0.901027478323726
30
0
41
1
10
72.3152408119188
20
-0.908893496350089
30
0
41
1
10
72.3098910958135
20
-0.911267912915378
30
0
41
1
10
72.2993412252565
20
-0.915484709347623
30
0
41
1
10
72.2941458799714
20
-0.91732633021698
30
0
41
1
10
72.2685530927772
20
-0.925227708181865
30
0
41
1
10
72.2493024291317
20
-0.927384274367711
30
0
41
1
10
72.2220589621488
20
-0.924674356364022
30
0
41
1
10
72.2088468665719
20
-0.921828141817031
30
0
41
1
10
72.1962230845519
20
-0.916760056061378
30
0
41
1
10
72.1879357686836
20
-0.912886624684091
30
0
41
1
10
72.1838493127689
20
-0.910698077158543
30
0
41
1
10
72.1638390241131
20
-0.898582152004622
30
0
41
1
10
72.1491686269317
20
-0.885169129312118
30
0
41
1
10
72.1221461337876
20
-0.851497609740932
30
0
41
1
10
72.1097957056121
20
-0.831235631220608
30
0
41
1
10
72.0928471143963
20
-0.795908099724869
30
0
41
1
10
72.0874518589557
20
-0.783278245772323
30
0
41
1
10
72.0772571667969
20
-0.756621452149972
30
0
41
1
10
72.0724477802401
20
-0.742579325390921
30
0
41
1
10
72.0588319026882
20
-0.698393342770402
30
0
41
1
10
72.0508343968139
20
-0.666196066043881
30
0
41
1
10
72.0438249765773
20
-0.631390984897621
30
0
0
SPLINE
5
DF
100
AcDbEntity
8
1
62
256
6
ByLayer
370
18
48
1
60
0
100
AcDbSpline
70
4
71
3
72
8
73
4
40
0
40
0
40
0
40
0
40
1
40
1
40
1
40
1
41
1
10
72.0438249765773
20
-0.631390984897649
30
0
41
1
10
71.9541294269615
20
-0.18601022907157
30
0
41
1
10
71.8392776231148
20
0.274543028015955
30
0
41
1
10
71.6989509543109
20
0.750460950174499
30
0
0
SPLINE
5
E0
100
AcDbEntity
8
1
62
256
6
ByLayer
370
18
48
1
60
0
100
AcDbSpline
70
4
71
3
72
16
73
12
40
0
40
0
40
0
40
0
40
0.25
40
0.25
40
0.500000000000001
40
0.500000000000001
40
0.750000000000001
40
0.750000000000001
40
0.875000000000001
40
0.875000000000001
40
1
40
1
40
1
40
1
41
1
10
71.1052842113293
20
0.479461904458589
30
0
41
1
10
71.154439472314
20
0.517093347080589
30
0
41
1
10
71.2038503857043
20
0.550946633688312
30
0
41
1
10
71.3029723612818
20
0.611805183720975
30
0
41
1
10
71.3526820879643
20
0.63874381934798
30
0
41
1
10
71.4520728452695
20
0.684795332699508
30
0
41
1
10
71.5017583470593
20
0.703962909468714
30
0
41
1
10
71.5759916193207
20
0.72626043880777
30
0
41
1
10
71.600683824414
20
0.732588891891226
30
0
41
1
10
71.6499212769908
20
0.743025571561731
30
0
41
1
10
71.6744624795501
20
0.747101305917823
30
0
41
1
10
71.6989509543109
20
0.750460950174556
30
0
0
SPLINE
5
E1
100
AcDbEntity
8
1
62
256
6
ByLayer
370
18
48
1
60
0
100
AcDbSpline
70
4
71
3
72
48
73
44
40
0
40
0
40
0
40
0
40
0.0161435013900863
40
0.0161435013900863
40
0.0633467113040076
40
0.0633467113040076
40
0.110549921217929
40
0.110549921217929
40
0.204956341045771
40
0.204956341045771
40
0.252159550959693
40
0.252159550959693
40
0.263960353438173
40
0.263960353438173
40
0.275761155916652
40
0.299362760873609
40
0.299362760873609
40
0.393769180701438
40
0.393769180701438
40
0.440972390615351
40
0.440972390615351
40
0.488175600529264
40
0.488175600529264
40
0.582582020357093
40
0.582582020357093
40
0.629785230271008
40
0.629785230271008
40
0.676988440184923
40
0.676988440184923
40
0.724191650098838
40
0.747793255055795
40
0.747793255055795
40
0.759594057534273
40
0.759594057534273
40
0.771394860012751
40
0.771394860012751
40
0.818598069926663
40
0.818598069926663
40
0.865801279840574
40
0.865801279840574
40
0.960207699668396
40
0.960207699668396
40
1
40
1
40
1
40
1
41
1
10
39.9535113508404
20
-4.97834766235019
30
0
41
1
10
39.8645813577893
20
-4.97938259385108
30
0
41
1
10
39.7756555236884
20
-4.97986865620999
30
0
41
1
10
39.4267083127229
20
-4.97963374198068
30
0
41
1
10
39.1666789883866
20
-4.97479392530849
30
0
41
1
10
38.646302614807
20
-4.95571981441222
30
0
41
1
10
38.3859543843478
20
-4.94148030472061
30
0
41
1
10
37.604113058967
20
-4.88492061038838
30
0
41
1
10
37.081825837386
20
-4.82872756492739
30
0
41
1
10
36.2949417292778
20
-4.71644972055486
30
0
41
1
10
36.0320930098637
20
-4.67441042491132
30
0
41
1
10
35.7027170399389
20
-4.61618528557747
30
0
41
1
10
35.6367695463971
20
-4.60424674507291
30
0
41
1
10
35.5049529644375
20
-4.57982813318623
30
0
41
1
10
35.3073593524273
20
-4.54239163753047
30
0
41
1
10
35.1101363874117
20
-4.50256436803519
30
0
41
1
10
34.4534493530089
20
-4.364641861058
30
0
41
1
10
33.9303914156811
20
-4.23778981065055
30
0
41
1
10
33.1475906014942
20
-4.02485821626027
30
0
41
1
10
32.8869660421911
20
-3.95010530753643
30
0
41
1
10
32.3661555920052
20
-3.79342662074254
30
0
41
1
10
32.1059627785956
20
-3.7114964798096
30
0
41
1
10
31.3254605468664
20
-3.45563203210222
30
0
41
1
10
30.8052230598068
20
-3.2716287584845
30
0
41
1
10
30.0234385909672
20
-2.97792112964919
30
0
41
1
10
29.7626042194088
20
-2.87706673547609
30
0
41
1
10
29.2402951992581
20
-2.66978465032437
30
0
41
1
10
28.9788234201327
20
-2.56335458949039
30
0
41
1
10
28.4548605508841
20
-2.34550100138293
30
0
41
1
10
28.061121779649
20
-2.17836665913865
30
0
41
1
10
27.6659252770288
20
-2.00614334850351
30
0
41
1
10
27.4680578117686
20
-1.91922728099436
30
0
41
1
10
27.4020756139075
20
-1.89012922004199
30
0
41
1
10
27.2702292721212
20
-1.83176682972996
30
0
41
1
10
27.2043404138693
20
-1.80249165958145
30
0
41
1
10
26.8750571386941
20
-1.65566815862203
30
0
41
1
10
26.6121452213947
20
-1.53677800677198
30
0
41
1
10
26.0871283221746
20
-1.2966132312809
30
0
41
1
10
25.8250237271942
20
-1.17533787591626
30
0
41
1
10
25.0394090334883
20
-0.80901455301057
30
0
41
1
10
24.5165980513169
20
-0.561466352343558
30
0
41
1
10
23.7733115837468
20
-0.207910185696022
30
0
41
1
10
23.5529004991183
20
-0.102866149838547
30
0
41
1
10
23.3323852700362
20
0.0021957331362614
30
0
0
SPLINE
5
E2
100
AcDbEntity
8
1
62
256
6
ByLayer
370
18
48
1
60
0
100
AcDbSpline
70
4
71
3
72
14
73
10
40
0
40
0
40
0
40
0
40
0.25
40
0.25
40
0.5
40
0.5
40
0.75
40
0.75
40
1
40
1
40
1
40
1
41
1
10
71.0875518037621
20
-4.99029148817274
30
0
41
1
10
71.0877150832531
20
-4.99045717903672
30
0
41
1
10
71.0878053959675
20
-4.99082067574841
30
0
41
1
10
71.0877972215613
20
-4.99202759614025
30
0
41
1
10
71.0876935737766
20
-4.99287120226174
30
0
41
1
10
71.0872688300658
20
-4.99495039793098
30
0
41
1
10
71.0869420433013
20
-4.99620351035367
30
0
41
1
10
71.0861411042703
20
-4.99880598243541
30
0
41
1
10
71.0856714977088
20
-5.0001463984085
30
0
41
1
10
71.0851867672257
20
-5.00139827475601
30
0
0
SPLINE
5
E3
100
AcDbEntity
8
1
62
256
6
ByLayer
370
18
48
1
60
0
100
AcDbSpline
70
4
71
3
72
8
73
4
40
0
40
0
40
0
40
0
40
1
40
1
40
1
40
1
41
1
10
70.9762048658436
20
-5.18168759249275
30
0
41
1
10
71.0107793206798
20
-5.12624489215551
30
0
41
1
10
71.0453872022871
20
-5.07058651350624
30
0
41
1
10
71.0800325240102
20
-5.01471331290702
30
0
0
SPLINE
5
E4
100
AcDbEntity
8
1
62
256
6
ByLayer
370
18
48
1
60
0
100
AcDbSpline
70
4
71
3
72
8
73
4
40
0
40
0
40
0
40
0
40
1
40
1
40
1
40
1
41
1
10
71.0851867672267
20
-5.00139827475326
30
0
41
1
10
71.0834680814191
20
-5.00583699314765
30
0
41
1
10
71.0817499990283
20
-5.01027533920134
30
0
41
1
10
71.0800325240102
20
-5.01471331290702
30
0
0
SPLINE
5
E5
100
AcDbEntity
8
1
62
256
6
ByLayer
370
18
48
1
60
0
100
AcDbSpline
70
4
71
3
72
42
73
38
40
0
40
0
40
0
40
0
40
0.0260023925465533
40
0.0260023925465533
40
0.0520047850931066
40
0.0520047850931066
40
0.104009570186211
40
0.104009570186211
40
0.208019140372421
40
0.208019140372421
40
0.260023925465527
40
0.260023925465527
40
0.286026318012078
40
0.286026318012078
40
0.31202871055863
40
0.31202871055863
40
0.416038280744835
40
0.416038280744835
40
0.520047850931042
40
0.520047850931042
40
0.572052636024145
40
0.572052636024145
40
0.598055028570697
40
0.598055028570697
40
0.62405742111725
40
0.62405742111725
40
0.728066991303458
40
0.728066991303458
40
0.780071776396563
40
0.780071776396563
40
0.832076561489667
40
0.832076561489667
40
0.884081346582771
40
0.884081346582771
40
0.936086131675876
40
0.936086131675876
40
1
40
1
40
1
40
1
41
1
10
71.0851867672267
20
-5.00139827475326
30
0
41
1
10
70.9536649344091
20
-4.99372343376922
30
0
41
1
10
70.8221472132433
20
-4.98483340733756
30
0
41
1
10
70.5590864250092
20
-4.96464180807808
30
0
41
1
10
70.4275096373933
20
-4.95333699674424
30
0
41
1
10
70.032909731022
20
-4.91585293057662
30
0
41
1
10
69.7705348559652
20
-4.88615665977923
30
0
41
1
10
68.9850639888595
20
-4.78339901394926
30
0
41
1
10
68.4636210085286
20
-4.69667638409609
30
0
41
1
10
67.6831628028324
20
-4.54117669723072
30
0
41
1
10
67.4232966759756
20
-4.48510599453738
30
0
41
1
10
67.0336722948195
20
-4.39484084863466
30
0
41
1
10
66.9038231902293
20
-4.36372172547479
30
0
41
1
10
66.6441886410133
20
-4.29951016332598
30
0
41
1
10
66.5144095684666
20
-4.2664269053061
30
0
41
1
10
65.8655308320663
20
-4.09607531669894
30
0
41
1
10
65.3463965777249
20
-3.94384384156649
30
0
41
1
10
64.3060701876128
20
-3.61051708613988
30
0
41
1
10
63.7848731018507
20
-3.42948952860351
30
0
41
1
10
62.9997967344947
20
-3.13849329758764
30
0
41
1
10
62.7375631357884
20
-3.03821952617108
30
0
41
1
10
62.3431942403025
20
-2.88320500246283
30
0
41
1
10
62.2114674704445
20
-2.83072514497144
30
0
41
1
10
61.9485011867276
20
-2.7246351839826
30
0
41
1
10
61.8171867997235
20
-2.67099673924915
30
0
41
1
10
61.1613690486233
20
-2.40001923731597
30
0
41
1
10
60.6391025125078
20
-2.17438515852899
30
0
41
1
10
59.8575805317264
20
-1.82609872707113
30
0
41
1
10
59.597396283476
20
-1.70833746217104
30
0
41
1
10
59.0774257204775
20
-1.47003411308108
30
0
41
1
10
58.8176419324348
20
-1.34949054996838
30
0
41
1
10
58.2981780373864
20
-1.10620226419823
30
0
41
1
10
58.0384981611492
20
-0.983452887868339
30
0
41
1
10
57.5189341921469
20
-0.736406603191114
30
0
41
1
10
57.2590461161397
20
-0.612118785118696
30
0
41
1
10
56.6792859353497
20
-0.333856062002184
30
0
41
1
10
56.3593108524979
20
-0.17959761615532
30
0
41
1
10
56.0387577950814
20
-0.0250611756326578
30
0
0
SPLINE
5
E6
100
AcDbEntity
8
1
62
256
6
ByLayer
370
13
48
1
60
0
100
AcDbSpline
70
4
71
3
72
45
73
41
40
0
40
0
40
0
40
0
40
0.0312499999999998
40
0.0312499999999998
40
0.0624999999999997
40
0.0624999999999997
40
0.0937499999999994
40
0.0937499999999994
40
0.124999999999999
40
0.124999999999999
40
0.187499999999999
40
0.249999999999999
40
0.249999999999999
40
0.312499999999999
40
0.312499999999999
40
0.374999999999998
40
0.437499999999998
40
0.437499999999998
40
0.468749999999998
40
0.484374999999998
40
0.484374999999998
40
0.499999999999998
40
0.499999999999998
40
0.531249999999998
40
0.531249999999998
40
0.546874999999998
40
0.546874999999998
40
0.562499999999998
40
0.562499999999998
40
0.624999999999998
40
0.687499999999998
40
0.749999999999998
40
0.749999999999998
40
0.781249999999998
40
0.781249999999998
40
0.812499999999999
40
0.812499999999999
40
0.874999999999999
40
0.9375
40
1
40
1
40
1
40
1
41
1
10
20.8507775943596
20
4.92418482460255
30
0
41
1
10
20.850775578394
20
4.92926938233643
30
0
41
1
10
20.8507734582364
20
4.93275955349458
30
0
41
1
10
20.8507690359282
20
4.93654976821085
30
0
41
1
10
20.8507667328333
20
4.93685273834367
30
0
41
1
10
20.8507619596931
20
4.93427677204684
30
0
41
1
10
20.8507594884149
20
4.93139562456352
30
0
41
1
10
20.8507543992436
20
4.92244466385716
30
0
41
1
10
20.8507517883242
20
4.91638856230907
30
0
41
1
10
20.85074378097
20
4.89353220552218
30
0
41
1
10
20.8507326407462
20
4.85057335758373
30
0
41
1
10
20.8507207852019
20
4.78278209932876
30
0
41
1
10
20.8507086494967
20
4.70235347938592
30
0
41
1
10
20.8507025157459
20
4.65630871354287
30
0
41
1
10
20.8506901833161
20
4.5529667569476
30
0
41
1
10
20.8506777842377
20
4.43836079127055
30
0
41
1
10
20.8506653193446
20
4.30144984362028
30
0
41
1
10
20.8506559513937
20
4.19029488130488
30
0
41
1
10
20.8506512622962
20
4.13259647262328
30
0
41
1
10
20.8506465636786
20
4.07166830827208
30
0
41
1
10
20.8506434287396
20
4.03032435231671
30
0
41
1
10
20.8506418591911
20
4.009278227496
30
0
41
1
10
20.8506371594122
20
3.94522458574105
30
0
41
1
10
20.8506340343779
20
3.90125466569614
30
0
41
1
10
20.8506293553886
20
3.83339852790701
30
0
41
1
10
20.850627796241
20
3.81044903584453
30
0
41
1
10
20.8506246886441
20
3.76404495846538
30
0
41
1
10
20.8506231393479
20
3.7405784841375
30
0
41
1
10
20.8506154130295
20
3.62193675412851
30
0
41
1
10
20.8506031813403
20
3.42374559066843
30
0
41
1
10
20.8505850117745
20
3.10196556628421
30
0
41
1
10
20.8505728384913
20
2.8711386597183
30
0
41
1
10
20.8505636020893
20
2.69177105740366
30
0
41
1
10
20.8505605048037
20
2.63092803346078
30
0
41
1
10
20.8505542601403
20
2.50716018493838
30
0
41
1
10
20.8505511339094
20
2.44465570308765
30
0
41
1
10
20.8505417190906
20
2.25531254732897
30
0
41
1
10
20.8505290702656
20
1.99798271000333
30
0
41
1
10
20.8505094019931
20
1.59761836195895
30
0
41
1
10
20.8504955316894
20
1.32107347152592
30
0
41
1
10
20.8504883245263
20
1.18032195371916
30
0
0
SPLINE
5
E7
100
AcDbEntity
8
1
62
256
6
ByLayer
370
18
48
1
60
0
100
AcDbSpline
70
4
71
3
72
47
73
43
40
0
40
0
40
0
40
0
40
0.0280239311370117
40
0.0280239311370117
40
0.0744211850473648
40
0.0744211850473648
40
0.167215692868073
40
0.167215692868073
40
0.213612946778427
40
0.213612946778427
40
0.260010200688781
40
0.271609514166371
40
0.271609514166371
40
0.283208827643961
40
0.283208827643961
40
0.30640745459914
40
0.352804708509498
40
0.352804708509498
40
0.399201962419857
40
0.399201962419857
40
0.445599216330215
40
0.445599216330215
40
0.538393724150929
40
0.538393724150929
40
0.584790978061288
40
0.584790978061288
40
0.631188231971646
40
0.631188231971646
40
0.723982739792361
40
0.723982739792361
40
0.747181366747538
40
0.758780680225127
40
0.758780680225127
40
0.770379993702716
40
0.770379993702716
40
0.816777247613071
40
0.816777247613071
40
0.909571755433782
40
0.909571755433782
40
0.955969009344138
40
0.955969009344138
40
1
40
1
40
1
40
1
41
1
10
22.7390627045362
20
0.295109147595866
30
0
41
1
10
22.8972350235704
20
0.220079331582838
30
0
41
1
10
23.0553159654448
20
0.144973217505566
30
0
41
1
10
23.4749560567344
20
-0.054513648916668
30
0
41
1
10
23.7364083466655
20
-0.178914596492433
30
0
41
1
10
24.5207087630677
20
-0.551267875416926
30
0
41
1
10
25.0434982822832
20
-0.798371372452579
30
0
41
1
10
25.8290782963166
20
-1.16408799376771
30
0
41
1
10
26.0911708845808
20
-1.28517123804369
30
0
41
1
10
26.6161621657773
20
-1.52497188781552
30
0
41
1
10
26.9447849363783
20
-1.67336980481542
30
0
41
1
10
27.2742092085213
20
-1.81954921568015
30
0
41
1
10
27.4060473993065
20
-1.87783429246983
30
0
41
1
10
27.4720252524051
20
-1.90689431582376
30
0
41
1
10
27.6698810605005
20
-1.99369923393044
30
0
41
1
10
28.065055878905
20
-2.16571049117789
30
0
41
1
10
28.4587775168201
20
-2.33266312236898
30
0
41
1
10
28.9827210695473
20
-2.55030078537425
30
0
41
1
10
29.244185098096
20
-2.65663574489835
30
0
41
1
10
29.7664814740714
20
-2.86375366842651
30
0
41
1
10
30.0273107617305
20
-2.96453939972136
30
0
41
1
10
30.8090802005692
20
-3.25808171808063
30
0
41
1
10
31.3293087653946
20
-3.44202730981559
30
0
41
1
10
32.10979821931
20
-3.69788085479252
30
0
41
1
10
32.3699870188007
20
-3.77981974978576
30
0
41
1
10
32.8907888273409
20
-3.9365411995839
30
0
41
1
10
33.1514085337363
20
-4.01132857207423
30
0
41
1
10
33.9341882462074
20
-4.22440407821009
30
0
41
1
10
34.457226288592
20
-4.3514011854765
30
0
41
1
10
35.1138794321294
20
-4.48956860219053
30
0
41
1
10
35.311091461767
20
-4.52947426106095
30
0
41
1
10
35.5086730070694
20
-4.56699635506121
30
0
41
1
10
35.6404812932077
20
-4.59147362258125
30
0
41
1
10
35.7064251171537
20
-4.60344240874016
30
0
41
1
10
36.0357841058633
20
-4.66182259307223
30
0
41
1
10
36.2986222131061
20
-4.70399879692542
30
0
41
1
10
37.085474941129
20
-4.81672657989267
30
0
41
1
10
37.60774819593
20
-4.8732644197828
30
0
41
1
10
38.3895733288334
20
-4.93040585899536
30
0
41
1
10
38.6499165165521
20
-4.94485033285824
30
0
41
1
10
39.1570147119879
20
-4.96385682616986
30
0
41
1
10
39.4037868283424
20
-4.96888989147561
30
0
41
1
10
39.650543702087
20
-4.96972934651356
30
0
0
SPLINE
5
E8
100
AcDbEntity
8
1
62
256
6
ByLayer
370
18
48
1
60
0
100
AcDbSpline
70
4
71
3
72
44
73
40
40
0
40
0
40
0
40
0
40
0.001098793171379
40
0.001098793171379
40
0.100988913854238
40
0.100988913854238
40
0.150933974195668
40
0.150933974195668
40
0.200879034537097
40
0.200879034537097
40
0.250824094878527
40
0.250824094878527
40
0.300769155219957
40
0.300769155219957
40
0.400659275902814
40
0.400659275902814
40
0.42563180607353
40
0.42563180607353
40
0.450604336244246
40
0.450604336244246
40
0.500549396585678
40
0.500549396585678
40
0.60043951726854
40
0.60043951726854
40
0.700329637951401
40
0.700329637951401
40
0.725302168122116
40
0.725302168122116
40
0.750274698292832
40
0.750274698292832
40
0.800219758634264
40
0.800219758634264
40
0.900109879317132
40
0.900109879317132
40
0.950054939658566
40
0.950054939658566
40
0.975027469829283
40
0.975027469829283
40
1
40
1
40
1
40
1
41
1
10
55.4203141786206
20
0.283425648358247
30
0
41
1
10
55.4260674637337
20
0.2806629384948
30
0
41
1
10
55.4318205070591
20
0.277900196287277
30
0
41
1
10
55.9605545225991
20
0.0239768235812221
30
0
41
1
10
56.4815709762291
20
-0.227409638846012
30
0
41
1
10
57.261854626654
20
-0.60123773426983
30
0
41
1
10
57.5217394915273
20
-0.725306740500088
30
0
41
1
10
58.041296031208
20
-0.971938836333919
30
0
41
1
10
58.3009715508666
20
-1.09449315232339
30
0
41
1
10
58.8204262000173
20
-1.33741227740271
30
0
41
1
10
59.0802052782022
20
-1.45778131266644
30
0
41
1
10
59.6001639365849
20
-1.69575920489484
30
0
41
1
10
59.8603408993511
20
-1.81336979618129
30
0
41
1
10
60.6418387137573
20
-2.1612356718768
30
0
41
1
10
61.1640847298074
20
-2.38663367512086
30
0
41
1
10
61.8198632730425
20
-2.65737983189433
30
0
41
1
10
61.9511692409724
20
-2.71097500048103
30
0
41
1
10
62.214117439334
20
-2.81698443744725
30
0
41
1
10
62.3458361500334
20
-2.86942768749492
30
0
41
1
10
62.7401871857917
20
-3.02434496633612
30
0
41
1
10
63.0024110092214
20
-3.12456815960499
30
0
41
1
10
63.7874639849788
20
-3.41545361516455
30
0
41
1
10
64.3086515933114
20
-3.59646350813963
30
0
41
1
10
65.3489590192747
20
-3.92986605550695
30
0
41
1
10
65.8680851836199
20
-4.08218954224097
30
0
41
1
10
66.5169571113426
20
-4.25271597940164
30
0
41
1
10
66.6467351550541
20
-4.28583667929746
30
0
41
1
10
66.9063661994443
20
-4.3501315373957
30
0
41
1
10
67.0362127782807
20
-4.38129671595908
30
0
41
1
10
67.4258288910054
20
-4.47170905614524
30
0
41
1
10
67.6856887082596
20
-4.52788959367768
30
0
41
1
10
68.4661239623873
20
-4.6837552388354
30
0
41
1
10
68.987546317994
20
-4.77077047389568
30
0
41
1
10
69.7729753760635
20
-4.87404145044115
30
0
41
1
10
70.0353345344662
20
-4.90392120142332
30
0
41
1
10
70.4299073096491
20
-4.94169996433652
30
0
41
1
10
70.5614783962292
20
-4.95310651132007
30
0
41
1
10
70.8245255228575
20
-4.97350760542935
30
0
41
1
10
70.9560365616426
20
-4.98250554223213
30
0
41
1
10
71.0875518038916
20
-4.99029148817857
30
0
0
SPLINE
5
E9
100
AcDbEntity
8
1
62
256
6
ByLayer
370
18
48
1
60
0
100
AcDbSpline
70
4
71
3
72
43
73
39
40
0
40
0
40
0
40
0
40
0.0625000000000007
40
0.0625000000000007
40
0.125000000000001
40
0.187500000000002
40
0.187500000000002
40
0.218750000000002
40
0.218750000000002
40
0.250000000000002
40
0.250000000000002
40
0.312500000000003
40
0.375000000000003
40
0.437500000000004
40
0.437500000000004
40
0.468750000000004
40
0.468750000000004
40
0.500000000000004
40
0.500000000000004
40
0.562500000000004
40
0.625000000000005
40
0.687500000000005
40
0.687500000000005
40
0.703125000000005
40
0.703125000000005
40
0.718750000000005
40
0.718750000000005
40
0.750000000000004
40
0.750000000000004
40
0.812500000000004
40
0.875000000000003
40
0.875000000000003
40
0.937500000000003
40
0.937500000000003
40
0.953125000000002
40
0.953125000000002
40
0.968750000000002
40
1
40
1
40
1
40
1
41
1
10
71.0731674135686
20
-0.239664968101238
30
0
41
1
10
71.0543864234352
20
-0.386775852646735
30
0
41
1
10
71.0379774398583
20
-0.532709904090041
30
0
41
1
10
71.0090870017356
20
-0.82222239221457
30
0
41
1
10
70.9841255532386
20
-1.10937906239516
30
0
41
1
10
70.9656652056431
20
-1.3917276231233
30
0
41
1
10
70.9538328487768
20
-1.60161333898472
30
0
41
1
10
70.9502250385253
20
-1.67126223786849
30
0
41
1
10
70.9436207254249
20
-1.80991684246601
30
0
41
1
10
70.9406200832588
20
-1.87905208783019
30
0
41
1
10
70.9325230417336
20
-2.08352848896405
30
0
41
1
10
70.9240688513997
20
-2.34942766637838
30
0
41
1
10
70.9168501333295
20
-2.72854775940681
30
0
41
1
10
70.9149566315843
20
-2.96816226748538
30
0
41
1
10
70.9144690991156
20
-3.14284374158112
30
0
41
1
10
70.9144631351214
20
-3.20023147863148
30
0
41
1
10
70.9147509819356
20
-3.31329540813829
30
0
41
1
10
70.9150440514978
20
-3.36862175690544
30
0
41
1
10
70.916344820251
20
-3.53072167472789
30
0
41
1
10
70.9191943862029
20
-3.73681852311074
30
0
41
1
10
70.9267775475058
20
-4.01649802853785
30
0
41
1
10
70.9343177329251
20
-4.18327987553641
30
0
41
1
10
70.9399936430049
20
-4.2812182352092
30
0
41
1
10
70.9411774037328
20
-4.30049030165063
30
0
41
1
10
70.943648475845
20
-4.33839695580667
30
0
41
1
10
70.9449361956468
20
-4.35703377444679
30
0
41
1
10
70.9489440529675
20
-4.4117060812373
30
0
41
1
10
70.9518146967333
20
-4.44660110014212
30
0
41
1
10
70.9610888744436
20
-4.54670956704996
30
0
41
1
10
70.9752132258502
20
-4.66800075758883
30
0
41
1
10
70.9937395936898
20
-4.7653649269262
30
0
41
1
10
71.0150394557824
20
-4.85072032652894
30
0
41
1
10
71.0270751414333
20
-4.88739423240162
30
0
41
1
10
71.0443043555687
20
-4.92553381877406
30
0
41
1
10
71.0478628371334
20
-4.93278118340729
30
0
41
1
10
71.0551946651938
20
-4.94646499502051
30
0
41
1
10
71.0665135621513
20
-4.96577545908676
30
0
41
1
10
71.0788413418303
20
-4.98145238685333
30
0
41
1
10
71.0875518037735
20
-4.99029148817996
30
0
0
SPLINE
5
EA
100
AcDbEntity
8
1
62
256
6
ByLayer
370
13
48
1
60
0
100
AcDbSpline
70
4
71
3
72
8
73
4
40
0
40
0
40
0
40
0
40
1
40
1
40
1
40
1
41
1
10
20.8948089595341
20
5.12199979249783
30
0
41
1
10
20.894373084806
20
5.05944426147363
30
0
41
1
10
20.8939324792048
20
4.99688913893166
30
0
41
1
10
20.8934871506324
20
4.93433444489233
30
0
0
SPLINE
5
EB
100
AcDbEntity
8
1
62
256
6
ByLayer
370
18
48
1
60
0
100
AcDbSpline
70
4
71
3
72
54
73
50
40
0
40
0
40
0
40
0
40
0.0922934942909549
40
0.0922934942909549
40
0.138440241436434
40
0.138440241436434
40
0.184586988581912
40
0.184586988581912
40
0.230733735727391
40
0.230733735727391
40
0.276880482872869
40
0.276880482872869
40
0.323027230018347
40
0.323027230018347
40
0.369173977163826
40
0.369173977163826
40
0.380710663950196
40
0.392247350736566
40
0.415320724309306
40
0.415320724309306
40
0.461467471454787
40
0.461467471454787
40
0.507614218600267
40
0.507614218600267
40
0.553760965745747
40
0.553760965745747
40
0.64605446003671
40
0.64605446003671
40
0.692201207182192
40
0.692201207182192
40
0.738347954327673
40
0.738347954327673
40
0.784494701473155
40
0.784494701473155
40
0.830641448618636
40
0.830641448618636
40
0.853714822191378
40
0.853714822191378
40
0.865251508977748
40
0.865251508977748
40
0.876788195764119
40
0.876788195764119
40
0.899861569336859
40
0.899861569336859
40
0.922934942909598
40
0.922934942909598
40
0.969081690055076
40
0.969081690055076
40
1
40
1
40
1
40
1
41
1
10
20.8934871506324
20
4.93433444489233
30
0
41
1
10
21.4202753975817
20
4.95469259420955
30
0
41
1
10
21.9452811277544
20
4.95387738908511
30
0
41
1
10
22.7313586096417
20
4.92409525743312
30
0
41
1
10
22.9931313177437
20
4.90942375840621
30
0
41
1
10
23.516198091597
20
4.87132301492133
30
0
41
1
10
23.7775172732344
20
4.84783507714593
30
0
41
1
10
24.3002768041382
20
4.79138857997441
30
0
41
1
10
24.5617020517284
20
4.75846623099014
30
0
41
1
10
25.0848217202304
20
4.68360045411012
30
0
41
1
10
25.3465209385921
20
4.6416492703639
30
0
41
1
10
25.8704973255433
20
4.54884390984395
30
0
41
1
10
26.1327608507651
20
4.49800186537175
30
0
41
1
10
26.657758519917
20
4.38803056574119
30
0
41
1
10
26.9205214967536
20
4.32887488980435
30
0
41
1
10
27.2498758196477
20
4.24934523985823
30
0
41
1
10
27.3817625501759
20
4.21696312210324
30
0
41
1
10
27.6452061371953
20
4.15017978962646
30
0
41
1
10
27.842431349924
20
4.09787031239452
30
0
41
1
10
28.2364452672029
20
3.99041543390771
30
0
41
1
10
28.4985398853111
20
3.9149989608741
30
0
41
1
10
29.0217729770016
20
3.75725844652294
30
0
41
1
10
29.282902590106
20
3.67492651623897
30
0
41
1
10
29.8042252126245
20
3.50379403162978
30
0
41
1
10
30.0644483012322
20
3.41499081992794
30
0
41
1
10
30.8450110097745
20
3.13913244931626
30
0
41
1
10
31.3651415075089
20
2.94266121645907
30
0
41
1
10
32.1453164158528
20
2.63241950528024
30
0
41
1
10
32.405365264472
20
2.52640259530045
30
0
41
1
10
32.9254432777978
20
2.30941218413506
30
0
41
1
10
33.1855326373887
20
2.19845329331858
30
0
41
1
10
33.7069671975162
20
1.97248297946746
30
0
41
1
10
33.9682641777088
20
1.85745784777791
30
0
41
1
10
34.4918961805785
20
1.62369357824517
30
0
41
1
10
34.7542353886068
20
1.50495621150264
30
0
41
1
10
35.1485265072403
20
1.32434480736708
30
0
41
1
10
35.2800854679254
20
1.26372003126113
30
0
41
1
10
35.477595267993
20
1.17214760585347
30
0
41
1
10
35.5434863064299
20
1.14150549986314
30
0
41
1
10
35.6751718604659
20
1.0800790730903
30
0
41
1
10
35.7409631031779
20
1.0492941793668
30
0
41
1
10
35.9381898321423
20
0.956742688483729
30
0
41
1
10
36.0694845213448
20
0.894799116458699
30
0
41
1
10
36.331816522544
20
0.770796162505349
30
0
41
1
10
36.4628477782704
20
0.708716108176958
30
0
41
1
10
36.8555794662249
20
0.522302807116461
30
0
41
1
10
37.1169152144463
20
0.397790934993793
30
0
41
1
10
37.5526699939732
20
0.189653008796597
30
0
41
1
10
37.7273161892148
20
0.106105423958184
30
0
41
1
10
37.9018403839179
20
0.0226402277456543
30
0
0
SPLINE
5
EC
100
AcDbEntity
8
1
62
256
6
ByLayer
370
18
48
1
60
0
100
AcDbSpline
70
4
71
3
72
55
73
51
40
0
40
0
40
0
40
0
40
0.017462365639411
40
0.017462365639411
40
0.0621231672012585
40
0.0621231672012585
40
0.106783968763106
40
0.106783968763106
40
0.129114369544029
40
0.129114369544029
40
0.151444770324952
40
0.151444770324952
40
0.162609970715412
40
0.162609970715412
40
0.173775171105873
40
0.173775171105873
40
0.196105571886796
40
0.196105571886796
40
0.240766373448641
40
0.240766373448641
40
0.285427175010487
40
0.285427175010487
40
0.330087976572333
40
0.330087976572333
40
0.374748778134179
40
0.374748778134179
40
0.464070381257868
40
0.464070381257868
40
0.508731182819714
40
0.508731182819714
40
0.55339198438156
40
0.55339198438156
40
0.598052785943405
40
0.620383186724328
40
0.631548387114789
40
0.642713587505249
40
0.642713587505249
40
0.687374389067093
40
0.687374389067093
40
0.732035190628937
40
0.732035190628937
40
0.776695992190781
40
0.776695992190781
40
0.821356793752625
40
0.821356793752625
40
0.866017595314468
40
0.866017595314468
40
0.910678396876312
40
0.910678396876312
40
1
40
1
40
1
40
1
41
1
10
38.4628888624537
20
-0.256002628960346
30
0
41
1
10
38.3611542670729
20
-0.207544044310339
30
0
41
1
10
38.2593876326538
20
-0.159039258010296
30
0
41
1
10
37.8972279618383
20
0.0136819231865672
30
0
41
1
10
37.6366589281434
20
0.138182409843211
30
0
41
1
10
37.1147323138867
20
0.387007405186949
30
0
41
1
10
36.8533661643167
20
0.511307553214095
30
0
41
1
10
36.4605920096209
20
0.69741823290039
30
0
41
1
10
36.3295471032973
20
0.759399877442576
30
0
41
1
10
36.0671892609138
20
0.883211948255138
30
0
41
1
10
35.9358817215284
20
0.945061823364938
30
0
41
1
10
35.7386347571147
20
1.03747207256129
30
0
41
1
10
35.6728367216089
20
1.06820997326952
30
0
41
1
10
35.5411383217846
20
1.129544232786
30
0
41
1
10
35.4752395091897
20
1.16014170554635
30
0
41
1
10
35.2777061769067
20
1.25158301102564
30
0
41
1
10
35.1461313877803
20
1.31212394171348
30
0
41
1
10
34.751792291431
20
1.4924945978575
30
0
41
1
10
34.4894205616574
20
1.61108609530228
30
0
41
1
10
33.9657216504255
20
1.84458607308309
30
0
41
1
10
33.7043905111365
20
1.95949343270999
30
0
41
1
10
33.1828853474972
20
2.18525683400546
30
0
41
1
10
32.9227579570434
20
2.29612257405867
30
0
41
1
10
32.4025996609578
20
2.51293822293195
30
0
41
1
10
32.1425110192734
20
2.61887939562655
30
0
41
1
10
31.3622201967906
20
2.92893507520896
30
0
41
1
10
30.842017348775
20
3.12533708657554
30
0
41
1
10
30.0613492676235
20
3.40116942619682
30
0
41
1
10
29.8010894925593
20
3.48997292150338
30
0
41
1
10
29.2796934692633
20
3.66112215198416
30
0
41
1
10
29.0185293020006
20
3.74347452410518
30
0
41
1
10
28.4952324549412
20
3.90128247122942
30
0
41
1
10
28.1020462230693
20
4.01447670637461
30
0
41
1
10
27.6418087861783
20
4.13664667236267
30
0
41
1
10
27.3783408717862
20
4.20350442881545
30
0
41
1
10
27.2464418056736
20
4.23592707354246
30
0
41
1
10
26.9170536051242
20
4.315562654236
30
0
41
1
10
26.6542597506184
20
4.37481368991448
30
0
41
1
10
26.1291957814155
20
4.48499485880865
30
0
41
1
10
25.8668986722199
20
4.5359540073197
30
0
41
1
10
25.3428548414525
20
4.62901818838839
30
0
41
1
10
25.0811209344633
20
4.67111008810846
30
0
41
1
10
24.557930077861
20
4.74627789528199
30
0
41
1
10
24.2964686481403
20
4.77936184305079
30
0
41
1
10
23.7736367257887
20
4.83615302751451
30
0
41
1
10
23.5122803610815
20
4.85982350526555
30
0
41
1
10
22.9891377961234
20
4.89830597024488
30
0
41
1
10
22.7273278185011
20
4.91317710486669
30
0
41
1
10
21.9411427795784
20
4.94358681756879
30
0
41
1
10
21.4160687609065
20
4.94485824819321
30
0
41
1
10
20.8892146694237
20
4.92499118975798
30
0
0
SPLINE
5
ED
100
AcDbEntity
8
1
62
256
6
ByLayer
370
18
48
1
60
0
100
AcDbSpline
70
4
71
3
72
59
73
55
40
0
40
0
40
0
40
0
40
0.0049571397787595
40
0.0049571397787595
40
0.0230488281464195
40
0.0230488281464195
40
0.0592322048817385
40
0.0592322048817385
40
0.131598958352376
40
0.131598958352376
40
0.167782335087695
40
0.167782335087695
40
0.185874023455354
40
0.185874023455354
40
0.203965711823013
40
0.203965711823013
40
0.276332465293646
40
0.276332465293646
40
0.348699218764279
40
0.348699218764279
40
0.384882595499596
40
0.384882595499596
40
0.421065972234914
40
0.421065972234914
40
0.457249348970231
40
0.457249348970231
40
0.493432725705549
40
0.493432725705549
40
0.529616102440866
40
0.529616102440866
40
0.547707790808524
40
0.547707790808524
40
0.565799479176183
40
0.565799479176183
40
0.6019828559115
40
0.6019828559115
40
0.638166232646818
40
0.638166232646818
40
0.710532986117452
40
0.710532986117452
40
0.728624674485111
40
0.728624674485111
40
0.746716362852771
40
0.746716362852771
40
0.782899739588088
40
0.782899739588088
40
0.855266493058724
40
0.855266493058724
40
0.873358181426384
40
0.873358181426384
40
0.891449869794043
40
0.927633246529363
40
0.927633246529363
40
1
40
1
40
1
40
1
41
1
10
42.4947517189954
20
-4.98250212105688
30
0
41
1
10
42.4588933302521
20
-4.98724580445568
30
0
41
1
10
42.4230286382875
20
-4.99190110962644
30
0
41
1
10
42.2562401716413
20
-5.01313419269499
30
0
41
1
10
42.1252673098526
20
-5.02861392867899
30
0
41
1
10
41.7327388418802
20
-5.071400971608
30
0
41
1
10
41.4713446472644
20
-5.09508501734132
30
0
41
1
10
40.6875787858093
20
-5.15154691618653
30
0
41
1
10
40.1658120130965
20
-5.16976910900252
30
0
41
1
10
39.3822608569265
20
-5.16766713902399
30
0
41
1
10
39.1209334750696
20
-5.16206588162382
30
0
41
1
10
38.7284904306277
20
-5.14630808823694
30
0
41
1
10
38.5976011537569
20
-5.13982975426131
30
0
41
1
10
38.3356421214741
20
-5.12442016006659
30
0
41
1
10
38.2046689092777
20
-5.11549380145854
30
0
41
1
10
37.5503694062064
20
-5.06483470299654
30
0
41
1
10
37.0281184739616
20
-5.00497540206379
30
0
41
1
10
35.9834950064873
20
-4.84807063492252
30
0
41
1
10
35.4612675249045
20
-4.75093335165397
30
0
41
1
10
34.6761138672424
20
-4.57846630547613
30
0
41
1
10
34.4139052886644
20
-4.51647276280363
30
0
41
1
10
33.890378056234
20
-4.38429634721024
30
0
41
1
10
33.6288814321557
20
-4.31408056138278
30
0
41
1
10
33.1061587099184
20
-4.16573078888646
30
0
41
1
10
32.8449438832321
20
-4.08758434335857
30
0
41
1
10
32.3225751813029
20
-3.92362879031168
30
0
41
1
10
32.0614111693823
20
-3.83782917706515
30
0
41
1
10
31.5387176366062
20
-3.65911792493583
30
0
41
1
10
31.2771907744599
20
-3.5662051800762
30
0
41
1
10
30.8844238775234
20
-3.42178495841961
30
0
41
1
10
30.7533879994444
20
-3.3727900846234
30
0
41
1
10
30.4912732400417
20
-3.27322177678067
30
0
41
1
10
30.3603000739082
20
-3.22268904518319
30
0
41
1
10
29.9675818507442
20
-3.06893503560866
30
0
41
1
10
29.7060399759076
20
-2.96355560513982
30
0
41
1
10
29.1832823669621
20
-2.74741628098135
30
0
41
1
10
28.9220616008361
20
-2.63666262083936
30
0
41
1
10
28.138281074963
20
-2.29738565224122
30
0
41
1
10
27.615612852314
20
-2.06183392976689
30
0
41
1
10
26.9606982087047
20
-1.75820997867234
30
0
41
1
10
26.8295878310324
20
-1.69700232368396
30
0
41
1
10
26.5674281329954
20
-1.57383913146188
30
0
41
1
10
26.4364148985808
20
-1.51190078024888
30
0
41
1
10
26.0435284588911
20
-1.32510766197126
30
0
41
1
10
25.7818056861377
20
-1.19927992758665
30
0
41
1
10
24.9967011702017
20
-0.818973046959115
30
0
41
1
10
24.4734019088952
20
-0.561634683291146
30
0
41
1
10
23.818031972422
20
-0.237963184001274
30
0
41
1
10
23.6868802201382
20
-0.173123408198677
30
0
41
1
10
23.4247837313309
20
-0.0435137900915095
30
0
41
1
10
23.031812222605
20
0.150862963230054
30
0
41
1
10
22.6391866258308
20
0.344775028179328
30
0
41
1
10
21.8539658118142
20
0.731109709704185
30
0
41
1
10
21.33051472375
20
0.986657682525163
30
0
41
1
10
20.8059676599522
20
1.23793008383399
30
0
0
SPLINE
5
EE
100
AcDbEntity
8
1
62
256
6
ByLayer
370
18
48
1
60
0
100
AcDbSpline
70
4
71
3
72
16
73
12
40
0
40
0
40
0
40
0
40
0.249999999999895
40
0.249999999999895
40
0.374999999999845
40
0.374999999999845
40
0.499999999999795
40
0.499999999999795
40
0.749999999999897
40
0.749999999999897
40
1
40
1
40
1
40
1
41
1
10
20.8059676599523
20
1.23793008383396
30
0
41
1
10
20.7975865669351
20
1.24194485679405
30
0
41
1
10
20.7899712148305
20
1.24698334024734
30
0
41
1
10
20.7796683493003
20
1.25603508065001
30
0
41
1
10
20.7764150915201
20
1.25932209567657
30
0
41
1
10
20.7704905354742
20
1.266207594435
30
0
41
1
10
20.767791912946
20
1.26982660001482
30
0
41
1
10
20.7604804832535
20
1.28120711105697
30
0
41
1
10
20.7566496285535
20
1.28956937783502
30
0
41
1
10
20.7515816653425
20
1.30671267358622
30
0
41
1
10
20.7502606996882
20
1.31569636274057
30
0
41
1
10
20.7502606996882
20
1.32472795629681
30
0
0
SPLINE
5
EF
100
AcDbEntity
8
1
62
256
6
ByLayer
370
18
48
1
60
0
100
AcDbSpline
70
4
71
3
72
28
73
24
40
0
40
0
40
0
40
0
40
0.12499999999993
40
0.12499999999993
40
0.187499999999921
40
0.187499999999921
40
0.249999999999912
40
0.312499999999903
40
0.312499999999903
40
0.374999999999893
40
0.374999999999893
40
0.499999999999875
40
0.499999999999875
40
0.624999999999856
40
0.624999999999856
40
0.687499999999846
40
0.687499999999846
40
0.749999999999837
40
0.812499999999827
40
0.812499999999827
40
0.874999999999818
40
0.874999999999818
40
1
40
1
40
1
40
1
41
1
10
20.7502606996882
20
5.12723684237693
30
0
41
1
10
20.7502606996882
20
5.12678631567982
30
0
41
1
10
20.7513394401068
20
5.12632609548558
30
0
41
1
10
20.7545250308231
20
5.12562463138354
30
0
41
1
10
20.7558641765775
20
5.12538727719181
30
0
41
1
10
20.7590259549882
20
5.1249204324287
30
0
41
1
10
20.7626629404569
20
5.12446117426381
30
0
41
1
10
20.7672284245031
20
5.12401975817971
30
0
41
1
10
20.7722699204113
20
5.12358931302029
30
0
41
1
10
20.7750301699041
20
5.12337994108967
30
0
41
1
10
20.7837927868507
20
5.12278917165267
30
0
41
1
10
20.7903491773328
20
5.12243771107569
30
0
41
1
10
20.804878518341
20
5.12184105787077
30
0
41
1
10
20.8125585482819
20
5.12160781189951
30
0
41
1
10
20.8246839958261
20
5.12136165887148
30
0
41
1
10
20.8288584828189
20
5.12129683598647
30
0
41
1
10
20.837222618037
20
5.12120681811243
30
0
41
1
10
20.8456153421761
20
5.1211554975163
30
0
41
1
10
20.8540640117713
20
5.12118075493927
30
0
41
1
10
20.8625414092984
20
5.12124526609045
30
0
41
1
10
20.8667826755907
20
5.12129739907678
30
0
41
1
10
20.8791858148831
20
5.12150743704282
30
0
41
1
10
20.887153383453
20
5.12171904381302
30
0
41
1
10
20.8948089595341
20
5.12199979249783
30
0
0
SPLINE
5
F0
100
AcDbEntity
8
1
62
256
6
ByLayer
370
18
48
1
60
0
100
AcDbSpline
70
4
71
3
72
113
73
109
40
0
40
0
40
0
40
0
40
0.0469329334871618
40
0.0469329334871618
40
0.0586661668589529
40
0.0586661668589529
40
0.0703994002307441
40
0.0703994002307441
40
0.0938658669743255
40
0.0938658669743255
40
0.117332333717907
40
0.117332333717907
40
0.140798800461488
40
0.140798800461488
40
0.16426526720507
40
0.16426526720507
40
0.17599850057686
40
0.17599850057686
40
0.187731733948651
40
0.187731733948651
40
0.234664667435813
40
0.234664667435813
40
0.258131134179393
40
0.258131134179393
40
0.281597600922974
40
0.281597600922974
40
0.293330834294763
40
0.293330834294763
40
0.305064067666553
40
0.305064067666553
40
0.328530534410132
40
0.328530534410132
40
0.351997001153712
40
0.351997001153712
40
0.375463467897291
40
0.375463467897291
40
0.398929934640871
40
0.398929934640871
40
0.41066316801266
40
0.41066316801266
40
0.42239640138445
40
0.42239640138445
40
0.445862868128029
40
0.445862868128029
40
0.457596101499819
40
0.457596101499819
40
0.469329334871609
40
0.469329334871609
40
0.492795801615188
40
0.492795801615188
40
0.516262268358767
40
0.516262268358767
40
0.539728735102347
40
0.539728735102347
40
0.563195201845926
40
0.563195201845926
40
0.586661668589506
40
0.586661668589506
40
0.598394901961295
40
0.598394901961295
40
0.610128135333084
40
0.610128135333084
40
0.633594602076663
40
0.633594602076663
40
0.645327835448454
40
0.645327835448454
40
0.657061068820244
40
0.657061068820244
40
0.668794302192034
40
0.668794302192034
40
0.680527535563824
40
0.680527535563824
40
0.692260768935614
40
0.692260768935614
40
0.703994002307404
40
0.703994002307404
40
0.727460469050985
40
0.727460469050985
40
0.750926935794565
40
0.750926935794565
40
0.762660169166355
40
0.762660169166355
40
0.774393402538145
40
0.774393402538145
40
0.786126635909935
40
0.786126635909935
40
0.797859869281724
40
0.821326336025303
40
0.821326336025303
40
0.844792802768881
40
0.844792802768881
40
0.86825926951246
40
0.86825926951246
40
0.879992502884248
40
0.879992502884248
40
0.891725736256037
40
0.891725736256037
40
0.915192202999614
40
0.915192202999614
40
0.938658669743192
40
0.938658669743192
40
0.962125136486769
40
0.962125136486769
40
0.985591603230347
40
0.985591603230347
40
0.997324836602135
40
0.997324836602135
40
1
40
1
40
1
40
1
41
1
10
20.8948089595341
20
5.12199979249783
30
0
41
1
10
21.4179319017046
20
5.14118398927764
30
0
41
1
10
21.9411154566835
20
5.14055522602092
30
0
41
1
10
22.5958227230907
20
5.11554105200403
30
0
41
1
10
22.7267987938118
20
5.10932333359969
30
0
41
1
10
22.9888149707906
20
5.09445017177455
30
0
41
1
10
23.119778882738
20
5.08579780909639
30
0
41
1
10
23.5122663852456
20
5.05621120481177
30
0
41
1
10
23.7735315090459
20
5.03164003585118
30
0
41
1
10
24.2958977025964
20
4.97309057526704
30
0
41
1
10
24.5569767461678
20
4.93911290363653
30
0
41
1
10
25.0791003963924
20
4.86188155246552
30
0
41
1
10
25.3401513925691
20
4.81862841437678
30
0
41
1
10
25.8625443735963
20
4.72305265833521
30
0
41
1
10
26.1238704672909
20
4.67072570947187
30
0
41
1
10
26.5160546812468
20
4.58534075581085
30
0
41
1
10
26.646822126636
20
4.55573363199198
30
0
41
1
10
26.9085442785739
20
4.49431659427967
30
0
41
1
10
27.0393902160478
20
4.46253240807107
30
0
41
1
10
27.693251283494
20
4.29863928694959
30
0
41
1
10
28.2155988053534
20
4.15144525606468
30
0
41
1
10
28.9987666935633
20
3.90770650458634
30
0
41
1
10
29.2597632057964
20
3.82262830721203
30
0
41
1
10
29.7816636755901
20
3.64474759484051
30
0
41
1
10
30.0426061163544
20
3.55197976914297
30
0
41
1
10
30.4347532458551
20
3.40816513378252
30
0
41
1
10
30.5655829684513
20
3.35944124329416
30
0
41
1
10
30.8274655369388
20
3.26041929692531
30
0
41
1
10
30.9583866953803
20
3.21017066663299
30
0
41
1
10
31.3508724922753
20
3.05730939500975
30
0
41
1
10
31.612250347973
20
2.95254313622723
30
0
41
1
10
32.134519765355
20
2.73741976141227
30
0
41
1
10
32.3954077161373
20
2.62705635130897
30
0
41
1
10
32.9167746983524
20
2.40081450898521
30
0
41
1
10
33.1773218661061
20
2.28504421109068
30
0
41
1
10
33.6992398354909
20
2.05021216394431
30
0
41
1
10
33.9605533680035
20
1.93105969801147
30
0
41
1
10
34.3529717261584
20
1.74958905867624
30
0
41
1
10
34.4838543346527
20
1.68864430617663
30
0
41
1
10
34.7457815118507
20
1.56585824500391
30
0
41
1
10
34.8766699602962
20
1.50409051584805
30
0
41
1
10
35.2690180307628
20
1.31775264945193
30
0
41
1
10
35.5301949478334
20
1.19209902468631
30
0
41
1
10
35.9213584215592
20
1.00142670411682
30
0
41
1
10
36.051664588491
20
0.937540434294476
30
0
41
1
10
36.3123441323623
20
0.809570152349153
30
0
41
1
10
36.4427051843088
20
0.745461914000629
30
0
41
1
10
36.833857166847
20
0.552781031867511
30
0
41
1
10
37.0947135948398
20
0.423846038819875
30
0
41
1
10
37.6166666811974
20
0.165143600774286
30
0
41
1
10
37.8777774271271
20
0.0354035007734694
30
0
41
1
10
38.4006872962099
20
-0.224002145914653
30
0
41
1
10
38.6626516095736
20
-0.353789526402011
30
0
41
1
10
39.1854507472228
20
-0.612391737972985
30
0
41
1
10
39.4464841193284
20
-0.741262569957371
30
0
41
1
10
39.9682582364526
20
-0.997259846367427
30
0
41
1
10
40.2289772546698
20
-1.12443257622516
30
0
41
1
10
40.6197792367703
20
-1.3139870452514
30
0
41
1
10
40.7500157938122
20
-1.37693990804476
30
0
41
1
10
41.0106809305365
20
-1.50188867299556
30
0
41
1
10
41.1410966943411
20
-1.56391039364971
30
0
41
1
10
41.5325259053362
20
-1.74875459272661
30
0
41
1
10
41.7937263473934
20
-1.87034663769254
30
0
41
1
10
42.1859460918661
20
-2.05018599162275
30
0
41
1
10
42.3167716145661
20
-2.10971394740827
30
0
41
1
10
42.5785043801083
20
-2.2278754302325
30
0
41
1
10
42.7092622317466
20
-2.28644145843748
30
0
41
1
10
42.9705704776019
20
-2.4025248680307
30
0
41
1
10
43.1011194382495
20
-2.46004498919484
30
0
41
1
10
43.3619983034849
20
-2.57404988898926
30
0
41
1
10
43.4923338293187
20
-2.63052367551518
30
0
41
1
10
43.7529271105443
20
-2.74218189647911
30
0
41
1
10
43.8831865700466
20
-2.79736324182451
30
0
41
1
10
44.1437816108541
20
-2.90618216017597
30
0
41
1
10
44.2741120240336
20
-2.95982948059
30
0
41
1
10
44.6652148174691
20
-3.11848114550926
30
0
41
1
10
44.9260930113854
20
-3.22120862358403
30
0
41
1
10
45.448079818551
20
-3.42068800748129
30
0
41
1
10
45.7091876804255
20
-3.51743965809675
30
0
41
1
10
46.1010602594003
20
-3.65796515908895
30
0
41
1
10
46.2317550624289
20
-3.70405103384005
30
0
41
1
10
46.4930675819084
20
-3.79460377975087
30
0
41
1
10
46.6235859364986
20
-3.83902398712837
30
0
41
1
10
46.8845157562069
20
-3.92592060430908
30
0
41
1
10
47.0149263111244
20
-3.96839879471079
30
0
41
1
10
47.2757587670661
20
-4.05127729507382
30
0
41
1
10
47.6670088000972
20
-4.17250181850068
30
0
41
1
10
48.0581956213952
20
-4.28462258397045
30
0
41
1
10
48.5798156878645
20
-4.42597078041351
30
0
41
1
10
48.8406370477257
20
-4.49258372188288
30
0
41
1
10
49.3622202608214
20
-4.6176847370009
30
0
41
1
10
49.623007037446
20
-4.67613211128801
30
0
41
1
10
50.0147077274485
20
-4.75710452076009
30
0
41
1
10
50.1454091795441
20
-4.78299456569218
30
0
41
1
10
50.4067343285218
20
-4.83248899063247
30
0
41
1
10
50.5373022834241
20
-4.85608396983409
30
0
41
1
10
50.9287466465352
20
-4.92339910811097
30
0
41
1
10
51.1893798103959
20
-4.96362734242536
30
0
41
1
10
51.7106635014233
20
-5.03445217055489
30
0
41
1
10
51.9712976085646
20
-5.06507052080303
30
0
41
1
10
52.4927056702091
20
-5.11673439551328
30
0
41
1
10
52.7534757203655
20
-5.13778431208326
30
0
41
1
10
53.2751856525546
20
-5.17027378530261
30
0
41
1
10
53.5361251094169
20
-5.18171165204726
30
0
41
1
10
53.9277525012371
20
-5.19151924907322
30
0
41
1
10
54.0583910120855
20
-5.19356311403303
30
0
41
1
10
54.2186499086633
20
-5.19454684925259
30
0
41
1
10
54.2483978116188
20
-5.19466476207103
30
0
41
1
10
54.278140561289
20
-5.19471807893086
30
0
0
SPLINE
5
F1
100
AcDbEntity
8
1
62
256
6
ByLayer
370
18
48
1
60
0
100
AcDbSpline
70
4
71
3
72
119
73
115
40
0
40
0
40
0
40
0
40
0.007509421657343
40
0.007509421657343
40
0.0199835379843625
40
0.0199835379843625
40
0.0449317706384016
40
0.0449317706384016
40
0.0698800032924406
40
0.0698800032924406
40
0.0823541196194602
40
0.0823541196194602
40
0.0948282359464798
40
0.0948282359464798
40
0.11977646860052
40
0.11977646860052
40
0.132250584927539
40
0.132250584927539
40
0.144724701254559
40
0.144724701254559
40
0.169672933908597
40
0.169672933908597
40
0.182147050235617
40
0.182147050235617
40
0.194621166562636
40
0.194621166562636
40
0.219569399216675
40
0.219569399216675
40
0.244517631870713
40
0.244517631870713
40
0.269465864524751
40
0.269465864524751
40
0.28193998085177
40
0.28193998085177
40
0.294414097178789
40
0.294414097178789
40
0.344310562486862
40
0.344310562486862
40
0.35678467881388
40
0.35678467881388
40
0.369258795140899
40
0.369258795140899
40
0.381732911467918
40
0.381732911467918
40
0.387969969631427
40
0.387969969631427
40
0.394207027794937
40
0.406681144121955
40
0.406681144121955
40
0.419155260448973
40
0.419155260448973
40
0.444103493103009
40
0.444103493103009
40
0.469051725757046
40
0.469051725757046
40
0.493999958411083
40
0.493999958411083
40
0.518948191065119
40
0.518948191065119
40
0.543896423719156
40
0.543896423719156
40
0.556370540046174
40
0.556370540046174
40
0.568844656373192
40
0.568844656373192
40
0.58131877270021
40
0.58131877270021
40
0.587555830863719
40
0.587555830863719
40
0.593792889027228
40
0.618741121681265
40
0.618741121681265
40
0.631215238008283
40
0.631215238008283
40
0.643689354335301
40
0.643689354335301
40
0.668637586989338
40
0.668637586989338
40
0.693585819643376
40
0.693585819643376
40
0.718534052297413
40
0.718534052297413
40
0.743482284951451
40
0.743482284951451
40
0.768430517605488
40
0.768430517605488
40
0.780904633932507
40
0.780904633932507
40
0.787141692096016
40
0.787141692096016
40
0.793378750259525
40
0.818326982913562
40
0.818326982913562
40
0.83080109924058
40
0.83080109924058
40
0.843275215567599
40
0.843275215567599
40
0.893171680875672
40
0.893171680875672
40
0.90564579720269
40
0.90564579720269
40
0.918119913529708
40
0.918119913529708
40
0.943068146183745
40
0.943068146183745
40
0.968016378837782
40
0.968016378837782
40
0.974253437001291
40
0.974253437001291
40
0.9804904951648
40
0.9804904951648
40
0.99296461149182
40
0.99296461149182
40
1
40
1
40
1
40
1
41
1
10
23.2009384538508
20
5.13877911180373
30
0
41
1
10
23.3023139326289
20
5.13896460295081
30
0
41
1
10
23.4035878315946
20
5.1384115395293
30
0
41
1
10
23.6728702702066
20
5.13498591518788
30
0
41
1
10
23.8407416937501
20
5.13082458916043
30
0
41
1
10
24.3437479826461
20
5.11234380851863
30
0
41
1
10
24.678252084903
20
5.09202310305574
30
0
41
1
10
25.3461012982149
20
5.03568597239237
30
0
41
1
10
25.6794371122454
20
4.99966350491474
30
0
41
1
10
26.1789923650173
20
4.93407781799235
30
0
41
1
10
26.345452312066
20
4.9102987062474
30
0
41
1
10
26.6783962631639
20
4.85900592925978
30
0
41
1
10
26.8448664857803
20
4.83148509949169
30
0
41
1
10
27.3443101330471
20
4.74333238368104
30
0
41
1
10
27.6773285337694
20
4.67711789037048
30
0
41
1
10
28.1773242961515
20
4.56687947605639
30
0
41
1
10
28.3440657130641
20
4.52831178953201
30
0
41
1
10
28.6777712662235
20
4.44757781347383
30
0
41
1
10
28.8447277805173
20
4.40540217558694
30
0
41
1
10
29.3461538202341
20
4.2736795777227
30
0
41
1
10
29.6812166027657
20
4.17899293276545
30
0
41
1
10
30.1852147137267
20
4.02680302833841
30
0
41
1
10
30.3534537377541
20
3.97438515517112
30
0
41
1
10
30.690478933373
20
3.86622455229724
30
0
41
1
10
30.8594289051842
20
3.81042449601952
30
0
41
1
10
31.3649501288022
20
3.63888485710956
30
0
41
1
10
31.7007097982558
20
3.51876478899533
30
0
41
1
10
32.3707986481932
20
3.26881653465537
30
0
41
1
10
32.7050682417774
20
3.13890299282147
30
0
41
1
10
33.3724756218425
20
2.86997771110015
30
0
41
1
10
33.7056267002823
20
2.73098688139061
30
0
41
1
10
34.2049091498866
20
2.51639296237093
30
0
41
1
10
34.3712557553554
20
2.44383060743942
30
0
41
1
10
34.7039516132042
20
2.29694253363479
30
0
41
1
10
34.8703105049985
20
2.22263540458135
30
0
41
1
10
35.7022482246883
20
1.84696014842001
30
0
41
1
10
36.3681251073788
20
1.53293141310186
30
0
41
1
10
37.2035096907845
20
1.12835321600667
30
0
41
1
10
37.3707542873126
20
1.04686654230633
30
0
41
1
10
37.7057286097582
20
0.883053620318719
30
0
41
1
10
37.8734450305461
20
0.800700376525839
30
0
41
1
10
38.2093667628055
20
0.635151657737708
30
0
41
1
10
38.3775746117452
20
0.551961337271763
30
0
41
1
10
38.6303088897317
20
0.426650317138268
30
0
41
1
10
38.7146641206118
20
0.384772306563178
30
0
41
1
10
38.8833338242143
20
0.300951706296928
30
0
41
1
10
39.136105807771
20
0.175211591839201
30
0
41
1
10
39.3882121175191
20
0.0495077160306323
30
0
41
1
10
39.7238342195889
20
-0.117918050356081
30
0
41
1
10
39.8913774335147
20
-0.201557966854068
30
0
41
1
10
40.3934504555694
20
-0.451746110856988
30
0
41
1
10
40.7274577214773
20
-0.61749516309979
30
0
41
1
10
41.394392258988
20
-0.946278027982856
30
0
41
1
10
41.7273401965507
20
-1.10926747505354
30
0
41
1
10
42.3926991463034
20
-1.43144318398572
30
0
41
1
10
42.725061958176
20
-1.59072010334953
30
0
41
1
10
43.3901985149281
20
-1.90360453499238
30
0
41
1
10
43.722922502891
20
-2.0573146867975
30
0
41
1
10
44.3890868200673
20
-2.35848093257812
30
0
41
1
10
44.7225414048428
20
-2.50590930894239
30
0
41
1
10
45.2236708162652
20
-2.72155195790211
30
0
41
1
10
45.3908659149686
20
-2.79252639162402
30
0
41
1
10
45.7257137891362
20
-2.9323763466347
30
0
41
1
10
45.893379671088
20
-3.00122914623844
30
0
41
1
10
46.2292395832557
20
-3.13670511889651
30
0
41
1
10
46.3974286981795
20
-3.20333680140573
30
0
41
1
10
46.6501457509674
20
-3.30153799165026
30
0
41
1
10
46.7345023540595
20
-3.33399682717658
30
0
41
1
10
46.90300639778
20
-3.39817681503064
30
0
41
1
10
47.3238898025225
20
-3.55683741669327
30
0
41
1
10
47.7429742512913
20
-3.70646585420829
30
0
41
1
10
48.2445845776379
20
-3.87682826360484
30
0
41
1
10
48.4115847202806
20
-3.93206566918118
30
0
41
1
10
48.7453292437618
20
-4.03926295497033
30
0
41
1
10
48.912061253992
20
-4.09124112726337
30
0
41
1
10
49.4118836011883
20
-4.24228699320562
30
0
41
1
10
49.744611059733
20
-4.33645165900069
30
0
41
1
10
50.4096062332004
20
-4.51117730823737
30
0
41
1
10
50.7418332432729
20
-4.59177402949041
30
0
41
1
10
51.4065293746041
20
-4.73862685548912
30
0
41
1
10
51.7391022232866
20
-4.8048029166234
30
0
41
1
10
52.4050356108895
20
-4.92235032260876
30
0
41
1
10
52.738413901259
20
-4.97370414256901
30
0
41
1
10
53.406507170325
20
-5.06105836573192
30
0
41
1
10
53.7411723898509
20
-5.0970696734642
30
0
41
1
10
54.2448771964895
20
-5.13905382518178
30
0
41
1
10
54.4130595688024
20
-5.1510486027756
30
0
41
1
10
54.6657802589837
20
-5.1660078968057
30
0
41
1
10
54.7500605359737
20
-5.17048582705681
30
0
41
1
10
54.9183814644559
20
-5.1784081480829
30
0
41
1
10
55.3388167639422
20
-5.19564386229138
30
0
41
1
10
55.7575251548869
20
-5.20007770236302
30
0
41
1
10
56.2587127208707
20
-5.19325203506514
30
0
41
1
10
56.4255585175142
20
-5.18895026327945
30
0
41
1
10
56.7589646621386
20
-5.17633151176085
30
0
41
1
10
56.925539158674
20
-5.16801851743037
30
0
41
1
10
57.7578922521912
20
-5.11653566983071
30
0
41
1
10
58.4219854468217
20
-5.04359822915205
30
0
41
1
10
59.2524467521825
20
-4.91393710270074
30
0
41
1
10
59.4185643079036
20
-4.8860825712394
30
0
41
1
10
59.7510124468459
20
-4.82663915814328
30
0
41
1
10
59.9173318898228
20
-4.79504413384473
30
0
41
1
10
60.4166228464815
20
-4.69466398954535
30
0
41
1
10
60.749934172809
20
-4.62028893670197
30
0
41
1
10
61.4179847517096
20
-4.45692108432135
30
0
41
1
10
61.752690791759
20
-4.36788687251322
30
0
41
1
10
62.1723963984486
20
-4.24773638722624
30
0
41
1
10
62.256409741015
20
-4.22327125203446
30
0
41
1
10
62.4245913376994
20
-4.17348058017021
30
0
41
1
10
62.5087930933915
20
-4.1481445740763
30
0
41
1
10
62.7614083359389
20
-4.07091758650401
30
0
41
1
10
62.9295215374712
20
-4.01789979696406
30
0
41
1
10
63.1920321576001
20
-3.932663443145
30
0
41
1
10
63.2866126435256
20
-3.90145595017339
30
0
41
1
10
63.3811146563261
20
-3.86978818575184
30
0
0
SPLINE
5
F2
100
AcDbEntity
8
1
62
256
6
ByLayer
370
18
48
1
60
0
100
AcDbSpline
70
4
71
3
72
108
73
104
40
0
40
0
40
0
40
0
40
0.0145461595864172
40
0.0145461595864172
40
0.0252576143735216
40
0.0252576143735216
40
0.0359690691606258
40
0.0573919787348344
40
0.0573919787348344
40
0.0681034335219392
40
0.0681034335219392
40
0.0788148883090439
40
0.0788148883090439
40
0.100237797883253
40
0.100237797883253
40
0.121660707457463
40
0.121660707457463
40
0.132372162244568
40
0.132372162244568
40
0.143083617031672
40
0.143083617031672
40
0.185929436180091
40
0.185929436180091
40
0.2073523457543
40
0.2073523457543
40
0.228775255328509
40
0.250198164902718
40
0.250198164902718
40
0.260909619689822
40
0.260909619689822
40
0.271621074476927
40
0.271621074476927
40
0.293043984051136
40
0.293043984051136
40
0.314466893625345
40
0.314466893625345
40
0.335889803199554
40
0.335889803199554
40
0.357312712773763
40
0.357312712773763
40
0.368024167560868
40
0.368024167560868
40
0.378735622347973
40
0.378735622347973
40
0.400158531922182
40
0.421581441496391
40
0.421581441496391
40
0.4430043510706
40
0.4430043510706
40
0.464427260644809
40
0.464427260644809
40
0.485850170219018
40
0.507273079793227
40
0.517984534580331
40
0.517984534580331
40
0.528695989367435
40
0.528695989367435
40
0.57154180851585
40
0.57154180851585
40
0.592964718090057
40
0.592964718090057
40
0.614387627664264
40
0.614387627664264
40
0.635810537238471
40
0.635810537238471
40
0.646521992025575
40
0.646521992025575
40
0.657233446812678
40
0.667944901599781
40
0.667944901599781
40
0.678656356386884
40
0.678656356386884
40
0.700079265961091
40
0.700079265961091
40
0.721502175535299
40
0.721502175535299
40
0.742925085109506
40
0.742925085109506
40
0.764347994683713
40
0.764347994683713
40
0.78577090425792
40
0.78577090425792
40
0.796482359045024
40
0.796482359045024
40
0.807193813832128
40
0.828616723406336
40
0.850039632980544
40
0.850039632980544
40
0.860751087767648
40
0.860751087767648
40
0.871462542554752
40
0.871462542554752
40
0.89288545212896
40
0.89288545212896
40
0.914308361703168
40
0.914308361703168
40
0.935731271277376
40
0.935731271277376
40
0.957154180851584
40
0.957154180851584
40
0.978577090425792
40
0.978577090425792
40
1
40
1
40
1
40
1
41
1
10
34.3589908061161
20
4.77831755829121
30
0
41
1
10
34.5366934073268
20
4.81183616466984
30
0
41
1
10
34.7145183940673
20
4.84329332817225
30
0
41
1
10
35.0235829289212
20
4.89425526261616
30
0
41
1
10
35.1546927860802
20
4.9147156364441
30
0
41
1
10
35.4167572229557
20
4.95326821582461
30
0
41
1
10
35.8097404057735
20
5.00756528659454
30
0
41
1
10
36.2025467634113
20
5.05118303181041
30
0
41
1
10
36.5954625740668
20
5.0875749632628
30
0
41
1
10
36.7264528495696
20
5.09850138617375
30
0
41
1
10
36.9885088841524
20
5.11792945791268
30
0
41
1
10
37.1196085787665
20
5.12643280339694
30
0
41
1
10
37.5127883385126
20
5.14826790369489
30
0
41
1
10
37.7747316193273
20
5.15792615286233
30
0
41
1
10
38.2985463008116
20
5.16743351943572
30
0
41
1
10
38.560415236031
20
5.16728285866751
30
0
41
1
10
38.9533697150759
20
5.15969158287518
30
0
41
1
10
39.0843798350577
20
5.15593361871981
30
0
41
1
10
39.3464866851795
20
5.145961633528
30
0
41
1
10
39.4775703517395
20
5.1397473359923
30
0
41
1
10
40.1326147053972
20
5.10258363905999
30
0
41
1
10
40.6559859893518
20
5.0533319392467
30
0
41
1
10
41.4418236153643
20
4.95080224692163
30
0
41
1
10
41.7039665240772
20
4.91183498226835
30
0
41
1
10
42.2277338356302
20
4.8246771264642
30
0
41
1
10
42.7512360673459
20
4.7282684462524
30
0
41
1
10
43.2748369655507
20
4.61384182944104
30
0
41
1
10
43.6678119075243
20
4.5214640620656
30
0
41
1
10
43.7988634487005
20
4.48957485502413
30
0
41
1
10
44.0608902198499
20
4.42369155387544
30
0
41
1
10
44.1918885163656
20
4.38969227325177
30
0
41
1
10
44.5848895542437
20
4.28457660539274
30
0
41
1
10
44.8469652690508
20
4.21032078949634
30
0
41
1
10
45.3709644222009
20
4.05393928972919
30
0
41
1
10
45.6329078240915
20
3.97181077748829
30
0
41
1
10
46.1569761778082
20
3.80003978376593
30
0
41
1
10
46.4189014891783
20
3.71046304320964
30
0
41
1
10
46.9428104766939
20
3.52434276729338
30
0
41
1
10
47.2048232711513
20
3.42778682033463
30
0
41
1
10
47.5977021145198
20
3.27819726110144
30
0
41
1
10
47.7286547867291
20
3.2275357496506
30
0
41
1
10
47.9905834214847
20
3.12467288732117
30
0
41
1
10
48.1215839631227
20
3.07246146330721
30
0
41
1
10
48.5144131508985
20
2.91371290418371
30
0
41
1
10
49.0378083571579
20
2.69637870137203
30
0
41
1
10
49.5610656868229
20
2.46875555915957
30
0
41
1
10
50.0845630613338
20
2.23652406336171
30
0
41
1
10
50.346529703679
20
2.11805882131773
30
0
41
1
10
50.8702998970956
20
1.87738707301025
30
0
41
1
10
51.1321584223664
20
1.75515820690836
30
0
41
1
10
51.6560306306117
20
1.50746603482392
30
0
41
1
10
52.1794832475776
20
1.25681180473325
30
0
41
1
10
52.8334675819839
20
0.937487697911422
30
0
41
1
10
53.226036213799
20
0.743829977124079
30
0
41
1
10
53.4878246562431
20
0.614337808677732
30
0
41
1
10
53.6187869167
20
0.549383218009325
30
0
41
1
10
54.2732577224412
20
0.224129647258337
30
0
41
1
10
54.7960519595531
20
-0.0378145792342082
30
0
41
1
10
55.5809846660191
20
-0.429503494502256
30
0
41
1
10
55.8428799506853
20
-0.559919429653121
30
0
41
1
10
56.3662718618418
20
-0.819204709744668
30
0
41
1
10
56.6278404779478
20
-0.948109691562678
30
0
41
1
10
57.151033521659
20
-1.20383681638432
30
0
41
1
10
57.4126660280643
20
-1.33064406703269
30
0
41
1
10
57.8052588474596
20
-1.5190904618197
30
0
41
1
10
57.9361719836005
20
-1.58162501645148
30
0
41
1
10
58.1979295678051
20
-1.70599046260341
30
0
41
1
10
58.4596079850495
20
-1.82963507812727
30
0
41
1
10
58.7212376819449
20
-1.95162792029615
30
0
41
1
10
58.9828958620607
20
-2.07269546537947
30
0
41
1
10
59.11375880011
20
-2.13277533088817
30
0
41
1
10
59.5061729751986
20
-2.31135465800836
30
0
41
1
10
59.7676343954258
20
-2.42821785370737
30
0
41
1
10
60.2905920580192
20
-2.65699942216722
30
0
41
1
10
60.5520758735787
20
-2.76894057061187
30
0
41
1
10
61.0752961604327
20
-2.98750885945586
30
0
41
1
10
61.3371221577555
20
-3.09416941424101
30
0
41
1
10
61.8605481793108
20
-3.30141640586109
30
0
41
1
10
62.1222355923293
20
-3.40203951161311
30
0
41
1
10
62.6456999292488
20
-3.59677005734159
30
0
41
1
10
62.9073200734791
20
-3.69081900588745
30
0
41
1
10
63.2998104268223
20
-3.82658696599233
30
0
41
1
10
63.4306766542139
20
-3.87096717870273
30
0
41
1
10
63.6923095273417
20
-3.95785181089224
30
0
41
1
10
64.0846130280312
20
-4.08536802643192
30
0
41
1
10
64.73801512168
20
-4.28347935161025
30
0
41
1
10
65.2608859923524
20
-4.4258562860096
30
0
41
1
10
65.6533184965455
20
-4.52633795713069
30
0
41
1
10
65.784159785385
20
-4.55877717531189
30
0
41
1
10
66.0457662012002
20
-4.62146885397189
30
0
41
1
10
66.1765552117648
20
-4.65172776758061
30
0
41
1
10
66.5689324335229
20
-4.73919422875289
30
0
41
1
10
66.8306162829933
20
-4.79310531507875
30
0
41
1
10
67.353506620848
20
-4.89168187582084
30
0
41
1
10
67.6147906110067
20
-4.93636623711862
30
0
41
1
10
68.1373541919635
20
-5.01632382185392
30
0
41
1
10
68.3986314639623
20
-5.05159894216425
30
0
41
1
10
68.9214738706455
20
-5.11256501666591
30
0
41
1
10
69.1831194206227
20
-5.13825890410899
30
0
41
1
10
69.7061594713497
20
-5.17983959408406
30
0
41
1
10
69.9676453969699
20
-5.1957396536508
30
0
41
1
10
70.4908238608439
20
-5.21767745826435
30
0
41
1
10
70.7523013572745
20
-5.22370648398578
30
0
41
1
10
71.0138118340352
20
-5.2247863595378
30
0
0
SPLINE
5
F3
100
AcDbEntity
8
1
62
256
6
ByLayer
370
18
48
1
60
0
100
AcDbSpline
70
4
71
3
72
10
73
6
40
0
40
0
40
0
40
0
40
0.5
40
0.5
40
1
40
1
40
1
40
1
41
1
10
70.9762048658432
20
-5.18168759249468
30
0
41
1
10
70.9824560812994
20
-5.19551610178542
30
0
41
1
10
70.9887121444477
20
-5.20602953437691
30
0
41
1
10
71.0012530281501
20
-5.22041353708673
30
0
41
1
10
71.0075414695488
20
-5.22427478350767
30
0
41
1
10
71.0138118340351
20
-5.2247863595378
30
0
0
SPLINE
5
F4
100
AcDbEntity
8
1
62
256
6
ByLayer
370
18
48
1
60
0
100
AcDbSpline
70
4
71
3
72
75
73
71
40
0
40
0
40
0
40
0
40
0.050030018341118
40
0.050030018341118
40
0.0750450275116764
40
0.0750450275116764
40
0.100060036682235
40
0.100060036682235
40
0.125075045852793
40
0.125075045852793
40
0.150090055023352
40
0.150090055023352
40
0.17510506419391
40
0.17510506419391
40
0.200120073364469
40
0.200120073364469
40
0.250150091705586
40
0.250150091705586
40
0.275165100876144
40
0.287672605461424
40
0.287672605461424
40
0.300180110046703
40
0.300180110046703
40
0.350210128387824
40
0.350210128387824
40
0.400240146728944
40
0.400240146728944
40
0.412747651314224
40
0.412747651314224
40
0.425255155899504
40
0.425255155899504
40
0.450270165070065
40
0.450270165070065
40
0.500300183411187
40
0.500300183411187
40
0.525315192581749
40
0.525315192581749
40
0.537822697167029
40
0.537822697167029
40
0.55033020175231
40
0.55033020175231
40
0.60036022009343
40
0.60036022009343
40
0.65039023843455
40
0.65039023843455
40
0.662897743019831
40
0.662897743019831
40
0.675405247605111
40
0.675405247605111
40
0.700420256775671
40
0.700420256775671
40
0.750450275116792
40
0.750450275116792
40
0.775465284287353
40
0.775465284287353
40
0.787972788872633
40
0.787972788872633
40
0.800480293457912
40
0.800480293457912
40
0.850510311799028
40
0.850510311799028
40
0.900540330140144
40
0.900540330140144
40
0.913047834725424
40
0.913047834725424
40
0.925555339310703
40
0.925555339310703
40
0.950570348481261
40
0.950570348481261
40
1
40
1
40
1
40
1
41
1
10
70.9762048658454
20
-5.18168759249411
30
0
41
1
10
70.4539780693265
20
-5.14705524818731
30
0
41
1
10
69.9319838883584
20
-5.09281895935123
30
0
41
1
10
69.1476986314256
20
-4.98281332933968
30
0
41
1
10
68.8865193366262
20
-4.94143286863184
30
0
41
1
10
68.3647044117962
20
-4.84953480905062
30
0
41
1
10
68.104017210014
20
-4.79900965914504
30
0
41
1
10
67.5828014991782
20
-4.6890544066583
30
0
41
1
10
67.3222697001125
20
-4.62962537199721
30
0
41
1
10
66.801002096344
20
-4.50219872392378
30
0
41
1
10
66.5403243350126
20
-4.43414515049079
30
0
41
1
10
66.0185348865037
20
-4.28967468074416
30
0
41
1
10
65.7573771171477
20
-4.21328843811472
30
0
41
1
10
65.2343707872303
20
-4.05250223717772
30
0
41
1
10
64.973223587385
20
-3.96831865863726
30
0
41
1
10
64.1904374780279
20
-3.70499990501324
30
0
41
1
10
63.6694236323296
20
-3.51512934553415
30
0
41
1
10
62.8873247068778
20
-3.21160438489343
30
0
41
1
10
62.4961423312759
20
-3.05514696860863
30
0
41
1
10
62.1044398216191
20
-2.89213790908124
30
0
41
1
10
61.8431525714777
20
-2.78206589844726
30
0
41
1
10
61.7123917903666
20
-2.7263123922551
30
0
41
1
10
61.0585822407896
20
-2.44439072546211
30
0
41
1
10
60.5369245358232
20
-2.20943293094155
30
0
41
1
10
59.4939329396933
20
-1.72527738638749
30
0
41
1
10
58.9726673108173
20
-1.47595466426785
30
0
41
1
10
58.3199166928388
20
-1.15799412498694
30
0
41
1
10
58.1893064949697
20
-1.09408998534269
30
0
41
1
10
57.9279236418097
20
-0.965738989453257
30
0
41
1
10
57.7970926602622
20
-0.901263319715952
30
0
41
1
10
57.4047556498664
20
-0.707377705427604
30
0
41
1
10
57.1435208797714
20
-0.577559683839752
30
0
41
1
10
56.3604022043806
20
-0.187195111320904
30
0
41
1
10
55.8390988103786
20
0.0742514685636593
30
0
41
1
10
55.0565587060901
20
0.464709993422787
30
0
41
1
10
54.7956152340489
20
0.594579087502439
30
0
41
1
10
54.4038115611114
20
0.788468149880515
30
0
41
1
10
54.2731451644564
20
0.852944552233964
30
0
41
1
10
54.0116401795222
20
0.98150675096872
30
0
41
1
10
53.8807428119891
20
1.04562268656699
30
0
41
1
10
53.2267638400901
20
1.36461565177777
30
0
41
1
10
52.7049192947373
20
1.61485146429675
30
0
41
1
10
51.6614560499209
20
2.10079916432684
30
0
41
1
10
51.1398751776048
20
2.33658261053318
30
0
41
1
10
50.4865727056808
20
2.6195279939931
30
0
41
1
10
50.3558448563022
20
2.67552633111367
30
0
41
1
10
50.0942244038169
20
2.78628613593656
30
0
41
1
10
49.9632873585515
20
2.84106551851465
30
0
41
1
10
49.5708679983912
20
3.00317794805366
30
0
41
1
10
49.3095880382839
20
3.10836000075099
30
0
41
1
10
48.5262094310594
20
3.41441163742331
30
0
41
1
10
48.0046162653329
20
3.605859185968
30
0
41
1
10
47.2214879695288
20
3.87165299736168
30
0
41
1
10
46.9603371045347
20
3.95670955932869
30
0
41
1
10
46.5682370599758
20
4.0786742208669
30
0
41
1
10
46.4374714511647
20
4.11838817163982
30
0
41
1
10
46.1757688262524
20
4.19587828995995
30
0
41
1
10
46.0448182812864
20
4.23365700637723
30
0
41
1
10
45.3907400725232
20
4.41723255960798
30
0
41
1
10
44.8686744960595
20
4.54735610216369
30
0
41
1
10
43.8245665849939
20
4.77211430592831
30
0
41
1
10
43.3026922899021
20
4.8668827272904
30
0
41
1
10
42.6489020161233
20
4.96195362550444
30
0
41
1
10
42.5180743041805
20
4.97980127706728
30
0
41
1
10
42.2562401716413
20
5.01313419269499
30
0
41
1
10
42.1252673098526
20
5.02861392867899
30
0
41
1
10
41.7327388418802
20
5.071400971608
30
0
41
1
10
41.4713446472644
20
5.09508501734132
30
0
41
1
10
40.6938489816548
20
5.15109521602841
30
0
41
1
10
40.1783346604628
20
5.16932897515744
30
0
41
1
10
39.6622497530333
20
5.16840976632992
30
0
0
SPLINE
5
F5
100
AcDbEntity
8
1
62
256
6
ByLayer
370
18
48
1
60
0
100
AcDbSpline
70
4
71
3
72
28
73
24
40
0
40
0
40
0
40
0
40
0.125000000000053
40
0.125000000000053
40
0.187500000000105
40
0.187500000000105
40
0.250000000000157
40
0.31250000000021
40
0.31250000000021
40
0.375000000000262
40
0.375000000000262
40
0.500000000000367
40
0.500000000000367
40
0.625000000000472
40
0.625000000000472
40
0.687500000000427
40
0.687500000000427
40
0.750000000000382
40
0.812500000000337
40
0.812500000000337
40
0.875000000000291
40
0.875000000000291
40
1
40
1
40
1
40
1
41
1
10
20.7502606996882
20
-5.12723684237693
30
0
41
1
10
20.7502606996882
20
-5.12678631567982
30
0
41
1
10
20.7513394401068
20
-5.12632609548558
30
0
41
1
10
20.7545250308231
20
-5.12562463138354
30
0
41
1
10
20.7558641765775
20
-5.12538727719181
30
0
41
1
10
20.7590259549882
20
-5.1249204324287
30
0
41
1
10
20.7626629404568
20
-5.12446117426381
30
0
41
1
10
20.7672284245031
20
-5.12401975817971
30
0
41
1
10
20.7722699204112
20
-5.12358931302029
30
0
41
1
10
20.7750301699041
20
-5.12337994108967
30
0
41
1
10
20.7837927868507
20
-5.12278917165267
30
0
41
1
10
20.7903491773328
20
-5.12243771107569
30
0
41
1
10
20.804878518341
20
-5.12184105787077
30
0
41
1
10
20.8125585482819
20
-5.12160781189951
30
0
41
1
10
20.8246839958261
20
-5.12136165887151
30
0
41
1
10
20.8288584828189
20
-5.12129683598647
30
0
41
1
10
20.8372226180369
20
-5.12120681811243
30
0
41
1
10
20.845615341616
20
-5.12115549639486
30
0
41
1
10
20.8540640117713
20
-5.12118075493927
30
0
41
1
10
20.8625414092984
20
-5.12124526609045
30
0
41
1
10
20.8667826755906
20
-5.12129739907678
30
0
41
1
10
20.8791858148831
20
-5.12150743704282
30
0
41
1
10
20.887153383453
20
-5.12171904381302
30
0
41
1
10
20.8948089595341
20
-5.12199979249783
30
0
0
SPLINE
5
F6
100
AcDbEntity
8
1
62
256
6
ByLayer
370
18
48
1
60
0
100
AcDbSpline
70
4
71
3
72
8
73
4
40
0
40
0
40
0
40
0
40
1
40
1
40
1
40
1
41
1
10
71.0047614305356
20
-0.202930228327659
30
0
41
1
10
71.0326360248631
20
0.0246566005666864
30
0
41
1
10
71.0656982098635
20
0.252175391710807
30
0
41
1
10
71.1052842113295
20
0.47946190445856
30
0
0
SPLINE
5
F7
100
AcDbEntity
8
1
62
256
6
ByLayer
370
18
48
1
60
0
100
AcDbSpline
70
4
71
3
72
77
73
73
40
0
40
0
40
0
40
0
40
0.0418725392181346
40
0.0418725392181346
40
0.0837450784362692
40
0.0837450784362692
40
0.104681348045337
40
0.104681348045337
40
0.125617617654404
40
0.125617617654404
40
0.16749015687254
40
0.16749015687254
40
0.209362696090676
40
0.209362696090676
40
0.230298965699745
40
0.230298965699745
40
0.251235235308813
40
0.251235235308813
40
0.29310777452695
40
0.29310777452695
40
0.314044044136018
40
0.314044044136018
40
0.324512178940552
40
0.324512178940552
40
0.334980313745086
40
0.334980313745086
40
0.355916583354153
40
0.355916583354153
40
0.37685285296322
40
0.37685285296322
40
0.418725392181356
40
0.418725392181356
40
0.439661661790423
40
0.439661661790423
40
0.460597931399492
40
0.460597931399492
40
0.502470470617626
40
0.502470470617626
40
0.544343009835761
40
0.544343009835761
40
0.586215549053896
40
0.586215549053896
40
0.62808808827203
40
0.62808808827203
40
0.649024357881097
40
0.659492492685632
40
0.659492492685632
40
0.669960627490166
40
0.669960627490166
40
0.690896897099236
40
0.690896897099236
40
0.711833166708306
40
0.711833166708306
40
0.753705705926445
40
0.753705705926445
40
0.795578245144584
40
0.795578245144584
40
0.816514514753653
40
0.816514514753653
40
0.837450784362723
40
0.837450784362723
40
0.879323323580863
40
0.879323323580863
40
0.900259593189932
40
0.900259593189932
40
0.921195862799002
40
0.921195862799002
40
0.963068402017142
40
0.963068402017142
40
0.984004671626212
40
0.984004671626212
40
1
40
1
40
1
40
1
41
1
10
6.92653169294891
20
-0.0054618169443188
30
0
41
1
10
7.26479264474747
20
-0.17185280423098
30
0
41
1
10
7.6018217678353
20
-0.337748248162399
30
0
41
1
10
8.27396342943891
20
-0.667440605417198
30
0
41
1
10
8.60904404911108
20
-0.831303031099111
30
0
41
1
10
9.11075826466021
20
-1.07443873317186
30
0
41
1
10
9.2778497481923
20
-1.1550323695289
30
0
41
1
10
9.6117947616907
20
-1.31520873703664
30
0
41
1
10
9.77865870317746
20
-1.39476972091006
30
0
41
1
10
10.2791448842418
20
-1.63144101197335
30
0
41
1
10
10.6125761763459
20
-1.78671400518525
30
0
41
1
10
11.2793647336035
20
-2.09151900449871
30
0
41
1
10
11.6127385881895
20
-2.24101752235217
30
0
41
1
10
12.1131520185261
20
-2.46015541959488
30
0
41
1
10
12.28000925339
20
-2.5323601105853
30
0
41
1
10
12.6139936729466
20
-2.67478049590648
30
0
41
1
10
12.7811340495193
20
-2.74497320093596
30
0
41
1
10
13.2830396831266
20
-2.95242339941379
30
0
41
1
10
13.6182637622216
20
-3.08659823386645
30
0
41
1
10
14.1224086693138
20
-3.28094773327888
30
0
41
1
10
14.290676575925
20
-3.34457611189595
30
0
41
1
10
14.5434560210312
20
-3.43819289893392
30
0
41
1
10
14.6277783824989
20
-3.46909480461193
30
0
41
1
10
14.796560069863
20
-3.53026923896905
30
0
41
1
10
14.8810680907154
20
-3.56055862928099
30
0
41
1
10
15.1343125856357
20
-3.6502733620014
30
0
41
1
10
15.3028478981831
20
-3.7085517885038
30
0
41
1
10
15.639478160793
20
-3.82186788203796
30
0
41
1
10
15.8075585962271
20
-3.87692903330893
30
0
41
1
10
16.3111366839917
20
-4.03731788995708
30
0
41
1
10
16.6459839976302
20
-4.13783166543698
30
0
41
1
10
17.1473398813552
20
-4.27859616428728
30
0
41
1
10
17.3143037561697
20
-4.32385226138314
30
0
41
1
10
17.6479931481384
20
-4.41095913551666
30
0
41
1
10
17.8147104826146
20
-4.45281733078468
30
0
41
1
10
18.3147361031727
20
-4.57305314407887
30
0
41
1
10
18.6479470596942
20
-4.64607760025399
30
0
41
1
10
19.3143667412285
20
-4.77767560010628
30
0
41
1
10
19.6476009037137
20
-4.83622160329912
30
0
41
1
10
20.314618011974
20
-4.93834549672223
30
0
41
1
10
20.6483539080065
20
-4.98193563517236
30
0
41
1
10
21.3173548131651
20
-5.05346044581643
30
0
41
1
10
21.652556284679
20
-5.08144502528359
30
0
41
1
10
22.1567146287825
20
-5.11148952909798
30
0
41
1
10
22.4091394353184
20
-5.12352508391527
30
0
41
1
10
22.6621588342598
20
-5.13101762831408
30
0
41
1
10
22.8309784165673
20
-5.13499576753327
30
0
41
1
10
22.91541588191
20
-5.13647477945003
30
0
41
1
10
23.1683675485259
20
-5.13937497451863
30
0
41
1
10
23.3366875115082
20
-5.13926259898238
30
0
41
1
10
23.6728702702066
20
-5.13498591518788
30
0
41
1
10
23.8407416937502
20
-5.13082458916043
30
0
41
1
10
24.3437479826461
20
-5.11234380851863
30
0
41
1
10
24.678252084903
20
-5.09202310305574
30
0
41
1
10
25.3461012982149
20
-5.03568597239237
30
0
41
1
10
25.6794371122455
20
-4.99966350491474
30
0
41
1
10
26.1789923650173
20
-4.93407781799235
30
0
41
1
10
26.345452312066
20
-4.9102987062474
30
0
41
1
10
26.6783962631639
20
-4.85900592925978
30
0
41
1
10
26.8448664857803
20
-4.83148509949169
30
0
41
1
10
27.3443101330471
20
-4.74333238368104
30
0
41
1
10
27.6773285337694
20
-4.67711789037048
30
0
41
1
10
28.1773242961515
20
-4.56687947605639
30
0
41
1
10
28.3440657130641
20
-4.52831178953201
30
0
41
1
10
28.6777712662234
20
-4.44757781347383
30
0
41
1
10
28.8447277805173
20
-4.40540217558697
30
0
41
1
10
29.3461538202341
20
-4.27367957772267
30
0
41
1
10
29.6812166027657
20
-4.17899293276545
30
0
41
1
10
30.1852147137267
20
-4.02680302833841
30
0
41
1
10
30.3534537377541
20
-3.97438515517112
30
0
41
1
10
30.6507101083278
20
-3.87898745592696
30
0
41
1
10
30.7797091751346
20
-3.83666624178969
30
0
41
1
10
30.9085709831621
20
-3.79349280216303
30
0
0
SPLINE
5
F8
100
AcDbEntity
8
1
62
256
6
ByLayer
370
18
48
1
60
0
100
AcDbSpline
70
4
71
3
72
48
73
44
40
0
40
0
40
0
40
0
40
0.0207598835324288
40
0.0207598835324288
40
0.0534012207480126
40
0.0534012207480126
40
0.0860425579635968
40
0.0860425579635968
40
0.216607906825938
40
0.216607906825938
40
0.249249244041524
40
0.249249244041524
40
0.28189058125711
40
0.28189058125711
40
0.347173255688283
40
0.347173255688283
40
0.412455930119458
40
0.412455930119458
40
0.428776598727252
40
0.428776598727252
40
0.445097267335046
40
0.445097267335046
40
0.477738604550632
40
0.477738604550632
40
0.543021278981803
40
0.543021278981803
40
0.608303953412975
40
0.608303953412975
40
0.673586627844146
40
0.673586627844146
40
0.738869302275318
40
0.738869302275318
40
0.80415197670649
40
0.80415197670649
40
0.869434651137661
40
0.869434651137661
40
0.934717325568833
40
0.934717325568833
40
0.951037994176625
40
0.951037994176625
40
0.967358662784418
40
0.967358662784418
40
1
40
1
40
1
40
1
41
1
10
55.772631199683
20
5.19740874528531
30
0
41
1
10
55.8790616290491
20
5.19760248671099
30
0
41
1
10
55.9853984703903
20
5.19697429848139
30
0
41
1
10
56.2587127208707
20
5.19325203506514
30
0
41
1
10
56.4255585175141
20
5.18895026327945
30
0
41
1
10
56.7589646621386
20
5.17633151176085
30
0
41
1
10
56.925539158674
20
5.16801851743037
30
0
41
1
10
57.7578922521912
20
5.11653566983071
30
0
41
1
10
58.4219854468216
20
5.04359822915202
30
0
41
1
10
59.2524467521826
20
4.91393710270077
30
0
41
1
10
59.4185643079036
20
4.8860825712394
30
0
41
1
10
59.7510124468459
20
4.82663915814328
30
0
41
1
10
59.9173318898228
20
4.79504413384473
30
0
41
1
10
60.4166228464815
20
4.69466398954535
30
0
41
1
10
60.749934172809
20
4.62028893670197
30
0
41
1
10
61.4179847517097
20
4.45692108432135
30
0
41
1
10
61.752690791759
20
4.36788687251322
30
0
41
1
10
62.1723963984486
20
4.24773638722627
30
0
41
1
10
62.256409741015
20
4.22327125203449
30
0
41
1
10
62.4245913376995
20
4.17348058017024
30
0
41
1
10
62.5087930933915
20
4.1481445740763
30
0
41
1
10
62.7614083359389
20
4.07091758650404
30
0
41
1
10
62.9295215374713
20
4.01789979696406
30
0
41
1
10
63.4330588707189
20
3.85440284481516
30
0
41
1
10
63.767689655023
20
3.73949313997022
30
0
41
1
10
64.4353543778556
20
3.49872887171796
30
0
41
1
10
64.7683355365066
20
3.37278616935453
30
0
41
1
10
65.4336062399321
20
3.11143448781681
30
0
41
1
10
65.7658754172488
20
2.97600289494406
30
0
41
1
10
66.4300926158215
20
2.69636100929986
30
0
41
1
10
66.7620554985879
20
2.55217458430485
30
0
41
1
10
67.426191122146
20
2.25592153623884
30
0
41
1
10
67.758359151566
20
2.10383829670712
30
0
41
1
10
68.4238782384265
20
1.79354756277507
30
0
41
1
10
68.757144470032
20
1.63518615836901
30
0
41
1
10
69.4251915142101
20
1.31291541222041
30
0
41
1
10
69.7599706178884
20
1.14900185371613
30
0
41
1
10
70.1797445175017
20
0.941258288902333
30
0
41
1
10
70.2637634962421
20
0.899565157218063
30
0
41
1
10
70.4319556507177
20
0.815942218516227
30
0
41
1
10
70.5161447316543
20
0.774008752906695
30
0
41
1
10
70.7686307436549
20
0.648067841576562
30
0
41
1
10
70.936950775712
20
0.563867433521381
30
0
41
1
10
71.1052842113295
20
0.479461904458873
30
0
0
SPLINE
5
F9
100
AcDbEntity
8
1
62
256
6
ByLayer
370
18
48
1
60
0
100
AcDbSpline
70
4
71
3
72
112
73
108
40
0
40
0
40
0
40
0
40
0.0624999999999604
40
0.0624999999999604
40
0.124999999999921
40
0.124999999999921
40
0.156249999999901
40
0.156249999999901
40
0.187499999999881
40
0.187499999999881
40
0.218749999999861
40
0.218749999999861
40
0.249999999999842
40
0.257812499999836
40
0.257812499999836
40
0.261718749999834
40
0.261718749999834
40
0.262695312499833
40
0.262695312499833
40
0.263671874999832
40
0.263671874999832
40
0.265624999999831
40
0.265624999999831
40
0.26757812499983
40
0.26757812499983
40
0.26953124999983
40
0.26953124999983
40
0.270507812499829
40
0.270507812499829
40
0.271484374999829
40
0.271484374999829
40
0.273437499999829
40
0.273437499999829
40
0.281249999999832
40
0.281249999999832
40
0.312499999999843
40
0.312499999999843
40
0.328124999999848
40
0.328124999999848
40
0.343749999999853
40
0.343749999999853
40
0.374999999999863
40
0.374999999999863
40
0.406249999999872
40
0.406249999999872
40
0.421874999999877
40
0.421874999999877
40
0.42968749999988
40
0.42968749999988
40
0.437499999999883
40
0.437499999999883
40
0.468749999999892
40
0.468749999999892
40
0.484374999999896
40
0.484374999999896
40
0.488281249999897
40
0.488281249999897
40
0.492187499999898
40
0.4999999999999
40
0.4999999999999
40
0.531249999999907
40
0.531249999999907
40
0.539062499999908
40
0.539062499999908
40
0.542968749999909
40
0.542968749999909
40
0.54687499999991
40
0.562499999999913
40
0.578124999999917
40
0.578124999999917
40
0.585937499999919
40
0.585937499999919
40
0.59374999999992
40
0.59374999999992
40
0.609374999999924
40
0.609374999999924
40
0.624999999999928
40
0.624999999999928
40
0.63281249999993
40
0.63281249999993
40
0.640624999999932
40
0.640624999999932
40
0.656249999999936
40
0.656249999999936
40
0.687499999999944
40
0.687499999999944
40
0.718749999999951
40
0.718749999999951
40
0.726562499999953
40
0.726562499999953
40
0.734374999999954
40
0.749999999999957
40
0.749999999999957
40
0.781249999999963
40
0.781249999999963
40
0.812499999999969
40
0.812499999999969
40
0.843749999999974
40
0.843749999999974
40
0.87499999999998
40
0.87499999999998
40
0.890624999999982
40
0.890624999999982
40
0.906249999999985
40
0.937499999999989
40
0.937499999999989
40
1
40
1
40
1
40
1
41
1
10
8.69107192449229
20
4.88356370741087
30
0
41
1
10
8.39439944304004
20
4.92633987390028
30
0
41
1
10
8.09576622373606
20
4.96160255026211
30
0
41
1
10
7.49334869234858
20
5.0190309580797
30
0
41
1
10
7.18955075342899
20
5.04119670804729
30
0
41
1
10
6.72921773677044
20
5.06642197270057
30
0
41
1
10
6.57494674423717
20
5.07349702418134
30
0
41
1
10
6.26514513784579
20
5.08529334928522
30
0
41
1
10
6.10959484955242
20
5.09001767645995
30
0
41
1
10
5.79711785353578
20
5.09746538067685
30
0
41
1
10
5.64016658797183
20
5.1001884763586
30
0
41
1
10
5.32508530591332
20
5.10397612090111
30
0
41
1
10
5.12739092479956
20
5.10530909882613
30
0
41
1
10
4.92869877385542
20
5.10561583775174
30
0
41
1
10
4.86903076907922
20
5.10565007656513
30
0
41
1
10
4.84913073360661
20
5.10565186545674
30
0
41
1
10
4.8242452099185
20
5.105642474132
30
0
41
1
10
4.819267571132
20
5.10564001399044
30
0
41
1
10
4.80931139355766
20
5.1056339433608
30
0
41
1
10
4.80433592043553
20
5.10563035831146
30
0
41
1
10
4.78932404634881
20
5.10561668799545
30
0
41
1
10
4.77919123538254
20
5.1056037125652
30
0
41
1
10
4.75851903734042
20
5.10557201470979
30
0
41
1
10
4.74820260415103
20
5.10555384245262
30
0
41
1
10
4.72760825835519
20
5.10551373983063
30
0
41
1
10
4.7172068441306
20
5.10549178205579
30
0
41
1
10
4.70257649501775
20
5.10545048575784
30
0
41
1
10
4.6978305591737
20
5.10543517048947
30
0
41
1
10
4.68855022429739
20
5.10539984376345
30
0
41
1
10
4.68407341833492
20
5.10537915393883
30
0
41
1
10
4.6707402461231
20
5.1053091442858
30
0
41
1
10
4.66186436208301
20
5.10525403745427
30
0
41
1
10
4.61749992452388
20
5.10493646617769
30
0
41
1
10
4.58210857551896
20
5.10454728150947
30
0
41
1
10
4.40567094968912
20
5.10189341216403
30
0
41
1
10
4.2663007216799
20
5.09751786661704
30
0
41
1
10
4.060390925896
20
5.08685054473125
30
0
41
1
10
3.99222486009859
20
5.08260436148888
30
0
41
1
10
3.85731026931165
20
5.07260669789795
30
0
41
1
10
3.79059628857303
20
5.06685920068642
30
0
41
1
10
3.59286981072353
20
5.04713975096001
30
0
41
1
10
3.46425683600623
20
5.03070989477169
30
0
41
1
10
3.21473794239367
20
4.98968038080383
30
0
41
1
10
3.09382035888686
20
4.96509583139166
30
0
41
1
10
2.91966858027459
20
4.92031682692749
30
0
41
1
10
2.86282815275752
20
4.90406613211277
30
0
41
1
10
2.77964358552529
20
4.87738450089125
30
0
41
1
10
2.75226207842923
20
4.86810554996237
30
0
41
1
10
2.69824558570792
20
4.8487126237365
30
0
41
1
10
2.67159794524784
20
4.83859142299684
30
0
41
1
10
2.54121371904387
20
4.78606916223555
30
0
41
1
10
2.44528740738747
20
4.73775994372934
30
0
41
1
10
2.31735167115193
20
4.65301473198488
30
0
41
1
10
2.27738061403531
20
4.62270697963623
30
0
41
1
10
2.23128265490439
20
4.58181227663647
30
0
41
1
10
2.22225461644354
20
4.573478925431
30
0
41
1
10
2.20469852824195
20
4.55659452015678
30
0
41
1
10
2.17907565784898
20
4.53090817966668
30
0
41
1
10
2.1556178634433
20
4.50412339698087
30
0
41
1
10
2.08239309475653
20
4.41230579856435
30
0
41
1
10
2.03961553744841
20
4.33078963910944
30
0
41
1
10
2.00925363535345
20
4.21686576583244
30
0
41
1
10
2.00434316012402
20
4.19347619052013
30
0
41
1
10
1.9988051902904
20
4.15743649501297
30
0
41
1
10
1.99726863532629
20
4.14528512808099
30
0
41
1
10
1.99483100258408
20
4.12086366944743
30
0
41
1
10
1.99030858521775
20
4.0594008422114
30
0
41
1
10
1.99611031027013
20
3.94512465130967
30
0
41
1
10
2.02023040524085
20
3.83853455239299
30
0
41
1
10
2.04519043571702
20
3.75676058320042
30
0
41
1
10
2.05465978543503
20
3.72918772217054
30
0
41
1
10
2.07584396425469
20
3.6734760084245
30
0
41
1
10
2.08745589694783
20
3.64560415412615
30
0
41
1
10
2.12514022157541
20
3.56194179364152
30
0
41
1
10
2.15405379571433
20
3.50610445568125
30
0
41
1
10
2.21855376470941
20
3.39431347146456
30
0
41
1
10
2.2541423928879
20
3.33835977084496
30
0
41
1
10
2.31200885478714
20
3.25434919906579
30
0
41
1
10
2.33204634076716
20
3.22633234974799
30
0
41
1
10
2.37354600368468
20
3.17027333168488
30
0
41
1
10
2.39505279231079
20
3.14217541639377
30
0
41
1
10
2.46126080762303
20
3.05828810463353
30
0
41
1
10
2.50754568819036
20
3.00300975472919
30
0
41
1
10
2.6519260634459
20
2.83884390638525
30
0
41
1
10
2.75550248037888
20
2.73161184027913
30
0
41
1
10
2.97405149286928
20
2.52062908954969
30
0
41
1
10
3.08904982600768
20
2.41688637068992
30
0
41
1
10
3.23867596979116
20
2.2890365532547
30
0
41
1
10
3.26891136296939
20
2.26354747667466
30
0
41
1
10
3.32970219777221
20
2.2129497511809
30
0
41
1
10
3.42145719554273
20
2.13754774530622
30
0
41
1
10
3.51482029460027
20
2.06354703889952
30
0
41
1
10
3.7034759565862
20
1.91723442717392
30
0
41
1
10
3.83180973458312
20
1.82193648703901
30
0
41
1
10
4.09275785080067
20
1.63512598417682
30
0
41
1
10
4.22537639220596
20
1.54361702190352
30
0
41
1
10
4.49431105457913
20
1.36390713235932
30
0
41
1
10
4.63062948151415
20
1.27570817708573
30
0
41
1
10
4.90653690154687
20
1.10227409557595
30
0
41
1
10
5.04612725478887
20
1.01704013072251
30
0
41
1
10
5.25772348915143
20
0.891220486203736
30
0
41
1
10
5.32865735095294
20
0.849600915557858
30
0
41
1
10
5.471071301248
20
0.767105587912539
30
0
41
1
10
5.68540150765494
20
0.644541523418496
30
0
41
1
10
5.90175347431926
20
0.525344790693566
30
0
41
1
10
6.33692691140789
20
0.291081397127186
30
0
41
1
10
6.63032469643719
20
0.140395488442635
30
0
41
1
10
6.92657645150291
20
-0.0054756869768084
30
0
0
SPLINE
5
FA
100
AcDbEntity
8
1
62
256
6
ByLayer
370
18
48
1
60
0
100
AcDbSpline
70
4
71
3
72
34
73
30
40
0
40
0
40
0
40
0
40
0.0624999999999992
40
0.0624999999999992
40
0.124999999999998
40
0.124999999999998
40
0.25
40
0.25
40
0.281250000000001
40
0.281250000000001
40
0.296875000000001
40
0.296875000000001
40
0.312500000000002
40
0.312500000000002
40
0.375000000000001
40
0.375000000000001
40
0.5
40
0.5
40
0.5625
40
0.5625
40
0.624999999999999
40
0.624999999999999
40
0.749999999999999
40
0.749999999999999
40
0.812499999999999
40
0.812499999999999
40
0.874999999999999
40
0.874999999999999
40
1
40
1
40
1
40
1
41
1
10
20.750260699674
20
0.556381129876513
30
0
41
1
10
20.5001667006977
20
0.679252053578153
30
0
41
1
10
20.2500209815601
20
0.801635739710321
30
0
41
1
10
19.7494490626475
20
1.0450618392301
30
0
41
1
10
19.4990187220179
20
1.16609527834885
30
0
41
1
10
18.7466842137364
20
1.52590528757318
30
0
41
1
10
18.2438050613803
20
1.76153308330834
30
0
41
1
10
17.6124443446558
20
2.0484853350404
30
0
41
1
10
17.4860339180777
20
2.105496233178
30
0
41
1
10
17.2961932151212
20
2.1904067013835
30
0
41
1
10
17.2328756570595
20
2.2186095825154
30
0
41
1
10
17.1061624351877
20
2.27480697604867
30
0
41
1
10
17.042738176032
20
2.30281345549199
30
0
41
1
10
16.7257910051962
20
2.4421138226057
30
0
41
1
10
16.4729158060684
20
2.5511087333592
30
0
41
1
10
15.7158863764054
20
2.87007599825603
30
0
41
1
10
15.2133551012625
20
3.07209378864496
30
0
41
1
10
14.4614857914092
20
3.357362648444
30
0
41
1
10
14.211213264604
20
3.44953591561699
30
0
41
1
10
13.710991752842
20
3.62748842973042
30
0
41
1
10
13.4610308722195
20
3.71325252202067
30
0
41
1
10
12.7112526483102
20
3.96046355221858
30
0
41
1
10
12.2115415588354
20
4.11184019816338
30
0
41
1
10
11.4609650487476
20
4.31712072664769
30
0
41
1
10
11.2106146313927
20
4.38192290567701
30
0
41
1
10
10.709184242959
20
4.50378122338671
30
0
41
1
10
10.4581196254128
20
4.56085734563393
30
0
41
1
10
9.70354780426635
20
4.72012815671261
30
0
41
1
10
9.19865083520793
20
4.81036615853083
30
0
41
1
10
8.69107551891
20
4.88356342669485
30
0
0
SPLINE
5
FB
100
AcDbEntity
8
1
62
256
6
ByLayer
370
18
48
1
60
0
100
AcDbSpline
70
4
71
3
72
51
73
47
40
0
40
0
40
0
40
0
40
0.0891384744805964
40
0.0891384744805964
40
0.111423093100745
40
0.111423093100745
40
0.133707711720894
40
0.178276948961189
40
0.178276948961189
40
0.222846186201484
40
0.222846186201484
40
0.245130804821633
40
0.245130804821633
40
0.267415423441781
40
0.267415423441781
40
0.35655389792238
40
0.35655389792238
40
0.445692372402978
40
0.445692372402978
40
0.467976991023127
40
0.467976991023127
40
0.490261609643276
40
0.534830846883576
40
0.534830846883576
40
0.557115465503727
40
0.557115465503727
40
0.579400084123878
40
0.579400084123878
40
0.623969321364178
40
0.623969321364178
40
0.713107795844778
40
0.713107795844778
40
0.802246270325378
40
0.802246270325378
40
0.824530888945529
40
0.824530888945529
40
0.846815507565679
40
0.89138474480598
40
0.89138474480598
40
0.913669363426132
40
0.913669363426132
40
0.935953982046283
40
0.935953982046283
40
0.980523219286588
40
0.980523219286588
40
1
40
1
40
1
40
1
41
1
10
20.7502606996883
20
0.633841792181727
30
0
41
1
10
21.2748422491225
20
0.377170328174543
30
0
41
1
10
21.7988985781303
20
0.11822730848678
30
0
41
1
10
22.4546940401895
20
-0.205493140450102
30
0
41
1
10
22.5859261145115
20
-0.270255419258206
30
0
41
1
10
22.8482988563814
20
-0.399604279657524
30
0
41
1
10
23.2416994911726
20
-0.593353053010219
30
0
41
1
10
23.6347974272683
20
-0.785929686633011
30
0
41
1
10
24.1589795332927
20
-1.04101371083451
30
0
41
1
10
24.4210976458932
20
-1.16771089132996
30
0
41
1
10
24.8145255594704
20
-1.35606981699163
30
0
41
1
10
24.9457578574482
20
-1.41859726523234
30
0
41
1
10
25.2080286936227
20
-1.54286789278632
30
0
41
1
10
25.3390787781778
20
-1.60461685309298
30
0
41
1
10
25.9939961821737
20
-1.91125551206272
30
0
41
1
10
26.5168821565528
20
-2.14979171340079
30
0
41
1
10
27.5627767054938
20
-2.60923763657166
30
0
41
1
10
28.0857768190821
20
-2.83015964679632
30
0
41
1
10
28.7410665298269
20
-3.09264123979381
30
0
41
1
10
28.8722460271115
20
-3.14447045340589
30
0
41
1
10
29.1344937337315
20
-3.24657494776764
30
0
41
1
10
29.5277431845754
20
-3.39742210520359
30
0
41
1
10
29.9208054927866
20
-3.54106780887596
30
0
41
1
10
30.3139637531072
20
-3.67958400155303
30
0
41
1
10
30.4450321345018
20
-3.72490173381672
30
0
41
1
10
30.7072365302279
20
-3.81377495169144
30
0
41
1
10
30.8384161740234
20
-3.85734423258705
30
0
41
1
10
31.2316133191027
20
-3.98516706968579
30
0
41
1
10
31.4933832862546
20
-4.06656970055471
30
0
41
1
10
32.2780629605865
20
-4.298838041567
30
0
41
1
10
32.8003318270057
20
-4.43777641804081
30
0
41
1
10
33.8454132403908
20
-4.6814586906072
30
0
41
1
10
34.3682299049919
20
-4.78619350179687
30
0
41
1
10
35.0235829289212
20
-4.89425526261616
30
0
41
1
10
35.1546927860801
20
-4.91471563644407
30
0
41
1
10
35.4167572229556
20
-4.95326821582461
30
0
41
1
10
35.8097404057735
20
-5.00756528659454
30
0
41
1
10
36.2025467634113
20
-5.05118303181038
30
0
41
1
10
36.5954625740667
20
-5.0875749632628
30
0
41
1
10
36.7264528495695
20
-5.09850138617375
30
0
41
1
10
36.9885088841523
20
-5.11792945791268
30
0
41
1
10
37.1196085787665
20
-5.12643280339694
30
0
41
1
10
37.5127883385126
20
-5.14826790369486
30
0
41
1
10
37.7747316193272
20
-5.15792615286233
30
0
41
1
10
38.1510926092392
20
-5.1647571983093
30
0
41
1
10
38.2655389241266
20
-5.16589798047784
30
0
41
1
10
38.3799895150694
20
-5.1661016948085
30
0
0
SPLINE
5
FC
100
AcDbEntity
8
1
62
256
6
ByLayer
370
18
48
1
60
0
100
AcDbSpline
70
4
71
3
72
28
73
24
40
0
40
0
40
0
40
0
40
0.0236382758380355
40
0.0236382758380355
40
0.0750257350044569
40
0.177800653337296
40
0.280575571670134
40
0.280575571670134
40
0.331963030836553
40
0.331963030836553
40
0.383350490002973
40
0.383350490002973
40
0.48612540833581
40
0.48612540833581
40
0.588900326668648
40
0.588900326668648
40
0.691675245001487
40
0.691675245001487
40
0.794450163334324
40
0.794450163334324
40
0.897225081667162
40
0.897225081667162
40
1
40
1
40
1
40
1
41
1
10
63.3809428214581
20
3.85386965320197
30
0
41
1
10
63.4411312061753
20
3.87424402887225
30
0
41
1
10
63.501317416366
20
3.89442599167143
30
0
41
1
10
63.6923095273416
20
3.95785181089221
30
0
41
1
10
64.0846130280313
20
4.08536802643192
30
0
41
1
10
64.7380153298187
20
4.28347931508227
30
0
41
1
10
65.2608859923523
20
4.4258562860096
30
0
41
1
10
65.6533184965455
20
4.52633795713066
30
0
41
1
10
65.784159785385
20
4.55877717531189
30
0
41
1
10
66.0457662012002
20
4.62146885397186
30
0
41
1
10
66.1765552117648
20
4.65172776758061
30
0
41
1
10
66.5689324335229
20
4.73919422875287
30
0
41
1
10
66.8306162829932
20
4.79310531507875
30
0
41
1
10
67.353506620848
20
4.89168187582081
30
0
41
1
10
67.6147906110066
20
4.93636623711859
30
0
41
1
10
68.1373541919635
20
5.01632382185392
30
0
41
1
10
68.3986314639621
20
5.05159894216425
30
0
41
1
10
68.9214738706454
20
5.11256501666591
30
0
41
1
10
69.1831194206227
20
5.13825890410899
30
0
41
1
10
69.7061594713497
20
5.17983959408406
30
0
41
1
10
69.9676453969698
20
5.1957396536508
30
0
41
1
10
70.4908238608439
20
5.21767745826435
30
0
41
1
10
70.7523013572745
20
5.22370648398578
30
0
41
1
10
71.0138118340351
20
5.2247863595378
30
0
0
SPLINE
5
FD
100
AcDbEntity
8
1
62
256
6
ByLayer
370
18
48
1
60
0
100
AcDbSpline
70
4
71
3
72
52
73
48
40
0
40
0
40
0
40
0
40
0.0932531368963899
40
0.0932531368963899
40
0.139879705344584
40
0.16319298956868
40
0.16319298956868
40
0.186506273792777
40
0.186506273792777
40
0.233132842240971
40
0.233132842240971
40
0.256446126465069
40
0.256446126465069
40
0.279759410689167
40
0.279759410689167
40
0.373012547585558
40
0.373012547585558
40
0.419639116033754
40
0.419639116033754
40
0.46626568448195
40
0.46626568448195
40
0.559518821378342
40
0.559518821378342
40
0.606145389826538
40
0.606145389826538
40
0.652771958274734
40
0.652771958274734
40
0.699398526722929
40
0.699398526722929
40
0.722711810947027
40
0.722711810947027
40
0.746025095171125
40
0.746025095171125
40
0.792651663619321
40
0.792651663619321
40
0.839278232067517
40
0.839278232067517
40
0.885904800515713
40
0.885904800515713
40
0.932531368963909
40
0.932531368963909
40
0.944188011075958
40
0.944188011075958
40
0.955844653188008
40
0.979157937412105
40
0.979157937412105
40
1
40
1
40
1
40
1
41
1
10
71.0731674135886
20
-0.239664968102858
30
0
41
1
10
70.5485901399975
20
0.016593329529627
30
0
41
1
10
70.0240675886282
20
0.271465403458393
30
0
41
1
10
69.2364031325037
20
0.649666614357102
30
0
41
1
10
68.8423499035408
20
0.837739502305567
30
0
41
1
10
68.4478078038429
20
1.02390017005501
30
0
41
1
10
68.1846531027707
20
1.1475400602645
30
0
41
1
10
68.0530053923172
20
1.20912923830346
30
0
41
1
10
67.658911523709
20
1.39263865917314
30
0
41
1
10
67.3969646972866
20
1.51346921010139
30
0
41
1
10
67.0051656727728
20
1.69208562399862
30
0
41
1
10
66.8747522364277
20
1.75118662258373
30
0
41
1
10
66.614306662151
20
1.86844712304168
30
0
41
1
10
66.4842865600375
20
1.92660965097687
30
0
41
1
10
65.8345113605008
20
2.21470026801151
30
0
41
1
10
65.3154593957859
20
2.43634874387078
30
0
41
1
10
64.5380555967587
20
2.75365214967715
30
0
41
1
10
64.2791196737402
20
2.85690827701728
30
0
41
1
10
63.761634488877
20
3.0577439476798
30
0
41
1
10
63.5031162450256
20
3.15530562672458
30
0
41
1
10
62.7270358049876
20
3.43905397410538
30
0
41
1
10
62.208799171187
20
3.61634219482667
30
0
41
1
10
61.4294168941687
20
3.86166830364402
30
0
41
1
10
61.1692892147752
20
3.9400263582292
30
0
41
1
10
60.6482001616815
20
4.08908728468816
30
0
41
1
10
60.3872596449181
20
4.15972742521666
30
0
41
1
10
59.8639786345134
20
4.29356532540316
30
0
41
1
10
59.6016076689007
20
4.3568270281406
30
0
41
1
10
59.2068845562242
20
4.44565090126099
30
0
41
1
10
59.075327980838
20
4.47419387209729
30
0
41
1
10
58.8124386949381
20
4.5290661346848
30
0
41
1
10
58.6810703816744
20
4.5554044272202
30
0
41
1
10
58.2871441384088
20
4.63108157391898
30
0
41
1
10
58.0247519960441
20
4.6771151770632
30
0
41
1
10
57.5004477245802
20
4.75937251564605
30
0
41
1
10
57.2385662041194
20
4.7955070916752
30
0
41
1
10
56.7142896757777
20
4.85946651365728
30
0
41
1
10
56.4518943126847
20
4.88732556877858
30
0
41
1
10
55.926614566995
20
4.93394064067621
30
0
41
1
10
55.6637391197846
20
4.95268028902169
30
0
41
1
10
55.3347970598215
20
4.96993591605144
30
0
41
1
10
55.2689679006181
20
4.97308025113384
30
0
41
1
10
55.1374199493229
20
4.9787287538019
30
0
41
1
10
54.9402551987521
20
4.98624136907947
30
0
41
1
10
54.7435727875941
20
4.99079389110409
30
0
41
1
10
54.4956523237587
20
4.99391945751989
30
0
41
1
10
54.3788249052131
20
4.99424838226406
30
0
41
1
10
54.2620764184197
20
4.99367695357952
30
0
0
SPLINE
5
FE
100
AcDbEntity
8
1
62
256
6
ByLayer
370
18
48
1
60
0
100
AcDbSpline
70
4
71
3
72
8
73
4
40
0
40
0
40
0
40
0
40
1
40
1
40
1
40
1
41
1
10
71.0710167058931
20
-0.22800890946516
30
0
41
1
10
71.0729136755597
20
-0.228692141794937
30
0
41
1
10
71.0739015067385
20
-0.233914840190039
30
0
41
1
10
71.0731674135696
20
-0.239664968093507
30
0
0
SPLINE
5
FF
100
AcDbEntity
8
1
62
256
6
ByLayer
370
18
48
1
60
0
100
AcDbSpline
70
4
71
3
72
54
73
50
40
0
40
0
40
0
40
0
40
0.0143779992086049
40
0.0143779992086049
40
0.0379484505961369
40
0.0379484505961369
40
0.061518901983669
40
0.0733041276774347
40
0.0733041276774347
40
0.085089353371201
40
0.085089353371201
40
0.132230256146271
40
0.132230256146271
40
0.179371158921341
40
0.179371158921341
40
0.226512061696411
40
0.226512061696411
40
0.273652964471482
40
0.273652964471482
40
0.297223415859018
40
0.297223415859018
40
0.320793867246554
40
0.320793867246554
40
0.367934770021624
40
0.367934770021624
40
0.415075672796695
40
0.415075672796695
40
0.462216575571765
40
0.462216575571765
40
0.556498381121905
40
0.556498381121905
40
0.603639283896977
40
0.603639283896977
40
0.650780186672048
40
0.650780186672048
40
0.745061992222191
40
0.745061992222191
40
0.768632443609726
40
0.768632443609726
40
0.792202894997262
40
0.792202894997262
40
0.839343797772331
40
0.839343797772331
40
0.862914249159865
40
0.862914249159865
40
0.886484700547398
40
0.933625603322464
40
0.933625603322464
40
1
40
1
40
1
40
1
41
1
10
53.981685513801
20
5.00034520236932
30
0
41
1
10
54.0612809701664
20
5.00173473862776
30
0
41
1
10
54.1408968028118
20
5.00273817356592
30
0
41
1
10
54.3510867465345
20
5.00436782502976
30
0
41
1
10
54.4817208877937
20
5.00429356247787
30
0
41
1
10
54.7434787351835
20
5.00127489014014
30
0
41
1
10
54.9401334717671
20
4.99692920938051
30
0
41
1
10
55.1372716405295
20
4.98961653052339
30
0
41
1
10
55.2688021137634
20
4.98409976645391
30
0
41
1
10
55.3346255129818
20
4.981020356416
30
0
41
1
10
55.663539557203
20
4.96408542258524
30
0
41
1
10
55.9263911938443
20
4.94559054457793
30
0
41
1
10
56.4516195920421
20
4.8994395170584
30
0
41
1
10
56.7139873141457
20
4.87179802885206
30
0
41
1
10
57.2382039832457
20
4.8082520195114
30
0
41
1
10
57.5000540462406
20
4.77232012265586
30
0
41
1
10
58.0242968134981
20
4.69045660780273
30
0
41
1
10
58.2866580549365
20
4.64460444484337
30
0
41
1
10
58.6805377511073
20
4.56917890308395
30
0
41
1
10
58.8118905648211
20
4.54292152785524
30
0
41
1
10
59.074748897616
20
4.48820486144325
30
0
41
1
10
59.2062843821321
20
4.45973803687852
30
0
41
1
10
59.6009820799033
20
4.37112277964437
30
0
41
1
10
59.8633319072404
20
4.30798316263272
30
0
41
1
10
60.3865635990392
20
4.17436610313177
30
0
41
1
10
60.6474773367474
20
4.10383057474618
30
0
41
1
10
61.1685104602761
20
3.95495748513642
30
0
41
1
10
61.4286076059308
20
3.87667756887211
30
0
41
1
10
62.2078920326265
20
3.63154299553432
30
0
41
1
10
62.7260565357186
20
3.45432778865836
30
0
41
1
10
63.5020174367332
20
3.17061153058705
30
0
41
1
10
63.7604943854129
20
3.07305278583877
30
0
41
1
10
64.2778974045355
20
2.87220108520043
30
0
41
1
10
64.5367917112427
20
2.76892055143688
30
0
41
1
10
65.314069382933
20
2.45149786494702
30
0
41
1
10
65.8330378727479
20
2.2297131637562
30
0
41
1
10
66.482705780783
20
1.94138570774675
30
0
41
1
10
66.6127038434556
20
1.88317518677584
30
0
41
1
10
66.8731053464527
20
1.76581327344002
30
0
41
1
10
67.0034969503637
20
1.70665680944097
30
0
41
1
10
67.3952317666571
20
1.52786245861782
30
0
41
1
10
67.6571374616977
20
1.40689859496982
30
0
41
1
10
68.0511720043677
20
1.22316642390561
30
0
41
1
10
68.1828007826776
20
1.16149923094201
30
0
41
1
10
68.4459332418047
20
1.03768955405968
30
0
41
1
10
68.8404408198105
20
0.851265131459257
30
0
41
1
10
69.2344559495035
20
0.662901187102278
30
0
41
1
10
69.8666228890368
20
0.358835283163444
30
0
41
1
10
70.2359685558125
20
0.179663364821465
30
0
41
1
10
70.605245000739
20
-0.0004164248562688
30
0
0
SPLINE
5
100
100
AcDbEntity
8
1
62
256
6
ByLayer
370
18
48
1
60
0
100
AcDbSpline
70
4
71
3
72
8
73
4
40
0
40
0
40
0
40
0
40
1
40
1
40
1
40
1
41
1
10
71.0047614305424
20
-0.202930228327773
30
0
41
1
10
71.0268412248576
20
-0.211692907264677
30
0
41
1
10
71.0489235618819
20
-0.220051612877512
30
0
41
1
10
71.0710167058931
20
-0.228008909465189
30
0
0
SPLINE
5
101
100
AcDbEntity
8
1
62
256
6
ByLayer
370
18
48
1
60
0
100
AcDbSpline
70
4
71
3
72
8
73
4
40
0
40
0
40
0
40
0
40
1
40
1
40
1
40
1
41
1
10
20.8948089595341
20
-5.12199979249783
30
0
41
1
10
21.1372763936562
20
-5.13089166588728
30
0
41
1
10
21.3797568493588
20
-5.13552707823342
30
0
41
1
10
21.6223022693134
20
-5.13594888489624
30
0
0
SPLINE
5
102
100
AcDbEntity
8
1
62
256
6
ByLayer
370
18
48
1
60
0
100
AcDbSpline
70
4
71
3
72
65
73
61
40
0
40
0
40
0
40
0
40
0.0363767971817257
40
0.0363767971817257
40
0.0765277639658243
40
0.0765277639658243
40
0.116678730749923
40
0.116678730749923
40
0.136754214141972
40
0.136754214141972
40
0.15682969753402
40
0.15682969753402
40
0.196980664318116
40
0.196980664318116
40
0.237131631102211
40
0.237131631102211
40
0.277282597886306
40
0.277282597886306
40
0.317433564670402
40
0.317433564670402
40
0.337509048062449
40
0.337509048062449
40
0.357584531454497
40
0.357584531454497
40
0.39773549823859
40
0.39773549823859
40
0.437886465022684
40
0.437886465022684
40
0.478037431806778
40
0.478037431806778
40
0.518188398590871
40
0.518188398590871
40
0.538263881982917
40
0.538263881982917
40
0.558339365374963
40
0.558339365374963
40
0.598490332159055
40
0.598490332159055
40
0.638641298943147
40
0.638641298943147
40
0.678792265727239
40
0.678792265727239
40
0.718943232511331
40
0.718943232511331
40
0.739018715903377
40
0.739018715903377
40
0.759094199295424
40
0.759094199295424
40
0.779169682687471
40
0.779169682687471
40
0.799245166079518
40
0.839396132863613
40
0.839396132863613
40
0.859471616255661
40
0.859471616255661
40
0.879547099647709
40
0.879547099647709
40
0.919698066431806
40
0.919698066431806
40
1
40
1
40
1
40
1
41
1
10
51.5235221013924
20
5.00889892770678
30
0
41
1
10
51.7596630551931
20
5.04016609568575
30
0
41
1
10
51.9958036493191
20
5.0674987092265
30
0
41
1
10
52.4927056702091
20
5.11673439551328
30
0
41
1
10
52.7534757203655
20
5.13778431208326
30
0
41
1
10
53.2751856525546
20
5.17027378530261
30
0
41
1
10
53.5361251094169
20
5.18171165204726
30
0
41
1
10
53.9277525012371
20
5.19151924907322
30
0
41
1
10
54.0583910120855
20
5.19356311403303
30
0
41
1
10
54.3193992371524
20
5.19516529019344
30
0
41
1
10
54.4497709789562
20
5.1947210914681
30
0
41
1
10
54.8409264308015
20
5.18968765689109
30
0
41
1
10
55.1016976257109
20
5.1814173037948
30
0
41
1
10
55.6231379634229
20
5.1552290792369
30
0
41
1
10
55.8838107829936
20
5.13730808302429
30
0
41
1
10
56.4051007417433
20
5.0918421157053
30
0
41
1
10
56.6657122447984
20
5.06429662080467
30
0
41
1
10
57.1868523077319
20
4.99942883352915
30
0
41
1
10
57.4473759715902
20
4.96207576981709
30
0
41
1
10
57.8389216659812
20
4.89909962414708
30
0
41
1
10
57.9696195308453
20
4.87694409243949
30
0
41
1
10
58.2308376879876
20
4.83040017367443
30
0
41
1
10
58.3613837836424
20
4.80600851149902
30
0
41
1
10
58.7528287062541
20
4.72948815941982
30
0
41
1
10
59.0135403170599
20
4.67401713080812
30
0
41
1
10
59.5347460439529
20
4.554448298849
30
0
41
1
10
59.7952269932375
20
4.49034601683948
30
0
41
1
10
60.315869743124
20
4.35335907293856
30
0
41
1
10
60.5760649033654
20
4.28048744856881
30
0
41
1
10
61.0971599269258
20
4.12704947382582
30
0
41
1
10
61.3580323106715
20
4.04647030264434
30
0
41
1
10
61.7498588858574
20
3.91986012188599
30
0
41
1
10
61.8805958377359
20
3.8766855733038
30
0
41
1
10
62.1417939070263
20
3.78858964163243
30
0
41
1
10
62.2723045390674
20
3.74365278681435
30
0
41
1
10
62.6635939875189
20
3.60620971114582
30
0
41
1
10
62.9241280922342
20
3.51106885482318
30
0
41
1
10
63.4447090512127
20
3.31396923880362
30
0
41
1
10
63.7047807369579
20
3.21203668718593
30
0
41
1
10
64.2253956390618
20
3.00285646047843
30
0
41
1
10
64.4859125859451
20
2.89558078542467
30
0
41
1
10
65.0073448831498
20
2.6756574106634
30
0
41
1
10
65.2682617827381
20
2.5630115450555
30
0
41
1
10
65.6599688738797
20
2.39002034744021
30
0
41
1
10
65.7906038764366
20
2.33168146364878
30
0
41
1
10
66.0515716097876
20
2.21386807010552
30
0
41
1
10
66.1819572220523
20
2.15437029042059
30
0
41
1
10
66.4425498187752
20
2.03422003855098
30
0
41
1
10
66.5727606093988
20
1.97357357764983
30
0
41
1
10
66.8332623730796
20
1.85160438003237
30
0
41
1
10
67.2241285210483
20
1.66762659632306
30
0
41
1
10
67.6152726605541
20
1.48049401908449
30
0
41
1
10
68.0066817602106
20
1.29142492504147
30
0
41
1
10
68.1371963193043
20
1.22808023154499
30
0
41
1
10
68.3983282414383
20
1.1007718314618
30
0
41
1
10
68.5289858675135
20
1.03678823996998
30
0
41
1
10
68.9208393295158
20
0.844099460342704
30
0
41
1
10
69.1817561764553
20
0.714731176765781
30
0
41
1
10
69.9638073520778
20
0.324403957730112
30
0
41
1
10
70.4842365637382
20
0.0612112281170312
30
0
41
1
10
71.0047614305416
20
-0.202930228328114
30
0
0
SPLINE
5
103
100
AcDbEntity
8
SK1
62
256
6
ByLayer
370
18
48
1
60
0
100
AcDbSpline
70
4
71
3
72
20
73
16
40
0
40
0
40
0
40
0
40
0.223626241021641
40
0.223626241021641
40
0.335439361532461
40
0.335439361532461
40
0.447252482043281
40
0.447252482043281
40
0.670878723064921
40
0.670878723064921
40
0.782691843575739
40
0.782691843575739
40
0.894504964086558
40
0.894504964086558
40
1
40
1
40
1
40
1
41
1
10
-45
20
3.60620742649982
30
0
41
1
10
-45
20
3.58676482635616
30
0
41
1
10
-45
20
3.56540204111761
30
0
41
1
10
-45
20
3.53038228183323
30
0
41
1
10
-45
20
3.51821272053863
30
0
41
1
10
-45
20
3.49322791834572
30
0
41
1
10
-45
20
3.48037110014249
30
0
41
1
10
-45
20
3.44072666110546
30
0
41
1
10
-45
20
3.41286927376242
30
0
41
1
10
-45
20
3.3689399945064
30
0
41
1
10
-45
20
3.35393864808646
30
0
41
1
10
-45
20
3.32320605175246
30
0
41
1
10
-45
20
3.30741640730352
30
0
41
1
10
-45
20
3.27636715406933
30
0
41
1
10
-45
20
3.2611193224063
30
0
41
1
10
-45
20
3.24569942650035
30
0
0
SPLINE
5
104
100
AcDbEntity
8
SK1
62
256
6
ByLayer
370
18
48
1
60
0
100
AcDbSpline
70
4
71
3
72
16
73
12
40
0
40
0
40
0
40
0
40
0.166839457147994
40
0.166839457147994
40
0.375129592860996
40
0.375129592860996
40
0.583419728573997
40
0.583419728573997
40
0.791709864286999
40
0.791709864286999
40
1
40
1
40
1
40
1
41
1
10
-44.7278339452416
20
3.42697245541981
30
0
41
1
10
-44.7399800902478
20
3.43986987702203
30
0
41
1
10
-44.7529916251622
20
3.45217280428005
30
0
41
1
10
-44.7838207403708
20
3.47875442111749
30
0
41
1
10
-44.8017776674148
20
3.4925450916098
30
0
41
1
10
-44.8388229579063
20
3.51858898888798
30
0
41
1
10
-44.8579375572934
20
3.5308571552043
30
0
41
1
10
-44.8971013957907
20
3.55420333667976
30
0
41
1
10
-44.9171522424671
20
3.565279304797
30
0
41
1
10
-44.9580267186516
20
3.58644719514623
30
0
41
1
10
-44.9788757711212
20
3.59654925682222
30
0
41
1
10
-44.9999999999999
20
3.60620742649993
30
0
0
SPLINE
5
105
100
AcDbEntity
8
SK1
62
256
6
ByLayer
370
18
48
1
60
0
100
AcDbSpline
70
4
71
3
72
8
73
4
40
0
40
0
40
0
40
0
40
1
40
1
40
1
40
1
41
1
10
-44.25
20
4.79891145742084
30
0
41
1
10
-44.5004726493888
20
4.57325764833172
30
0
41
1
10
-44.7505581411396
20
4.3472713469171
30
0
41
1
10
-45
20
4.12073229133875
30
0
0
SPLINE
5
106
100
AcDbEntity
8
SK1
62
256
6
ByLayer
370
18
48
1
60
0
100
AcDbSpline
70
4
71
3
72
20
73
16
40
0
40
0
40
0
40
0
40
0.0624999999999995
40
0.0624999999999995
40
0.124999999999999
40
0.124999999999999
40
0.250000000000001
40
0.250000000000001
40
0.375000000000002
40
0.375000000000002
40
0.500000000000004
40
0.500000000000004
40
0.750000000000002
40
0.750000000000002
40
1
40
1
40
1
40
1
41
1
10
-44.15
20
4.85870117424571
30
0
41
1
10
-44.15
20
4.85999429757388
30
0
41
1
10
-44.1502569146169
20
4.86103052613686
30
0
41
1
10
-44.1512466991598
20
4.8626266410958
30
0
41
1
10
-44.1519837129547
20
4.86318067047608
30
0
41
1
10
-44.1547653438365
20
4.8641488050749
30
0
41
1
10
-44.1574101181635
20
4.86390343959985
30
0
41
1
10
-44.1638373738149
20
4.86201315280954
30
0
41
1
10
-44.1675465419207
20
4.86039826203449
30
0
41
1
10
-44.1757372414659
20
4.85613079320839
30
0
41
1
10
-44.1802613014627
20
4.85344605871811
30
0
41
1
10
-44.1944507164524
20
4.84428324674579
30
0
41
1
10
-44.2047953517104
20
4.83670006069684
30
0
41
1
10
-44.226908544871
20
4.81913636877096
30
0
41
1
10
-44.2382901766631
20
4.80946097748298
30
0
41
1
10
-44.25
20
4.79891145742087
30
0
0
SPLINE
5
107
100
AcDbEntity
8
SK1
62
256
6
ByLayer
370
18
48
1
60
0
100
AcDbSpline
70
4
71
3
72
20
73
16
40
0
40
0
40
0
40
0
40
0.249999999999996
40
0.249999999999996
40
0.374999999999997
40
0.374999999999997
40
0.499999999999998
40
0.499999999999998
40
0.624999999999998
40
0.624999999999998
40
0.749999999999999
40
0.749999999999999
40
0.874999999999999
40
0.874999999999999
40
1
40
1
40
1
40
1
41
1
10
-44.25
20
3.85921262115897
30
0
41
1
10
-44.2382877407461
20
3.86976433576785
30
0
41
1
10
-44.226914977972
20
3.8813061343578
30
0
41
1
10
-44.2103576071414
20
3.90010674307843
30
0
41
1
10
-44.2049751381096
20
3.90657356237932
30
0
41
1
10
-44.1946946812026
20
3.91967466913775
30
0
41
1
10
-44.1897650588918
20
3.9263436668343
30
0
41
1
10
-44.1803754339179
20
3.9399450762516
30
0
41
1
10
-44.1758982216171
20
3.94690281767956
30
0
41
1
10
-44.1675998620729
20
3.96103798847133
30
0
41
1
10
-44.1638730040088
20
3.96804960471829
30
0
41
1
10
-44.1574568338975
20
3.98193220871053
30
0
41
1
10
-44.1547730646344
20
3.98882677862892
30
0
41
1
10
-44.1510607548749
20
4.00166482024275
30
0
41
1
10
-44.15
20
4.00777193369268
30
0
41
1
10
-44.15
20
4.01297222161006
30
0
0
SPLINE
5
108
100
AcDbEntity
8
SK1
62
256
6
ByLayer
370
18
48
1
60
0
100
AcDbSpline
70
4
71
3
72
8
73
4
40
0
40
0
40
0
40
0
40
1
40
1
40
1
40
1
41
1
10
-45
20
3.18103345507691
30
0
41
1
10
-44.7505643339191
20
3.40756688647318
30
0
41
1
10
-44.5004707419276
20
3.6335605305245
30
0
41
1
10
-44.25
20
3.859212621159
30
0
0
SPLINE
5
109
100
AcDbEntity
8
1
62
256
6
ByLayer
370
18
48
1
60
0
100
AcDbSpline
70
4
71
3
72
25
73
21
40
0
40
0
40
0
40
0
40
2.47702224837E-05
40
0.0002465784881335
40
0.0004304075779114
40
0.0026816290055826
40
0.0110706041486631
40
0.027849044961428
40
0.115254445452545
40
0.203464107204421
40
0.292245553906471
40
0.391629358811712
40
0.47540741878322
40
0.564612902990528
40
0.687843535423245
40
0.798512668096779
40
0.845284468391651
40
0.895383078318853
40
0.959563287749755
40
1
40
1
40
1
40
1
41
1
10
41.5698204314209
20
0.0975539038634565
30
0
41
1
10
41.5697919346183
20
0.0975621911910309
30
0
41
1
10
41.5694825621217
20
0.0976517047270136
30
0
41
1
10
41.5683881948902
20
0.0979558645546206
30
0
41
1
10
41.5632432762913
20
0.0993927260919634
30
0
41
1
10
41.5365778583496
20
0.106595136842287
30
0
41
1
10
41.4618584786716
20
0.126297363230236
30
0
41
1
10
41.1528345512675
20
0.208418799341672
30
0
41
1
10
40.6186535571894
20
0.354353946733994
30
0
41
1
10
39.8904919497701
20
0.563257954258262
30
0
41
1
10
39.1311174358413
20
0.791267079390082
30
0
41
1
10
38.3867522157803
20
1.02540297378422
30
0
41
1
10
37.6438206381677
20
1.26933670236019
30
0
41
1
10
36.8393052622644
20
1.54393368687849
30
0
41
1
10
35.9660720221252
20
1.85582063863774
30
0
41
1
10
35.2118136786405
20
2.1382952933522
30
0
41
1
10
34.6560681646718
20
2.35279945796566
30
0
41
1
10
34.2258322709035
20
2.52205141722874
30
0
41
1
10
33.813529303597
20
2.68710931465105
30
0
41
1
10
33.5358919987832
20
2.80157040713468
30
0
41
1
10
33.4287218028424
20
2.84616270044799
30
0
0
SPLINE
5
10A
100
AcDbEntity
8
1
62
256
6
ByLayer
370
18
48
1
60
0
100
AcDbSpline
70
4
71
3
72
18
73
14
40
0
40
0
40
0
40
0
40
0.102630865478626
40
0.215328532422505
40
0.33509100628897
40
0.468345035367903
40
0.513505980021459
40
0.550643163828354
40
0.580386338018713
40
0.623592196172337
40
0.717899700682822
40
0.854192064998215
40
1
40
1
40
1
40
1
41
1
10
71.1666794611058
20
0.985723372463696
30
0
41
1
10
70.9847657928327
20
1.04321795790517
30
0
41
1
10
70.6036664995591
20
1.16585956244558
30
0
41
1
10
70.0126200176339
20
1.36403036637989
30
0
41
1
10
69.3694232986705
20
1.58637674100274
30
0
41
1
10
68.8469113822948
20
1.77349981170494
30
0
41
1
10
68.4701482676887
20
1.91161814634
30
0
41
1
10
68.2745474329287
20
1.98409508869497
30
0
41
1
10
68.0825326317554
20
2.05585680698317
30
0
41
1
10
67.7912035093084
20
2.16574356494456
30
0
41
1
10
67.3153387436029
20
2.34840566559279
30
0
41
1
10
66.6633632013835
20
2.60544939430923
30
0
41
1
10
66.1772481551125
20
2.80455912590256
30
0
41
1
10
65.9266204097706
20
2.90911042801719
30
0
0
SPLINE
5
10B
100
AcDbEntity
8
1
62
256
6
ByLayer
370
18
48
1
60
0
100
AcDbSpline
70
4
71
3
72
30
73
26
40
0
40
0
40
0
40
0
40
0.0716660120748685
40
0.128265594247728
40
0.169820370881618
40
0.201719028908653
40
0.227422994160872
40
0.255660607126
40
0.285410640141994
40
0.315984050870055
40
0.346989808631142
40
0.374380331086028
40
0.426475240695901
40
0.494845017458327
40
0.557055554737308
40
0.625242030079661
40
0.673736372231422
40
0.715241457809517
40
0.77042525384396
40
0.823911946071195
40
0.873275119730254
40
0.913640617796438
40
0.955183196894698
40
0.999917487511993
40
1
40
1
40
1
40
1
41
1
10
39.664826181043
20
-4.96978553982058
30
0
41
1
10
39.9480654235821
20
-4.97021030925777
30
0
41
1
10
40.4550382372009
20
-4.97102503790748
30
0
41
1
10
41.1263821568962
20
-4.97245597706748
30
0
41
1
10
41.6405312392911
20
-4.97333114804448
30
0
41
1
10
42.0324523827545
20
-4.97387613797835
30
0
41
1
10
42.3717447772381
20
-4.97429218829029
30
0
41
1
10
42.7026012604878
20
-4.97469351783852
30
0
41
1
10
43.0527024679271
20
-4.97514772776665
30
0
41
1
10
43.4137495378803
20
-4.97587884504651
30
0
41
1
10
43.7654672474774
20
-4.97693715684986
30
0
41
1
10
44.2022651821936
20
-4.97810591201082
30
0
41
1
10
44.7867721689836
20
-4.97881046942345
30
0
41
1
10
45.5089331346561
20
-4.97923881908989
30
0
41
1
10
46.294709066884
20
-4.97992497484935
30
0
41
1
10
47.0019028157398
20
-4.98331141806432
30
0
41
1
10
47.6272513143913
20
-4.98402752514366
30
0
41
1
10
48.2011963997319
20
-4.98435356646746
30
0
41
1
10
48.7948785819726
20
-4.98409940130384
30
0
41
1
10
49.4196239810483
20
-4.98507770443507
30
0
41
1
10
49.9857863889787
20
-4.98669894540467
30
0
41
1
10
50.5047377914709
20
-4.98763616418208
30
0
41
1
10
51.0053689353674
20
-4.98914600206047
30
0
41
1
10
51.3468031969877
20
-4.99013781702334
30
0
41
1
10
51.5239386116731
20
-4.99045998323351
30
0
41
1
10
51.5242647365744
20
-4.99046057572357
30
0
0
SPLINE
5
10C
100
AcDbEntity
8
1
62
256
6
ByLayer
370
18
48
1
60
0
100
AcDbSpline
70
4
71
2
72
6
73
3
40
0
40
0
40
0
40
1
40
1
40
1
41
1
10
21.6077201507691
20
4.93918070991447
30
0
41
1
10
21.2284009338587
20
4.93852278773628
30
0
41
1
10
20.8507052933232
20
4.93378275837318
30
0
0
SPLINE
5
10D
100
AcDbEntity
8
1
62
256
6
ByLayer
370
18
48
1
60
0
100
AcDbSpline
70
4
71
3
72
31
73
27
40
0
40
0
40
0
40
0
40
0.0513562224491607
40
0.0933216372779431
40
0.129480846305225
40
0.16323654293323
40
0.195291974687671
40
0.241296528048507
40
0.293512847137469
40
0.340723772168388
40
0.376227153379551
40
0.414154913068349
40
0.463771776829377
40
0.50944027708882
40
0.556011513716875
40
0.601354440530362
40
0.65035826316101
40
0.699557123633617
40
0.745499541075423
40
0.792571349899685
40
0.842510444704934
40
0.880212645129801
40
0.907208494287691
40
0.939336781907075
40
0.974671966569205
40
1
40
1
40
1
40
1
41
1
10
54.2786790841317
20
4.99376481523478
30
0
41
1
10
54.0833558961962
20
4.99198538240177
30
0
41
1
10
53.7258367957826
20
4.98982663420205
30
0
41
1
10
53.2096584968518
20
4.98875102390065
30
0
41
1
10
52.7808082791687
20
4.99105258149135
30
0
41
1
10
52.3807629297451
20
4.99103710832986
30
0
41
1
10
51.9405710118321
20
4.99100943907078
30
0
41
1
10
51.4278542749033
20
4.99049506033026
30
0
41
1
10
50.8554579283617
20
4.98859635903045
30
0
41
1
10
50.3243189518496
20
4.98729888015527
30
0
41
1
10
49.8498332998244
20
4.98633990217627
30
0
41
1
10
49.3654133665366
20
4.98493094499048
30
0
41
1
10
48.8413064696703
20
4.98416918454063
30
0
41
1
10
48.2829701659522
20
4.98433981319482
30
0
41
1
10
47.7414583679051
20
4.98409707930216
30
0
41
1
10
47.1868167697339
20
4.98366437296892
30
0
41
1
10
46.6218397466938
20
4.98142477365877
30
0
41
1
10
46.05450125178
20
4.97970429062795
30
0
41
1
10
45.4947629854846
20
4.97924562024997
30
0
41
1
10
44.9321107621844
20
4.97888743071655
30
0
41
1
10
44.4018953703939
20
4.9783955504974
30
0
41
1
10
43.9506890085674
20
4.97749703495808
30
0
41
1
10
43.569606601462
20
4.97632487539386
30
0
41
1
10
43.1978517611237
20
4.97537280310908
30
0
41
1
10
42.8330031099899
20
4.97480760873978
30
0
41
1
10
42.593783466983
20
4.97453105337294
30
0
41
1
10
42.4943360026198
20
4.97442295585722
30
0
0
LINE
5
82
100
AcDbEntity
8
81
62
256
6
ByLayer
370
18
48
1
60
0
100
AcDbLine
10
73
20
0
30
0
11
76
21
0
31
0
39
0
210
0
220
0
230
1
0
LINE
5
83
100
AcDbEntity
8
80
62
256
6
ByLayer
370
18
48
1
60
0
100
AcDbLine
10
0
20
0
30
0
11
-3
21
0
31
0
39
0
210
0
220
0
230
1
0
LINE
5
84
100
AcDbEntity
8
SK4
62
256
6
ByLayer
370
18
48
0.05
60
0
100
AcDbLine
10
-48
20
0
30
0
11
76
21
0
31
0
39
0
210
0
220
0
230
1
0
LINE
5
86
100
AcDbEntity
8
4
62
256
6
ByLayer
370
18
48
0.05
60
0
100
AcDbLine
10
0
20
0
30
0
11
73
21
0
31
0
39
0
210
0
220
0
230
1
0
LINE
5
88
100
AcDbEntity
8
1
62
256
6
ByLayer
370
18
48
1
60
0
100
AcDbLine
10
0
20
6
30
0
11
0
21
-6
31
0
39
0
210
0
220
0
230
1
0
LINE
5
89
100
AcDbEntity
8
1
62
256
6
ByLayer
370
13
48
1
60
0
100
AcDbLine
10
72.884556
20
0.535898
30
0
11
71.780018
21
1.644613
31
0
39
0
210
0
220
0
230
1
0
LINE
5
8A
100
AcDbEntity
8
1
62
256
6
ByLayer
370
13
48
1
60
0
100
AcDbLine
10
0.71947
20
-5.549805
30
0
11
0.71947
21
5.549805
31
0
39
0
210
0
220
0
230
1
0
LINE
5
8B
100
AcDbEntity
8
1
62
256
6
ByLayer
370
18
48
1
60
0
100
AcDbLine
10
20.750261
20
5.134368
30
0
11
20.750261
21
1.324728
31
0
39
0
210
0
220
0
230
1
0
LINE
5
8C
100
AcDbEntity
8
1
62
256
6
ByLayer
370
18
48
1
60
0
100
AcDbLine
10
20.750261
20
-5.127237
30
0
11
20.750261
21
-5.134368
31
0
39
0
210
0
220
0
230
1
0
LINE
5
8D
100
AcDbEntity
8
1
62
256
6
ByLayer
370
18
48
1
60
0
100
AcDbLine
10
20.750261
20
0.633842
30
0
11
20.750261
21
0.556381
31
0
39
0
210
0
220
0
230
1
0
LINE
5
8E
100
AcDbEntity
8
1
62
256
6
ByLayer
370
13
48
1
60
0
100
AcDbLine
10
1.44038
20
-5.09961
30
0
11
1.44038
21
5.09961
31
0
39
0
210
0
220
0
230
1
0
LINE
5
8F
100
AcDbEntity
8
SK1
62
256
6
ByLayer
370
18
48
1
60
0
100
AcDbLine
10
-45
20
4.120732
30
0
11
-45
21
3.606207
31
0
39
0
210
0
220
0
230
1
0
LINE
5
91
100
AcDbEntity
8
SK1
62
256
6
ByLayer
370
13
48
1
60
0
100
AcDbLine
10
-44.25
20
3.859099
30
0
11
-44.25
21
4.798911
31
0
39
0
210
0
220
0
230
1
0
LINE
5
92
100
AcDbEntity
8
SK1
62
256
6
ByLayer
370
18
48
1
60
0
100
AcDbLine
10
-44.15
20
4.012972
30
0
11
-44.15
21
4.858701
31
0
39
0
210
0
220
0
230
1
0
LINE
5
93
100
AcDbEntity
8
SK1
62
256
6
ByLayer
370
18
48
1
60
0
100
AcDbLine
10
-45
20
-4.255
30
0
11
-45
21
3.181033
31
0
39
0
210
0
220
0
230
1
0
LINE
5
94
100
AcDbEntity
8
SK1
62
256
6
ByLayer
370
18
48
1
60
0
100
AcDbLine
10
-45
20
4.120732
30
0
11
-45
21
4.255
31
0
39
0
210
0
220
0
230
1
0
LINE
5
95
100
AcDbEntity
8
SK1
62
256
6
ByLayer
370
18
48
1
60
0
100
AcDbLine
10
-43.255
20
-6
30
0
11
-43.255
21
6
31
0
39
0
210
0
220
0
230
1
0
LINE
5
96
100
AcDbEntity
8
SK1
62
256
6
ByLayer
370
18
48
1
60
0
100
AcDbLine
10
0
20
6
30
0
11
0
21
-6
31
0
39
0
210
0
220
0
230
1
0
LINE
5
97
100
AcDbEntity
8
1
62
256
6
ByLayer
370
18
48
1
60
0
100
AcDbLine
10
1.44038
20
-5.09961
30
0
11
4.759682
21
-5.105585
31
0
39
0
210
0
220
0
230
1
0
LINE
5
98
100
AcDbEntity
8
1
62
256
6
ByLayer
370
18
48
1
60
0
100
AcDbLine
10
4.759682
20
-5.105585
30
0
11
20.750261
21
-5.134368
31
0
39
0
210
0
220
0
230
1
0
LINE
5
99
100
AcDbEntity
8
1
62
256
6
ByLayer
370
18
48
1
60
0
100
AcDbLine
10
21.622493
20
-5.135938
30
0
11
23.201073
21
-5.13878
31
0
39
0
210
0
220
0
230
1
0
LINE
5
9A
100
AcDbEntity
8
1
62
256
6
ByLayer
370
18
48
1
60
0
100
AcDbLine
10
38.379457
20
-5.166101
30
0
11
39.66177
21
-5.168409
31
0
39
0
210
0
220
0
230
1
0
LINE
5
9B
100
AcDbEntity
8
1
62
256
6
ByLayer
370
18
48
1
60
0
100
AcDbLine
10
54.278567
20
-5.194719
30
0
11
55.772412
21
-5.197408
31
0
39
0
210
0
220
0
230
1
0
LINE
5
9C
100
AcDbEntity
8
1
62
256
6
ByLayer
370
18
48
1
60
0
100
AcDbLine
10
55.772412
20
5.197408
30
0
11
54.278567
21
5.194719
31
0
39
0
210
0
220
0
230
1
0
LINE
5
9D
100
AcDbEntity
8
1
62
256
6
ByLayer
370
18
48
1
60
0
100
AcDbLine
10
39.66177
20
5.168409
30
0
11
38.379457
21
5.166101
31
0
39
0
210
0
220
0
230
1
0
LINE
5
9E
100
AcDbEntity
8
1
62
256
6
ByLayer
370
18
48
1
60
0
100
AcDbLine
10
23.201073
20
5.13878
30
0
11
21.622493
21
5.135938
31
0
39
0
210
0
220
0
230
1
0
LINE
5
9F
100
AcDbEntity
8
1
62
256
6
ByLayer
370
18
48
1
60
0
100
AcDbLine
10
20.750261
20
5.134368
30
0
11
4.759682
21
5.105585
31
0
39
0
210
0
220
0
230
1
0
LINE
5
A0
100
AcDbEntity
8
1
62
256
6
ByLayer
370
18
48
1
60
0
100
AcDbLine
10
4.759682
20
5.105585
30
0
11
1.44038
21
5.09961
31
0
39
0
210
0
220
0
230
1
0
LINE
5
A1
100
AcDbEntity
8
SK1
62
256
6
ByLayer
370
18
48
1
60
0
100
AcDbLine
10
-45
20
-4.255
30
0
11
-43.255
21
-6
31
0
39
0
210
0
220
0
230
1
0
LINE
5
A2
100
AcDbEntity
8
SK1
62
256
6
ByLayer
370
18
48
1
60
0
100
AcDbLine
10
-43.255
20
6
30
0
11
-45
21
4.255
31
0
39
0
210
0
220
0
230
1
0
LINE
5
A3
100
AcDbEntity
8
SK1
62
256
6
ByLayer
370
18
48
1
60
0
100
AcDbLine
10
-43.255
20
-6
30
0
11
0
21
-6
31
0
39
0
210
0
220
0
230
1
0
LINE
5
A4
100
AcDbEntity
8
SK1
62
256
6
ByLayer
370
18
48
1
60
0
100
AcDbLine
10
0
20
6
30
0
11
-43.255
21
6
31
0
39
0
210
0
220
0
230
1
0
LINE
5
A5
100
AcDbEntity
8
2
62
256
6
ByLayer
370
13
48
1
60
0
100
AcDbLine
10
80.5
20
-5.225
30
0
11
80.5
21
33.573741
31
0
39
0
210
0
220
0
230
1
0
LINE
5
A7
100
AcDbEntity
8
2
62
256
6
ByLayer
370
13
48
1
60
0
100
AcDbLine
10
74.5875
20
5.225
30
0
11
82.5
21
5.225
31
0
39
0
210
0
220
0
230
1
0
LINE
5
A8
100
AcDbEntity
8
2
62
256
6
ByLayer
370
13
48
1
60
0
100
AcDbLine
10
74.5875
20
-5.225
30
0
11
82.5
21
-5.225
31
0
39
0
210
0
220
0
230
1
0
LINE
5
A9
100
AcDbEntity
8
1
62
256
6
ByLayer
370
18
48
1
60
1
100
AcDbLine
10
80.5
20
5.225
30
0
11
80.960784
21
1.725002
31
0
39
0
210
0
220
0
230
1
0
LINE
5
AA
100
AcDbEntity
8
1
62
256
6
ByLayer
370
18
48
1
60
1
100
AcDbLine
10
80.960784
20
1.725002
30
0
11
80.039216
21
1.724998
31
0
39
0
210
0
220
0
230
1
0
LINE
5
AB
100
AcDbEntity
8
1
62
256
6
ByLayer
370
18
48
1
60
1
100
AcDbLine
10
80.039216
20
1.724998
30
0
11
80.5
21
5.225
31
0
39
0
210
0
220
0
230
1
0
LINE
5
AC
100
AcDbEntity
8
1
62
256
6
ByLayer
370
18
48
1
60
1
100
AcDbLine
10
80.5
20
-5.225
30
0
11
80.039216
21
-1.725002
31
0
39
0
210
0
220
0
230
1
0
LINE
5
AD
100
AcDbEntity
8
1
62
256
6
ByLayer
370
18
48
1
60
1
100
AcDbLine
10
80.039216
20
-1.725002
30
0
11
80.960784
21
-1.724998
31
0
39
0
210
0
220
0
230
1
0
LINE
5
AE
100
AcDbEntity
8
1
62
256
6
ByLayer
370
18
48
1
60
1
100
AcDbLine
10
80.960784
20
-1.724998
30
0
11
80.5
21
-5.225
31
0
39
0
210
0
220
0
230
1
0
LINE
5
AF
100
AcDbEntity
8
SK2
62
256
6
ByLayer
370
13
48
1
60
0
100
AcDbLine
10
-53.5
20
-6
30
0
11
-53.5
21
15.333771
31
0
39
0
210
0
220
0
230
1
0
LINE
5
B1
100
AcDbEntity
8
SK2
62
256
6
ByLayer
370
13
48
1
60
0
100
AcDbLine
10
-46.5875
20
6
30
0
11
-55.5
21
6
31
0
39
0
210
0
220
0
230
1
0
LINE
5
B2
100
AcDbEntity
8
SK2
62
256
6
ByLayer
370
13
48
1
60
0
100
AcDbLine
10
-46.5875
20
-6
30
0
11
-55.5
21
-6
31
0
39
0
210
0
220
0
230
1
0
LINE
5
B3
100
AcDbEntity
8
1
62
256
6
ByLayer
370
18
48
1
60
1
100
AcDbLine
10
-53.5
20
6
30
0
11
-53.039216
21
2.500002
31
0
39
0
210
0
220
0
230
1
0
LINE
5
B4
100
AcDbEntity
8
1
62
256
6
ByLayer
370
18
48
1
60
1
100
AcDbLine
10
-53.039216
20
2.500002
30
0
11
-53.960784
21
2.499998
31
0
39
0
210
0
220
0
230
1
0
LINE
5
B5
100
AcDbEntity
8
1
62
256
6
ByLayer
370
18
48
1
60
1
100
AcDbLine
10
-53.960784
20
2.499998
30
0
11
-53.5
21
6
31
0
39
0
210
0
220
0
230
1
0
LINE
5
B6
100
AcDbEntity
8
1
62
256
6
ByLayer
370
18
48
1
60
1
100
AcDbLine
10
-53.5
20
-6
30
0
11
-53.960784
21
-2.500002
31
0
39
0
210
0
220
0
230
1
0
LINE
5
B7
100
AcDbEntity
8
1
62
256
6
ByLayer
370
18
48
1
60
1
100
AcDbLine
10
-53.960784
20
-2.500002
30
0
11
-53.039216
21
-2.499998
31
0
39
0
210
0
220
0
230
1
0
LINE
5
B8
100
AcDbEntity
8
1
62
256
6
ByLayer
370
18
48
1
60
1
100
AcDbLine
10
-53.039216
20
-2.499998
30
0
11
-53.5
21
-6
31
0
39
0
210
0
220
0
230
1
0
LINE
5
B9
100
AcDbEntity
8
SK2
62
256
6
ByLayer
370
13
48
1
60
0
100
AcDbLine
10
73.543021
20
1.491739
30
0
11
80.950335
21
21.84043
31
0
39
0
210
0
220
0
230
1
0
LINE
5
BA
100
AcDbEntity
8
SK2
62
256
6
ByLayer
370
13
48
1
60
0
100
AcDbLine
10
73.543021
20
-1.491739
30
0
11
80.950335
21
-21.84043
31
0
39
0
210
0
220
0
230
1
0
LINE
5
BB
100
AcDbEntity
8
1
62
256
6
ByLayer
370
18
48
1
60
1
100
AcDbLine
10
80.266213
20
19.961074
30
0
11
83.67839
21
19.055891
31
0
39
0
210
0
220
0
230
1
0
LINE
5
BC
100
AcDbEntity
8
1
62
256
6
ByLayer
370
18
48
1
60
1
100
AcDbLine
10
83.67839
20
19.055891
30
0
11
83.327848
21
18.203597
31
0
39
0
210
0
220
0
230
1
0
LINE
5
BD
100
AcDbEntity
8
1
62
256
6
ByLayer
370
18
48
1
60
1
100
AcDbLine
10
83.327848
20
18.203597
30
0
11
80.266213
21
19.961074
31
0
39
0
210
0
220
0
230
1
0
LINE
5
BE
100
AcDbEntity
8
1
62
256
6
ByLayer
370
18
48
1
60
1
100
AcDbLine
10
80.266213
20
-19.961074
30
0
11
83.327844
21
-18.203598
31
0
39
0
210
0
220
0
230
1
0
LINE
5
BF
100
AcDbEntity
8
1
62
256
6
ByLayer
370
18
48
1
60
1
100
AcDbLine
10
83.327844
20
-18.203598
30
0
11
83.678393
21
-19.05589
31
0
39
0
210
0
220
0
230
1
0
LINE
5
C0
100
AcDbEntity
8
1
62
256
6
ByLayer
370
18
48
1
60
1
100
AcDbLine
10
83.678393
20
-19.05589
30
0
11
80.266213
21
-19.961074
31
0
39
0
210
0
220
0
230
1
0
LINE
5
10E
100
AcDbEntity
8
1
62
256
6
ByLayer
370
13
48
0.05
60
0
100
AcDbLine
10
-51.5
20
0
30
0
11
77.605309
21
0
31
0
39
0
210
0
220
0
230
1
0
LINE
5
113
100
AcDbEntity
8
1
62
256
6
ByLayer
370
18
48
1
60
1
100
AcDbLine
10
80.5
20
5.225
30
0
11
80.960784
21
1.725002
31
0
39
0
210
0
220
0
230
1
0
LINE
5
114
100
AcDbEntity
8
1
62
256
6
ByLayer
370
18
48
1
60
1
100
AcDbLine
10
80.960784
20
1.725002
30
0
11
80.039216
21
1.724998
31
0
39
0
210
0
220
0
230
1
0
LINE
5
115
100
AcDbEntity
8
1
62
256
6
ByLayer
370
18
48
1
60
1
100
AcDbLine
10
80.039216
20
1.724998
30
0
11
80.5
21
5.225
31
0
39
0
210
0
220
0
230
1
0
LINE
5
117
100
AcDbEntity
8
1
62
256
6
ByLayer
370
18
48
1
60
1
100
AcDbLine
10
80.5
20
-5.225
30
0
11
80.039216
21
-1.725002
31
0
39
0
210
0
220
0
230
1
0
LINE
5
118
100
AcDbEntity
8
1
62
256
6
ByLayer
370
18
48
1
60
1
100
AcDbLine
10
80.039216
20
-1.725002
30
0
11
80.960784
21
-1.724998
31
0
39
0
210
0
220
0
230
1
0
LINE
5
119
100
AcDbEntity
8
1
62
256
6
ByLayer
370
18
48
1
60
1
100
AcDbLine
10
80.960784
20
-1.724998
30
0
11
80.5
21
-5.225
31
0
39
0
210
0
220
0
230
1
0
LINE
5
11D
100
AcDbEntity
8
1
62
256
6
ByLayer
370
18
48
1
60
1
100
AcDbLine
10
-53.5
20
6
30
0
11
-53.039216
21
2.500002
31
0
39
0
210
0
220
0
230
1
0
LINE
5
11E
100
AcDbEntity
8
1
62
256
6
ByLayer
370
18
48
1
60
1
100
AcDbLine
10
-53.039216
20
2.500002
30
0
11
-53.960784
21
2.499998
31
0
39
0
210
0
220
0
230
1
0
LINE
5
11F
100
AcDbEntity
8
1
62
256
6
ByLayer
370
18
48
1
60
1
100
AcDbLine
10
-53.960784
20
2.499998
30
0
11
-53.5
21
6
31
0
39
0
210
0
220
0
230
1
0
LINE
5
121
100
AcDbEntity
8
1
62
256
6
ByLayer
370
18
48
1
60
1
100
AcDbLine
10
-53.5
20
-6
30
0
11
-53.960784
21
-2.500002
31
0
39
0
210
0
220
0
230
1
0
LINE
5
122
100
AcDbEntity
8
1
62
256
6
ByLayer
370
18
48
1
60
1
100
AcDbLine
10
-53.960784
20
-2.500002
30
0
11
-53.039216
21
-2.499998
31
0
39
0
210
0
220
0
230
1
0
LINE
5
123
100
AcDbEntity
8
1
62
256
6
ByLayer
370
18
48
1
60
1
100
AcDbLine
10
-53.039216
20
-2.499998
30
0
11
-53.5
21
-6
31
0
39
0
210
0
220
0
230
1
0
LINE
5
126
100
AcDbEntity
8
1
62
256
6
ByLayer
370
18
48
1
60
1
100
AcDbLine
10
80.266213
20
19.961074
30
0
11
83.67839
21
19.055891
31
0
39
0
210
0
220
0
230
1
0
LINE
5
127
100
AcDbEntity
8
1
62
256
6
ByLayer
370
18
48
1
60
1
100
AcDbLine
10
83.67839
20
19.055891
30
0
11
83.327848
21
18.203597
31
0
39
0
210
0
220
0
230
1
0
LINE
5
128
100
AcDbEntity
8
1
62
256
6
ByLayer
370
18
48
1
60
1
100
AcDbLine
10
83.327848
20
18.203597
30
0
11
80.266213
21
19.961074
31
0
39
0
210
0
220
0
230
1
0
LINE
5
12A
100
AcDbEntity
8
1
62
256
6
ByLayer
370
18
48
1
60
1
100
AcDbLine
10
80.266213
20
-19.961074
30
0
11
83.327844
21
-18.203598
31
0
39
0
210
0
220
0
230
1
0
LINE
5
12B
100
AcDbEntity
8
1
62
256
6
ByLayer
370
18
48
1
60
1
100
AcDbLine
10
83.327844
20
-18.203598
30
0
11
83.678393
21
-19.05589
31
0
39
0
210
0
220
0
230
1
0
LINE
5
12C
100
AcDbEntity
8
1
62
256
6
ByLayer
370
18
48
1
60
1
100
AcDbLine
10
83.678393
20
-19.05589
30
0
11
80.266213
21
-19.961074
31
0
39
0
210
0
220
0
230
1
0
MTEXT
5
10F
100
AcDbEntity
8
2
62
256
6
ByLayer
370
18
48
1
60
0
100
AcDbMText
10
79.158886
20
18.883437
30
0
210
0
220
0
230
1
1
%%c
40
3
41
0
44
1.084337
50
90
71
7
72
5
7
iso_b_vert
0
MTEXT
5
112
100
AcDbEntity
8
2
62
256
6
ByLayer
370
18
48
1
60
0
100
AcDbMText
10
79.158886
20
24.86
30
0
210
0
220
0
230
1
1
\W0.7091;10.45
40
3
41
0
44
1.084337
50
90
71
7
72
5
7
iso_b_vert
0
MTEXT
5
11B
100
AcDbEntity
8
SK2
62
256
6
ByLayer
370
18
48
1
60
0
100
AcDbMText
10
-54.841114
20
6.658437
30
0
210
0
220
0
230
1
1
%%c
40
3
41
0
44
1.084337
50
90
71
7
72
5
7
iso_b_vert
0
MTEXT
5
11C
100
AcDbEntity
8
SK2
62
256
6
ByLayer
370
18
48
1
60
0
100
AcDbMText
10
-54.841114
20
12.635
30
0
210
0
220
0
230
1
1
\W0.5321;12
40
3
41
0
44
1.084337
50
90
71
7
72
5
7
iso_b_vert
0
MTEXT
5
125
100
AcDbEntity
8
SK2
62
256
6
ByLayer
370
18
48
1
60
0
100
AcDbMText
10
90.801809
20
-2.114886
30
0
210
0
220
0
230
1
1
\W0.7071;140%%d
40
3
41
0
44
1.084337
50
0
71
7
72
5
7
iso_b_vert
0
MTEXT
5
12E
100
AcDbEntity
8
SK6
62
256
6
ByLayer
370
18
48
1
60
0
100
AcDbMText
10
-9.610478
20
-84.87772
30
0
210
0
220
0
230
1
1
\W0.7502;860.1-1045-054A1-SD S2BM
40
3
41
0
44
1.084337
50
0
71
7
72
5
7
iso_b_vert
0
HATCH
5
116
100
AcDbEntity
8
2
62
256
6
ByLayer
370
13
48
1
60
0
100
AcDbHatch
10
0
20
0
30
0
210
0
220
0
230
1
2
ANSI31
70
0
71
0
91
1
92
5
93
3
72
1
10
80.5
20
5.22499999999999
11
80.9607837415528
21
1.72500169255318
72
1
10
80.9607837415528
20
1.72500169255318
11
80.0392162584472
21
1.72499830744681
72
1
10
80.0392162584472
20
1.72499830744681
11
80.5
21
5.22499999999999
97
0
75
0
76
1
52
0
41
0.0062
77
0
78
1
53
45
43
0
44
0
45
-0.0139193969876572
46
0.0139193969876572
79
0
47
0
98
1
10
0
20
0
0
HATCH
5
11A
100
AcDbEntity
8
2
62
256
6
ByLayer
370
13
48
1
60
0
100
AcDbHatch
10
0
20
0
30
0
210
0
220
0
230
1
2
ANSI31
70
0
71
0
91
1
92
5
93
3
72
1
10
80.5
20
-5.22499999999999
11
80.0392162584472
21
-1.72500169255318
72
1
10
80.0392162584472
20
-1.72500169255318
11
80.9607837415528
21
-1.72499830744681
72
1
10
80.9607837415528
20
-1.72499830744681
11
80.5
21
-5.22499999999999
97
0
75
0
76
1
52
0
41
0.0062
77
0
78
1
53
45
43
0
44
0
45
-0.0139193969876572
46
0.0139193969876572
79
0
47
0
98
1
10
0
20
0
0
HATCH
5
120
100
AcDbEntity
8
SK2
62
256
6
ByLayer
370
13
48
1
60
0
100
AcDbHatch
10
0
20
0
30
0
210
0
220
0
230
1
2
ANSI31
70
0
71
0
91
1
92
5
93
3
72
1
10
-53.5
20
6
11
-53.0392162584472
21
2.50000169255318
72
1
10
-53.0392162584472
20
2.50000169255318
11
-53.9607837415528
21
2.49999830744682
72
1
10
-53.9607837415528
20
2.49999830744682
11
-53.5
21
6
97
0
75
0
76
1
52
0
41
0.0062
77
0
78
1
53
45
43
0
44
0
45
-0.0139193969876572
46
0.0139193969876572
79
0
47
0
98
1
10
0
20
0
0
HATCH
5
124
100
AcDbEntity
8
SK2
62
256
6
ByLayer
370
13
48
1
60
0
100
AcDbHatch
10
0
20
0
30
0
210
0
220
0
230
1
2
ANSI31
70
0
71
0
91
1
92
5
93
3
72
1
10
-53.5
20
-6
11
-53.9607837415528
21
-2.50000169255318
72
1
10
-53.9607837415528
20
-2.50000169255318
11
-53.0392162584472
21
-2.49999830744682
72
1
10
-53.0392162584472
20
-2.49999830744682
11
-53.5
21
-6
97
0
75
0
76
1
52
0
41
0.0062
77
0
78
1
53
45
43
0
44
0
45
-0.0139193969876572
46
0.0139193969876572
79
0
47
0
98
1
10
0
20
0
0
HATCH
5
129
100
AcDbEntity
8
SK2
62
256
6
ByLayer
370
13
48
1
60
0
100
AcDbHatch
10
0
20
0
30
0
210
0
220
0
230
1
2
ANSI31
70
0
71
0
91
1
92
5
93
3
72
1
10
80.2662131296718
20
19.9610744492829
11
83.6783903422016
21
19.0558913302943
72
1
10
83.6783903422016
20
19.0558913302943
11
83.3278475033133
21
18.2035965784431
72
1
10
83.3278475033133
20
18.2035965784431
11
80.2662131296718
21
19.9610744492829
97
0
75
0
76
1
52
0
41
0.0062
77
0
78
1
53
45
43
0
44
0
45
-0.0139193969876572
46
0.0139193969876572
79
0
47
0
98
1
10
0
20
0
0
HATCH
5
12D
100
AcDbEntity
8
SK2
62
256
6
ByLayer
370
13
48
1
60
0
100
AcDbHatch
10
0
20
0
30
0
210
0
220
0
230
1
2
ANSI31
70
0
71
0
91
1
92
5
93
3
72
1
10
80.2662131296718
20
-19.9610744492829
11
83.3278443726646
21
-18.2035978660704
72
1
10
83.3278443726646
20
-18.2035978660704
11
83.6783934728503
21
-19.055890042667
72
1
10
83.6783934728503
20
-19.055890042667
11
80.2662131296718
21
-19.9610744492829
97
0
75
0
76
1
52
0
41
0.0062
77
0
78
1
53
45
43
0
44
0
45
-0.0139193969876572
46
0.0139193969876572
79
0
47
0
98
1
10
0
20
0
0
DIMENSION
5
131
100
AcDbEntity
8
SK2
62
256
6
ByLayer
370
18
48
1
60
0
100
AcDbDimension
2
_U0
10
18.9
20
-46.727303
30
0
11
45.95
21
-46.727303
31
0
70
32
71
1
72
1
41
1
210
0
220
0
230
1
3
Standard
100
AcDbAlignedDimension
13
73
23
-5.225
33
0
14
18.9
24
-5.225
34
0
50
0
100
AcDbRotatedDimension
1001
ACAD
1000
DSTYLE
1002
{
1070
   371
1070
    13
1070
   372
1070
    13
1070
   170
1070
     0
1070
   144
1040
1.0
1070
   277
1070
     2
1070
   284
1070
     8
1070
   278
1070
    46
1070
   146
1040
1.166667
1070
   345
1005
16
1070
   347
1005
16
1070
   346
1005
16
1070
   344
1005
0
1070
   343
1005
0
1070
   172
1070
     1
1070
    76
1070
     0
1070
    75
1070
     0
1070
   282
1070
     0
1070
   281
1070
     0
1070
     3
1000

1070
    71
1070
     0
1070
    74
1070
     0
1070
   279
1070
     0
1070
   173
1070
     1
1070
   340
1005
110
1070
   271
1070
     2
1070
   272
1070
     2
1070
    77
1070
     1
1070
    73
1070
     1
1070
   171
1070
     3
1070
   274
1070
     4
1070
   177
1070
     2
1070
   176
1070
     2
1070
   178
1070
     2
1070
    78
1070
     8
1070
    48
1040
-0.1
1070
    41
1040
3.5
1070
   147
1040
1.5
1070
    42
1040
1.5875
1070
    44
1040
2.0
1070
   140
1040
3.0
1002
}
1001
ACAD_DSTYLE_DIM_LINETYPE
1070
   380
1005
16
1001
ACAD_DSTYLE_DIM_EXT1_LINETYPE
1070
   381
1005
16
1001
ACAD_DSTYLE_DIM_EXT2_LINETYPE
1070
   382
1005
16
0
DIMENSION
5
14C
100
AcDbEntity
8
SK2
62
256
6
ByLayer
370
18
48
1
60
0
100
AcDbDimension
2
_U1
10
2
20
-56.727303
30
0
11
37.5
21
-56.727303
31
0
70
32
71
1
72
1
41
1
210
0
220
0
230
1
3
Standard
100
AcDbAlignedDimension
13
73
23
-5.225
33
0
14
2
24
-5.225
34
0
50
0
100
AcDbRotatedDimension
1001
ACAD
1000
DSTYLE
1002
{
1070
   371
1070
    13
1070
   372
1070
    13
1070
     3
1000

1070
   170
1070
     0
1070
   144
1040
1.0
1070
   277
1070
     2
1070
   284
1070
     8
1070
   278
1070
    46
1070
   146
1040
1.166667
1070
   345
1005
16
1070
   347
1005
16
1070
   346
1005
16
1070
   344
1005
0
1070
   343
1005
0
1070
   172
1070
     1
1070
    76
1070
     0
1070
    75
1070
     0
1070
   282
1070
     0
1070
   281
1070
     0
1070
    71
1070
     0
1070
    74
1070
     0
1070
   279
1070
     0
1070
   173
1070
     1
1070
   340
1005
110
1070
   271
1070
     2
1070
   272
1070
     2
1070
    77
1070
     1
1070
    73
1070
     1
1070
   171
1070
     3
1070
   274
1070
     4
1070
   177
1070
     2
1070
   176
1070
     2
1070
   178
1070
     2
1070
    78
1070
     8
1070
    48
1040
-0.1
1070
    41
1040
3.5
1070
   147
1040
1.5
1070
    42
1040
1.5875
1070
    44
1040
2.0
1070
   140
1040
3.0
1002
}
1001
ACAD_DSTYLE_DIM_LINETYPE
1070
   380
1005
16
1001
ACAD_DSTYLE_DIM_EXT1_LINETYPE
1070
   381
1005
16
1001
ACAD_DSTYLE_DIM_EXT2_LINETYPE
1070
   382
1005
16
0
DIMENSION
5
164
100
AcDbEntity
8
SK2
62
256
6
ByLayer
370
18
48
1
60
0
100
AcDbDimension
2
_U2
10
0
20
-64.727303
30
0
11
-22.5
21
-64.727303
31
0
70
32
71
1
72
1
41
1
210
0
220
0
230
1
3
Standard
100
AcDbAlignedDimension
13
-45
23
-6
33
0
14
0
24
-6
34
0
50
0
100
AcDbRotatedDimension
1001
ACAD
1000
DSTYLE
1002
{
1070
   371
1070
    13
1070
   372
1070
    13
1070
     3
1000

1070
   170
1070
     0
1070
   144
1040
1.0
1070
   277
1070
     2
1070
   284
1070
     8
1070
   278
1070
    46
1070
   146
1040
1.166667
1070
   345
1005
16
1070
   347
1005
16
1070
   346
1005
16
1070
   344
1005
0
1070
   343
1005
0
1070
   172
1070
     1
1070
    76
1070
     0
1070
    75
1070
     0
1070
   282
1070
     0
1070
   281
1070
     0
1070
    71
1070
     0
1070
    74
1070
     0
1070
   279
1070
     0
1070
   173
1070
     1
1070
   340
1005
110
1070
   271
1070
     2
1070
   272
1070
     2
1070
    77
1070
     1
1070
    73
1070
     1
1070
   171
1070
     3
1070
   274
1070
     4
1070
   177
1070
     2
1070
   176
1070
     2
1070
   178
1070
     2
1070
    78
1070
     8
1070
    48
1040
-0.1
1070
    41
1040
3.5
1070
   147
1040
1.5
1070
    42
1040
1.5875
1070
    44
1040
2.0
1070
   140
1040
3.0
1002
}
1001
ACAD_DSTYLE_DIM_LINETYPE
1070
   380
1005
16
1001
ACAD_DSTYLE_DIM_EXT1_LINETYPE
1070
   381
1005
16
1001
ACAD_DSTYLE_DIM_EXT2_LINETYPE
1070
   382
1005
16
0
DIMENSION
5
17C
100
AcDbEntity
8
SK2
62
256
6
ByLayer
370
18
48
1
60
0
100
AcDbDimension
2
_U3
10
73
20
-72.727303
30
0
11
14
21
-72.727303
31
0
70
32
71
1
72
1
41
1
210
0
220
0
230
1
3
Standard
100
AcDbAlignedDimension
13
-45
23
-6
33
0
14
73
24
-5.225
34
0
50
0
100
AcDbRotatedDimension
1001
ACAD
1000
DSTYLE
1002
{
1070
   371
1070
    13
1070
   372
1070
    13
1070
     3
1000

1070
   170
1070
     0
1070
   144
1040
1.0
1070
   277
1070
     2
1070
   284
1070
     8
1070
   278
1070
    46
1070
   146
1040
1.166667
1070
   345
1005
16
1070
   347
1005
16
1070
   346
1005
16
1070
   344
1005
0
1070
   343
1005
0
1070
   172
1070
     1
1070
    76
1070
     0
1070
    75
1070
     0
1070
   282
1070
     0
1070
   281
1070
     0
1070
    71
1070
     0
1070
    74
1070
     0
1070
   279
1070
     0
1070
   173
1070
     1
1070
   340
1005
110
1070
   271
1070
     2
1070
   272
1070
     2
1070
    77
1070
     1
1070
    73
1070
     1
1070
   171
1070
     3
1070
   274
1070
     4
1070
   177
1070
     2
1070
   176
1070
     2
1070
   178
1070
     2
1070
    78
1070
     8
1070
    48
1040
-0.1
1070
    41
1040
3.5
1070
   147
1040
1.5
1070
    42
1040
1.5875
1070
    44
1040
2.0
1070
   140
1040
3.0
1002
}
1001
ACAD_DSTYLE_DIM_LINETYPE
1070
   380
1005
16
1001
ACAD_DSTYLE_DIM_EXT1_LINETYPE
1070
   381
1005
16
1001
ACAD_DSTYLE_DIM_EXT2_LINETYPE
1070
   382
1005
16
0
DIMENSION
5
194
100
AcDbEntity
8
2
62
256
6
ByLayer
370
18
48
1
60
0
100
AcDbDimension
2
_U4
10
0
20
-64.727303
30
0
11
36.5
21
-64.727303
31
0
70
32
71
1
72
1
41
1
210
0
220
0
230
1
3
Standard
100
AcDbAlignedDimension
13
73
23
-5.225
33
0
14
0
24
-5.225
34
0
50
0
100
AcDbRotatedDimension
1001
ACAD
1000
DSTYLE
1002
{
1070
   371
1070
    13
1070
   372
1070
    13
1070
     3
1000

1070
   170
1070
     0
1070
   144
1040
1.0
1070
   277
1070
     2
1070
   284
1070
     8
1070
   278
1070
    46
1070
   146
1040
1.166667
1070
   345
1005
16
1070
   347
1005
16
1070
   346
1005
16
1070
   344
1005
0
1070
   343
1005
0
1070
   172
1070
     1
1070
    76
1070
     0
1070
    75
1070
     0
1070
   282
1070
     0
1070
   281
1070
     0
1070
    71
1070
     0
1070
    74
1070
     0
1070
   279
1070
     0
1070
   173
1070
     1
1070
   340
1005
110
1070
   271
1070
     2
1070
   272
1070
     2
1070
    77
1070
     1
1070
    73
1070
     1
1070
   171
1070
     3
1070
   274
1070
     4
1070
   177
1070
     2
1070
   176
1070
     2
1070
   178
1070
     2
1070
    78
1070
     8
1070
    48
1040
-0.1
1070
    41
1040
3.5
1070
   147
1040
1.5
1070
    42
1040
1.5875
1070
    44
1040
2.0
1070
   140
1040
3.0
1002
}
1001
ACAD_DSTYLE_DIM_LINETYPE
1070
   380
1005
16
1001
ACAD_DSTYLE_DIM_EXT1_LINETYPE
1070
   381
1005
16
1001
ACAD_DSTYLE_DIM_EXT2_LINETYPE
1070
   382
1005
16
0
ENDSEC
0
SECTION
2
OBJECTS
0
DICTIONARY
5
21c
330
0
100
AcDbDictionary
280
0
281
1
3
ACAD_GROUP
350
21d
3
ACAD_MLINESTYLE
350
21e
0
DICTIONARY
5
21d
330
0
100
AcDbDictionary
280
0
281
1
0
DICTIONARY
5
21e
330
0
100
AcDbDictionary
280
0
281
1
3
Standard
350
18
0
MLINESTYLE
5
18
330
21e
100
AcDbMlineStyle
2
Standard
70
0
3

62
256
51
90
52
90
71
2
49
-0.5
62
256
6
ByLayer
49
0.5
62
256
6
ByLayer
0
RASTERVARIABLES
5
20a
330

100
AcDbRasterVariables
90
0
70
1
71
1
72
1
0
ENDSEC
0
EOF
