0
SECTION
2
HEADER
9
$ACADVER
1
AC1015
9
$DWGCODEPAGE
3
ANSI_1252
9
$HANDSEED
5
232
9
$ANGBASE
50
0
9
$ANGDIR
70
0
9
$ATTMODE
70
1
9
$AUNITS
70
0
9
$AUPREC
70
0
9
$CECOLOR
62
256
9
$CELTSCALE
40
1
9
$CELTYPE
6
ByLayer
9
$CELWEIGHT
370
18
9
$CLAYER
8
0
9
$CMLJUST
70
0
9
$CMLSCALE
40
1
9
$CMLSTYLE
2
Standard
9
$DIMSTYLE
2
Standard
9
$TEXTSIZE
40
0.2
9
$TEXTSTYLE
7
Standard
9
$LUNITS
70
2
9
$LUPREC
70
4
9
$EXTNAMES
290
1
9
$INSUNITS
70
4
9
$LTSCALE
40
1
9
$LWDISPLAY
290
1
9
$PDMODE
70
0
9
$PDSIZE
40
0
9
$PLINEGEN
70
0
0
ENDSEC
0
SECTION
2
CLASSES
0
CLASS
1
RASTERVARIABLES
2
AcDbRasterVariables
3
ISM
90
0
280
0
281
0
0
ENDSEC
0
SECTION
2
TABLES
0
TABLE
2
VPORT
5
228
100
AcDbSymbolTable
0
VPORT
5
1
100
AcDbSymbolTableRecord
100
AcDbViewportTableRecord
2
*Active
70
0
10
0
20
0
11
1
21
1
12
-1
22
1
13
0
23
0
14
0.5
24
0.5
15
10
25
10
16
0
26
0
36
1
17
0
27
0
37
0
0
ENDTAB
0
TABLE
2
LTYPE
5
229
100
AcDbSymbolTable
0
LTYPE
5
14
100
AcDbSymbolTableRecord
100
AcDbLinetypeTableRecord
70
0
2
ByBlock
3

72
65
73
0
40
0
0
LTYPE
5
15
100
AcDbSymbolTableRecord
100
AcDbLinetypeTableRecord
70
0
2
ByLayer
3

72
65
73
0
40
0
0
LTYPE
5
16
100
AcDbSymbolTableRecord
100
AcDbLinetypeTableRecord
70
0
2
Continuous
3
Solid line
72
65
73
0
40
0
0
LTYPE
5
6E
100
AcDbSymbolTableRecord
100
AcDbLinetypeTableRecord
70
0
2
CENTER
3
____ _ ____ _ ____ _ ____
72
65
73
4
40
47.5
49
22
74
0
49
-8.5
74
0
49
8.5
74
0
49
-8.5
74
0
0
LTYPE
5
6F
100
AcDbSymbolTableRecord
100
AcDbLinetypeTableRecord
70
0
2
DASHED
3
__ __ __ __ __ __ __ __ __
72
65
73
2
40
25.72
49
12.86
74
0
49
-12.86
74
0
0
ENDTAB
0
TABLE
2
LAYER
5
22a
100
AcDbSymbolTable
0
LAYER
5
10
100
AcDbSymbolTableRecord
100
AcDbLayerTableRecord
2
0
70
0
62
7
6
Continuous
290
1
370
-3
390
0
0
LAYER
5
71
100
AcDbSymbolTableRecord
100
AcDbLayerTableRecord
2
81
70
0
62
-3
6
Continuous
290
1
370
-3
390
0
0
LAYER
5
73
100
AcDbSymbolTableRecord
100
AcDbLayerTableRecord
2
80
70
0
62
-6
6
Continuous
290
1
370
-3
390
0
0
LAYER
5
75
100
AcDbSymbolTableRecord
100
AcDbLayerTableRecord
2
1
70
0
62
4
6
Continuous
290
1
370
-3
390
0
0
LAYER
5
86
100
AcDbSymbolTableRecord
100
AcDbLayerTableRecord
2
4
70
0
62
-2
6
CENTER
290
1
370
-3
390
0
0
LAYER
5
A8
100
AcDbSymbolTableRecord
100
AcDbLayerTableRecord
2
2
70
0
62
7
6
Continuous
290
1
370
-3
390
0
0
LAYER
5
13D
100
AcDbSymbolTableRecord
100
AcDbLayerTableRecord
2
Defpoints
70
0
62
7
6
Continuous
290
0
370
-3
390
0
0
LAYER
5
214
100
AcDbSymbolTableRecord
100
AcDbLayerTableRecord
2
SK4
70
0
62
2
6
CENTER
290
1
370
-3
390
0
0
LAYER
5
215
100
AcDbSymbolTableRecord
100
AcDbLayerTableRecord
2
SK1
70
0
62
4
6
Continuous
290
1
370
-3
390
0
0
LAYER
5
216
100
AcDbSymbolTableRecord
100
AcDbLayerTableRecord
2
SK2
70
0
62
7
6
Continuous
290
1
370
-3
390
0
0
LAYER
5
217
100
AcDbSymbolTableRecord
100
AcDbLayerTableRecord
2
SK6
70
0
62
5
6
Continuous
290
1
370
-3
390
0
0
ENDTAB
0
TABLE
2
STYLE
5
22b
100
AcDbSymbolTable
0
STYLE
5
11
100
AcDbSymbolTableRecord
100
AcDbTextStyleTableRecord
2
Standard
3
txt
70
0
71
0
40
0
41
1
42
0
50
0
0
STYLE
5
119
100
AcDbSymbolTableRecord
100
AcDbTextStyleTableRecord
2
iso_b_vert
3
simplex.shx
70
0
71
0
40
0
41
1
42
0
50
0
0
STYLE
5
11A
100
AcDbSymbolTableRecord
100
AcDbTextStyleTableRecord
2
DWGDirectTextStyle
3
simplex
70
0
71
0
40
0
41
1
42
0
50
0
0
ENDTAB
0
TABLE
2
DIMSTYLE
5
22c
100
AcDbSymbolTable
100
AcDbDimStyleTable
0
DIMSTYLE
105
27
100
AcDbSymbolTableRecord
100
AcDbDimStyleTableRecord
2
Standard
70
0
3
<>
41
0.18
42
0.0625
44
0.18
140
0.18
147
0.09
73
0
74
0
77
1
271
2
275
0
278
52
280
0
340
11
0
ENDTAB
0
TABLE
2
VIEW
5
22d
100
AcDbSymbolTable
0
ENDTAB
0
TABLE
2
UCS
5
22e
100
AcDbSymbolTable
0
ENDTAB
0
TABLE
2
APPID
5
22f
100
AcDbSymbolTable
0
APPID
5
12
100
AcDbSymbolTableRecord
100
AcDbRegAppTableRecord
2
ACAD
70
0
0
APPID
5
139
100
AcDbSymbolTableRecord
100
AcDbRegAppTableRecord
2
ACAD_DSTYLE_DIMBREAK
70
0
0
APPID
5
1D3
100
AcDbSymbolTableRecord
100
AcDbRegAppTableRecord
2
ACAD_DSTYLE_DIM_LINETYPE
70
0
0
APPID
5
1D4
100
AcDbSymbolTableRecord
100
AcDbRegAppTableRecord
2
ACAD_DSTYLE_DIM_EXT1_LINETYPE
70
0
0
APPID
5
1D5
100
AcDbSymbolTableRecord
100
AcDbRegAppTableRecord
2
ACAD_DSTYLE_DIM_EXT2_LINETYPE
70
0
0
APPID
5
210
100
AcDbSymbolTableRecord
100
AcDbRegAppTableRecord
2
ACAD_MLEADERVER
70
0
0
ENDTAB
0
TABLE
2
BLOCK_RECORD
5
230
100
AcDbSymbolTable
0
BLOCK_RECORD
5
1F
100
AcDbSymbolTableRecord
100
AcDbBlockTableRecord
2
*Model_Space
340
0
70
0
0
BLOCK_RECORD
5
1B
100
AcDbSymbolTableRecord
100
AcDbBlockTableRecord
2
*Paper_Space
340
0
70
0
0
BLOCK_RECORD
5
23
100
AcDbSymbolTableRecord
100
AcDbBlockTableRecord
2
*Paper_Space0
340
0
70
0
0
BLOCK_RECORD
5
13E
100
AcDbSymbolTableRecord
100
AcDbBlockTableRecord
2
*D1
340
0
70
0
0
BLOCK_RECORD
5
14A
100
AcDbSymbolTableRecord
100
AcDbBlockTableRecord
2
_U0
340
0
70
0
0
BLOCK_RECORD
5
158
100
AcDbSymbolTableRecord
100
AcDbBlockTableRecord
2
*D3
340
0
70
0
0
BLOCK_RECORD
5
164
100
AcDbSymbolTableRecord
100
AcDbBlockTableRecord
2
_U1
340
0
70
0
0
BLOCK_RECORD
5
170
100
AcDbSymbolTableRecord
100
AcDbBlockTableRecord
2
*D5
340
0
70
0
0
BLOCK_RECORD
5
17C
100
AcDbSymbolTableRecord
100
AcDbBlockTableRecord
2
_U2
340
0
70
0
0
BLOCK_RECORD
5
188
100
AcDbSymbolTableRecord
100
AcDbBlockTableRecord
2
*D7
340
0
70
0
0
BLOCK_RECORD
5
194
100
AcDbSymbolTableRecord
100
AcDbBlockTableRecord
2
_U3
340
0
70
0
0
BLOCK_RECORD
5
1A0
100
AcDbSymbolTableRecord
100
AcDbBlockTableRecord
2
*D9
340
0
70
0
0
BLOCK_RECORD
5
1AC
100
AcDbSymbolTableRecord
100
AcDbBlockTableRecord
2
_U4
340
0
70
0
0
ENDTAB
0
ENDSEC
0
SECTION
2
BLOCKS
0
BLOCK
5
20
100
AcDbEntity
8
0
100
AcDbBlockBegin
2
*Model_Space
70
0
10
0
20
0
30
0
3
*Model_Space
0
ENDBLK
5
21
100
AcDbEntity
8
0
100
AcDbBlockEnd
0
BLOCK
5
1C
100
AcDbEntity
8
0
100
AcDbBlockBegin
2
*Paper_Space
70
0
10
0
20
0
30
0
3
*Paper_Space
0
ENDBLK
5
1D
100
AcDbEntity
8
0
100
AcDbBlockEnd
0
BLOCK
5
24
100
AcDbEntity
8
0
100
AcDbBlockBegin
2
*Paper_Space0
70
0
10
0
20
0
30
0
3
*Paper_Space0
0
ENDBLK
5
25
100
AcDbEntity
8
0
100
AcDbBlockEnd
0
BLOCK
5
13F
100
AcDbEntity
8
0
100
AcDbBlockBegin
2
*D1
70
1
10
0
20
0
30
0
3
*D1
0
LINE
5
141
100
AcDbEntity
8
0
62
256
6
ByLayer
370
-2
48
1
60
0
100
AcDbLine
10
112
20
-6.5485
30
0
11
112
21
-23.090779
31
0
39
0
210
0
220
0
230
1
0
LINE
5
142
100
AcDbEntity
8
0
62
256
6
ByLayer
370
-2
48
1
60
0
100
AcDbLine
10
30.9
20
-6.5485
30
0
11
30.9
21
-23.090779
31
0
39
0
210
0
220
0
230
1
0
LINE
5
143
100
AcDbEntity
8
0
62
256
6
ByLayer
370
-2
48
1
60
0
100
AcDbLine
10
108.5
20
-21.090779
30
0
11
34.4
21
-21.090779
31
0
39
0
210
0
220
0
230
1
0
SOLID
5
144
100
AcDbEntity
8
0
62
256
6
ByLayer
370
-1
48
1
60
0
100
AcDbTrace
10
108.5
20
-21.674112
30
0
11
108.5
21
-20.507445
31
0
12
112
22
-21.090779
32
0
13
112
23
-21.090779
33
0
39
0
210
0
220
0
230
1
0
SOLID
5
145
100
AcDbEntity
8
0
62
256
6
ByLayer
370
-1
48
1
60
0
100
AcDbTrace
10
34.4
20
-20.507445
30
0
11
34.4
21
-21.674112
31
0
12
30.9
22
-21.090779
32
0
13
30.9
23
-21.090779
33
0
39
0
210
0
220
0
230
1
0
MTEXT
5
146
100
AcDbEntity
8
0
62
256
6
ByLayer
370
18
48
1
60
0
100
AcDbMText
10
71.45
20
-15.090779
30
0
210
0
220
0
230
1
1
\A1;81.1
40
3
41
0
44
1
50
0
71
5
72
5
7
iso_b_vert
0
POINT
5
147
100
AcDbEntity
8
Defpoints
62
0
6
ByLayer
370
-1
48
1
60
0
100
AcDbPoint
10
112
20
-4.961
30
0
39
0
210
0
220
0
230
1
50
360
0
POINT
5
148
100
AcDbEntity
8
Defpoints
62
0
6
ByLayer
370
-1
48
1
60
0
100
AcDbPoint
10
30.9
20
-4.961
30
0
39
0
210
0
220
0
230
1
50
360
0
POINT
5
149
100
AcDbEntity
8
Defpoints
62
0
6
ByLayer
370
-1
48
1
60
0
100
AcDbPoint
10
30.9
20
-21.090779
30
0
39
0
210
0
220
0
230
1
50
360
0
ENDBLK
5
140
100
AcDbEntity
8
0
100
AcDbBlockEnd
0
BLOCK
5
153
100
AcDbEntity
8
0
100
AcDbBlockBegin
2
_U0
70
0
10
0
20
0
30
0
3
_U0
0
MTEXT
5
14B
100
AcDbEntity
8
SK2
62
256
6
ByLayer
370
18
48
1
60
0
100
AcDbMText
10
68.838429
20
-18.893164
30
0
210
0
220
0
230
1
1
\W0.6347;81.1
40
3
41
0
44
1.084337
50
0
71
7
72
5
7
iso_b_vert
0
MTEXT
5
14C
100
AcDbEntity
8
SK2
62
256
6
ByLayer
370
18
48
1
60
0
100
AcDbMText
10
66.738429
20
-18.893164
30
0
210
0
220
0
230
1
1
\W1.1313;{\H1.88x;(}
40
3
41
0
44
1.084337
50
0
71
7
72
5
7
iso_b_vert
0
MTEXT
5
14D
100
AcDbEntity
8
SK2
62
256
6
ByLayer
370
18
48
1
60
0
100
AcDbMText
10
74.379571
20
-18.893164
30
0
210
0
220
0
230
1
1
\W1.1313;{\H1.88x;)}
40
3
41
0
44
1.084337
50
0
71
7
72
5
7
iso_b_vert
0
LINE
5
14E
100
AcDbEntity
8
SK2
62
256
6
ByLayer
370
13
48
1
60
0
100
AcDbLine
10
112
20
-6.5485
30
0
11
112
21
-23.090779
31
0
39
0
210
0
220
0
230
1
0
LINE
5
14F
100
AcDbEntity
8
SK2
62
256
6
ByLayer
370
13
48
1
60
0
100
AcDbLine
10
30.9
20
-6.5485
30
0
11
30.9
21
-23.090779
31
0
39
0
210
0
220
0
230
1
0
LINE
5
150
100
AcDbEntity
8
SK2
62
256
6
ByLayer
370
13
48
1
60
0
100
AcDbLine
10
112
20
-21.090779
30
0
11
30.9
21
-21.090779
31
0
39
0
210
0
220
0
230
1
0
SOLID
5
151
100
AcDbEntity
8
SK2
62
256
6
ByLayer
370
18
48
1
60
0
100
AcDbTrace
10
112
20
-21.090779
30
0
11
108.500002
21
-21.551563
31
0
12
108.499998
22
-20.629995
32
0
13
108.499998
23
-20.629995
33
0
39
0
210
0
220
0
230
1
0
SOLID
5
152
100
AcDbEntity
8
SK2
62
256
6
ByLayer
370
18
48
1
60
0
100
AcDbTrace
10
30.9
20
-21.090779
30
0
11
34.399998
21
-20.629995
31
0
12
34.400002
22
-21.551563
32
0
13
34.400002
23
-21.551563
33
0
39
0
210
0
220
0
230
1
0
ENDBLK
5
154
100
AcDbEntity
8
0
100
AcDbBlockEnd
0
BLOCK
5
159
100
AcDbEntity
8
0
100
AcDbBlockBegin
2
*D3
70
1
10
0
20
0
30
0
3
*D3
0
LINE
5
15B
100
AcDbEntity
8
0
62
256
6
ByLayer
370
-2
48
1
60
0
100
AcDbLine
10
112
20
-6.5485
30
0
11
112
21
-33.090779
31
0
39
0
210
0
220
0
230
1
0
LINE
5
15C
100
AcDbEntity
8
0
62
256
6
ByLayer
370
-2
48
1
60
0
100
AcDbLine
10
6
20
-6.5485
30
0
11
6
21
-33.090779
31
0
39
0
210
0
220
0
230
1
0
LINE
5
15D
100
AcDbEntity
8
0
62
256
6
ByLayer
370
-2
48
1
60
0
100
AcDbLine
10
108.5
20
-31.090779
30
0
11
9.5
21
-31.090779
31
0
39
0
210
0
220
0
230
1
0
SOLID
5
15E
100
AcDbEntity
8
0
62
256
6
ByLayer
370
-1
48
1
60
0
100
AcDbTrace
10
108.5
20
-31.674112
30
0
11
108.5
21
-30.507445
31
0
12
112
22
-31.090779
32
0
13
112
23
-31.090779
33
0
39
0
210
0
220
0
230
1
0
SOLID
5
15F
100
AcDbEntity
8
0
62
256
6
ByLayer
370
-1
48
1
60
0
100
AcDbTrace
10
9.5
20
-30.507445
30
0
11
9.5
21
-31.674112
31
0
12
6
22
-31.090779
32
0
13
6
23
-31.090779
33
0
39
0
210
0
220
0
230
1
0
MTEXT
5
160
100
AcDbEntity
8
0
62
256
6
ByLayer
370
18
48
1
60
0
100
AcDbMText
10
59
20
-25.090779
30
0
210
0
220
0
230
1
1
\A1;106
40
3
41
0
44
1
50
0
71
5
72
5
7
iso_b_vert
0
POINT
5
161
100
AcDbEntity
8
Defpoints
62
0
6
ByLayer
370
-1
48
1
60
0
100
AcDbPoint
10
112
20
-4.961
30
0
39
0
210
0
220
0
230
1
50
360
0
POINT
5
162
100
AcDbEntity
8
Defpoints
62
0
6
ByLayer
370
-1
48
1
60
0
100
AcDbPoint
10
6
20
-4.961
30
0
39
0
210
0
220
0
230
1
50
360
0
POINT
5
163
100
AcDbEntity
8
Defpoints
62
0
6
ByLayer
370
-1
48
1
60
0
100
AcDbPoint
10
6
20
-31.090779
30
0
39
0
210
0
220
0
230
1
50
360
0
ENDBLK
5
15A
100
AcDbEntity
8
0
100
AcDbBlockEnd
0
BLOCK
5
16B
100
AcDbEntity
8
0
100
AcDbBlockBegin
2
_U1
70
0
10
0
20
0
30
0
3
_U1
0
MTEXT
5
165
100
AcDbEntity
8
SK2
62
256
6
ByLayer
370
18
48
1
60
0
100
AcDbMText
10
56.621201
20
-30.205664
30
0
210
0
220
0
230
1
1
\W0.6217;106
40
3
41
0
44
1.084337
50
0
71
7
72
5
7
iso_b_vert
0
LINE
5
166
100
AcDbEntity
8
SK2
62
256
6
ByLayer
370
13
48
1
60
0
100
AcDbLine
10
112
20
-6.5485
30
0
11
112
21
-33.090779
31
0
39
0
210
0
220
0
230
1
0
LINE
5
167
100
AcDbEntity
8
SK2
62
256
6
ByLayer
370
13
48
1
60
0
100
AcDbLine
10
6
20
-6.5485
30
0
11
6
21
-33.090779
31
0
39
0
210
0
220
0
230
1
0
LINE
5
168
100
AcDbEntity
8
SK2
62
256
6
ByLayer
370
13
48
1
60
0
100
AcDbLine
10
112
20
-31.090779
30
0
11
6
21
-31.090779
31
0
39
0
210
0
220
0
230
1
0
SOLID
5
169
100
AcDbEntity
8
SK2
62
256
6
ByLayer
370
18
48
1
60
0
100
AcDbTrace
10
112
20
-31.090779
30
0
11
108.500002
21
-31.551563
31
0
12
108.499998
22
-30.629995
32
0
13
108.499998
23
-30.629995
33
0
39
0
210
0
220
0
230
1
0
SOLID
5
16A
100
AcDbEntity
8
SK2
62
256
6
ByLayer
370
18
48
1
60
0
100
AcDbTrace
10
6
20
-31.090779
30
0
11
9.499998
21
-30.629995
31
0
12
9.500002
22
-31.551563
32
0
13
9.500002
23
-31.551563
33
0
39
0
210
0
220
0
230
1
0
ENDBLK
5
16C
100
AcDbEntity
8
0
100
AcDbBlockEnd
0
BLOCK
5
171
100
AcDbEntity
8
0
100
AcDbBlockBegin
2
*D5
70
1
10
0
20
0
30
0
3
*D5
0
LINE
5
173
100
AcDbEntity
8
0
62
256
6
ByLayer
370
-2
48
1
60
0
100
AcDbLine
10
-40
20
-6.5875
30
0
11
-40
21
-41.090779
31
0
39
0
210
0
220
0
230
1
0
LINE
5
174
100
AcDbEntity
8
0
62
256
6
ByLayer
370
-2
48
1
60
0
100
AcDbLine
10
0
20
-6.5875
30
0
11
0
21
-41.090779
31
0
39
0
210
0
220
0
230
1
0
LINE
5
175
100
AcDbEntity
8
0
62
256
6
ByLayer
370
-2
48
1
60
0
100
AcDbLine
10
-36.5
20
-39.090779
30
0
11
-3.5
21
-39.090779
31
0
39
0
210
0
220
0
230
1
0
SOLID
5
176
100
AcDbEntity
8
0
62
256
6
ByLayer
370
-1
48
1
60
0
100
AcDbTrace
10
-36.5
20
-38.507445
30
0
11
-36.5
21
-39.674112
31
0
12
-40
22
-39.090779
32
0
13
-40
23
-39.090779
33
0
39
0
210
0
220
0
230
1
0
SOLID
5
177
100
AcDbEntity
8
0
62
256
6
ByLayer
370
-1
48
1
60
0
100
AcDbTrace
10
-3.5
20
-39.674112
30
0
11
-3.5
21
-38.507445
31
0
12
0
22
-39.090779
32
0
13
0
23
-39.090779
33
0
39
0
210
0
220
0
230
1
0
MTEXT
5
178
100
AcDbEntity
8
0
62
256
6
ByLayer
370
18
48
1
60
0
100
AcDbMText
10
-20
20
-33.090779
30
0
210
0
220
0
230
1
1
\A1;40
40
3
41
0
44
1
50
0
71
5
72
5
7
iso_b_vert
0
POINT
5
179
100
AcDbEntity
8
Defpoints
62
0
6
ByLayer
370
-1
48
1
60
0
100
AcDbPoint
10
-40
20
-5
30
0
39
0
210
0
220
0
230
1
50
360
0
POINT
5
17A
100
AcDbEntity
8
Defpoints
62
0
6
ByLayer
370
-1
48
1
60
0
100
AcDbPoint
10
0
20
-5
30
0
39
0
210
0
220
0
230
1
50
360
0
POINT
5
17B
100
AcDbEntity
8
Defpoints
62
0
6
ByLayer
370
-1
48
1
60
0
100
AcDbPoint
10
0
20
-39.090779
30
0
39
0
210
0
220
0
230
1
50
360
0
ENDBLK
5
172
100
AcDbEntity
8
0
100
AcDbBlockEnd
0
BLOCK
5
183
100
AcDbEntity
8
0
100
AcDbBlockBegin
2
_U2
70
0
10
0
20
0
30
0
3
_U2
0
MTEXT
5
17D
100
AcDbEntity
8
SK2
62
256
6
ByLayer
370
18
48
1
60
0
100
AcDbMText
10
-21.790771
20
-38.205664
30
0
210
0
220
0
230
1
1
\W0.7361;40
40
3
41
0
44
1.084337
50
0
71
7
72
5
7
iso_b_vert
0
LINE
5
17E
100
AcDbEntity
8
SK2
62
256
6
ByLayer
370
13
48
1
60
0
100
AcDbLine
10
-40
20
-6.5875
30
0
11
-40
21
-41.090779
31
0
39
0
210
0
220
0
230
1
0
LINE
5
17F
100
AcDbEntity
8
SK2
62
256
6
ByLayer
370
13
48
1
60
0
100
AcDbLine
10
0
20
-6.5875
30
0
11
0
21
-41.090779
31
0
39
0
210
0
220
0
230
1
0
LINE
5
180
100
AcDbEntity
8
SK2
62
256
6
ByLayer
370
13
48
1
60
0
100
AcDbLine
10
-40
20
-39.090779
30
0
11
0
21
-39.090779
31
0
39
0
210
0
220
0
230
1
0
SOLID
5
181
100
AcDbEntity
8
SK2
62
256
6
ByLayer
370
18
48
1
60
0
100
AcDbTrace
10
-40
20
-39.090779
30
0
11
-36.500002
21
-38.629995
31
0
12
-36.499998
22
-39.551563
32
0
13
-36.499998
23
-39.551563
33
0
39
0
210
0
220
0
230
1
0
SOLID
5
182
100
AcDbEntity
8
SK2
62
256
6
ByLayer
370
18
48
1
60
0
100
AcDbTrace
10
0
20
-39.090779
30
0
11
-3.499998
21
-39.551563
31
0
12
-3.500002
22
-38.629995
32
0
13
-3.500002
23
-38.629995
33
0
39
0
210
0
220
0
230
1
0
ENDBLK
5
184
100
AcDbEntity
8
0
100
AcDbBlockEnd
0
BLOCK
5
189
100
AcDbEntity
8
0
100
AcDbBlockBegin
2
*D7
70
1
10
0
20
0
30
0
3
*D7
0
LINE
5
18B
100
AcDbEntity
8
0
62
256
6
ByLayer
370
-2
48
1
60
0
100
AcDbLine
10
-40
20
-6.5875
30
0
11
-40
21
-49.090779
31
0
39
0
210
0
220
0
230
1
0
LINE
5
18C
100
AcDbEntity
8
0
62
256
6
ByLayer
370
-2
48
1
60
0
100
AcDbLine
10
112
20
-6.5485
30
0
11
112
21
-49.090779
31
0
39
0
210
0
220
0
230
1
0
LINE
5
18D
100
AcDbEntity
8
0
62
256
6
ByLayer
370
-2
48
1
60
0
100
AcDbLine
10
-36.5
20
-47.090779
30
0
11
108.5
21
-47.090779
31
0
39
0
210
0
220
0
230
1
0
SOLID
5
18E
100
AcDbEntity
8
0
62
256
6
ByLayer
370
-1
48
1
60
0
100
AcDbTrace
10
-36.5
20
-46.507445
30
0
11
-36.5
21
-47.674112
31
0
12
-40
22
-47.090779
32
0
13
-40
23
-47.090779
33
0
39
0
210
0
220
0
230
1
0
SOLID
5
18F
100
AcDbEntity
8
0
62
256
6
ByLayer
370
-1
48
1
60
0
100
AcDbTrace
10
108.5
20
-47.674112
30
0
11
108.5
21
-46.507445
31
0
12
112
22
-47.090779
32
0
13
112
23
-47.090779
33
0
39
0
210
0
220
0
230
1
0
MTEXT
5
190
100
AcDbEntity
8
0
62
256
6
ByLayer
370
18
48
1
60
0
100
AcDbMText
10
36
20
-41.090779
30
0
210
0
220
0
230
1
1
\A1;152
40
3
41
0
44
1
50
0
71
5
72
5
7
iso_b_vert
0
POINT
5
191
100
AcDbEntity
8
Defpoints
62
0
6
ByLayer
370
-1
48
1
60
0
100
AcDbPoint
10
-40
20
-5
30
0
39
0
210
0
220
0
230
1
50
360
0
POINT
5
192
100
AcDbEntity
8
Defpoints
62
0
6
ByLayer
370
-1
48
1
60
0
100
AcDbPoint
10
112
20
-4.961
30
0
39
0
210
0
220
0
230
1
50
360
0
POINT
5
193
100
AcDbEntity
8
Defpoints
62
0
6
ByLayer
370
-1
48
1
60
0
100
AcDbPoint
10
112
20
-47.090779
30
0
39
0
210
0
220
0
230
1
50
360
0
ENDBLK
5
18A
100
AcDbEntity
8
0
100
AcDbBlockEnd
0
BLOCK
5
19B
100
AcDbEntity
8
0
100
AcDbBlockBegin
2
_U3
70
0
10
0
20
0
30
0
3
_U3
0
MTEXT
5
195
100
AcDbEntity
8
SK2
62
256
6
ByLayer
370
18
48
1
60
0
100
AcDbMText
10
33.621201
20
-46.205664
30
0
210
0
220
0
230
1
1
\W0.6217;152
40
3
41
0
44
1.084337
50
0
71
7
72
5
7
iso_b_vert
0
LINE
5
196
100
AcDbEntity
8
SK2
62
256
6
ByLayer
370
13
48
1
60
0
100
AcDbLine
10
-40
20
-6.5875
30
0
11
-40
21
-49.090779
31
0
39
0
210
0
220
0
230
1
0
LINE
5
197
100
AcDbEntity
8
SK2
62
256
6
ByLayer
370
13
48
1
60
0
100
AcDbLine
10
112
20
-6.5485
30
0
11
112
21
-49.090779
31
0
39
0
210
0
220
0
230
1
0
LINE
5
198
100
AcDbEntity
8
SK2
62
256
6
ByLayer
370
13
48
1
60
0
100
AcDbLine
10
-40
20
-47.090779
30
0
11
112
21
-47.090779
31
0
39
0
210
0
220
0
230
1
0
SOLID
5
199
100
AcDbEntity
8
SK2
62
256
6
ByLayer
370
18
48
1
60
0
100
AcDbTrace
10
-40
20
-47.090779
30
0
11
-36.500002
21
-46.629995
31
0
12
-36.499998
22
-47.551563
32
0
13
-36.499998
23
-47.551563
33
0
39
0
210
0
220
0
230
1
0
SOLID
5
19A
100
AcDbEntity
8
SK2
62
256
6
ByLayer
370
18
48
1
60
0
100
AcDbTrace
10
112
20
-47.090779
30
0
11
108.500002
21
-47.551563
31
0
12
108.499998
22
-46.629995
32
0
13
108.499998
23
-46.629995
33
0
39
0
210
0
220
0
230
1
0
ENDBLK
5
19C
100
AcDbEntity
8
0
100
AcDbBlockEnd
0
BLOCK
5
1A1
100
AcDbEntity
8
0
100
AcDbBlockBegin
2
*D9
70
1
10
0
20
0
30
0
3
*D9
0
LINE
5
1A3
100
AcDbEntity
8
0
62
256
6
ByLayer
370
-2
48
1
60
0
100
AcDbLine
10
112
20
-6.5485
30
0
11
112
21
-41.090779
31
0
39
0
210
0
220
0
230
1
0
LINE
5
1A4
100
AcDbEntity
8
0
62
256
6
ByLayer
370
-2
48
1
60
0
100
AcDbLine
10
0
20
-6.5485
30
0
11
0
21
-41.090779
31
0
39
0
210
0
220
0
230
1
0
LINE
5
1A5
100
AcDbEntity
8
0
62
256
6
ByLayer
370
-2
48
1
60
0
100
AcDbLine
10
108.5
20
-39.090779
30
0
11
3.5
21
-39.090779
31
0
39
0
210
0
220
0
230
1
0
SOLID
5
1A6
100
AcDbEntity
8
0
62
256
6
ByLayer
370
-1
48
1
60
0
100
AcDbTrace
10
108.5
20
-39.674112
30
0
11
108.5
21
-38.507445
31
0
12
112
22
-39.090779
32
0
13
112
23
-39.090779
33
0
39
0
210
0
220
0
230
1
0
SOLID
5
1A7
100
AcDbEntity
8
0
62
256
6
ByLayer
370
-1
48
1
60
0
100
AcDbTrace
10
3.5
20
-38.507445
30
0
11
3.5
21
-39.674112
31
0
12
0
22
-39.090779
32
0
13
0
23
-39.090779
33
0
39
0
210
0
220
0
230
1
0
MTEXT
5
1A8
100
AcDbEntity
8
0
62
256
6
ByLayer
370
18
48
1
60
0
100
AcDbMText
10
56
20
-33.090779
30
0
210
0
220
0
230
1
1
\A1;112
40
3
41
0
44
1
50
0
71
5
72
5
7
iso_b_vert
0
POINT
5
1A9
100
AcDbEntity
8
Defpoints
62
0
6
ByLayer
370
-1
48
1
60
0
100
AcDbPoint
10
112
20
-4.961
30
0
39
0
210
0
220
0
230
1
50
360
0
POINT
5
1AA
100
AcDbEntity
8
Defpoints
62
0
6
ByLayer
370
-1
48
1
60
0
100
AcDbPoint
10
0
20
-4.961
30
0
39
0
210
0
220
0
230
1
50
360
0
POINT
5
1AB
100
AcDbEntity
8
Defpoints
62
0
6
ByLayer
370
-1
48
1
60
0
100
AcDbPoint
10
0
20
-39.090779
30
0
39
0
210
0
220
0
230
1
50
360
0
ENDBLK
5
1A2
100
AcDbEntity
8
0
100
AcDbBlockEnd
0
BLOCK
5
1B3
100
AcDbEntity
8
0
100
AcDbBlockBegin
2
_U4
70
0
10
0
20
0
30
0
3
_U4
0
MTEXT
5
1AD
100
AcDbEntity
8
2
62
256
6
ByLayer
370
18
48
1
60
0
100
AcDbMText
10
53.996143
20
-38.205664
30
0
210
0
220
0
230
1
1
\W0.5296;112
40
3
41
0
44
1.084337
50
0
71
7
72
5
7
iso_b_vert
0
LINE
5
1AE
100
AcDbEntity
8
2
62
256
6
ByLayer
370
13
48
1
60
0
100
AcDbLine
10
112
20
-6.5485
30
0
11
112
21
-41.090779
31
0
39
0
210
0
220
0
230
1
0
LINE
5
1AF
100
AcDbEntity
8
2
62
256
6
ByLayer
370
13
48
1
60
0
100
AcDbLine
10
0
20
-6.5485
30
0
11
0
21
-41.090779
31
0
39
0
210
0
220
0
230
1
0
LINE
5
1B0
100
AcDbEntity
8
2
62
256
6
ByLayer
370
13
48
1
60
0
100
AcDbLine
10
112
20
-39.090779
30
0
11
0
21
-39.090779
31
0
39
0
210
0
220
0
230
1
0
SOLID
5
1B1
100
AcDbEntity
8
2
62
256
6
ByLayer
370
18
48
1
60
0
100
AcDbTrace
10
112
20
-39.090779
30
0
11
108.500002
21
-39.551563
31
0
12
108.499998
22
-38.629995
32
0
13
108.499998
23
-38.629995
33
0
39
0
210
0
220
0
230
1
0
SOLID
5
1B2
100
AcDbEntity
8
2
62
256
6
ByLayer
370
18
48
1
60
0
100
AcDbTrace
10
0
20
-39.090779
30
0
11
3.499998
21
-38.629995
31
0
12
3.500002
22
-39.551563
32
0
13
3.500002
23
-39.551563
33
0
39
0
210
0
220
0
230
1
0
ENDBLK
5
1B4
100
AcDbEntity
8
0
100
AcDbBlockEnd
0
ENDSEC
0
SECTION
2
ENTITIES
0
ARC
5
C3
100
AcDbEntity
8
1
62
256
6
ByLayer
370
18
48
1
60
0
100
AcDbCircle
39
0
10
0.365147
20
-4.963302
30
0
40
0.200000000000001
210
0
220
0
230
1
100
AcDbArc
50
89.896868
51
155.90468
0
ARC
5
C4
100
AcDbEntity
8
1
62
256
6
ByLayer
370
18
48
1
60
0
100
AcDbCircle
39
0
10
0.365147
20
4.963302
30
0
40
0.200000000000001
210
0
220
0
230
1
100
AcDbArc
50
204.09532
51
270.103132
0
ARC
5
C5
100
AcDbEntity
8
1
62
256
6
ByLayer
370
18
48
1
60
0
100
AcDbCircle
39
0
10
0
20
-4.8
30
0
40
0.200000000000002
210
0
220
0
230
1
100
AcDbArc
50
270
51
335.90468
0
ARC
5
C6
100
AcDbEntity
8
1
62
256
6
ByLayer
370
18
48
1
60
0
100
AcDbCircle
39
0
10
0
20
4.8
30
0
40
0.200000000000002
210
0
220
0
230
1
100
AcDbArc
50
24.09532
51
90
0
ARC
5
C7
100
AcDbEntity
8
SK2
62
256
6
ByLayer
370
13
48
1
60
0
100
AcDbCircle
39
0
10
112
20
0
30
0
40
21.7647858874171
210
0
220
0
230
1
100
AcDbArc
50
7.922721
51
69.996495
0
ARC
5
C8
100
AcDbEntity
8
SK2
62
256
6
ByLayer
370
13
48
1
60
0
100
AcDbCircle
39
0
10
112
20
0
30
0
40
21.7647858874171
210
0
220
0
230
1
100
AcDbArc
50
290.003505
51
352.077279
0
ELLIPSE
5
C9
100
AcDbEntity
8
1
62
256
6
ByLayer
370
18
48
1
60
0
100
AcDbEllipse
10
62.49035
20
4.786869
30
0
11
0.1
21
0
31
0
210
0
220
0
230
1
40
1
41
3.14159265358979
42
-1.54752916495946
0
ELLIPSE
5
CA
100
AcDbEntity
8
1
62
256
6
ByLayer
370
18
48
1
60
0
100
AcDbEllipse
10
62.49035
20
-4.786869
30
0
11
0.1
21
0
31
0
210
0
220
0
230
1
40
1
41
1.58562004665413
42
3.14159265358979
0
POINT
5
70
100
AcDbEntity
8
81
62
256
6
ByLayer
370
18
48
1
60
0
100
AcDbPoint
10
112
20
0
30
0
39
0
210
0
220
0
230
1
50
360
0
POINT
5
72
100
AcDbEntity
8
80
62
256
6
ByLayer
370
18
48
1
60
0
100
AcDbPoint
10
0
20
0
30
0
39
0
210
0
220
0
230
1
50
360
0
POINT
5
74
100
AcDbEntity
8
1
62
256
6
ByLayer
370
18
48
1
60
0
100
AcDbPoint
10
-181.292607
20
-200
30
0
39
0
210
0
220
0
230
1
50
360
0
POINT
5
76
100
AcDbEntity
8
1
62
256
6
ByLayer
370
13
48
1
60
1
100
AcDbPoint
10
-41.5
20
0
30
0
39
0
210
0
220
0
230
1
50
360
0
POINT
5
77
100
AcDbEntity
8
1
62
256
6
ByLayer
370
13
48
1
60
1
100
AcDbPoint
10
111.724031
20
0
30
0
39
0
210
0
220
0
230
1
50
360
0
POINT
5
78
100
AcDbEntity
8
1
62
256
6
ByLayer
370
18
48
1
60
1
100
AcDbPoint
10
112
20
-4.961
30
0
39
0
210
0
220
0
230
1
50
360
0
POINT
5
79
100
AcDbEntity
8
1
62
256
6
ByLayer
370
18
48
1
60
1
100
AcDbPoint
10
30.9
20
-4.961
30
0
39
0
210
0
220
0
230
1
50
360
0
POINT
5
7A
100
AcDbEntity
8
1
62
256
6
ByLayer
370
18
48
1
60
1
100
AcDbPoint
10
112
20
-4.961
30
0
39
0
210
0
220
0
230
1
50
360
0
POINT
5
7B
100
AcDbEntity
8
1
62
256
6
ByLayer
370
18
48
1
60
1
100
AcDbPoint
10
6
20
-4.961
30
0
39
0
210
0
220
0
230
1
50
360
0
POINT
5
7C
100
AcDbEntity
8
1
62
256
6
ByLayer
370
18
48
1
60
1
100
AcDbPoint
10
-40
20
-5
30
0
39
0
210
0
220
0
230
1
50
360
0
POINT
5
7D
100
AcDbEntity
8
1
62
256
6
ByLayer
370
18
48
1
60
1
100
AcDbPoint
10
0
20
-5
30
0
39
0
210
0
220
0
230
1
50
360
0
POINT
5
7E
100
AcDbEntity
8
1
62
256
6
ByLayer
370
18
48
1
60
1
100
AcDbPoint
10
-40
20
-5
30
0
39
0
210
0
220
0
230
1
50
360
0
POINT
5
7F
100
AcDbEntity
8
1
62
256
6
ByLayer
370
18
48
1
60
1
100
AcDbPoint
10
112
20
-4.961
30
0
39
0
210
0
220
0
230
1
50
360
0
POINT
5
80
100
AcDbEntity
8
1
62
256
6
ByLayer
370
18
48
1
60
1
100
AcDbPoint
10
112
20
-4.961
30
0
39
0
210
0
220
0
230
1
50
360
0
POINT
5
81
100
AcDbEntity
8
1
62
256
6
ByLayer
370
18
48
1
60
1
100
AcDbPoint
10
0
20
-4.961
30
0
39
0
210
0
220
0
230
1
50
360
0
SPLINE
5
CB
100
AcDbEntity
8
1
62
256
6
ByLayer
370
18
48
1
60
0
100
AcDbSpline
70
4
71
3
72
8
73
4
40
0
40
0
40
0
40
0
40
1
40
1
40
1
40
1
41
1
10
111.470664698911
20
1.66779591028785
30
0
41
1
10
111.605639869418
20
1.28896885220246
30
0
41
1
10
111.739444744669
20
0.909732180573826
30
0
41
1
10
111.872054848236
20
0.530077328438097
30
0
0
SPLINE
5
CC
100
AcDbEntity
8
1
62
256
6
ByLayer
370
18
48
1
60
0
100
AcDbSpline
70
4
71
3
72
8
73
4
40
0
40
0
40
0
40
0
40
1
40
1
40
1
40
1
41
1
10
111.872054848236
20
0.530077328438097
30
0
41
1
10
111.91328014736
20
0.412051744998479
30
0
41
1
10
111.955463258944
20
0.294564671408466
30
0
41
1
10
111.998604392704
20
0.177594558957935
30
0
0
SPLINE
5
CD
100
AcDbEntity
8
1
62
256
6
ByLayer
370
18
48
1
60
0
100
AcDbSpline
70
4
71
3
72
8
73
4
40
0
40
0
40
0
40
0
40
1
40
1
40
1
40
1
41
1
10
110.367300632575
20
-4.53517287751899
30
0
41
1
10
110.325860870724
20
-4.60697697975471
30
0
41
1
10
110.284447945463
20
-4.67878384120184
30
0
41
1
10
110.243070691478
20
-4.75057493110691
30
0
0
SPLINE
5
CE
100
AcDbEntity
8
1
62
256
6
ByLayer
370
18
48
1
60
0
100
AcDbSpline
70
4
71
3
72
12
73
8
40
0
40
0
40
0
40
0
40
0.25
40
0.25
40
0.5
40
0.5
40
1
40
1
40
1
40
1
41
1
10
111.470664698911
20
1.66779591028785
30
0
41
1
10
111.418031926183
20
1.6580140940539
30
0
41
1
10
111.365216151479
20
1.64896346605286
30
0
41
1
10
111.259520157435
20
1.63111969994588
30
0
41
1
10
111.206590413467
20
1.62250446851951
30
0
41
1
10
111.047406417171
20
1.59835885793822
30
0
41
1
10
110.941130529209
20
1.58418388067423
30
0
41
1
10
110.834751446901
20
1.57130341204032
30
0
0
SPLINE
5
CF
100
AcDbEntity
8
1
62
256
6
ByLayer
370
18
48
1
60
0
100
AcDbSpline
70
4
71
3
72
28
73
24
40
0
40
0
40
0
40
0
40
0.125000000000056
40
0.125000000000056
40
0.187500000000079
40
0.187500000000079
40
0.250000000000102
40
0.250000000000102
40
0.312500000000125
40
0.312500000000125
40
0.343750000000141
40
0.343750000000141
40
0.359375000000145
40
0.359375000000145
40
0.375000000000148
40
0.375000000000148
40
0.50000000000012
40
0.50000000000012
40
0.750000000000064
40
0.750000000000064
40
0.875000000000032
40
0.875000000000032
40
1
40
1
40
1
40
1
41
1
10
111.470664698911
20
1.66779591028785
30
0
41
1
10
111.416214342954
20
1.77185990359317
30
0
41
1
10
111.363068807785
20
1.88028163554648
30
0
41
1
10
111.28505155767
20
2.04970801893091
30
0
41
1
10
111.25927570268
20
2.10744600655215
30
0
41
1
10
111.208731344195
20
2.22408284220285
30
0
41
1
10
111.183889751189
20
2.28313729162824
30
0
41
1
10
111.135154149674
20
2.40226889331561
30
0
41
1
10
111.111260380474
20
2.4623423828863
30
0
41
1
10
111.07608981784
20
2.55306413834285
30
0
41
1
10
111.064496856032
20
2.58335974378318
30
0
41
1
10
111.047289510933
20
2.62888033026169
30
0
41
1
10
111.041584247293
20
2.64406679401247
30
0
41
1
10
111.030230431388
20
2.6744638278669
30
0
41
1
10
111.024585121573
20
2.68967578783557
30
0
41
1
10
110.973770630271
20
2.82658021803371
30
0
41
1
10
110.928944293889
20
2.94841644903457
30
0
41
1
10
110.795488411707
20
3.31436625440642
30
0
41
1
10
110.707860942005
20
3.55903113459212
30
0
41
1
10
110.578525780767
20
3.9259530019583
30
0
41
1
10
110.535782138362
20
4.04817112466645
30
0
41
1
10
110.45104457439
20
4.29205347910889
30
0
41
1
10
110.409026447654
20
4.41376090923239
30
0
41
1
10
110.367300632575
20
4.53517287751856
30
0
0
SPLINE
5
D0
100
AcDbEntity
8
1
62
256
6
ByLayer
370
18
48
1
60
0
100
AcDbSpline
70
4
71
3
72
8
73
4
40
0
40
0
40
0
40
0
40
1
40
1
40
1
40
1
41
1
10
110.367300632575
20
4.53517287751851
30
0
41
1
10
110.325860870724
20
4.60697697975462
30
0
41
1
10
110.284447945463
20
4.67878384120209
30
0
41
1
10
110.243070691477
20
4.75057493110756
30
0
0
SPLINE
5
D1
100
AcDbEntity
8
1
62
256
6
ByLayer
370
18
48
1
60
0
100
AcDbSpline
70
4
71
3
72
8
73
4
40
0
40
0
40
0
40
0
40
1
40
1
40
1
40
1
41
1
10
62.3903495934409
20
3.43491733906663
30
0
41
1
10
62.3903495934409
20
3.41626540661389
30
0
41
1
10
62.390349593441
20
3.39710692933051
30
0
41
1
10
62.390349593441
20
3.37744868750238
30
0
0
SPLINE
5
D2
100
AcDbEntity
8
1
62
256
6
ByLayer
370
18
48
1
60
0
100
AcDbSpline
70
4
71
3
72
18
73
14
40
0
40
0
40
0
40
0
40
0.221183972354628
40
0.221183972354628
40
0.350986643628868
40
0.350986643628868
40
0.480789314903109
40
0.480789314903109
40
0.610591986177349
40
0.610591986177349
40
0.74039465745159
40
0.74039465745159
40
1
40
1
40
1
40
1
41
1
10
110.15840044508
20
1.12174715972768
30
0
41
1
10
110.212820244257
20
1.10372287410726
30
0
41
1
10
110.2676433997
20
1.08441314521735
30
0
41
1
10
110.355272334759
20
1.05175541934648
30
0
41
1
10
110.387809088711
20
1.03926477170964
30
0
41
1
10
110.45311186211
20
1.01355283751411
30
0
41
1
10
110.485916965836
20
1.00032790749043
30
0
41
1
10
110.551577223901
20
0.973080558773631
30
0
41
1
10
110.584407332116
20
0.959066290128646
30
0
41
1
10
110.650067502592
20
0.930175492429555
30
0
41
1
10
110.682897565109
20
0.915303778859396
30
0
41
1
10
110.781387694265
20
0.869592949486446
30
0
41
1
10
110.84704770304
20
0.837668118050317
30
0
41
1
10
110.912707650179
20
0.804586803391203
30
0
0
SPLINE
5
D3
100
AcDbEntity
8
1
62
256
6
ByLayer
370
18
48
1
60
0
100
AcDbSpline
70
4
71
3
72
23
73
19
40
0
40
0
40
0
40
0
40
0.182016656618637
40
0.182016656618637
40
0.364033313237273
40
0.364033313237273
40
0.409537477391914
40
0.409537477391914
40
0.455041641546555
40
0.546049969855836
40
0.546049969855836
40
0.728066626474399
40
0.728066626474399
40
0.819074954783713
40
0.819074954783713
40
0.910083283093026
40
0.910083283093026
40
1
40
1
40
1
40
1
41
1
10
110.834751446901
20
1.57130341204032
30
0
41
1
10
110.771794003927
20
1.56368047196682
30
0
41
1
10
110.709856212521
20
1.5521433827976
30
0
41
1
10
110.587937356731
20
1.5216013956728
30
0
41
1
10
110.527954438176
20
1.50260368792056
30
0
41
1
10
110.454082877138
20
1.4746707857328
30
0
41
1
10
110.43934705031
20
1.46886802416648
30
0
41
1
10
110.410255394934
20
1.45697790613215
30
0
41
1
10
110.367087846325
20
1.43868121564142
30
0
41
1
10
110.325272640172
20
1.41913311898395
30
0
41
1
10
110.243269638081
20
1.37877120332868
30
0
41
1
10
110.190763107143
20
1.35018770629384
30
0
41
1
10
110.114517220709
20
1.30649584330277
30
0
41
1
10
110.089478585843
20
1.29177013296038
30
0
41
1
10
110.040891587652
20
1.26271365372165
30
0
41
1
10
110.017248027723
20
1.24832906676551
30
0
41
1
10
109.971396798888
20
1.22020835422685
30
0
41
1
10
109.949173719586
20
1.20646619077908
30
0
41
1
10
109.927455486714
20
1.19305262201433
30
0
0
SPLINE
5
D4
100
AcDbEntity
8
1
62
256
6
ByLayer
370
18
48
1
60
0
100
AcDbSpline
70
4
71
3
72
20
73
16
40
0
40
0
40
0
40
0
40
0.499999999999929
40
0.499999999999929
40
0.749999999999898
40
0.749999999999898
40
0.874999999999885
40
0.874999999999885
40
0.937499999999879
40
0.937499999999879
40
0.968749999999939
40
0.98437499999997
40
0.992187499999985
40
0.992187499999985
40
1
40
1
40
1
40
1
41
1
10
110.114010128425
20
-4.96077476461687
30
0
41
1
10
110.135506043384
20
-4.92605961840854
30
0
41
1
10
110.157006962399
20
-4.89118935594388
30
0
41
1
10
110.189313465801
20
-4.83855356965793
30
0
41
1
10
110.200094174656
20
-4.8209481631977
30
0
41
1
10
110.216213615311
20
-4.79459398618641
30
0
41
1
10
110.22156703166
20
-4.78584110935554
30
0
41
1
10
110.229644598477
20
-4.7725997294626
30
0
41
1
10
110.232348723848
20
-4.76815960186246
30
0
41
1
10
110.236420081545
20
-4.76146468872457
30
0
41
1
10
110.238455740408
20
-4.75811659062182
30
0
41
1
10
110.240798766416
20
-4.75427505119578
30
0
41
1
10
110.241790803336
20
-4.75265309792414
30
0
41
1
10
110.242448610272
20
-4.75157890117822
30
0
41
1
10
110.242804007164
20
-4.75099096050047
30
0
41
1
10
110.243070691484
20
-4.75057493110322
30
0
0
SPLINE
5
D5
100
AcDbEntity
8
1
62
256
6
ByLayer
370
18
48
1
60
0
100
AcDbSpline
70
4
71
3
72
8
73
4
40
0
40
0
40
0
40
0
40
1
40
1
40
1
40
1
41
1
10
110.192201476601
20
-4.75115645551162
30
0
41
1
10
110.154301073758
20
-4.75152780677379
30
0
41
1
10
110.11640616674
20
-4.75176071801505
30
0
41
1
10
110.078515877418
20
-4.75185537726284
30
0
0
SPLINE
5
D6
100
AcDbEntity
8
1
62
256
6
ByLayer
370
18
48
1
60
0
100
AcDbSpline
70
4
71
3
72
72
73
68
40
0
40
0
40
0
40
0
40
0.0434195636832028
40
0.0434195636832028
40
0.10925668270049
40
0.10925668270049
40
0.142175242209132
40
0.142175242209132
40
0.158634521963454
40
0.158634521963454
40
0.175093801717775
40
0.175093801717775
40
0.240930920735054
40
0.240930920735054
40
0.273849480243695
40
0.273849480243695
40
0.290308759998017
40
0.290308759998017
40
0.306768039752339
40
0.306768039752339
40
0.339686599260982
40
0.339686599260982
40
0.372605158769626
40
0.372605158769626
40
0.40552371827827
40
0.40552371827827
40
0.421982998032592
40
0.421982998032592
40
0.438442277786914
40
0.438442277786914
40
0.504279396804201
40
0.504279396804201
40
0.537197956312845
40
0.537197956312845
40
0.553657236067167
40
0.553657236067167
40
0.570116515821488
40
0.570116515821488
40
0.603035075330135
40
0.603035075330135
40
0.635953634838782
40
0.635953634838782
40
0.668872194347425
40
0.668872194347425
40
0.685331474101746
40
0.685331474101746
40
0.701790753856067
40
0.701790753856067
40
0.734709313364709
40
0.734709313364709
40
0.767627872873349
40
0.767627872873349
40
0.80054643238199
40
0.80054643238199
40
0.81700571213631
40
0.81700571213631
40
0.833464991890631
40
0.833464991890631
40
0.866383551399273
40
0.866383551399273
40
0.899302110907916
40
0.899302110907916
40
0.9651392299252
40
0.9651392299252
40
0.998057789433843
40
0.998057789433843
40
1
40
1
40
1
40
1
41
1
10
99.275123957046
20
-1.53019077843516
30
0
41
1
10
98.9498238360474
20
-1.36127497132423
30
0
41
1
10
98.6247084001309
20
-1.18922312798134
30
0
41
1
10
97.8059693751602
20
-0.750297817186095
30
0
41
1
10
97.3120487453386
20
-0.480319978783257
30
0
41
1
10
96.5675828394549
20
-0.0720836192567162
30
0
41
1
10
96.3188291359241
20
0.0645364832516861
30
0
41
1
10
95.9445319225644
20
0.269752399030779
30
0
41
1
10
95.8194720629959
20
0.338262787590196
30
0
41
1
10
95.569635179062
20
0.474889214148703
30
0
41
1
10
95.444814692522
20
0.54302860918844
30
0
41
1
10
94.8210471757334
20
0.882553786607616
30
0
41
1
10
94.3230933401446
20
1.15037113270688
30
0
41
1
10
93.5753223928218
20
1.54225430734059
30
0
41
1
10
93.325916555452
20
1.67122119359661
30
0
41
1
10
92.9512447627325
20
1.86156902197479
30
0
41
1
10
92.8261925239999
20
1.92453364628471
30
0
41
1
10
92.5763407247873
20
2.04908737101849
30
0
41
1
10
92.4515093714281
20
2.11069139604641
30
0
41
1
10
92.0772254036455
20
2.29336304252743
30
0
41
1
10
91.8279939053154
20
2.41230120911922
30
0
41
1
10
91.3297089638408
20
2.64390462707127
30
0
41
1
10
91.0806389522116
20
2.75654817343525
30
0
41
1
10
90.5821575914232
20
2.97471453128333
30
0
41
1
10
90.332752084386
20
3.08025496781164
30
0
41
1
10
89.9580920284457
20
3.23286169319223
30
0
41
1
10
89.8330502546789
20
3.28281419060903
30
0
41
1
10
89.5832265353766
20
3.38056833264829
30
0
41
1
10
89.4584084072839
20
3.42836812778884
30
0
41
1
10
88.8346635277482
20
3.66188257385284
30
0
41
1
10
88.3367143512537
20
3.83094102927487
30
0
41
1
10
87.5889224001004
20
4.05501907661156
30
0
41
1
10
87.3395318815762
20
4.12485086059036
30
0
41
1
10
86.9648854541098
20
4.22189730355626
30
0
41
1
10
86.8398413953321
20
4.25297152388052
30
0
41
1
10
86.5900067314574
20
4.31237193830938
30
0
41
1
10
86.4651819552876
20
4.34071049849786
30
0
41
1
10
86.0909065677793
20
4.42161200324929
30
0
41
1
10
85.8416517595665
20
4.47006203573989
30
0
41
1
10
85.3433167277076
20
4.55585271787299
30
0
41
1
10
85.0942160543816
20
4.59314870387129
30
0
41
1
10
84.5957120049705
20
4.65617485021536
30
0
41
1
10
84.3463071888297
20
4.68187270762681
30
0
41
1
10
83.9716349490301
20
4.71155525506066
30
0
41
1
10
83.8465845679242
20
4.7199784138536
30
0
41
1
10
83.5967546417064
20
4.73386564105684
30
0
41
1
10
83.4719386348488
20
4.73933506287153
30
0
41
1
10
83.0977044872811
20
4.75134601854563
30
0
41
1
10
82.8484965775723
20
4.75347655450213
30
0
41
1
10
82.3501604847698
20
4.74589303467371
30
0
41
1
10
82.1010365836102
20
4.7362080187678
30
0
41
1
10
81.6024812410002
20
4.70519438956941
30
0
41
1
10
81.3530661375308
20
4.68388832281113
30
0
41
1
10
80.978406083792
20
4.64312118250081
30
0
41
1
10
80.8533530866562
20
4.62805030460501
30
0
41
1
10
80.6035307505316
20
4.59503365620961
30
0
41
1
10
80.4787353962677
20
4.57708941506445
30
0
41
1
10
80.1046112040029
20
4.51903052253982
30
0
41
1
10
79.8555378278753
20
4.4746857138156
30
0
41
1
10
79.3576775140588
20
4.37516273233919
30
0
41
1
10
79.1089045553865
20
4.31998997176069
30
0
41
1
10
78.3623729298281
20
4.13863750683927
30
0
41
1
10
77.864323236258
20
3.99656214071729
30
0
41
1
10
77.114377398216
20
3.75320564643633
30
0
41
1
10
76.8644940907442
20
3.66724866920188
30
0
41
1
10
76.599794528673
20
3.57144648588806
30
0
41
1
10
76.5850465495946
20
3.56609312716711
30
0
41
1
10
76.5702980207896
20
3.56072400930486
30
0
0
SPLINE
5
D7
100
AcDbEntity
8
1
62
256
6
ByLayer
370
18
48
1
60
0
100
AcDbSpline
70
2053
71
3
72
118
73
114
40
0
40
0
40
0
40
0
40
0.031250000000021
40
0.031250000000021
40
0.0625000000000419
40
0.0625000000000419
40
0.0937500000000629
40
0.0937500000000629
40
0.125000000000084
40
0.125000000000084
40
0.140625000000092
40
0.140625000000092
40
0.156250000000101
40
0.156250000000101
40
0.18750000000012
40
0.18750000000012
40
0.195312500000124
40
0.195312500000124
40
0.203125000000128
40
0.218750000000136
40
0.234375000000143
40
0.234375000000143
40
0.242187500000147
40
0.242187500000147
40
0.250000000000151
40
0.250000000000151
40
0.281250000000165
40
0.281250000000165
40
0.296875000000172
40
0.296875000000172
40
0.304687500000175
40
0.304687500000175
40
0.312500000000178
40
0.312500000000178
40
0.343750000000191
40
0.343750000000191
40
0.35156250000019
40
0.35156250000019
40
0.35937500000019
40
0.375000000000184
40
0.375000000000184
40
0.390625000000178
40
0.390625000000178
40
0.406250000000171
40
0.421875000000165
40
0.421875000000165
40
0.437500000000159
40
0.437500000000159
40
0.468750000000146
40
0.468750000000146
40
0.48437500000014
40
0.48437500000014
40
0.500000000000134
40
0.500000000000134
40
0.531250000000129
40
0.531250000000129
40
0.539062500000128
40
0.539062500000128
40
0.546875000000127
40
0.546875000000127
40
0.562500000000132
40
0.562500000000132
40
0.593750000000142
40
0.593750000000142
40
0.601562500000146
40
0.601562500000146
40
0.60937500000015
40
0.60937500000015
40
0.625000000000152
40
0.625000000000152
40
0.656250000000152
40
0.656250000000152
40
0.671875000000149
40
0.671875000000149
40
0.687500000000147
40
0.687500000000147
40
0.718750000000142
40
0.718750000000142
40
0.726562500000141
40
0.726562500000141
40
0.734375000000139
40
0.750000000000136
40
0.765625000000133
40
0.765625000000133
40
0.773437500000131
40
0.773437500000131
40
0.781250000000128
40
0.781250000000128
40
0.812500000000119
40
0.812500000000119
40
0.820312500000117
40
0.820312500000117
40
0.828125000000114
40
0.828125000000114
40
0.843750000000105
40
0.859375000000095
40
0.859375000000095
40
0.875000000000085
40
0.875000000000085
40
0.906250000000066
40
0.906250000000066
40
0.921875000000056
40
0.921875000000056
40
0.937500000000046
40
0.953125000000037
40
0.953125000000037
40
0.968750000000027
40
0.968750000000027
40
0.984375000000017
40
0.984375000000017
40
0.992187500000009
40
0.992187500000009
40
1
40
1
40
1
40
1
41
1
10
110.843096249165
20
-1.88913829930682
30
0
41
1
10
110.826853254697
20
-1.90859123524007
30
0
41
1
10
110.811318218615
20
-1.92454679039301
30
0
41
1
10
110.781512550405
20
-1.94987377200224
30
0
41
1
10
110.767242685368
20
-1.95924350151955
30
0
41
1
10
110.739925592904
20
-1.97110900631969
30
0
41
1
10
110.727231278229
20
-1.97344234810879
30
0
41
1
10
110.703713632783
20
-1.97105088809835
30
0
41
1
10
110.6928726891
20
-1.96633650014576
30
0
41
1
10
110.678005846225
20
-1.95357616631114
30
0
41
1
10
110.673335703064
20
-1.94840603455054
30
0
41
1
10
110.664622714943
20
-1.93632706238523
30
0
41
1
10
110.660567271078
20
-1.92940769564166
30
0
41
1
10
110.649295266333
20
-1.90598234275967
30
0
41
1
10
110.642962340959
20
-1.8868391014679
30
0
41
1
10
110.636636397513
20
-1.85801934224898
30
0
41
1
10
110.635455798982
20
-1.85202398337762
30
0
41
1
10
110.633283547377
20
-1.83967451827274
30
0
41
1
10
110.630299679528
20
-1.82056673929253
30
0
41
1
10
110.626685998666
20
-1.78581961448671
30
0
41
1
10
110.625265087539
20
-1.75487663014616
30
0
41
1
10
110.624779024277
20
-1.73043219133848
30
0
41
1
10
110.624713829692
20
-1.72207743188687
30
0
41
1
10
110.624784867718
20
-1.70493940829328
30
0
41
1
10
110.624922211161
20
-1.69612453644297
30
0
41
1
10
110.626121780107
20
-1.65143289573774
30
0
41
1
10
110.628690364499
20
-1.61366517827838
30
0
41
1
10
110.635057641269
20
-1.55396022239449
30
0
41
1
10
110.637602698746
20
-1.53354582165733
30
0
41
1
10
110.642104246961
20
-1.50211150549666
30
0
41
1
10
110.64371795142
20
-1.49151130297611
30
0
41
1
10
110.647131195034
20
-1.47034212313787
30
0
41
1
10
110.648935873942
20
-1.45973618057221
30
0
41
1
10
110.658448390867
20
-1.40660251083048
30
0
41
1
10
110.667606454611
20
-1.36376616092104
30
0
41
1
10
110.681141018219
20
-1.30982037792461
30
0
41
1
10
110.683949336356
20
-1.29903029411656
30
0
41
1
10
110.689702887715
20
-1.27769704752205
30
0
41
1
10
110.698565397611
20
-1.24596330861448
30
0
41
1
10
110.708114754173
20
-1.21500746292358
30
0
41
1
10
110.72145942445
20
-1.17441167986459
30
0
41
1
10
110.728442597414
20
-1.15444044195337
30
0
41
1
10
110.743020714663
20
-1.11523668683901
30
0
41
1
10
110.757969404557
20
-1.07741425257865
30
0
41
1
10
110.77363377106
20
-1.04218144045706
30
0
41
1
10
110.789651356878
20
-1.00819850425981
30
0
41
1
10
110.7978553813
20
-0.991797285110806
30
0
41
1
10
110.822881586843
20
-0.94467991387819
30
0
41
1
10
110.839772000766
20
-0.91665531983341
30
0
41
1
10
110.865390326316
20
-0.879180013595118
30
0
41
1
10
110.873976919922
20
-0.867454932617335
30
0
41
1
10
110.891240134303
20
-0.845519003743874
30
0
41
1
10
110.899855483679
20
-0.835390389174364
30
0
41
1
10
110.925427269075
20
-0.807649326768683
30
0
41
1
10
110.942206729185
20
-0.792539063988897
30
0
41
1
10
110.96281995561
20
-0.777687923718418
30
0
41
1
10
110.966924343551
20
-0.774921230161624
30
0
41
1
10
110.97509513984
20
-0.769796789392331
30
0
41
1
10
110.979168382795
20
-0.767435956811767
30
0
41
1
10
110.991236057361
20
-0.761019563701694
30
0
41
1
10
110.999102241258
20
-0.757611223085235
30
0
41
1
10
111.022163544822
20
-0.749910553930448
30
0
41
1
10
111.036826479199
20
-0.748121019485353
30
0
41
1
10
111.054189535973
20
-0.750122489966401
30
0
41
1
10
111.057613461025
20
-0.750736439770037
30
0
41
1
10
111.064360290492
20
-0.75240036752848
30
0
41
1
10
111.067690757739
20
-0.75345366410545
30
0
41
1
10
111.07745524892
20
-0.757256618631232
30
0
41
1
10
111.083664786044
20
-0.7606426415405
30
0
41
1
10
111.101381632308
20
-0.773329538888106
30
0
41
1
10
111.111985984472
20
-0.785134379578693
30
0
41
1
10
111.12589116695
20
-0.808191908646393
30
0
41
1
10
111.13019065919
20
-0.816775224139377
30
0
41
1
10
111.13805543207
20
-0.835878795023604
30
0
41
1
10
111.141575438738
20
-0.846300796957451
30
0
41
1
10
111.150778295945
20
-0.879963779798459
30
0
41
1
10
111.155159740709
20
-0.905670619874201
30
0
41
1
10
111.158182098034
20
-0.942340411610189
30
0
41
1
10
111.158663554591
20
-0.949924893729417
30
0
41
1
10
111.159362933553
20
-0.965471173468103
30
0
41
1
10
111.160014362268
20
-0.989276225265428
30
0
41
1
10
111.159129394377
20
-1.03136068280733
30
0
41
1
10
111.156300974489
20
-1.06763592292532
30
0
41
1
10
111.153354203938
20
-1.09586738389794
30
0
41
1
10
111.152234122127
20
-1.10544906144276
30
0
41
1
10
111.149709882669
20
-1.12496744532908
30
0
41
1
10
111.148300800227
20
-1.13493163363918
30
0
41
1
10
111.140637974205
20
-1.18494185533243
30
0
41
1
10
111.13250065561
20
-1.22601226897973
30
0
41
1
10
111.119937215767
20
-1.27868102201245
30
0
41
1
10
111.117303773443
20
-1.28928200396595
30
0
41
1
10
111.111793596842
20
-1.31062136526489
30
0
41
1
10
111.108913644984
20
-1.32136833723334
30
0
41
1
10
111.100031804588
20
-1.35337549691161
30
0
41
1
10
111.087473120579
20
-1.39572329254585
30
0
41
1
10
111.073582917971
20
-1.43745510357434
30
0
41
1
10
111.059053654732
20
-1.47888852842345
30
0
41
1
10
111.051437321079
20
-1.49952970166149
30
0
41
1
10
111.028178385334
20
-1.55966065519226
30
0
41
1
10
111.011993457769
20
-1.59780191265017
30
0
41
1
10
110.986841076123
20
-1.6523178177261
30
0
41
1
10
110.978299759198
20
-1.6700467828237
30
0
41
1
10
110.961276436712
20
-1.70393015930844
30
0
41
1
10
110.944227211503
20
-1.73643018514471
30
0
41
1
10
110.927139213685
20
-1.76629039209985
30
0
41
1
10
110.910034782609
20
-1.79485317592074
30
0
41
1
10
110.901444647024
20
-1.80852792550593
30
0
41
1
10
110.884477445497
20
-1.83422740808618
30
0
41
1
10
110.876082746274
20
-1.8462863328478
30
0
41
1
10
110.86361819971
20
-1.86322113955902
30
0
41
1
10
110.859484621412
20
-1.86867345209919
30
0
41
1
10
110.851259251215
20
-1.87919415065599
30
0
41
1
10
110.847156997782
20
-1.88427506532352
30
0
41
1
10
110.843096249165
20
-1.88913829930682
30
0
0
SPLINE
5
D8
100
AcDbEntity
8
1
62
256
6
ByLayer
370
18
48
1
60
0
100
AcDbSpline
70
4
71
3
72
13
73
9
40
0
40
0
40
0
40
0
40
0.499999999999952
40
0.499999999999952
40
0.624999999999964
40
0.624999999999964
40
0.749999999999976
40
1
40
1
40
1
40
1
41
1
10
110.367300632576
20
-4.53517287751779
30
0
41
1
10
110.332894837703
20
-4.58679507752888
30
0
41
1
10
110.301023680257
20
-4.6311690862635
30
0
41
1
10
110.264361083402
20
-4.67658119328811
30
0
41
1
10
110.257184967599
20
-4.68516224827439
30
0
41
1
10
110.243159192966
20
-4.70127526977197
30
0
41
1
10
110.222764384634
20
-4.72369418854228
30
0
41
1
10
110.204220927567
20
-4.74095395308592
30
0
41
1
10
110.192615449464
20
-4.75023344318566
30
0
0
SPLINE
5
D9
100
AcDbEntity
8
1
62
256
6
ByLayer
370
18
48
1
60
0
100
AcDbSpline
70
4
71
3
72
28
73
24
40
0
40
0
40
0
40
0
40
0.125000000000056
40
0.125000000000056
40
0.187500000000079
40
0.187500000000079
40
0.250000000000102
40
0.250000000000102
40
0.312500000000125
40
0.312500000000125
40
0.343750000000131
40
0.343750000000131
40
0.359375000000134
40
0.359375000000134
40
0.375000000000138
40
0.375000000000138
40
0.500000000000107
40
0.500000000000107
40
0.750000000000054
40
0.750000000000054
40
0.875000000000027
40
0.875000000000027
40
1
40
1
40
1
40
1
41
1
10
111.470664698911
20
-1.66779591028788
30
0
41
1
10
111.416214342954
20
-1.7718599035932
30
0
41
1
10
111.363068807785
20
-1.88028163554651
30
0
41
1
10
111.28505155767
20
-2.04970801893089
30
0
41
1
10
111.259275702679
20
-2.10744600655212
30
0
41
1
10
111.208731344195
20
-2.22408284220285
30
0
41
1
10
111.183889751189
20
-2.28313729162821
30
0
41
1
10
111.135154149674
20
-2.40226889331564
30
0
41
1
10
111.111260380474
20
-2.46234238288628
30
0
41
1
10
111.07608981784
20
-2.55306413834288
30
0
41
1
10
111.064496856032
20
-2.58335974378321
30
0
41
1
10
111.047289510933
20
-2.62888033026172
30
0
41
1
10
111.041584247293
20
-2.64406679401253
30
0
41
1
10
111.030230431388
20
-2.67446382786693
30
0
41
1
10
111.024585121573
20
-2.68967578783563
30
0
41
1
10
110.973770630271
20
-2.82658021803377
30
0
41
1
10
110.928944293889
20
-2.94841644903465
30
0
41
1
10
110.795488411707
20
-3.31436625440662
30
0
41
1
10
110.707860942005
20
-3.5590311345924
30
0
41
1
10
110.578525780767
20
-3.92595300195865
30
0
41
1
10
110.535782138362
20
-4.04817112466682
30
0
41
1
10
110.45104457439
20
-4.29205347910934
30
0
41
1
10
110.409026447654
20
-4.41376090923288
30
0
41
1
10
110.367300632575
20
-4.53517287751907
30
0
0
SPLINE
5
DA
100
AcDbEntity
8
1
62
256
6
ByLayer
370
18
48
1
60
0
100
AcDbSpline
70
4
71
3
72
8
73
4
40
0
40
0
40
0
40
0
40
1
40
1
40
1
40
1
41
1
10
111.470664698911
20
-1.66779591028788
30
0
41
1
10
111.605639869418
20
-1.28896885220249
30
0
41
1
10
111.739444744669
20
-0.909732180573855
30
0
41
1
10
111.872054848236
20
-0.530077328438097
30
0
0
SPLINE
5
DB
100
AcDbEntity
8
1
62
256
6
ByLayer
370
18
48
1
60
0
100
AcDbSpline
70
4
71
3
72
8
73
4
40
0
40
0
40
0
40
0
40
1
40
1
40
1
40
1
41
1
10
111.872054848236
20
-0.530077328438097
30
0
41
1
10
111.913280147361
20
-0.412051744996148
30
0
41
1
10
111.955463258946
20
-0.294564671403805
30
0
41
1
10
111.998604392707
20
-0.177594558951
30
0
0
SPLINE
5
DC
100
AcDbEntity
8
1
62
256
6
ByLayer
370
18
48
1
60
0
100
AcDbSpline
70
4
71
3
72
8
73
4
40
0
40
0
40
0
40
0
40
1
40
1
40
1
40
1
41
1
10
111.998604392707
20
0.177594558954809
30
0
41
1
10
112.000462285952
20
0.0593837510445496
30
0
41
1
10
112.000468128082
20
-0.0590120380838925
30
0
41
1
10
111.998604392707
20
-0.177594558950943
30
0
0
SPLINE
5
DD
100
AcDbEntity
8
1
62
256
6
ByLayer
370
18
48
1
60
0
100
AcDbSpline
70
4
71
3
72
56
73
52
40
0
40
0
40
0
40
0
40
0.062500000000002
40
0.062500000000002
40
0.0937500000000029
40
0.0937500000000029
40
0.109374999999998
40
0.109374999999998
40
0.124999999999993
40
0.124999999999993
40
0.187499999999996
40
0.187499999999996
40
0.249999999999999
40
0.249999999999999
40
0.28125
40
0.28125
40
0.312500000000002
40
0.312500000000002
40
0.375000000000005
40
0.375000000000005
40
0.406250000000006
40
0.406250000000006
40
0.421875000000001
40
0.421875000000001
40
0.437499999999995
40
0.437499999999995
40
0.499999999999997
40
0.499999999999997
40
0.531250000000004
40
0.531250000000004
40
0.56250000000001
40
0.56250000000001
40
0.625000000000024
40
0.625000000000024
40
0.656250000000026
40
0.656250000000026
40
0.687500000000028
40
0.687500000000028
40
0.750000000000025
40
0.750000000000025
40
0.781250000000023
40
0.781250000000023
40
0.812500000000022
40
0.812500000000022
40
0.875000000000014
40
0.875000000000014
40
0.937500000000005
40
0.937500000000005
40
0.968750000000003
40
0.968750000000003
40
1
40
1
40
1
40
1
41
1
10
111.998604392709
20
0.177594558956287
30
0
41
1
10
111.978513894498
20
0.120717348185508
30
0
41
1
10
111.957283048805
20
0.0643818517719126
30
0
41
1
10
111.923715206055
20
-0.0192917822345748
30
0
41
1
10
111.912238134609
20
-0.047044309437382
30
0
41
1
10
111.894580381301
20
-0.0884585250394991
30
0
41
1
10
111.888609903529
20
-0.102251528748326
30
0
41
1
10
111.876606637547
20
-0.12956642079709
30
0
41
1
10
111.870567147597
20
-0.143104789125516
30
0
41
1
10
111.840185356698
20
-0.210204147330813
30
0
41
1
10
111.815293432949
20
-0.261996060873798
30
0
41
1
10
111.764408482443
20
-0.361747229343024
30
0
41
1
10
111.738416028248
20
-0.409708684870168
30
0
41
1
10
111.698585920475
20
-0.478553626397314
30
0
41
1
10
111.685108094852
20
-0.501076000132514
30
0
41
1
10
111.658336700763
20
-0.544259354233702
30
0
41
1
10
111.645006832916
20
-0.564990095644987
30
0
41
1
10
111.60518635919
20
-0.624620436969224
30
0
41
1
10
111.578865608203
20
-0.66097254291472
30
0
41
1
10
111.539717729351
20
-0.710230185093081
30
0
41
1
10
111.526723803377
20
-0.725767510590799
30
0
41
1
10
111.507313417127
20
-0.74769440986168
30
0
41
1
10
111.500843167603
20
-0.754786882768087
30
0
41
1
10
111.488047452566
20
-0.768375737732498
30
0
41
1
10
111.481711171793
20
-0.774885265183883
30
0
41
1
10
111.450329423988
20
-0.806028088369544
30
0
41
1
10
111.426179791442
20
-0.826469489575743
30
0
41
1
10
111.391271694989
20
-0.850518711525069
30
0
41
1
10
111.379855676721
20
-0.857428530086111
30
0
41
1
10
111.357450874589
20
-0.868998132610272
30
0
41
1
10
111.34642780876
20
-0.87366163440052
30
0
41
1
10
111.314527915801
20
-0.884035838081132
30
0
41
1
10
111.294648755172
20
-0.886261189279082
30
0
41
1
10
111.266663033242
20
-0.882930977201909
30
0
41
1
10
111.257641303645
20
-0.880705041147678
30
0
41
1
10
111.240184116879
20
-0.874033971063568
30
0
41
1
10
111.231719820383
20
-0.869564355750782
30
0
41
1
10
111.207483925359
20
-0.853039236634459
30
0
41
1
10
111.192802014009
20
-0.837899957554669
30
0
41
1
10
111.172690079159
20
-0.809492236690602
30
0
41
1
10
111.166306240294
20
-0.799069418376718
30
0
41
1
10
111.154145360675
20
-0.776358222858988
30
0
41
1
10
111.148361478619
20
-0.764053033153658
30
0
41
1
10
111.131927438297
20
-0.724475397901386
30
0
41
1
10
111.122332725363
20
-0.694919241147915
30
0
41
1
10
111.10549734672
20
-0.630055917537248
30
0
41
1
10
111.098258645816
20
-0.594745372945937
30
0
41
1
10
111.089016624124
20
-0.53768443963304
30
0
41
1
10
111.086203114339
20
-0.517952310662849
30
0
41
1
10
111.081119838721
20
-0.477268335515191
30
0
41
1
10
111.078852724881
20
-0.456346522601564
30
0
41
1
10
111.076849775307
20
-0.434861389915369
30
0
0
SPLINE
5
DE
100
AcDbEntity
8
1
62
256
6
ByLayer
370
18
48
1
60
0
100
AcDbSpline
70
4
71
3
72
8
73
4
40
0
40
0
40
0
40
0
40
1
40
1
40
1
40
1
41
1
10
111.076849775307
20
-0.434861389915398
30
0
41
1
10
111.039044635046
20
-0.0293352273276355
30
0
41
1
10
110.984208983811
20
0.383868997067026
30
0
41
1
10
110.912707650177
20
0.804586803392056
30
0
0
SPLINE
5
DF
100
AcDbEntity
8
1
62
256
6
ByLayer
370
18
48
1
60
0
100
AcDbSpline
70
4
71
3
72
28
73
24
40
0
40
0
40
0
40
0
40
0.250000000000014
40
0.250000000000014
40
0.375000000000012
40
0.375000000000012
40
0.500000000000011
40
0.500000000000011
40
0.625000000000009
40
0.625000000000009
40
0.750000000000006
40
0.750000000000006
40
0.812500000000005
40
0.812500000000005
40
0.875000000000003
40
0.875000000000003
40
0.906250000000002
40
0.906250000000002
40
0.937500000000002
40
0.937500000000002
40
0.968750000000001
40
0.968750000000001
40
1
40
1
40
1
40
1
41
1
10
110.179215464158
20
0.32582087509968
30
0
41
1
10
110.237981746588
20
0.391504306770059
30
0
41
1
10
110.297701920457
20
0.451059043248023
30
0
41
1
10
110.388334706471
20
0.530563620762109
30
0
41
1
10
110.418720569956
20
0.555453450884926
30
0
41
1
10
110.479783499641
20
0.602244883623115
30
0
41
1
10
110.510460493446
20
0.624125058817526
30
0
41
1
10
110.572037418156
20
0.664722694789248
30
0
41
1
10
110.602937309479
20
0.683447447329826
30
0
41
1
10
110.664896399591
20
0.71784053340852
30
0
41
1
10
110.69595705927
20
0.73350916171546
30
0
41
1
10
110.742577494315
20
0.753907527656111
30
0
41
1
10
110.758122489151
20
0.760195341245151
30
0
41
1
10
110.789207356151
20
0.771685058839296
30
0
41
1
10
110.804767443068
20
0.776892842717388
30
0
41
1
10
110.828012381035
20
0.783809961877722
30
0
41
1
10
110.835741718032
20
0.785965964109806
30
0
41
1
10
110.85115932795
20
0.789970719323179
30
0
41
1
10
110.858839675008
20
0.791770946143373
30
0
41
1
10
110.874202480378
20
0.795340483454737
30
0
41
1
10
110.881912863995
20
0.797279930782821
30
0
41
1
10
110.897336362832
20
0.801125672138028
30
0
41
1
10
110.905032667058
20
0.802930505731865
30
0
41
1
10
110.912707650177
20
0.804586803392112
30
0
0
SPLINE
5
E0
100
AcDbEntity
8
1
62
256
6
ByLayer
370
18
48
1
60
0
100
AcDbSpline
70
4
71
3
72
20
73
16
40
0
40
0
40
0
40
0
40
0.500000000000127
40
0.500000000000127
40
0.750000000000194
40
0.750000000000194
40
0.875000000000161
40
0.875000000000161
40
0.937500000000148
40
0.937500000000148
40
0.96875000000007
40
0.984375000000035
40
0.992187500000018
40
0.992187500000018
40
1
40
1
40
1
40
1
41
1
10
110.114010128425
20
4.96077476461727
30
0
41
1
10
110.135506043383
20
4.92605961840903
30
0
41
1
10
110.157006962398
20
4.89118935594445
30
0
41
1
10
110.189313465801
20
4.83855356965864
30
0
41
1
10
110.200094174656
20
4.82094816319844
30
0
41
1
10
110.216213615311
20
4.79459398618721
30
0
41
1
10
110.221567031659
20
4.78584110935634
30
0
41
1
10
110.229644598476
20
4.77259972946339
30
0
41
1
10
110.232348723847
20
4.76815960186337
30
0
41
1
10
110.236420081545
20
4.76146468872548
30
0
41
1
10
110.238455740408
20
4.75811659062265
30
0
41
1
10
110.240798766415
20
4.75427505119657
30
0
41
1
10
110.241790803335
20
4.75265309792502
30
0
41
1
10
110.242448610271
20
4.75157890117907
30
0
41
1
10
110.242804007164
20
4.7509909605015
30
0
41
1
10
110.243070691484
20
4.75057493110387
30
0
0
SPLINE
5
E1
100
AcDbEntity
8
1
62
256
6
ByLayer
370
18
48
1
60
0
100
AcDbSpline
70
4
71
3
72
28
73
24
40
0
40
0
40
0
40
0
40
0.11604967082936
40
0.11604967082936
40
0.232099341658718
40
0.232099341658718
40
0.348149012488077
40
0.348149012488077
40
0.406173847902761
40
0.406173847902761
40
0.464198683317446
40
0.464198683317446
40
0.580248354146814
40
0.580248354146814
40
0.696298024976183
40
0.696298024976183
40
0.812347695805552
40
0.812347695805552
40
0.870372531220241
40
0.870372531220241
40
0.928397366634931
40
0.928397366634931
40
1
40
1
40
1
40
1
41
1
10
110.243070691478
20
4.75057493110623
30
0
41
1
10
109.993693412669
20
4.75383317535062
30
0
41
1
10
109.744571008492
20
4.75109578917909
30
0
41
1
10
109.246335853895
20
4.73373683774028
30
0
41
1
10
108.997224296571
20
4.71911929520795
30
0
41
1
10
108.498584636264
20
4.67827676168957
30
0
41
1
10
108.249072242215
20
4.65207855175623
30
0
41
1
10
107.874203719328
20
4.60416272996292
30
0
41
1
10
107.749229968839
20
4.58676013470514
30
0
41
1
10
107.499549431782
20
4.54916005088427
30
0
41
1
10
107.374788929622
20
4.52895678965231
30
0
41
1
10
107.000674072222
20
4.4641895566111
30
0
41
1
10
106.751481955353
20
4.41546874582377
30
0
41
1
10
106.253180962286
20
4.30713184076561
30
0
41
1
10
106.004078033195
20
4.24750526668751
30
0
41
1
10
105.505474248103
20
4.11768329938093
30
0
41
1
10
105.255973212033
20
4.04747620117351
30
0
41
1
10
104.881087253668
20
3.93448084314588
30
0
41
1
10
104.756106279799
20
3.89556036456858
30
0
41
1
10
104.506427840695
20
3.81540744417308
30
0
41
1
10
104.381675066935
20
3.77415998024034
30
0
41
1
10
104.103115958254
20
3.67948428871864
30
0
41
1
10
103.949343888022
20
3.62546411199722
30
0
41
1
10
103.795610778025
20
3.56977528267723
30
0
0
SPLINE
5
E2
100
AcDbEntity
8
1
62
256
6
ByLayer
370
18
48
1
60
0
100
AcDbSpline
70
4
71
3
72
39
73
35
40
0
40
0
40
0
40
0
40
0.0385385673245462
40
0.0385385673245462
40
0.0785994603526903
40
0.0785994603526903
40
0.118660353380834
40
0.118660353380834
40
0.198782139437123
40
0.198782139437123
40
0.278903925493411
40
0.278903925493411
40
0.359025711549698
40
0.359025711549698
40
0.439147497605987
40
0.439147497605987
40
0.479208390634131
40
0.479208390634131
40
0.519269283662275
40
0.519269283662275
40
0.599391069718563
40
0.599391069718563
40
0.639451962746705
40
0.639451962746705
40
0.679512855774848
40
0.679512855774848
40
0.759634641831135
40
0.759634641831135
40
0.839756427887424
40
0.839756427887424
40
0.919878213943712
40
0.919878213943712
40
0.959939106971856
40
1
40
1
40
1
40
1
41
1
10
71.7331881505555
20
-1.35149362494173
30
0
41
1
10
71.6130549976039
20
-1.28826857155062
30
0
41
1
10
71.4928903402168
20
-1.22463616463935
30
0
41
1
10
71.2477023472858
20
-1.09411779828446
30
0
41
1
10
71.1226774994833
20
-1.0272010913896
30
0
41
1
10
70.8730005749482
20
-0.892965458567687
30
0
41
1
10
70.7482809229226
20
-0.825610538981095
30
0
41
1
10
70.3743876013341
20
-0.623000760110074
30
0
41
1
10
70.125471095379
20
-0.487216090608314
30
0
41
1
10
69.627907767824
20
-0.214998940761149
30
0
41
1
10
69.3792580814875
20
-0.0785717806580237
30
0
41
1
10
68.8818976926039
20
0.194323922029867
30
0
41
1
10
68.6331791459983
20
0.330778686408593
30
0
41
1
10
68.1351887632282
20
0.602827383003444
30
0
41
1
10
67.885912643472
20
0.738413241628678
30
0
41
1
10
67.5112429045776
20
0.940519876953203
30
0
41
1
10
67.386184406156
20
1.0076984162489
30
0
41
1
10
67.136195576913
20
1.14131921289245
30
0
41
1
10
67.0112226588921
20
1.20778644256831
30
0
41
1
10
66.6362923702859
20
1.40603247901916
30
0
41
1
10
66.3862662126702
20
1.53668532821413
30
0
41
1
10
66.011195294586
20
1.72947506825184
30
0
41
1
10
65.8861669705106
20
1.79321044294534
30
0
41
1
10
65.6361041010667
20
1.91951759886709
30
0
41
1
10
65.5110412572648
20
1.98210170773766
30
0
41
1
10
65.1361507667651
20
2.16779865858692
30
0
41
1
10
64.8865707750241
20
2.28892101667719
30
0
41
1
10
64.3877004075813
20
2.52505308758458
30
0
41
1
10
64.1384057157486
20
2.64004850061789
30
0
41
1
10
63.6396058773813
20
2.86317675584118
30
0
41
1
10
63.3901014699255
20
2.97130830357921
30
0
41
1
10
63.0153756171367
20
3.12794964392668
30
0
41
1
10
62.7653276990788
20
3.23056807262674
30
0
41
1
10
62.5153510051452
20
3.32918507617416
30
0
41
1
10
62.3903495934399
20
3.3774486875063
30
0
0
SPLINE
5
E3
100
AcDbEntity
8
1
62
256
6
ByLayer
370
18
48
1
60
0
100
AcDbSpline
70
4
71
3
72
10
73
6
40
0
40
0
40
0
40
0
40
0.5
40
0.5
40
1
40
1
40
1
40
1
41
1
10
110.18876975987
20
-4.75704398395348
30
0
41
1
10
110.189438097068
20
-4.75596857574857
30
0
41
1
10
110.190119852081
20
-4.75482767449225
30
0
41
1
10
110.191451494665
20
-4.75248181727986
30
0
41
1
10
110.192093313793
20
-4.75128705605064
30
0
41
1
10
110.192615449465
20
-4.75023344318538
30
0
0
SPLINE
5
E4
100
AcDbEntity
8
1
62
256
6
ByLayer
370
18
48
1
60
0
100
AcDbSpline
70
4
71
3
72
10
73
6
40
0
40
0
40
0
40
0
40
0.5
40
0.5
40
1
40
1
40
1
40
1
41
1
10
110.192742215586
20
-4.74614585801837
30
0
41
1
10
110.192931131889
20
-4.74630762085496
30
0
41
1
10
110.193036749029
20
-4.74669787962949
30
0
41
1
10
110.193017911357
20
-4.74805093472006
30
0
41
1
10
110.192885913607
20
-4.7490236018028
30
0
41
1
10
110.192615449465
20
-4.75023344318538
30
0
0
SPLINE
5
E5
100
AcDbEntity
8
1
62
256
6
ByLayer
370
18
48
1
60
0
100
AcDbSpline
70
4
71
3
72
57
73
53
40
0
40
0
40
0
40
0
40
0.104063388503878
40
0.104063388503878
40
0.157954313253005
40
0.157954313253005
40
0.211845238002132
40
0.211845238002132
40
0.238790700376696
40
0.238790700376696
40
0.252263431563977
40
0.252263431563977
40
0.265736162751259
40
0.265736162751259
40
0.319627087500385
40
0.319627087500385
40
0.373518012249512
40
0.373518012249512
40
0.427408936998639
40
0.427408936998639
40
0.481299861747766
40
0.481299861747766
40
0.535190786496893
40
0.535190786496893
40
0.58908171124602
40
0.58908171124602
40
0.642972635995147
40
0.642972635995147
40
0.669918098369709
40
0.683390829556989
40
0.683390829556989
40
0.696863560744269
40
0.696863560744269
40
0.723809023118828
40
0.723809023118828
40
0.750754485493389
40
0.750754485493389
40
0.804645410242511
40
0.804645410242511
40
0.831590872617071
40
0.831590872617071
40
0.858536334991633
40
0.858536334991633
40
0.885481797366193
40
0.885481797366193
40
0.912427259740754
40
0.912427259740754
40
0.939372722115316
40
0.939372722115316
40
0.966318184489876
40
0.966318184489876
40
1
40
1
40
1
40
1
41
1
10
68.5663820176359
20
4.70898804476752
30
0
41
1
10
69.0430810596997
20
4.71513303692998
30
0
41
1
10
69.5200892028479
20
4.698156291277
30
0
41
1
10
70.2456345145823
20
4.64080359073162
30
0
41
1
10
70.493443387918
20
4.61565126154295
30
0
41
1
10
70.9896087173773
20
4.55474054685854
30
0
41
1
10
71.2379843682965
20
4.51894670863007
30
0
41
1
10
71.6119534122626
20
4.45614396473593
30
0
41
1
10
71.7368390260313
20
4.43370134579092
30
0
41
1
10
71.9245259449821
20
4.39782842960398
30
0
41
1
10
71.9871493539789
20
4.38550182227658
30
0
41
1
10
72.1122203097882
20
4.36018389261682
30
0
41
1
10
72.1747054147698
20
4.34718555992146
30
0
41
1
10
72.4868930075293
20
4.28053620526572
30
0
41
1
10
72.7358830660089
20
4.22191145643407
30
0
41
1
10
73.2327242870256
20
4.0947525795342
30
0
41
1
10
73.4805715048632
20
4.02621657725075
30
0
41
1
10
73.9753639634004
20
3.87989113519046
30
0
41
1
10
74.2223246316065
20
3.80209386922752
30
0
41
1
10
74.7161600142008
20
3.63718646816017
30
0
41
1
10
74.9630138376108
20
3.5500922810312
30
0
41
1
10
75.4566103262277
20
3.36756949396539
30
0
41
1
10
75.7033731091771
20
3.27213324036222
30
0
41
1
10
76.1976169978086
20
3.07313332884263
30
0
41
1
10
76.4450777638625
20
2.9695728673357
30
0
41
1
10
76.9406619044899
20
2.75504159874862
30
0
41
1
10
77.1888074855838
20
2.64407423167725
30
0
41
1
10
77.562241227661
20
2.47238680009488
30
0
41
1
10
77.7492514606645
20
2.38523212995506
30
0
41
1
10
77.936660909573
20
2.29619026012685
30
0
41
1
10
78.0616845942135
20
2.23641887344087
30
0
41
1
10
78.1242637139466
20
2.20631501900584
30
0
41
1
10
78.3117555758577
20
2.11558461063814
30
0
41
1
10
78.4365261181205
20
2.05449981178251
30
0
41
1
10
78.6857625513448
20
1.93131887208662
30
0
41
1
10
78.8102213689008
20
1.86921565115179
30
0
41
1
10
79.183143015854
20
1.68146823003909
30
0
41
1
10
79.4311471995822
20
1.55437757322903
30
0
41
1
10
79.8023207327595
20
1.36112521606381
30
0
41
1
10
79.9259196867294
20
1.29628988890025
30
0
41
1
10
80.1730600168057
20
1.16606192639281
30
0
41
1
10
80.2965900619406
20
1.10065421471899
30
0
41
1
10
80.5435488403998
20
0.969255302644029
30
0
41
1
10
80.6669780955118
20
0.903264179183907
30
0
41
1
10
80.9137356205993
20
0.770716854545128
30
0
41
1
10
81.0370665337363
20
0.704164598712424
30
0
41
1
10
81.2836953052082
20
0.570613018718973
30
0
41
1
10
81.4069958198489
20
0.503617822126131
30
0
41
1
10
81.6536815923808
20
0.369372972453533
30
0
41
1
10
81.7770638533052
20
0.302118857175685
30
0
41
1
10
82.0548082753329
20
0.150591149169486
30
0
41
1
10
82.2092031029515
20
0.0662645360054057
30
0
41
1
10
82.363719639084
20
-0.0181457637030462
30
0
0
SPLINE
5
E6
100
AcDbEntity
8
1
62
256
6
ByLayer
370
18
48
1
60
0
100
AcDbSpline
70
4
71
3
72
8
73
4
40
0
40
0
40
0
40
0
40
1
40
1
40
1
40
1
41
1
10
110.188769759877
20
4.75704398395388
30
0
41
1
10
110.152122840863
20
4.7549095850554
30
0
41
1
10
110.115488582744
20
4.75264725830246
30
0
41
1
10
110.078866319191
20
4.7502574407574
30
0
0
SPLINE
5
E7
100
AcDbEntity
8
1
62
256
6
ByLayer
370
18
48
1
60
0
100
AcDbSpline
70
4
71
3
72
46
73
42
40
0
40
0
40
0
40
0
40
0.0453878424592244
40
0.0453878424592244
40
0.0997445319313615
40
0.0997445319313615
40
0.154101221403498
40
0.154101221403498
40
0.208457910875636
40
0.208457910875636
40
0.262814600347773
40
0.262814600347773
40
0.289992945083841
40
0.289992945083841
40
0.31717128981991
40
0.31717128981991
40
0.371527979292045
40
0.371527979292045
40
0.398706324028112
40
0.398706324028112
40
0.42588466876418
40
0.42588466876418
40
0.439473841132212
40
0.439473841132212
40
0.453063013500245
40
0.480241358236308
40
0.480241358236308
40
0.697668116124814
40
0.697668116124814
40
0.752024805596943
40
0.806381495069071
40
0.8607381845412
40
0.874327356909232
40
0.874327356909232
40
0.887916529277265
40
0.887916529277265
40
0.915094874013333
40
0.915094874013333
40
0.969451563485468
40
0.969451563485468
40
1
40
1
40
1
40
1
41
1
10
83.9796830216164
20
-4.73515697709152
30
0
41
1
10
83.7710678227071
20
-4.73607128103356
30
0
41
1
10
83.5630023535672
20
-4.7328492910402
30
0
41
1
10
83.1066860859046
20
-4.71684916417081
30
0
41
1
10
82.858620772937
20
-4.70235167860625
30
0
41
1
10
82.3632462708239
20
-4.66185861588102
30
0
41
1
10
82.1159374446142
20
-4.63586178344204
30
0
41
1
10
81.6216715344329
20
-4.57265645038211
30
0
41
1
10
81.3747280870408
20
-4.53547002753308
30
0
41
1
10
80.8808620942637
20
-4.45021597164271
30
0
41
1
10
80.6339205294508
20
-4.40210541449062
30
0
41
1
10
80.2631158696698
20
-4.32184564076354
30
0
41
1
10
80.1394495371655
20
-4.29374551297474
30
0
41
1
10
79.891988241292
20
-4.2349656452582
30
0
41
1
10
79.7681949418618
20
-4.20429048165983
30
0
41
1
10
79.3964848444446
20
-4.10831575034578
30
0
41
1
10
79.1482354634777
20
-4.03905615361776
30
0
41
1
10
78.7748345471441
20
-3.92751356661324
30
0
41
1
10
78.650194746852
20
-3.88905473397372
30
0
41
1
10
78.4005839427777
20
-3.8096706262568
30
0
41
1
10
78.2756151527587
20
-3.76874891079976
30
0
41
1
10
78.0878391757628
20
-3.70550223624127
30
0
41
1
10
78.0252129104219
20
-3.68411505832717
30
0
41
1
10
77.900130921215
20
-3.64082605835196
30
0
41
1
10
77.7126612499522
20
-3.57508628000761
30
0
41
1
10
77.5256173864794
20
-3.50698405922731
30
0
41
1
10
76.4047905314325
20
-3.08935118037178
30
0
41
1
10
75.4189052584008
20
-2.65377837151402
30
0
41
1
10
74.1830865852907
20
-2.05516009997765
30
0
41
1
10
73.6883815288603
20
-1.81033806012147
30
0
41
1
10
72.9441772603424
20
-1.42871053083275
30
0
41
1
10
72.3833835690755
20
-1.13336698637377
30
0
41
1
10
72.0705479647879
20
-0.966705254297239
30
0
41
1
10
71.9453045214809
20
-0.899844755423715
30
0
41
1
10
71.8826213640704
20
-0.866312870570198
30
0
41
1
10
71.6948319186952
20
-0.765672845115205
30
0
41
1
10
71.569842077909
20
-0.69844403640397
30
0
41
1
10
71.1954049155118
20
-0.496494397470599
30
0
41
1
10
70.9465010095623
20
-0.361483267246768
30
0
41
1
10
70.5585715240919
20
-0.150481369011345
30
0
41
1
10
70.4191664432533
20
-0.0745489399213568
30
0
41
1
10
70.279883538152
20
0.0013067468239285
30
0
0
SPLINE
5
E8
100
AcDbEntity
8
1
62
256
6
ByLayer
370
18
48
1
60
0
100
AcDbSpline
70
4
71
3
72
8
73
4
40
0
40
0
40
0
40
0
40
1
40
1
40
1
40
1
41
1
10
110.082305282978
20
-4.92775386516087
30
0
41
1
10
110.117744807009
20
-4.87113259076361
30
0
41
1
10
110.153230945064
20
-4.81422878998433
30
0
41
1
10
110.188769759875
20
-4.75704398395729
30
0
0
SPLINE
5
E9
100
AcDbEntity
8
1
62
256
6
ByLayer
370
18
48
1
60
0
100
AcDbSpline
70
4
71
3
72
40
73
36
40
0
40
0
40
0
40
0
40
0.117357115999145
40
0.117357115999145
40
0.176035673998715
40
0.176035673998715
40
0.234714231998285
40
0.234714231998285
40
0.293392789997855
40
0.293392789997855
40
0.352071347997425
40
0.352071347997425
40
0.38141062699721
40
0.38141062699721
40
0.410749905996995
40
0.410749905996995
40
0.469428463996565
40
0.469428463996565
40
0.5867855799957
40
0.5867855799957
40
0.704142695994835
40
0.704142695994835
40
0.82149981199397
40
0.82149981199397
40
0.850839090993751
40
0.850839090993751
40
0.865508730493642
40
0.865508730493642
40
0.880178369993533
40
0.880178369993533
40
0.938856927993095
40
0.938856927993095
40
0.997535485992658
40
0.997535485992658
40
1
40
1
40
1
40
1
41
1
10
110.188769759871
20
-4.75704398395354
30
0
41
1
10
109.690172507918
20
-4.72800455979515
30
0
41
1
10
109.193918887138
20
-4.67528468621774
30
0
41
1
10
108.450536699654
20
-4.5623352958892
30
0
41
1
10
108.202901536417
20
-4.51902863319916
30
0
41
1
10
107.707667358563
20
-4.42156271181489
30
0
41
1
10
107.460082309534
20
-4.3674227109081
30
0
41
1
10
106.964411149907
20
-4.24844048532967
30
0
41
1
10
106.716307453625
20
-4.18357642548534
30
0
41
1
10
106.219233775893
20
-4.04347972967494
30
0
41
1
10
105.970277505692
20
-3.96826004085477
30
0
41
1
10
105.595833638366
20
-3.8478663901929
30
0
41
1
10
105.470794503619
20
-3.80645176855146
30
0
41
1
10
105.22137132141
20
-3.72150500120119
30
0
41
1
10
105.096861877018
20
-3.67793422886001
30
0
41
1
10
104.723865970701
20
-3.54405972912156
30
0
41
1
10
104.475914533237
20
-3.45059780200069
30
0
41
1
10
103.733548727573
20
-3.15851260158996
30
0
41
1
10
103.240609561077
20
-2.94821115401865
30
0
41
1
10
102.255250535561
20
-2.50178550510955
30
0
41
1
10
101.762853645027
20
-2.26554264590663
30
0
41
1
10
100.775355748565
20
-1.77227919764257
30
0
41
1
10
100.280232786651
20
-1.51530166560283
30
0
41
1
10
99.6575356232186
20
-1.18445018788538
30
0
41
1
10
99.5328097966847
20
-1.11778960453205
30
0
41
1
10
99.3453981018488
20
-1.01713572828783
30
0
41
1
10
99.2828649163013
20
-0.983469577340486
30
0
41
1
10
99.1579762705798
20
-0.916089390466226
30
0
41
1
10
99.0955845220095
20
-0.882355904387509
30
0
41
1
10
98.7838687443857
20
-0.713508480815705
30
0
41
1
10
98.5352657105115
20
-0.577869689267487
30
0
41
1
10
98.0392177993108
20
-0.306171931379055
30
0
41
1
10
97.7917825398132
20
-0.170095580313387
30
0
41
1
10
97.5343168040262
20
-0.0285306052420538
30
0
41
1
10
97.5239396438007
20
-0.0228249140052981
30
0
41
1
10
97.5135630669694
20
-0.0171196615435747
30
0
0
SPLINE
5
EA
100
AcDbEntity
8
1
62
256
6
ByLayer
370
18
48
1
60
0
100
AcDbSpline
70
4
71
3
72
8
73
4
40
0
40
0
40
0
40
0
40
1
40
1
40
1
40
1
41
1
10
110.152688901516
20
-0.34219952273844
30
0
41
1
10
110.154603381194
20
-0.342862477184042
30
0
41
1
10
110.155576921325
20
-0.348176538008744
30
0
41
1
10
110.154879460105
20
-0.35404263588174
30
0
0
SPLINE
5
EB
100
AcDbEntity
8
1
62
256
6
ByLayer
370
18
48
1
60
0
100
AcDbSpline
70
4
71
3
72
50
73
46
40
0
40
0
40
0
40
0
40
0.0322374783055456
40
0.0322374783055456
40
0.0854346253965707
40
0.0854346253965707
40
0.138631772487596
40
0.138631772487596
40
0.19182891957862
40
0.19182891957862
40
0.245026066669645
40
0.245026066669645
40
0.29822321376067
40
0.29822321376067
40
0.32482178730618
40
0.32482178730618
40
0.338121074078937
40
0.338121074078937
40
0.351420360851695
40
0.351420360851695
40
0.404617507942724
40
0.404617507942724
40
0.511011802124783
40
0.511011802124783
40
0.564208949215814
40
0.564208949215814
40
0.617406096306846
40
0.617406096306846
40
0.670603243397877
40
0.670603243397877
40
0.723800390488909
40
0.723800390488909
40
0.776997537579941
40
0.776997537579941
40
0.7902968243527
40
0.7902968243527
40
0.803596111125458
40
0.803596111125458
40
0.830194684670977
40
0.830194684670977
40
0.883391831762013
40
0.883391831762013
40
0.936588978853049
40
0.936588978853049
40
1
40
1
40
1
40
1
41
1
10
95.604046747699
20
4.75241835814109
30
0
41
1
10
95.7536469557243
20
4.75588825295685
30
0
41
1
10
95.903099673515
20
4.75722770969986
30
0
41
1
10
96.2989991695585
20
4.75477764631074
30
0
41
1
10
96.5452735079375
20
4.74726558296771
30
0
41
1
10
97.0373400405577
20
4.72162080116254
30
0
41
1
10
97.2832029123111
20
4.70331975466769
30
0
41
1
10
97.775554869178
20
4.65442330821608
30
0
41
1
10
98.0219736674524
20
4.62398357547391
30
0
41
1
10
98.5152062948214
20
4.55238659419012
30
0
41
1
10
98.7620796219847
20
4.51112308853064
30
0
41
1
10
99.2571323349509
20
4.41703094132086
30
0
41
1
10
99.5052366500426
20
4.3643077762253
30
0
41
1
10
99.8780756461736
20
4.27753629715943
30
0
41
1
10
100.002491763483
20
4.24730288986521
30
0
41
1
10
100.189455631041
20
4.19987541846973
30
0
41
1
10
100.251865178629
20
4.18371125477418
30
0
41
1
10
100.376530440948
20
4.15074767812774
30
0
41
1
10
100.438812904928
20
4.13393992961636
30
0
41
1
10
100.749993749424
20
4.04828845786233
30
0
41
1
10
100.9981952125
20
3.97463675277706
30
0
41
1
10
101.741106890232
20
3.73990684423049
30
0
41
1
10
102.23408648183
20
3.5649800240852
30
0
41
1
10
102.971661542285
20
3.27906213143118
30
0
41
1
10
103.21725583379
20
3.17979993086737
30
0
41
1
10
103.708753971223
20
2.97351457458859
30
0
41
1
10
103.954615807526
20
2.8665273417549
30
0
41
1
10
104.446749661937
20
2.64567494672625
30
0
41
1
10
104.693038144181
20
2.53179936003838
30
0
41
1
10
105.186494431599
20
2.29770753098998
30
0
41
1
10
105.433648062942
20
2.17748993465616
30
0
41
1
10
105.929049159538
20
1.93130481396648
30
0
41
1
10
106.177321328787
20
1.80534449033809
30
0
41
1
10
106.488815993542
20
1.64469392215727
30
0
41
1
10
106.551200356746
20
1.61238854398246
30
0
41
1
10
106.675876025047
20
1.54757660618017
30
0
41
1
10
106.73818030225
20
1.51506349079395
30
0
41
1
10
106.925000715208
20
1.41721923019799
30
0
41
1
10
107.049424002186
20
1.35158263392194
30
0
41
1
10
107.422392073718
20
1.1535870903449
30
0
41
1
10
107.670644808966
20
1.02015571699846
30
0
41
1
10
108.166922338688
20
0.751353133320322
30
0
41
1
10
108.414936998207
20
0.615968368228323
30
0
41
1
10
108.958585515743
20
0.317652138532395
30
0
41
1
10
109.254228371728
20
0.154436099823585
30
0
41
1
10
109.550213013863
20
-0.0091652507961157
30
0
0
SPLINE
5
EC
100
AcDbEntity
8
1
62
256
6
ByLayer
370
18
48
1
60
0
100
AcDbSpline
70
4
71
3
72
8
73
4
40
0
40
0
40
0
40
0
40
1
40
1
40
1
40
1
41
1
10
110.090609900946
20
-0.31941698397992
30
0
41
1
10
110.111289533561
20
-0.327435034113364
30
0
41
1
10
110.131979630071
20
-0.335028225114712
30
0
41
1
10
110.152688901516
20
-0.342199522738412
30
0
0
SPLINE
5
ED
100
AcDbEntity
8
1
62
256
6
ByLayer
370
18
48
1
60
0
100
AcDbSpline
70
4
71
3
72
68
73
64
40
0
40
0
40
0
40
0
40
0.026687586183409
40
0.026687586183409
40
0.0423861735030314
40
0.0423861735030314
40
0.058084760822654
40
0.058084760822654
40
0.120879110101146
40
0.120879110101146
40
0.152276284740391
40
0.152276284740391
40
0.167974872060014
40
0.167974872060014
40
0.183673459379637
40
0.183673459379637
40
0.246467808658129
40
0.246467808658129
40
0.277864983297375
40
0.277864983297375
40
0.293563570616998
40
0.293563570616998
40
0.309262157936622
40
0.309262157936622
40
0.372056507215119
40
0.372056507215119
40
0.403453681854367
40
0.403453681854367
40
0.419152269173991
40
0.419152269173991
40
0.434850856493614
40
0.434850856493614
40
0.46624803113286
40
0.46624803113286
40
0.497645205772106
40
0.497645205772106
40
0.529042380411352
40
0.529042380411352
40
0.544740967730974
40
0.544740967730974
40
0.560439555050596
40
0.560439555050596
40
0.623233904329084
40
0.623233904329084
40
0.654631078968328
40
0.654631078968328
40
0.686028253607571
40
0.686028253607571
40
0.748822602886059
40
0.748822602886059
40
0.764521190205681
40
0.764521190205681
40
0.780219777525302
40
0.780219777525302
40
0.811616952164545
40
0.811616952164545
40
0.87441130144303
40
0.87441130144303
40
0.905808476082273
40
0.905808476082273
40
0.937205650721515
40
0.937205650721515
40
1
40
1
40
1
40
1
41
1
10
86.182234265746
20
-4.74528676410805
30
0
41
1
10
85.9712021264231
20
-4.77640000447488
30
0
41
1
10
85.760039978909
20
-4.80328733899083
30
0
41
1
10
85.4242319182988
20
-4.83916261778367
30
0
41
1
10
85.2997067488908
20
-4.85096682061101
30
0
41
1
10
85.0506815959604
20
-4.87154960175999
30
0
41
1
10
84.9262663211065
20
-4.88032269021556
30
0
41
1
10
84.3045378530596
20
-4.91660695721478
30
0
41
1
10
83.8084755974331
20
-4.92139825299503
30
0
41
1
10
83.0634774163929
20
-4.89223276266708
30
0
41
1
10
82.8150011843906
20
-4.87645400131274
30
0
41
1
10
82.441699688332
20
-4.84372669484759
30
0
41
1
10
82.3170953262657
20
-4.83129913806019
30
0
41
1
10
82.0680775245774
20
-4.80347975309411
30
0
41
1
10
81.9436640265723
20
-4.78809034190078
30
0
41
1
10
81.321939859218
20
-4.70383056321248
30
0
41
1
10
80.8257905027176
20
-4.61294523330017
30
0
41
1
10
80.0804277699395
20
-4.44322524100394
30
0
41
1
10
79.8318350377255
20
-4.38105483816565
30
0
41
1
10
79.4583779444428
20
-4.27962137286144
30
0
41
1
10
79.3337344758345
20
-4.24443440926845
30
0
41
1
10
79.0847289820026
20
-4.17155116614686
30
0
41
1
10
78.9603140617711
20
-4.13384229973374
30
0
41
1
10
78.3385303305893
20
-3.93913404223824
30
0
41
1
10
77.842287804295
20
-3.76337627595183
30
0
41
1
10
77.0967051717493
20
-3.47311810475449
30
0
41
1
10
76.8479814418089
20
-3.37192563807929
30
0
41
1
10
76.4743082272127
20
-3.21380691836475
30
0
41
1
10
76.3496421512429
20
-3.16004116267959
30
0
41
1
10
76.1006332255418
20
-3.05073903581331
30
0
41
1
10
75.976217308776
20
-2.99517252429132
30
0
41
1
10
75.6031418594286
20
-2.82586848149802
30
0
41
1
10
75.3546587176869
20
-2.70952146503063
30
0
41
1
10
74.8577705905368
20
-2.47046778855653
30
0
41
1
10
74.6093606829048
20
-2.3477670607877
30
0
41
1
10
74.1121076148736
20
-2.09678636948939
30
0
41
1
10
73.8632705863832
20
-1.96849817631278
30
0
41
1
10
73.489404905748
20
-1.77231482584827
30
0
41
1
10
73.3647506455686
20
-1.70633334967914
30
0
41
1
10
73.1157362263894
20
-1.57352339584861
30
0
41
1
10
72.9913146711329
20
-1.50666287956744
30
0
41
1
10
72.3694828654218
20
-1.17034742088427
30
0
41
1
10
71.8728692225979
20
-0.894907984400163
30
0
41
1
10
71.1266218056523
20
-0.476719467361647
30
0
41
1
10
70.8776795486479
20
-0.336435546161681
30
0
41
1
10
70.3789992849559
20
-0.0547990804273297
30
0
41
1
10
70.1300462486753
20
0.086069038527171
30
0
41
1
10
69.383823452476
20
0.507107001478062
30
0
41
1
10
68.8870667824689
20
0.785841248446815
30
0
41
1
10
68.2649239016581
20
1.12811454109763
30
0
41
1
10
68.1404369170297
20
1.1962644473189
30
0
41
1
10
67.8913008752282
20
1.33187462633339
30
0
41
1
10
67.7665956470367
20
1.39936683255118
30
0
41
1
10
67.3925379799879
20
1.60047341363276
30
0
41
1
10
67.1439513616442
20
1.73231445635818
30
0
41
1
10
66.3997289902284
20
2.11988858531984
30
0
41
1
10
65.9056996073756
20
2.3677962405981
30
0
41
1
10
65.1652347065062
20
2.7201091850097
30
0
41
1
10
64.9185080076062
20
2.8342874664792
30
0
41
1
10
64.4248819748815
20
3.05558612925586
30
0
41
1
10
64.1779760812145
20
3.16269470018571
30
0
41
1
10
63.4361916705614
20
3.47225344669229
30
0
41
1
10
62.9402469102548
20
3.66295266374595
30
0
41
1
10
62.4412897985693
20
3.83563387487854
30
0
0
SPLINE
5
EE
100
AcDbEntity
8
1
62
256
6
ByLayer
370
18
48
1
60
0
100
AcDbSpline
70
4
71
3
72
16
73
12
40
0
40
0
40
0
40
0
40
0.25000000000012
40
0.25000000000012
40
0.375000000000033
40
0.375000000000033
40
0.499999999999947
40
0.499999999999947
40
0.749999999999973
40
0.749999999999973
40
1
40
1
40
1
40
1
41
1
10
62.4412897985693
20
3.83563387487854
30
0
41
1
10
62.4335360163704
20
3.83831733698301
30
0
41
1
10
62.4265279142664
20
3.84156486952404
30
0
41
1
10
62.4171021002728
20
3.84724733710112
30
0
41
1
10
62.4141272147692
20
3.84929391874115
30
0
41
1
10
62.4087091903406
20
3.85355633520464
30
0
41
1
10
62.4062492261632
20
3.85577897305106
30
0
41
1
10
62.3996037738769
20
3.86271394345476
30
0
41
1
10
62.3961263285562
20
3.86776378037149
30
0
41
1
10
62.3915329765116
20
3.87805422507816
30
0
41
1
10
62.390349593441
20
3.88336655283425
30
0
41
1
10
62.390349593441
20
3.88873269513814
30
0
0
SPLINE
5
EF
100
AcDbEntity
8
1
62
256
6
ByLayer
370
18
48
1
60
0
100
AcDbSpline
70
4
71
3
72
119
73
115
40
0
40
0
40
0
40
0
40
0.019835671452891
40
0.019835671452891
40
0.0324377481439886
40
0.0324377481439886
40
0.0450398248350861
40
0.0450398248350861
40
0.0702439782172811
40
0.0702439782172811
40
0.0954481315994761
40
0.0954481315994761
40
0.120652284981671
40
0.120652284981671
40
0.133254361672769
40
0.133254361672769
40
0.145856438363867
40
0.145856438363867
40
0.171060591746063
40
0.171060591746063
40
0.196264745128259
40
0.196264745128259
40
0.221468898510455
40
0.221468898510455
40
0.234070975201554
40
0.234070975201554
40
0.246673051892653
40
0.246673051892653
40
0.271877205274851
40
0.271877205274851
40
0.297081358657049
40
0.297081358657049
40
0.322285512039247
40
0.322285512039247
40
0.334887588730346
40
0.334887588730346
40
0.347489665421444
40
0.347489665421444
40
0.372693818803641
40
0.372693818803641
40
0.397897972185837
40
0.397897972185837
40
0.410500048876934
40
0.410500048876934
40
0.423102125568032
40
0.423102125568032
40
0.435704202259129
40
0.435704202259129
40
0.448306278950227
40
0.448306278950227
40
0.460908355641324
40
0.460908355641324
40
0.473510432332422
40
0.473510432332422
40
0.498714585714617
40
0.498714585714617
40
0.523918739096812
40
0.523918739096812
40
0.536520815787909
40
0.536520815787909
40
0.549122892479007
40
0.549122892479007
40
0.574327045861201
40
0.574327045861201
40
0.586929122552298
40
0.586929122552298
40
0.599531199243395
40
0.599531199243395
40
0.612133275934492
40
0.612133275934492
40
0.624735352625589
40
0.624735352625589
40
0.637337429316685
40
0.637337429316685
40
0.649939506007781
40
0.67514365938997
40
0.67514365938997
40
0.687745736081065
40
0.687745736081065
40
0.70034781277216
40
0.70034781277216
40
0.712949889463255
40
0.712949889463255
40
0.725551966154349
40
0.725551966154349
40
0.738154042845444
40
0.738154042845444
40
0.750756119536539
40
0.750756119536539
40
0.775960272918727
40
0.775960272918727
40
0.788562349609822
40
0.788562349609822
40
0.801164426300916
40
0.801164426300916
40
0.826368579683106
40
0.826368579683106
40
0.8389706563742
40
0.8389706563742
40
0.851572733065294
40
0.851572733065294
40
0.876776886447481
40
0.876776886447481
40
0.889378963138575
40
0.889378963138575
40
0.901981039829669
40
0.901981039829669
40
0.927185193211857
40
0.927185193211857
40
0.952389346594044
40
0.952389346594044
40
0.977593499976232
40
0.977593499976232
40
1
40
1
40
1
40
1
41
1
10
66.4235236193271
20
4.71018046908242
30
0
41
1
10
66.6187720946226
20
4.73946032709742
30
0
41
1
10
66.8141046738851
20
4.76517206975447
30
0
41
1
10
67.1338754767554
20
4.80127680336196
30
0
41
1
10
67.2581887371982
20
4.81383851286267
30
0
41
1
10
67.5069719543373
20
4.83601585940065
30
0
41
1
10
67.6312966513035
20
4.84561758036611
30
0
41
1
10
68.0037508052571
20
4.86992435060338
30
0
41
1
10
68.2515104436772
20
4.88011596546138
30
0
41
1
10
68.747225188752
20
4.88838474840207
30
0
41
1
10
68.995167318323
20
4.88649198327252
30
0
41
1
10
69.4913480875557
20
4.87076712639933
30
0
41
1
10
69.7395859195863
20
4.85693247733454
30
0
41
1
10
70.112333210632
20
4.82719785771892
30
0
41
1
10
70.2366562121902
20
4.81578781224096
30
0
41
1
10
70.4854176360697
20
4.78995413190199
30
0
41
1
10
70.6096536458268
20
4.77555159144814
30
0
41
1
10
70.9819588628415
20
4.72788887634084
30
0
41
1
10
71.229651081511
20
4.6901647953168
30
0
41
1
10
71.7251921410007
20
4.60344610636355
30
0
41
1
10
71.9730124222654
20
4.55445957871288
30
0
41
1
10
72.4689275814938
20
4.44541262263215
30
0
41
1
10
72.7170252779136
20
4.38534998109594
30
0
41
1
10
73.0896462830032
20
4.28710370081669
30
0
41
1
10
73.2139793593128
20
4.25298240560954
30
0
41
1
10
73.4626208213959
20
4.18208976090241
30
0
41
1
10
73.5868168147254
20
4.14535130849669
30
0
41
1
10
73.9590823157289
20
4.03131075139413
30
0
41
1
10
74.2068480581095
20
3.95019157525661
30
0
41
1
10
74.7024683850686
20
3.77876758197522
30
0
41
1
10
74.9502914665806
20
3.68844624276727
30
0
41
1
10
75.4459576626541
20
3.49856631556787
30
0
41
1
10
75.693831128315
20
3.39902812541865
30
0
41
1
10
76.0663235055205
20
3.24357415435804
30
0
41
1
10
76.1906640322049
20
3.19069617561718
30
0
41
1
10
76.4392020926367
20
3.08302927280752
30
0
41
1
10
76.563360632706
20
3.028257645639
30
0
41
1
10
76.9355253164582
20
2.86116023863113
30
0
41
1
10
77.1832464158808
20
2.74608216203208
30
0
41
1
10
77.6787667911739
20
2.50984925819802
30
0
41
1
10
77.9265247106407
20
2.38864477973019
30
0
41
1
10
78.2980879876208
20
2.2020728139461
30
0
41
1
10
78.4219466921974
20
2.13911113247337
30
0
41
1
10
78.669908638968
20
2.01202204483687
30
0
41
1
10
78.7939990853875
20
1.94787571246741
30
0
41
1
10
79.0423662637899
20
1.8183257170854
30
0
41
1
10
79.166715721206
20
1.7528851655955
30
0
41
1
10
79.4151301338649
20
1.62098826570355
30
0
41
1
10
79.5392112055786
20
1.55452187362152
30
0
41
1
10
79.7871358270198
20
1.42057716339161
30
0
41
1
10
79.9109930308448
20
1.35312142840905
30
0
41
1
10
80.1587541424791
20
1.21768489577758
30
0
41
1
10
80.2826437620016
20
1.14968039107265
30
0
41
1
10
80.6542590955495
20
0.94467384755427
30
0
41
1
10
80.9018940219686
20
0.806613784549654
30
0
41
1
10
81.3972728733377
20
0.528268287125456
30
0
41
1
10
81.6451102013557
20
0.3881458289313
30
0
41
1
10
82.0175437228371
20
0.177338834211923
30
0
41
1
10
82.1418451059043
20
0.106917419754296
30
0
41
1
10
82.3901383836935
20
-0.0338021260062646
30
0
41
1
10
82.5141854389715
20
-0.104131745421597
30
0
41
1
10
82.8860838219457
20
-0.314931910650017
30
0
41
1
10
83.1337025002101
20
-0.455195035734647
30
0
41
1
10
83.5051151996292
20
-0.664384125833834
30
0
41
1
10
83.6289101065391
20
-0.733925103910536
30
0
41
1
10
83.8764410437586
20
-0.872698760927278
30
0
41
1
10
84.0001846899093
20
-0.941917820123678
30
0
41
1
10
84.2477691541313
20
-1.07977347655051
30
0
41
1
10
84.3716108602803
20
-1.14840854015586
30
0
41
1
10
84.6195279583468
20
-1.2848602818741
30
0
41
1
10
84.7435970240485
20
-1.35268813019684
30
0
41
1
10
84.9919491361458
20
-1.48755971456413
30
0
41
1
10
85.1162478012469
20
-1.55460764810479
30
0
41
1
10
85.3645130990644
20
-1.68754867282036
30
0
41
1
10
85.736629798747
20
-1.88534463235499
30
0
41
1
10
86.1080556979422
20
-2.07805850262659
30
0
41
1
10
86.4792554744121
20
-2.26699406785716
30
0
41
1
10
86.6029472803916
20
-2.32934880229126
30
0
41
1
10
86.8502443063664
20
-2.45280612918771
30
0
41
1
10
86.9738612583901
20
-2.51388932037125
30
0
41
1
10
87.2212479988603
20
-2.63443030081237
30
0
41
1
10
87.345016482926
20
-2.69389044787343
30
0
41
1
10
87.5928514699096
20
-2.81097601235936
30
0
41
1
10
87.7169092920116
20
-2.86861518852484
30
0
41
1
10
87.9652905960449
20
-2.98211232142188
30
0
41
1
10
88.0895648018593
20
-3.0379447403746
30
0
41
1
10
88.3378199395454
20
-3.14756741099973
30
0
41
1
10
88.4618670723716
20
-3.20138809735289
30
0
41
1
10
88.8337889511401
20
-3.35985883169641
30
0
41
1
10
89.0814415444442
20
-3.46152394295385
30
0
41
1
10
89.4526248225997
20
-3.6078233829071
30
0
41
1
10
89.5762951279421
20
-3.65556640434454
30
0
41
1
10
89.8235012856737
20
-3.74900425793871
30
0
41
1
10
89.9470654446223
20
-3.79466285488945
30
0
41
1
10
90.3181418709886
20
-3.92788603833918
30
0
41
1
10
90.5659499352431
20
-4.01181338748583
30
0
41
1
10
90.9383328476452
20
-4.13034502606368
30
0
41
1
10
91.0624371717812
20
-4.16857778318575
30
0
41
1
10
91.3104210105523
20
-4.24237873649776
30
0
41
1
10
91.4343374667676
20
-4.27795830306547
30
0
41
1
10
91.8059384120976
20
-4.3806836620669
30
0
41
1
10
92.0534660613365
20
-4.44382804767108
30
0
41
1
10
92.4246176489942
20
-4.53040277588474
30
0
41
1
10
92.5483026697121
20
-4.55790977325165
30
0
41
1
10
92.7956123578442
20
-4.6101984569425
30
0
41
1
10
92.9192619402319
20
-4.63496127410559
30
0
41
1
10
93.2905525046411
20
-4.7048858763485
30
0
41
1
10
93.5384840606925
20
-4.74576319284091
30
0
41
1
10
94.0348031767705
20
-4.81598060350689
30
0
41
1
10
94.2824564691533
20
-4.84515840871779
30
0
41
1
10
94.7776175553084
20
-4.89146319300318
30
0
41
1
10
95.0250649251443
20
-4.90862978414273
30
0
41
1
10
95.4922116687578
20
-4.92974588490208
30
0
41
1
10
95.7119934665591
20
-4.93492541827459
30
0
41
1
10
95.9320303312886
20
-4.9353220752534
30
0
0
SPLINE
5
F0
100
AcDbEntity
8
1
62
256
6
ByLayer
370
18
48
1
60
0
100
AcDbSpline
70
4
71
3
72
142
73
138
40
0
40
0
40
0
40
0
40
0.0035329050240873
40
0.0035329050240873
40
0.0270855925142587
40
0.0270855925142587
40
0.0506382800044301
40
0.0506382800044301
40
0.0741909674946015
40
0.0741909674946015
40
0.097743654984773
40
0.097743654984773
40
0.109519998729859
40
0.109519998729859
40
0.121296342474944
40
0.121296342474944
40
0.127184514347488
40
0.127184514347488
40
0.133072686220031
40
0.144849029965117
40
0.144849029965117
40
0.16840171745529
40
0.16840171745529
40
0.174289889327834
40
0.174289889327834
40
0.180178061200377
40
0.180178061200377
40
0.191954404945463
40
0.191954404945463
40
0.215507092435635
40
0.215507092435635
40
0.239059779925807
40
0.239059779925807
40
0.24494795179835
40
0.24494795179835
40
0.250836123670892
40
0.250836123670892
40
0.262612467415979
40
0.262612467415979
40
0.286165154906151
40
0.286165154906151
40
0.309717842396323
40
0.309717842396323
40
0.321494186141409
40
0.321494186141409
40
0.333270529886495
40
0.333270529886495
40
0.356823217376666
40
0.356823217376666
40
0.36271138924921
40
0.36271138924921
40
0.368599561121753
40
0.368599561121753
40
0.374487732994297
40
0.374487732994297
40
0.38037590486684
40
0.403928592357014
40
0.403928592357014
40
0.427481279847188
40
0.427481279847188
40
0.451033967337362
40
0.451033967337362
40
0.474586654827535
40
0.474586654827535
40
0.486362998572622
40
0.486362998572622
40
0.492251170445166
40
0.492251170445166
40
0.498139342317709
40
0.498139342317709
40
0.521692029807883
40
0.521692029807883
40
0.53346837355297
40
0.53346837355297
40
0.539356545425514
40
0.539356545425514
40
0.545244717298057
40
0.545244717298057
40
0.568797404788231
40
0.568797404788231
40
0.592350092278405
40
0.592350092278405
40
0.604126436023491
40
0.610014607896034
40
0.610014607896034
40
0.615902779768578
40
0.615902779768578
40
0.621790951641121
40
0.621790951641121
40
0.627679123513664
40
0.639455467258751
40
0.639455467258751
40
0.663008154748924
40
0.663008154748924
40
0.686560842239097
40
0.686560842239097
40
0.71011352972927
40
0.71011352972927
40
0.716001701601813
40
0.716001701601813
40
0.721889873474356
40
0.721889873474356
40
0.733666217219443
40
0.733666217219443
40
0.739554389091987
40
0.739554389091987
40
0.74544256096453
40
0.74544256096453
40
0.757218904709617
40
0.757218904709617
40
0.780771592199789
40
0.780771592199789
40
0.804324279689962
40
0.804324279689962
40
0.827876967180135
40
0.827876967180135
40
0.851429654670308
40
0.851429654670308
40
0.857317826542851
40
0.857317826542851
40
0.863205998415394
40
0.863205998415394
40
0.87498234216048
40
0.87498234216048
40
0.898535029650652
40
0.898535029650652
40
0.945640404630997
40
0.945640404630997
40
0.96919309212117
40
0.96919309212117
40
0.980969435866256
40
0.980969435866256
40
0.986857607738799
40
0.986857607738799
40
0.992745779611342
40
0.992745779611342
40
1
40
1
40
1
40
1
41
1
10
15.8068770021067
20
4.79109728247664
30
0
41
1
10
15.8466321454153
20
4.79116859056836
30
0
41
1
10
15.8863806517362
20
4.79108753168271
30
0
41
1
10
16.1909906979894
20
4.7893088237816
30
0
41
1
10
16.4549325139627
20
4.78103842974605
30
0
41
1
10
16.9813546630439
20
4.751248926296
30
0
41
1
10
17.2438172958145
20
4.72971395559611
30
0
41
1
10
17.7680982473005
20
4.6737187012387
30
0
41
1
10
18.0298639903849
20
4.63924572114269
30
0
41
1
10
18.5532590207472
20
4.55771774733242
30
0
41
1
10
18.8149161782571
20
4.51069263218446
30
0
41
1
10
19.2073628683549
20
4.43074929773036
30
0
41
1
10
19.3381839223568
20
4.40253892460487
30
0
41
1
10
19.5999083818936
20
4.34302575155465
30
0
41
1
10
19.7307845340448
20
4.31169992203095
30
0
41
1
10
19.9273012869056
20
4.26249226096701
30
0
41
1
10
19.9928962326111
20
4.24576818759647
30
0
41
1
10
20.1241399108813
20
4.21157529842174
30
0
41
1
10
20.3210794878961
20
4.15916028201909
30
0
41
1
10
20.5182713882161
20
4.10338246446247
30
0
41
1
10
20.9130687064361
20
3.98737244634324
30
0
41
1
10
21.1767763901302
20
3.9040427306447
30
0
41
1
10
21.5075471160945
20
3.7927546753985
30
0
41
1
10
21.5737593697727
20
3.77014279566527
30
0
41
1
10
21.7063072994328
20
3.72421502259894
30
0
41
1
10
21.7726201268555
20
3.70090656011581
30
0
41
1
10
21.9712678180985
20
3.63010980431605
30
0
41
1
10
22.1034643423825
20
3.58169359973019
30
0
41
1
10
22.4994772400594
20
3.43298328111609
30
0
41
1
10
22.7627820572374
20
3.32931861553931
30
0
41
1
10
23.2881005781939
20
3.11320627134009
30
0
41
1
10
23.5501018394275
20
3.00073428778725
30
0
41
1
10
23.8771344767583
20
2.85513973609477
30
0
41
1
10
23.9425033553668
20
2.82574929678654
30
0
41
1
10
24.0732889690699
20
2.76661022306743
30
0
41
1
10
24.1387329420627
20
2.73690334557574
30
0
41
1
10
24.3349926084867
20
2.64703607492422
30
0
41
1
10
24.4657792771537
20
2.58619247638191
30
0
41
1
10
24.8580560250059
20
2.40097971049806
30
0
41
1
10
25.1194341270302
20
2.27388203380298
30
0
41
1
10
25.6425012241618
20
2.01333452755983
30
0
41
1
10
25.9042577187583
20
1.8799970357023
30
0
41
1
10
26.2976116331961
20
1.67601017077308
30
0
41
1
10
26.4288503241224
20
1.6073524459263
30
0
41
1
10
26.6916597115757
20
1.46886420209626
30
0
41
1
10
26.8232347174885
20
1.39904209096318
30
0
41
1
10
27.2184616543753
20
1.18780716949459
30
0
41
1
10
27.4825905346979
20
1.04453462756177
30
0
41
1
10
27.8138298505576
20
0.862936123489447
30
0
41
1
10
27.8800101640698
20
0.826558995500449
30
0
41
1
10
28.0122442746864
20
0.753705716418239
30
0
41
1
10
28.0782831434334
20
0.717201325089775
30
0
41
1
10
28.2103491175056
20
0.644310358048443
30
0
41
1
10
28.2763860366797
20
0.60794203913872
30
0
41
1
10
28.4083272851111
20
0.53509249009025
30
0
41
1
10
28.7379209716681
20
0.352823306590949
30
0
41
1
10
29.0662852432691
20
0.16994910832679
30
0
41
1
10
29.5905404390928
20
-0.122606784814764
30
0
41
1
10
29.8521726229925
20
-0.268735678632396
30
0
41
1
10
30.3750810303615
20
-0.5595434687622
30
0
41
1
10
30.6363364341946
20
-0.704260515874807
30
0
41
1
10
31.1590549874417
20
-0.991232717683204
30
0
41
1
10
31.420419198845
20
-1.13366726247639
30
0
41
1
10
31.8127184295973
20
-1.34528721508295
30
0
41
1
10
31.9435356294549
20
-1.41547303233202
30
0
41
1
10
32.1398880358141
20
-1.52012841048514
30
0
41
1
10
32.2053450622887
20
-1.55493568192122
30
0
41
1
10
32.3364236111668
20
-1.62412757306311
30
0
41
1
10
32.4020464178184
20
-1.65851026229078
30
0
41
1
10
32.7302461329525
20
-1.82993950902599
30
0
41
1
10
32.9933087399295
20
-1.96513185829136
30
0
41
1
10
33.3889707606059
20
-2.16441533737395
30
0
41
1
10
33.5210329847358
20
-2.23026412359786
30
0
41
1
10
33.7194779889103
20
-2.32801057362602
30
0
41
1
10
33.785726280068
20
-2.36044155536567
30
0
41
1
10
33.9181130704191
20
-2.42482173358553
30
0
41
1
10
33.984247061044
20
-2.456769967013
30
0
41
1
10
34.3146385703763
20
-2.61528060321743
30
0
41
1
10
34.5780421193878
20
-2.73817879006063
30
0
41
1
10
35.1037001429954
20
-2.97530788129947
30
0
41
1
10
35.3659405144517
20
-3.08957152558605
30
0
41
1
10
35.7585107137033
20
-3.25444321911357
30
0
41
1
10
35.9546165481216
20
-3.33521972453778
30
0
41
1
10
36.1505312274365
20
-3.41340323423216
30
0
41
1
10
36.2811063636717
20
-3.46493903609397
30
0
41
1
10
36.3463646634057
20
-3.49042814402944
30
0
41
1
10
36.4769880802793
20
-3.54064409021609
30
0
41
1
10
36.5423311823539
20
-3.56539986209131
30
0
41
1
10
36.6729778920629
20
-3.61433588137228
30
0
41
1
10
36.8689271524818
20
-3.68682799616539
30
0
41
1
10
37.064843422559
20
-3.75654707472401
30
0
41
1
10
37.456705951662
20
-3.8921895975696
30
0
41
1
10
37.7179507796208
20
-3.97759181351827
30
0
41
1
10
38.2412429364573
20
-4.13740205651752
30
0
41
1
10
38.5032744072847
20
-4.21183103726906
30
0
41
1
10
39.0286656275757
20
-4.34910989798692
30
0
41
1
10
39.2920938994689
20
-4.41191069444656
30
0
41
1
10
39.6223623897676
20
-4.48293927965702
30
0
41
1
10
39.6884658898421
20
-4.49677029106829
30
0
41
1
10
39.8207823921219
20
-4.52367089469624
30
0
41
1
10
39.8869978261561
20
-4.53674031078478
30
0
41
1
10
40.0853252093101
20
-4.57469758607539
30
0
41
1
10
40.2172840986865
20
-4.59836866122214
30
0
41
1
10
40.4148847676406
20
-4.63141169080362
30
0
41
1
10
40.4806885887309
20
-4.64201813099086
30
0
41
1
10
40.6123261627486
20
-4.66234235480465
30
0
41
1
10
40.6781275914873
20
-4.67207843420684
30
0
41
1
10
40.8753631977325
20
-4.70007412680377
30
0
41
1
10
41.0066721489279
20
-4.71709847503166
30
0
41
1
10
41.4001335343296
20
-4.76324453530913
30
0
41
1
10
41.6617880751691
20
-4.78744690725478
30
0
41
1
10
42.1844353825333
20
-4.82259831273709
30
0
41
1
10
42.4454764091778
20
-4.83354109016511
30
0
41
1
10
42.9674961125393
20
-4.84215901213764
30
0
41
1
10
43.2285362023609
20
-4.8398366236232
30
0
41
1
10
43.7509849095662
20
-4.82193720838421
30
0
41
1
10
44.0123187124402
20
-4.80634507630958
30
0
41
1
10
44.3394629556629
20
-4.77849695969706
30
0
41
1
10
44.4049157794897
20
-4.77250953267841
30
0
41
1
10
44.5358775212016
20
-4.75969779339013
30
0
41
1
10
44.60138030339
20
-4.75287041184725
30
0
41
1
10
44.7981824009535
20
-4.73120945167651
30
0
41
1
10
44.9295949237939
20
-4.71513686067775
30
0
41
1
10
45.324242733315
20
-4.66189813465277
30
0
41
1
10
45.5880242958405
20
-4.61974668923708
30
0
41
1
10
46.3819541826257
20
-4.47323297614793
30
0
41
1
10
46.907218741963
20
-4.35041141915656
30
0
41
1
10
47.6926556466251
20
-4.13241696649078
30
0
41
1
10
47.9539524943025
20
-4.05403696403374
30
0
41
1
10
48.3454212894216
20
-3.92819814048445
30
0
41
1
10
48.4758376316713
20
-3.88487960345728
30
0
41
1
10
48.6714006384433
20
-3.8178927629296
30
0
41
1
10
48.7365799881568
20
-3.79523047178023
30
0
41
1
10
48.8670534029984
20
-3.74939275340441
30
0
41
1
10
48.9323095765055
20
-3.72617499800955
30
0
41
1
10
49.077942576033
20
-3.67361474926145
30
0
41
1
10
49.1583281109599
20
-3.64411600824224
30
0
41
1
10
49.238719802955
20
-3.6141361045465
30
0
0
SPLINE
5
F1
100
AcDbEntity
8
1
62
256
6
ByLayer
370
18
48
1
60
0
100
AcDbSpline
70
4
71
3
72
137
73
133
40
0
40
0
40
0
40
0
40
0.0045706831650007
40
0.0045706831650007
40
0.02789049123837
40
0.02789049123837
40
0.0512102993117392
40
0.0512102993117392
40
0.0745301073851082
40
0.0745301073851082
40
0.0978499154584774
40
0.0978499154584774
40
0.10367986747682
40
0.10367986747682
40
0.109509819495162
40
0.109509819495162
40
0.121169723531848
40
0.121169723531848
40
0.144489531605218
40
0.144489531605218
40
0.167809339678589
40
0.167809339678589
40
0.173639291696932
40
0.173639291696932
40
0.179469243715275
40
0.179469243715275
40
0.191129147751961
40
0.191129147751961
40
0.214448955825334
40
0.214448955825334
40
0.226108859862021
40
0.226108859862021
40
0.237768763898707
40
0.237768763898707
40
0.261088571972082
40
0.261088571972082
40
0.307728188118832
40
0.307728188118832
40
0.331047996192207
40
0.331047996192207
40
0.342707900228894
40
0.342707900228894
40
0.348537852247237
40
0.348537852247237
40
0.35436780426558
40
0.35436780426558
40
0.377687612338951
40
0.377687612338951
40
0.401007420412323
40
0.401007420412323
40
0.424327228485694
40
0.424327228485694
40
0.447647036559066
40
0.447647036559066
40
0.459306940595751
40
0.459306940595751
40
0.470966844632436
40
0.470966844632436
40
0.48262674866912
40
0.48262674866912
40
0.494286652705806
40
0.494286652705806
40
0.517606460779177
40
0.517606460779177
40
0.523436412797519
40
0.523436412797519
40
0.529266364815861
40
0.529266364815861
40
0.540926268852546
40
0.540926268852546
40
0.564246076925918
40
0.564246076925918
40
0.587565884999289
40
0.587565884999289
40
0.593395837017633
40
0.593395837017633
40
0.599225789035976
40
0.599225789035976
40
0.610885693072661
40
0.610885693072661
40
0.63420550114603
40
0.63420550114603
40
0.6575253092194
40
0.6575253092194
40
0.680845117292769
40
0.680845117292769
40
0.692505021329455
40
0.692505021329455
40
0.698334973347797
40
0.698334973347797
40
0.704164925366139
40
0.704164925366139
40
0.715824829402824
40
0.715824829402824
40
0.72748473343951
40
0.72748473343951
40
0.750804541512884
40
0.750804541512884
40
0.774124349586257
40
0.774124349586257
40
0.797444157659631
40
0.797444157659631
40
0.820763965733004
40
0.820763965733004
40
0.83242386976969
40
0.83242386976969
40
0.838253821788034
40
0.838253821788034
40
0.844083773806377
40
0.844083773806377
40
0.867403581879749
40
0.867403581879749
40
0.879063485916434
40
0.879063485916434
40
0.884893437934777
40
0.884893437934777
40
0.890723389953121
40
0.890723389953121
40
0.914043198026497
40
0.914043198026497
40
0.937363006099875
40
0.937363006099875
40
0.949022910136563
40
0.954852862154908
40
0.954852862154908
40
0.960682814173252
40
0.960682814173252
40
0.972342718209938
40
0.972342718209938
40
0.984002622246625
40
0.984002622246625
40
1
40
1
40
1
40
1
41
1
10
70.0575350797948
20
4.8887482724079
30
0
41
1
10
70.1092174305699
20
4.88884597818446
30
0
41
1
10
70.1608617418945
20
4.8886813204463
30
0
41
1
10
70.4757750534094
20
4.88608059411959
30
0
41
1
10
70.7381077370013
20
4.8770896811462
30
0
41
1
10
71.2616063988432
20
4.84575492779425
30
0
41
1
10
71.5227451960074
20
4.82341048402964
30
0
41
1
10
72.0443975659757
20
4.76569120249613
30
0
41
1
10
72.3049607793167
20
4.73034645567196
30
0
41
1
10
72.8256808352279
20
4.64678929122107
30
0
41
1
10
73.0858643267295
20
4.59858004245712
30
0
41
1
10
73.411204762461
20
4.53042350355537
30
0
41
1
10
73.4762916112871
20
4.51640588254023
30
0
41
1
10
73.6065845693613
20
4.48765990056592
30
0
41
1
10
73.6717558531907
20
4.47290749313183
30
0
41
1
10
73.8673026602251
20
4.42748052328832
30
0
41
1
10
73.9977312172125
20
4.39565048858589
30
0
41
1
10
74.3892884258404
20
4.29555882010669
30
0
41
1
10
74.6506590447268
20
4.22266720902564
30
0
41
1
10
75.1747143748616
20
4.06492532050092
30
0
41
1
10
75.4374305142771
20
3.98010913622224
30
0
41
1
10
75.767028065931
20
3.86687138601957
30
0
41
1
10
75.8330500883156
20
3.84384912172098
30
0
41
1
10
75.9649707040269
20
3.79718567211981
30
0
41
1
10
76.0308732037652
20
3.77354406753781
30
0
41
1
10
76.2284222226646
20
3.70171219389323
30
0
41
1
10
76.3599072161247
20
3.652611661382
30
0
41
1
10
76.7537301856773
20
3.50171161429987
30
0
41
1
10
77.0154200592067
20
3.39629090329404
30
0
41
1
10
77.4070818191142
20
3.23151939070283
30
0
41
1
10
77.5374429230322
20
3.17542164457024
30
0
41
1
10
77.7982850402646
20
3.06159498598996
30
0
41
1
10
77.928626901456
20
3.00367523376542
30
0
41
1
10
78.3194033151508
20
2.8268885845425
30
0
41
1
10
78.5796160515603
20
2.70503196164958
30
0
41
1
10
79.3600650351612
20
2.32852229722434
30
0
41
1
10
79.8803325071176
20
2.063249887772
30
0
41
1
10
80.6641256243513
20
1.64928080113543
30
0
41
1
10
80.9258646855051
20
1.50846522678478
30
0
41
1
10
81.3195146560124
20
1.29346660599143
30
0
41
1
10
81.4509099699834
20
1.22117995785581
30
0
41
1
10
81.6483216437292
20
1.11189351140487
30
0
41
1
10
81.7141891140156
20
1.07534091322
30
0
41
1
10
81.8461349374912
20
1.00214442612383
30
0
41
1
10
81.9120945720561
20
0.965486692699642
30
0
41
1
10
82.2414750702289
20
0.781935806433239
30
0
41
1
10
82.5040143706277
20
0.634243863869699
30
0
41
1
10
83.027594926596
20
0.337928011835231
30
0
41
1
10
83.2886588919801
20
0.189346699887068
30
0
41
1
10
83.8100315695124
20
-0.107413121165678
30
0
41
1
10
84.0703034202284
20
-0.255658451653545
30
0
41
1
10
84.590675271695
20
-0.55071234081791
30
0
41
1
10
84.850739107743
20
-0.697587037370113
30
0
41
1
10
85.2408258163577
20
-0.916607494821619
30
0
41
1
10
85.3708627036486
20
-0.989382033922112
30
0
41
1
10
85.6310186564913
20
-1.13434783640812
30
0
41
1
10
85.7610867873636
20
-1.20662779488805
30
0
41
1
10
86.0216943328007
20
-1.3499230343163
30
0
41
1
10
86.152117947793
20
-1.42114140365632
30
0
41
1
10
86.4131620730572
20
-1.56279198968289
30
0
41
1
10
86.5437978132441
20
-1.63319761629205
30
0
41
1
10
86.9361259126091
20
-1.8430117442752
30
0
41
1
10
87.1982139114908
20
-1.98106010621623
30
0
41
1
10
87.5269643358068
20
-2.15050687299575
30
0
41
1
10
87.5927709546941
20
-2.18424142120301
30
0
41
1
10
87.7245054161831
20
-2.25138644424851
30
0
41
1
10
87.7904615074566
20
-2.28481093820022
30
0
41
1
10
87.988047373356
20
-2.38433705486202
30
0
41
1
10
88.1195294162667
20
-2.44976238251215
30
0
41
1
10
88.5133872374664
20
-2.64308115905203
30
0
41
1
10
88.7752117444541
20
-2.76796675599928
30
0
41
1
10
89.2975409202914
20
-3.00963580447859
30
0
41
1
10
89.5580666936687
20
-3.12638042747579
30
0
41
1
10
89.8832571200761
20
-3.26675720740792
30
0
41
1
10
89.9482782237496
20
-3.29454586626221
30
0
41
1
10
90.078379592973
20
-3.34943028730441
30
0
41
1
10
90.1434285458621
20
-3.37656809038606
30
0
41
1
10
90.338521029304
20
-3.45713440082116
30
0
41
1
10
90.4685326084683
20
-3.50968610972174
30
0
41
1
10
90.8584964907738
20
-3.66376249818475
30
0
41
1
10
91.1183520569486
20
-3.76173801268388
30
0
41
1
10
91.6384303136025
20
-3.94743281534986
30
0
41
1
10
91.8986840959085
20
-4.03511900866809
30
0
41
1
10
92.420151285603
20
-4.19953304896811
30
0
41
1
10
92.6814169286768
20
-4.27621241759598
30
0
41
1
10
93.0743879425665
20
-4.38258861890731
30
0
41
1
10
93.2055438657009
20
-4.41661755636136
30
0
41
1
10
93.4025752924135
20
-4.46545143342937
30
0
41
1
10
93.4683023804725
20
-4.48136083846239
30
0
41
1
10
93.5998655166377
20
-4.51243104400879
30
0
41
1
10
93.6657322338138
20
-4.52759868703873
30
0
41
1
10
93.8632955542262
20
-4.57191417211155
30
0
41
1
10
93.9946891365616
20
-4.59985795879732
30
0
41
1
10
94.257314592175
20
-4.65227822478536
30
0
41
1
10
94.3884469339631
20
-4.67682638705432
30
0
41
1
10
94.781229953043
20
-4.74557838091152
30
0
41
1
10
95.0423236490986
20
-4.78485236346921
30
0
41
1
10
95.5634705607128
20
-4.85017726576626
30
0
41
1
10
95.8235716288803
20
-4.87620675454781
30
0
41
1
10
96.3434118160799
20
-4.91491668544961
30
0
41
1
10
96.6031515966663
20
-4.92759702626054
30
0
41
1
10
97.1228477149794
20
-4.93957128179164
30
0
41
1
10
97.3827242069109
20
-4.93887506011595
30
0
41
1
10
97.7728856267151
20
-4.92771936208393
30
0
41
1
10
97.9030024267562
20
-4.92231535942153
30
0
41
1
10
98.0983198963305
20
-4.91166967957423
30
0
41
1
10
98.163444475571
20
-4.90769618921337
30
0
41
1
10
98.2938480806006
20
-4.8989247435772
30
0
41
1
10
98.3591041289415
20
-4.89412290502412
30
0
41
1
10
98.6855193579458
20
-4.86799729336977
30
0
41
1
10
98.9472097760336
20
-4.84035329611814
30
0
41
1
10
99.3409135633378
20
-4.78867677441613
30
0
41
1
10
99.4723420927375
20
-4.76974792968824
30
0
41
1
10
99.669852924709
20
-4.73880381768299
30
0
41
1
10
99.7356888990036
20
-4.72807346769494
30
0
41
1
10
99.8671886443376
20
-4.70581969894539
30
0
41
1
10
99.9328798901389
20
-4.69429183833734
30
0
41
1
10
100.261063784282
20
-4.63466927037035
30
0
41
1
10
100.522725989324
20
-4.58061370767823
30
0
41
1
10
101.044953223424
20
-4.46044719476228
30
0
41
1
10
101.305498952219
20
-4.39433135835645
30
0
41
1
10
101.695645376334
20
-4.28632144300801
30
0
41
1
10
101.890563737947
20
-4.2301166039498
30
0
41
1
10
102.085323747948
20
-4.17068078800369
30
0
41
1
10
102.215136018241
20
-4.13034586739451
30
0
41
1
10
102.280022352294
20
-4.10981652611645
30
0
41
1
10
102.474796858802
20
-4.047321063895
30
0
41
1
10
102.604678644166
20
-4.00432938310061
30
0
41
1
10
102.864400179427
20
-3.91558427864888
30
0
41
1
10
102.99426408632
20
-3.86985495391761
30
0
41
1
10
103.302370565661
20
-3.75822552998571
30
0
41
1
10
103.480627039447
20
-3.69113451803324
30
0
41
1
10
103.65903865237
20
-3.62163735981906
30
0
0
SPLINE
5
F2
100
AcDbEntity
8
1
62
256
6
ByLayer
370
18
48
1
60
0
100
AcDbSpline
70
4
71
3
72
101
73
97
40
0
40
0
40
0
40
0
40
0.0028743035970433
40
0.0028743035970433
40
0.0258686239072548
40
0.0258686239072548
40
0.0488629442174662
40
0.0488629442174662
40
0.0718572645276777
40
0.0718572645276777
40
0.0948515848378891
40
0.0948515848378891
40
0.117845905148101
40
0.117845905148101
40
0.129343065303206
40
0.129343065303206
40
0.140840225458312
40
0.140840225458312
40
0.163834545768523
40
0.163834545768523
40
0.186828866078735
40
0.186828866078735
40
0.209823186388946
40
0.209823186388946
40
0.255811827009369
40
0.255811827009369
40
0.27880614731958
40
0.27880614731958
40
0.301800467629792
40
0.301800467629792
40
0.313297627784898
40
0.319046207862451
40
0.319046207862451
40
0.324794787940004
40
0.324794787940004
40
0.347789108250219
40
0.347789108250219
40
0.370783428560433
40
0.370783428560433
40
0.393777748870647
40
0.393777748870647
40
0.439766389491076
40
0.439766389491076
40
0.46276070980129
40
0.46276070980129
40
0.485755030111504
40
0.485755030111504
40
0.497252190266612
40
0.497252190266612
40
0.503000770344165
40
0.503000770344165
40
0.508749350421718
40
0.508749350421718
40
0.531743670731928
40
0.531743670731928
40
0.554737991042137
40
0.554737991042137
40
0.577732311352347
40
0.577732311352347
40
0.623720951972766
40
0.623720951972766
40
0.646715272282976
40
0.646715272282976
40
0.669709592593185
40
0.669709592593185
40
0.68120675274829
40
0.68120675274829
40
0.692703912903395
40
0.692703912903395
40
0.715698233213605
40
0.715698233213605
40
0.738692553523816
40
0.738692553523816
40
0.761686873834026
40
0.761686873834026
40
0.807675514454447
40
0.807675514454447
40
0.830669834764657
40
0.830669834764657
40
0.853664155074868
40
0.853664155074868
40
0.859412735152421
40
0.859412735152421
40
0.865161315229974
40
0.865161315229974
40
0.876658475385079
40
0.876658475385079
40
0.899652795695291
40
0.899652795695291
40
0.922647116005502
40
0.922647116005502
40
0.945641436315714
40
0.945641436315714
40
0.991630076936137
40
0.991630076936137
40
1
40
1
40
1
40
1
41
1
10
55.5665609925554
20
-4.8626645251791
30
0
41
1
10
55.5345323049097
20
-4.86260480849688
30
0
41
1
10
55.5025114095981
20
-4.86244507192595
30
0
41
1
10
55.2143902200465
20
-4.8601087854353
30
0
41
1
10
54.9587452699171
20
-4.85164440606061
30
0
41
1
10
54.4479835277182
20
-4.8220974686603
30
0
41
1
10
54.1928792292109
20
-4.80100798948897
30
0
41
1
10
53.6826562651728
20
-4.74638223623774
30
0
41
1
10
53.4275305811897
20
-4.7128515194874
30
0
41
1
10
52.9168049805282
20
-4.63353188274601
30
0
41
1
10
52.661214843597
20
-4.58773841190424
30
0
41
1
10
52.1491398578315
20
-4.48403443559857
30
0
41
1
10
51.892646016062
20
-4.42612720031258
30
0
41
1
10
51.5068118213536
20
-4.33036285771908
30
0
41
1
10
51.3780191619633
20
-4.29695712305102
30
0
41
1
10
51.1200096874031
20
-4.22720374372076
30
0
41
1
10
50.9907452514729
20
-4.19084313774232
30
0
41
1
10
50.6025242868316
20
-4.07746674847388
30
0
41
1
10
50.3446561556345
20
-3.99658625593881
30
0
41
1
10
49.8303221104232
20
-3.82490608694471
30
0
41
1
10
49.5738316074203
20
-3.73413309637533
30
0
41
1
10
49.0616849945638
20
-3.54344965120649
30
0
41
1
10
48.8060318175437
20
-3.44353748583848
30
0
41
1
10
48.039733326583
20
-3.13095147079014
30
0
41
1
10
47.5297399361151
20
-2.90542236774454
30
0
41
1
10
46.762988663116
20
-2.54580176122209
30
0
41
1
10
46.5071204157742
20
-2.4223645410423
30
0
41
1
10
45.9944224807435
20
-2.16890958367307
30
0
41
1
10
45.7375902721177
20
-2.03889255712696
30
0
41
1
10
45.3511702310985
20
-1.83959811752015
30
0
41
1
10
45.157669784348
20
-1.738880129731
30
0
41
1
10
44.9636687877847
20
-1.63665025086499
30
0
41
1
10
44.8342159100005
20
-1.56817217867407
30
0
41
1
10
44.7694703681524
20
-1.53379178954333
30
0
41
1
10
44.4461826888515
20
-1.36150608142614
30
0
41
1
10
44.188455995818
20
-1.22214889061493
30
0
41
1
10
43.6742988045238
20
-0.941309583293759
30
0
41
1
10
43.4178594845787
20
-0.799843643783078
30
0
41
1
10
42.9057397819986
20
-0.515767267379118
30
0
41
1
10
42.6500576570463
20
-0.373159968488977
30
0
41
1
10
41.8835209147809
20
0.0552322874849267
30
0
41
1
10
41.3732355340391
20
0.341695871102616
30
0
41
1
10
40.6057896561438
20
0.766992636104874
30
0
41
1
10
40.3496496182851
20
0.908046322968261
30
0
41
1
10
39.836336844399
20
1.18803053519218
30
0
41
1
10
39.5791377027593
20
1.32691301009274
30
0
41
1
10
39.1921308860509
20
1.53285427994461
30
0
41
1
10
39.0629263568478
20
1.60110265793472
30
0
41
1
10
38.868769992756
20
1.70279299080997
30
0
41
1
10
38.803959813289
20
1.73659296139311
30
0
41
1
10
38.6745020747339
20
1.80380221997191
30
0
41
1
10
38.6098291847712
20
1.83722492728953
30
0
41
1
10
38.286727069177
20
2.00340507463062
30
0
41
1
10
38.0290922866418
20
2.13337639205733
30
0
41
1
10
37.5150733229603
20
2.38675619404006
30
0
41
1
10
37.2586701097053
20
2.51013089219498
30
0
41
1
10
36.7465264466327
20
2.74947588784687
30
0
41
1
10
36.4907947213148
20
2.8654619652151
30
0
41
1
10
35.723994267307
20
3.20150978093221
30
0
41
1
10
35.2133699757886
20
3.40971434749204
30
0
41
1
10
34.445215619062
20
3.69407122066488
30
0
41
1
10
34.1887974502851
20
3.7842072481624
30
0
41
1
10
33.6748333159426
20
3.95462953088804
30
0
41
1
10
33.4172952863833
20
4.03492115395278
30
0
41
1
10
33.0297086630747
20
4.14740018340675
30
0
41
1
10
32.9002599992116
20
4.18357767994198
30
0
41
1
10
32.6410406354877
20
4.25315800399966
30
0
41
1
10
32.5116605331434
20
4.28645681221519
30
0
41
1
10
32.1241206980822
20
4.38185450664986
30
0
41
1
10
31.8665747974349
20
4.43946604594038
30
0
41
1
10
31.3526318151731
20
4.54255444631431
30
0
41
1
10
31.0962294063418
20
4.58802592491821
30
0
41
1
10
30.5840306023663
20
4.66665164120809
30
0
41
1
10
30.328236002585
20
4.69980924177165
30
0
41
1
10
29.5611128262826
20
4.78064874829619
30
0
41
1
10
29.0501483530972
20
4.80970549416378
30
0
41
1
10
28.281261499858
20
4.81522590867775
30
0
41
1
10
28.0245651179199
20
4.81073065856052
30
0
41
1
10
27.5099789896024
20
4.78894523042362
30
0
41
1
10
27.2520813824719
20
4.77165195228559
30
0
41
1
10
26.9286091634295
20
4.74197244152884
30
0
41
1
10
26.863859691053
20
4.73563351054588
30
0
41
1
10
26.7342425061677
20
4.72214828355118
30
0
41
1
10
26.6693766576193
20
4.71500155197063
30
0
41
1
10
26.4750625311196
20
4.69240701878445
30
0
41
1
10
26.3457402319288
20
4.67578913243804
30
0
41
1
10
25.9583413684854
20
4.62135759753951
30
0
41
1
10
25.7008367171494
20
4.57896594331658
30
0
41
1
10
25.1869371275583
20
4.4823721212318
30
0
41
1
10
24.9305314027236
20
4.42817270636894
30
0
41
1
10
24.4182390573797
20
4.30848421932976
30
0
41
1
10
24.162362063565
20
4.24299095866621
30
0
41
1
10
23.3948995772257
20
4.03018910724273
30
0
41
1
10
22.8835609328828
20
3.86646456011582
30
0
41
1
10
22.2771035353506
20
3.64946073718372
30
0
41
1
10
22.1836658317962
20
3.61539026288818
30
0
41
1
10
22.0901605633544
20
3.58067208123384
30
0
0
SPLINE
5
F3
100
AcDbEntity
8
1
62
256
6
ByLayer
370
18
48
1
60
0
100
AcDbSpline
70
4
71
3
72
88
73
84
40
0
40
0
40
0
40
0
40
0.0045023568952421
40
0.0045023568952421
40
0.0497522497636483
40
0.0497522497636483
40
0.0610647229807498
40
0.0610647229807498
40
0.0723771961978514
40
0.0950021426320554
40
0.0950021426320554
40
0.140252035500464
40
0.140252035500464
40
0.151564508717566
40
0.151564508717566
40
0.162876981934668
40
0.185501928368872
40
0.185501928368872
40
0.230751821237279
40
0.230751821237279
40
0.24206429445438
40
0.24206429445438
40
0.253376767671482
40
0.276001714105685
40
0.276001714105685
40
0.32125160697409
40
0.32125160697409
40
0.33256408019119
40
0.33256408019119
40
0.34387655340829
40
0.36650149984249
40
0.36650149984249
40
0.411751392710891
40
0.411751392710891
40
0.423063865927991
40
0.423063865927991
40
0.434376339145091
40
0.434376339145091
40
0.457001285579291
40
0.457001285579291
40
0.479626232013492
40
0.479626232013492
40
0.490938705230592
40
0.490938705230592
40
0.502251178447692
40
0.502251178447692
40
0.547501071316091
40
0.547501071316091
40
0.57012601775029
40
0.57012601775029
40
0.581438490967389
40
0.581438490967389
40
0.592750964184487
40
0.592750964184487
40
0.63800085705288
40
0.63800085705288
40
0.660625803487076
40
0.660625803487076
40
0.671938276704173
40
0.67759451331272
40
0.67759451331272
40
0.683250749921268
40
0.683250749921268
40
0.728500642789651
40
0.728500642789651
40
0.819000428526418
40
0.819000428526418
40
0.841625374960609
40
0.841625374960609
40
0.852937848177706
40
0.858594084786255
40
0.858594084786255
40
0.864250321394805
40
0.864250321394805
40
0.909500214263201
40
0.909500214263201
40
0.932125160697399
40
0.932125160697399
40
0.9434376339145
40
0.9434376339145
40
0.9547501071316
40
0.9547501071316
40
1
40
1
40
1
40
1
41
1
10
77.19117646954
20
3.86466934004815
30
0
41
1
10
77.2406744186338
20
3.8819629298099
30
0
41
1
10
77.2901675044316
20
3.89906552267502
30
0
41
1
10
77.8370465782092
20
4.08592175475746
30
0
41
1
10
78.3341445065065
20
4.23638467690509
30
0
41
1
10
78.9572004414954
20
4.39801146146422
30
0
41
1
10
79.0819680533992
20
4.42902904030433
30
0
41
1
10
79.3313471580062
20
4.48826763346389
30
0
41
1
10
79.7050970076452
20
4.57291634897365
30
0
41
1
10
80.0781484394221
20
4.64480146157334
30
0
41
1
10
80.824018653019
20
4.77120079804109
30
0
41
1
10
81.320988213672
20
4.83229606168021
30
0
41
1
10
81.9439957919042
20
4.87865821995612
30
0
41
1
10
82.0687549276775
20
4.88643254851181
30
0
41
1
10
82.3180007828803
20
4.89893027029328
30
0
41
1
10
82.6915610905048
20
4.91311344121618
30
0
41
1
10
83.0644515039317
20
4.91362210494907
30
0
41
1
10
83.8100368123351
20
4.8964638234562
30
0
41
1
10
84.3068409396646
20
4.86078487417197
30
0
41
1
10
84.9298522154967
20
4.7861882232022
30
0
41
1
10
85.0545884592752
20
4.76976196309903
30
0
41
1
10
85.3037343578276
20
4.73400366655142
30
0
41
1
10
85.6771660329897
20
4.67598635054074
30
0
41
1
10
86.0499744761626
20
4.60499054800871
30
0
41
1
10
86.795424450525
20
4.44613529598115
30
0
41
1
10
87.2921656669846
20
4.3177380549067
30
0
41
1
10
87.9151212509847
20
4.13071211697923
30
0
41
1
10
88.0397853982736
20
4.09198791487304
30
0
41
1
10
88.2887925744399
20
4.01212543918183
30
0
41
1
10
88.6620342799752
20
3.88864732860901
30
0
41
1
10
89.0346999308839
20
3.75439184236077
30
0
41
1
10
89.7799156560791
20
3.47227621630987
30
0
41
1
10
90.276566356018
20
3.26604685029258
30
0
41
1
10
90.8994940074352
20
2.98831403183016
30
0
41
1
10
91.0240570082842
20
2.93182788326087
30
0
41
1
10
91.2729344321582
20
2.81718378859639
30
0
41
1
10
91.3972897973473
20
2.75900765367857
30
0
41
1
10
91.7701921079203
20
2.58205090597056
30
0
41
1
10
92.0185780676875
20
2.46084635271376
30
0
41
1
10
92.5153455774773
20
2.21263490448109
30
0
41
1
10
92.7637227703499
20
2.08562121317664
30
0
41
1
10
93.1365997966952
20
1.89123377186689
30
0
41
1
10
93.2609442994473
20
1.82579389035632
30
0
41
1
10
93.5097941818141
20
1.69371325685691
30
0
41
1
10
93.6343516560633
20
1.62704439141314
30
0
41
1
10
94.2570889025521
20
1.29124592556954
30
0
41
1
10
94.7534920569272
20
1.0156615530623
30
0
41
1
10
95.4981773688362
20
0.596671784022107
30
0
41
1
10
95.7464106317077
20
0.45605825238303
30
0
41
1
10
96.1190929781455
20
0.244278348088898
30
0
41
1
10
96.2433761128449
20
0.173542255745673
30
0
41
1
10
96.4921109354697
20
0.0318840368766757
30
0
41
1
10
96.616604027847
20
-0.039061655100511
30
0
41
1
10
97.2391825704983
20
-0.39373942432735
30
0
41
1
10
97.735494301979
20
-0.676102857631889
30
0
41
1
10
98.4801618129425
20
-1.09267746249304
30
0
41
1
10
98.7284199514845
20
-1.23037055457476
30
0
41
1
10
99.1011618608568
20
-1.43464045434902
30
0
41
1
10
99.2876213585115
20
-1.53620813163732
30
0
41
1
10
99.4742731038795
20
-1.63682153566089
30
0
41
1
10
99.598757225356
20
-1.70367306748867
30
0
41
1
10
99.661038302244
20
-1.73699428512447
30
0
41
1
10
100.220855126067
20
-2.0353088971396
30
0
41
1
10
100.714997667977
20
-2.2901293712259
30
0
41
1
10
102.192506070548
20
-3.01577114720541
30
0
41
1
10
103.171073119344
20
-3.44760457087096
30
0
41
1
10
104.403292848916
20
-3.89894662997457
30
0
41
1
10
104.650191716219
20
-3.98478685028496
30
0
41
1
10
105.021567138485
20
-4.10643732066012
30
0
41
1
10
105.207511792988
20
-4.16548498456589
30
0
41
1
10
105.393907643268
20
-4.22177799562871
30
0
41
1
10
105.518279170859
20
-4.25868469132703
30
0
41
1
10
105.580527477726
20
-4.27682924347459
30
0
41
1
10
106.140346678337
20
-4.4370255770595
30
0
41
1
10
106.636650471444
20
-4.55781861298419
30
0
41
1
10
107.381684295413
20
-4.70488339503424
30
0
41
1
10
107.630121298355
20
-4.74821798757299
30
0
41
1
10
108.003245581782
20
-4.80445319154256
30
0
41
1
10
108.127683673543
20
-4.8217328266916
30
0
41
1
10
108.37627193999
20
-4.85327413342043
30
0
41
1
10
108.500483915094
20
-4.86754562677362
30
0
41
1
10
109.121280924965
20
-4.93137150938787
30
0
41
1
10
109.617083402303
20
-4.95831367383869
30
0
41
1
10
110.114010128425
20
-4.96077476461755
30
0
0
SPLINE
5
F4
100
AcDbEntity
8
1
62
256
6
ByLayer
370
18
48
1
60
0
100
AcDbSpline
70
4
71
3
72
12
73
8
40
0
40
0
40
0
40
0
40
0.5
40
0.5
40
0.75
40
0.75
40
1
40
1
40
1
40
1
41
1
10
110.08230528297
20
-4.92775386517491
30
0
41
1
10
110.087575833563
20
-4.93823100989243
30
0
41
1
10
110.092851821619
20
-4.94622871053824
30
0
41
1
10
110.100782364927
20
-4.95449415949332
30
0
41
1
10
110.103430166839
20
-4.95662783458633
30
0
41
1
10
110.108723033895
20
-4.95964031977957
30
0
41
1
10
110.111367542192
20
-4.9605197498328
30
0
41
1
10
110.114010128425
20
-4.96077476461755
30
0
0
SPLINE
5
F5
100
AcDbEntity
8
1
62
256
6
ByLayer
370
18
48
1
60
0
100
AcDbSpline
70
4
71
3
72
77
73
73
40
0
40
0
40
0
40
0
40
0.0283816770841001
40
0.0283816770841001
40
0.0425725156261513
40
0.0425725156261513
40
0.0567633541682025
40
0.0567633541682025
40
0.0851450312523074
40
0.0851450312523074
40
0.113526708336412
40
0.113526708336412
40
0.141908385420517
40
0.141908385420517
40
0.156099223962569
40
0.156099223962569
40
0.170290062504622
40
0.170290062504622
40
0.227053416672829
40
0.227053416672829
40
0.255435093756933
40
0.255435093756933
40
0.269625932298985
40
0.269625932298985
40
0.283816770841037
40
0.283816770841037
40
0.340580125009246
40
0.340580125009246
40
0.368961802093351
40
0.368961802093351
40
0.383152640635405
40
0.383152640635405
40
0.397343479177458
40
0.397343479177458
40
0.425725156261563
40
0.425725156261563
40
0.454106833345668
40
0.454106833345668
40
0.482488510429773
40
0.482488510429773
40
0.496679348971827
40
0.496679348971827
40
0.51087018751388
40
0.51087018751388
40
0.539251864597988
40
0.539251864597988
40
0.567633541682095
40
0.567633541682095
40
0.596015218766202
40
0.596015218766202
40
0.610206057308256
40
0.610206057308256
40
0.62439689585031
40
0.681160250018524
40
0.681160250018524
40
0.794686958354953
40
0.794686958354953
40
0.823068635439063
40
0.823068635439063
40
0.837259473981117
40
0.837259473981117
40
0.851450312523172
40
0.851450312523172
40
0.908213666691387
40
0.908213666691387
40
0.936595343775497
40
0.936595343775497
40
0.950786182317551
40
0.950786182317551
40
0.964977020859606
40
0.964977020859606
40
1
40
1
40
1
40
1
41
1
10
110.082305282977
20
-4.92775386517482
30
0
41
1
10
109.834235389654
20
-4.91090931749713
30
0
41
1
10
109.586236887347
20
-4.88800177160689
30
0
41
1
10
109.214033987757
20
-4.84466543417415
30
0
41
1
10
109.089931975729
20
-4.8287240257628
30
0
41
1
10
108.841604836335
20
-4.79386850617166
30
0
41
1
10
108.717348426721
20
-4.77494928279793
30
0
41
1
10
108.344514123651
20
-4.71379487738167
30
0
41
1
10
108.096363896191
20
-4.667246264715
30
0
41
1
10
107.600547681232
20
-4.56285790032055
30
0
41
1
10
107.35287621846
20
-4.50501572562081
30
0
41
1
10
106.857421271068
20
-4.37847611628905
30
0
41
1
10
106.609640170722
20
-4.30978187172548
30
0
41
1
10
106.237616467913
20
-4.19881389646685
30
0
41
1
10
106.113549777432
20
-4.16050298610986
30
0
41
1
10
105.865233285561
20
-4.08128985711176
30
0
41
1
10
105.740912863922
20
-4.04036342380564
30
0
41
1
10
105.119628201028
20
-3.82971155924426
30
0
41
1
10
104.624172621029
20
-3.6421084313973
30
0
41
1
10
103.880793615988
20
-3.33528134806022
30
0
41
1
10
103.632959764311
20
-3.22877694993826
30
0
41
1
10
103.260791458325
20
-3.06312565684706
30
0
41
1
10
103.136665397412
20
-3.00692672450637
30
0
41
1
10
102.888215468905
20
-2.89263887884752
30
0
41
1
10
102.76382792903
20
-2.83451915387226
30
0
41
1
10
102.142573066216
20
-2.54001197525554
30
0
41
1
10
101.647054233345
20
-2.29159027761318
30
0
41
1
10
100.903385600705
20
-1.90390736806165
30
0
41
1
10
100.65543133428
20
-1.77216999691953
30
0
41
1
10
100.283044112109
20
-1.57137267167863
30
0
41
1
10
100.158838767677
20
-1.50390896776508
30
0
41
1
10
99.9102247436328
20
-1.36799978296804
30
0
41
1
10
99.7858065392745
20
-1.29954845369673
30
0
41
1
10
99.4130507447567
20
-1.09333128504431
30
0
41
1
10
99.1649210974352
20
-0.954540908705241
30
0
41
1
10
98.6689029957491
20
-0.675222549286957
30
0
41
1
10
98.4210136543691
20
-0.5346964176629
30
0
41
1
10
97.9250829226895
20
-0.252596073639154
30
0
41
1
10
97.6770426677897
20
-0.111019534084903
30
0
41
1
10
97.3044836006522
20
0.101457291370821
30
0
41
1
10
97.1802139908655
20
0.172301263690883
30
0
41
1
10
96.9314596820048
20
0.313940877964768
30
0
41
1
10
96.8070668016758
20
0.384684056943399
30
0
41
1
10
96.4343174309779
20
0.596247084686468
30
0
41
1
10
96.1861710787668
20
0.736525948136318
30
0
41
1
10
95.6900729480906
20
1.01467614509718
30
0
41
1
10
95.4421210761441
20
1.1525479556841
30
0
41
1
10
94.9460144689486
20
1.42520421428134
30
0
41
1
10
94.6978601884271
20
1.55998892658496
30
0
41
1
10
94.3251107605894
20
1.75922316468714
30
0
41
1
10
94.2007599141075
20
1.82515182696636
30
0
41
1
10
93.9518912579983
20
1.95590439809874
30
0
41
1
10
93.3308003137032
20
2.27924018951563
30
0
41
1
10
92.7144254922038
20
2.58392317748658
30
0
41
1
10
91.2387327675121
20
3.27204275806386
30
0
41
1
10
90.2599890100579
20
3.67363215146358
30
0
41
1
10
89.0255003540778
20
4.08121610804176
30
0
41
1
10
88.7780425602258
20
4.15800687821698
30
0
41
1
10
88.4056708776425
20
4.26566224402947
30
0
41
1
10
88.2813088906458
20
4.30030306841553
30
0
41
1
10
88.0323036774233
20
4.36695529736622
30
0
41
1
10
87.9079043358111
20
4.39890221184393
30
0
41
1
10
87.2862853290654
20
4.5516668421871
30
0
41
1
10
86.7903950575692
20
4.65170888822925
30
0
41
1
10
86.0457216845651
20
4.76677644199893
30
0
41
1
10
85.7973520935664
20
4.79930118537303
30
0
41
1
10
85.4242319182989
20
4.83916261778367
30
0
41
1
10
85.2997067488911
20
4.85096682061098
30
0
41
1
10
85.0506815959606
20
4.87154960175997
30
0
41
1
10
84.9262663211067
20
4.88032269021554
30
0
41
1
10
84.4950355466351
20
4.90548945249742
30
0
41
1
10
84.1886531724607
20
4.91417294339274
30
0
41
1
10
83.8823216528411
20
4.91363028919537
30
0
0
SPLINE
5
F6
100
AcDbEntity
8
1
62
256
6
ByLayer
370
18
48
1
60
0
100
AcDbSpline
70
4
71
3
72
28
73
24
40
0
40
0
40
0
40
0
40
0.125000000000143
40
0.125000000000143
40
0.187500000000241
40
0.187500000000241
40
0.250000000000338
40
0.250000000000338
40
0.375000000000537
40
0.375000000000537
40
0.437500000000569
40
0.437500000000569
40
0.500000000000601
40
0.500000000000601
40
0.625000000000495
40
0.625000000000495
40
0.687500000000346
40
0.687500000000346
40
0.750000000000197
40
0.750000000000197
40
0.875000000000098
40
0.875000000000098
40
1
40
1
40
1
40
1
41
1
10
62.390349593441
20
-3.73717633825723
30
0
41
1
10
62.390349593441
20
-3.73153914570852
30
0
41
1
10
62.3914856774057
20
-3.72600960570534
30
0
41
1
10
62.3948436237266
20
-3.71787465380879
30
0
41
1
10
62.3962559377818
20
-3.71517180002479
30
0
41
1
10
62.3995803563508
20
-3.70995773434714
30
0
41
1
10
62.4014920536077
20
-3.70743684714475
30
0
41
1
10
62.407961320841
20
-3.70012970857363
30
0
41
1
10
62.4133415015677
20
-3.69554279578924
30
0
41
1
10
62.4225140097224
20
-3.68953327856656
30
0
41
1
10
62.425758531408
20
-3.68766536037686
30
0
41
1
10
62.4326222587343
20
-3.68420219271016
30
0
41
1
10
62.4362679862981
20
-3.68259732428882
30
0
41
1
10
62.4475936346536
20
-3.67829067233254
30
0
41
1
10
62.4555761653523
20
-3.67610487432089
30
0
41
1
10
62.4681946226657
20
-3.67385591643071
30
0
41
1
10
62.4725133430698
20
-3.67328325849033
30
0
41
1
10
62.4811178446166
20
-3.67252208592433
30
0
41
1
10
62.4854349933549
20
-3.67232702760902
30
0
41
1
10
62.4984308188454
20
-3.67229488667724
30
0
41
1
10
62.5072339586852
20
-3.67303386781677
30
0
41
1
10
62.5239887027471
20
-3.67593152685714
30
0
41
1
10
62.5321180205006
20
-3.67810197311954
30
0
41
1
10
62.53975104622
20
-3.68095605739342
30
0
0
SPLINE
5
F7
100
AcDbEntity
8
1
62
256
6
ByLayer
370
18
48
1
60
0
100
AcDbSpline
70
4
71
3
72
26
73
22
40
0
40
0
40
0
40
0
40
0.240731819698246
40
0.240731819698246
40
0.300914774622804
40
0.300914774622804
40
0.361097729547361
40
0.361097729547361
40
0.481463639396477
40
0.481463639396477
40
0.601829549245592
40
0.601829549245592
40
0.722195459094708
40
0.722195459094708
40
0.782378414019268
40
0.782378414019268
40
0.842561368943828
40
0.842561368943828
40
0.962927278792949
40
0.962927278792949
40
1
40
1
40
1
40
1
41
1
10
62.53975104622
20
-3.68095605739342
30
0
41
1
10
63.0362202147006
20
-3.86659212077365
30
0
41
1
10
63.5327358994583
20
-4.03215991955307
30
0
41
1
10
64.1545029261194
20
-4.2135817920315
30
0
41
1
10
64.2789098566203
20
-4.24858758859497
30
0
41
1
10
64.5278209886718
20
-4.31604092214383
30
0
41
1
10
64.6522539906463
20
-4.3484693950922
30
0
41
1
10
65.0250010656655
20
-4.44171025501072
30
0
41
1
10
65.2729974212787
20
-4.49848586881319
30
0
41
1
10
65.7689923700178
20
-4.60059792153027
30
0
41
1
10
66.0169632560186
20
-4.64597166132154
30
0
41
1
10
66.5130545814904
20
-4.72527650083256
30
0
41
1
10
66.7611822648107
20
-4.7591966978182
30
0
41
1
10
67.1338754767554
20
-4.80127680336196
30
0
41
1
10
67.2581887371983
20
-4.81383851286267
30
0
41
1
10
67.5069719543373
20
-4.83601585940065
30
0
41
1
10
67.6312966513035
20
-4.84561758036611
30
0
41
1
10
68.003750805257
20
-4.86992435060338
30
0
41
1
10
68.2515104436772
20
-4.88011596546138
30
0
41
1
10
68.5757079301447
20
-4.88552375022499
30
0
41
1
10
68.6520560844753
20
-4.88622538268763
30
0
41
1
10
68.7284141345013
20
-4.88635693416796
30
0
0
SPLINE
5
F8
100
AcDbEntity
8
1
62
256
6
ByLayer
370
18
48
1
60
0
100
AcDbSpline
70
4
71
3
72
60
73
56
40
0
40
0
40
0
40
0
40
0.012611660035494
40
0.012611660035494
40
0.0574929482157015
40
0.0574929482157015
40
0.102374236395909
40
0.102374236395909
40
0.147255524576117
40
0.147255524576117
40
0.169696168666221
40
0.169696168666221
40
0.192136812756325
40
0.192136812756325
40
0.237018100936532
40
0.237018100936532
40
0.28189938911674
40
0.28189938911674
40
0.326780677296948
40
0.326780677296948
40
0.349221321387051
40
0.349221321387051
40
0.371661965477155
40
0.371661965477155
40
0.416543253657363
40
0.416543253657363
40
0.461424541837571
40
0.461424541837571
40
0.506305830017778
40
0.506305830017778
40
0.52874647410788
40
0.52874647410788
40
0.551187118197982
40
0.551187118197982
40
0.596068406378186
40
0.596068406378186
40
0.640949694558391
40
0.640949694558391
40
0.685830982738595
40
0.685830982738595
40
0.708271626828698
40
0.708271626828698
40
0.719491948873751
40
0.719491948873751
40
0.730712270918803
40
0.730712270918803
40
0.775593559099003
40
0.775593559099003
40
0.820474847279203
40
0.820474847279203
40
0.865356135459403
40
0.865356135459403
40
0.910237423639604
40
0.910237423639604
40
1
40
1
40
1
40
1
41
1
10
93.5775027381847
20
4.74990938250303
30
0
41
1
10
93.6471957507486
20
4.76068528091648
30
0
41
1
10
93.7169106830818
20
4.77100633785022
30
0
41
1
10
94.0348031767705
20
4.81598060350689
30
0
41
1
10
94.2824564691533
20
4.84515840871779
30
0
41
1
10
94.7776175553084
20
4.8914631930032
30
0
41
1
10
95.0250649251443
20
4.90862978414273
30
0
41
1
10
95.5196617153892
20
4.93098668976356
30
0
41
1
10
95.7668759034056
20
4.93614466314836
30
0
41
1
10
96.1382575088614
20
4.9347980391104
30
0
41
1
10
96.2621307514433
20
4.93283893538191
30
0
41
1
10
96.5100152493528
20
4.92588900549816
30
0
41
1
10
96.634085042259
20
4.92089408916729
30
0
41
1
10
97.0060658580253
20
4.90134251499347
30
0
41
1
10
97.2535256259743
20
4.88223343514258
30
0
41
1
10
97.7484571022296
20
4.83225334128144
30
0
41
1
10
97.9958531106005
20
4.80138584280655
30
0
41
1
10
98.4904322764686
20
4.72788256929502
30
0
41
1
10
98.7376753971631
20
4.68525363996909
30
0
41
1
10
99.1090659771181
20
4.61279215920021
30
0
41
1
10
99.2329371270973
20
4.58721362800452
30
0
41
1
10
99.480802485438
20
4.53317536756168
30
0
41
1
10
99.6048661061402
20
4.50469461419442
30
0
41
1
10
99.9765623997751
20
4.41505414474722
30
0
41
1
10
100.223808432093
20
4.34972995854127
30
0
41
1
10
100.718374286014
20
4.20901217430281
30
0
41
1
10
100.965635017997
20
4.13358685073283
30
0
41
1
10
101.460308496201
20
3.9728712857017
30
0
41
1
10
101.707719726338
20
3.88757901480773
30
0
41
1
10
102.079113759868
20
3.7523700918039
30
0
41
1
10
102.202958567277
20
3.7060884324182
30
0
41
1
10
102.450777505951
20
3.61112271938632
30
0
41
1
10
102.574799577688
20
3.56241444932519
30
0
41
1
10
102.946301787627
20
3.41308524067352
30
0
41
1
10
103.193498590248
20
3.30922145056635
30
0
41
1
10
103.687897873223
20
3.09416840484772
30
0
41
1
10
103.935045737094
20
2.98291740305072
30
0
41
1
10
104.42941661764
20
2.7532422470492
30
0
41
1
10
104.6766598208
20
2.63484266621072
30
0
41
1
10
105.047962760071
20
2.45239494588176
30
0
41
1
10
105.171800690172
20
2.39076705662342
30
0
41
1
10
105.357689809519
20
2.29714138453389
30
0
41
1
10
105.419700037326
20
2.2657226873238
30
0
41
1
10
105.543603602477
20
2.20258167721366
30
0
41
1
10
105.605502945638
20
2.17085583699665
30
0
41
1
10
105.914756347033
20
2.01148234429536
30
0
41
1
10
106.161394354827
20
1.88162399307689
30
0
41
1
10
106.653788997468
20
1.61830471354168
30
0
41
1
10
106.899525157397
20
1.48481071578132
30
0
41
1
10
107.390376933822
20
1.21468582569432
30
0
41
1
10
107.635509034579
20
1.07808191311213
30
0
41
1
10
108.125780386645
20
0.802829842721906
30
0
41
1
10
108.370905991202
20
0.664159514801071
30
0
41
1
10
109.106587287426
20
0.245596543803771
30
0
41
1
10
109.597464578833
20
-0.0368229328169036
30
0
41
1
10
110.090609900945
20
-0.319416983979977
30
0
0
SPLINE
5
F9
100
AcDbEntity
8
1
62
256
6
ByLayer
370
18
48
1
60
0
100
AcDbSpline
70
4
71
3
72
8
73
4
40
0
40
0
40
0
40
0
40
1
40
1
40
1
40
1
41
1
10
110.090609900941
20
-0.319416983980034
30
0
41
1
10
110.115057541483
20
-0.104438016135475
30
0
41
1
10
110.144181776046
20
0.110690637045025
30
0
41
1
10
110.179215464153
20
0.32582087509968
30
0
0
SPLINE
5
FA
100
AcDbEntity
8
1
62
256
6
ByLayer
370
18
48
1
60
0
100
AcDbSpline
70
4
71
3
72
53
73
49
40
0
40
0
40
0
40
0
40
0.0632271115115857
40
0.0632271115115857
40
0.126454223023171
40
0.126454223023171
40
0.158067778778964
40
0.158067778778964
40
0.189681334534757
40
0.189681334534757
40
0.252908446046341
40
0.252908446046341
40
0.316135557557926
40
0.316135557557926
40
0.37936266906951
40
0.37936266906951
40
0.442589780581094
40
0.442589780581094
40
0.474203336336887
40
0.474203336336887
40
0.490010114214784
40
0.490010114214784
40
0.505816892092681
40
0.505816892092681
40
0.569044003604273
40
0.569044003604273
40
0.632271115115865
40
0.632271115115865
40
0.695498226627457
40
0.695498226627457
40
0.758725338139049
40
0.758725338139049
40
0.790338893894845
40
0.790338893894845
40
0.821952449650641
40
0.821952449650641
40
0.83775922752854
40
0.83775922752854
40
0.853566005406438
40
0.885179561162234
40
0.885179561162234
40
0.948406672673826
40
0.948406672673826
40
0.964213450551724
40
0.964213450551724
40
0.980020228429622
40
0.980020228429622
40
1
40
1
40
1
40
1
41
1
10
9.6125553725301
20
-3.60187862985481
30
0
41
1
10
9.87828634942738
20
-3.69860867247831
30
0
41
1
10
10.1430386137056
20
-3.7899221858101
30
0
41
1
10
10.6708223554123
20
-3.96160966472203
30
0
41
1
10
10.9338080969195
20
-4.04202006759508
30
0
41
1
10
11.3274801204707
20
-4.15394734957155
30
0
41
1
10
11.4585636646152
20
-4.18981458359377
30
0
41
1
10
11.720601394522
20
-4.25854054239326
30
0
41
1
10
11.8517511060387
20
-4.29123812887383
30
0
41
1
10
12.2448353239938
20
-4.38502829137101
30
0
41
1
10
12.5066232452524
20
-4.44161851204785
30
0
41
1
10
13.0300546699618
20
-4.54258791070444
30
0
41
1
10
13.2917523460275
20
-4.58692437243221
30
0
41
1
10
13.8158288934826
20
-4.66284857130455
30
0
41
1
10
14.07816057143
20
-4.69446038017378
30
0
41
1
10
14.6040676111053
20
-4.74463840524433
30
0
41
1
10
14.8675641982419
20
-4.76324155237316
30
0
41
1
10
15.2638053232322
20
-4.78117096744089
30
0
41
1
10
15.396063510698
20
-4.78548106304447
30
0
41
1
10
15.5947724170163
20
-4.78940700703762
30
0
41
1
10
15.6610951675878
20
-4.79029259868332
30
0
41
1
10
15.7936267671417
20
-4.79120958173931
30
0
41
1
10
15.8598928448599
20
-4.79124220179932
30
0
41
1
10
16.1909906979894
20
-4.7893088237816
30
0
41
1
10
16.4549325139627
20
-4.78103842974605
30
0
41
1
10
16.9813546630439
20
-4.75124892629603
30
0
41
1
10
17.2438172958145
20
-4.72971395559611
30
0
41
1
10
17.7680982473005
20
-4.67371870123867
30
0
41
1
10
18.0298639903849
20
-4.63924572114269
30
0
41
1
10
18.5532590207472
20
-4.55771774733242
30
0
41
1
10
18.8149161782571
20
-4.51069263218449
30
0
41
1
10
19.2073628683548
20
-4.43074929773039
30
0
41
1
10
19.3381839223568
20
-4.40253892460487
30
0
41
1
10
19.5999083818936
20
-4.34302575155465
30
0
41
1
10
19.7307845340447
20
-4.31169992203093
30
0
41
1
10
19.9273012869057
20
-4.26249226096701
30
0
41
1
10
19.9928962326111
20
-4.2457681875965
30
0
41
1
10
20.1241399108813
20
-4.21157529842174
30
0
41
1
10
20.3210794878961
20
-4.15916028201909
30
0
41
1
10
20.5182713882161
20
-4.1033824644625
30
0
41
1
10
20.9130687064362
20
-3.98737244634324
30
0
41
1
10
21.1767763901302
20
-3.9040427306447
30
0
41
1
10
21.5075471160946
20
-3.7927546753985
30
0
41
1
10
21.5737593697727
20
-3.77014279566527
30
0
41
1
10
21.7063072994328
20
-3.72421502259894
30
0
41
1
10
21.7726201268556
20
-3.70090656011581
30
0
41
1
10
21.922532935997
20
-3.64747860193702
30
0
41
1
10
22.0061358755809
20
-3.61716291697226
30
0
41
1
10
22.0896557087562
20
-3.58637686011065
30
0
0
SPLINE
5
FB
100
AcDbEntity
8
1
62
256
6
ByLayer
370
18
48
1
60
0
100
AcDbSpline
70
4
71
3
72
139
73
135
40
0
40
0
40
0
40
0
40
0.0165848952849794
40
0.0165848952849794
40
0.0399439233515468
40
0.0399439233515468
40
0.0457836803681892
40
0.0457836803681892
40
0.0516234373848315
40
0.0516234373848315
40
0.0633029514181161
40
0.0633029514181161
40
0.0866619794846856
40
0.0866619794846856
40
0.133380035617825
40
0.133380035617825
40
0.156739063684394
40
0.156739063684394
40
0.168418577717679
40
0.168418577717679
40
0.174258334734321
40
0.174258334734321
40
0.180098091750963
40
0.180098091750963
40
0.203457119817533
40
0.203457119817533
40
0.226816147884102
40
0.226816147884102
40
0.250175175950672
40
0.250175175950672
40
0.261854689983956
40
0.261854689983956
40
0.267694447000598
40
0.267694447000598
40
0.27353420401724
40
0.285213718050524
40
0.291053475067166
40
0.291053475067166
40
0.296893232083808
40
0.296893232083808
40
0.30857274611709
40
0.30857274611709
40
0.320252260150372
40
0.320252260150372
40
0.343611288216936
40
0.343611288216936
40
0.3669703162835
40
0.3669703162835
40
0.390329344350064
40
0.390329344350064
40
0.413688372416628
40
0.413688372416628
40
0.419528129433269
40
0.419528129433269
40
0.42536788644991
40
0.42536788644991
40
0.437047400483192
40
0.442887157499832
40
0.442887157499832
40
0.448726914516473
40
0.448726914516473
40
0.460406428549754
40
0.460406428549754
40
0.483765456616317
40
0.483765456616317
40
0.50712448468288
40
0.50712448468288
40
0.530483512749443
40
0.530483512749443
40
0.542163026782724
40
0.542163026782724
40
0.553842540816005
40
0.553842540816005
40
0.577201568882567
40
0.577201568882567
40
0.600560596949129
40
0.600560596949129
40
0.61224011098241
40
0.61224011098241
40
0.61807986799905
40
0.61807986799905
40
0.623919625015691
40
0.623919625015691
40
0.647278653082253
40
0.647278653082253
40
0.658958167115534
40
0.658958167115534
40
0.664797924132174
40
0.664797924132174
40
0.670637681148814
40
0.670637681148814
40
0.693996709215371
40
0.693996709215371
40
0.717355737281929
40
0.717355737281929
40
0.740714765348486
40
0.740714765348486
40
0.764073793415043
40
0.764073793415043
40
0.775753307448322
40
0.775753307448322
40
0.787432821481601
40
0.787432821481601
40
0.79911233551488
40
0.79911233551488
40
0.80495209253152
40
0.80495209253152
40
0.810791849548159
40
0.810791849548159
40
0.834150877614718
40
0.834150877614718
40
0.857509905681276
40
0.857509905681276
40
0.880868933747834
40
0.880868933747834
40
0.904227961814391
40
0.904227961814391
40
0.910067718831031
40
0.910067718831031
40
0.915907475847671
40
0.915907475847671
40
0.92758698988095
40
0.92758698988095
40
0.950946017947506
40
0.950946017947506
40
0.974305046014062
40
0.974305046014062
40
0.980144803030701
40
0.980144803030701
40
0.985984560047341
40
0.985984560047341
40
0.997664074080619
40
0.997664074080619
40
1
40
1
40
1
40
1
41
1
10
42.9335767083236
20
4.83992585689862
30
0
41
1
10
43.1189151885455
20
4.84025466394158
30
0
41
1
10
43.3042914286505
20
4.83724120280357
30
0
41
1
10
43.7509849095662
20
4.82193720838418
30
0
41
1
10
44.0123187124402
20
4.80634507630958
30
0
41
1
10
44.3394629556629
20
4.77849695969706
30
0
41
1
10
44.4049157794898
20
4.77250953267841
30
0
41
1
10
44.5358775212017
20
4.75969779339013
30
0
41
1
10
44.60138030339
20
4.75287041184725
30
0
41
1
10
44.7981824009535
20
4.73120945167651
30
0
41
1
10
44.9295949237939
20
4.71513686067775
30
0
41
1
10
45.3242427333151
20
4.66189813465277
30
0
41
1
10
45.5880242958406
20
4.61974668923708
30
0
41
1
10
46.3819541826258
20
4.4732329761479
30
0
41
1
10
46.907218741963
20
4.35041141915656
30
0
41
1
10
47.6926556466251
20
4.13241696649078
30
0
41
1
10
47.9539524943025
20
4.05403696403371
30
0
41
1
10
48.3454212894216
20
3.92819814048445
30
0
41
1
10
48.4758376316713
20
3.88487960345728
30
0
41
1
10
48.6714006384433
20
3.8178927629296
30
0
41
1
10
48.7365799881569
20
3.79523047178023
30
0
41
1
10
48.8670534029985
20
3.74939275340438
30
0
41
1
10
48.9323095765055
20
3.72617499800953
30
0
41
1
10
49.2585485573887
20
3.6084324393712
30
0
41
1
10
49.5195432373801
20
3.50910467485704
30
0
41
1
10
50.0419383481164
20
3.30058155438888
30
0
41
1
10
50.3033588299902
20
3.19140490088156
30
0
41
1
10
50.8273940089267
20
2.96412821635675
30
0
41
1
10
51.089960664315
20
2.8459610389981
30
0
41
1
10
51.4851364447718
20
2.6625619528636
30
0
41
1
10
51.6170813430401
20
2.60040377068046
30
0
41
1
10
51.815328592823
20
2.50560789290068
30
0
41
1
10
51.8815033495258
20
2.47372986889053
30
0
41
1
10
52.0136772434858
20
2.40959816606724
30
0
41
1
10
52.2117384596757
20
2.31281078972449
30
0
41
1
10
52.4750795866719
20
2.18150172371605
30
0
41
1
10
52.6721092789848
20
2.08146307122286
30
0
41
1
10
52.8033645017869
20
2.01443847634187
30
0
41
1
10
52.8689528989016
20
1.98077645491222
30
0
41
1
10
53.0657591651476
20
1.87961379157073
30
0
41
1
10
53.1968330870495
20
1.81162249694725
30
0
41
1
10
53.4586714097836
20
1.67446115232687
30
0
41
1
10
53.5894519396374
20
1.60531854355477
30
0
41
1
10
53.9814530968892
20
1.39633757069018
30
0
41
1
10
54.2423040192851
20
1.25489365381654
30
0
41
1
10
54.7638244701809
20
0.969139589520125
30
0
41
1
10
55.0244671338745
20
0.824783109620739
30
0
41
1
10
55.5460901714924
20
0.534134396083232
30
0
41
1
10
55.8071277030877
20
0.387947421453703
30
0
41
1
10
56.3297493784636
20
0.0940016893385689
30
0
41
1
10
56.5913576347718
20
-0.0537153081479289
30
0
41
1
10
56.9190863220206
20
-0.238682155235494
30
0
41
1
10
56.9846743727619
20
-0.275679785194484
30
0
41
1
10
57.116046646325
20
-0.349474709286739
30
0
41
1
10
57.181793078226
20
-0.386342458708924
30
0
41
1
10
57.3791506051203
20
-0.496974837824951
30
0
41
1
10
57.5767858834637
20
-0.607588287634286
30
0
41
1
10
57.7749006592906
20
-0.71806361287446
30
0
41
1
10
57.9070905307285
20
-0.79167140452617
30
0
41
1
10
57.9731781952875
20
-0.828418461658345
30
0
41
1
10
58.1711670715787
20
-0.938326931494203
30
0
41
1
10
58.302903451834
20
-1.01121159498536
30
0
41
1
10
58.6975116310617
20
-1.22841309072419
30
0
41
1
10
58.9597906345489
20
-1.37126373655025
30
0
41
1
10
59.4832937015707
20
-1.65222061964423
30
0
41
1
10
59.7445819419386
20
-1.79021776960093
30
0
41
1
10
60.266519697128
20
-2.06082742506462
30
0
41
1
10
60.5271112456144
20
-2.19353305283013
30
0
41
1
10
60.9178409156726
20
-2.38801349767073
30
0
41
1
10
61.0480026383125
20
-2.4521619690355
30
0
41
1
10
61.3087142980893
20
-2.57824789501072
30
0
41
1
10
61.4391186673763
20
-2.64041471014247
30
0
41
1
10
61.8304219321157
20
-2.82436630294396
30
0
41
1
10
62.0914549092268
20
-2.94353358450647
30
0
41
1
10
62.6143380395576
20
-3.17412841803935
30
0
41
1
10
62.8762495353698
20
-3.28546700423337
30
0
41
1
10
63.2702641655613
20
-3.445852358812
30
0
41
1
10
63.4017892749517
20
-3.4982162767794
30
0
41
1
10
63.5994255899512
20
-3.57501415922067
30
0
41
1
10
63.665362698698
20
-3.60032186190821
30
0
41
1
10
63.7973635617817
20
-3.65033943082903
30
0
41
1
10
63.8634680347043
20
-3.67506549682588
30
0
41
1
10
64.1936895189401
20
-3.79697332152279
30
0
41
1
10
64.4568396596171
20
-3.88903884811305
30
0
41
1
10
64.8503567830627
20
-4.01869245361519
30
0
41
1
10
64.9813324810332
20
-4.06049726173222
30
0
41
1
10
65.1775509726907
20
-4.12104368256254
30
0
41
1
10
65.2429349903789
20
-4.14084668397723
30
0
41
1
10
65.3737275897713
20
-4.17963653135766
30
0
41
1
10
65.4391004040276
20
-4.19865817001784
30
0
41
1
10
65.7657925713874
20
-4.29195676863071
30
0
41
1
10
66.0266663197858
20
-4.3607400659985
30
0
41
1
10
66.5478584797951
20
-4.48628639712786
30
0
41
1
10
66.8082038085687
20
-4.54302132065936
30
0
41
1
10
67.3290955424182
20
-4.64393440030852
30
0
41
1
10
67.589600538834
20
-4.68813904319538
30
0
41
1
10
68.1113840462941
20
-4.76366301062174
30
0
41
1
10
68.3726221439252
20
-4.79501227696053
30
0
41
1
10
68.7651673321386
20
-4.83221903962217
30
0
41
1
10
68.8961407920159
20
-4.84298000260171
30
0
41
1
10
69.1584073484196
20
-4.86116744488277
30
0
41
1
10
69.28964936215
20
-4.86859888134185
30
0
41
1
10
69.5528748851143
20
-4.88003582974102
30
0
41
1
10
69.6847191147943
20
-4.8840681316714
30
0
41
1
10
69.8828179367636
20
-4.88756171864264
30
0
41
1
10
69.9488611278908
20
-4.88829865295162
30
0
41
1
10
70.0807576178578
20
-4.8889168548655
30
0
41
1
10
70.146643257132
20
-4.88879874446837
30
0
41
1
10
70.4757750534094
20
-4.88608059411959
30
0
41
1
10
70.7381077370014
20
-4.8770896811462
30
0
41
1
10
71.2616063988433
20
-4.84575492779425
30
0
41
1
10
71.5227451960075
20
-4.82341048402961
30
0
41
1
10
72.0443975659757
20
-4.76569120249613
30
0
41
1
10
72.3049607793168
20
-4.73034645567196
30
0
41
1
10
72.8256808352279
20
-4.64678929122107
30
0
41
1
10
73.0858643267295
20
-4.59858004245712
30
0
41
1
10
73.4112047624611
20
-4.53042350355537
30
0
41
1
10
73.4762916112872
20
-4.51640588254023
30
0
41
1
10
73.6065845693613
20
-4.48765990056589
30
0
41
1
10
73.6717558531908
20
-4.4729074931318
30
0
41
1
10
73.8673026602253
20
-4.42748052328832
30
0
41
1
10
73.9977312172126
20
-4.39565048858589
30
0
41
1
10
74.3892884258405
20
-4.29555882010666
30
0
41
1
10
74.6506590447268
20
-4.22266720902564
30
0
41
1
10
75.1747143748617
20
-4.06492532050089
30
0
41
1
10
75.4374305142772
20
-3.98010913622224
30
0
41
1
10
75.7670280659311
20
-3.86687138601957
30
0
41
1
10
75.8330500883157
20
-3.84384912172098
30
0
41
1
10
75.9649707040269
20
-3.79718567211981
30
0
41
1
10
76.0308732037653
20
-3.77354406753778
30
0
41
1
10
76.2284222226647
20
-3.70171219389323
30
0
41
1
10
76.3599072161248
20
-3.65261166138197
30
0
41
1
10
76.5174366637261
20
-3.59225154300981
30
0
41
1
10
76.5436832002449
20
-3.58214323258156
30
0
41
1
10
76.5699214256128
20
-3.57198710813043
30
0
0
SPLINE
5
FC
100
AcDbEntity
8
1
62
256
6
ByLayer
370
18
48
1
60
0
100
AcDbSpline
70
4
71
3
72
58
73
54
40
0
40
0
40
0
40
0
40
0.0355636110459946
40
0.0355636110459946
40
0.0657022482008158
40
0.0657022482008158
40
0.0807715667782234
40
0.0807715667782234
40
0.0958408853556319
40
0.0958408853556319
40
0.156118159665268
40
0.156118159665268
40
0.186256796820087
40
0.186256796820087
40
0.201326115397499
40
0.201326115397499
40
0.21639543397491
40
0.21639543397491
40
0.27667270828455
40
0.27667270828455
40
0.336949982594192
40
0.336949982594192
40
0.367088619749011
40
0.382157938326419
40
0.382157938326419
40
0.397227256903828
40
0.397227256903828
40
0.427365894058641
40
0.427365894058641
40
0.457504531213454
40
0.457504531213454
40
0.517781805523077
40
0.517781805523077
40
0.578059079832699
40
0.578059079832699
40
0.638336354142321
40
0.638336354142321
40
0.653405672719723
40
0.653405672719723
40
0.668474991297125
40
0.698613628451924
40
0.698613628451924
40
0.713682947029326
40
0.713682947029326
40
0.728752265606728
40
0.728752265606728
40
0.758890902761537
40
0.758890902761537
40
0.879445451380772
40
0.879445451380772
40
0.939722725690386
40
0.939722725690386
40
1
40
1
40
1
40
1
41
1
10
97.1826408283235
20
4.9375739404243
30
0
41
1
10
97.3359851242041
20
4.93786723519307
30
0
41
1
10
97.4893682454582
20
4.93582583835655
30
0
41
1
10
97.7728856267151
20
4.92771936208393
30
0
41
1
10
97.9030024267562
20
4.92231535942153
30
0
41
1
10
98.0983198963305
20
4.91166967957423
30
0
41
1
10
98.163444475571
20
4.90769618921337
30
0
41
1
10
98.2938480806008
20
4.8989247435772
30
0
41
1
10
98.3591041289416
20
4.89412290502412
30
0
41
1
10
98.6855193579458
20
4.86799729336977
30
0
41
1
10
98.9472097760336
20
4.84035329611811
30
0
41
1
10
99.3409135633379
20
4.78867677441613
30
0
41
1
10
99.4723420927375
20
4.76974792968824
30
0
41
1
10
99.669852924709
20
4.73880381768299
30
0
41
1
10
99.7356888990037
20
4.72807346769494
30
0
41
1
10
99.8671886443378
20
4.70581969894536
30
0
41
1
10
99.932879890139
20
4.69429183833731
30
0
41
1
10
100.261063784282
20
4.63466927037032
30
0
41
1
10
100.522725989324
20
4.5806137076782
30
0
41
1
10
101.044953223424
20
4.46044719476228
30
0
41
1
10
101.305498952219
20
4.39433135835642
30
0
41
1
10
101.695645376334
20
4.28632144300801
30
0
41
1
10
101.890563737947
20
4.2301166039498
30
0
41
1
10
102.085323747948
20
4.17068078800369
30
0
41
1
10
102.215136018241
20
4.13034586739448
30
0
41
1
10
102.280022352294
20
4.10981652611645
30
0
41
1
10
102.474796858802
20
4.047321063895
30
0
41
1
10
102.604678644166
20
4.00432938310061
30
0
41
1
10
102.864400179427
20
3.91558427864888
30
0
41
1
10
102.99426408632
20
3.86985495391761
30
0
41
1
10
103.383943593815
20
3.72867097416898
30
0
41
1
10
103.643821653424
20
3.62918720883465
30
0
41
1
10
104.164454931059
20
3.42022086235519
30
0
41
1
10
104.425199641566
20
3.31072752779846
30
0
41
1
10
104.94812925585
20
3.08235897288435
30
0
41
1
10
105.210367278132
20
2.96356683955955
30
0
41
1
10
105.539278834315
20
2.80939422797729
30
0
41
1
10
105.605131914615
20
2.7782682202803
30
0
41
1
10
105.736655482752
20
2.71560371778176
30
0
41
1
10
105.933776812453
20
2.62093694699146
30
0
41
1
10
106.130446790805
20
2.52432641025888
30
0
41
1
10
106.326865017924
20
2.42650046540314
30
0
41
1
10
106.392287775062
20
2.39367645134445
30
0
41
1
10
106.523150451417
20
2.32778376240916
30
0
41
1
10
106.588574428595
20
2.29469032149223
30
0
41
1
10
106.784730452553
20
2.19482213766719
30
0
41
1
10
106.915380055456
20
2.12751219909129
30
0
41
1
10
107.568161659876
20
1.78753860729202
30
0
41
1
10
108.08879490754
20
1.50442973640523
30
0
41
1
10
108.871024066306
20
1.06917521741008
30
0
41
1
10
109.132011654217
20
0.922382838694546
30
0
41
1
10
109.654892286112
20
0.626082336040866
30
0
41
1
10
109.916723460348
20
0.47646399447774
30
0
41
1
10
110.179215464152
20
0.325820875093342
30
0
0
SPLINE
5
FD
100
AcDbEntity
8
1
62
256
6
ByLayer
370
18
48
1
60
0
100
AcDbSpline
70
4
71
3
72
46
73
42
40
0
40
0
40
0
40
0
40
0.0584624394271844
40
0.0584624394271844
40
0.116924878854369
40
0.116924878854369
40
0.23384975770874
40
0.23384975770874
40
0.292312197135926
40
0.292312197135926
40
0.350774636563111
40
0.350774636563111
40
0.409237075990297
40
0.409237075990297
40
0.423852685847092
40
0.423852685847092
40
0.438468295703887
40
0.438468295703887
40
0.467699515417475
40
0.467699515417475
40
0.526161954844652
40
0.526161954844652
40
0.584624394271828
40
0.584624394271828
40
0.643086833699004
40
0.643086833699004
40
0.70154927312618
40
0.70154927312618
40
0.760011712553356
40
0.760011712553356
40
0.818474151980532
40
0.818474151980532
40
0.84770537169412
40
0.84770537169412
40
0.876936591407708
40
0.876936591407708
40
0.935399030834882
40
0.935399030834882
40
0.993861470262055
40
0.993861470262055
40
1
40
1
40
1
40
1
41
1
10
62.3903495934518
20
3.43491733906225
30
0
41
1
10
62.1329022235684
20
3.53760204981745
30
0
41
1
10
61.8762146252097
20
3.63535616705053
30
0
41
1
10
61.3638693370891
20
3.8205843315603
30
0
41
1
10
61.1082090066766
20
3.90805755711969
30
0
41
1
10
60.342196259674
20
4.15458473883422
30
0
41
1
10
59.8327048999397
20
4.29761240621059
30
0
41
1
10
59.0672468682394
20
4.47761901909783
30
0
41
1
10
58.8119066510217
20
4.53188220526951
30
0
41
1
10
58.3004408440997
20
4.62856292297786
30
0
41
1
10
58.0443007194808
20
4.67096760534747
30
0
41
1
10
57.5306312763769
20
4.7434584441506
30
0
41
1
10
57.2731116892259
20
4.77355266554017
30
0
41
1
10
56.9500748979218
20
4.80324286916752
30
0
41
1
10
56.885371837953
20
4.80878745204095
30
0
41
1
10
56.7560992376824
20
4.81905854718156
30
0
41
1
10
56.6915227038965
20
4.82378653961916
30
0
41
1
10
56.4979550857343
20
4.83674951581179
30
0
41
1
10
56.3691235294088
20
4.84376307047324
30
0
41
1
10
55.9831799018665
20
4.85994841782511
30
0
41
1
10
55.7266053996738
20
4.864262181464
30
0
41
1
10
55.2143902200447
20
4.86010878543527
30
0
41
1
10
54.9587452699152
20
4.85164440606056
30
0
41
1
10
54.4479835277165
20
4.82209746866016
30
0
41
1
10
54.1928792292092
20
4.8010079894888
30
0
41
1
10
53.682656265171
20
4.74638223623751
30
0
41
1
10
53.4275305811879
20
4.71285151948717
30
0
41
1
10
52.9168049805265
20
4.63353188274573
30
0
41
1
10
52.6612148435953
20
4.5877384119039
30
0
41
1
10
52.1491398578298
20
4.4840344355982
30
0
41
1
10
51.8926460160603
20
4.42612720031218
30
0
41
1
10
51.506811821352
20
4.33036285771865
30
0
41
1
10
51.3780191619617
20
4.29695712305059
30
0
41
1
10
51.1200096874015
20
4.22720374372031
30
0
41
1
10
50.9907452514713
20
4.19084313774184
30
0
41
1
10
50.60252428683
20
4.0774667484734
30
0
41
1
10
50.3446561556329
20
3.9965862559383
30
0
41
1
10
49.8303221104216
20
3.82490608694414
30
0
41
1
10
49.5738316074187
20
3.73413309637476
30
0
41
1
10
49.2908707194594
20
3.62878053597572
30
0
41
1
10
49.2639877698152
20
3.61871930946287
30
0
41
1
10
49.2371092207874
20
3.60860802679821
30
0
0
SPLINE
5
FE
100
AcDbEntity
8
1
62
256
6
ByLayer
370
18
48
1
60
0
100
AcDbSpline
70
4
71
3
72
50
73
46
40
0
40
0
40
0
40
0
40
0.0412755823781473
40
0.0412755823781473
40
0.0917347622529914
40
0.0917347622529914
40
0.104349557221701
40
0.104349557221701
40
0.11696435219041
40
0.11696435219041
40
0.142193942127829
40
0.142193942127829
40
0.192653122002667
40
0.192653122002667
40
0.243112301877504
40
0.243112301877504
40
0.293571481752339
40
0.293571481752339
40
0.394489841502013
40
0.394489841502013
40
0.44494902137685
40
0.44494902137685
40
0.495408201251687
40
0.495408201251687
40
0.508022996220395
40
0.508022996220395
40
0.520637791189103
40
0.545867381126519
40
0.545867381126519
40
0.596326561001351
40
0.596326561001351
40
0.697244920751012
40
0.697244920751012
40
0.798163280500674
40
0.798163280500674
40
0.848622460375505
40
0.848622460375505
40
0.899081640250336
40
0.899081640250336
40
0.911696435219044
40
0.911696435219044
40
0.924311230187752
40
0.949540820125168
40
0.949540820125168
40
1
40
1
40
1
40
1
41
1
10
28.3975782964718
20
-4.81376055077098
30
0
41
1
10
28.1878039799527
20
-4.81337772203634
30
0
41
1
10
27.9777376437948
20
-4.80874817882344
30
0
41
1
10
27.5099789896017
20
-4.78894523042359
30
0
41
1
10
27.2520813824713
20
-4.77165195228554
30
0
41
1
10
26.9286091634289
20
-4.74197244152879
30
0
41
1
10
26.8638596910524
20
-4.73563351054582
30
0
41
1
10
26.7342425061671
20
-4.72214828355112
30
0
41
1
10
26.6693766576186
20
-4.71500155197057
30
0
41
1
10
26.475062531119
20
-4.69240701878439
30
0
41
1
10
26.3457402319282
20
-4.67578913243796
30
0
41
1
10
25.9583413684847
20
-4.62135759753943
30
0
41
1
10
25.7008367171488
20
-4.57896594331646
30
0
41
1
10
25.1869371275577
20
-4.48237212123166
30
0
41
1
10
24.9305314027231
20
-4.4281727063688
30
0
41
1
10
24.4182390573792
20
-4.30848421932961
30
0
41
1
10
24.1623620635645
20
-4.24299095866607
30
0
41
1
10
23.3948995772253
20
-4.03018910724259
30
0
41
1
10
22.8835609328824
20
-3.86646456011567
30
0
41
1
10
22.1139448112527
20
-3.59107894974397
30
0
41
1
10
21.8569704639224
20
-3.49432465488789
30
0
41
1
10
21.3417422461741
20
-3.29128565900368
30
0
41
1
10
21.0835031676621
20
-3.18497740748793
30
0
41
1
10
20.7595634960813
20
-3.0464844300617
30
0
41
1
10
20.6946831434317
20
-3.01849108852912
30
0
41
1
10
20.564973446212
20
-2.9620300426121
30
0
41
1
10
20.3705779947315
20
-2.87666858198531
30
0
41
1
10
20.1766578768553
20
-2.7893536517756
30
0
41
1
10
19.7893629985461
20
-2.6122734528825
30
0
41
1
10
19.5319007697101
20
-2.4909417667171
30
0
41
1
10
18.7610515964805
20
-2.11826919746821
30
0
41
1
10
18.2491251593413
20
-1.85837194166172
30
0
41
1
10
17.225330545383
20
-1.32246565594812
30
0
41
1
10
16.7136233048984
20
-1.04617291859043
30
0
41
1
10
15.943261996783
20
-0.624640661289021
30
0
41
1
10
15.6860110227872
20
-0.482944892376395
30
0
41
1
10
15.170169195552
20
-0.197902466821034
30
0
41
1
10
14.9115857573874
20
-0.0545404619176111
30
0
41
1
10
14.5871751247705
20
0.125082653236973
30
0
41
1
10
14.5222443033648
20
0.161022828067189
30
0
41
1
10
14.3924516560293
20
0.232822985734572
30
0
41
1
10
14.197794880318
20
0.340442036680884
30
0
41
1
10
14.0032017826996
20
0.447758520000718
30
0
41
1
10
13.6140114047268
20
0.661828225229755
30
0
41
1
10
13.354539304492
20
0.803779394978761
30
0
41
1
10
13.0948670075382
20
0.944629172840507
30
0
0
SPLINE
5
FF
100
AcDbEntity
8
1
62
256
6
ByLayer
370
18
48
1
60
0
100
AcDbSpline
70
4
71
3
72
61
73
57
40
0
40
0
40
0
40
0
40
0.018187109112954
40
0.018187109112954
40
0.036374218225908
40
0.072748436451816
40
0.072748436451816
40
0.14549687290363
40
0.14549687290363
40
0.163683982016584
40
0.163683982016584
40
0.181871091129538
40
0.181871091129538
40
0.218245309355448
40
0.218245309355448
40
0.290993745807267
40
0.290993745807267
40
0.30918085492022
40
0.30918085492022
40
0.327367964033174
40
0.327367964033174
40
0.36374218225908
40
0.36374218225908
40
0.436490618710891
40
0.436490618710891
40
0.454677727823844
40
0.454677727823844
40
0.472864836936796
40
0.472864836936796
40
0.509239055162702
40
0.509239055162702
40
0.581987491614513
40
0.581987491614513
40
0.600174600727466
40
0.600174600727466
40
0.618361709840418
40
0.654735928066325
40
0.654735928066325
40
0.672923037179278
40
0.672923037179278
40
0.691110146292231
40
0.727484364518136
40
0.727484364518136
40
0.800232800969946
40
0.800232800969946
40
0.818419910082898
40
0.818419910082898
40
0.836607019195851
40
0.872981237421757
40
0.872981237421757
40
0.94572967387357
40
0.94572967387357
40
0.963916782986523
40
0.963916782986523
40
0.982103892099476
40
1
40
1
40
1
40
1
41
1
10
62.390349593441
20
3.49531459485516
30
0
41
1
10
62.5152422817758
20
3.44649526874983
30
0
41
1
10
62.6401765800324
20
3.39656007551395
30
0
41
1
10
62.8899255512086
20
3.2946356142989
30
0
41
1
10
63.2641994653865
20
3.13873918933817
30
0
41
1
10
63.6376892627308
20
2.97420159965267
30
0
41
1
10
64.3843192810479
20
2.63463837345196
30
0
41
1
10
64.8816347579726
20
2.39432554629815
30
0
41
1
10
65.5048176228674
20
2.07962610429507
30
0
41
1
10
65.6295305306015
20
2.01596955482654
30
0
41
1
10
65.8791637012178
20
1.88730393268966
30
0
41
1
10
66.0040901540609
20
1.82229074084324
30
0
41
1
10
66.3783515645713
20
1.62583496757651
30
0
41
1
10
66.6274726616743
20
1.49281983823113
30
0
41
1
10
67.3743722491628
20
1.08884217365511
30
0
41
1
10
67.8716919127189
20
0.812953828220429
30
0
41
1
10
68.4948986064444
20
0.46392178106538
30
0
41
1
10
68.6196174481169
20
0.393906309126635
30
0
41
1
10
68.8692661079174
20
0.253554885180222
30
0
41
1
10
68.9941394838205
20
0.183250294789587
30
0
41
1
10
69.3682935592855
20
-0.0275361122494076
30
0
41
1
10
69.6173680908177
20
-0.168039340906802
30
0
41
1
10
70.3641331359246
20
-0.588375581600388
30
0
41
1
10
70.8613545186999
20
-0.867052688592196
30
0
41
1
10
71.4844150334827
20
-1.20936731918187
30
0
41
1
10
71.6091046548387
20
-1.27752726481123
30
0
41
1
10
71.8586992323166
20
-1.41313464941663
30
0
41
1
10
71.9834596124115
20
-1.48050314632835
30
0
41
1
10
72.3573900671009
20
-1.68097807278926
30
0
41
1
10
72.6063536498266
20
-1.81252169703194
30
0
41
1
10
73.3529286964017
20
-2.19979165660254
30
0
41
1
10
73.850176655428
20
-2.44823782473659
30
0
41
1
10
74.4732666376776
20
-2.74321423679209
30
0
41
1
10
74.5979755851137
20
-2.80143441179288
30
0
41
1
10
74.8475518811303
20
-2.91619495668914
30
0
41
1
10
75.2217424274249
20
-3.08562414137384
30
0
41
1
10
75.5956586782503
20
-3.24657854210329
30
0
41
1
10
75.9697318791499
20
-3.40141741561774
30
0
41
1
10
76.0944839813494
20
-3.4520245043399
30
0
41
1
10
76.3439449004844
20
-3.55105767358845
30
0
41
1
10
76.7178090596629
20
-3.69623391743156
30
0
41
1
10
77.0909631462647
20
-3.83100189112238
30
0
41
1
10
77.837046578209
20
-4.08592175475746
30
0
41
1
10
78.3341445065065
20
-4.23638467690506
30
0
41
1
10
78.9572004414953
20
-4.39801146146419
30
0
41
1
10
79.0819680533992
20
-4.42902904030433
30
0
41
1
10
79.3313471580062
20
-4.48826763346389
30
0
41
1
10
79.7050970076452
20
-4.57291634897362
30
0
41
1
10
80.078148439422
20
-4.64480146157334
30
0
41
1
10
80.824018653019
20
-4.77120079804109
30
0
41
1
10
81.3209882136719
20
-4.83229606168021
30
0
41
1
10
81.9439957919042
20
-4.87865821995612
30
0
41
1
10
82.0687549276775
20
-4.88643254851181
30
0
41
1
10
82.3180007828802
20
-4.89893027029328
30
0
41
1
10
82.5650486152016
20
-4.90831007205605
30
0
41
1
10
82.8118034615269
20
-4.91170916951907
30
0
41
1
10
82.9341415064635
20
-4.91192612038688
30
0
0
SPLINE
5
100
100
AcDbEntity
8
1
62
256
6
ByLayer
370
18
48
1
60
0
100
AcDbSpline
70
4
71
3
72
25
73
21
40
0
40
0
40
0
40
0
40
0.0777035307162705
40
0.0777035307162705
40
0.192990589376738
40
0.192990589376738
40
0.250634118706977
40
0.279455883372092
40
0.279455883372092
40
0.308277648037208
40
0.308277648037208
40
0.538851765358135
40
0.538851765358135
40
0.654138824018594
40
0.654138824018594
40
0.711782353348828
40
0.711782353348828
40
0.769425882679062
40
0.769425882679062
40
1
40
1
40
1
40
1
41
1
10
103.659087630731
20
3.62021836282614
30
0
41
1
10
103.824846909034
20
3.68498728373135
30
0
41
1
10
103.990745569777
20
3.74783726694807
30
0
41
1
10
104.403292848916
20
3.89894662997457
30
0
41
1
10
104.650191716219
20
3.98478685028496
30
0
41
1
10
105.021567138485
20
4.10643732066012
30
0
41
1
10
105.207511792988
20
4.16548498456586
30
0
41
1
10
105.393907643268
20
4.22177799562871
30
0
41
1
10
105.51827917086
20
4.25868469132703
30
0
41
1
10
105.580527477726
20
4.27682924347459
30
0
41
1
10
106.140346678337
20
4.4370255770595
30
0
41
1
10
106.636650471444
20
4.55781861298419
30
0
41
1
10
107.381684295413
20
4.70488339503424
30
0
41
1
10
107.630121298355
20
4.74821798757299
30
0
41
1
10
108.003245581782
20
4.80445319154256
30
0
41
1
10
108.127683673543
20
4.8217328266916
30
0
41
1
10
108.37627193999
20
4.85327413342043
30
0
41
1
10
108.500483915094
20
4.86754562677362
30
0
41
1
10
109.121280924965
20
4.93137150938787
30
0
41
1
10
109.617083402303
20
4.95831367383872
30
0
41
1
10
110.114010128425
20
4.96077476461755
30
0
0
SPLINE
5
101
100
AcDbEntity
8
1
62
256
6
ByLayer
370
18
48
1
60
0
100
AcDbSpline
70
4
71
3
72
58
73
54
40
0
40
0
40
0
40
0
40
0.0157054420182915
40
0.0157054420182915
40
0.0682319669824587
40
0.0682319669824587
40
0.0944952294645414
40
0.0944952294645414
40
0.120758491946624
40
0.120758491946624
40
0.147021754428706
40
0.147021754428706
40
0.173285016910788
40
0.173285016910788
40
0.199548279392871
40
0.199548279392871
40
0.225811541874954
40
0.225811541874954
40
0.278338066839118
40
0.278338066839118
40
0.3046013293212
40
0.3046013293212
40
0.330864591803281
40
0.330864591803281
40
0.343996223044322
40
0.343996223044322
40
0.357127854285364
40
0.383391116767448
40
0.383391116767448
40
0.435917641731613
40
0.435917641731613
40
0.488444166695778
40
0.488444166695778
40
0.540970691659943
40
0.540970691659943
40
0.593497216624108
40
0.593497216624108
40
0.646023741588273
40
0.646023741588273
40
0.698550266552438
40
0.698550266552438
40
0.751076791516602
40
0.764208422757643
40
0.764208422757643
40
0.777340053998684
40
0.777340053998684
40
0.803603316480765
40
0.803603316480765
40
0.856129841444928
40
0.856129841444928
40
0.908656366409091
40
0.908656366409091
40
1
40
1
40
1
40
1
41
1
10
82.8623224961458
20
-0.301202984995143
30
0
41
1
10
82.7882415028863
20
-0.260862302076077
30
0
41
1
10
82.7142009559396
20
-0.220516111191841
30
0
41
1
10
82.392674400633
20
-0.0452704461006306
30
0
41
1
10
82.1455123817707
20
0.0895300999867459
30
0
41
1
10
81.7751245373152
20
0.291196424450874
30
0
41
1
10
81.6517216836689
20
0.358330357926775
30
0
41
1
10
81.404995114383
20
0.492342107883445
30
0
41
1
10
81.2816741255417
20
0.559223837901214
30
0
41
1
10
81.035004267968
20
0.692553756228989
30
0
41
1
10
80.9116529537579
20
0.758998247414752
30
0
41
1
10
80.6648551843216
20
0.891336377573708
30
0
41
1
10
80.5414062505328
20
0.957226390577915
30
0
41
1
10
80.2944091959926
20
1.08843075974201
30
0
41
1
10
80.1708607332556
20
1.15374538148001
30
0
41
1
10
79.923685714118
20
1.28379762596103
30
0
41
1
10
79.8000693072911
20
1.34854805373513
30
0
41
1
10
79.4288407401398
20
1.54154672207312
30
0
41
1
10
79.180802250993
20
1.66848110915231
30
0
41
1
10
78.807834859139
20
1.85601911355431
30
0
41
1
10
78.6833617594583
20
1.91805670444199
30
0
41
1
10
78.4340995784312
20
2.04111691273997
30
0
41
1
10
78.3093164265919
20
2.10214448554234
30
0
41
1
10
78.1218047049524
20
2.19278978413496
30
0
41
1
10
78.0592178316176
20
2.22286632297019
30
0
41
1
10
77.9341762932228
20
2.28258744777332
30
0
41
1
10
77.7467400140714
20
2.37155786674745
30
0
41
1
10
77.559702703162
20
2.45865280246363
30
0
41
1
10
77.1862142136338
20
2.63023617165706
30
0
41
1
10
76.9380293733283
20
2.74114903549022
30
0
41
1
10
76.4423638936844
20
2.95559809227268
30
0
41
1
10
76.1948629365234
20
3.05913578528848
30
0
41
1
10
75.7005396810005
20
3.25812771076386
30
0
41
1
10
75.4537355895229
20
3.35357386130357
30
0
41
1
10
74.9600557800366
20
3.5361423789644
30
0
41
1
10
74.7131622161496
20
3.62327706815793
30
0
41
1
10
74.2192511284146
20
3.78830180031119
30
0
41
1
10
73.9722516767003
20
3.86617073110642
30
0
41
1
10
73.477382467987
20
4.01266369168275
30
0
41
1
10
73.2294991496597
20
4.08129870621161
30
0
41
1
10
72.7325916154575
20
4.20868737371677
30
0
41
1
10
72.4213159939407
20
4.28213126710634
30
0
41
1
10
72.1088572746273
20
4.34730928779598
30
0
41
1
10
71.9837733776013
20
4.37270385864093
30
0
41
1
10
71.9211438134859
20
4.38506978649278
30
0
41
1
10
71.7334331249497
20
4.42106453265271
30
0
41
1
10
71.6085311383807
20
4.44359223801644
30
0
41
1
10
71.2345114356218
20
4.50666144628659
30
0
41
1
10
70.9860978215013
20
4.54264483365859
30
0
41
1
10
70.4898513433937
20
4.60395442596698
30
0
41
1
10
70.2420025546359
20
4.62931980750639
30
0
41
1
10
69.5638769050024
20
4.68353225742783
30
0
41
1
10
69.1341414315073
20
4.7011122989106
30
0
41
1
10
68.7047125337742
20
4.70015928712092
30
0
0
SPLINE
5
102
100
AcDbEntity
8
1
62
256
6
ByLayer
370
13
48
1
60
0
100
AcDbSpline
70
4
71
3
72
29
73
25
40
0
40
0
40
0
40
0
40
0.100414645959033
40
0.100414645959033
40
0.171117304998625
40
0.171117304998625
40
0.241819964038217
40
0.241819964038217
40
0.383225282117401
40
0.383225282117401
40
0.453927941156993
40
0.453927941156993
40
0.524630600196585
40
0.524630600196585
40
0.666035918275769
40
0.666035918275769
40
0.736738577315361
40
0.736738577315361
40
0.772089906835157
40
0.772089906835157
40
0.807441236354953
40
0.807441236354953
40
0.948846554434137
40
1
40
1
40
1
40
1
41
1
10
62.4907745246607
20
4.68687115506538
30
0
41
1
10
62.4907690365175
20
4.68683076648983
30
0
41
1
10
62.490763636261
20
4.68382954621563
30
0
41
1
10
62.4907545609266
20
4.67369558733657
30
0
41
1
10
62.4907508479263
20
4.66804603645184
30
0
41
1
10
62.4907434829804
20
4.65380805365962
30
0
41
1
10
62.4907398271272
20
4.64520664883114
30
0
41
1
10
62.4907289748816
20
4.61508801016583
30
0
41
1
10
62.490721885054
20
4.58925978778959
30
0
41
1
10
62.4907113543328
20
4.54194032247659
30
0
41
1
10
62.4907078612071
20
4.52473563265349
30
0
41
1
10
62.4907008873432
20
4.48744667634702
30
0
41
1
10
62.4906974051112
20
4.46734945457524
30
0
41
1
10
62.4906869907811
20
4.4030191602929
30
0
41
1
10
62.4906800755713
20
4.35467499241869
30
0
41
1
10
62.4906695861884
20
4.27400186215624
30
0
41
1
10
62.4906660701177
20
4.24574943122678
30
0
41
1
10
62.4906607449313
20
4.20131501447776
30
0
41
1
10
62.4906589605381
20
4.18615356603553
30
0
41
1
10
62.4906553802174
20
4.1552231074624
30
0
41
1
10
62.4906535832982
20
4.13944606441905
30
0
41
1
10
62.4906445557674
20
4.05900996245222
30
0
41
1
10
62.4906345346791
20
3.96463644175432
30
0
41
1
10
62.4906240354132
20
3.86113971518151
30
0
41
1
10
62.4906212062952
20
3.83299820820122
30
0
0
SPLINE
5
103
100
AcDbEntity
8
1
62
256
6
ByLayer
370
18
48
1
60
0
100
AcDbSpline
70
4
71
3
72
49
73
45
40
0
40
0
40
0
40
0
40
0.0135896511981613
40
0.0135896511981613
40
0.0662628126100956
40
0.0662628126100956
40
0.11893597402203
40
0.11893597402203
40
0.145272554727997
40
0.145272554727997
40
0.158440845080981
40
0.158440845080981
40
0.171609135433965
40
0.171609135433965
40
0.224282296845897
40
0.276955458257828
40
0.32962861966976
40
0.32962861966976
40
0.540321265317491
40
0.540321265317491
40
0.566657846023457
40
0.57982613637644
40
0.57982613637644
40
0.592994426729423
40
0.592994426729423
40
0.619331007435389
40
0.619331007435389
40
0.645667588141356
40
0.645667588141356
40
0.698340749553288
40
0.698340749553288
40
0.724677330259254
40
0.724677330259254
40
0.751013910965219
40
0.751013910965219
40
0.803687072377149
40
0.803687072377149
40
0.856360233789079
40
0.856360233789079
40
0.90903339520101
40
0.90903339520101
40
0.96170655661294
40
0.96170655661294
40
1
40
1
40
1
40
1
41
1
10
69.7674757924927
20
0.290867713143882
30
0
41
1
10
69.831310116689
20
0.256270331462247
30
0
41
1
10
69.8951589791109
20
0.221635067897154
30
0
41
1
10
70.2065720872352
20
0.0526006915631001
30
0
41
1
10
70.4543867782064
20
-0.0822447932160912
30
0
41
1
10
70.9510899840935
20
-0.35185829602662
30
0
41
1
10
71.199989653852
20
-0.486600547393237
30
0
41
1
10
71.5744147872006
20
-0.688166595794513
30
0
41
1
10
71.6993998714282
20
-0.755270492768148
30
0
41
1
10
71.8871810789501
20
-0.855727389721551
30
0
41
1
10
71.9498612122231
20
-0.889198864681418
30
0
41
1
10
72.0750994884787
20
-0.955940849867261
30
0
41
1
10
72.1376641995835
20
-0.98921495828759
30
0
41
1
10
72.450231785452
20
-1.15507389729922
30
0
41
1
10
72.9487024174409
20
-1.41717409875125
30
0
41
1
10
73.6928992366043
20
-1.79825428210239
30
0
41
1
10
74.1876052664819
20
-2.04277244698801
30
0
41
1
10
75.423425683374
20
-2.64071311796343
30
0
41
1
10
76.4093205779337
20
-3.07599083368234
30
0
41
1
10
77.5301171766575
20
-3.49357864367141
30
0
41
1
10
77.7171550325492
20
-3.56167944637997
30
0
41
1
10
77.9046173258404
20
-3.62742667591621
30
0
41
1
10
78.0296940957698
20
-3.67072259599809
30
0
41
1
10
78.0923173799046
20
-3.69211416257588
30
0
41
1
10
78.2800863754146
20
-3.755377541174
30
0
41
1
10
78.4050518005101
20
-3.79631412056648
30
0
41
1
10
78.654656585725
20
-3.87573780412495
30
0
41
1
10
78.7792931970208
20
-3.91422200937023
30
0
41
1
10
79.1526854173921
20
-4.02585374131365
30
0
41
1
10
79.4009311777675
20
-4.09518893983019
30
0
41
1
10
79.7726394169602
20
-4.19129978008917
30
0
41
1
10
79.8964331198413
20
-4.22202367122216
30
0
41
1
10
80.1438952018553
20
-4.28090984175492
30
0
41
1
10
80.267561331589
20
-4.30906808500384
30
0
41
1
10
80.6383651419763
20
-4.38951404483979
30
0
41
1
10
80.8853071062072
20
-4.43776333982277
30
0
41
1
10
81.3791755598172
20
-4.52332384267143
30
0
41
1
10
81.6261204504556
20
-4.56067875872281
30
0
41
1
10
82.1203855357078
20
-4.62425123386083
30
0
41
1
10
82.3676931327194
20
-4.65044582959717
30
0
41
1
10
82.8630630871054
20
-4.69136176081091
30
0
41
1
10
83.1111255503201
20
-4.70608417787045
30
0
41
1
10
83.5405760932306
20
-4.72155560367548
30
0
41
1
10
83.7216773833633
20
-4.72499925690425
30
0
41
1
10
83.9031818369175
20
-4.72532223809887
30
0
0
SPLINE
5
104
100
AcDbEntity
8
1
62
256
6
ByLayer
370
18
48
1
60
0
100
AcDbSpline
70
4
71
3
72
8
73
4
40
0
40
0
40
0
40
0
40
1
40
1
40
1
40
1
41
1
10
110.15487946011
20
-0.354042635884355
30
0
41
1
10
110.13472152591
20
-0.342932581355825
30
0
41
1
10
110.11456621242
20
-0.33182230537227
30
0
41
1
10
110.094413415543
20
-0.320711998551644
30
0
0
SPLINE
5
105
100
AcDbEntity
8
1
62
256
6
ByLayer
370
18
48
1
60
0
100
AcDbSpline
70
4
71
3
72
51
73
47
40
0
40
0
40
0
40
0
40
0.098185258810206
40
0.098185258810206
40
0.150634643554731
40
0.150634643554731
40
0.203084028299256
40
0.203084028299256
40
0.229308720671518
40
0.242421066857647
40
0.242421066857647
40
0.255533413043776
40
0.255533413043776
40
0.307982797788296
40
0.307982797788296
40
0.360432182532816
40
0.360432182532816
40
0.412881567277336
40
0.412881567277336
40
0.465330952021856
40
0.465330952021856
40
0.517780336766376
40
0.517780336766376
40
0.570229721510897
40
0.570229721510897
40
0.622679106255417
40
0.622679106255417
40
0.675128490999937
40
0.675128490999937
40
0.688240837186064
40
0.688240837186064
40
0.70135318337219
40
0.70135318337219
40
0.727577875744444
40
0.727577875744444
40
0.780027260488946
40
0.780027260488946
40
0.832476645233449
40
0.832476645233449
40
0.884926029977951
40
0.884926029977951
40
0.937375414722454
40
0.937375414722454
40
0.989824799466956
40
0.989824799466956
40
1
40
1
40
1
40
1
41
1
10
110.059335912926
20
-0.301372265677031
30
0
41
1
10
109.593652042261
20
-0.0446030252484775
30
0
41
1
10
109.129280075902
20
0.212123610820612
30
0
41
1
10
108.416887528393
20
0.602315254324338
30
0
41
1
10
108.168841783347
20
0.737483737439163
30
0
41
1
10
107.672506890553
20
1.00588974384692
30
0
41
1
10
107.424227143256
20
1.13913900164556
30
0
41
1
10
107.051221545281
20
1.33688333693991
30
0
41
1
10
106.864568723143
20
1.43521841208994
30
0
41
1
10
106.677639606216
20
1.53264746739407
30
0
41
1
10
106.55295362817
20
1.59738820055586
30
0
41
1
10
106.490559768765
20
1.62966141808138
30
0
41
1
10
106.179007575482
20
1.79016266609153
30
0
41
1
10
105.930688592695
20
1.91602178012505
30
0
41
1
10
105.435194605839
20
2.16203608129584
30
0
41
1
10
105.18799474861
20
2.28218625182652
30
0
41
1
10
104.694446728874
20
2.51618220991727
30
0
41
1
10
104.4481127955
20
2.63002801397161
30
0
41
1
10
103.955889973843
20
2.85085400047828
30
0
41
1
10
103.709984867544
20
2.95784656534852
30
0
41
1
10
103.218403384677
20
3.16418400876842
30
0
41
1
10
102.972768068306
20
3.26348800858841
30
0
41
1
10
102.480973094057
20
3.45420344893651
30
0
41
1
10
102.234769442971
20
3.54564870960721
30
0
41
1
10
101.741462306657
20
3.72006105759695
30
0
41
1
10
101.494365804608
20
3.80302227719667
30
0
41
1
10
100.999037817465
20
3.95975172523188
30
0
41
1
10
100.750813015883
20
4.03354315599611
30
0
41
1
10
100.439608752353
20
4.11939484245252
30
0
41
1
10
100.377321937358
20
4.13624411007814
30
0
41
1
10
100.2526481155
20
4.1692916675552
30
0
41
1
10
100.190230934179
20
4.18549931604761
30
0
41
1
10
100.003233695203
20
4.23306125208552
30
0
41
1
10
99.8787951928124
20
4.26338621585072
30
0
41
1
10
99.5058897001284
20
4.35043846903565
30
0
41
1
10
99.2577418622922
20
4.40336375483008
30
0
41
1
10
98.7626002705872
20
4.49790466648375
30
0
41
1
10
98.5156815834364
20
4.53940675144224
30
0
41
1
10
98.0223600284448
20
4.61149614186209
30
0
41
1
10
97.7758980903562
20
4.64219642504247
30
0
41
1
10
97.2834613790274
20
4.69165237578875
30
0
41
1
10
97.0375558690788
20
4.71024453413574
30
0
41
1
10
96.5454070622694
20
4.73647859473104
30
0
41
1
10
96.2990943148231
20
4.74429652962894
30
0
41
1
10
96.0047153627029
20
4.7465048802294
30
0
41
1
10
95.9568781535243
20
4.74663208985515
30
0
41
1
10
95.9090315610692
20
4.74653202674776
30
0
0
SPLINE
5
106
100
AcDbEntity
8
1
62
256
6
ByLayer
370
13
48
1
60
0
100
AcDbSpline
70
4
71
3
72
28
73
24
40
0
40
0
40
0
40
0
40
0.0557754344803617
40
0.185485236632198
40
0.185485236632198
40
0.315195038784034
40
0.315195038784034
40
0.380049939859952
40
0.412477390397911
40
0.412477390397911
40
0.44490484093587
40
0.44490484093587
40
0.574614643087707
40
0.574614643087707
40
0.704324445239544
40
0.834034247391382
40
0.834034247391382
40
0.8988891484673
40
0.931316599005259
40
0.931316599005259
40
0.963744049543219
40
0.963744049543219
40
1
40
1
40
1
40
1
41
1
10
62.490962386601
20
-3.68454708959243
30
0
41
1
10
62.4909593977675
20
-3.7205054435349
30
0
41
1
10
62.490949189383
20
-3.83717155821302
30
0
41
1
10
62.4909381912998
20
-3.94418654007322
30
0
41
1
10
62.4909222326461
20
-4.08430940073049
30
0
41
1
10
62.4909140226391
20
-4.14909332724957
30
0
41
1
10
62.490901500813
20
-4.23839056418191
30
0
41
1
10
62.4908951872344
20
-4.28107054676698
30
0
41
1
10
62.4908888153343
20
-4.32078811987927
30
0
41
1
10
62.4908845564524
20
-4.34660538913687
30
0
41
1
10
62.4908824196181
20
-4.35919443976181
30
0
41
1
10
62.4908717396302
20
-4.42032774110385
30
0
41
1
10
62.4908632198971
20
-4.46340796370657
30
0
41
1
10
62.4908463255279
20
-4.53827387010301
30
0
41
1
10
62.4908295758916
20
-4.60184353686716
30
0
41
1
10
62.4908132272919
20
-4.64301744803706
30
0
41
1
10
62.4908011298515
20
-4.66538675440165
30
0
41
1
10
62.4907951217074
20
-4.67444069383751
30
0
41
1
10
62.490789172965
20
-4.68024977144884
30
0
41
1
10
62.4907852198826
20
-4.68339394794074
30
0
41
1
10
62.4907832486614
20
-4.68460171249356
30
0
41
1
10
62.4907791011642
20
-4.6863760098756
30
0
41
1
10
62.4907769262736
20
-4.68685290647156
30
0
41
1
10
62.4907747650295
20
-4.68687103121545
30
0
0
SPLINE
5
107
100
AcDbEntity
8
1
62
256
6
ByLayer
370
18
48
1
60
0
100
AcDbSpline
70
4
71
3
72
41
73
37
40
0
40
0
40
0
40
0
40
0.0405778789309303
40
0.0405778789309303
40
0.0970144742879112
40
0.0970144742879112
40
0.153451069644892
40
0.153451069644892
40
0.16756021848414
40
0.16756021848414
40
0.181669367323387
40
0.181669367323387
40
0.209887665001887
40
0.209887665001887
40
0.322760855715888
40
0.322760855715888
40
0.435634046429888
40
0.435634046429888
40
0.548507237143888
40
0.548507237143888
40
0.604943832500891
40
0.604943832500891
40
0.633162130179392
40
0.647271279018645
40
0.647271279018645
40
0.661380427857898
40
0.661380427857898
40
0.717817023214915
40
0.717817023214915
40
0.774253618571932
40
0.774253618571932
40
0.830690213928949
40
0.830690213928949
40
0.887126809285966
40
0.887126809285966
40
1
40
1
40
1
40
1
41
1
10
97.0162710350254
20
0.266923158973327
30
0
41
1
10
97.1936426133682
20
0.169818261037307
30
0
41
1
10
97.3711239546494
20
0.0724675077712789
30
0
41
1
10
97.7958656699566
20
-0.160585320644742
30
0
41
1
10
98.0432978458262
20
-0.296388278654092
30
0
41
1
10
98.539335999819
20
-0.567559160984445
30
0
41
1
10
98.7879322811941
20
-0.702944669032547
30
0
41
1
10
99.0996357150948
20
-0.87149030686345
30
0
41
1
10
99.1620248085644
20
-0.905164156056145
30
0
41
1
10
99.2869077618215
20
-0.972426489586866
30
0
41
1
10
99.3494378972291
20
-1.00603438630736
30
0
41
1
10
99.5368435481154
20
-1.10651789959005
30
0
41
1
10
99.6615660691722
20
-1.17306892213787
30
0
41
1
10
100.284250446594
20
-1.50339155586147
30
0
41
1
10
100.779372307674
20
-1.76001122704596
30
0
41
1
10
101.766870755797
20
-2.25268999374546
30
0
41
1
10
102.259271003899
20
-2.48870342619605
30
0
41
1
10
103.24463784949
20
-2.93479171260444
30
0
41
1
10
103.737579148611
20
-3.14498811826567
30
0
41
1
10
104.479935367783
20
-3.43701286536256
30
0
41
1
10
104.727882004569
20
-3.53047011973101
30
0
41
1
10
105.100866361612
20
-3.66436260305988
30
0
41
1
10
105.287623682321
20
-3.72973397980252
30
0
41
1
10
105.474834213895
20
-3.79264539953823
30
0
41
1
10
105.599748176907
20
-3.83402858006767
30
0
41
1
10
105.662222392245
20
-3.85442892027655
30
0
41
1
10
105.974249815229
20
-3.9548148442999
30
0
41
1
10
106.223201928754
20
-4.03009796677074
30
0
41
1
10
106.720269759478
20
-4.17035725584554
30
0
41
1
10
106.968371705687
20
-4.23532044112221
30
0
41
1
10
107.464042992562
20
-4.35453077152832
30
0
41
1
10
107.711630071272
20
-4.4087997277708
30
0
41
1
10
108.206867114703
20
-4.50655732797711
30
0
41
1
10
108.454502982831
20
-4.5500267070114
30
0
41
1
10
109.197888230133
20
-4.66350693855588
30
0
41
1
10
109.694145648706
20
-4.71663726832875
30
0
41
1
10
110.192742217242
20
-4.74614585811636
30
0
0
SPLINE
5
108
100
AcDbEntity
8
1
62
256
6
ByLayer
370
18
48
1
60
0
100
AcDbSpline
70
4
71
3
72
50
73
46
40
0
40
0
40
0
40
0
40
0.0624999999999946
40
0.0624999999999946
40
0.0937499999999924
40
0.109374999999992
40
0.109374999999992
40
0.124999999999991
40
0.124999999999991
40
0.187499999999992
40
0.187499999999992
40
0.249999999999993
40
0.312499999999993
40
0.312499999999993
40
0.343749999999994
40
0.343749999999994
40
0.359374999999993
40
0.359374999999993
40
0.374999999999993
40
0.437499999999994
40
0.437499999999994
40
0.468749999999994
40
0.468749999999994
40
0.499999999999994
40
0.499999999999994
40
0.562499999999994
40
0.562499999999994
40
0.593749999999994
40
0.593749999999994
40
0.624999999999994
40
0.624999999999994
40
0.687499999999994
40
0.687499999999994
40
0.718749999999995
40
0.718749999999995
40
0.749999999999995
40
0.749999999999995
40
0.812499999999996
40
0.812499999999996
40
0.843749999999996
40
0.843749999999996
40
0.874999999999997
40
0.874999999999997
40
0.937499999999998
40
1
40
1
40
1
40
1
41
1
10
110.154879460105
20
-0.3540426358839
30
0
41
1
10
110.138491747912
20
-0.491873845460134
30
0
41
1
10
110.124158521488
20
-0.628978851791857
30
0
41
1
10
110.105244224248
20
-0.833502551818015
30
0
41
1
10
110.096434741942
20
-0.935480625666969
30
0
41
1
10
110.088514422915
20
-1.03702161736714
30
0
41
1
10
110.083423330737
20
-1.10461698669943
30
0
41
1
10
110.080971912051
20
-1.13837379455356
30
0
41
1
10
110.069209171817
20
-1.30627557576034
30
0
41
1
10
110.061335464826
20
-1.43828229864988
30
0
41
1
10
110.04802469341
20
-1.69776412147192
30
0
41
1
10
110.037151942998
20
-1.952713757955
30
0
41
1
10
110.030169788718
20
-2.19859941572193
30
0
41
1
10
110.026114389087
20
-2.37954166572754
30
0
41
1
10
110.024960378344
20
-2.43927631396042
30
0
41
1
10
110.023499538961
20
-2.52799262250912
30
0
41
1
10
110.023057338295
20
-2.55744392106874
30
0
41
1
10
110.022261476519
20
-2.61588677547525
30
0
41
1
10
110.020494039899
20
-2.76084417297133
30
0
41
1
10
110.019764474133
20
-2.90009416585295
30
0
41
1
10
110.01973271573
20
-3.0617271262459
30
0
41
1
10
110.019863874964
20
-3.11469232069229
30
0
41
1
10
110.020397665222
20
-3.21878409755243
30
0
41
1
10
110.020799814417
20
-3.2697862531175
30
0
41
1
10
110.022397386583
20
-3.41940253029401
30
0
41
1
10
110.023980035616
20
-3.51475383395737
30
0
41
1
10
110.027159166033
20
-3.65119029594882
30
0
41
1
10
110.028355326438
20
-3.69560500957095
30
0
41
1
10
110.031031593761
20
-3.78205124618143
30
0
41
1
10
110.032509171139
20
-3.82401063847331
30
0
41
1
10
110.037392176678
20
-3.94612477845726
30
0
41
1
10
110.041243433858
20
-4.02252258683563
30
0
41
1
10
110.048120428623
20
-4.12958096385393
30
0
41
1
10
110.05060060002
20
-4.16404662649174
30
0
41
1
10
110.055955586867
20
-4.23017622945014
30
0
41
1
10
110.058830752454
20
-4.26185699780424
30
0
41
1
10
110.068120694961
20
-4.35277233211247
30
0
41
1
10
110.075195651998
20
-4.40788756996409
30
0
41
1
10
110.087489525203
20
-4.4822794334126
30
0
41
1
10
110.091871429425
20
-4.50569658332847
30
0
41
1
10
110.101208602265
20
-4.54948641013394
30
0
41
1
10
110.106169803614
20
-4.56989894787253
30
0
41
1
10
110.122025223275
20
-4.62673978365626
30
0
41
1
10
110.145751485865
20
-4.69081796470351
30
0
41
1
10
110.175796093777
20
-4.73163544950677
30
0
41
1
10
110.192742215715
20
-4.74614585812907
30
0
0
SPLINE
5
109
100
AcDbEntity
8
1
62
256
6
ByLayer
370
18
48
1
60
0
100
AcDbSpline
70
4
71
3
72
116
73
112
40
0
40
0
40
0
40
0
40
0.0624999999999534
40
0.0624999999999534
40
0.124999999999907
40
0.124999999999907
40
0.156249999999883
40
0.156249999999883
40
0.18749999999986
40
0.18749999999986
40
0.249999999999814
40
0.249999999999814
40
0.281249999999789
40
0.281249999999789
40
0.312499999999766
40
0.312499999999766
40
0.328124999999753
40
0.328124999999753
40
0.335937499999747
40
0.335937499999747
40
0.337890624999747
40
0.337890624999747
40
0.339843749999746
40
0.339843749999746
40
0.341796874999746
40
0.341796874999746
40
0.342773437499747
40
0.342773437499747
40
0.343749999999747
40
0.343749999999747
40
0.344726562499748
40
0.344726562499748
40
0.345703124999748
40
0.345703124999748
40
0.346679687499749
40
0.346679687499749
40
0.347656249999749
40
0.347656249999749
40
0.351562499999751
40
0.359374999999755
40
0.359374999999755
40
0.374999999999761
40
0.374999999999761
40
0.406249999999775
40
0.406249999999775
40
0.421874999999781
40
0.421874999999781
40
0.437499999999787
40
0.437499999999787
40
0.4687499999998
40
0.4687499999998
40
0.499999999999813
40
0.499999999999813
40
0.515624999999819
40
0.515624999999819
40
0.523437499999821
40
0.523437499999821
40
0.531249999999824
40
0.531249999999824
40
0.546874999999829
40
0.546874999999829
40
0.562499999999834
40
0.562499999999834
40
0.566406249999836
40
0.566406249999836
40
0.570312499999837
40
0.570312499999837
40
0.57812499999984
40
0.593749999999846
40
0.593749999999846
40
0.609374999999852
40
0.609374999999852
40
0.617187499999854
40
0.617187499999854
40
0.621093749999856
40
0.621093749999856
40
0.624999999999857
40
0.624999999999857
40
0.656249999999869
40
0.656249999999869
40
0.660156249999871
40
0.660156249999871
40
0.664062499999872
40
0.664062499999872
40
0.671874999999876
40
0.671874999999876
40
0.687499999999883
40
0.687499999999883
40
0.70312499999989
40
0.70312499999989
40
0.710937499999893
40
0.710937499999893
40
0.718749999999896
40
0.718749999999896
40
0.749999999999909
40
0.749999999999909
40
0.781249999999921
40
0.781249999999921
40
0.796874999999927
40
0.796874999999927
40
0.812499999999933
40
0.812499999999933
40
0.843749999999944
40
0.843749999999944
40
0.874999999999955
40
0.874999999999955
40
0.906249999999967
40
0.906249999999967
40
0.937499999999978
40
0.937499999999978
40
1
40
1
40
1
40
1
41
1
10
13.0948338851254
20
0.944638976886125
30
0
41
1
10
12.8296368173646
20
1.08859002971346
30
0
41
1
10
12.5629058506427
20
1.22759121074057
30
0
41
1
10
12.024858330742
20
1.49343905478616
30
0
41
1
10
11.7535306959344
20
1.62026642720457
30
0
41
1
10
11.3421008683314
20
1.80008356721729
30
0
41
1
10
11.2042214932609
20
1.85827943749311
30
0
41
1
10
10.9273954916958
20
1.97078975113692
30
0
41
1
10
10.7883800212184
20
2.02513562571511
30
0
41
1
10
10.3693461092
20
2.18228294884545
30
0
41
1
10
10.0873297181052
20
2.2791712465137
30
0
41
1
10
9.65978661416088
20
2.41249739450086
30
0
41
1
10
9.5164672545769
20
2.45496450747609
30
0
41
1
10
9.22861604784291
20
2.53581144110865
30
0
41
1
10
9.08407288597286
20
2.574186789084
30
0
41
1
10
8.86630157465299
20
2.6287341800176
30
0
41
1
10
8.79354725657271
20
2.64641547261962
30
0
41
1
10
8.68419767322521
20
2.67218456341084
30
0
41
1
10
8.6477110190346
20
2.68064855907451
30
0
41
1
10
8.60205836016598
20
2.69107328673215
30
0
41
1
10
8.59292646658903
20
2.69315633712753
30
0
41
1
10
8.57465470311681
20
2.69728077386935
30
0
41
1
10
8.56549043477037
20
2.69920063406229
30
0
41
1
10
8.54692203672857
20
2.7018480429121
30
0
41
1
10
8.53752163160337
20
2.70259426548546
30
0
41
1
10
8.52323224769486
20
2.70277660405915
30
0
41
1
10
8.5184283773882
20
2.70268465979996
30
0
41
1
10
8.50894306084211
20
2.70214548947166
30
0
41
1
10
8.50424254765937
20
2.70168848268739
30
0
41
1
10
8.49492846719019
20
2.70038754812254
30
0
41
1
10
8.49031816177859
20
2.69952911780922
30
0
41
1
10
8.48120255543051
20
2.69734442714599
30
0
41
1
10
8.47668000357518
20
2.69598707335177
30
0
41
1
10
8.46787008340667
20
2.69278693789855
30
0
41
1
10
8.46361476638555
20
2.69091393538201
30
0
41
1
10
8.45530715795675
20
2.6868803022642
30
0
41
1
10
8.4512206407056
20
2.68476913024685
30
0
41
1
10
8.43065879187543
20
2.67438757479371
30
0
41
1
10
8.38137956278163
20
2.64932385435282
30
0
41
1
10
8.33231945209241
20
2.62381153109038
30
0
41
1
10
8.23450254908613
20
2.57216459509471
30
0
41
1
10
8.16970039067107
20
2.53690631824023
30
0
41
1
10
7.97677799719699
20
2.42852863616639
30
0
41
1
10
7.85007876278075
20
2.3527926006025
30
0
41
1
10
7.66342799772607
20
2.23292808243181
30
0
41
1
10
7.60172560038001
20
2.19188724619676
30
0
41
1
10
7.48003934159973
20
2.10781914481032
30
0
41
1
10
7.42001450441242
20
2.06476836360878
30
0
41
1
10
7.242615939377
20
1.93227580377541
30
0
41
1
10
7.12789765345096
20
1.83952050137771
30
0
41
1
10
6.90712972578675
20
1.64309533966366
30
0
41
1
10
6.80106166784816
20
1.5394494363089
30
0
41
1
10
6.65027374825132
20
1.37342630439713
30
0
41
1
10
6.60140491369461
20
1.31631564436387
30
0
41
1
10
6.53053142501886
20
1.22755276292497
30
0
41
1
10
6.5073230828273
20
1.19745524904465
30
0
41
1
10
6.46212031256476
20
1.1366049136829
30
0
41
1
10
6.44008305443802
20
1.10579952957261
30
0
41
1
10
6.37575643564921
20
1.01217861773984
30
0
41
1
10
6.33524750857731
20
0.94816156750926
30
0
41
1
10
6.25957376367413
20
0.816511910422065
30
0
41
1
10
6.22440677174913
20
0.748880793081639
30
0
41
1
10
6.18426716259998
20
0.661752066320389
30
0
41
1
10
6.17643072979689
20
0.644196464503125
30
0
41
1
10
6.16115520754477
20
0.608815658141907
30
0
41
1
10
6.15371334110822
20
0.590981435022741
30
0
41
1
10
6.13213026784942
20
0.537377407404819
30
0
41
1
10
6.09180176340041
20
0.429464090905185
30
0
41
1
10
6.06019202608687
20
0.319382493819489
30
0
41
1
10
6.02625264817064
20
0.170563634022557
30
0
41
1
10
6.01338548419045
20
0.0951327437314262
30
0
41
1
10
6.00067534681952
20
-0.019656195837598
30
0
41
1
10
5.99753811449869
20
-0.0581932033389592
30
0
41
1
10
5.99454683027938
20
-0.116426232989369
30
0
41
1
10
5.99383671925364
20
-0.135919264994072
30
0
41
1
10
5.99300147662578
20
-0.174732507394594
30
0
41
1
10
5.99287382185321
20
-0.194091731198711
30
0
41
1
10
5.99429445781615
20
-0.367904505919142
30
0
41
1
10
6.01375359589434
20
-0.519428215536379
30
0
41
1
10
6.0541670763063
20
-0.686852333745748
30
0
41
1
10
6.05891581475143
20
-0.705412618537736
30
0
41
1
10
6.06892502165945
20
-0.742449189553071
30
0
41
1
10
6.07419334462395
20
-0.760951343067489
30
0
41
1
10
6.09070093201191
20
-0.816141217663471
30
0
41
1
10
6.10260875277359
20
-0.852412964696242
30
0
41
1
10
6.14085025014836
20
-0.959773071202534
30
0
41
1
10
6.16969525465575
20
-1.02941012168512
30
0
41
1
10
6.23326700573497
20
-1.16528360843506
30
0
41
1
10
6.26799601346661
20
-1.23151875645755
30
0
41
1
10
6.32403203582271
20
-1.32859185918881
30
0
41
1
10
6.34336906339652
20
-1.36056889988833
30
0
41
1
10
6.38329438158522
20
-1.42379956000579
30
0
41
1
10
6.40390594037908
20
-1.45508687895733
30
0
41
1
10
6.5096912622339
20
-1.6094288632134
30
0
41
1
10
6.60173656923607
20
-1.72456332805839
30
0
41
1
10
6.79696453004587
20
-1.94233265117526
30
0
41
1
10
6.90018151872431
20
-2.04492910518678
30
0
41
1
10
7.06174077492653
20
-2.19129095075363
30
0
41
1
10
7.11672440113645
20
-2.23881351594716
30
0
41
1
10
7.22875207349509
20
-2.33155854528678
30
0
41
1
10
7.28590442925795
20
-2.3768594232202
30
0
41
1
10
7.45904590377981
20
-2.50873287668858
30
0
41
1
10
7.57689322205923
20
-2.59148600320398
30
0
41
1
10
7.81654189579891
20
-2.74862659167846
30
0
41
1
10
7.93834828351163
20
-2.82300314896804
30
0
41
1
10
8.18532258659687
20
-2.96471396806987
30
0
41
1
10
8.31049314158273
20
-3.03204250185567
30
0
41
1
10
8.56376974823229
20
-3.16061849943819
30
0
41
1
10
8.69187730373821
20
-3.22186269537639
30
0
41
1
10
9.08012668033925
20
-3.39756169146946
30
0
41
1
10
9.34417181230884
20
-3.50403389346263
30
0
41
1
10
9.61255593638975
20
-3.60188092634658
30
0
0
SPLINE
5
10A
100
AcDbEntity
8
1
62
256
6
ByLayer
370
18
48
1
60
0
100
AcDbSpline
70
4
71
3
72
67
73
63
40
0
40
0
40
0
40
0
40
0.0002073547528515
40
0.0002073547528515
40
0.0182616704460737
40
0.0182616704460737
40
0.0543703018325179
40
0.0543703018325179
40
0.0724246175257402
40
0.0724246175257402
40
0.0729888148911534
40
0.0729888148911534
40
0.0732709135738599
40
0.0732709135738599
40
0.0735530122565666
40
0.0735530122565666
40
0.074681406987393
40
0.074681406987393
40
0.0769381964490461
40
0.0769381964490461
40
0.0814517753723521
40
0.0814517753723521
40
0.0904789332189643
40
0.0904789332189643
40
0.126587564605413
40
0.126587564605413
40
0.19880482737831
40
0.19880482737831
40
0.343239352924105
40
0.343239352924105
40
0.415456615697002
40
0.415456615697002
40
0.451565247083451
40
0.451565247083451
40
0.469619562776675
40
0.469619562776675
40
0.478646720623288
40
0.478646720623288
40
0.4876738784699
40
0.4876738784699
40
0.488802273200726
40
0.488802273200726
40
0.489084371883433
40
0.489084371883433
40
0.489366470566139
40
0.489366470566139
40
0.489507519907493
40
0.489507519907493
40
0.489648569248846
40
0.489648569248846
40
0.489930667931552
40
0.492187457393206
40
0.496701036316512
40
0.505728194163126
40
0.523782509856353
40
0.559891141242807
40
0.559891141242807
40
0.632108404015715
40
0.632108404015715
40
0.776542929561531
40
0.776542929561531
40
1
40
1
40
1
40
1
41
1
10
12.683487599593
20
1.15680199742366
30
0
41
1
10
12.682999487572
20
1.15690038843582
30
0
41
1
10
12.6825113098323
20
1.15699830773752
30
0
41
1
10
12.639511878692
20
1.16558047880065
30
0
41
1
10
12.596257634601
20
1.17059687067496
30
0
41
1
10
12.4606728616616
20
1.17700707616666
30
0
41
1
10
12.3649291589213
20
1.16852239991223
30
0
41
1
10
12.2116049248094
20
1.13738858593916
30
0
41
1
10
12.1591472537449
20
1.12392951675801
30
0
41
1
10
12.1040637318321
20
1.1067643728635
30
0
41
1
10
12.1021032208824
20
1.10638147659952
30
0
41
1
10
12.1000538920441
20
1.10537088121342
30
0
41
1
10
12.1019203280955
20
1.10429426594428
30
0
41
1
10
12.1044953690501
20
1.10275555887165
30
0
41
1
10
12.1058637728871
20
1.1019991217014
30
0
41
1
10
12.1127985651601
20
1.0982315972976
30
0
41
1
10
12.1186274378467
20
1.09527969692152
30
0
41
1
10
12.1361126252204
20
1.0864446660085
30
0
41
1
10
12.1479426517702
20
1.08060095516097
30
0
41
1
10
12.1835031067922
20
1.06309616391155
30
0
41
1
10
12.2073626351323
20
1.05146811016275
30
0
41
1
10
12.2790354229773
20
1.01658443622085
30
0
41
1
10
12.3269820021836
20
0.993344439367831
30
0
41
1
10
12.5669215976382
20
0.877019820979712
30
0
41
1
10
12.7595552182541
20
0.783537688241836
30
0
41
1
10
13.3372147650557
20
0.500870069147737
30
0
41
1
10
13.7224514731072
20
0.309635985412967
30
0
41
1
10
14.8777644739446
20
-0.27293462827538
30
0
41
1
10
15.6470230339639
20
-0.673625753365343
30
0
41
1
10
16.7996704503339
20
-1.29074603931838
30
0
41
1
10
17.1837913557758
20
-1.49904760750343
30
0
41
1
10
17.759510017235
20
-1.81586509077917
30
0
41
1
10
17.9513560124714
20
-1.92217416520279
30
0
41
1
10
18.2388620773619
20
-2.08300532149721
30
0
41
1
10
18.3346595992665
20
-2.13683115482641
30
0
41
1
10
18.4780977518365
20
-2.2182700151142
30
0
41
1
10
18.5258679584632
20
-2.24553172782967
30
0
41
1
10
18.6211838245275
20
-2.30055712105909
30
0
41
1
10
18.6691091919971
20
-2.32771388264183
30
0
41
1
10
18.7214656396111
20
-2.36092516030521
30
0
41
1
10
18.7272709506455
20
-2.36464734393937
30
0
41
1
10
18.7342754154996
20
-2.3696816740086
30
0
41
1
10
18.7356622538312
20
-2.37070871058248
30
0
41
1
10
18.738350690213
20
-2.37288502614479
30
0
41
1
10
18.7398391914758
20
-2.37390002275612
30
0
41
1
10
18.7410615440834
20
-2.37626666372014
30
0
41
1
10
18.7401766354236
20
-2.37696927044803
30
0
41
1
10
18.7384677886928
20
-2.37729365136894
30
0
41
1
10
18.7376071772378
20
-2.37740968277709
30
0
41
1
10
18.7350333018392
20
-2.37781699186598
30
0
41
1
10
18.7195901994437
20
-2.38026066959861
30
0
41
1
10
18.6766964623688
20
-2.38704423813789
30
0
41
1
10
18.5806369989691
20
-2.40221289634195
30
0
41
1
10
18.3886081993853
20
-2.43244322925534
30
0
41
1
10
18.0049217012623
20
-2.49246768939585
30
0
41
1
10
17.6766928766007
20
-2.54314552531082
30
0
41
1
10
17.0210767022219
20
-2.64341584944304
30
0
41
1
10
16.5852811605676
20
-2.70879062847638
30
0
41
1
10
15.2818191264882
20
-2.90003346741659
30
0
41
1
10
14.41797869765
20
-3.02103836892525
30
0
41
1
10
12.229674017253
20
-3.309734173344
30
0
41
1
10
10.9145517647906
20
-3.46631043060483
30
0
41
1
10
9.6125553725245
20
-3.60187862985538
30
0
0
SPLINE
5
10B
100
AcDbEntity
8
SK1
62
256
6
ByLayer
370
18
48
1
60
0
100
AcDbSpline
70
4
71
3
72
8
73
4
40
0
40
0
40
0
40
0
40
1
40
1
40
1
40
1
41
1
10
-39.35
20
4.10801569567678
30
0
41
1
10
-39.5672381072651
20
3.91663519354654
30
0
41
1
10
-39.784009877965
20
3.72487012554424
30
0
41
1
10
-40
20
3.5324604685845
30
0
0
SPLINE
5
10C
100
AcDbEntity
8
SK1
62
256
6
ByLayer
370
18
48
1
60
0
100
AcDbSpline
70
4
71
3
72
20
73
16
40
0
40
0
40
0
40
0
40
0.125000000000001
40
0.125000000000001
40
0.187500000000001
40
0.187500000000001
40
0.250000000000001
40
0.250000000000001
40
0.374999999999999
40
0.374999999999999
40
0.499999999999997
40
0.499999999999997
40
0.749999999999999
40
0.749999999999999
40
1
40
1
40
1
40
1
41
1
10
-39.25
20
4.16341800129106
30
0
41
1
10
-39.25
20
4.16622406380833
30
0
41
1
10
-39.2510680086886
20
4.16801676571492
30
0
41
1
10
-39.2538495157728
20
4.16931097870486
30
0
41
1
10
-39.2549703876943
20
4.16951983560762
30
0
41
1
10
-39.2575552869368
20
4.16954357376133
30
0
41
1
10
-39.2590298143252
20
4.1693549400124
30
0
41
1
10
-39.2638240044233
20
4.16827147567284
30
0
41
1
10
-39.267515960107
20
4.16687682227618
30
0
41
1
10
-39.275680748839
20
4.16303540353761
30
0
41
1
10
-39.2801886771091
20
4.16056164017584
30
0
41
1
10
-39.2943187548888
20
4.15201021538817
30
0
41
1
10
-39.3046720301746
20
4.14476952725227
30
0
41
1
10
-39.3267894589619
20
4.12783357766028
30
0
41
1
10
-39.3382086330433
20
4.11840354961919
30
0
41
1
10
-39.35
20
4.10801569567681
30
0
0
SPLINE
5
10D
100
AcDbEntity
8
SK1
62
256
6
ByLayer
370
18
48
1
60
0
100
AcDbSpline
70
4
71
3
72
20
73
16
40
0
40
0
40
0
40
0
40
0.249999999999997
40
0.249999999999997
40
0.374999999999997
40
0.374999999999997
40
0.499999999999998
40
0.499999999999998
40
0.624999999999998
40
0.624999999999998
40
0.749999999999999
40
0.749999999999999
40
0.874999999999999
40
0.874999999999999
40
1
40
1
40
1
40
1
41
1
10
-39.35
20
3.07715218491555
30
0
41
1
10
-39.338205186486
20
3.0875430751754
30
0
41
1
10
-39.326788992333
20
3.09905494522721
30
0
41
1
10
-39.3102132143741
20
3.11797954030624
30
0
41
1
10
-39.304833241342
20
3.12451581914533
30
0
41
1
10
-39.2945637817252
20
3.13782047339612
30
0
41
1
10
-39.289643923718
20
3.14462228454136
30
0
41
1
10
-39.2802807943173
20
3.15855737073349
30
0
41
1
10
-39.2758194796066
20
3.16571839865526
30
0
41
1
10
-39.267562331863
20
3.18033201069156
30
0
41
1
10
-39.2638525857023
20
3.18762589535251
30
0
41
1
10
-39.2574621956925
20
3.20217910011016
30
0
41
1
10
-39.2547834319691
20
3.2094722306181
30
0
41
1
10
-39.2510694001166
20
3.22322404693219
30
0
41
1
10
-39.25
20
3.22986403205166
30
0
41
1
10
-39.25
20
3.23564084160594
30
0
0
SPLINE
5
10E
100
AcDbEntity
8
SK1
62
256
6
ByLayer
370
18
48
1
60
0
100
AcDbSpline
70
4
71
3
72
8
73
4
40
0
40
0
40
0
40
0
40
1
40
1
40
1
40
1
41
1
10
-40
20
2.5015969578233
30
0
41
1
10
-39.7840047795912
20
2.69401115654793
30
0
41
1
10
-39.5672337762517
20
2.88577549828307
30
0
41
1
10
-39.35
20
3.07715218491558
30
0
0
SPLINE
5
10F
100
AcDbEntity
8
1
62
256
6
ByLayer
370
18
48
1
60
0
100
AcDbSpline
70
4
71
3
72
30
73
26
40
0
40
0
40
0
40
0
40
2.12111868888E-05
40
3.70179913347E-05
40
5.02100362645E-05
40
6.89383801478E-05
40
0.0003480744721537
40
0.0005905051704399
40
0.0010755338037982
40
0.0021125120303991
40
0.013276217830761
40
0.053254099845915
40
0.105684676688603
40
0.165993240848798
40
0.276804097999326
40
0.40315760793176
40
0.522795450289251
40
0.632140780394507
40
0.729639296277313
40
0.829633675940181
40
0.85887904778739
40
0.888269573674711
40
0.930444090422682
40
0.988529456970705
40
1
40
1
40
1
40
1
41
1
10
31.6678097484977
20
0.17985582615816
30
0
41
1
10
31.6678209639301
20
0.179853564019226
30
0
41
1
10
31.6678295566381
20
0.179852673921403
30
0
41
1
10
31.6678082689951
20
0.179860583941434
30
0
41
1
10
31.6677635331777
20
0.179874856610212
30
0
41
1
10
31.6671289274075
20
0.180063124702116
30
0
41
1
10
31.6657610908162
20
0.18046089422981
30
0
41
1
10
31.6633350370314
20
0.181164018339672
30
0
41
1
10
31.6588497820563
20
0.182451821033169
30
0
41
1
10
31.6255002579993
20
0.191924346361503
30
0
41
1
10
31.4778659452898
20
0.232951939785323
30
0
41
1
10
31.1862129746445
20
0.314887396464712
30
0
41
1
10
30.7530783523308
20
0.439321407982106
30
0
41
1
10
30.11960060113
20
0.626746753428819
30
0
41
1
10
29.2793717521821
20
0.886185759401371
30
0
41
1
10
28.2768268374637
20
1.2136118271743
30
0
41
1
10
27.2841055502566
20
1.55603124287558
30
0
41
1
10
26.3767583176979
20
1.88437467557463
30
0
41
1
10
25.5281767481717
20
2.2043664059336
30
0
41
1
10
24.9041168353645
20
2.4487080764369
30
0
41
1
10
24.4688945540042
20
2.62322189677201
30
0
41
1
10
24.1926873227145
20
2.73510961618834
30
0
41
1
10
23.8382779225516
20
2.88077748247602
30
0
41
1
10
23.5332815926435
20
3.0073406206958
30
0
41
1
10
23.3442691527297
20
3.08812999478724
30
0
41
1
10
23.3131138982035
20
3.10148819563574
30
0
0
SPLINE
5
110
100
AcDbEntity
8
1
62
256
6
ByLayer
370
18
48
1
60
0
100
AcDbSpline
70
4
71
3
72
34
73
30
40
0
40
0
40
0
40
0
40
4.007234062E-06
40
2.84747822703E-05
40
4.97629248128E-05
40
6.8776638958E-05
40
8.59804985694E-05
40
0.0001014342457964
40
0.0001840383084279
40
0.000248460273518
40
0.0003652890786546
40
0.0005788907248366
40
0.0009762894491758
40
0.0112689222228969
40
0.028664737906298
40
0.0533951232095394
40
0.0837697753500644
40
0.169926887462003
40
0.249354671374973
40
0.33555874901373
40
0.419817233416478
40
0.489421134866138
40
0.577728849062368
40
0.681885137731812
40
0.778356011950111
40
0.817421877046825
40
0.870730834327235
40
0.942075274688327
40
1
40
1
40
1
40
1
41
1
10
86.0418822191034
20
0.18839210933686
30
0
41
1
10
86.041886691623
20
0.188390979990942
30
0
41
1
10
86.0419171947318
20
0.188383285459452
30
0
41
1
10
86.0419539350339
20
0.188374110640296
30
0
41
1
10
86.0419632553866
20
0.188380348278258
30
0
41
1
10
86.0419166444572
20
0.188391710098273
30
0
41
1
10
86.0418461604683
20
0.188412938363825
30
0
41
1
10
86.0416172284282
20
0.188479351993038
30
0
41
1
10
86.0411252884325
20
0.188616534472175
30
0
41
1
10
86.0404169957506
20
0.18881557108017
30
0
41
1
10
86.0393278753323
20
0.189120982278496
30
0
41
1
10
86.0373289477079
20
0.189681163953793
30
0
41
1
10
86.0070764034013
20
0.198140216136181
30
0
41
1
10
85.9246480232872
20
0.220897326954287
30
0
41
1
10
85.7724494146447
20
0.2633533870478
30
0
41
1
10
85.5607217168362
20
0.32302012044309
30
0
41
1
10
85.1488376164665
20
0.440900462594783
30
0
41
1
10
84.578673909758
20
0.60922435634339
30
0
41
1
10
83.8488492653295
20
0.834043281223302
30
0
41
1
10
83.1271295391872
20
1.06558899470406
30
0
41
1
10
82.4364468428215
20
1.29623956698734
30
0
41
1
10
81.7421336412475
20
1.53629430034908
30
0
41
1
10
80.9935612659104
20
1.80415839156444
30
0
41
1
10
80.1725667905847
20
2.10997489892509
30
0
41
1
10
79.495401913046
20
2.37252193990164
30
0
41
1
10
78.9640477777774
20
2.58392062984626
30
0
41
1
10
78.5041567715589
20
2.77018596867433
30
0
41
1
10
77.9926255545278
20
2.98165427948348
30
0
41
1
10
77.632058047906
20
3.1354056634444
30
0
41
1
10
77.4707678927051
20
3.20501824159191
30
0
0
SPLINE
5
111
100
AcDbEntity
8
1
62
256
6
ByLayer
370
18
48
1
60
0
100
AcDbSpline
70
4
71
3
72
35
73
31
40
0
40
0
40
0
40
0
40
1.58685560199E-05
40
5.17121346659E-05
40
8.2485367784E-05
40
0.000110159515865
40
0.0001345301348734
40
0.0002957043150614
40
0.0004238050540682
40
0.0006560220733968
40
0.0010817597519496
40
0.0018773560492052
40
0.0034111239637673
40
0.0065120089370349
40
0.0132093927975191
40
0.028886143718017
40
0.0630667678581064
40
0.118762595417839
40
0.224971929398525
40
0.323260075307112
40
0.412508748881489
40
0.506836321331291
40
0.615211322132859
40
0.67293443190069
40
0.714884155861103
40
0.757353517382837
40
0.805558309816553
40
0.867219815958039
40
0.947364114948243
40
1
40
1
40
1
40
1
41
1
10
58.817220402884
20
0.194887912052735
30
0
41
1
10
58.8172398464249
20
0.194883333513673
30
0
41
1
10
58.817294752191
20
0.194870798573533
30
0
41
1
10
58.817326824381
20
0.194866377108525
30
0
41
1
10
58.8172511835374
20
0.194891995016576
30
0
41
1
10
58.817108555752
20
0.194934856200263
30
0
41
1
10
58.8165723182874
20
0.195088739394151
30
0
41
1
10
58.8156689276209
20
0.195342412916176
30
0
41
1
10
58.8142475783972
20
0.195744725812062
30
0
41
1
10
58.8120731963375
20
0.196358505026922
30
0
41
1
10
58.8080622804679
20
0.197490244560754
30
0
41
1
10
58.8004210621815
20
0.199641978022953
30
0
41
1
10
58.7852878153962
20
0.203892548843868
30
0
41
1
10
58.7534691114343
20
0.212799983482768
30
0
41
1
10
58.6813396423216
20
0.232939381161373
30
0
41
1
10
58.5199231439795
20
0.278082804030902
30
0
41
1
10
58.2176667431806
20
0.36363295604076
30
0
41
1
10
57.655650309381
20
0.526547009911326
30
0
41
1
10
56.9121603001922
20
0.75126420710049
30
0
41
1
10
56.0765252810482
20
1.01680467658943
30
0
41
1
10
55.278309189408
20
1.28178660159762
30
0
41
1
10
54.4554009939854
20
1.56636147243785
30
0
41
1
10
53.7248991163785
20
1.83011385505549
30
0
41
1
10
53.1436571206036
20
2.04718584806341
30
0
41
1
10
52.7473989633637
20
2.19811575309052
30
0
41
1
10
52.3784366467044
20
2.34097370954558
30
0
41
1
10
51.955610935779
20
2.50749537591233
30
0
41
1
10
51.4296974025297
20
2.71907973839907
30
0
41
1
10
50.8931190732156
20
2.9397099311563
30
0
41
1
10
50.5286018759895
20
3.09491933062046
30
0
41
1
10
50.3843490481287
20
3.15704741849527
30
0
0
SPLINE
5
112
100
AcDbEntity
8
1
62
256
6
ByLayer
370
18
48
1
60
0
100
AcDbSpline
70
4
71
3
72
16
73
12
40
0
40
0
40
0
40
0
40
0.0764057143632575
40
0.220933549298454
40
0.369315164857764
40
0.462484071052106
40
0.54531137304103
40
0.630278616239685
40
0.726727756736428
40
0.858928006199453
40
1
40
1
40
1
40
1
41
1
10
110.161188064203
20
1.12249895022074
30
0
41
1
10
110.016324770017
20
1.16964299811636
30
0
41
1
10
109.598001499008
20
1.30779908913002
30
0
41
1
10
108.90198141116
20
1.54951603820942
30
0
41
1
10
108.176980169733
20
1.81046565819011
30
0
41
1
10
107.570179449005
20
2.0365284672481
30
0
41
1
10
107.083337131146
20
2.22210948932042
30
0
41
1
10
106.591698015752
20
2.41360907651887
30
0
41
1
10
106.009928125817
20
2.64548269117
30
0
41
1
10
105.326518819914
20
2.92522544633638
30
0
41
1
10
104.824079891752
20
3.13852411544047
30
0
41
1
10
104.565374726941
20
3.25029936830242
30
0
0
SPLINE
5
113
100
AcDbEntity
8
1
62
256
6
ByLayer
370
18
48
1
60
0
100
AcDbSpline
70
4
71
3
72
18
73
14
40
0
40
0
40
0
40
0
40
0.0630694461476233
40
0.111353136454603
40
0.144878653048619
40
0.169438108909376
40
0.194100060159221
40
0.218973444222266
40
0.24402423943005
40
0.384048731636467
40
0.641520264072968
40
0.966373502320248
40
1
40
1
40
1
40
1
41
1
10
83.8814412068529
20
-4.72528893839797
30
0
41
1
10
84.0852890955997
20
-4.72566830012016
30
0
41
1
10
84.4451999859828
20
-4.72633604651685
30
0
41
1
10
84.9134892432706
20
-4.72736146354066
30
0
41
1
10
85.2572981465159
20
-4.72791111175596
30
0
41
1
10
85.5247582261537
20
-4.72831190322287
30
0
41
1
10
85.7642519680452
20
-4.7286558190315
30
0
41
1
10
86.0053339540284
20
-4.72901328315581
30
0
41
1
10
86.6192980120799
20
-4.72989846429087
30
0
41
1
10
87.9850718671787
20
-4.73420020952921
30
0
41
1
10
90.3198997215368
20
-4.73616358558218
30
0
41
1
10
92.3108125015198
20
-4.74084603947585
30
0
41
1
10
93.469512895671
20
-4.74223126767086
30
0
41
1
10
93.5782025211628
20
-4.74239041040025
30
0
0
SPLINE
5
114
100
AcDbEntity
8
1
62
256
6
ByLayer
370
18
48
1
60
0
100
AcDbSpline
70
4
71
3
72
22
73
18
40
0
40
0
40
0
40
0
40
0.0914323052766034
40
0.164035059739176
40
0.2176981115452
40
0.297920280292293
40
0.365072677646942
40
0.432312055844311
40
0.52298387353083
40
0.582278316745397
40
0.633010788909802
40
0.686069583681227
40
0.754280349301391
40
0.799016153886379
40
0.841304907168365
40
0.912626098158685
40
1
40
1
40
1
40
1
41
1
10
68.724620047845
20
4.70020392279409
30
0
41
1
10
68.534632460965
20
4.69957568749891
30
0
41
1
10
68.1937807907961
20
4.69851445394019
30
0
41
1
10
67.7414098579052
20
4.69666867779972
30
0
41
1
10
67.3123385039561
20
4.69601257056786
30
0
41
1
10
66.8945875241678
20
4.69563515628897
30
0
41
1
10
66.4486273640485
20
4.69499793619633
30
0
41
1
10
65.9809517100541
20
4.69436399281375
30
0
41
1
10
65.5296044824738
20
4.69361714285256
30
0
41
1
10
65.1125603247866
20
4.69238701783823
30
0
41
1
10
64.7736736959956
20
4.69148740717136
30
0
41
1
10
64.4162585386458
20
4.69095171359774
30
0
41
1
10
64.0713039669605
20
4.6906709698965
30
0
41
1
10
63.7487292185006
20
4.69029131552324
30
0
41
1
10
63.4196918726703
20
4.68975466894099
30
0
41
1
10
63.0020557296872
20
4.68881258510109
30
0
41
1
10
62.6722936529062
20
4.68759418426879
30
0
41
1
10
62.4907343076857
20
4.68679706382653
30
0
0
SPLINE
5
115
100
AcDbEntity
8
1
62
256
6
ByLayer
370
18
48
1
60
0
100
AcDbSpline
70
4
71
3
72
16
73
12
40
0
40
0
40
0
40
0
40
0.0740167355191988
40
0.127372099400691
40
0.167157142928204
40
0.209226393440772
40
0.345855347252245
40
0.589757401477569
40
0.866903261762439
40
0.936204624388169
40
1
40
1
40
1
40
1
41
1
10
95.9315389414243
20
4.74658265991457
30
0
41
1
10
95.6910910990781
20
4.74587687161969
30
0
41
1
10
95.2772881354786
20
4.74488557365328
30
0
41
1
10
94.7339101539574
20
4.74449165398588
30
0
41
1
10
94.2947171002757
20
4.74390248179654
30
0
41
1
10
93.5845912446709
20
4.74221485616829
30
0
41
1
10
92.2111937747103
20
4.73907813889315
30
0
41
1
10
90.073718905131
20
4.73662334435454
30
0
41
1
10
88.1550918185677
20
4.73470020820005
30
0
41
1
10
86.8218113980052
20
4.73036850145155
30
0
41
1
10
86.3892482563658
20
4.72960662923569
30
0
41
1
10
86.1819138375805
20
4.72928124639299
30
0
0
SPLINE
5
116
100
AcDbEntity
8
1
62
256
6
ByLayer
370
18
48
1
60
0
100
AcDbSpline
70
4
71
3
72
18
73
14
40
0
40
0
40
0
40
0
40
0.126777865228904
40
0.241935040486268
40
0.327567478224452
40
0.396120116570167
40
0.467902864321184
40
0.55014318109662
40
0.645577075692422
40
0.733257300367717
40
0.824600120370469
40
0.928058201074397
40
1
40
1
40
1
40
1
41
1
10
62.4907342500564
20
-4.6868030177562
30
0
41
1
10
62.6569106818705
20
-4.68753375632244
30
0
41
1
10
62.974032035483
20
-4.68872375452821
30
0
41
1
10
63.4033988360933
20
-4.68973128810234
30
0
41
1
10
63.7564470375324
20
-4.69030709015007
30
0
41
1
10
64.0526409338393
20
-4.69064128529806
30
0
41
1
10
64.3443886889432
20
-4.69090462825429
30
0
41
1
10
64.6713715594695
20
-4.69128154185901
30
0
41
1
10
65.0191921068324
20
-4.69211096571644
30
0
41
1
10
65.3789430038888
20
-4.69318646873771
30
0
41
1
10
65.7492130853545
20
-4.69401570050255
30
0
41
1
10
66.0988528825031
20
-4.69451069126538
30
0
41
1
10
66.3287635144929
20
-4.69483732679757
30
0
41
1
10
66.4230633424039
20
-4.69496923790516
30
0
0
LINE
5
82
100
AcDbEntity
8
SK4
62
256
6
ByLayer
370
18
48
0.05
60
0
100
AcDbLine
10
-43
20
0
30
0
11
115
21
0
31
0
39
0
210
0
220
0
230
1
0
LINE
5
84
100
AcDbEntity
8
81
62
256
6
ByLayer
370
18
48
1
60
0
100
AcDbLine
10
112
20
0
30
0
11
115
21
0
31
0
39
0
210
0
220
0
230
1
0
LINE
5
85
100
AcDbEntity
8
4
62
256
6
ByLayer
370
18
48
0.05
60
0
100
AcDbLine
10
0
20
0
30
0
11
112
21
0
31
0
39
0
210
0
220
0
230
1
0
LINE
5
87
100
AcDbEntity
8
80
62
256
6
ByLayer
370
18
48
1
60
0
100
AcDbLine
10
0
20
0
30
0
11
-3
21
0
31
0
39
0
210
0
220
0
230
1
0
LINE
5
88
100
AcDbEntity
8
1
62
256
6
ByLayer
370
18
48
1
60
0
100
AcDbLine
10
0
20
5
30
0
11
0
21
-5
31
0
39
0
210
0
220
0
230
1
0
LINE
5
89
100
AcDbEntity
8
1
62
256
6
ByLayer
370
13
48
1
60
0
100
AcDbLine
10
111.872055
20
0.530077
30
0
11
110.834751
21
1.571303
31
0
39
0
210
0
220
0
230
1
0
LINE
5
8A
100
AcDbEntity
8
1
62
256
6
ByLayer
370
13
48
1
60
0
100
AcDbLine
10
0.182574
20
-4.881651
30
0
11
0.182574
21
4.881651
31
0
39
0
210
0
220
0
230
1
0
LINE
5
8B
100
AcDbEntity
8
1
62
256
6
ByLayer
370
18
48
1
60
0
100
AcDbLine
10
62.39035
20
4.874947
30
0
11
62.39035
21
3.888733
31
0
39
0
210
0
220
0
230
1
0
LINE
5
8C
100
AcDbEntity
8
1
62
256
6
ByLayer
370
18
48
1
60
0
100
AcDbLine
10
62.39035
20
-4.874947
30
0
11
62.39035
21
-3.737176
31
0
39
0
210
0
220
0
230
1
0
LINE
5
8D
100
AcDbEntity
8
1
62
256
6
ByLayer
370
18
48
1
60
0
100
AcDbLine
10
62.39035
20
3.495315
30
0
11
62.39035
21
3.434917
31
0
39
0
210
0
220
0
230
1
0
LINE
5
8E
100
AcDbEntity
8
1
62
256
6
ByLayer
370
13
48
1
60
0
100
AcDbLine
10
0.365507
20
-4.763303
30
0
11
0.365507
21
4.763303
31
0
39
0
210
0
220
0
230
1
0
LINE
5
8F
100
AcDbEntity
8
SK1
62
256
6
ByLayer
370
18
48
1
60
0
100
AcDbLine
10
-40
20
3.53246
30
0
11
-40
21
2.501579
31
0
39
0
210
0
220
0
230
1
0
LINE
5
91
100
AcDbEntity
8
SK1
62
256
6
ByLayer
370
13
48
1
60
0
100
AcDbLine
10
-39.35
20
3.077056
30
0
11
-39.35
21
4.108016
31
0
39
0
210
0
220
0
230
1
0
LINE
5
92
100
AcDbEntity
8
SK1
62
256
6
ByLayer
370
18
48
1
60
0
100
AcDbLine
10
-39.25
20
3.235641
30
0
11
-39.25
21
4.163418
31
0
39
0
210
0
220
0
230
1
0
LINE
5
93
100
AcDbEntity
8
SK1
62
256
6
ByLayer
370
18
48
1
60
0
100
AcDbLine
10
-40
20
-3.66
30
0
11
-40
21
2.501597
31
0
39
0
210
0
220
0
230
1
0
LINE
5
94
100
AcDbEntity
8
SK1
62
256
6
ByLayer
370
18
48
1
60
0
100
AcDbLine
10
-40
20
3.53246
30
0
11
-40
21
3.66
31
0
39
0
210
0
220
0
230
1
0
LINE
5
95
100
AcDbEntity
8
SK1
62
256
6
ByLayer
370
18
48
1
60
0
100
AcDbLine
10
0
20
5
30
0
11
0
21
-5
31
0
39
0
210
0
220
0
230
1
0
LINE
5
96
100
AcDbEntity
8
SK1
62
256
6
ByLayer
370
18
48
1
60
0
100
AcDbLine
10
-38.66
20
-5
30
0
11
-38.66
21
5
31
0
39
0
210
0
220
0
230
1
0
LINE
5
97
100
AcDbEntity
8
1
62
256
6
ByLayer
370
18
48
1
60
0
100
AcDbLine
10
0.365507
20
-4.763303
30
0
11
15.806776
21
-4.791097
31
0
39
0
210
0
220
0
230
1
0
LINE
5
98
100
AcDbEntity
8
1
62
256
6
ByLayer
370
18
48
1
60
0
100
AcDbLine
10
28.397638
20
-4.813761
30
0
11
42.932747
21
-4.839924
31
0
39
0
210
0
220
0
230
1
0
LINE
5
99
100
AcDbEntity
8
1
62
256
6
ByLayer
370
18
48
1
60
0
100
AcDbLine
10
55.567182
20
-4.862666
30
0
11
62.39035
21
-4.874947
31
0
39
0
210
0
220
0
230
1
0
LINE
5
9A
100
AcDbEntity
8
1
62
256
6
ByLayer
370
18
48
1
60
0
100
AcDbLine
10
68.727694
20
-4.886355
30
0
11
70.058265
21
-4.88875
31
0
39
0
210
0
220
0
230
1
0
LINE
5
9B
100
AcDbEntity
8
1
62
256
6
ByLayer
370
18
48
1
60
0
100
AcDbLine
10
82.933638
20
-4.911925
30
0
11
83.881755
21
-4.913632
31
0
39
0
210
0
220
0
230
1
0
LINE
5
9C
100
AcDbEntity
8
1
62
256
6
ByLayer
370
18
48
1
60
0
100
AcDbLine
10
95.932133
20
-4.935323
30
0
11
97.183355
21
-4.937575
31
0
39
0
210
0
220
0
230
1
0
LINE
5
9D
100
AcDbEntity
8
1
62
256
6
ByLayer
370
18
48
1
60
0
100
AcDbLine
10
97.183355
20
4.937575
30
0
11
95.932133
21
4.935323
31
0
39
0
210
0
220
0
230
1
0
LINE
5
9E
100
AcDbEntity
8
1
62
256
6
ByLayer
370
18
48
1
60
0
100
AcDbLine
10
83.881755
20
4.913632
30
0
11
82.933638
21
4.911925
31
0
39
0
210
0
220
0
230
1
0
LINE
5
9F
100
AcDbEntity
8
1
62
256
6
ByLayer
370
18
48
1
60
0
100
AcDbLine
10
70.058265
20
4.88875
30
0
11
68.727694
21
4.886355
31
0
39
0
210
0
220
0
230
1
0
LINE
5
A0
100
AcDbEntity
8
1
62
256
6
ByLayer
370
18
48
1
60
0
100
AcDbLine
10
62.39035
20
4.874947
30
0
11
55.567182
21
4.862666
31
0
39
0
210
0
220
0
230
1
0
LINE
5
A1
100
AcDbEntity
8
1
62
256
6
ByLayer
370
18
48
1
60
0
100
AcDbLine
10
42.932747
20
4.839924
30
0
11
28.397638
21
4.813761
31
0
39
0
210
0
220
0
230
1
0
LINE
5
A2
100
AcDbEntity
8
1
62
256
6
ByLayer
370
18
48
1
60
0
100
AcDbLine
10
15.806776
20
4.791097
30
0
11
0.365507
21
4.763303
31
0
39
0
210
0
220
0
230
1
0
LINE
5
A3
100
AcDbEntity
8
SK1
62
256
6
ByLayer
370
18
48
1
60
0
100
AcDbLine
10
-40
20
-3.66
30
0
11
-38.66
21
-5
31
0
39
0
210
0
220
0
230
1
0
LINE
5
A4
100
AcDbEntity
8
SK1
62
256
6
ByLayer
370
18
48
1
60
0
100
AcDbLine
10
-38.66
20
5
30
0
11
-40
21
3.66
31
0
39
0
210
0
220
0
230
1
0
LINE
5
A5
100
AcDbEntity
8
SK1
62
256
6
ByLayer
370
18
48
1
60
0
100
AcDbLine
10
-38.66
20
-5
30
0
11
0
21
-5
31
0
39
0
210
0
220
0
230
1
0
LINE
5
A6
100
AcDbEntity
8
SK1
62
256
6
ByLayer
370
18
48
1
60
0
100
AcDbLine
10
0
20
5
30
0
11
-38.66
21
5
31
0
39
0
210
0
220
0
230
1
0
LINE
5
A7
100
AcDbEntity
8
2
62
256
6
ByLayer
370
13
48
1
60
0
100
AcDbLine
10
119.5
20
-4.961
30
0
11
119.5
21
33.743741
31
0
39
0
210
0
220
0
230
1
0
LINE
5
A9
100
AcDbEntity
8
2
62
256
6
ByLayer
370
13
48
1
60
0
100
AcDbLine
10
113.5875
20
4.961
30
0
11
121.5
21
4.961
31
0
39
0
210
0
220
0
230
1
0
LINE
5
AA
100
AcDbEntity
8
2
62
256
6
ByLayer
370
13
48
1
60
0
100
AcDbLine
10
113.5875
20
-4.961
30
0
11
121.5
21
-4.961
31
0
39
0
210
0
220
0
230
1
0
LINE
5
AB
100
AcDbEntity
8
1
62
256
6
ByLayer
370
18
48
1
60
1
100
AcDbLine
10
119.5
20
4.961
30
0
11
119.960784
21
1.461002
31
0
39
0
210
0
220
0
230
1
0
LINE
5
AC
100
AcDbEntity
8
1
62
256
6
ByLayer
370
18
48
1
60
1
100
AcDbLine
10
119.960784
20
1.461002
30
0
11
119.039216
21
1.460998
31
0
39
0
210
0
220
0
230
1
0
LINE
5
AD
100
AcDbEntity
8
1
62
256
6
ByLayer
370
18
48
1
60
1
100
AcDbLine
10
119.039216
20
1.460998
30
0
11
119.5
21
4.961
31
0
39
0
210
0
220
0
230
1
0
LINE
5
AE
100
AcDbEntity
8
1
62
256
6
ByLayer
370
18
48
1
60
1
100
AcDbLine
10
119.5
20
-4.961
30
0
11
119.039216
21
-1.461002
31
0
39
0
210
0
220
0
230
1
0
LINE
5
AF
100
AcDbEntity
8
1
62
256
6
ByLayer
370
18
48
1
60
1
100
AcDbLine
10
119.039216
20
-1.461002
30
0
11
119.960784
21
-1.460998
31
0
39
0
210
0
220
0
230
1
0
LINE
5
B0
100
AcDbEntity
8
1
62
256
6
ByLayer
370
18
48
1
60
1
100
AcDbLine
10
119.960784
20
-1.460998
30
0
11
119.5
21
-4.961
31
0
39
0
210
0
220
0
230
1
0
LINE
5
B1
100
AcDbEntity
8
SK2
62
256
6
ByLayer
370
13
48
1
60
0
100
AcDbLine
10
-48.5
20
-5
30
0
11
-48.5
21
15.333771
31
0
39
0
210
0
220
0
230
1
0
LINE
5
B3
100
AcDbEntity
8
SK2
62
256
6
ByLayer
370
13
48
1
60
0
100
AcDbLine
10
-41.5875
20
5
30
0
11
-50.5
21
5
31
0
39
0
210
0
220
0
230
1
0
LINE
5
B4
100
AcDbEntity
8
SK2
62
256
6
ByLayer
370
13
48
1
60
0
100
AcDbLine
10
-41.5875
20
-5
30
0
11
-50.5
21
-5
31
0
39
0
210
0
220
0
230
1
0
LINE
5
B5
100
AcDbEntity
8
1
62
256
6
ByLayer
370
18
48
1
60
1
100
AcDbLine
10
-48.5
20
5
30
0
11
-48.039216
21
1.500002
31
0
39
0
210
0
220
0
230
1
0
LINE
5
B6
100
AcDbEntity
8
1
62
256
6
ByLayer
370
18
48
1
60
1
100
AcDbLine
10
-48.039216
20
1.500002
30
0
11
-48.960784
21
1.499998
31
0
39
0
210
0
220
0
230
1
0
LINE
5
B7
100
AcDbEntity
8
1
62
256
6
ByLayer
370
18
48
1
60
1
100
AcDbLine
10
-48.960784
20
1.499998
30
0
11
-48.5
21
5
31
0
39
0
210
0
220
0
230
1
0
LINE
5
B8
100
AcDbEntity
8
1
62
256
6
ByLayer
370
18
48
1
60
1
100
AcDbLine
10
-48.5
20
-5
30
0
11
-48.960784
21
-1.500002
31
0
39
0
210
0
220
0
230
1
0
LINE
5
B9
100
AcDbEntity
8
1
62
256
6
ByLayer
370
18
48
1
60
1
100
AcDbLine
10
-48.960784
20
-1.500002
30
0
11
-48.039216
21
-1.499998
31
0
39
0
210
0
220
0
230
1
0
LINE
5
BA
100
AcDbEntity
8
1
62
256
6
ByLayer
370
18
48
1
60
1
100
AcDbLine
10
-48.039216
20
-1.499998
30
0
11
-48.5
21
-5
31
0
39
0
210
0
220
0
230
1
0
LINE
5
BB
100
AcDbEntity
8
SK2
62
256
6
ByLayer
370
13
48
1
60
0
100
AcDbLine
10
112.543048
20
1.491729
30
0
11
120.129401
21
22.331097
31
0
39
0
210
0
220
0
230
1
0
LINE
5
BC
100
AcDbEntity
8
SK2
62
256
6
ByLayer
370
13
48
1
60
0
100
AcDbLine
10
112.543048
20
-1.491729
30
0
11
120.129401
21
-22.331097
31
0
39
0
210
0
220
0
230
1
0
LINE
5
BD
100
AcDbEntity
8
1
62
256
6
ByLayer
370
18
48
1
60
1
100
AcDbLine
10
119.445246
20
20.451753
30
0
11
122.858294
21
19.54986
31
0
39
0
210
0
220
0
230
1
0
LINE
5
BE
100
AcDbEntity
8
1
62
256
6
ByLayer
370
18
48
1
60
1
100
AcDbLine
10
122.858294
20
19.54986
30
0
11
122.508573
21
18.697228
31
0
39
0
210
0
220
0
230
1
0
LINE
5
BF
100
AcDbEntity
8
1
62
256
6
ByLayer
370
18
48
1
60
1
100
AcDbLine
10
122.508573
20
18.697228
30
0
11
119.445246
21
20.451753
31
0
39
0
210
0
220
0
230
1
0
LINE
5
C0
100
AcDbEntity
8
1
62
256
6
ByLayer
370
18
48
1
60
1
100
AcDbLine
10
119.445246
20
-20.451753
30
0
11
122.50857
21
-18.697229
31
0
39
0
210
0
220
0
230
1
0
LINE
5
C1
100
AcDbEntity
8
1
62
256
6
ByLayer
370
18
48
1
60
1
100
AcDbLine
10
122.50857
20
-18.697229
30
0
11
122.858298
21
-19.549859
31
0
39
0
210
0
220
0
230
1
0
LINE
5
C2
100
AcDbEntity
8
1
62
256
6
ByLayer
370
18
48
1
60
1
100
AcDbLine
10
122.858298
20
-19.549859
30
0
11
119.445246
21
-20.451753
31
0
39
0
210
0
220
0
230
1
0
LINE
5
117
100
AcDbEntity
8
1
62
256
6
ByLayer
370
13
48
0.05
60
0
100
AcDbLine
10
-46.5
20
0
30
0
11
116.724031
21
0
31
0
39
0
210
0
220
0
230
1
0
LINE
5
11C
100
AcDbEntity
8
1
62
256
6
ByLayer
370
18
48
1
60
1
100
AcDbLine
10
119.5
20
4.961
30
0
11
119.960784
21
1.461002
31
0
39
0
210
0
220
0
230
1
0
LINE
5
11D
100
AcDbEntity
8
1
62
256
6
ByLayer
370
18
48
1
60
1
100
AcDbLine
10
119.960784
20
1.461002
30
0
11
119.039216
21
1.460998
31
0
39
0
210
0
220
0
230
1
0
LINE
5
11E
100
AcDbEntity
8
1
62
256
6
ByLayer
370
18
48
1
60
1
100
AcDbLine
10
119.039216
20
1.460998
30
0
11
119.5
21
4.961
31
0
39
0
210
0
220
0
230
1
0
LINE
5
120
100
AcDbEntity
8
1
62
256
6
ByLayer
370
18
48
1
60
1
100
AcDbLine
10
119.5
20
-4.961
30
0
11
119.039216
21
-1.461002
31
0
39
0
210
0
220
0
230
1
0
LINE
5
121
100
AcDbEntity
8
1
62
256
6
ByLayer
370
18
48
1
60
1
100
AcDbLine
10
119.039216
20
-1.461002
30
0
11
119.960784
21
-1.460998
31
0
39
0
210
0
220
0
230
1
0
LINE
5
122
100
AcDbEntity
8
1
62
256
6
ByLayer
370
18
48
1
60
1
100
AcDbLine
10
119.960784
20
-1.460998
30
0
11
119.5
21
-4.961
31
0
39
0
210
0
220
0
230
1
0
LINE
5
126
100
AcDbEntity
8
1
62
256
6
ByLayer
370
18
48
1
60
1
100
AcDbLine
10
-48.5
20
5
30
0
11
-48.039216
21
1.500002
31
0
39
0
210
0
220
0
230
1
0
LINE
5
127
100
AcDbEntity
8
1
62
256
6
ByLayer
370
18
48
1
60
1
100
AcDbLine
10
-48.039216
20
1.500002
30
0
11
-48.960784
21
1.499998
31
0
39
0
210
0
220
0
230
1
0
LINE
5
128
100
AcDbEntity
8
1
62
256
6
ByLayer
370
18
48
1
60
1
100
AcDbLine
10
-48.960784
20
1.499998
30
0
11
-48.5
21
5
31
0
39
0
210
0
220
0
230
1
0
LINE
5
12A
100
AcDbEntity
8
1
62
256
6
ByLayer
370
18
48
1
60
1
100
AcDbLine
10
-48.5
20
-5
30
0
11
-48.960784
21
-1.500002
31
0
39
0
210
0
220
0
230
1
0
LINE
5
12B
100
AcDbEntity
8
1
62
256
6
ByLayer
370
18
48
1
60
1
100
AcDbLine
10
-48.960784
20
-1.500002
30
0
11
-48.039216
21
-1.499998
31
0
39
0
210
0
220
0
230
1
0
LINE
5
12C
100
AcDbEntity
8
1
62
256
6
ByLayer
370
18
48
1
60
1
100
AcDbLine
10
-48.039216
20
-1.499998
30
0
11
-48.5
21
-5
31
0
39
0
210
0
220
0
230
1
0
LINE
5
12F
100
AcDbEntity
8
1
62
256
6
ByLayer
370
18
48
1
60
1
100
AcDbLine
10
119.445246
20
20.451753
30
0
11
122.858294
21
19.54986
31
0
39
0
210
0
220
0
230
1
0
LINE
5
130
100
AcDbEntity
8
1
62
256
6
ByLayer
370
18
48
1
60
1
100
AcDbLine
10
122.858294
20
19.54986
30
0
11
122.508573
21
18.697228
31
0
39
0
210
0
220
0
230
1
0
LINE
5
131
100
AcDbEntity
8
1
62
256
6
ByLayer
370
18
48
1
60
1
100
AcDbLine
10
122.508573
20
18.697228
30
0
11
119.445246
21
20.451753
31
0
39
0
210
0
220
0
230
1
0
LINE
5
133
100
AcDbEntity
8
1
62
256
6
ByLayer
370
18
48
1
60
1
100
AcDbLine
10
119.445246
20
-20.451753
30
0
11
122.50857
21
-18.697229
31
0
39
0
210
0
220
0
230
1
0
LINE
5
134
100
AcDbEntity
8
1
62
256
6
ByLayer
370
18
48
1
60
1
100
AcDbLine
10
122.50857
20
-18.697229
30
0
11
122.858298
21
-19.549859
31
0
39
0
210
0
220
0
230
1
0
LINE
5
135
100
AcDbEntity
8
1
62
256
6
ByLayer
370
18
48
1
60
1
100
AcDbLine
10
122.858298
20
-19.549859
30
0
11
119.445246
21
-20.451753
31
0
39
0
210
0
220
0
230
1
0
MTEXT
5
118
100
AcDbEntity
8
2
62
256
6
ByLayer
370
18
48
1
60
0
100
AcDbMText
10
118.158886
20
18.619438
30
0
210
0
220
0
230
1
1
%%c
40
3
41
0
44
1.084337
50
90
71
7
72
5
7
iso_b_vert
0
MTEXT
5
11B
100
AcDbEntity
8
2
62
256
6
ByLayer
370
18
48
1
60
0
100
AcDbMText
10
118.158886
20
24.596
30
0
210
0
220
0
230
1
1
\W0.7468;9.922
40
3
41
0
44
1.084337
50
90
71
7
72
5
7
iso_b_vert
0
MTEXT
5
124
100
AcDbEntity
8
SK2
62
256
6
ByLayer
370
18
48
1
60
0
100
AcDbMText
10
-49.841114
20
6.658437
30
0
210
0
220
0
230
1
1
%%c
40
3
41
0
44
1.084337
50
90
71
7
72
5
7
iso_b_vert
0
MTEXT
5
125
100
AcDbEntity
8
SK2
62
256
6
ByLayer
370
18
48
1
60
0
100
AcDbMText
10
-49.841114
20
12.635
30
0
210
0
220
0
230
1
1
\W0.5321;10
40
3
41
0
44
1.084337
50
90
71
7
72
5
7
iso_b_vert
0
MTEXT
5
12E
100
AcDbEntity
8
SK2
62
256
6
ByLayer
370
18
48
1
60
0
100
AcDbMText
10
130.324129
20
-2.114886
30
0
210
0
220
0
230
1
1
\W0.7071;140%%d
40
3
41
0
44
1.084337
50
0
71
7
72
5
7
iso_b_vert
0
MTEXT
5
137
100
AcDbEntity
8
SK6
62
256
6
ByLayer
370
18
48
1
60
0
100
AcDbMText
10
12.966568
20
-77.114886
30
0
210
0
220
0
230
1
1
\W0.7415;860.1-0992-081A1-SD S2BM
40
3
41
0
44
1.084337
50
0
71
7
72
5
7
iso_b_vert
0
HATCH
5
11F
100
AcDbEntity
8
2
62
256
6
ByLayer
370
13
48
1
60
0
100
AcDbHatch
10
0
20
0
30
0
210
0
220
0
230
1
2
ANSI31
70
0
71
0
91
1
92
5
93
3
72
1
10
119.5
20
4.96100000000001
11
119.960783741553
21
1.4610016925532
72
1
10
119.960783741553
20
1.4610016925532
11
119.039216258447
21
1.46099830744683
72
1
10
119.039216258447
20
1.46099830744683
11
119.5
21
4.96100000000001
97
0
75
0
76
1
52
0
41
0.0062
77
0
78
1
53
45
43
0
44
0
45
-0.0139193969876572
46
0.0139193969876572
79
0
47
0
98
1
10
0
20
0
0
HATCH
5
123
100
AcDbEntity
8
2
62
256
6
ByLayer
370
13
48
1
60
0
100
AcDbHatch
10
0
20
0
30
0
210
0
220
0
230
1
2
ANSI31
70
0
71
0
91
1
92
5
93
3
72
1
10
119.5
20
-4.96099999999998
11
119.039216258447
21
-1.46100169255317
72
1
10
119.039216258447
20
-1.46100169255317
11
119.960783741553
21
-1.4609983074468
72
1
10
119.960783741553
20
-1.4609983074468
11
119.5
21
-4.96099999999998
97
0
75
0
76
1
52
0
41
0.0062
77
0
78
1
53
45
43
0
44
0
45
-0.0139193969876572
46
0.0139193969876572
79
0
47
0
98
1
10
0
20
0
0
HATCH
5
129
100
AcDbEntity
8
SK2
62
256
6
ByLayer
370
13
48
1
60
0
100
AcDbHatch
10
0
20
0
30
0
210
0
220
0
230
1
2
ANSI31
70
0
71
0
91
1
92
5
93
3
72
1
10
-48.5
20
5
11
-48.0392162584472
21
1.50000169255318
72
1
10
-48.0392162584472
20
1.50000169255318
11
-48.9607837415528
21
1.49999830744682
72
1
10
-48.9607837415528
20
1.49999830744682
11
-48.5
21
5
97
0
75
0
76
1
52
0
41
0.0062
77
0
78
1
53
45
43
0
44
0
45
-0.0139193969876572
46
0.0139193969876572
79
0
47
0
98
1
10
0
20
0
0
HATCH
5
12D
100
AcDbEntity
8
SK2
62
256
6
ByLayer
370
13
48
1
60
0
100
AcDbHatch
10
0
20
0
30
0
210
0
220
0
230
1
2
ANSI31
70
0
71
0
91
1
92
5
93
3
72
1
10
-48.5
20
-5
11
-48.9607837415528
21
-1.50000169255318
72
1
10
-48.9607837415528
20
-1.50000169255318
11
-48.0392162584472
21
-1.49999830744682
72
1
10
-48.0392162584472
20
-1.49999830744682
11
-48.5
21
-5
97
0
75
0
76
1
52
0
41
0.0062
77
0
78
1
53
45
43
0
44
0
45
-0.0139193969876572
46
0.0139193969876572
79
0
47
0
98
1
10
0
20
0
0
HATCH
5
132
100
AcDbEntity
8
SK2
62
256
6
ByLayer
370
13
48
1
60
0
100
AcDbHatch
10
0
20
0
30
0
210
0
220
0
230
1
2
ANSI31
70
0
71
0
91
1
92
5
93
3
72
1
10
119.445246216484
20
20.4517533111723
11
122.858294465434
21
19.5498600475594
72
1
10
122.858294465434
20
19.5498600475594
11
122.508573425535
21
18.697227758597
72
1
10
122.508573425535
20
18.697227758597
11
119.445246216484
21
20.4517533111723
97
0
75
0
76
1
52
0
41
0.0062
77
0
78
1
53
45
43
0
44
0
45
-0.0139193969876572
46
0.0139193969876572
79
0
47
0
98
1
10
0
20
0
0
HATCH
5
136
100
AcDbEntity
8
SK2
62
256
6
ByLayer
370
13
48
1
60
0
100
AcDbHatch
10
0
20
0
30
0
210
0
220
0
230
1
2
ANSI31
70
0
71
0
91
1
92
5
93
3
72
1
10
119.445246216484
20
-20.4517533111722
11
122.508570293647
21
-18.6972290432055
72
1
10
122.508570293647
20
-18.6972290432055
11
122.858297597322
21
-19.5498587629507
72
1
10
122.858297597322
20
-19.5498587629507
11
119.445246216484
21
-20.4517533111722
97
0
75
0
76
1
52
0
41
0.0062
77
0
78
1
53
45
43
0
44
0
45
-0.0139193969876572
46
0.0139193969876572
79
0
47
0
98
1
10
0
20
0
0
DIMENSION
5
13A
100
AcDbEntity
8
SK2
62
256
6
ByLayer
370
18
48
1
60
0
100
AcDbDimension
2
_U0
10
30.9
20
-21.090779
30
0
11
71.45
21
-21.090779
31
0
70
32
71
1
72
1
41
1
210
0
220
0
230
1
3
Standard
100
AcDbAlignedDimension
13
112
23
-4.961
33
0
14
30.9
24
-4.961
34
0
50
0
100
AcDbRotatedDimension
1001
ACAD
1000
DSTYLE
1002
{
1070
   371
1070
    13
1070
   372
1070
    13
1070
   170
1070
     0
1070
   144
1040
1.0
1070
   277
1070
     2
1070
   284
1070
     8
1070
   278
1070
    46
1070
   146
1040
1.166667
1070
   345
1005
16
1070
   347
1005
16
1070
   346
1005
16
1070
   344
1005
0
1070
   343
1005
0
1070
   172
1070
     1
1070
    76
1070
     0
1070
    75
1070
     0
1070
   282
1070
     0
1070
   281
1070
     0
1070
     3
1000

1070
    71
1070
     0
1070
    74
1070
     0
1070
   279
1070
     0
1070
   173
1070
     1
1070
   340
1005
119
1070
   271
1070
     2
1070
   272
1070
     2
1070
    77
1070
     1
1070
    73
1070
     1
1070
   171
1070
     3
1070
   274
1070
     4
1070
   177
1070
     2
1070
   176
1070
     2
1070
   178
1070
     2
1070
    78
1070
     8
1070
    48
1040
-0.1
1070
    41
1040
3.5
1070
   147
1040
1.5
1070
    42
1040
1.5875
1070
    44
1040
2.0
1070
   140
1040
3.0
1002
}
1001
ACAD_DSTYLE_DIM_LINETYPE
1070
   380
1005
16
1001
ACAD_DSTYLE_DIM_EXT1_LINETYPE
1070
   381
1005
16
1001
ACAD_DSTYLE_DIM_EXT2_LINETYPE
1070
   382
1005
16
0
DIMENSION
5
155
100
AcDbEntity
8
SK2
62
256
6
ByLayer
370
18
48
1
60
0
100
AcDbDimension
2
_U1
10
6
20
-31.090779
30
0
11
59
21
-31.090779
31
0
70
32
71
1
72
1
41
1
210
0
220
0
230
1
3
Standard
100
AcDbAlignedDimension
13
112
23
-4.961
33
0
14
6
24
-4.961
34
0
50
0
100
AcDbRotatedDimension
1001
ACAD
1000
DSTYLE
1002
{
1070
   371
1070
    13
1070
   372
1070
    13
1070
     3
1000

1070
   170
1070
     0
1070
   144
1040
1.0
1070
   277
1070
     2
1070
   284
1070
     8
1070
   278
1070
    46
1070
   146
1040
1.166667
1070
   345
1005
16
1070
   347
1005
16
1070
   346
1005
16
1070
   344
1005
0
1070
   343
1005
0
1070
   172
1070
     1
1070
    76
1070
     0
1070
    75
1070
     0
1070
   282
1070
     0
1070
   281
1070
     0
1070
    71
1070
     0
1070
    74
1070
     0
1070
   279
1070
     0
1070
   173
1070
     1
1070
   340
1005
119
1070
   271
1070
     2
1070
   272
1070
     2
1070
    77
1070
     1
1070
    73
1070
     1
1070
   171
1070
     3
1070
   274
1070
     4
1070
   177
1070
     2
1070
   176
1070
     2
1070
   178
1070
     2
1070
    78
1070
     8
1070
    48
1040
-0.1
1070
    41
1040
3.5
1070
   147
1040
1.5
1070
    42
1040
1.5875
1070
    44
1040
2.0
1070
   140
1040
3.0
1002
}
1001
ACAD_DSTYLE_DIM_LINETYPE
1070
   380
1005
16
1001
ACAD_DSTYLE_DIM_EXT1_LINETYPE
1070
   381
1005
16
1001
ACAD_DSTYLE_DIM_EXT2_LINETYPE
1070
   382
1005
16
0
DIMENSION
5
16D
100
AcDbEntity
8
SK2
62
256
6
ByLayer
370
18
48
1
60
0
100
AcDbDimension
2
_U2
10
0
20
-39.090779
30
0
11
-20
21
-39.090779
31
0
70
32
71
1
72
1
41
1
210
0
220
0
230
1
3
Standard
100
AcDbAlignedDimension
13
-40
23
-5
33
0
14
0
24
-5
34
0
50
0
100
AcDbRotatedDimension
1001
ACAD
1000
DSTYLE
1002
{
1070
   371
1070
    13
1070
   372
1070
    13
1070
     3
1000

1070
   170
1070
     0
1070
   144
1040
1.0
1070
   277
1070
     2
1070
   284
1070
     8
1070
   278
1070
    46
1070
   146
1040
1.166667
1070
   345
1005
16
1070
   347
1005
16
1070
   346
1005
16
1070
   344
1005
0
1070
   343
1005
0
1070
   172
1070
     1
1070
    76
1070
     0
1070
    75
1070
     0
1070
   282
1070
     0
1070
   281
1070
     0
1070
    71
1070
     0
1070
    74
1070
     0
1070
   279
1070
     0
1070
   173
1070
     1
1070
   340
1005
119
1070
   271
1070
     2
1070
   272
1070
     2
1070
    77
1070
     1
1070
    73
1070
     1
1070
   171
1070
     3
1070
   274
1070
     4
1070
   177
1070
     2
1070
   176
1070
     2
1070
   178
1070
     2
1070
    78
1070
     8
1070
    48
1040
-0.1
1070
    41
1040
3.5
1070
   147
1040
1.5
1070
    42
1040
1.5875
1070
    44
1040
2.0
1070
   140
1040
3.0
1002
}
1001
ACAD_DSTYLE_DIM_LINETYPE
1070
   380
1005
16
1001
ACAD_DSTYLE_DIM_EXT1_LINETYPE
1070
   381
1005
16
1001
ACAD_DSTYLE_DIM_EXT2_LINETYPE
1070
   382
1005
16
0
DIMENSION
5
185
100
AcDbEntity
8
SK2
62
256
6
ByLayer
370
18
48
1
60
0
100
AcDbDimension
2
_U3
10
112
20
-47.090779
30
0
11
36
21
-47.090779
31
0
70
32
71
1
72
1
41
1
210
0
220
0
230
1
3
Standard
100
AcDbAlignedDimension
13
-40
23
-5
33
0
14
112
24
-4.961
34
0
50
0
100
AcDbRotatedDimension
1001
ACAD
1000
DSTYLE
1002
{
1070
   371
1070
    13
1070
   372
1070
    13
1070
     3
1000

1070
   170
1070
     0
1070
   144
1040
1.0
1070
   277
1070
     2
1070
   284
1070
     8
1070
   278
1070
    46
1070
   146
1040
1.166667
1070
   345
1005
16
1070
   347
1005
16
1070
   346
1005
16
1070
   344
1005
0
1070
   343
1005
0
1070
   172
1070
     1
1070
    76
1070
     0
1070
    75
1070
     0
1070
   282
1070
     0
1070
   281
1070
     0
1070
    71
1070
     0
1070
    74
1070
     0
1070
   279
1070
     0
1070
   173
1070
     1
1070
   340
1005
119
1070
   271
1070
     2
1070
   272
1070
     2
1070
    77
1070
     1
1070
    73
1070
     1
1070
   171
1070
     3
1070
   274
1070
     4
1070
   177
1070
     2
1070
   176
1070
     2
1070
   178
1070
     2
1070
    78
1070
     8
1070
    48
1040
-0.1
1070
    41
1040
3.5
1070
   147
1040
1.5
1070
    42
1040
1.5875
1070
    44
1040
2.0
1070
   140
1040
3.0
1002
}
1001
ACAD_DSTYLE_DIM_LINETYPE
1070
   380
1005
16
1001
ACAD_DSTYLE_DIM_EXT1_LINETYPE
1070
   381
1005
16
1001
ACAD_DSTYLE_DIM_EXT2_LINETYPE
1070
   382
1005
16
0
DIMENSION
5
19D
100
AcDbEntity
8
2
62
256
6
ByLayer
370
18
48
1
60
0
100
AcDbDimension
2
_U4
10
0
20
-39.090779
30
0
11
56
21
-39.090779
31
0
70
32
71
1
72
1
41
1
210
0
220
0
230
1
3
Standard
100
AcDbAlignedDimension
13
112
23
-4.961
33
0
14
0
24
-4.961
34
0
50
0
100
AcDbRotatedDimension
1001
ACAD
1000
DSTYLE
1002
{
1070
   371
1070
    13
1070
   372
1070
    13
1070
     3
1000

1070
   170
1070
     0
1070
   144
1040
1.0
1070
   277
1070
     2
1070
   284
1070
     8
1070
   278
1070
    46
1070
   146
1040
1.166667
1070
   345
1005
16
1070
   347
1005
16
1070
   346
1005
16
1070
   344
1005
0
1070
   343
1005
0
1070
   172
1070
     1
1070
    76
1070
     0
1070
    75
1070
     0
1070
   282
1070
     0
1070
   281
1070
     0
1070
    71
1070
     0
1070
    74
1070
     0
1070
   279
1070
     0
1070
   173
1070
     1
1070
   340
1005
119
1070
   271
1070
     2
1070
   272
1070
     2
1070
    77
1070
     1
1070
    73
1070
     1
1070
   171
1070
     3
1070
   274
1070
     4
1070
   177
1070
     2
1070
   176
1070
     2
1070
   178
1070
     2
1070
    78
1070
     8
1070
    48
1040
-0.1
1070
    41
1040
3.5
1070
   147
1040
1.5
1070
    42
1040
1.5875
1070
    44
1040
2.0
1070
   140
1040
3.0
1002
}
1001
ACAD_DSTYLE_DIM_LINETYPE
1070
   380
1005
16
1001
ACAD_DSTYLE_DIM_EXT1_LINETYPE
1070
   381
1005
16
1001
ACAD_DSTYLE_DIM_EXT2_LINETYPE
1070
   382
1005
16
0
ENDSEC
0
SECTION
2
OBJECTS
0
DICTIONARY
5
225
330
0
100
AcDbDictionary
280
0
281
1
3
ACAD_GROUP
350
226
3
ACAD_MLINESTYLE
350
227
0
DICTIONARY
5
226
330
0
100
AcDbDictionary
280
0
281
1
0
DICTIONARY
5
227
330
0
100
AcDbDictionary
280
0
281
1
3
Standard
350
18
0
MLINESTYLE
5
18
330
227
100
AcDbMlineStyle
2
Standard
70
0
3

62
256
51
90
52
90
71
2
49
-0.5
62
256
6
ByLayer
49
0.5
62
256
6
ByLayer
0
RASTERVARIABLES
5
213
330

100
AcDbRasterVariables
90
0
70
1
71
1
72
1
0
ENDSEC
0
EOF
