0
SECTION
2
HEADER
9
$ACADVER
1
AC1015
9
$DWGCODEPAGE
3
ANSI_1252
9
$HANDSEED
5
222
9
$ANGBASE
50
0
9
$ANGDIR
70
0
9
$ATTMODE
70
1
9
$AUNITS
70
0
9
$AUPREC
70
0
9
$CECOLOR
62
256
9
$CELTSCALE
40
1
9
$CELTYPE
6
ByLayer
9
$CELWEIGHT
370
18
9
$CLAYER
8
0
9
$CMLJUST
70
0
9
$CMLSCALE
40
1
9
$CMLSTYLE
2
Standard
9
$DIMSTYLE
2
Standard
9
$TEXTSIZE
40
0.2
9
$TEXTSTYLE
7
Standard
9
$LUNITS
70
2
9
$LUPREC
70
4
9
$EXTNAMES
290
1
9
$INSUNITS
70
4
9
$LTSCALE
40
1
9
$LWDISPLAY
290
1
9
$PDMODE
70
0
9
$PDSIZE
40
0
9
$PLINEGEN
70
0
0
ENDSEC
0
SECTION
2
CLASSES
0
CLASS
1
RASTERVARIABLES
2
AcDbRasterVariables
3
ISM
90
0
280
0
281
0
0
ENDSEC
0
SECTION
2
TABLES
0
TABLE
2
VPORT
5
218
100
AcDbSymbolTable
0
VPORT
5
1
100
AcDbSymbolTableRecord
100
AcDbViewportTableRecord
2
*Active
70
0
10
0
20
0
11
1
21
1
12
-1
22
1
13
0
23
0
14
0.5
24
0.5
15
10
25
10
16
0
26
0
36
1
17
0
27
0
37
0
0
ENDTAB
0
TABLE
2
LTYPE
5
219
100
AcDbSymbolTable
0
LTYPE
5
14
100
AcDbSymbolTableRecord
100
AcDbLinetypeTableRecord
70
0
2
ByBlock
3

72
65
73
0
40
0
0
LTYPE
5
15
100
AcDbSymbolTableRecord
100
AcDbLinetypeTableRecord
70
0
2
ByLayer
3

72
65
73
0
40
0
0
LTYPE
5
16
100
AcDbSymbolTableRecord
100
AcDbLinetypeTableRecord
70
0
2
Continuous
3
Solid line
72
65
73
0
40
0
0
LTYPE
5
6E
100
AcDbSymbolTableRecord
100
AcDbLinetypeTableRecord
70
0
2
CENTER
3
____ _ ____ _ ____ _ ____
72
65
73
4
40
47.5
49
22
74
0
49
-8.5
74
0
49
8.5
74
0
49
-8.5
74
0
0
LTYPE
5
6F
100
AcDbSymbolTableRecord
100
AcDbLinetypeTableRecord
70
0
2
DASHED
3
__ __ __ __ __ __ __ __ __
72
65
73
2
40
25.72
49
12.86
74
0
49
-12.86
74
0
0
ENDTAB
0
TABLE
2
LAYER
5
21a
100
AcDbSymbolTable
0
LAYER
5
10
100
AcDbSymbolTableRecord
100
AcDbLayerTableRecord
2
0
70
0
62
7
6
Continuous
290
1
370
-3
390
0
0
LAYER
5
71
100
AcDbSymbolTableRecord
100
AcDbLayerTableRecord
2
80
70
0
62
-6
6
Continuous
290
1
370
-3
390
0
0
LAYER
5
73
100
AcDbSymbolTableRecord
100
AcDbLayerTableRecord
2
81
70
0
62
-3
6
Continuous
290
1
370
-3
390
0
0
LAYER
5
75
100
AcDbSymbolTableRecord
100
AcDbLayerTableRecord
2
1
70
0
62
4
6
Continuous
290
1
370
-3
390
0
0
LAYER
5
87
100
AcDbSymbolTableRecord
100
AcDbLayerTableRecord
2
4
70
0
62
-2
6
CENTER
290
1
370
-3
390
0
0
LAYER
5
A5
100
AcDbSymbolTableRecord
100
AcDbLayerTableRecord
2
2
70
0
62
7
6
Continuous
290
1
370
-3
390
0
0
LAYER
5
12D
100
AcDbSymbolTableRecord
100
AcDbLayerTableRecord
2
Defpoints
70
0
62
7
6
Continuous
290
0
370
-3
390
0
0
LAYER
5
204
100
AcDbSymbolTableRecord
100
AcDbLayerTableRecord
2
SK4
70
0
62
2
6
CENTER
290
1
370
-3
390
0
0
LAYER
5
205
100
AcDbSymbolTableRecord
100
AcDbLayerTableRecord
2
SK1
70
0
62
4
6
Continuous
290
1
370
-3
390
0
0
LAYER
5
206
100
AcDbSymbolTableRecord
100
AcDbLayerTableRecord
2
SK2
70
0
62
7
6
Continuous
290
1
370
-3
390
0
0
LAYER
5
207
100
AcDbSymbolTableRecord
100
AcDbLayerTableRecord
2
SK6
70
0
62
5
6
Continuous
290
1
370
-3
390
0
0
ENDTAB
0
TABLE
2
STYLE
5
21b
100
AcDbSymbolTable
0
STYLE
5
11
100
AcDbSymbolTableRecord
100
AcDbTextStyleTableRecord
2
Standard
3
txt
70
0
71
0
40
0
41
1
42
0
50
0
0
STYLE
5
109
100
AcDbSymbolTableRecord
100
AcDbTextStyleTableRecord
2
iso_b_vert
3
simplex.shx
70
0
71
0
40
0
41
1
42
0
50
0
0
STYLE
5
10A
100
AcDbSymbolTableRecord
100
AcDbTextStyleTableRecord
2
DWGDirectTextStyle
3
simplex
70
0
71
0
40
0
41
1
42
0
50
0
0
ENDTAB
0
TABLE
2
DIMSTYLE
5
21c
100
AcDbSymbolTable
100
AcDbDimStyleTable
0
DIMSTYLE
105
27
100
AcDbSymbolTableRecord
100
AcDbDimStyleTableRecord
2
Standard
70
0
3
<>
41
0.18
42
0.0625
44
0.18
140
0.18
147
0.09
73
0
74
0
77
1
271
2
275
0
278
52
280
0
340
11
0
ENDTAB
0
TABLE
2
VIEW
5
21d
100
AcDbSymbolTable
0
ENDTAB
0
TABLE
2
UCS
5
21e
100
AcDbSymbolTable
0
ENDTAB
0
TABLE
2
APPID
5
21f
100
AcDbSymbolTable
0
APPID
5
12
100
AcDbSymbolTableRecord
100
AcDbRegAppTableRecord
2
ACAD
70
0
0
APPID
5
129
100
AcDbSymbolTableRecord
100
AcDbRegAppTableRecord
2
ACAD_DSTYLE_DIMBREAK
70
0
0
APPID
5
1C3
100
AcDbSymbolTableRecord
100
AcDbRegAppTableRecord
2
ACAD_DSTYLE_DIM_LINETYPE
70
0
0
APPID
5
1C4
100
AcDbSymbolTableRecord
100
AcDbRegAppTableRecord
2
ACAD_DSTYLE_DIM_EXT1_LINETYPE
70
0
0
APPID
5
1C5
100
AcDbSymbolTableRecord
100
AcDbRegAppTableRecord
2
ACAD_DSTYLE_DIM_EXT2_LINETYPE
70
0
0
APPID
5
200
100
AcDbSymbolTableRecord
100
AcDbRegAppTableRecord
2
ACAD_MLEADERVER
70
0
0
ENDTAB
0
TABLE
2
BLOCK_RECORD
5
220
100
AcDbSymbolTable
0
BLOCK_RECORD
5
1F
100
AcDbSymbolTableRecord
100
AcDbBlockTableRecord
2
*Model_Space
340
0
70
0
0
BLOCK_RECORD
5
1B
100
AcDbSymbolTableRecord
100
AcDbBlockTableRecord
2
*Paper_Space
340
0
70
0
0
BLOCK_RECORD
5
23
100
AcDbSymbolTableRecord
100
AcDbBlockTableRecord
2
*Paper_Space0
340
0
70
0
0
BLOCK_RECORD
5
12E
100
AcDbSymbolTableRecord
100
AcDbBlockTableRecord
2
*D1
340
0
70
0
0
BLOCK_RECORD
5
13A
100
AcDbSymbolTableRecord
100
AcDbBlockTableRecord
2
_U0
340
0
70
0
0
BLOCK_RECORD
5
148
100
AcDbSymbolTableRecord
100
AcDbBlockTableRecord
2
*D3
340
0
70
0
0
BLOCK_RECORD
5
154
100
AcDbSymbolTableRecord
100
AcDbBlockTableRecord
2
_U1
340
0
70
0
0
BLOCK_RECORD
5
160
100
AcDbSymbolTableRecord
100
AcDbBlockTableRecord
2
*D5
340
0
70
0
0
BLOCK_RECORD
5
16C
100
AcDbSymbolTableRecord
100
AcDbBlockTableRecord
2
_U2
340
0
70
0
0
BLOCK_RECORD
5
178
100
AcDbSymbolTableRecord
100
AcDbBlockTableRecord
2
*D7
340
0
70
0
0
BLOCK_RECORD
5
184
100
AcDbSymbolTableRecord
100
AcDbBlockTableRecord
2
_U3
340
0
70
0
0
BLOCK_RECORD
5
190
100
AcDbSymbolTableRecord
100
AcDbBlockTableRecord
2
*D9
340
0
70
0
0
BLOCK_RECORD
5
19C
100
AcDbSymbolTableRecord
100
AcDbBlockTableRecord
2
_U4
340
0
70
0
0
ENDTAB
0
ENDSEC
0
SECTION
2
BLOCKS
0
BLOCK
5
20
100
AcDbEntity
8
0
100
AcDbBlockBegin
2
*Model_Space
70
0
10
0
20
0
30
0
3
*Model_Space
0
ENDBLK
5
21
100
AcDbEntity
8
0
100
AcDbBlockEnd
0
BLOCK
5
1C
100
AcDbEntity
8
0
100
AcDbBlockBegin
2
*Paper_Space
70
0
10
0
20
0
30
0
3
*Paper_Space
0
ENDBLK
5
1D
100
AcDbEntity
8
0
100
AcDbBlockEnd
0
BLOCK
5
24
100
AcDbEntity
8
0
100
AcDbBlockBegin
2
*Paper_Space0
70
0
10
0
20
0
30
0
3
*Paper_Space0
0
ENDBLK
5
25
100
AcDbEntity
8
0
100
AcDbBlockEnd
0
BLOCK
5
12F
100
AcDbEntity
8
0
100
AcDbBlockBegin
2
*D1
70
1
10
0
20
0
30
0
3
*D1
0
LINE
5
131
100
AcDbEntity
8
0
62
256
6
ByLayer
370
-2
48
1
60
0
100
AcDbLine
10
57
20
-6.6875
30
0
11
57
21
-23.47112
31
0
39
0
210
0
220
0
230
1
0
LINE
5
132
100
AcDbEntity
8
0
62
256
6
ByLayer
370
-2
48
1
60
0
100
AcDbLine
10
24.6
20
-6.6875
30
0
11
24.6
21
-23.47112
31
0
39
0
210
0
220
0
230
1
0
LINE
5
133
100
AcDbEntity
8
0
62
256
6
ByLayer
370
-2
48
1
60
0
100
AcDbLine
10
53.5
20
-21.47112
30
0
11
28.1
21
-21.47112
31
0
39
0
210
0
220
0
230
1
0
SOLID
5
134
100
AcDbEntity
8
0
62
256
6
ByLayer
370
-1
48
1
60
0
100
AcDbTrace
10
53.5
20
-22.054453
30
0
11
53.5
21
-20.887786
31
0
12
57
22
-21.47112
32
0
13
57
23
-21.47112
33
0
39
0
210
0
220
0
230
1
0
SOLID
5
135
100
AcDbEntity
8
0
62
256
6
ByLayer
370
-1
48
1
60
0
100
AcDbTrace
10
28.1
20
-20.887786
30
0
11
28.1
21
-22.054453
31
0
12
24.6
22
-21.47112
32
0
13
24.6
23
-21.47112
33
0
39
0
210
0
220
0
230
1
0
MTEXT
5
136
100
AcDbEntity
8
0
62
256
6
ByLayer
370
18
48
1
60
0
100
AcDbMText
10
40.8
20
-15.47112
30
0
210
0
220
0
230
1
1
\A1;32.4
40
3
41
0
44
1
50
0
71
5
72
5
7
iso_b_vert
0
POINT
5
137
100
AcDbEntity
8
Defpoints
62
0
6
ByLayer
370
-1
48
1
60
0
100
AcDbPoint
10
57
20
-5.1
30
0
39
0
210
0
220
0
230
1
50
360
0
POINT
5
138
100
AcDbEntity
8
Defpoints
62
0
6
ByLayer
370
-1
48
1
60
0
100
AcDbPoint
10
24.6
20
-5.1
30
0
39
0
210
0
220
0
230
1
50
360
0
POINT
5
139
100
AcDbEntity
8
Defpoints
62
0
6
ByLayer
370
-1
48
1
60
0
100
AcDbPoint
10
24.6
20
-21.47112
30
0
39
0
210
0
220
0
230
1
50
360
0
ENDBLK
5
130
100
AcDbEntity
8
0
100
AcDbBlockEnd
0
BLOCK
5
143
100
AcDbEntity
8
0
100
AcDbBlockBegin
2
_U0
70
0
10
0
20
0
30
0
3
_U0
0
MTEXT
5
13B
100
AcDbEntity
8
SK2
62
256
6
ByLayer
370
18
48
1
60
0
100
AcDbMText
10
37.280601
20
-19.273505
30
0
210
0
220
0
230
1
1
\W0.7528;32.4
40
3
41
0
44
1.084337
50
0
71
7
72
5
7
iso_b_vert
0
MTEXT
5
13C
100
AcDbEntity
8
SK2
62
256
6
ByLayer
370
18
48
1
60
0
100
AcDbMText
10
35.180601
20
-19.273505
30
0
210
0
220
0
230
1
1
\W1.1313;{\H1.88x;(}
40
3
41
0
44
1.084337
50
0
71
7
72
5
7
iso_b_vert
0
MTEXT
5
13D
100
AcDbEntity
8
SK2
62
256
6
ByLayer
370
18
48
1
60
0
100
AcDbMText
10
44.637399
20
-19.273505
30
0
210
0
220
0
230
1
1
\W1.1313;{\H1.88x;)}
40
3
41
0
44
1.084337
50
0
71
7
72
5
7
iso_b_vert
0
LINE
5
13E
100
AcDbEntity
8
SK2
62
256
6
ByLayer
370
13
48
1
60
0
100
AcDbLine
10
57
20
-6.6875
30
0
11
57
21
-23.47112
31
0
39
0
210
0
220
0
230
1
0
LINE
5
13F
100
AcDbEntity
8
SK2
62
256
6
ByLayer
370
13
48
1
60
0
100
AcDbLine
10
24.6
20
-6.6875
30
0
11
24.6
21
-23.47112
31
0
39
0
210
0
220
0
230
1
0
LINE
5
140
100
AcDbEntity
8
SK2
62
256
6
ByLayer
370
13
48
1
60
0
100
AcDbLine
10
57
20
-21.47112
30
0
11
24.6
21
-21.47112
31
0
39
0
210
0
220
0
230
1
0
SOLID
5
141
100
AcDbEntity
8
SK2
62
256
6
ByLayer
370
18
48
1
60
0
100
AcDbTrace
10
57
20
-21.47112
30
0
11
53.500002
21
-21.931904
31
0
12
53.499998
22
-21.010336
32
0
13
53.499998
23
-21.010336
33
0
39
0
210
0
220
0
230
1
0
SOLID
5
142
100
AcDbEntity
8
SK2
62
256
6
ByLayer
370
18
48
1
60
0
100
AcDbTrace
10
24.6
20
-21.47112
30
0
11
28.099998
21
-21.010336
31
0
12
28.100002
22
-21.931904
32
0
13
28.100002
23
-21.931904
33
0
39
0
210
0
220
0
230
1
0
ENDBLK
5
144
100
AcDbEntity
8
0
100
AcDbBlockEnd
0
BLOCK
5
149
100
AcDbEntity
8
0
100
AcDbBlockBegin
2
*D3
70
1
10
0
20
0
30
0
3
*D3
0
LINE
5
14B
100
AcDbEntity
8
0
62
256
6
ByLayer
370
-2
48
1
60
0
100
AcDbLine
10
57
20
-6.6875
30
0
11
57
21
-33.47112
31
0
39
0
210
0
220
0
230
1
0
LINE
5
14C
100
AcDbEntity
8
0
62
256
6
ByLayer
370
-2
48
1
60
0
100
AcDbLine
10
2
20
-6.6875
30
0
11
2
21
-33.47112
31
0
39
0
210
0
220
0
230
1
0
LINE
5
14D
100
AcDbEntity
8
0
62
256
6
ByLayer
370
-2
48
1
60
0
100
AcDbLine
10
53.5
20
-31.47112
30
0
11
5.5
21
-31.47112
31
0
39
0
210
0
220
0
230
1
0
SOLID
5
14E
100
AcDbEntity
8
0
62
256
6
ByLayer
370
-1
48
1
60
0
100
AcDbTrace
10
53.5
20
-32.054453
30
0
11
53.5
21
-30.887786
31
0
12
57
22
-31.47112
32
0
13
57
23
-31.47112
33
0
39
0
210
0
220
0
230
1
0
SOLID
5
14F
100
AcDbEntity
8
0
62
256
6
ByLayer
370
-1
48
1
60
0
100
AcDbTrace
10
5.5
20
-30.887786
30
0
11
5.5
21
-32.054453
31
0
12
2
22
-31.47112
32
0
13
2
23
-31.47112
33
0
39
0
210
0
220
0
230
1
0
MTEXT
5
150
100
AcDbEntity
8
0
62
256
6
ByLayer
370
18
48
1
60
0
100
AcDbMText
10
29.5
20
-25.47112
30
0
210
0
220
0
230
1
1
\A1;55
40
3
41
0
44
1
50
0
71
5
72
5
7
iso_b_vert
0
POINT
5
151
100
AcDbEntity
8
Defpoints
62
0
6
ByLayer
370
-1
48
1
60
0
100
AcDbPoint
10
57
20
-5.1
30
0
39
0
210
0
220
0
230
1
50
360
0
POINT
5
152
100
AcDbEntity
8
Defpoints
62
0
6
ByLayer
370
-1
48
1
60
0
100
AcDbPoint
10
2
20
-5.1
30
0
39
0
210
0
220
0
230
1
50
360
0
POINT
5
153
100
AcDbEntity
8
Defpoints
62
0
6
ByLayer
370
-1
48
1
60
0
100
AcDbPoint
10
2
20
-31.47112
30
0
39
0
210
0
220
0
230
1
50
360
0
ENDBLK
5
14A
100
AcDbEntity
8
0
100
AcDbBlockEnd
0
BLOCK
5
15B
100
AcDbEntity
8
0
100
AcDbBlockBegin
2
_U1
70
0
10
0
20
0
30
0
3
_U1
0
MTEXT
5
155
100
AcDbEntity
8
SK2
62
256
6
ByLayer
370
18
48
1
60
0
100
AcDbMText
10
27.867172
20
-30.586005
30
0
210
0
220
0
230
1
1
\W0.6740;55
40
3
41
0
44
1.084337
50
0
71
7
72
5
7
iso_b_vert
0
LINE
5
156
100
AcDbEntity
8
SK2
62
256
6
ByLayer
370
13
48
1
60
0
100
AcDbLine
10
57
20
-6.6875
30
0
11
57
21
-33.47112
31
0
39
0
210
0
220
0
230
1
0
LINE
5
157
100
AcDbEntity
8
SK2
62
256
6
ByLayer
370
13
48
1
60
0
100
AcDbLine
10
2
20
-6.6875
30
0
11
2
21
-33.47112
31
0
39
0
210
0
220
0
230
1
0
LINE
5
158
100
AcDbEntity
8
SK2
62
256
6
ByLayer
370
13
48
1
60
0
100
AcDbLine
10
57
20
-31.47112
30
0
11
2
21
-31.47112
31
0
39
0
210
0
220
0
230
1
0
SOLID
5
159
100
AcDbEntity
8
SK2
62
256
6
ByLayer
370
18
48
1
60
0
100
AcDbTrace
10
57
20
-31.47112
30
0
11
53.500002
21
-31.931904
31
0
12
53.499998
22
-31.010336
32
0
13
53.499998
23
-31.010336
33
0
39
0
210
0
220
0
230
1
0
SOLID
5
15A
100
AcDbEntity
8
SK2
62
256
6
ByLayer
370
18
48
1
60
0
100
AcDbTrace
10
2
20
-31.47112
30
0
11
5.499998
21
-31.010336
31
0
12
5.500002
22
-31.931904
32
0
13
5.500002
23
-31.931904
33
0
39
0
210
0
220
0
230
1
0
ENDBLK
5
15C
100
AcDbEntity
8
0
100
AcDbBlockEnd
0
BLOCK
5
161
100
AcDbEntity
8
0
100
AcDbBlockBegin
2
*D5
70
1
10
0
20
0
30
0
3
*D5
0
LINE
5
163
100
AcDbEntity
8
0
62
256
6
ByLayer
370
-2
48
1
60
0
100
AcDbLine
10
-45
20
-7.5875
30
0
11
-45
21
-41.47112
31
0
39
0
210
0
220
0
230
1
0
LINE
5
164
100
AcDbEntity
8
0
62
256
6
ByLayer
370
-2
48
1
60
0
100
AcDbLine
10
0
20
-7.5875
30
0
11
0
21
-41.47112
31
0
39
0
210
0
220
0
230
1
0
LINE
5
165
100
AcDbEntity
8
0
62
256
6
ByLayer
370
-2
48
1
60
0
100
AcDbLine
10
-41.5
20
-39.47112
30
0
11
-3.5
21
-39.47112
31
0
39
0
210
0
220
0
230
1
0
SOLID
5
166
100
AcDbEntity
8
0
62
256
6
ByLayer
370
-1
48
1
60
0
100
AcDbTrace
10
-41.5
20
-38.887786
30
0
11
-41.5
21
-40.054453
31
0
12
-45
22
-39.47112
32
0
13
-45
23
-39.47112
33
0
39
0
210
0
220
0
230
1
0
SOLID
5
167
100
AcDbEntity
8
0
62
256
6
ByLayer
370
-1
48
1
60
0
100
AcDbTrace
10
-3.5
20
-40.054453
30
0
11
-3.5
21
-38.887786
31
0
12
0
22
-39.47112
32
0
13
0
23
-39.47112
33
0
39
0
210
0
220
0
230
1
0
MTEXT
5
168
100
AcDbEntity
8
0
62
256
6
ByLayer
370
18
48
1
60
0
100
AcDbMText
10
-22.5
20
-33.47112
30
0
210
0
220
0
230
1
1
\A1;45
40
3
41
0
44
1
50
0
71
5
72
5
7
iso_b_vert
0
POINT
5
169
100
AcDbEntity
8
Defpoints
62
0
6
ByLayer
370
-1
48
1
60
0
100
AcDbPoint
10
-45
20
-6
30
0
39
0
210
0
220
0
230
1
50
360
0
POINT
5
16A
100
AcDbEntity
8
Defpoints
62
0
6
ByLayer
370
-1
48
1
60
0
100
AcDbPoint
10
0
20
-6
30
0
39
0
210
0
220
0
230
1
50
360
0
POINT
5
16B
100
AcDbEntity
8
Defpoints
62
0
6
ByLayer
370
-1
48
1
60
0
100
AcDbPoint
10
0
20
-39.47112
30
0
39
0
210
0
220
0
230
1
50
360
0
ENDBLK
5
162
100
AcDbEntity
8
0
100
AcDbBlockEnd
0
BLOCK
5
173
100
AcDbEntity
8
0
100
AcDbBlockBegin
2
_U2
70
0
10
0
20
0
30
0
3
_U2
0
MTEXT
5
16D
100
AcDbEntity
8
SK2
62
256
6
ByLayer
370
18
48
1
60
0
100
AcDbMText
10
-24.290771
20
-38.586005
30
0
210
0
220
0
230
1
1
\W0.7361;45
40
3
41
0
44
1.084337
50
0
71
7
72
5
7
iso_b_vert
0
LINE
5
16E
100
AcDbEntity
8
SK2
62
256
6
ByLayer
370
13
48
1
60
0
100
AcDbLine
10
-45
20
-7.5875
30
0
11
-45
21
-41.47112
31
0
39
0
210
0
220
0
230
1
0
LINE
5
16F
100
AcDbEntity
8
SK2
62
256
6
ByLayer
370
13
48
1
60
0
100
AcDbLine
10
0
20
-7.5875
30
0
11
0
21
-41.47112
31
0
39
0
210
0
220
0
230
1
0
LINE
5
170
100
AcDbEntity
8
SK2
62
256
6
ByLayer
370
13
48
1
60
0
100
AcDbLine
10
-45
20
-39.47112
30
0
11
0
21
-39.47112
31
0
39
0
210
0
220
0
230
1
0
SOLID
5
171
100
AcDbEntity
8
SK2
62
256
6
ByLayer
370
18
48
1
60
0
100
AcDbTrace
10
-45
20
-39.47112
30
0
11
-41.500002
21
-39.010336
31
0
12
-41.499998
22
-39.931904
32
0
13
-41.499998
23
-39.931904
33
0
39
0
210
0
220
0
230
1
0
SOLID
5
172
100
AcDbEntity
8
SK2
62
256
6
ByLayer
370
18
48
1
60
0
100
AcDbTrace
10
0
20
-39.47112
30
0
11
-3.499998
21
-39.931904
31
0
12
-3.500002
22
-39.010336
32
0
13
-3.500002
23
-39.010336
33
0
39
0
210
0
220
0
230
1
0
ENDBLK
5
174
100
AcDbEntity
8
0
100
AcDbBlockEnd
0
BLOCK
5
179
100
AcDbEntity
8
0
100
AcDbBlockBegin
2
*D7
70
1
10
0
20
0
30
0
3
*D7
0
LINE
5
17B
100
AcDbEntity
8
0
62
256
6
ByLayer
370
-2
48
1
60
0
100
AcDbLine
10
-45
20
-7.5875
30
0
11
-45
21
-49.47112
31
0
39
0
210
0
220
0
230
1
0
LINE
5
17C
100
AcDbEntity
8
0
62
256
6
ByLayer
370
-2
48
1
60
0
100
AcDbLine
10
57
20
-6.6875
30
0
11
57
21
-49.47112
31
0
39
0
210
0
220
0
230
1
0
LINE
5
17D
100
AcDbEntity
8
0
62
256
6
ByLayer
370
-2
48
1
60
0
100
AcDbLine
10
-41.5
20
-47.47112
30
0
11
53.5
21
-47.47112
31
0
39
0
210
0
220
0
230
1
0
SOLID
5
17E
100
AcDbEntity
8
0
62
256
6
ByLayer
370
-1
48
1
60
0
100
AcDbTrace
10
-41.5
20
-46.887786
30
0
11
-41.5
21
-48.054453
31
0
12
-45
22
-47.47112
32
0
13
-45
23
-47.47112
33
0
39
0
210
0
220
0
230
1
0
SOLID
5
17F
100
AcDbEntity
8
0
62
256
6
ByLayer
370
-1
48
1
60
0
100
AcDbTrace
10
53.5
20
-48.054453
30
0
11
53.5
21
-46.887786
31
0
12
57
22
-47.47112
32
0
13
57
23
-47.47112
33
0
39
0
210
0
220
0
230
1
0
MTEXT
5
180
100
AcDbEntity
8
0
62
256
6
ByLayer
370
18
48
1
60
0
100
AcDbMText
10
6
20
-41.47112
30
0
210
0
220
0
230
1
1
\A1;102
40
3
41
0
44
1
50
0
71
5
72
5
7
iso_b_vert
0
POINT
5
181
100
AcDbEntity
8
Defpoints
62
0
6
ByLayer
370
-1
48
1
60
0
100
AcDbPoint
10
-45
20
-6
30
0
39
0
210
0
220
0
230
1
50
360
0
POINT
5
182
100
AcDbEntity
8
Defpoints
62
0
6
ByLayer
370
-1
48
1
60
0
100
AcDbPoint
10
57
20
-5.1
30
0
39
0
210
0
220
0
230
1
50
360
0
POINT
5
183
100
AcDbEntity
8
Defpoints
62
0
6
ByLayer
370
-1
48
1
60
0
100
AcDbPoint
10
57
20
-47.47112
30
0
39
0
210
0
220
0
230
1
50
360
0
ENDBLK
5
17A
100
AcDbEntity
8
0
100
AcDbBlockEnd
0
BLOCK
5
18B
100
AcDbEntity
8
0
100
AcDbBlockBegin
2
_U3
70
0
10
0
20
0
30
0
3
_U3
0
MTEXT
5
185
100
AcDbEntity
8
SK2
62
256
6
ByLayer
370
18
48
1
60
0
100
AcDbMText
10
3.621201
20
-46.586005
30
0
210
0
220
0
230
1
1
\W0.6217;102
40
3
41
0
44
1.084337
50
0
71
7
72
5
7
iso_b_vert
0
LINE
5
186
100
AcDbEntity
8
SK2
62
256
6
ByLayer
370
13
48
1
60
0
100
AcDbLine
10
-45
20
-7.5875
30
0
11
-45
21
-49.47112
31
0
39
0
210
0
220
0
230
1
0
LINE
5
187
100
AcDbEntity
8
SK2
62
256
6
ByLayer
370
13
48
1
60
0
100
AcDbLine
10
57
20
-6.6875
30
0
11
57
21
-49.47112
31
0
39
0
210
0
220
0
230
1
0
LINE
5
188
100
AcDbEntity
8
SK2
62
256
6
ByLayer
370
13
48
1
60
0
100
AcDbLine
10
-45
20
-47.47112
30
0
11
57
21
-47.47112
31
0
39
0
210
0
220
0
230
1
0
SOLID
5
189
100
AcDbEntity
8
SK2
62
256
6
ByLayer
370
18
48
1
60
0
100
AcDbTrace
10
-45
20
-47.47112
30
0
11
-41.500002
21
-47.010336
31
0
12
-41.499998
22
-47.931904
32
0
13
-41.499998
23
-47.931904
33
0
39
0
210
0
220
0
230
1
0
SOLID
5
18A
100
AcDbEntity
8
SK2
62
256
6
ByLayer
370
18
48
1
60
0
100
AcDbTrace
10
57
20
-47.47112
30
0
11
53.500002
21
-47.931904
31
0
12
53.499998
22
-47.010336
32
0
13
53.499998
23
-47.010336
33
0
39
0
210
0
220
0
230
1
0
ENDBLK
5
18C
100
AcDbEntity
8
0
100
AcDbBlockEnd
0
BLOCK
5
191
100
AcDbEntity
8
0
100
AcDbBlockBegin
2
*D9
70
1
10
0
20
0
30
0
3
*D9
0
LINE
5
193
100
AcDbEntity
8
0
62
256
6
ByLayer
370
-2
48
1
60
0
100
AcDbLine
10
57
20
-6.6875
30
0
11
57
21
-41.47112
31
0
39
0
210
0
220
0
230
1
0
LINE
5
194
100
AcDbEntity
8
0
62
256
6
ByLayer
370
-2
48
1
60
0
100
AcDbLine
10
0
20
-6.6875
30
0
11
0
21
-41.47112
31
0
39
0
210
0
220
0
230
1
0
LINE
5
195
100
AcDbEntity
8
0
62
256
6
ByLayer
370
-2
48
1
60
0
100
AcDbLine
10
53.5
20
-39.47112
30
0
11
3.5
21
-39.47112
31
0
39
0
210
0
220
0
230
1
0
SOLID
5
196
100
AcDbEntity
8
0
62
256
6
ByLayer
370
-1
48
1
60
0
100
AcDbTrace
10
53.5
20
-40.054453
30
0
11
53.5
21
-38.887786
31
0
12
57
22
-39.47112
32
0
13
57
23
-39.47112
33
0
39
0
210
0
220
0
230
1
0
SOLID
5
197
100
AcDbEntity
8
0
62
256
6
ByLayer
370
-1
48
1
60
0
100
AcDbTrace
10
3.5
20
-38.887786
30
0
11
3.5
21
-40.054453
31
0
12
0
22
-39.47112
32
0
13
0
23
-39.47112
33
0
39
0
210
0
220
0
230
1
0
MTEXT
5
198
100
AcDbEntity
8
0
62
256
6
ByLayer
370
18
48
1
60
0
100
AcDbMText
10
28.5
20
-33.47112
30
0
210
0
220
0
230
1
1
\A1;57
40
3
41
0
44
1
50
0
71
5
72
5
7
iso_b_vert
0
POINT
5
199
100
AcDbEntity
8
Defpoints
62
0
6
ByLayer
370
-1
48
1
60
0
100
AcDbPoint
10
57
20
-5.1
30
0
39
0
210
0
220
0
230
1
50
360
0
POINT
5
19A
100
AcDbEntity
8
Defpoints
62
0
6
ByLayer
370
-1
48
1
60
0
100
AcDbPoint
10
0
20
-5.1
30
0
39
0
210
0
220
0
230
1
50
360
0
POINT
5
19B
100
AcDbEntity
8
Defpoints
62
0
6
ByLayer
370
-1
48
1
60
0
100
AcDbPoint
10
0
20
-39.47112
30
0
39
0
210
0
220
0
230
1
50
360
0
ENDBLK
5
192
100
AcDbEntity
8
0
100
AcDbBlockEnd
0
BLOCK
5
1A3
100
AcDbEntity
8
0
100
AcDbBlockBegin
2
_U4
70
0
10
0
20
0
30
0
3
_U4
0
MTEXT
5
19D
100
AcDbEntity
8
2
62
256
6
ByLayer
370
18
48
1
60
0
100
AcDbMText
10
26.867172
20
-38.586005
30
0
210
0
220
0
230
1
1
\W0.6740;57
40
3
41
0
44
1.084337
50
0
71
7
72
5
7
iso_b_vert
0
LINE
5
19E
100
AcDbEntity
8
2
62
256
6
ByLayer
370
13
48
1
60
0
100
AcDbLine
10
57
20
-6.6875
30
0
11
57
21
-41.47112
31
0
39
0
210
0
220
0
230
1
0
LINE
5
19F
100
AcDbEntity
8
2
62
256
6
ByLayer
370
13
48
1
60
0
100
AcDbLine
10
0
20
-6.6875
30
0
11
0
21
-41.47112
31
0
39
0
210
0
220
0
230
1
0
LINE
5
1A0
100
AcDbEntity
8
2
62
256
6
ByLayer
370
13
48
1
60
0
100
AcDbLine
10
57
20
-39.47112
30
0
11
0
21
-39.47112
31
0
39
0
210
0
220
0
230
1
0
SOLID
5
1A1
100
AcDbEntity
8
2
62
256
6
ByLayer
370
18
48
1
60
0
100
AcDbTrace
10
57
20
-39.47112
30
0
11
53.500002
21
-39.931904
31
0
12
53.499998
22
-39.010336
32
0
13
53.499998
23
-39.010336
33
0
39
0
210
0
220
0
230
1
0
SOLID
5
1A2
100
AcDbEntity
8
2
62
256
6
ByLayer
370
18
48
1
60
0
100
AcDbTrace
10
0
20
-39.47112
30
0
11
3.499998
21
-39.010336
31
0
12
3.500002
22
-39.931904
32
0
13
3.500002
23
-39.931904
33
0
39
0
210
0
220
0
230
1
0
ENDBLK
5
1A4
100
AcDbEntity
8
0
100
AcDbBlockEnd
0
ENDSEC
0
SECTION
2
ENTITIES
0
ARC
5
C0
100
AcDbEntity
8
1
62
256
6
ByLayer
370
18
48
1
60
0
100
AcDbCircle
39
0
10
1.481858
20
-5.803404
30
0
40
0.799999999999999
210
0
220
0
230
1
100
AcDbArc
50
89.896868
51
157.844115
0
ARC
5
C1
100
AcDbEntity
8
1
62
256
6
ByLayer
370
18
48
1
60
0
100
AcDbCircle
39
0
10
1.481858
20
5.803404
30
0
40
0.799999999999999
210
0
220
0
230
1
100
AcDbArc
50
202.155885
51
270.103132
0
ARC
5
C2
100
AcDbEntity
8
1
62
256
6
ByLayer
370
18
48
1
60
0
100
AcDbCircle
39
0
10
0
20
-5.2
30
0
40
0.799999999999999
210
0
220
0
230
1
100
AcDbArc
50
270
51
337.844115
0
ARC
5
C3
100
AcDbEntity
8
1
62
256
6
ByLayer
370
18
48
1
60
0
100
AcDbCircle
39
0
10
0
20
5.2
30
0
40
0.799999999999999
210
0
220
0
230
1
100
AcDbArc
50
22.155885
51
90
0
ARC
5
C4
100
AcDbEntity
8
SK2
62
256
6
ByLayer
370
13
48
1
60
0
100
AcDbCircle
39
0
10
57
20
0
30
0
40
20.8918825518586
210
0
220
0
230
1
100
AcDbArc
50
8.256011
51
70.002462
0
ARC
5
C5
100
AcDbEntity
8
SK2
62
256
6
ByLayer
370
13
48
1
60
0
100
AcDbCircle
39
0
10
57
20
0
30
0
40
20.8918825518586
210
0
220
0
230
1
100
AcDbArc
50
289.997538
51
351.743989
0
ELLIPSE
5
C6
100
AcDbEntity
8
1
62
256
6
ByLayer
370
13
48
1
60
0
100
AcDbEllipse
10
24.661586
20
-4.850395
30
0
11
-0.00453169934173892
21
0.00891424147508261
31
0
210
0
220
0
230
1
40
0.353264
41
-0.0868965638992829
42
1.30148790305306
0
ELLIPSE
5
C7
100
AcDbEntity
8
1
62
256
6
ByLayer
370
13
48
1
60
0
100
AcDbEllipse
10
24.699978
20
-4.840293
30
0
11
0.000411600595782517
21
-0.0099915256567529
31
0
210
0
220
0
230
1
40
0.42187
41
3.03847355076067
42
-1.67461537096039
0
ELLIPSE
5
C8
100
AcDbEntity
8
1
62
256
6
ByLayer
370
18
48
1
60
0
100
AcDbEllipse
10
24.699757
20
-4.951327
30
0
11
-0.1
21
1.22460635382238E-17
31
0
210
0
220
0
230
1
40
0.999963
41
-1.56644098979089
42
-0.114354696295222
0
POINT
5
70
100
AcDbEntity
8
80
62
256
6
ByLayer
370
18
48
1
60
0
100
AcDbPoint
10
0
20
0
30
0
39
0
210
0
220
0
230
1
50
360
0
POINT
5
72
100
AcDbEntity
8
81
62
256
6
ByLayer
370
18
48
1
60
0
100
AcDbPoint
10
57
20
0
30
0
39
0
210
0
220
0
230
1
50
360
0
POINT
5
74
100
AcDbEntity
8
1
62
256
6
ByLayer
370
18
48
1
60
0
100
AcDbPoint
10
-211.729059
20
-170.155631
30
0
39
0
210
0
220
0
230
1
50
360
0
POINT
5
76
100
AcDbEntity
8
1
62
256
6
ByLayer
370
13
48
1
60
1
100
AcDbPoint
10
-46.5
20
0
30
0
39
0
210
0
220
0
230
1
50
360
0
POINT
5
77
100
AcDbEntity
8
1
62
256
6
ByLayer
370
13
48
1
60
1
100
AcDbPoint
10
56.649551
20
0
30
0
39
0
210
0
220
0
230
1
50
360
0
POINT
5
78
100
AcDbEntity
8
1
62
256
6
ByLayer
370
18
48
1
60
1
100
AcDbPoint
10
57
20
-5.1
30
0
39
0
210
0
220
0
230
1
50
360
0
POINT
5
79
100
AcDbEntity
8
1
62
256
6
ByLayer
370
18
48
1
60
1
100
AcDbPoint
10
24.6
20
-5.1
30
0
39
0
210
0
220
0
230
1
50
360
0
POINT
5
7A
100
AcDbEntity
8
1
62
256
6
ByLayer
370
18
48
1
60
1
100
AcDbPoint
10
57
20
-5.1
30
0
39
0
210
0
220
0
230
1
50
360
0
POINT
5
7B
100
AcDbEntity
8
1
62
256
6
ByLayer
370
18
48
1
60
1
100
AcDbPoint
10
2
20
-5.1
30
0
39
0
210
0
220
0
230
1
50
360
0
POINT
5
7C
100
AcDbEntity
8
1
62
256
6
ByLayer
370
18
48
1
60
1
100
AcDbPoint
10
-45
20
-6
30
0
39
0
210
0
220
0
230
1
50
360
0
POINT
5
7D
100
AcDbEntity
8
1
62
256
6
ByLayer
370
18
48
1
60
1
100
AcDbPoint
10
0
20
-6
30
0
39
0
210
0
220
0
230
1
50
360
0
POINT
5
7E
100
AcDbEntity
8
1
62
256
6
ByLayer
370
18
48
1
60
1
100
AcDbPoint
10
-45
20
-6
30
0
39
0
210
0
220
0
230
1
50
360
0
POINT
5
7F
100
AcDbEntity
8
1
62
256
6
ByLayer
370
18
48
1
60
1
100
AcDbPoint
10
57
20
-5.1
30
0
39
0
210
0
220
0
230
1
50
360
0
POINT
5
80
100
AcDbEntity
8
1
62
256
6
ByLayer
370
18
48
1
60
1
100
AcDbPoint
10
57
20
-5.1
30
0
39
0
210
0
220
0
230
1
50
360
0
POINT
5
81
100
AcDbEntity
8
1
62
256
6
ByLayer
370
18
48
1
60
1
100
AcDbPoint
10
0
20
-5.1
30
0
39
0
210
0
220
0
230
1
50
360
0
SPLINE
5
C9
100
AcDbEntity
8
1
62
256
6
ByLayer
370
18
48
1
60
0
100
AcDbSpline
70
4
71
3
72
24
73
20
40
0
40
0
40
0
40
0
40
0.500000000000014
40
0.500000000000014
40
0.750000000000017
40
0.750000000000017
40
0.875000000000016
40
0.875000000000016
40
0.937500000000018
40
0.937500000000018
40
0.968750000000016
40
0.968750000000016
40
0.984375000000015
40
0.984375000000015
40
0.992187500000047
40
0.992187500000047
40
0.996093750000023
40
0.996093750000023
40
1
40
1
40
1
40
1
41
1
10
55.0614850225682
20
5.09980021958705
30
0
41
1
10
55.0830576190186
20
5.06455184634407
30
0
41
1
10
55.1046695961773
20
5.02911909067114
30
0
41
1
10
55.1370305338961
20
4.97595243909464
30
0
41
1
10
55.1477912084156
20
4.95826343716246
30
0
41
1
10
55.1639616366961
20
4.93162850530527
30
0
41
1
10
55.1693616680534
20
4.92272256565204
30
0
41
1
10
55.1774963686788
20
4.90927946248647
30
0
41
1
10
55.1802235649948
20
4.90476305388859
30
0
41
1
10
55.1842744641149
20
4.8980729845081
30
0
41
1
10
55.1856135343009
20
4.89586688541098
30
0
41
1
10
55.1875977760927
20
4.89260842262405
30
0
41
1
10
55.1882718335935
20
4.89149575881768
30
0
41
1
10
55.1893189431844
20
4.88974565441711
30
0
41
1
10
55.1896712030283
20
4.88915514996737
30
0
41
1
10
55.1901836909303
20
4.88830498837831
30
0
41
1
10
55.1903531291145
20
4.88802531273825
30
0
41
1
10
55.1906633109797
20
4.88752375023094
30
0
41
1
10
55.1908083365717
20
4.88729653817205
30
0
41
1
10
55.1908637238409
20
4.88723020899261
30
0
0
SPLINE
5
CA
100
AcDbEntity
8
1
62
256
6
ByLayer
370
18
48
1
60
0
100
AcDbSpline
70
4
71
3
72
8
73
4
40
0
40
0
40
0
40
0
40
1
40
1
40
1
40
1
41
1
10
56.4777932211706
20
1.67964821196901
30
0
41
1
10
56.6154832625975
20
1.29453985573261
30
0
41
1
10
56.7519996397234
20
0.909019000890282
30
0
41
1
10
56.8873180669335
20
0.523077111966927
30
0
0
SPLINE
5
CB
100
AcDbEntity
8
1
62
256
6
ByLayer
370
18
48
1
60
0
100
AcDbSpline
70
4
71
3
72
10
73
6
40
0
40
0
40
0
40
0
40
0.5
40
0.5
40
1
40
1
40
1
40
1
41
1
10
24.6957425203676
20
-4.83943060487002
30
0
41
1
10
24.6891193843454
20
-4.83970928766129
30
0
41
1
10
24.6826042930354
20
-4.84069962416157
30
0
41
1
10
24.6697872061186
20
-4.84406428382718
30
0
41
1
10
24.6634420153014
20
-4.84646259153601
30
0
41
1
10
24.6573443178856
20
-4.84956686854889
30
0
0
SPLINE
5
CC
100
AcDbEntity
8
1
62
256
6
ByLayer
370
13
48
1
60
0
100
AcDbSpline
70
4
71
3
72
8
73
4
40
0
40
0
40
0
40
0
40
1
40
1
40
1
40
1
41
1
10
24.6560832561545
20
-5.02405655674886
30
0
41
1
10
24.6564686072939
20
-4.97019954601004
30
0
41
1
10
24.6568575526817
20
-4.91634294474369
30
0
41
1
10
24.6572500825675
20
-4.86248677011346
30
0
0
SPLINE
5
CD
100
AcDbEntity
8
1
62
256
6
ByLayer
370
18
48
1
60
0
100
AcDbSpline
70
4
71
3
72
8
73
4
40
0
40
0
40
0
40
0
40
1
40
1
40
1
40
1
41
1
10
56.8873180669335
20
0.523077111966927
30
0
41
1
10
56.9235050954757
20
0.419868033661089
30
0
41
1
10
56.9604053620426
20
0.317054721578842
30
0
41
1
10
56.998017304441
20
0.214623134064169
30
0
0
SPLINE
5
CE
100
AcDbEntity
8
1
62
256
6
ByLayer
370
18
48
1
60
0
100
AcDbSpline
70
4
71
3
72
10
73
6
40
0
40
0
40
0
40
0
40
0.5
40
0.5
40
1
40
1
40
1
40
1
41
1
10
24.7000020777486
20
-4.83033702211256
30
0
41
1
10
24.6926362345899
20
-4.83060772425733
30
0
41
1
10
24.6853946261628
20
-4.83167141858664
30
0
41
1
10
24.6711554356367
20
-4.83533691357266
30
0
41
1
10
24.6641085098616
20
-4.83796604527112
30
0
41
1
10
24.6573443178856
20
-4.84137590783857
30
0
0
SPLINE
5
CF
100
AcDbEntity
8
1
62
256
6
ByLayer
370
13
48
1
60
0
100
AcDbSpline
70
4
71
3
72
44
73
40
40
0
40
0
40
0
40
0
40
0.0274369046243491
40
0.0274369046243491
40
0.0619922834203271
40
0.0619922834203271
40
0.0965476622163052
40
0.0965476622163052
40
0.131103041012283
40
0.131103041012283
40
0.200213798604239
40
0.269324556196196
40
0.269324556196196
40
0.338435313788152
40
0.338435313788152
40
0.407546071380109
40
0.476656828972065
40
0.476656828972065
40
0.511212207768043
40
0.528489897166032
40
0.528489897166032
40
0.545767586564021
40
0.545767586564021
40
0.580322965359999
40
0.580322965359999
40
0.597600654757988
40
0.597600654757988
40
0.614878344155977
40
0.614878344155977
40
0.683989101747934
40
0.753099859339891
40
0.822210616931847
40
0.822210616931847
40
0.856765995727826
40
0.856765995727826
40
0.891321374523804
40
0.891321374523804
40
0.960432132115761
40
1
40
1
40
1
40
1
41
1
10
24.7005715102333
20
-1.31740907052367
30
0
41
1
10
24.7005690749189
20
-1.37178636567251
30
0
41
1
10
24.7005665145607
20
-1.42587961779813
30
0
41
1
10
24.7005604668901
20
-1.5473194466442
30
0
41
1
10
24.7005569100619
20
-1.61449599483368
30
0
41
1
10
24.7005494461422
20
-1.74781825308591
30
0
41
1
10
24.7005455364085
20
-1.8140062000237
30
0
41
1
10
24.700537396448
20
-1.94516163904376
30
0
41
1
10
24.700533175892
20
-2.00997817494726
30
0
41
1
10
24.7005200955292
20
-2.20216985296199
30
0
41
1
10
24.7005015415098
20
-2.45241281865157
30
0
41
1
10
24.7004810355798
20
-2.69069295489283
30
0
41
1
10
24.7004596443903
20
-2.92288406013853
30
0
41
1
10
24.70044863874
20
-3.03450151315297
30
0
41
1
10
24.7004261065241
20
-3.24904928735546
30
0
41
1
10
24.7004030523073
20
-3.45491592615434
30
0
41
1
10
24.7003790569505
20
-3.64359118817035
30
0
41
1
10
24.7003607143272
20
-3.77856800272011
30
0
41
1
10
24.7003514560066
20
-3.84442170167489
30
0
41
1
10
24.7003420638962
20
-3.9077860812942
30
0
41
1
10
24.7003357720618
20
-3.9494700772151
30
0
41
1
10
24.7003326092572
20
-3.97004300748941
30
0
41
1
10
24.7003231012011
20
-4.03074334275496
30
0
41
1
10
24.7003167289591
20
-4.06990356513828
30
0
41
1
10
24.7003071163216
20
-4.12668406199791
30
0
41
1
10
24.700303900815
20
-4.14529646610595
30
0
41
1
10
24.7002974675534
20
-4.18177249112267
30
0
41
1
10
24.7002942486556
20
-4.19964342598357
30
0
41
1
10
24.7002781405314
20
-4.28718067134409
30
0
41
1
10
24.7002522824748
20
-4.41563022359978
30
0
41
1
10
24.7002130106238
20
-4.57432017806292
30
0
41
1
10
24.7001862952563
20
-4.65749577619772
30
0
41
1
10
24.70016595477
20
-4.71121679869461
30
0
41
1
10
24.7001591236511
20
-4.72767825101073
30
0
41
1
10
24.7001453384939
20
-4.75765371405461
30
0
41
1
10
24.7001384282537
20
-4.77107113473818
30
0
41
1
10
24.7001176385777
20
-4.80664372616334
30
0
41
1
10
24.700095704762
20
-4.83417320897311
30
0
41
1
10
24.7000733491692
20
-4.84661265970061
30
0
41
1
10
24.700065137039
20
-4.84913498897046
30
0
0
SPLINE
5
D0
100
AcDbEntity
8
1
62
256
6
ByLayer
370
18
48
1
60
0
100
AcDbSpline
70
4
71
3
72
8
73
4
40
0
40
0
40
0
40
0
40
1
40
1
40
1
40
1
41
1
10
56.4777932211706
20
1.67964821196901
30
0
41
1
10
56.2515050681631
20
1.65488210208113
30
0
41
1
10
56.0247777431913
20
1.63471006044648
30
0
41
1
10
55.7978467659721
20
1.61666837411616
30
0
0
SPLINE
5
D1
100
AcDbEntity
8
1
62
256
6
ByLayer
370
18
48
1
60
0
100
AcDbSpline
70
4
71
3
72
29
73
25
40
0
40
0
40
0
40
0
40
0.125000000000007
40
0.125000000000007
40
0.250000000000014
40
0.250000000000014
40
0.312500000000018
40
0.312500000000018
40
0.343750000000017
40
0.343750000000017
40
0.375000000000017
40
0.375000000000017
40
0.500000000000014
40
0.500000000000014
40
0.515625000000015
40
0.515625000000015
40
0.531250000000016
40
0.531250000000016
40
0.562500000000013
40
0.625000000000013
40
0.625000000000013
40
0.750000000000009
40
0.750000000000009
40
1
40
1
40
1
40
1
41
1
10
56.4777932211706
20
1.67964821196901
30
0
41
1
10
56.41906412584
20
1.78851812122511
30
0
41
1
10
56.3621373336803
20
1.90067432137431
30
0
41
1
10
56.2514551072696
20
2.13137873907226
30
0
41
1
10
56.1976993333985
20
2.24992457749551
30
0
41
1
10
56.1190920031436
20
2.43246314104755
30
0
41
1
10
56.0932275787635
20
2.49409847103752
30
0
41
1
10
56.0548936687858
20
2.58774385325472
30
0
41
1
10
56.0421927945301
20
2.61915778857878
30
0
41
1
10
56.0169371928307
20
2.68238453067471
30
0
41
1
10
56.0043906869472
20
2.71417798075896
30
0
41
1
10
55.9423835286253
20
2.87314780661373
30
0
41
1
10
55.8947853472242
20
3.00109607333437
30
0
41
1
10
55.8430239760924
20
3.14573341227245
30
0
41
1
10
55.837297191459
20
3.16181375751915
30
0
41
1
10
55.8258902881884
20
3.19399265022946
30
0
41
1
10
55.8202152650743
20
3.21009318165253
30
0
41
1
10
55.8032103347482
20
3.25840271849421
30
0
41
1
10
55.7692418096202
20
3.35503827549212
30
0
41
1
10
55.7353931734624
20
3.45172192178274
30
0
41
1
10
55.6678443858102
20
3.64514961269319
30
0
41
1
10
55.6230329721359
20
3.77412016231494
30
0
41
1
10
55.4892738857002
20
4.16072207869396
30
0
41
1
10
55.4009601235962
20
4.41819077625416
30
0
41
1
10
55.3133699543145
20
4.67435133147299
30
0
0
SPLINE
5
D2
100
AcDbEntity
8
1
62
256
6
ByLayer
370
18
48
1
60
0
100
AcDbSpline
70
4
71
3
72
8
73
4
40
0
40
0
40
0
40
0
40
1
40
1
40
1
40
1
41
1
10
55.3133699543144
20
4.67435133147299
30
0
41
1
10
55.2725171849985
20
4.74532130464146
30
0
41
1
10
55.2316802102829
20
4.81628395976611
30
0
41
1
10
55.1908637238406
20
4.88723020899278
30
0
0
SPLINE
5
D3
100
AcDbEntity
8
1
62
256
6
ByLayer
370
18
48
1
60
0
100
AcDbSpline
70
4
71
3
72
28
73
24
40
0
40
0
40
0
40
0
40
0.0628654067234408
40
0.0628654067234408
40
0.125730813446882
40
0.125730813446882
40
0.251461626893769
40
0.251461626893769
40
0.377192440340655
40
0.377192440340655
40
0.440057847064099
40
0.440057847064099
40
0.502923253787542
40
0.502923253787542
40
0.628654067234433
40
0.628654067234433
40
0.754384880681324
40
0.754384880681324
40
0.817250287404767
40
0.817250287404767
40
0.88011569412821
40
0.88011569412821
40
1
40
1
40
1
40
1
41
1
10
55.1908637238453
20
4.88723020898289
30
0
41
1
10
55.0315949684295
20
4.88881105524848
30
0
41
1
10
54.872279899827
20
4.88867994564834
30
0
41
1
10
54.5535041149187
20
4.88499218463897
30
0
41
1
10
54.3939944350234
20
4.88143396913046
30
0
41
1
10
53.9157824385777
20
4.86560927563639
30
0
41
1
10
53.597304720505
20
4.84817427588118
30
0
41
1
10
52.9604838819783
20
4.79945777696031
30
0
41
1
10
52.6421027884669
20
4.7681488187236
30
0
41
1
10
52.1642088333465
20
4.71101529093536
30
0
41
1
10
52.0048578646021
20
4.69028032156837
30
0
41
1
10
51.6860042967561
20
4.64549232673673
30
0
41
1
10
51.5266058441339
20
4.62145413591801
30
0
41
1
10
51.0486764501262
20
4.54455626932864
30
0
41
1
10
50.7302836827693
20
4.48687795399218
30
0
41
1
10
50.0933828867224
20
4.3591172379582
30
0
41
1
10
49.7748804307471
20
4.28910816860972
30
0
41
1
10
49.2967975057547
20
4.17521675366953
30
0
41
1
10
49.1373449503571
20
4.13574960515598
30
0
41
1
10
48.8184942443819
20
4.05395964806468
30
0
41
1
10
48.6590938047773
20
4.01163828003493
30
0
41
1
10
48.1957044399023
20
3.88454498973326
30
0
41
1
10
47.8916385320119
20
3.79605590442577
30
0
41
1
10
47.5875611674544
20
3.70267133906853
30
0
0
SPLINE
5
D4
100
AcDbEntity
8
1
62
256
6
ByLayer
370
18
48
1
60
0
100
AcDbSpline
70
4
71
3
72
16
73
12
40
0
40
0
40
0
40
0
40
0.0291262681994153
40
0.0291262681994153
40
0.223301014559532
40
0.223301014559532
40
0.417475760919649
40
0.417475760919649
40
0.611650507279766
40
0.611650507279766
40
1
40
1
40
1
40
1
41
1
10
55.2830935670947
20
0.898095390983087
30
0
41
1
10
55.2872662992025
20
0.896777256096044
30
0
41
1
10
55.2914505872684
20
0.895440998297914
30
0
41
1
10
55.3236180051411
20
0.885058474183751
30
0
41
1
10
55.3519843429423
20
0.875240440799473
30
0
41
1
10
55.4092358361978
20
0.854266205471021
30
0
41
1
10
55.438142675717
20
0.843121354810819
30
0
41
1
10
55.4964555929495
20
0.819663479398486
30
0
41
1
10
55.5258779421162
20
0.807312380855535
30
0
41
1
10
55.6150346323819
20
0.768177398285616
30
0
41
1
10
55.6756642779388
20
0.739298579446938
30
0
41
1
10
55.7371865530655
20
0.70833108480241
30
0
0
SPLINE
5
D5
100
AcDbEntity
8
1
62
256
6
ByLayer
370
18
48
1
60
0
100
AcDbSpline
70
4
71
3
72
31
73
27
40
0
40
0
40
0
40
0
40
0.128336706271961
40
0.128336706271961
40
0.256673412543923
40
0.256673412543923
40
0.288757589111906
40
0.288757589111906
40
0.320841765679889
40
0.385010118815856
40
0.385010118815856
40
0.513346825087789
40
0.513346825087789
40
0.545431001655784
40
0.545431001655784
40
0.57751517822378
40
0.57751517822378
40
0.641683531359794
40
0.641683531359794
40
0.770020237631822
40
0.770020237631822
40
0.834188590767836
40
0.834188590767836
40
0.89835694390385
40
0.89835694390385
40
1
40
1
40
1
40
1
41
1
10
55.7978467659721
20
1.61666837411616
30
0
41
1
10
55.7382446021191
20
1.61192982516167
30
0
41
1
10
55.6793326669039
20
1.60388264487594
30
0
41
1
10
55.5629243941711
20
1.58099994103728
30
0
41
1
10
55.5054295138188
20
1.5661574547766
30
0
41
1
10
55.4344485490678
20
1.5433454536184
30
0
41
1
10
55.420268022902
20
1.53856047446692
30
0
41
1
10
55.3921350582818
20
1.52861813603411
30
0
41
1
10
55.350367588274
20
1.51318104732872
30
0
41
1
10
55.309863586161
20
1.4962620703071
30
0
41
1
10
55.2304567687061
20
1.46068417474217
30
0
41
1
10
55.179651564936
20
1.43464644186017
30
0
41
1
10
55.1185636727527
20
1.39996698848205
30
0
41
1
10
55.1064671493545
20
1.39292451979705
30
0
41
1
10
55.0825105821446
20
1.37864579661326
30
0
41
1
10
55.0706259276473
20
1.37139391251068
30
0
41
1
10
55.0355594964784
20
1.3495287688244
30
0
41
1
10
55.0129391499766
20
1.33479482770096
30
0
41
1
10
54.9471449948507
20
1.29038655754954
30
0
41
1
10
54.9060241686165
20
1.26051539131973
30
0
41
1
10
54.8478495494992
20
1.21623376432763
30
0
41
1
10
54.8290452532056
20
1.20155908274421
30
0
41
1
10
54.7925517812115
20
1.17250947951925
30
0
41
1
10
54.7750506775156
20
1.15828286763559
30
0
41
1
10
54.7316594739097
20
1.12243320703217
30
0
41
1
10
54.7068106306065
20
1.10133222321579
30
0
41
1
10
54.6835829150301
20
1.08123628329125
30
0
0
SPLINE
5
D6
100
AcDbEntity
8
1
62
256
6
ByLayer
370
18
48
1
60
0
100
AcDbSpline
70
4
71
3
72
8
73
4
40
0
40
0
40
0
40
0
40
1
40
1
40
1
40
1
41
1
10
55.3133699543144
20
-4.67435133147296
30
0
41
1
10
55.2725171849993
20
-4.7453213046401
30
0
41
1
10
55.2316802102845
20
-4.81628395976341
30
0
41
1
10
55.1908637238429
20
-4.88723020898874
30
0
0
SPLINE
5
D7
100
AcDbEntity
8
1
62
256
6
ByLayer
370
18
48
1
60
0
100
AcDbSpline
70
4
71
3
72
8
73
4
40
0
40
0
40
0
40
0
40
1
40
1
40
1
40
1
41
1
10
24.5997573221243
20
4.91412078932024
30
0
41
1
10
24.5997573221243
20
4.86711883654792
30
0
41
1
10
24.5997573221243
20
4.81976019330958
30
0
41
1
10
24.5997573221243
20
4.77204998828196
30
0
0
SPLINE
5
D8
100
AcDbEntity
8
1
62
256
6
ByLayer
370
18
48
1
60
0
100
AcDbSpline
70
2053
71
3
72
119
73
115
40
0
40
0
40
0
40
0
40
0.0312499999999933
40
0.0312499999999933
40
0.0624999999999865
40
0.0624999999999865
40
0.0937499999999798
40
0.0937499999999798
40
0.124999999999973
40
0.124999999999973
40
0.156249999999966
40
0.156249999999966
40
0.18749999999996
40
0.18749999999996
40
0.218749999999953
40
0.218749999999953
40
0.234374999999949
40
0.234374999999949
40
0.242187499999947
40
0.242187499999947
40
0.249999999999945
40
0.249999999999945
40
0.281249999999938
40
0.281249999999938
40
0.296874999999934
40
0.296874999999934
40
0.304687499999932
40
0.304687499999932
40
0.31249999999993
40
0.31249999999993
40
0.343749999999923
40
0.343749999999923
40
0.351562499999923
40
0.351562499999923
40
0.359374999999922
40
0.374999999999921
40
0.39062499999992
40
0.39062499999992
40
0.398437499999921
40
0.398437499999921
40
0.406249999999921
40
0.406249999999921
40
0.437499999999923
40
0.437499999999923
40
0.453124999999924
40
0.453124999999924
40
0.468749999999925
40
0.484374999999927
40
0.484374999999927
40
0.492187499999927
40
0.492187499999927
40
0.499999999999928
40
0.499999999999928
40
0.531249999999933
40
0.531249999999933
40
0.539062499999934
40
0.539062499999934
40
0.546874999999934
40
0.546874999999934
40
0.562499999999938
40
0.562499999999938
40
0.593749999999946
40
0.593749999999946
40
0.601562499999948
40
0.601562499999948
40
0.609374999999949
40
0.609374999999949
40
0.624999999999952
40
0.624999999999952
40
0.656249999999957
40
0.656249999999957
40
0.671874999999959
40
0.671874999999959
40
0.687499999999961
40
0.687499999999961
40
0.718749999999964
40
0.718749999999964
40
0.726562499999965
40
0.726562499999965
40
0.734374999999966
40
0.749999999999968
40
0.765624999999969
40
0.765624999999969
40
0.77343749999997
40
0.77343749999997
40
0.781249999999971
40
0.781249999999971
40
0.812499999999975
40
0.812499999999975
40
0.820312499999975
40
0.820312499999975
40
0.828124999999975
40
0.828124999999975
40
0.843749999999976
40
0.859374999999976
40
0.859374999999976
40
0.867187499999978
40
0.867187499999978
40
0.874999999999979
40
0.874999999999979
40
0.906249999999984
40
0.906249999999984
40
0.921874999999987
40
0.921874999999987
40
0.937499999999989
40
0.953124999999992
40
0.953124999999992
40
0.968749999999995
40
0.968749999999995
40
0.984374999999997
40
0.984374999999997
40
0.992187499999999
40
0.992187499999999
40
1
40
1
40
1
40
1
41
1
10
55.5359970619647
20
-2.54739592980586
30
0
41
1
10
55.5161459445919
20
-2.57454032077189
30
0
41
1
10
55.4972004899678
20
-2.59710821041449
30
0
41
1
10
55.4609017182659
20
-2.63365381411379
30
0
41
1
10
55.443549625592
20
-2.64762867498479
30
0
41
1
10
55.4103444419063
20
-2.6666240125912
30
0
41
1
10
55.3949506325002
20
-2.67137726629653
30
0
41
1
10
55.3663589390037
20
-2.67164052240159
30
0
41
1
10
55.3531556824732
20
-2.66715671687842
30
0
41
1
10
55.328893466116
20
-2.64826972681897
30
0
41
1
10
55.3181860297586
20
-2.63413076389711
30
0
41
1
10
55.2994703748877
20
-2.59656980346966
30
0
41
1
10
55.2914517159694
20
-2.57314927560674
30
0
41
1
10
55.2782313861319
20
-2.51605554178212
30
0
41
1
10
55.2732503885201
20
-2.4833121862028
30
0
41
1
10
55.2682152619456
20
-2.42799112577944
30
0
41
1
10
55.2669448436991
20
-2.40850268245879
30
0
41
1
10
55.2656810575824
20
-2.37762240994687
30
0
41
1
10
55.2653670262775
20
-2.36705384481931
30
0
41
1
10
55.264961911474
20
-2.34534646561551
30
0
41
1
10
55.2648712826161
20
-2.33417018907178
30
0
41
1
10
55.2649983872521
20
-2.27745887058901
30
0
41
1
10
55.2669172235486
20
-2.2292627974077
30
0
41
1
10
55.2726695850531
20
-2.15266439527994
30
0
41
1
10
55.2750703132694
20
-2.12640885010904
30
0
41
1
10
55.2794601495171
20
-2.0858776110972
30
0
41
1
10
55.2810587698928
20
-2.07215403781541
30
0
41
1
10
55.2844818543073
20
-2.04470708107738
30
0
41
1
10
55.2863108953464
20
-2.03093770903911
30
0
41
1
10
55.2960456490449
20
-1.96186606852359
30
0
41
1
10
55.3056981420321
20
-1.90589665175256
30
0
41
1
10
55.3203424739399
20
-1.83504660686265
30
0
41
1
10
55.3234117707746
20
-1.8207892044625
30
0
41
1
10
55.3297404942042
20
-1.79254183581557
30
0
41
1
10
55.3395367223362
20
-1.75048044273487
30
0
41
1
10
55.3573672612183
20
-1.68188874642894
30
0
41
1
10
55.3732581383366
20
-1.6286030352195
30
0
41
1
10
55.3858116193329
20
-1.58924351445788
30
0
41
1
10
55.3900990055368
20
-1.57623790056189
30
0
41
1
10
55.3987816598207
20
-1.55074185746108
30
0
41
1
10
55.4031896115328
20
-1.53821101947395
30
0
41
1
10
55.425558666038
20
-1.47661075144597
30
0
41
1
10
55.4445013620733
20
-1.4306729767558
30
0
41
1
10
55.4744937238038
20
-1.36655794121231
30
0
41
1
10
55.4846211690628
20
-1.34628009232381
30
0
41
1
10
55.5050585115594
20
-1.30789540799958
30
0
41
1
10
55.5257004670508
20
-1.27163439657355
30
0
41
1
10
55.5467352208181
20
-1.23943918658964
30
0
41
1
10
55.5626531091638
20
-1.21679142187927
30
0
41
1
10
55.5679817486973
20
-1.20949535881303
30
0
41
1
10
55.5785905012419
20
-1.19552246201411
30
0
41
1
10
55.5838825707778
20
-1.18882824259018
30
0
41
1
10
55.6102804459339
20
-1.15677304256499
30
0
41
1
10
55.6312023029096
20
-1.13562204738483
30
0
41
1
10
55.6570582764024
20
-1.11448343658111
30
0
41
1
10
55.6622144369624
20
-1.11052300509456
30
0
41
1
10
55.6724945293247
20
-1.10313773840741
30
0
41
1
10
55.6776206393515
20
-1.09971280822273
30
0
41
1
10
55.6928221946241
20
-1.09031772653833
30
0
41
1
10
55.7027636414415
20
-1.08519308980766
30
0
41
1
10
55.7320013505897
20
-1.07311248334707
30
0
41
1
10
55.7507167920811
20
-1.06942181852995
30
0
41
1
10
55.773029135155
20
-1.07029525052917
30
0
41
1
10
55.7774370405289
20
-1.07074653358046
30
0
41
1
10
55.7861389401664
20
-1.07221250634893
30
0
41
1
10
55.7904342466899
20
-1.07322924109013
30
0
41
1
10
55.8030296847036
20
-1.07710217717155
30
0
41
1
10
55.8110790787374
20
-1.08078379445763
30
0
41
1
10
55.8341618030648
20
-1.09509646332725
30
0
41
1
10
55.8481400294621
20
-1.10896324119395
30
0
41
1
10
55.8667320952978
20
-1.13667286359427
30
0
41
1
10
55.8725368521702
20
-1.14708074355261
30
0
41
1
10
55.8832465598545
20
-1.17034635910889
30
0
41
1
10
55.888079407399
20
-1.18304458983206
30
0
41
1
10
55.9009726995307
20
-1.22437237652179
30
0
41
1
10
55.9074451777783
20
-1.25619603459418
30
0
41
1
10
55.9125287006965
20
-1.30194917647305
30
0
41
1
10
55.9133956006931
20
-1.31143107389809
30
0
41
1
10
55.9148009616634
20
-1.33087712530363
30
0
41
1
10
55.9164139917199
20
-1.36070597844485
30
0
41
1
10
55.9166415404004
20
-1.41370234275033
30
0
41
1
10
55.9141643191693
20
-1.45966626324846
30
0
41
1
10
55.9112683403931
20
-1.49554671556851
30
0
41
1
10
55.9101297050401
20
-1.50774193335053
30
0
41
1
10
55.9074949319718
20
-1.53262075203094
30
0
41
1
10
55.9059918434165
20
-1.54535459748581
30
0
41
1
10
55.8976531098914
20
-1.60952259470039
30
0
41
1
10
55.8883890834222
20
-1.66249109695207
30
0
41
1
10
55.8737357119976
20
-1.73075371323407
30
0
41
1
10
55.8706499414628
20
-1.74450989741533
30
0
41
1
10
55.8641666331989
20
-1.77223420654172
30
0
41
1
10
55.8607562135612
20
-1.78625193361606
30
0
41
1
10
55.8501727305415
20
-1.82815932891884
30
0
41
1
10
55.8351200945767
20
-1.88371140773606
30
0
41
1
10
55.8183358813843
20
-1.93866339446498
30
0
41
1
10
55.8051315573776
20
-1.97966258138683
30
0
41
1
10
55.8006271897602
20
-1.99329309651156
30
0
41
1
10
55.791415428395
20
-2.02048313614526
30
0
41
1
10
55.786721582851
20
-2.03400086934903
30
0
41
1
10
55.7630304166443
20
-2.10065319013989
30
0
41
1
10
55.743195068435
20
-2.15155372408745
30
0
41
1
10
55.7123529053193
20
-2.22458533109068
30
0
41
1
10
55.701853366193
20
-2.24843865841336
30
0
41
1
10
55.6809205291339
20
-2.29413752713918
30
0
41
1
10
55.6599627828264
20
-2.3380580305402
30
0
41
1
10
55.6389796047333
20
-2.37859826340448
30
0
41
1
10
55.6179902724179
20
-2.41748212441163
30
0
41
1
10
55.6074529973363
20
-2.43615979068608
30
0
41
1
10
55.5866422820943
20
-2.47139884188229
30
0
41
1
10
55.5763554252775
20
-2.48799218163174
30
0
41
1
10
55.5610951025738
20
-2.51138851405369
30
0
41
1
10
55.55603667468
20
-2.51893786346705
30
0
41
1
10
55.5459754159037
20
-2.53353980999233
30
0
41
1
10
55.5409598413079
20
-2.54060983206435
30
0
41
1
10
55.5359970619647
20
-2.54739592980586
30
0
0
SPLINE
5
D9
100
AcDbEntity
8
1
62
256
6
ByLayer
370
18
48
1
60
0
100
AcDbSpline
70
4
71
3
72
13
73
9
40
0
40
0
40
0
40
0
40
0.500000000000008
40
0.500000000000008
40
0.625000000000006
40
0.625000000000006
40
0.750000000000004
40
1
40
1
40
1
40
1
41
1
10
55.3133699543145
20
-4.67435133147276
30
0
41
1
10
55.2757442224663
20
-4.73019809300857
30
0
41
1
10
55.2411529586363
20
-4.77733323202497
30
0
41
1
10
55.2017051819965
20
-4.82406744238418
30
0
41
1
10
55.19399620325
20
-4.83281039172019
30
0
41
1
10
55.1791197437551
20
-4.84886727435261
30
0
41
1
10
55.1575524543066
20
-4.87088902490734
30
0
41
1
10
55.1381261196616
20
-4.8868335153181
30
0
41
1
10
55.1260441518889
20
-4.89483990957669
30
0
0
SPLINE
5
DA
100
AcDbEntity
8
1
62
256
6
ByLayer
370
18
48
1
60
0
100
AcDbSpline
70
4
71
3
72
29
73
25
40
0
40
0
40
0
40
0
40
0.124999999999992
40
0.124999999999992
40
0.249999999999983
40
0.249999999999983
40
0.312499999999979
40
0.312499999999979
40
0.343749999999979
40
0.343749999999979
40
0.374999999999979
40
0.374999999999979
40
0.499999999999966
40
0.499999999999966
40
0.515624999999966
40
0.515624999999966
40
0.531249999999965
40
0.531249999999965
40
0.562499999999964
40
0.624999999999967
40
0.624999999999967
40
0.749999999999976
40
0.749999999999976
40
1
40
1
40
1
40
1
41
1
10
56.4777932211706
20
-1.67964821196901
30
0
41
1
10
56.4190641258401
20
-1.78851812122514
30
0
41
1
10
56.3621373336802
20
-1.90067432137434
30
0
41
1
10
56.2514551072696
20
-2.13137873907229
30
0
41
1
10
56.1976993333986
20
-2.24992457749553
30
0
41
1
10
56.1190920031436
20
-2.43246314104755
30
0
41
1
10
56.0932275787635
20
-2.49409847103752
30
0
41
1
10
56.0548936687858
20
-2.58774385325475
30
0
41
1
10
56.04219279453
20
-2.61915778857878
30
0
41
1
10
56.0169371928307
20
-2.68238453067468
30
0
41
1
10
56.0043906869471
20
-2.71417798075893
30
0
41
1
10
55.9423835286253
20
-2.87314780661373
30
0
41
1
10
55.8947853472242
20
-3.00109607333437
30
0
41
1
10
55.8430239760924
20
-3.14573341227245
30
0
41
1
10
55.8372971914589
20
-3.16181375751918
30
0
41
1
10
55.8258902881883
20
-3.19399265022946
30
0
41
1
10
55.8202152650743
20
-3.21009318165253
30
0
41
1
10
55.8032103347482
20
-3.25840271849421
30
0
41
1
10
55.7692418096202
20
-3.35503827549212
30
0
41
1
10
55.7353931734624
20
-3.45172192178274
30
0
41
1
10
55.6678443858102
20
-3.64514961269319
30
0
41
1
10
55.6230329721359
20
-3.77412016231492
30
0
41
1
10
55.4892738857002
20
-4.16072207869394
30
0
41
1
10
55.4009601235963
20
-4.41819077625416
30
0
41
1
10
55.3133699543144
20
-4.67435133147299
30
0
0
SPLINE
5
DB
100
AcDbEntity
8
1
62
256
6
ByLayer
370
18
48
1
60
0
100
AcDbSpline
70
4
71
3
72
8
73
4
40
0
40
0
40
0
40
0
40
1
40
1
40
1
40
1
41
1
10
56.4777932211706
20
-1.67964821196901
30
0
41
1
10
56.6154832625975
20
-1.29453985573261
30
0
41
1
10
56.7519996397234
20
-0.909019000890254
30
0
41
1
10
56.8873180669335
20
-0.523077111966899
30
0
0
SPLINE
5
DC
100
AcDbEntity
8
1
62
256
6
ByLayer
370
18
48
1
60
0
100
AcDbSpline
70
4
71
3
72
8
73
4
40
0
40
0
40
0
40
0
40
1
40
1
40
1
40
1
41
1
10
56.8873180669335
20
-0.523077111966899
30
0
41
1
10
56.9235050954748
20
-0.419868033664017
30
0
41
1
10
56.9604053620405
20
-0.317054721584697
30
0
41
1
10
56.9980173044378
20
-0.214623134072923
30
0
0
SPLINE
5
DD
100
AcDbEntity
8
1
62
256
6
ByLayer
370
18
48
1
60
0
100
AcDbSpline
70
4
71
3
72
8
73
4
40
0
40
0
40
0
40
0
40
1
40
1
40
1
40
1
41
1
10
56.998017304438
20
0.214623134067949
30
0
41
1
10
57.0006559762226
20
0.0718074594769575
30
0
41
1
10
57.0006658392157
20
-0.0712736340813649
30
0
41
1
10
56.9980173044379
20
-0.214623134072866
30
0
0
SPLINE
5
DE
100
AcDbEntity
8
1
62
256
6
ByLayer
370
18
48
1
60
0
100
AcDbSpline
70
4
71
3
72
56
73
52
40
0
40
0
40
0
40
0
40
0.0625000000000248
40
0.0625000000000248
40
0.0937500000000345
40
0.0937500000000345
40
0.125000000000044
40
0.125000000000044
40
0.187500000000064
40
0.187500000000064
40
0.250000000000083
40
0.250000000000083
40
0.281250000000093
40
0.296875000000094
40
0.296875000000094
40
0.312500000000096
40
0.312500000000096
40
0.375000000000102
40
0.375000000000102
40
0.437500000000108
40
0.437500000000108
40
0.453125000000109
40
0.453125000000109
40
0.468750000000111
40
0.468750000000111
40
0.500000000000114
40
0.500000000000114
40
0.562500000000113
40
0.562500000000113
40
0.593750000000111
40
0.593750000000111
40
0.609375000000106
40
0.609375000000106
40
0.625000000000102
40
0.625000000000102
40
0.687500000000079
40
0.687500000000079
40
0.718750000000066
40
0.734375000000061
40
0.734375000000061
40
0.750000000000057
40
0.750000000000057
40
0.812500000000043
40
0.812500000000043
40
0.875000000000029
40
0.875000000000029
40
0.906250000000022
40
0.906250000000022
40
0.937500000000014
40
0.937500000000014
40
1
40
1
40
1
40
1
41
1
10
56.9980173044356
20
0.214623134066159
30
0
41
1
10
56.9794220179893
20
0.160731777547596
30
0
41
1
10
56.9598328361138
20
0.107310115774851
30
0
41
1
10
56.9289618104382
20
0.0278897509148806
30
0
41
1
10
56.9184229815276
20
0.0015352770541313
30
0
41
1
10
56.8968406643087
20
-0.050930439402805
30
0
41
1
10
56.8857729724257
20
-0.0770972282046216
30
0
41
1
10
56.8519522209868
20
-0.154851451786158
30
0
41
1
10
56.828875838871
20
-0.205038272872628
30
0
41
1
10
56.7817461057047
20
-0.302126076734965
30
0
41
1
10
56.7576929053853
20
-0.34902791749721
30
0
41
1
10
56.7208927151296
20
-0.416804926565391
30
0
41
1
10
56.7023117483725
20
-0.450047496634142
30
0
41
1
10
56.6834538065324
20
-0.482278833865848
30
0
41
1
10
56.6708190191083
20
-0.503535188687636
30
0
41
1
10
56.6644759069994
20
-0.514037375785591
30
0
41
1
10
56.6328892069411
20
-0.565493007994405
30
0
41
1
10
56.6078101255169
20
-0.603670670653912
30
0
41
1
10
56.558036779041
20
-0.674086117604247
30
0
41
1
10
56.5333425830562
20
-0.706325141661125
30
0
41
1
10
56.5027072309925
20
-0.742723813231066
30
0
41
1
10
56.4965917336467
20
-0.749807646002864
30
0
41
1
10
56.4843834811051
20
-0.763574966655227
30
0
41
1
10
56.4782790120801
20
-0.770270344030905
30
0
41
1
10
56.4601536451952
20
-0.789579294892008
30
0
41
1
10
56.4482829465897
20
-0.801462079412602
30
0
41
1
10
56.4132793928494
20
-0.83420724264468
30
0
41
1
10
56.3907534528607
20
-0.852179055350035
30
0
41
1
10
56.3580929352259
20
-0.873371652437555
30
0
41
1
10
56.3473945913103
20
-0.879471797021438
30
0
41
1
10
56.3316226106721
20
-0.887149632798128
30
0
41
1
10
56.3264008782056
20
-0.889467245139315
30
0
41
1
10
56.3161033968963
20
-0.893583161273966
30
0
41
1
10
56.3110323421683
20
-0.895380724227664
30
0
41
1
10
56.2860518226101
20
-0.903093074011167
30
0
41
1
10
56.2672617011569
20
-0.905198047704232
30
0
41
1
10
56.2406699917572
20
-0.902552960274363
30
0
41
1
10
56.2277739750218
20
-0.899774836984164
30
0
41
1
10
56.2154521973564
20
-0.894827997299075
30
0
41
1
10
56.2073631426332
20
-0.891047231744039
30
0
41
1
10
56.2033744488216
20
-0.888911041814708
30
0
41
1
10
56.1838428752054
20
-0.877084971329225
30
0
41
1
10
56.1695234444635
20
-0.863992834346817
30
0
41
1
10
56.143147422447
20
-0.831126853520885
30
0
41
1
10
56.1310924590602
20
-0.811349611328609
30
0
41
1
10
56.1145493365335
20
-0.776867236088435
30
0
41
1
10
56.1092831541896
20
-0.764539531751865
30
0
41
1
10
56.0993323541876
20
-0.738520460464827
30
0
41
1
10
56.0946380247253
20
-0.724814269752613
30
0
41
1
10
56.0813478858705
20
-0.681685368055838
30
0
41
1
10
56.0735417078876
20
-0.650258361107348
30
0
41
1
10
56.0666999771303
20
-0.616285937404683
30
0
0
SPLINE
5
DF
100
AcDbEntity
8
1
62
256
6
ByLayer
370
18
48
1
60
0
100
AcDbSpline
70
4
71
3
72
8
73
4
40
0
40
0
40
0
40
0
40
1
40
1
40
1
40
1
41
1
10
56.0666999771303
20
-0.616285937404712
30
0
41
1
10
55.9806702949855
20
-0.189107944514205
30
0
41
1
10
55.8709318235033
20
0.25237114328371
30
0
41
1
10
55.7371865530614
20
0.708331084804797
30
0
0
SPLINE
5
E0
100
AcDbEntity
8
1
62
256
6
ByLayer
370
18
48
1
60
0
100
AcDbSpline
70
4
71
3
72
20
73
16
40
0
40
0
40
0
40
0
40
0.250000000000003
40
0.250000000000003
40
0.500000000000005
40
0.500000000000005
40
0.625000000000001
40
0.625000000000001
40
0.749999999999997
40
0.749999999999997
40
0.874999999999993
40
0.874999999999993
40
0.937499999999996
40
0.937499999999996
40
1
40
1
40
1
40
1
41
1
10
55.1495262749848
20
0.461745740630903
30
0
41
1
10
55.1981025518015
20
0.497453221059942
30
0
41
1
10
55.2470004427485
20
0.529469641346594
30
0
41
1
10
55.3451924374571
20
0.58637006846169
30
0
41
1
10
55.3944837039179
20
0.61117218729126
30
0
41
1
10
55.4685056440677
20
0.642770404217345
30
0
41
1
10
55.493195086948
20
0.652388636068224
30
0
41
1
10
55.5425502711682
20
0.669498940967344
30
0
41
1
10
55.5671521711365
20
0.676942077759435
30
0
41
1
10
55.6161134417606
20
0.689464772460354
30
0
41
1
10
55.6404696239879
20
0.694488326119938
30
0
41
1
10
55.6768065060084
20
0.700340774788742
30
0
41
1
10
55.6889127207753
20
0.702202146815551
30
0
41
1
10
55.7131035904661
20
0.70569377509463
30
0
41
1
10
55.7251669930073
20
0.70717533537595
30
0
41
1
10
55.737186553061
20
0.708331084804286
30
0
0
SPLINE
5
E1
100
AcDbEntity
8
1
62
256
6
ByLayer
370
18
48
1
60
0
100
AcDbSpline
70
4
71
3
72
24
73
20
40
0
40
0
40
0
40
0
40
0.500000000000024
40
0.500000000000024
40
0.750000000000072
40
0.750000000000072
40
0.875000000000064
40
0.875000000000064
40
0.937500000000021
40
0.937500000000021
40
0.968750000000003
40
0.968750000000003
40
0.984374999999998
40
0.984374999999998
40
0.992187499999995
40
0.992187499999995
40
0.996093749999998
40
0.996093749999998
40
1
40
1
40
1
40
1
41
1
10
55.0614850225682
20
-5.09980021958702
30
0
41
1
10
55.0830576190183
20
-5.06455184634473
30
0
41
1
10
55.1046695961765
20
-5.02911909067248
30
0
41
1
10
55.1370305338947
20
-4.97595243909694
30
0
41
1
10
55.147791208414
20
-4.9582634371651
30
0
41
1
10
55.1639616366941
20
-4.93162850530842
30
0
41
1
10
55.1693616680514
20
-4.92272256565539
30
0
41
1
10
55.1774963686766
20
-4.90927946249008
30
0
41
1
10
55.1802235649925
20
-4.90476305389228
30
0
41
1
10
55.1842744641125
20
-4.89807298451188
30
0
41
1
10
55.1856135342986
20
-4.89586688541465
30
0
41
1
10
55.1875977760903
20
-4.89260842262786
30
0
41
1
10
55.1882718335911
20
-4.89149575882172
30
0
41
1
10
55.189318943182
20
-4.88974565442129
30
0
41
1
10
55.1896712030258
20
-4.88915514997154
30
0
41
1
10
55.190183690928
20
-4.88830498838229
30
0
41
1
10
55.1903531291121
20
-4.88802531274214
30
0
41
1
10
55.1906633109777
20
-4.88752375023418
30
0
41
1
10
55.1908083365703
20
-4.88729653817433
30
0
41
1
10
55.1908637238401
20
-4.88723020899357
30
0
0
SPLINE
5
E2
100
AcDbEntity
8
1
62
256
6
ByLayer
370
18
48
1
60
0
100
AcDbSpline
70
4
71
3
72
46
73
42
40
0
40
0
40
0
40
0
40
0.0449437996520444
40
0.0449437996520444
40
0.101123576143099
40
0.101123576143099
40
0.157303352634154
40
0.157303352634154
40
0.213483129125208
40
0.213483129125208
40
0.269662905616263
40
0.269662905616263
40
0.325842682107318
40
0.325842682107318
40
0.353932570352846
40
0.353932570352846
40
0.382022458598375
40
0.382022458598375
40
0.438202235089431
40
0.438202235089431
40
0.494382011580488
40
0.494382011580488
40
0.550561788071545
40
0.550561788071545
40
0.606741564562601
40
0.606741564562601
40
0.662921341053658
40
0.662921341053658
40
0.719101117544715
40
0.719101117544715
40
0.775280894035771
40
0.775280894035771
40
0.803370782281301
40
0.803370782281301
40
0.83146067052683
40
0.83146067052683
40
0.887640447017887
40
0.887640447017887
40
0.943820223508943
40
0.943820223508943
40
1
40
1
40
1
40
1
41
1
10
41.6155088930174
20
-1.37296804207136
30
0
41
1
10
41.3603782715481
20
-1.2577896106487
30
0
41
1
10
41.1052293386759
20
-1.14139034502895
30
0
41
1
10
40.5312776730013
20
-0.877384769244571
30
0
41
1
10
40.2123533630366
20
-0.729191280502874
30
0
41
1
10
39.5745712692228
20
-0.431447834180744
30
0
41
1
10
39.2557750814875
20
-0.281903458512431
30
0
41
1
10
38.6180230835625
20
0.0177930453882027
30
0
41
1
10
38.299005172082
20
0.168020915574488
30
0
41
1
10
37.6614394318307
20
0.467323429540073
30
0
41
1
10
37.342908573062
20
0.616341418273066
30
0
41
1
10
36.7059101112509
20
0.912211819782385
30
0
41
1
10
36.3874753449843
20
1.05913610864633
30
0
41
1
10
35.9094869417734
20
1.27711654410228
30
0
41
1
10
35.7500611642236
20
1.34937516159252
30
0
41
1
10
35.431185435257
20
1.4928618116281
30
0
41
1
10
35.2717727510167
20
1.56407353536247
30
0
41
1
10
34.7935327068886
20
1.77596845890662
30
0
41
1
10
34.4746511444485
20
1.9149677359602
30
0
41
1
10
33.8368545175717
20
2.18736910622656
30
0
41
1
10
33.5180609973485
20
2.32065192814966
30
0
41
1
10
32.8803938528513
20
2.58014412449944
30
0
41
1
10
32.5613940387907
20
2.70643341619319
30
0
41
1
10
31.923709852533
20
2.9510409548507
30
0
41
1
10
31.6054115873458
20
3.06919027811026
30
0
41
1
10
30.9692400940493
20
3.29616609178336
30
0
41
1
10
30.6513818823511
20
3.40503284136301
30
0
41
1
10
30.0157456553842
20
3.61308600814723
30
0
41
1
10
29.6979829639797
20
3.71228528523238
30
0
41
1
10
29.061981331719
20
3.90012008133405
30
0
41
1
10
28.7437242055568
20
3.98873230101654
30
0
41
1
10
28.265666096836
20
4.11323560094334
30
0
41
1
10
28.106156406125
20
4.15334281602924
30
0
41
1
10
27.7873779965227
20
4.23055460918283
30
0
41
1
10
27.6280571397473
20
4.26767510275602
30
0
41
1
10
27.1501392656229
20
4.37438143416818
30
0
41
1
10
26.8315865469807
20
4.43931722253043
30
0
41
1
10
26.1941249410641
20
4.55651008229731
30
0
41
1
10
25.8751780700034
20
4.60880035537801
30
0
41
1
10
25.2375604760176
20
4.7003336887725
30
0
41
1
10
24.9186784111247
20
4.73957035282729
30
0
41
1
10
24.5997573221243
20
4.77204998828196
30
0
0
SPLINE
5
E3
100
AcDbEntity
8
1
62
256
6
ByLayer
370
18
48
1
60
0
100
AcDbSpline
70
4
71
3
72
8
73
4
40
0
40
0
40
0
40
0
40
1
40
1
40
1
40
1
41
1
10
26.522681501397
20
-4.86424167712596
30
0
41
1
10
25.9017958276865
20
-4.94391901955876
30
0
41
1
10
25.2801669110406
20
-4.99751978656204
30
0
41
1
10
24.6560832561545
20
-5.02405655674886
30
0
0
SPLINE
5
E4
100
AcDbEntity
8
1
62
256
6
ByLayer
370
18
48
1
60
0
100
AcDbSpline
70
4
71
3
72
16
73
12
40
0
40
0
40
0
40
0
40
0.24999999999989
40
0.24999999999989
40
0.374999999999975
40
0.374999999999975
40
0.500000000000059
40
0.500000000000059
40
0.75000000000003
40
0.75000000000003
40
1
40
1
40
1
40
1
41
1
10
24.6560832561545
20
-5.02405655674886
30
0
41
1
10
24.6476220003929
20
-5.02441633928422
30
0
41
1
10
24.6399283871039
20
-5.02487082080856
30
0
41
1
10
24.6295115485322
20
-5.02567641321647
30
0
41
1
10
24.6262225183698
20
-5.02596721708608
30
0
41
1
10
24.6202319260433
20
-5.02657062088369
30
0
41
1
10
24.6175020696821
20
-5.02688514141684
30
0
41
1
10
24.6101031950817
20
-5.02786309561455
30
0
41
1
10
24.6062267827137
20
-5.02856612433675
30
0
41
1
10
24.6010960427495
20
-5.02996429647985
30
0
41
1
10
24.5997573221243
20
-5.03067656873904
30
0
41
1
10
24.5997573221243
20
-5.03136793406694
30
0
0
SPLINE
5
E5
100
AcDbEntity
8
1
62
256
6
ByLayer
370
18
48
1
60
0
100
AcDbSpline
70
4
71
3
72
28
73
24
40
0
40
0
40
0
40
0
40
0.124999999999934
40
0.124999999999934
40
0.187499999999923
40
0.187499999999923
40
0.249999999999912
40
0.312499999999902
40
0.312499999999902
40
0.374999999999891
40
0.374999999999891
40
0.499999999999872
40
0.499999999999872
40
0.624999999999854
40
0.624999999999854
40
0.687499999999844
40
0.687499999999844
40
0.749999999999835
40
0.812499999999825
40
0.812499999999825
40
0.874999999999816
40
0.874999999999816
40
1
40
1
40
1
40
1
41
1
10
24.5997573221243
20
-1.41235018305304
30
0
41
1
10
24.5997573221243
20
-1.40416201611512
30
0
41
1
10
24.6008306607476
20
-1.39614384011446
30
0
41
1
10
24.6040000563462
20
-1.38436437070359
30
0
41
1
10
24.6053322854006
20
-1.38045237728852
30
0
41
1
10
24.6084787532149
20
-1.37288336830227
30
0
41
1
10
24.6120981954646
20
-1.36556422428296
30
0
41
1
10
24.6166414411124
20
-1.35873393989192
30
0
41
1
10
24.6216579994772
20
-1.35215462445996
30
0
41
1
10
24.6244060600019
20
-1.34899462150656
30
0
41
1
10
24.6331300589848
20
-1.34016296921359
30
0
41
1
10
24.6396512843804
20
-1.33502890137567
30
0
41
1
10
24.6541265533426
20
-1.32633913152705
30
0
41
1
10
24.661778008567
20
-1.32296372936383
30
0
41
1
10
24.6738570508233
20
-1.31931304065608
30
0
41
1
10
24.6780156945721
20
-1.31833044245582
30
0
41
1
10
24.6863569699023
20
-1.31689724872143
30
0
41
1
10
24.6947267284325
20
-1.31598492268446
30
0
41
1
10
24.7031521512657
20
-1.31609078202783
30
0
41
1
10
24.7116061116888
20
-1.31671862194599
30
0
41
1
10
24.7158427011158
20
-1.31729802506254
30
0
41
1
10
24.7282333886756
20
-1.31977271796609
30
0
41
1
10
24.7361963103226
20
-1.32239782357882
30
0
41
1
10
24.7438515791633
20
-1.32603011683014
30
0
0
SPLINE
5
E6
100
AcDbEntity
8
1
62
256
6
ByLayer
370
18
48
1
60
0
100
AcDbSpline
70
4
71
3
72
133
73
129
40
0
40
0
40
0
40
0
40
0.0134012236254637
40
0.0134012236254637
40
0.0321180014332616
40
0.0321180014332616
40
0.0414763903371607
40
0.0414763903371607
40
0.0508347792410599
40
0.0508347792410599
40
0.0695515570488582
40
0.0695515570488582
40
0.0882683348566565
40
0.0882683348566565
40
0.0976267237605558
40
0.0976267237605558
40
0.106985112664455
40
0.106985112664455
40
0.125701890472254
40
0.125701890472254
40
0.144418668280053
40
0.144418668280053
40
0.153777057183952
40
0.153777057183952
40
0.163135446087851
40
0.163135446087851
40
0.181852223895649
40
0.181852223895649
40
0.191210612799548
40
0.191210612799548
40
0.200569001703447
40
0.200569001703447
40
0.219285779511246
40
0.219285779511246
40
0.238002557319044
40
0.238002557319044
40
0.256719335126842
40
0.256719335126842
40
0.275436112934641
40
0.275436112934641
40
0.28479450183854
40
0.28479450183854
40
0.294152890742439
40
0.294152890742439
40
0.331586446358038
40
0.331586446358038
40
0.350303224165837
40
0.350303224165837
40
0.359661613069737
40
0.359661613069737
40
0.369020001973636
40
0.369020001973636
40
0.387736779781435
40
0.387736779781435
40
0.397095168685334
40
0.397095168685334
40
0.406453557589233
40
0.406453557589233
40
0.425170335397031
40
0.425170335397031
40
0.443887113204829
40
0.443887113204829
40
0.462603891012628
40
0.462603891012628
40
0.471962279916526
40
0.471962279916526
40
0.481320668820425
40
0.481320668820425
40
0.490679057724324
40
0.490679057724324
40
0.500037446628223
40
0.500037446628223
40
0.51875422443602
40
0.51875422443602
40
0.537471002243817
40
0.537471002243817
40
0.556187780051615
40
0.556187780051615
40
0.574904557859412
40
0.574904557859412
40
0.584262946763311
40
0.584262946763311
40
0.59362133566721
40
0.59362133566721
40
0.631054891282805
40
0.631054891282805
40
0.649771669090602
40
0.649771669090602
40
0.6684884468984
40
0.6684884468984
40
0.677846835802298
40
0.677846835802298
40
0.687205224706197
40
0.687205224706197
40
0.705922002513995
40
0.705922002513995
40
0.74335555812959
40
0.74335555812959
40
0.780789113745186
40
0.780789113745186
40
0.790147502649085
40
0.790147502649085
40
0.799505891552984
40
0.799505891552984
40
0.818222669360781
40
0.818222669360781
40
0.855656224976376
40
0.855656224976376
40
0.874373002784173
40
0.874373002784173
40
0.883731391688072
40
0.883731391688072
40
0.89308978059197
40
0.89308978059197
40
0.902448169495868
40
0.902448169495868
40
0.911806558399766
40
0.930523336207564
40
0.930523336207564
40
0.967956891823158
40
0.967956891823158
40
0.977315280727057
40
0.977315280727057
40
0.986673669630955
40
0.986673669630955
40
0.996032058534854
40
0.996032058534854
40
1
40
1
40
1
40
1
41
1
10
7.23034228247531
20
5.0137507217606
30
0
41
1
10
7.41044347197666
20
5.01407883056672
30
0
41
1
10
7.59039226094171
20
5.01214363871253
30
0
41
1
10
8.02136473897878
20
5.00210233243845
30
0
41
1
10
8.27225357984295
20
4.99184823238255
30
0
41
1
10
8.64839493148691
20
4.96988728528311
30
0
41
1
10
8.77374588846169
20
4.96147109595748
30
0
41
1
10
9.02442662598904
20
4.9424559587159
30
0
41
1
10
9.14975997857908
20
4.93185703349462
30
0
41
1
10
9.52593757226012
20
4.89687470519385
30
0
41
1
10
9.7767873106832
20
4.86924267124388
30
0
41
1
10
10.2787576679964
20
4.80539735636148
30
0
41
1
10
10.5298726199031
20
4.76917676159283
30
0
41
1
10
10.9069721335465
20
4.70849251251681
30
0
41
1
10
11.0327920474365
20
4.68719689205724
30
0
41
1
10
11.2842149940246
20
4.64257604943688
30
0
41
1
10
11.4098482769099
20
4.61924589195718
30
0
41
1
10
11.7865780174815
20
4.54625805542392
30
0
41
1
10
12.037531649601
20
4.4936286773173
30
0
41
1
10
12.5391825274307
20
4.38059983711329
30
0
41
1
10
12.7898566428302
20
4.32017585100624
30
0
41
1
10
13.16581378717
20
4.22383792908838
30
0
41
1
10
13.2911084484408
20
4.19075667843424
30
0
41
1
10
13.5417980337189
20
4.12282635911728
30
0
41
1
10
13.6672030453906
20
4.08799152654095
30
0
41
1
10
14.0434809105227
20
3.98074123162351
30
0
41
1
10
14.2944653603409
20
3.90563668987289
30
0
41
1
10
14.671275435157
20
3.78770870385657
30
0
41
1
10
14.7969356861415
20
3.74752222209378
30
0
41
1
10
15.0484118578649
20
3.66544439518668
30
0
41
1
10
15.1741167318757
20
3.62358943877524
30
0
41
1
10
15.5509451182572
20
3.49573400938081
30
0
41
1
10
15.8018749169955
20
3.40739691162025
30
0
41
1
10
16.303499779857
20
3.22507474929296
30
0
41
1
10
16.554204126777
20
3.13110839268126
30
0
41
1
10
17.0554601275546
20
2.93767374983042
30
0
41
1
10
17.3060224706852
20
2.83822032938383
30
0
41
1
10
17.8072691654916
20
2.63424363116926
30
0
41
1
10
18.0581242738955
20
2.53002343187777
30
0
41
1
10
18.4346856595339
20
2.37022376996421
30
0
41
1
10
18.5602598676902
20
2.31639120625741
30
0
41
1
10
18.8115379162948
20
2.20762947750526
30
0
41
1
10
18.9372940043183
20
2.15267353054773
30
0
41
1
10
19.5655829782871
20
1.87571363200368
30
0
41
1
10
20.0668952155279
20
1.64704442937696
30
0
41
1
10
20.8187152810798
20
1.29701994362165
30
0
41
1
10
21.0692628385861
20
1.17910890161607
30
0
41
1
10
21.4451106465222
20
1.00061396880108
30
0
41
1
10
21.5704004931046
20
0.940849882438272
30
0
41
1
10
21.8210222796673
20
0.820844373957868
30
0
41
1
10
21.9463489885978
20
0.760591815111866
30
0
41
1
10
22.3226214606873
20
0.579589044578853
30
0
41
1
10
22.5736965019462
20
0.458259476379396
30
0
41
1
10
22.9507415176062
20
0.275455218292564
30
0
41
1
10
23.076409323855
20
0.21443032179809
30
0
41
1
10
23.327520735617
20
0.0923710252073988
30
0
41
1
10
23.4530008392074
20
0.0313232648152848
30
0
41
1
10
23.8292733178888
20
-0.151752119126854
30
0
41
1
10
24.0798935034081
20
-0.273720801762323
30
0
41
1
10
24.5809680033153
20
-0.516896542381829
30
0
41
1
10
24.8314530233549
20
-0.638040637550091
30
0
41
1
10
25.332485923145
20
-0.879099858091308
30
0
41
1
10
25.5830073466918
20
-0.999068887706471
30
0
41
1
10
25.9589668750991
20
-1.17783041354616
30
0
41
1
10
26.0843046504083
20
-1.23724234191539
30
0
41
1
10
26.3351302830162
20
-1.35548410427003
30
0
41
1
10
26.4606427777662
20
-1.41426456740402
30
0
41
1
10
26.7117926939688
20
-1.53129443221326
30
0
41
1
10
26.8374948845755
20
-1.58954892555795
30
0
41
1
10
27.0887205184781
20
-1.70527850499573
30
0
41
1
10
27.2142520478535
20
-1.76275780200871
30
0
41
1
10
27.5906356028542
20
-1.93397798046073
30
0
41
1
10
27.8412822477768
20
-2.04648916049317
30
0
41
1
10
28.3423248437406
20
-2.2676775995038
30
0
41
1
10
28.5927100171728
20
-2.37637457783427
30
0
41
1
10
29.0935447296699
20
-2.58936446365146
30
0
41
1
10
29.3440099815513
20
-2.69363233555976
30
0
41
1
10
29.8451078371334
20
-2.89757918333518
30
0
41
1
10
30.0957519481423
20
-2.99723643382336
30
0
41
1
10
30.4720336924946
20
-3.14292699898513
30
0
41
1
10
30.5975442428058
20
-3.19080718976312
30
0
41
1
10
30.8487716859358
20
-3.28513687323869
30
0
41
1
10
30.9743858738232
20
-3.33158996685489
30
0
41
1
10
31.6019135854425
20
-3.55998733115399
30
0
41
1
10
32.102724964642
20
-3.73064133782444
30
0
41
1
10
32.8537333243483
20
-3.9662925707994
30
0
41
1
10
33.1040405353261
20
-4.04144771370383
30
0
41
1
10
33.6049285185184
20
-4.18455429160511
30
0
41
1
10
33.8554763986879
20
-4.25254890599595
30
0
41
1
10
34.2315631329568
20
-4.34904494843789
30
0
41
1
10
34.3569725413545
20
-4.38029062539192
30
0
41
1
10
34.6079136898153
20
-4.44090383287426
30
0
41
1
10
34.7334883888367
20
-4.47029381960272
30
0
41
1
10
35.1100766123535
20
-4.55530929765135
30
0
41
1
10
35.3608747265528
20
-4.60792617628664
30
0
41
1
10
36.1126214381851
20
-4.75356008154091
30
0
41
1
10
36.6129340725157
20
-4.83431754140608
30
0
41
1
10
37.6141296915349
20
-4.96162525975532
30
0
41
1
10
38.115144409813
20
-5.00815184060062
30
0
41
1
10
38.7427641597589
20
-5.04433521818584
30
0
41
1
10
38.8682498275827
20
-5.05046545199966
30
0
41
1
10
39.1190339061672
20
-5.06049180724563
30
0
41
1
10
39.2443962320077
20
-5.06438580267994
30
0
41
1
10
39.6203147735951
20
-5.0727418242131
30
0
41
1
10
39.8707201981406
20
-5.07387349601836
30
0
41
1
10
40.6215904218554
20
-5.06397771105748
30
0
41
1
10
41.1217004852703
20
-5.03962808550287
30
0
41
1
10
41.8729561804206
20
-4.97675435633965
30
0
41
1
10
42.1235847712356
20
-4.95142526687866
30
0
41
1
10
42.499909120069
20
-4.90686736459696
30
0
41
1
10
42.6254668105134
20
-4.89091307697248
30
0
41
1
10
42.876357293135
20
-4.85687374189641
30
0
41
1
10
43.0017164277967
20
-4.83878655582967
30
0
41
1
10
43.2522893530341
20
-4.80049587526085
30
0
41
1
10
43.3775155313573
20
-4.78029968346792
30
0
41
1
10
43.6279458559285
20
-4.73788525192748
30
0
41
1
10
44.0034700763752
20
-4.67116937708107
30
0
41
1
10
44.3787172451576
20
-4.59525429027613
30
0
41
1
10
45.1291492637148
20
-4.43141077901939
30
0
41
1
10
45.6293694054785
20
-4.30614878070907
30
0
41
1
10
46.2561089721195
20
-4.1310310648359
30
0
41
1
10
46.3815284493021
20
-4.09508045650799
30
0
41
1
10
46.6325184360634
20
-4.02132722433288
30
0
41
1
10
46.7579459977839
20
-3.98356459442394
30
0
41
1
10
47.0086238243914
20
-3.90632867104426
30
0
41
1
10
47.1338859534439
20
-3.86685215984682
30
0
41
1
10
47.3121693782121
20
-3.80944227695051
30
0
41
1
10
47.365239870119
20
-3.79219396643026
30
0
41
1
10
47.4183020517702
20
-3.77479895047529
30
0
0
SPLINE
5
E7
100
AcDbEntity
8
1
62
256
6
ByLayer
370
18
48
1
60
0
100
AcDbSpline
70
4
71
3
72
34
73
30
40
0
40
0
40
0
40
0
40
0.102257333700691
40
0.102257333700691
40
0.153386000551039
40
0.153386000551039
40
0.204514667401386
40
0.204514667401386
40
0.306772001102085
40
0.306772001102085
40
0.409029334802783
40
0.409029334802783
40
0.511286668503481
40
0.511286668503481
40
0.562415335353832
40
0.562415335353832
40
0.613544002204183
40
0.613544002204183
40
0.715801335904885
40
0.715801335904885
40
0.818058669605587
40
0.818058669605587
40
0.869187336455937
40
0.869187336455937
40
0.894751669881111
40
0.894751669881111
40
0.920316003306285
40
0.920316003306285
40
1
40
1
40
1
40
1
41
1
10
24.599757322119
20
4.91412078932075
30
0
41
1
10
24.2640015278877
20
4.95045181525285
30
0
41
1
10
23.9281794648593
20
4.97905958017236
30
0
41
1
10
23.4240317866711
20
5.01022348911476
30
0
41
1
10
23.2559071474402
20
5.01864977728107
30
0
41
1
10
22.9193849650568
20
5.03153989317153
30
0
41
1
10
22.7509627660031
20
5.0360033067881
30
0
41
1
10
22.2462671566986
20
5.04341974741487
30
0
41
1
10
21.9102140184469
20
5.04041991043295
30
0
41
1
10
21.2384723738639
20
5.01863130199504
30
0
41
1
10
20.9027794889574
20
4.99983195057288
30
0
41
1
10
20.230960736778
20
4.94662299376571
30
0
41
1
10
19.8948471984898
20
4.91222073545799
30
0
41
1
10
19.3900343292723
20
4.84901255151843
30
0
41
1
10
19.2215813894091
20
4.82598949346692
30
0
41
1
10
18.8849981355724
20
4.77619996252318
30
0
41
1
10
18.7168164527073
20
4.74943583717388
30
0
41
1
10
18.212479850828
20
4.6636454542961
30
0
41
1
10
17.876527515188
20
4.5991289186982
30
0
41
1
10
17.204704035634
20
4.45589084055149
30
0
41
1
10
16.8688564439823
20
4.37713948609147
30
0
41
1
10
16.3646212657604
20
4.24884440204858
30
0
41
1
10
16.1964600669079
20
4.20439216884762
30
0
41
1
10
15.9440452512218
20
4.13523444216756
30
0
41
1
10
15.8598783723022
20
4.11176835884976
30
0
41
1
10
15.6914797271044
20
4.06401694149284
30
0
41
1
10
15.6072302636543
20
4.03972630492839
30
0
41
1
10
15.2605675080253
20
3.93814980087578
30
0
41
1
10
14.9984356486118
20
3.85745741645888
30
0
41
1
10
14.7364531101221
20
3.77322961263158
30
0
0
SPLINE
5
E8
100
AcDbEntity
8
1
62
256
6
ByLayer
370
18
48
1
60
0
100
AcDbSpline
70
4
71
3
72
82
73
78
40
0
40
0
40
0
40
0
40
0.0624999999999995
40
0.0624999999999995
40
0.0937499999999992
40
0.0937499999999992
40
0.124999999999999
40
0.124999999999999
40
0.156249999999999
40
0.156249999999999
40
0.171874999999998
40
0.171874999999998
40
0.187499999999997
40
0.187499999999997
40
0.218749999999996
40
0.218749999999996
40
0.249999999999995
40
0.249999999999995
40
0.281249999999993
40
0.281249999999993
40
0.312499999999992
40
0.312499999999992
40
0.328124999999991
40
0.328124999999991
40
0.34374999999999
40
0.37499999999999
40
0.37499999999999
40
0.40624999999999
40
0.40624999999999
40
0.43749999999999
40
0.43749999999999
40
0.468749999999989
40
0.468749999999989
40
0.484374999999989
40
0.484374999999989
40
0.499999999999988
40
0.499999999999988
40
0.531249999999988
40
0.531249999999988
40
0.562499999999987
40
0.562499999999987
40
0.593749999999987
40
0.593749999999987
40
0.624999999999987
40
0.624999999999987
40
0.640624999999987
40
0.640624999999987
40
0.656249999999988
40
0.656249999999988
40
0.671874999999988
40
0.671874999999988
40
0.687499999999989
40
0.687499999999989
40
0.718749999999988
40
0.718749999999988
40
0.749999999999988
40
0.749999999999988
40
0.781249999999988
40
0.781249999999988
40
0.796874999999988
40
0.796874999999988
40
0.812499999999989
40
0.812499999999989
40
0.828124999999989
40
0.828124999999989
40
0.843749999999989
40
0.843749999999989
40
0.85937499999999
40
0.85937499999999
40
0.87499999999999
40
0.906249999999992
40
0.906249999999992
40
0.921874999999994
40
0.921874999999994
40
0.937499999999995
40
0.937499999999995
40
1
40
1
40
1
40
1
41
1
10
24.5997573221243
20
4.93494214032151
30
0
41
1
10
25.2351384303522
20
4.87204851669406
30
0
41
1
10
25.8705191745703
20
4.7813889466693
30
0
41
1
10
26.8233345724098
20
4.60607706818246
30
0
41
1
10
27.1410146010777
20
4.54108186738489
30
0
41
1
10
27.7762313680852
20
4.39861748430712
30
0
41
1
10
28.0939768581867
20
4.32110474818774
30
0
41
1
10
28.7289325762312
20
4.15430637939198
30
0
41
1
10
29.0462298684923
20
4.06500426018198
30
0
41
1
10
29.5222689051071
20
3.92262567757558
30
0
41
1
10
29.6809643976672
20
3.87376233610874
30
0
41
1
10
29.9984508736972
20
3.77330515314148
30
0
41
1
10
30.1572702202244
20
3.72170146590011
30
0
41
1
10
30.633579816216
20
3.56304884128022
30
0
41
1
10
30.9510781136367
20
3.45210622982472
30
0
41
1
10
31.5861398847599
20
3.2207874790252
30
0
41
1
10
31.9035675580324
20
3.10046372557881
30
0
41
1
10
32.5386770689629
20
2.85137177427228
30
0
41
1
10
32.8561063480923
20
2.72271415580246
30
0
41
1
10
33.4911939295533
20
2.45800327221877
30
0
41
1
10
33.8086565314973
20
2.32201954617673
30
0
41
1
10
34.2848898013585
20
2.11333904270771
30
0
41
1
10
34.4436629590934
20
2.04298550029068
30
0
41
1
10
34.7610276374233
20
1.90094503548599
30
0
41
1
10
35.2369050233326
20
1.68584026053665
30
0
41
1
10
35.7125647237593
20
1.46516214869263
30
0
41
1
10
36.3471133482983
20
1.16699905398392
30
0
41
1
10
36.6646181447349
20
1.015924717529
30
0
41
1
10
37.2993818079444
20
0.711436979149056
30
0
41
1
10
37.6168519831457
20
0.557927173637239
30
0
41
1
10
38.2516295207776
20
0.249815170229596
30
0
41
1
10
38.5690870388988
20
0.0951256431015111
30
0
41
1
10
39.0451444846167
20
-0.136839113746049
30
0
41
1
10
39.2038133877691
20
-0.214150498364859
30
0
41
1
10
39.5211801176856
20
-0.368624043970328
30
0
41
1
10
39.6799031895023
20
-0.445798368478904
30
0
41
1
10
40.1558109526495
20
-0.676704648984355
30
0
41
1
10
40.4728448622298
20
-0.829874293417021
30
0
41
1
10
41.1069618680803
20
-1.13361231661841
30
0
41
1
10
41.4240732042372
20
-1.28419288365325
30
0
41
1
10
42.0587596240828
20
-1.5816331157711
30
0
41
1
10
42.3759677756201
20
-1.72831945731221
30
0
41
1
10
43.0106296992552
20
-2.0166253760795
30
0
41
1
10
43.3280012098171
20
-2.15820432414037
30
0
41
1
10
43.80390704903
20
-2.36577188754612
30
0
41
1
10
43.9625273539246
20
-2.43416730566733
30
0
41
1
10
44.2797981726602
20
-2.56926062228482
30
0
41
1
10
44.4384645684704
20
-2.63596482399234
30
0
41
1
10
44.7557101330665
20
-2.76748726063732
30
0
41
1
10
44.9143086341835
20
-2.83231384626149
30
0
41
1
10
45.2315218957557
20
-2.95998556444255
30
0
41
1
10
45.3901601707584
20
-3.02283971703392
30
0
41
1
10
45.8659979146217
20
-3.20818218182612
30
0
41
1
10
46.1831278123056
20
-3.32745325679892
30
0
41
1
10
46.8175888018249
20
-3.55651186305599
30
0
41
1
10
47.1346852032809
20
-3.66621405431039
30
0
41
1
10
47.7691347707253
20
-3.8752086397192
30
0
41
1
10
48.0862771261141
20
-3.97442666240181
30
0
41
1
10
48.5620678469857
20
-4.11482318935472
30
0
41
1
10
48.7206873474245
20
-4.16022042884145
30
0
41
1
10
49.0378387092724
20
-4.24808328115822
30
0
41
1
10
49.19639418767
20
-4.29055596213206
30
0
41
1
10
49.5135276532454
20
-4.37251098221779
30
0
41
1
10
49.6721271797875
20
-4.41199816739089
30
0
41
1
10
49.9892474298058
20
-4.48786953406415
30
0
41
1
10
50.1477803281324
20
-4.52425725165969
30
0
41
1
10
50.4648581988961
20
-4.59387176309116
30
0
41
1
10
50.6234343366492
20
-4.62710463687375
30
0
41
1
10
50.9405117235128
20
-4.69031563416416
30
0
41
1
10
51.4159270223298
20
-4.78023533471057
30
0
41
1
10
51.8910461572264
20
-4.85524413803449
30
0
41
1
10
52.3663673394975
20
-4.92005445681866
30
0
41
1
10
52.5248412881055
20
-4.93995856589115
30
0
41
1
10
52.8419207084895
20
-4.97632975794497
30
0
41
1
10
53.0005001787581
20
-4.9927929058922
30
0
41
1
10
53.7931857980957
20
-5.06637753237285
30
0
41
1
10
54.4274351555366
20
-5.09733457134377
30
0
41
1
10
55.0614850225682
20
-5.09980021958705
30
0
0
SPLINE
5
E9
100
AcDbEntity
8
1
62
256
6
ByLayer
370
18
48
1
60
0
100
AcDbSpline
70
4
71
3
72
10
73
6
40
0
40
0
40
0
40
0
40
0.5
40
0.5
40
1
40
1
40
1
40
1
41
1
10
55.0247830873302
20
-5.0579832819364
30
0
41
1
10
55.0308838559358
20
-5.07143740603277
30
0
41
1
10
55.0369893993095
20
-5.08165671076907
30
0
41
1
10
55.0492285897587
20
-5.09561303567358
30
0
41
1
10
55.0553656443993
20
-5.09934082434549
30
0
41
1
10
55.0614850225682
20
-5.09980021958705
30
0
0
SPLINE
5
EA
100
AcDbEntity
8
1
62
256
6
ByLayer
370
18
48
1
60
0
100
AcDbSpline
70
4
71
3
72
16
73
12
40
0
40
0
40
0
40
0
40
0.2500000000001
40
0.2500000000001
40
0.37500000000015
40
0.37500000000015
40
0.5000000000002
40
0.5000000000002
40
0.7500000000001
40
0.7500000000001
40
1
40
1
40
1
40
1
41
1
10
24.6560832561545
20
5.02405655674886
30
0
41
1
10
24.6476220003929
20
5.02441633928422
30
0
41
1
10
24.6399283871039
20
5.02487082080856
30
0
41
1
10
24.6295115485323
20
5.02567641321647
30
0
41
1
10
24.6262225183698
20
5.02596721708608
30
0
41
1
10
24.6202319260433
20
5.02657062088369
30
0
41
1
10
24.6175020696821
20
5.02688514141684
30
0
41
1
10
24.6101031950817
20
5.02786309561455
30
0
41
1
10
24.6062267827137
20
5.02856612433672
30
0
41
1
10
24.6010960427495
20
5.02996429647985
30
0
41
1
10
24.5997573221243
20
5.03067656873904
30
0
41
1
10
24.5997573221243
20
5.03136793406694
30
0
0
SPLINE
5
EB
100
AcDbEntity
8
1
62
256
6
ByLayer
370
18
48
1
60
0
100
AcDbSpline
70
4
71
3
72
8
73
4
40
0
40
0
40
0
40
0
40
1
40
1
40
1
40
1
41
1
10
55.051572957641
20
-0.20561513859181
30
0
41
1
10
55.0787071080205
20
0.0168671763028669
30
0
41
1
10
55.1109170285923
20
0.239373600458805
30
0
41
1
10
55.1495262749795
20
0.461745740630931
30
0
0
SPLINE
5
EC
100
AcDbEntity
8
1
62
256
6
ByLayer
370
18
48
1
60
0
100
AcDbSpline
70
4
71
3
72
34
73
30
40
0
40
0
40
0
40
0
40
0.0975229189080511
40
0.0975229189080511
40
0.195045837816102
40
0.195045837816102
40
0.243807297270128
40
0.243807297270128
40
0.292568756724153
40
0.292568756724153
40
0.390091675632206
40
0.390091675632206
40
0.48761459454026
40
0.48761459454026
40
0.536376053994285
40
0.536376053994285
40
0.585137513448311
40
0.585137513448311
40
0.682660432356362
40
0.682660432356362
40
0.780183351264413
40
0.780183351264413
40
0.828944810718439
40
0.828944810718439
40
0.877706270172466
40
0.877706270172466
40
0.975229189080517
40
0.975229189080517
40
1
40
1
40
1
40
1
41
1
10
7.01595893402069
20
-5.012291497934
30
0
41
1
10
7.26767142866603
20
-5.01525930244657
30
0
41
1
10
7.51906598110259
20
-5.01380548269969
30
0
41
1
10
8.02136473897878
20
-5.00210233243845
30
0
41
1
10
8.27225357984295
20
-4.99184823238255
30
0
41
1
10
8.64839493148691
20
-4.96988728528311
30
0
41
1
10
8.77374588846166
20
-4.96147109595748
30
0
41
1
10
9.02442662598901
20
-4.9424559587159
30
0
41
1
10
9.14975997857906
20
-4.93185703349462
30
0
41
1
10
9.52593757226009
20
-4.89687470519385
30
0
41
1
10
9.7767873106832
20
-4.86924267124391
30
0
41
1
10
10.2787576679964
20
-4.80539735636151
30
0
41
1
10
10.5298726199031
20
-4.76917676159286
30
0
41
1
10
10.9069721335465
20
-4.70849251251681
30
0
41
1
10
11.0327920474365
20
-4.68719689205724
30
0
41
1
10
11.2842149940246
20
-4.64257604943691
30
0
41
1
10
11.4098482769099
20
-4.61924589195718
30
0
41
1
10
11.7865780174815
20
-4.54625805542392
30
0
41
1
10
12.0375316496009
20
-4.4936286773173
30
0
41
1
10
12.5391825274307
20
-4.38059983711329
30
0
41
1
10
12.7898566428302
20
-4.32017585100624
30
0
41
1
10
13.16581378717
20
-4.22383792908838
30
0
41
1
10
13.2911084484408
20
-4.19075667843424
30
0
41
1
10
13.541798033719
20
-4.12282635911728
30
0
41
1
10
13.6672030453907
20
-4.08799152654095
30
0
41
1
10
14.0434809105227
20
-3.98074123162351
30
0
41
1
10
14.2944653603408
20
-3.90563668987292
30
0
41
1
10
14.6094785558839
20
-3.80704890201432
30
0
41
1
10
14.6732997168313
20
-3.78685341005638
30
0
41
1
10
14.7371383051685
20
-3.76643479754003
30
0
0
SPLINE
5
ED
100
AcDbEntity
8
1
62
256
6
ByLayer
370
18
48
1
60
0
100
AcDbSpline
70
4
71
3
72
55
73
51
40
0
40
0
40
0
40
0
40
0.0207119533353358
40
0.0207119533353358
40
0.118640758001805
40
0.118640758001805
40
0.167605160335039
40
0.167605160335039
40
0.192087361501656
40
0.192087361501656
40
0.216569562668271
40
0.216569562668271
40
0.241051763834887
40
0.241051763834887
40
0.265533965001504
40
0.314498367334738
40
0.314498367334738
40
0.412427172001205
40
0.412427172001205
40
0.43690937316782
40
0.43690937316782
40
0.461391574334436
40
0.461391574334436
40
0.485873775501051
40
0.485873775501051
40
0.510355976667667
40
0.510355976667667
40
0.5593203790009
40
0.5593203790009
40
0.608284781334133
40
0.608284781334133
40
0.657249183667366
40
0.657249183667366
40
0.681731384833983
40
0.681731384833983
40
0.706213586000599
40
0.706213586000599
40
0.755177988333835
40
0.755177988333835
40
0.779660189500451
40
0.779660189500451
40
0.804142390667068
40
0.804142390667068
40
0.853106793000301
40
0.853106793000301
40
0.902071195333534
40
0.902071195333534
40
0.951035597666767
40
0.951035597666767
40
1
40
1
40
1
40
1
41
1
10
39.8033231467686
20
5.07238204645358
30
0
41
1
10
39.9092441161732
20
5.0725728098322
30
0
41
1
10
40.0151375141816
20
5.0719702074619
30
0
41
1
10
40.6215904218554
20
5.06397771105748
30
0
41
1
10
41.1217004852703
20
5.03962808550287
30
0
41
1
10
41.8729561804206
20
4.97675435633965
30
0
41
1
10
42.1235847712356
20
4.95142526687863
30
0
41
1
10
42.499909120069
20
4.90686736459696
30
0
41
1
10
42.6254668105134
20
4.89091307697251
30
0
41
1
10
42.876357293135
20
4.85687374189641
30
0
41
1
10
43.0017164277967
20
4.8387865558297
30
0
41
1
10
43.2522893530341
20
4.80049587526085
30
0
41
1
10
43.3775155313573
20
4.78029968346792
30
0
41
1
10
43.6279458559285
20
4.73788525192748
30
0
41
1
10
44.0034700763752
20
4.67116937708107
30
0
41
1
10
44.3787172451576
20
4.59525429027613
30
0
41
1
10
45.1291492637148
20
4.43141077901939
30
0
41
1
10
45.6293694054786
20
4.30614878070909
30
0
41
1
10
46.2561089721195
20
4.1310310648359
30
0
41
1
10
46.3815284493021
20
4.09508045650799
30
0
41
1
10
46.6325184360634
20
4.02132722433288
30
0
41
1
10
46.7579459977839
20
3.98356459442397
30
0
41
1
10
47.0086238243914
20
3.90632867104429
30
0
41
1
10
47.1338859534439
20
3.86685215984682
30
0
41
1
10
47.3842843118661
20
3.7862202084855
30
0
41
1
10
47.5094069861081
20
3.74504536117857
30
0
41
1
10
47.8847597329533
20
3.61924717416378
30
0
41
1
10
48.1349213769673
20
3.53228231235559
30
0
41
1
10
48.6351347918644
20
3.35222900393362
30
0
41
1
10
48.885200017108
20
3.25915719415545
30
0
41
1
10
49.3855064362879
20
3.06730680980596
30
0
41
1
10
49.6357511974791
20
2.96853354666578
30
0
41
1
10
50.0114700747244
20
2.81643423230437
30
0
41
1
10
50.1367696301237
20
2.76508018992664
30
0
41
1
10
50.3875349845854
20
2.66114057203498
30
0
41
1
10
50.5130350297907
20
2.60854342395868
30
0
41
1
10
50.889289947498
20
2.44914970628136
30
0
41
1
10
51.1399270950716
20
2.34067170582935
30
0
41
1
10
51.5157400351848
20
2.17491243294526
30
0
41
1
10
51.6409852456792
20
2.11914852683111
30
0
41
1
10
51.8914683819022
20
2.00667938557641
30
0
41
1
10
52.0167408041699
20
1.95003880467652
30
0
41
1
10
52.3926388576988
20
1.77888101144998
30
0
41
1
10
52.6433219662146
20
1.66308326126327
30
0
41
1
10
53.1450464325635
20
1.42845204568204
30
0
41
1
10
53.3957430016227
20
1.30976857903965
30
0
41
1
10
53.8968444332243
20
1.07036032429025
30
0
41
1
10
54.1472831659906
20
0.9496025925379
30
0
41
1
10
54.648261887656
20
0.706630753388339
30
0
41
1
10
54.898827957109
20
0.584470113227098
30
0
41
1
10
55.1495262749787
20
0.461745740626355
30
0
0
SPLINE
5
EE
100
AcDbEntity
8
1
62
256
6
ByLayer
370
18
48
1
60
0
100
AcDbSpline
70
4
71
3
72
44
73
40
40
0
40
0
40
0
40
0
40
0.0476539594400383
40
0.0476539594400383
40
0.120911347175422
40
0.120911347175422
40
0.194168734910805
40
0.194168734910805
40
0.230797428778497
40
0.230797428778497
40
0.267426122646189
40
0.267426122646189
40
0.340683510381572
40
0.340683510381572
40
0.413940898116956
40
0.413940898116956
40
0.450569591984647
40
0.450569591984647
40
0.468883938918493
40
0.468883938918493
40
0.487198285852338
40
0.487198285852338
40
0.560455673587718
40
0.560455673587718
40
0.633713061323097
40
0.633713061323097
40
0.706970449058477
40
0.706970449058477
40
0.725284795992322
40
0.725284795992322
40
0.743599142926167
40
0.743599142926167
40
0.780227836793857
40
0.780227836793857
40
0.853485224529238
40
0.853485224529238
40
0.926742612264619
40
0.926742612264619
40
1
40
1
40
1
40
1
41
1
10
22.2300897800282
20
-5.04075053391495
30
0
41
1
10
22.0113885464282
20
-5.04035855473307
30
0
41
1
10
21.7928272977232
20
-5.03661235537916
30
0
41
1
10
21.2384723738639
20
-5.01863130199504
30
0
41
1
10
20.9027794889574
20
-4.99983195057288
30
0
41
1
10
20.2309607367779
20
-4.94662299376571
30
0
41
1
10
19.8948471984898
20
-4.91222073545799
30
0
41
1
10
19.3900343292723
20
-4.84901255151843
30
0
41
1
10
19.221581389409
20
-4.82598949346692
30
0
41
1
10
18.8849981355724
20
-4.77619996252318
30
0
41
1
10
18.7168164527073
20
-4.74943583717388
30
0
41
1
10
18.2124798508279
20
-4.66364545429607
30
0
41
1
10
17.8765275151879
20
-4.5991289186982
30
0
41
1
10
17.204704035634
20
-4.45589084055146
30
0
41
1
10
16.8688564439823
20
-4.37713948609147
30
0
41
1
10
16.3646212657603
20
-4.24884440204855
30
0
41
1
10
16.1964600669078
20
-4.20439216884759
30
0
41
1
10
15.9440452512218
20
-4.13523444216753
30
0
41
1
10
15.8598783723022
20
-4.11176835884973
30
0
41
1
10
15.6914797271043
20
-4.06401694149281
30
0
41
1
10
15.6072302636543
20
-4.03972630492837
30
0
41
1
10
15.1862163501328
20
-3.91636398579081
30
0
41
1
10
14.8499455639285
20
-3.81143540118319
30
0
41
1
10
14.1777289804842
20
-3.59016980719647
30
0
41
1
10
13.8417594995018
20
-3.47387156616492
30
0
41
1
10
13.1695778568253
20
-3.23074777730588
30
0
41
1
10
12.8333982327326
20
-3.10386955932748
30
0
41
1
10
12.4126720261131
20
-2.93921892000265
30
0
41
1
10
12.3285004913527
20
-2.90598825448259
30
0
41
1
10
12.1600908479919
20
-2.83894869565148
30
0
41
1
10
12.0758310706268
20
-2.80513164124128
30
0
41
1
10
11.8231631241558
20
-2.70292827144823
30
0
41
1
10
11.6548333334313
20
-2.63377735943107
30
0
41
1
10
11.1501001785578
20
-2.42345175468816
30
0
41
1
10
10.8139680664163
20
-2.27937731803198
30
0
41
1
10
10.1418964922348
20
-1.98448772379715
30
0
41
1
10
9.80587817851691
20
-1.8338201029338
30
0
41
1
10
9.13329421542863
20
-1.527167135643
30
0
41
1
10
8.79672936367857
20
-1.3711829322022
30
0
41
1
10
8.45969630565602
20
-1.21290537613609
30
0
0
SPLINE
5
EF
100
AcDbEntity
8
1
62
256
6
ByLayer
370
18
48
1
60
0
100
AcDbSpline
70
4
71
3
72
29
73
25
40
0
40
0
40
0
40
0
40
0.0044178635391135
40
0.0044178635391135
40
0.128865630596722
40
0.128865630596722
40
0.191089514125529
40
0.191089514125529
40
0.253313397654336
40
0.253313397654336
40
0.315537281183143
40
0.315537281183143
40
0.37776116471195
40
0.37776116471195
40
0.439985048240757
40
0.439985048240757
40
0.502208931769563
40
0.626656698827177
40
0.626656698827177
40
0.688880582355981
40
0.688880582355981
40
0.751104465884786
40
0.751104465884786
40
1
40
1
40
1
40
1
41
1
10
47.4181262673419
20
3.75956280520202
30
0
41
1
10
47.429387353266
20
3.7632855339165
30
0
41
1
10
47.4406485892389
20
3.76700172015455
30
0
41
1
10
47.7691347707253
20
3.8752086397192
30
0
41
1
10
48.0862771261141
20
3.97442666240181
30
0
41
1
10
48.5620678469856
20
4.11482318935472
30
0
41
1
10
48.7206873474245
20
4.16022042884143
30
0
41
1
10
49.0378387092725
20
4.24808328115822
30
0
41
1
10
49.19639418767
20
4.29055596213206
30
0
41
1
10
49.5135276532454
20
4.37251098221779
30
0
41
1
10
49.6721271797875
20
4.41199816739089
30
0
41
1
10
49.9892474298058
20
4.48786953406415
30
0
41
1
10
50.1477803281325
20
4.52425725165969
30
0
41
1
10
50.4648581988961
20
4.59387176309116
30
0
41
1
10
50.6234343366492
20
4.62710463687375
30
0
41
1
10
50.9405117235128
20
4.69031563416416
30
0
41
1
10
51.4159270223299
20
4.78023533471057
30
0
41
1
10
51.8910461572264
20
4.85524413803449
30
0
41
1
10
52.3663673394975
20
4.92005445681863
30
0
41
1
10
52.5248412881055
20
4.93995856589115
30
0
41
1
10
52.8419207084895
20
4.976329757945
30
0
41
1
10
53.0005001787582
20
4.99279290589223
30
0
41
1
10
53.7931857980957
20
5.06637753237285
30
0
41
1
10
54.4274351555366
20
5.09733457134377
30
0
41
1
10
55.0614850225682
20
5.09980021958705
30
0
0
SPLINE
5
F0
100
AcDbEntity
8
1
62
256
6
ByLayer
370
18
48
1
60
0
100
AcDbSpline
70
4
71
3
72
43
73
39
40
0
40
0
40
0
40
0
40
0.0624999999999997
40
0.0624999999999997
40
0.124999999999999
40
0.187499999999999
40
0.187499999999999
40
0.218749999999999
40
0.218749999999999
40
0.249999999999999
40
0.249999999999999
40
0.3125
40
0.375
40
0.4375
40
0.4375
40
0.46875
40
0.46875
40
0.5
40
0.5
40
0.5625
40
0.625
40
0.6875
40
0.6875
40
0.703125
40
0.703125
40
0.71875
40
0.71875
40
0.75
40
0.75
40
0.8125
40
0.875
40
0.875
40
0.937499999999999
40
0.937499999999999
40
0.953125
40
0.953125
40
0.96875
40
1
40
1
40
1
40
1
41
1
10
55.1183914827886
20
-0.240541223651945
30
0
41
1
10
55.1001234341582
20
-0.384008470514288
30
0
41
1
10
55.0841659541385
20
-0.526320308897681
30
0
41
1
10
55.0560756257642
20
-0.808632309466219
30
0
41
1
10
55.0318113550655
20
-1.08863243351809
30
0
41
1
10
55.0138760576438
20
-1.36391617851729
30
0
41
1
10
55.0023837129363
20
-1.56853981994018
30
0
41
1
10
54.9988802590229
20
-1.63644079109719
30
0
41
1
10
54.9924682781449
20
-1.77161219126356
30
0
41
1
10
54.9895557117331
20
-1.83900942371696
30
0
41
1
10
54.9816983189766
20
-2.03834256779638
30
0
41
1
10
54.9735003156623
20
-2.29754090036516
30
0
41
1
10
54.9665179594349
20
-2.66707231805148
30
0
41
1
10
54.9647035732002
20
-2.90060431399584
30
0
41
1
10
54.9642507702185
20
-3.07084337421452
30
0
41
1
10
54.9642522533566
20
-3.12677024682793
30
0
41
1
10
54.9645471892046
20
-3.23695324182563
30
0
41
1
10
54.9648399015617
20
-3.29087351680337
30
0
41
1
10
54.9661286503075
20
-3.44884435272823
30
0
41
1
10
54.9689333139227
20
-3.64968323426208
30
0
41
1
10
54.9763659806302
20
-3.92220481547176
30
0
41
1
10
54.9837444838087
20
-4.08470359026504
30
0
41
1
10
54.9892955505123
20
-4.18012260399902
30
0
41
1
10
54.9904531413279
20
-4.1988986962977
30
0
41
1
10
54.992869306902
20
-4.23582938052974
30
0
41
1
10
54.9941284007218
20
-4.25398792577579
30
0
41
1
10
54.998046839656
20
-4.30725727047837
30
0
41
1
10
55.0008529515435
20
-4.34125617829676
30
0
41
1
10
55.0099170560763
20
-4.43879210343383
30
0
41
1
10
55.023717582404
20
-4.55696153558628
30
0
41
1
10
55.0418090049272
20
-4.65181340851123
30
0
41
1
10
55.0626025368263
20
-4.73496541782717
30
0
41
1
10
55.0743494023657
20
-4.77069204818477
30
0
41
1
10
55.0911601317962
20
-4.80784832530122
30
0
41
1
10
55.0946319059951
20
-4.8149089058613
30
0
41
1
10
55.1017856607081
20
-4.82824216268585
30
0
41
1
10
55.1128290618905
20
-4.84705844391991
30
0
41
1
10
55.124854896601
20
-4.86233603624527
30
0
41
1
10
55.1333510527168
20
-4.87095122563213
30
0
0
SPLINE
5
F1
100
AcDbEntity
8
1
62
256
6
ByLayer
370
18
48
1
60
0
100
AcDbSpline
70
4
71
3
72
48
73
44
40
0
40
0
40
0
40
0
40
0.069895857434162
40
0.069895857434162
40
0.139791714868324
40
0.139791714868324
40
0.174739643585405
40
0.174739643585405
40
0.209687572302486
40
0.209687572302486
40
0.244635501019567
40
0.244635501019567
40
0.279583429736648
40
0.279583429736648
40
0.349479287170813
40
0.349479287170813
40
0.419375144604977
40
0.419375144604977
40
0.45432307332206
40
0.45432307332206
40
0.489271002039142
40
0.489271002039142
40
0.559166859473306
40
0.559166859473306
40
0.629062716907471
40
0.629062716907471
40
0.664010645624553
40
0.664010645624553
40
0.698958574341635
40
0.698958574341635
40
0.733906503058718
40
0.733906503058718
40
0.7688544317758
40
0.7688544317758
40
0.803802360492882
40
0.803802360492882
40
0.838750289209964
40
0.838750289209964
40
0.908646146644131
40
0.908646146644131
40
0.978542004078298
40
0.978542004078298
40
1
40
1
40
1
40
1
41
1
10
24.7438515791633
20
-1.32603011683014
30
0
41
1
10
25.059842932724
20
-1.4759625731418
30
0
41
1
10
25.3760297737324
20
-1.62302984788724
30
0
41
1
10
26.0088090568999
20
-1.91154286630615
30
0
41
1
10
26.3254013124745
20
-2.05298719051049
30
0
41
1
10
26.8007125305531
20
-2.26073374152446
30
0
41
1
10
26.9591760914348
20
-2.32922615371319
30
0
41
1
10
27.2757338018838
20
-2.46447984366546
30
0
41
1
10
27.4338916932369
20
-2.53126486125646
30
0
41
1
10
27.7499777395036
20
-2.66312712319893
30
0
41
1
10
27.907890903731
20
-2.72823105775075
30
0
41
1
10
28.2234761472601
20
-2.85673423502084
30
0
41
1
10
28.3811844669721
20
-2.92006836926811
30
0
41
1
10
28.8544803031102
20
-3.10660968762022
30
0
41
1
10
29.1701445645864
20
-3.22652726955826
30
0
41
1
10
29.8019000806942
20
-3.45727629793856
30
0
41
1
10
30.1179890933313
20
-3.56811113201752
30
0
41
1
10
30.5925708982343
20
-3.72728380360726
30
0
41
1
10
30.7509125229249
20
-3.77920439382726
30
0
41
1
10
31.0671531444123
20
-3.88047850403754
30
0
41
1
10
31.2251161110972
20
-3.92979011528976
30
0
41
1
10
31.6990273220703
20
-4.07313221098443
30
0
41
1
10
32.0148911043845
20
-4.16273493479105
30
0
41
1
10
32.6464578637833
20
-4.33022153141673
30
0
41
1
10
32.9621622011014
20
-4.40810002170454
30
0
41
1
10
33.4356947680403
20
-4.51596370152802
30
0
41
1
10
33.593531608607
20
-4.5504272891248
30
0
41
1
10
33.9092210089362
20
-4.61631243374467
30
0
41
1
10
34.0670950592195
20
-4.64771190223732
30
0
41
1
10
34.3831633723143
20
-4.70720010801193
30
0
41
1
10
34.541358405044
20
-4.73531027317725
30
0
41
1
10
34.85793763926
20
-4.78825341139404
30
0
41
1
10
35.0160987034278
20
-4.81304945794992
30
0
41
1
10
35.3321640536921
20
-4.85929719840775
30
0
41
1
10
35.4900671182598
20
-4.88074885032194
30
0
41
1
10
35.8056637864785
20
-4.92027081827649
30
0
41
1
10
35.9633935542905
20
-4.93831946421483
30
0
41
1
10
36.4367219349004
20
-4.98720826709823
30
0
41
1
10
36.7523774494521
20
-5.01285397467654
30
0
41
1
10
37.3838125816146
20
-5.05039440848924
30
0
41
1
10
37.6995932842386
20
-5.06228112495813
30
0
41
1
10
38.1125172616908
20
-5.0686716851836
30
0
41
1
10
38.2095250203873
20
-5.06951203026847
30
0
41
1
10
38.3065612498748
20
-5.0696875327082
30
0
0
SPLINE
5
F2
100
AcDbEntity
8
1
62
256
6
ByLayer
370
18
48
1
60
0
100
AcDbSpline
70
4
71
3
72
45
73
41
40
0
40
0
40
0
40
0
40
0.0264975162401274
40
0.0264975162401274
40
0.148185326710108
40
0.163396303018857
40
0.163396303018857
40
0.178607279327607
40
0.178607279327607
40
0.209029231945105
40
0.209029231945105
40
0.269873137180102
40
0.269873137180102
40
0.300295089797599
40
0.300295089797599
40
0.330717042415097
40
0.330717042415097
40
0.391560947650091
40
0.391560947650091
40
0.452404852885086
40
0.452404852885086
40
0.482826805502583
40
0.482826805502583
40
0.513248758120081
40
0.513248758120081
40
0.634936568590068
40
0.634936568590068
40
0.69578047382506
40
0.69578047382506
40
0.726202426442555
40
0.726202426442555
40
0.741413402751303
40
0.741413402751303
40
0.75662437906005
40
0.75662437906005
40
0.817468284295038
40
0.817468284295038
40
0.878312189530026
40
0.878312189530026
40
1
40
1
40
1
40
1
41
1
10
39.5145244671388
20
0.253649439876568
30
0
41
1
10
39.6534432237455
20
0.188579235287989
30
0
41
1
10
39.7924069530495
20
0.123411713525144
30
0
41
1
10
40.5695947963145
20
-0.241247120727905
30
0
41
1
10
41.2862249559311
20
-0.578282721714857
30
0
41
1
10
42.0038501422128
20
-0.910106773229188
30
0
41
1
10
42.163355024675
20
-0.983699768714814
30
0
41
1
10
42.2431130797274
20
-1.02041848721271
30
0
41
1
10
42.482106291884
20
-1.13017470961228
30
0
41
1
10
42.6411721500926
20
-1.20286368546323
30
0
41
1
10
43.1176764750223
20
-1.41929966744951
30
0
41
1
10
43.4344194182242
20
-1.56141805151711
30
0
41
1
10
43.9084557326114
20
-1.77066381207609
30
0
41
1
10
44.0662916201446
20
-1.83975554635793
30
0
41
1
10
44.3817115941616
20
-1.97649116007554
30
0
41
1
10
44.5392912380339
20
-2.04413747997262
30
0
41
1
10
45.0116602480565
20
-2.24478655798524
30
0
41
1
10
45.3260880369412
20
-2.37549867137289
30
0
41
1
10
45.9544309180608
20
-2.63004194811057
30
0
41
1
10
46.2683464075282
20
-2.75387045722667
30
0
41
1
10
46.7392102130841
20
-2.93371616072452
30
0
41
1
10
46.8961643259527
20
-2.99268238181403
30
0
41
1
10
47.2101661263689
20
-3.10855606153228
30
0
41
1
10
47.3672118358767
20
-3.1654633333215
30
0
41
1
10
48.1526781085617
20
-3.44459890821523
30
0
41
1
10
48.7818153198046
20
-3.65067299678864
30
0
41
1
10
49.7295905877239
20
-3.92942158496251
30
0
41
1
10
50.0461962731117
20
-4.0172681463016
30
0
41
1
10
50.5224873013596
20
-4.14076776531005
30
0
41
1
10
50.681481661962
20
-4.18055497152534
30
0
41
1
10
50.9203672739204
20
-4.23814215097335
30
0
41
1
10
51.0000949917174
20
-4.25699670612011
30
0
41
1
10
51.1595011729899
20
-4.29394698831439
30
0
41
1
10
51.2391710012942
20
-4.31204109597007
30
0
41
1
10
51.6373618488383
20
-4.40057345412609
30
0
41
1
10
51.9554014535319
20
-4.46518179037386
30
0
41
1
10
52.5909882934541
20
-4.58162314858876
30
0
41
1
10
52.9085697470702
20
-4.63350424045018
30
0
41
1
10
53.8613306749903
20
-4.76956365955579
30
0
41
1
10
54.4964121003224
20
-4.83406681448056
30
0
41
1
10
55.1333510533941
20
-4.87095122562428
30
0
0
SPLINE
5
F3
100
AcDbEntity
8
1
62
256
6
ByLayer
370
18
48
1
60
0
100
AcDbSpline
70
4
71
3
72
14
73
10
40
0
40
0
40
0
40
0
40
0.25
40
0.25
40
0.5
40
0.5
40
0.75
40
0.75
40
1
40
1
40
1
40
1
41
1
10
55.1333510526609
20
-4.870951225586
30
0
41
1
10
55.1335140304049
20
-4.87111648668878
30
0
41
1
10
55.1336034240861
20
-4.87148163380292
30
0
41
1
10
55.1335925402931
20
-4.87269204812517
30
0
41
1
10
55.1334871754621
20
-4.87353811367785
30
0
41
1
10
55.1330605284288
20
-4.87561785419595
30
0
41
1
10
55.1327337384836
20
-4.87686893027291
30
0
41
1
10
55.1319345996522
20
-4.87946611996946
30
0
41
1
10
55.1314668396141
20
-4.88080313599968
30
0
41
1
10
55.1309834410653
20
-4.88205412646758
30
0
0
SPLINE
5
F4
100
AcDbEntity
8
1
62
256
6
ByLayer
370
18
48
1
60
0
100
AcDbSpline
70
4
71
3
72
8
73
4
40
0
40
0
40
0
40
0
40
1
40
1
40
1
40
1
41
1
10
55.0247830873309
20
-5.05798328193353
30
0
41
1
10
55.0585046969702
20
-5.003802724981
30
0
41
1
10
55.0922571628767
20
-4.94942129887687
30
0
41
1
10
55.1260441518888
20
-4.89483990957689
30
0
0
SPLINE
5
F5
100
AcDbEntity
8
1
62
256
6
ByLayer
370
18
48
1
60
0
100
AcDbSpline
70
4
71
3
72
8
73
4
40
0
40
0
40
0
40
0
40
1
40
1
40
1
40
1
41
1
10
55.1309834395629
20
-4.88205413035567
30
0
41
1
10
55.1293364498751
20
-4.88631638643093
30
0
41
1
10
55.127690019468
20
-4.89057831283839
30
0
41
1
10
55.1260441518888
20
-4.89483990957689
30
0
0
SPLINE
5
F6
100
AcDbEntity
8
1
62
256
6
ByLayer
370
18
48
1
60
0
100
AcDbSpline
70
4
71
3
72
44
73
40
40
0
40
0
40
0
40
0
40
0.12578220723019
40
0.12578220723019
40
0.188673310845286
40
0.188673310845286
40
0.251564414460382
40
0.251564414460382
40
0.267287190364155
40
0.267287190364155
40
0.283009966267929
40
0.283009966267929
40
0.314455518075478
40
0.314455518075478
40
0.377346621690576
40
0.377346621690576
40
0.503128828920773
40
0.503128828920773
40
0.534574380728321
40
0.534574380728321
40
0.56601993253587
40
0.56601993253587
40
0.628911036150969
40
0.628911036150969
40
0.691802139766069
40
0.691802139766069
40
0.72324769157362
40
0.72324769157362
40
0.754693243381171
40
0.754693243381171
40
0.817584346996272
40
0.817584346996272
40
0.849029898803824
40
0.849029898803824
40
0.8647526747076
40
0.8647526747076
40
0.880475450611376
40
0.880475450611376
40
1
40
1
40
1
40
1
41
1
10
55.1309834308288
20
-4.88205412587703
30
0
41
1
10
54.4940018234427
20
-4.84570268276678
30
0
41
1
10
53.8588809731425
20
-4.78165869606053
30
0
41
1
10
52.9060588599963
20
-4.64618405280774
30
0
41
1
10
52.588457586191
20
-4.59447857551834
30
0
41
1
10
51.9528296029293
20
-4.47835029548574
30
0
41
1
10
51.6347680924753
20
-4.41388025577817
30
0
41
1
10
51.2365477178085
20
-4.32549631888855
30
0
41
1
10
51.1568719120365
20
-4.30743059795404
30
0
41
1
10
50.9974536840719
20
-4.27053430232976
30
0
41
1
10
50.917718373342
20
-4.25170498064657
30
0
41
1
10
50.6788119947322
20
-4.19418936561496
30
0
41
1
10
50.5198050330273
20
-4.15444473799218
30
0
41
1
10
50.0434777004987
20
-4.03106014565327
30
0
41
1
10
49.7268507280791
20
-3.94327162698005
30
0
41
1
10
48.7790198314467
20
-3.66463884701304
30
0
41
1
10
48.1498569689228
20
-3.45856393365287
30
0
41
1
10
47.3643630398569
20
-3.17933801908913
30
0
41
1
10
47.2073121557907
20
-3.12240785138738
30
0
41
1
10
46.8933016057522
20
-3.0064763142592
30
0
41
1
10
46.7363436610568
20
-2.94747575300914
30
0
41
1
10
46.2654671748142
20
-2.76751560052588
30
0
41
1
10
45.9515424089248
20
-2.64359372929422
30
0
41
1
10
45.3231799174061
20
-2.38882541921498
30
0
41
1
10
45.0087416501048
20
-2.25798190778241
30
0
41
1
10
44.5363551631353
20
-2.05710869150431
30
0
41
1
10
44.3787694930714
20
-1.98938292916358
30
0
41
1
10
44.0633376215211
20
-1.85247672020873
30
0
41
1
10
43.905495757764
20
-1.7832941464107
30
0
41
1
10
43.4314388801486
20
-1.57376402701678
30
0
41
1
10
43.1146791306784
20
-1.43143886338237
30
0
41
1
10
42.6381462699531
20
-1.21466240588566
30
0
41
1
10
42.47907036242
20
-1.14185488115751
30
0
41
1
10
42.2400607955999
20
-1.031913748026
30
0
41
1
10
42.1602971311882
20
-0.995132216571847
30
0
41
1
10
42.0007789891835
20
-0.921410735633486
30
0
41
1
10
41.9210362643998
20
-0.884476296838812
30
0
41
1
10
41.2351952876797
20
-0.566204718026484
30
0
41
1
10
40.6297956446677
20
-0.281164478212304
30
0
41
1
10
40.0233910077092
20
0.0039992376616738
30
0
0
SPLINE
5
F7
100
AcDbEntity
8
1
62
256
6
ByLayer
370
18
48
1
60
0
100
AcDbSpline
70
4
71
3
72
74
73
70
40
0
40
0
40
0
40
0
40
0.0312499999999982
40
0.0312499999999982
40
0.0468749999999978
40
0.0468749999999978
40
0.0624999999999975
40
0.0624999999999975
40
0.124999999999996
40
0.124999999999996
40
0.156249999999996
40
0.156249999999996
40
0.171874999999996
40
0.171874999999996
40
0.187499999999996
40
0.187499999999996
40
0.249999999999995
40
0.249999999999995
40
0.312499999999995
40
0.312499999999995
40
0.320312499999995
40
0.320312499999995
40
0.328124999999995
40
0.343749999999994
40
0.343749999999994
40
0.374999999999995
40
0.374999999999995
40
0.406249999999995
40
0.406249999999995
40
0.437499999999995
40
0.437499999999995
40
0.453124999999996
40
0.453124999999996
40
0.468749999999996
40
0.499999999999996
40
0.499999999999996
40
0.531249999999997
40
0.531249999999997
40
0.562499999999997
40
0.562499999999997
40
0.578124999999998
40
0.578124999999998
40
0.593749999999998
40
0.624999999999999
40
0.624999999999999
40
0.656249999999999
40
0.656249999999999
40
0.687499999999999
40
0.687499999999999
40
0.703124999999999
40
0.703124999999999
40
0.710937499999999
40
0.710937499999999
40
0.718749999999998
40
0.749999999999998
40
0.749999999999998
40
0.812499999999996
40
0.812499999999996
40
0.828124999999996
40
0.828124999999996
40
0.843749999999996
40
0.843749999999996
40
0.874999999999997
40
0.874999999999997
40
0.906249999999997
40
0.906249999999997
40
0.937499999999998
40
0.937499999999998
40
1
40
1
40
1
40
1
41
1
10
55.0247830873335
20
-5.05798328193558
30
0
41
1
10
54.7082686262937
20
-5.03755350703531
30
0
41
1
10
54.3918790583834
20
-5.01009961336311
30
0
41
1
10
53.9171223629924
20
-4.95855233267443
30
0
41
1
10
53.7588412658909
20
-4.93964222084207
30
0
41
1
10
53.442160033202
20
-4.89839607057712
30
0
41
1
10
53.2836919362485
20
-4.8760495583272
30
0
41
1
10
52.4919991938993
20
-4.75599631966224
30
0
41
1
10
51.8606452871373
20
-4.63319077262832
30
0
41
1
10
50.9132795548081
20
-4.411869876933
30
0
41
1
10
50.5974783474528
20
-4.33187614308514
30
0
41
1
10
50.123346354855
20
-4.20295845266693
30
0
41
1
10
49.965228500087
20
-4.15850098545926
30
0
41
1
10
49.6487828028474
20
-4.06668109838273
30
0
41
1
10
49.4904278866151
20
-4.01931026152084
30
0
41
1
10
48.6982515567555
20
-3.77545189833472
30
0
41
1
10
48.0665206987037
20
-3.55899555544104
30
0
41
1
10
46.8029081941264
20
-3.08983154689034
30
0
41
1
10
46.1713343392069
20
-2.83662078572135
30
0
41
1
10
45.4583929228906
20
-2.53510893047664
30
0
41
1
10
45.3791266859799
20
-2.50136850056157
30
0
41
1
10
45.2206834437369
20
-2.43350652298759
30
0
41
1
10
44.9831062497247
20
-2.33112239360906
30
0
41
1
10
44.7457590533409
20
-2.22702897727683
30
0
41
1
10
44.2712885237819
20
-2.01672406751175
30
0
41
1
10
43.955314757252
20
-1.8736176196237
30
0
41
1
10
43.3234501267448
20
-1.58274667161632
30
0
41
1
10
43.007543066635
20
-1.43501509881858
30
0
41
1
10
42.3753406102708
20
-1.1358197688426
30
0
41
1
10
42.0590412896895
20
-0.984362572805196
30
0
41
1
10
41.5838696446176
20
-0.755231949951906
30
0
41
1
10
41.4252785904438
20
-0.678490951180663
30
0
41
1
10
41.1084070760918
20
-0.524781049947762
30
0
41
1
10
40.6334365921362
20
-0.29381243085453
30
0
41
1
10
40.1591941360573
20
-0.0622145219618346
30
0
41
1
10
39.5270257236052
20
0.246128311780097
30
0
41
1
10
39.2110209154103
20
0.400076691735251
30
0
41
1
10
38.5787347133868
20
0.706630723362025
30
0
41
1
10
38.2624507851897
20
0.859230875431138
30
0
41
1
10
37.787356490019
20
1.08617702405596
30
0
41
1
10
37.6288305918181
20
1.16152457020905
30
0
41
1
10
37.3117166587104
20
1.31133926256069
30
0
41
1
10
36.836408297567
20
1.53452510785115
30
0
41
1
10
36.3619113664508
20
1.75258184057799
30
0
41
1
10
35.7295269193181
20
2.03792979979127
30
0
41
1
10
35.4134967620772
20
2.17794829632939
30
0
41
1
10
34.7811361174421
20
2.45150171402412
30
0
41
1
10
34.4648184773376
20
2.58506224579108
30
0
41
1
10
33.9897795907473
20
2.77992025978773
30
0
41
1
10
33.8313393227974
20
2.84395862317706
30
0
41
1
10
33.5934804227318
20
2.93854078049429
30
0
41
1
10
33.5141536613916
20
2.96982521091078
30
0
41
1
10
33.3556012038396
20
3.03182388116073
30
0
41
1
10
32.9593677633939
20
3.18543847287748
30
0
41
1
10
32.5637830898023
20
3.33200843346225
30
0
41
1
10
31.6148525884863
20
3.66912201773226
30
0
41
1
10
30.9828897348169
20
3.87435356078916
30
0
41
1
10
30.1911937626521
20
4.10292904450858
30
0
41
1
10
30.0327751516475
20
4.1472564155867
30
0
41
1
10
29.7157042760815
20
4.23303523631196
30
0
41
1
10
29.556974395831
20
4.2745048400142
30
0
41
1
10
29.0814292424174
20
4.39418924472986
30
0
41
1
10
28.764975494166
20
4.4677639411492
30
0
41
1
10
28.1327741608203
20
4.60216328705539
30
0
41
1
10
27.8170025171302
20
4.66296538312673
30
0
41
1
10
27.1856668264888
20
4.77146521566445
30
0
41
1
10
26.8701302040338
20
4.81917805801112
30
0
41
1
10
25.9229742257409
20
4.94208496914908
30
0
41
1
10
25.2907982831337
20
4.99706772813076
30
0
41
1
10
24.6560832561545
20
5.02405655674886
30
0
0
SPLINE
5
F8
100
AcDbEntity
8
1
62
256
6
ByLayer
370
18
48
1
60
0
100
AcDbSpline
70
4
71
3
72
55
73
51
40
0
40
0
40
0
40
0
40
0.112784074660545
40
0.112784074660545
40
0.140980093325681
40
0.140980093325681
40
0.169176111990818
40
0.197372130655954
40
0.197372130655954
40
0.22556814932109
40
0.22556814932109
40
0.239666158653658
40
0.239666158653658
40
0.253764167986226
40
0.253764167986226
40
0.281960186651361
40
0.281960186651361
40
0.338352223981627
40
0.338352223981627
40
0.394744261311894
40
0.394744261311894
40
0.45113629864216
40
0.45113629864216
40
0.479332317307293
40
0.479332317307293
40
0.507528335972426
40
0.507528335972426
40
0.563920373302695
40
0.563920373302695
40
0.620312410632963
40
0.620312410632963
40
0.648508429298098
40
0.648508429298098
40
0.676704447963234
40
0.676704447963234
40
0.733096485293504
40
0.733096485293504
40
0.747194494626072
40
0.747194494626072
40
0.761292503958639
40
0.761292503958639
40
0.789488522623775
40
0.789488522623775
40
0.902272597284318
40
0.902272597284318
40
0.930468615949454
40
0.930468615949454
40
0.958664634614591
40
0.958664634614591
40
1
40
1
40
1
40
1
41
1
10
55.1183914828003
20
-0.240541223652826
30
0
41
1
10
54.483453796356
20
0.0610857026197493
30
0
41
1
10
53.8489704200702
20
0.360537772825126
30
0
41
1
10
53.0558866582564
20
0.730474684836452
30
0
41
1
10
52.8972706118344
20
0.804242589302618
30
0
41
1
10
52.5799986800059
20
0.951239434048233
30
0
41
1
10
52.262685218323
20
1.0976945248689
30
0
41
1
10
51.9450927143639
20
1.24268154169934
30
0
41
1
10
51.6272869426097
20
1.38678599409352
30
0
41
1
10
51.4682778737813
20
1.45839765430353
30
0
41
1
10
51.2295874731031
20
1.5651035081589
30
0
41
1
10
51.1500095757956
20
1.6005467983185
30
0
41
1
10
50.9910738333425
20
1.67106492890434
30
0
41
1
10
50.9116830374735
20
1.70615460904529
30
0
41
1
10
50.6737515339501
20
1.81090113862459
30
0
41
1
10
50.5154466022558
20
1.88003329063508
30
0
41
1
10
50.0409632391276
20
2.08498332364351
30
0
41
1
10
49.7252303431119
20
2.2183600719452
30
0
41
1
10
49.0948291837596
20
2.47809576320239
30
0
41
1
10
48.7801618493876
20
2.60445511359063
30
0
41
1
10
48.1519283821056
20
2.84938605411165
30
0
41
1
10
47.8383634267776
20
2.9679601309883
30
0
41
1
10
47.3683223594373
20
3.13929071341622
30
0
41
1
10
47.2116920320484
20
3.19531273035133
30
0
41
1
10
46.898519249189
20
3.30503829937811
30
0
41
1
10
46.7419819548851
20
3.3587365559209
30
0
41
1
10
46.2721366922728
20
3.51644257354792
30
0
41
1
10
45.9585625889731
20
3.61708230793593
30
0
41
1
10
45.3307756204398
20
3.80854927896903
30
0
41
1
10
45.0165694875602
20
3.89938654880149
30
0
41
1
10
44.5446608871208
20
4.02739500084962
30
0
41
1
10
44.3872595226074
20
4.06868982555366
30
0
41
1
10
44.0722069969205
20
4.14836888083479
30
0
41
1
10
43.9145619706593
20
4.18673333874261
30
0
41
1
10
43.4409936353634
20
4.29771630017845
30
0
41
1
10
43.1243915384542
20
4.36635031161208
30
0
41
1
10
42.7274576118894
20
4.4442462589179
30
0
41
1
10
42.6480126117095
20
4.45942636243723
30
0
41
1
10
42.4889970076947
20
4.48899532972305
30
0
41
1
10
42.4093991751425
20
4.50339035629307
30
0
41
1
10
42.1706075564888
20
4.54538166692561
30
0
41
1
10
42.0114883074877
20
4.57177324311138
30
0
41
1
10
41.2158654402867
20
4.69616300742047
30
0
41
1
10
40.5791212552656
20
4.77181230373031
30
0
41
1
10
39.7825769234242
20
4.83008434985021
30
0
41
1
10
39.6233234873048
20
4.83990277043765
30
0
41
1
10
39.3050395158438
20
4.85595702741469
30
0
41
1
10
39.1459701885856
20
4.8621978674374
30
0
41
1
10
38.7537101273371
20
4.87332015281626
30
0
41
1
10
38.5205141268678
20
4.87620626874249
30
0
41
1
10
38.2871802703916
20
4.87563053050914
30
0
0
SPLINE
5
F9
100
AcDbEntity
8
1
62
256
6
ByLayer
370
18
48
1
60
0
100
AcDbSpline
70
4
71
3
72
10
73
6
40
0
40
0
40
0
40
0
40
0.5
40
0.5
40
1
40
1
40
1
40
1
41
1
10
55.1162210899825
20
-0.228962168699439
30
0
41
1
10
55.1171700268814
20
-0.229287974877877
30
0
41
1
10
55.1179017896699
20
-0.230719607313887
30
0
41
1
10
55.1186970136098
20
-0.234915311344338
30
0
41
1
10
55.1187570599093
20
-0.237670181205914
30
0
41
1
10
55.1183914827892
20
-0.240541223647568
30
0
0
SPLINE
5
FA
100
AcDbEntity
8
1
62
256
6
ByLayer
370
18
48
1
60
0
100
AcDbSpline
70
4
71
3
72
58
73
54
40
0
40
0
40
0
40
0
40
0.011673805534009
40
0.011673805534009
40
0.0680690217942189
40
0.0680690217942189
40
0.096266629924324
40
0.096266629924324
40
0.124464238054429
40
0.124464238054429
40
0.237254670574847
40
0.237254670574847
40
0.265452278704951
40
0.265452278704951
40
0.279551082770003
40
0.279551082770003
40
0.293649886835055
40
0.293649886835055
40
0.350045103095262
40
0.350045103095262
40
0.378242711225366
40
0.378242711225366
40
0.406440319355469
40
0.406440319355469
40
0.462835535615676
40
0.462835535615676
40
0.519230751875883
40
0.519230751875883
40
0.547428360005986
40
0.547428360005986
40
0.575625968136089
40
0.575625968136089
40
0.632021184396299
40
0.632021184396299
40
0.688416400656507
40
0.688416400656507
40
0.744811616916716
40
0.744811616916716
40
0.773009225046822
40
0.773009225046822
40
0.787108029111874
40
0.787108029111874
40
0.801206833176927
40
0.801206833176927
40
0.829404441307031
40
0.829404441307031
40
0.857602049437134
40
0.857602049437134
40
0.885799657567237
40
0.885799657567237
40
0.913997265697341
40
0.913997265697341
40
1
40
1
40
1
40
1
41
1
10
37.8357197645876
20
4.87975731688243
30
0
41
1
10
37.9016663676914
20
4.88122667238767
30
0
41
1
10
37.9675964976351
20
4.88242512450836
30
0
41
1
10
38.3519402543201
20
4.88785573089032
30
0
41
1
10
38.6700199368385
20
4.88608134749049
30
0
41
1
10
39.1471301462621
20
4.87300378018955
30
0
41
1
10
39.3061686351323
20
4.86691146461865
30
0
41
1
10
39.624391150036
20
4.85114878366318
30
0
41
1
10
39.7836128383042
20
4.84147377174747
30
0
41
1
10
40.5800166722939
20
4.78389998357636
30
0
41
1
10
41.2166451491629
20
4.70874178131072
30
0
41
1
10
42.0121124935761
20
4.58488076159523
30
0
41
1
10
42.1712004032039
20
4.55859223149548
30
0
41
1
10
42.409945291935
20
4.51675143423537
30
0
41
1
10
42.489530989947
20
4.50240528273073
30
0
41
1
10
42.648520561174
20
4.47293287804825
30
0
41
1
10
42.7279524990115
20
4.45780056233687
30
0
41
1
10
43.1248198765369
20
4.38013723752687
30
0
41
1
10
43.4413637972304
20
4.31166619346484
30
0
41
1
10
43.9148377927093
20
4.20090142242512
30
0
41
1
10
44.0724511554186
20
4.16260882710944
30
0
41
1
10
44.3874397238712
20
4.08306663825803
30
0
41
1
10
44.5448082960707
20
4.0418350595634
30
0
41
1
10
45.0166172881868
20
3.91400270172272
30
0
41
1
10
45.3307552125624
20
3.82326398328249
30
0
41
1
10
45.9583999837106
20
3.63195322119739
30
0
41
1
10
46.2719005581184
20
3.53137127036615
30
0
41
1
10
46.7416319498612
20
3.3737253895456
30
0
41
1
10
46.8981310467251
20
3.32004594871117
30
0
41
1
10
47.2112275474403
20
3.21035268879646
30
0
41
1
10
47.3678193586048
20
3.1543409517285
30
0
41
1
10
47.8377445542403
20
2.98302617109258
30
0
41
1
10
48.1512319411968
20
2.86444538270157
30
0
41
1
10
48.7793110744154
20
2.6194643790657
30
0
41
1
10
49.0939019838333
20
2.49305917391922
30
0
41
1
10
49.7241506123765
20
2.23318760265363
30
0
41
1
10
50.0398077264292
20
2.09972306076898
30
0
41
1
10
50.5141787678666
20
1.89461224700307
30
0
41
1
10
50.6724459110914
20
1.82542318009544
30
0
41
1
10
50.9103208318538
20
1.72058631382822
30
0
41
1
10
50.9896929202281
20
1.68546509591948
30
0
41
1
10
51.1485916440833
20
1.61488060484135
30
0
41
1
10
51.2281501513861
20
1.57940303795848
30
0
41
1
10
51.4668004497707
20
1.47258208411586
30
0
41
1
10
51.6257821988622
20
1.40088908620916
30
0
41
1
10
51.9435322536807
20
1.25661317137019
30
0
41
1
10
52.1022999930288
20
1.18402946509158
30
0
41
1
10
52.4196954302473
20
1.03812009586596
30
0
41
1
10
52.5783228254938
20
0.964793909454983
30
0
41
1
10
52.8955352263282
20
0.81759060418392
30
0
41
1
10
53.0541210314676
20
0.743714617891243
30
0
41
1
10
53.6963954171268
20
0.443609896748029
30
0
41
1
10
54.1800922146938
20
0.215531188054797
30
0
41
1
10
54.6639902882718
20
-0.0140348230461029
30
0
0
SPLINE
5
FB
100
AcDbEntity
8
1
62
256
6
ByLayer
370
18
48
1
60
0
100
AcDbSpline
70
4
71
3
72
8
73
4
40
0
40
0
40
0
40
0
40
1
40
1
40
1
40
1
41
1
10
55.0515729576466
20
-0.20561513859181
30
0
41
1
10
55.0731169902118
20
-0.213779157156239
30
0
41
1
10
55.0946637547889
20
-0.221560714498708
30
0
41
1
10
55.1162210899825
20
-0.228962168699468
30
0
0
SPLINE
5
FC
100
AcDbEntity
8
1
62
256
6
ByLayer
370
18
48
1
60
0
100
AcDbSpline
70
4
71
3
72
64
73
60
40
0
40
0
40
0
40
0
40
0.0024330871416648
40
0.0024330871416648
40
0.0267639874552824
40
0.0267639874552824
40
0.0754257880825176
40
0.0754257880825176
40
0.124087588709753
40
0.124087588709753
40
0.14841848902337
40
0.14841848902337
40
0.160583939180179
40
0.160583939180179
40
0.172749389336988
40
0.172749389336988
40
0.221411189964223
40
0.221411189964223
40
0.270072990591458
40
0.270072990591458
40
0.318734791218694
40
0.318734791218694
40
0.343065691532311
40
0.343065691532311
40
0.367396591845929
40
0.367396591845929
40
0.416058392473164
40
0.416058392473164
40
0.440389292786782
40
0.440389292786782
40
0.464720193100401
40
0.464720193100401
40
0.513381993727638
40
0.513381993727638
40
0.562043794354875
40
0.562043794354875
40
0.586374694668492
40
0.586374694668492
40
0.61070559498211
40
0.61070559498211
40
0.659367395609345
40
0.659367395609345
40
0.70802919623658
40
0.70802919623658
40
0.756690996863815
40
0.756690996863815
40
0.768856447020625
40
0.768856447020625
40
0.781021897177435
40
0.781021897177435
40
0.805352797491052
40
0.805352797491052
40
0.854014598118289
40
0.854014598118289
40
0.902676398745526
40
0.902676398745526
40
0.951338199372763
40
0.951338199372763
40
1
40
1
40
1
40
1
41
1
10
35.6005228415735
20
4.89453084467883
30
0
41
1
10
35.6163047757275
20
4.89654073555849
30
0
41
1
10
35.6320856376994
20
4.89853373824846
30
0
41
1
10
35.8056637864786
20
4.92027081827649
30
0
41
1
10
35.9633935542905
20
4.93831946421486
30
0
41
1
10
36.4367219349004
20
4.98720826709823
30
0
41
1
10
36.7523774494521
20
5.01285397467654
30
0
41
1
10
37.3838125816146
20
5.05039440848924
30
0
41
1
10
37.6995932842386
20
5.06228112495813
30
0
41
1
10
38.1734924313286
20
5.06961535887442
30
0
41
1
10
38.3315027028066
20
5.07030749114367
30
0
41
1
10
38.5686612188618
20
5.06869009344064
30
0
41
1
10
38.6477593775317
20
5.06770799957644
30
0
41
1
10
38.8058725476912
20
5.06485877226228
30
0
41
1
10
38.8848928809011
20
5.06299188063463
30
0
41
1
10
39.2798420681403
20
5.05145128532354
30
0
41
1
10
39.5953272281749
20
5.035142410524
30
0
41
1
10
40.2264419565149
20
4.98882528092682
30
0
41
1
10
40.5420387861572
20
4.95884128179111
30
0
41
1
10
41.1732601200438
20
4.88531116484666
30
0
41
1
10
41.4888825653754
20
4.84175848672254
30
0
41
1
10
41.9624374524612
20
4.76615362596419
30
0
41
1
10
42.1203155987355
20
4.73923942173175
30
0
41
1
10
42.436294474722
20
4.68208303804923
30
0
41
1
10
42.5944825151554
20
4.65182314343088
30
0
41
1
10
43.0687804256767
20
4.55639546296331
30
0
41
1
10
43.3846388206806
20
4.48658094098263
30
0
41
1
10
43.8577110215442
20
4.37239058878208
30
0
41
1
10
44.015290828713
20
4.33274966272293
30
0
41
1
10
44.3305232844915
20
4.250633128788
30
0
41
1
10
44.4881724893556
20
4.20815719619566
30
0
41
1
10
44.9612585720123
20
4.07655749740718
30
0
41
1
10
45.276828332703
20
3.98326383980498
30
0
41
1
10
45.9083894584045
20
3.78564611799453
30
0
41
1
10
46.2244005525137
20
3.68131473356459
30
0
41
1
10
46.6986759538975
20
3.5163792546123
30
0
41
1
10
46.8565587831751
20
3.4600780936689
30
0
41
1
10
47.1722049412601
20
3.34528543875999
30
0
41
1
10
47.3299701243114
20
3.28679947617977
30
0
41
1
10
47.8030943927663
20
3.10809817809417
30
0
41
1
10
48.1182801170308
20
2.98463004458844
30
0
41
1
10
48.748890049608
20
2.73025503976262
30
0
41
1
10
49.0643130622752
20
2.59935756695677
30
0
41
1
10
49.6954330039329
20
2.33020503742137
30
0
41
1
10
50.0111318162583
20
2.19194965925053
30
0
41
1
10
50.4060980981387
20
2.01475063087767
30
0
41
1
10
50.485130594206
20
1.97907779081831
30
0
41
1
10
50.6430935919939
20
1.90743095036646
30
0
41
1
10
50.7220343585381
20
1.87145343108415
30
0
41
1
10
50.9587868487007
20
1.7631621330849
30
0
41
1
10
51.1165387847598
20
1.69050963766816
30
0
41
1
10
51.5895061553955
20
1.47110971396322
30
0
41
1
10
51.9043932829707
20
1.32284080918132
30
0
41
1
10
52.5336570754577
20
1.02298323217226
30
0
41
1
10
52.8480997283267
20
0.871525641787656
30
0
41
1
10
53.4772085106092
20
0.566779446478989
30
0
41
1
10
53.7918359987445
20
0.413414357399631
30
0
41
1
10
54.4213999223
20
0.105014924635754
30
0
41
1
10
54.7363347036592
20
-0.0500234122258405
30
0
41
1
10
55.0515729576454
20
-0.205615138591838
30
0
0
SPLINE
5
FD
100
AcDbEntity
8
1
62
256
6
ByLayer
370
18
48
1
60
0
100
AcDbSpline
70
4
71
3
72
110
73
106
40
0
40
0
40
0
40
0
40
0.0625000000000075
40
0.0625000000000075
40
0.125000000000015
40
0.125000000000015
40
0.156250000000019
40
0.156250000000019
40
0.187500000000024
40
0.187500000000024
40
0.250000000000034
40
0.250000000000034
40
0.251953125000034
40
0.251953125000034
40
0.253906250000035
40
0.253906250000035
40
0.255859375000035
40
0.255859375000035
40
0.256835937500036
40
0.256835937500036
40
0.257812500000036
40
0.257812500000036
40
0.258789062500036
40
0.258789062500036
40
0.259765625000037
40
0.259765625000037
40
0.260742187500037
40
0.260742187500037
40
0.261718750000037
40
0.261718750000037
40
0.265625000000036
40
0.281250000000033
40
0.281250000000033
40
0.296875000000029
40
0.296875000000029
40
0.312500000000026
40
0.312500000000026
40
0.34375000000002
40
0.34375000000002
40
0.359375000000016
40
0.359375000000016
40
0.367187500000015
40
0.367187500000015
40
0.375000000000013
40
0.375000000000013
40
0.406250000000008
40
0.406250000000008
40
0.437500000000002
40
0.437500000000002
40
0.453125
40
0.453125
40
0.460937499999999
40
0.460937499999999
40
0.468749999999998
40
0.468749999999998
40
0.484374999999996
40
0.484374999999996
40
0.499999999999994
40
0.499999999999994
40
0.507812499999994
40
0.507812499999994
40
0.515624999999993
40
0.531249999999992
40
0.546874999999992
40
0.546874999999992
40
0.554687499999991
40
0.554687499999991
40
0.562499999999991
40
0.562499999999991
40
0.57812499999999
40
0.57812499999999
40
0.58593749999999
40
0.58984374999999
40
0.58984374999999
40
0.59374999999999
40
0.59374999999999
40
0.60937499999999
40
0.60937499999999
40
0.62499999999999
40
0.62499999999999
40
0.64062499999999
40
0.64062499999999
40
0.64843749999999
40
0.64843749999999
40
0.65624999999999
40
0.65624999999999
40
0.68749999999999
40
0.68749999999999
40
0.718749999999989
40
0.718749999999989
40
0.749999999999989
40
0.749999999999989
40
0.765624999999989
40
0.765624999999989
40
0.781249999999989
40
0.781249999999989
40
0.812499999999991
40
0.812499999999991
40
0.843749999999992
40
0.843749999999992
40
0.874999999999994
40
0.874999999999994
40
0.937499999999997
40
0.937499999999997
40
1
40
1
40
1
40
1
41
1
10
8.4596946268839
20
-1.21290496278149
30
0
41
1
10
8.16712304768873
20
-1.07547659830675
30
0
41
1
10
7.87262520591264
20
-0.941512678787262
30
0
41
1
10
7.27863465489159
20
-0.68351840469947
30
0
41
1
10
6.97913229293263
20
-0.559511309278349
30
0
41
1
10
6.52544143533416
20
-0.382861033965611
30
0
41
1
10
6.37341499465927
20
-0.325511593444759
30
0
41
1
10
6.06813882947816
20
-0.214323278494305
30
0
41
1
10
5.91489285742256
20
-0.16048451921219
30
0
41
1
10
5.4532297403872
20
-0.0045434687099259
30
0
41
1
10
5.14278960839741
20
0.0919998683837662
30
0
41
1
10
4.82025801446883
20
0.183094664584672
30
0
41
1
10
4.81048194056612
20
0.185846502025811
30
0
41
1
10
4.79092610932014
20
0.191336859234724
30
0
41
1
10
4.78111779227453
20
0.194052611097874
30
0
41
1
10
4.7613616589185
20
0.197981855735293
30
0
41
1
10
4.75141455979397
20
0.199240172961197
30
0
41
1
10
4.73635737663918
20
0.199730882478718
30
0
41
1
10
4.73131812427343
20
0.199687891041492
30
0
41
1
10
4.72119441755669
20
0.19913948017998
30
0
41
1
10
4.71608414942546
20
0.198605899670554
30
0
41
1
10
4.70603503343304
20
0.197062183320611
30
0
41
1
10
4.70108434884131
20
0.196023344437435
30
0
41
1
10
4.69138139993166
20
0.193228532272144
30
0
41
1
10
4.68662376641927
20
0.191491962540255
30
0
41
1
10
4.67727881029791
20
0.187403211948009
30
0
41
1
10
4.67273158035093
20
0.184997180437989
30
0
41
1
10
4.663897676315
20
0.179823491410446
30
0
41
1
10
4.65950634472173
20
0.177191190429483
30
0
41
1
10
4.63750712074042
20
0.164105523345057
30
0
41
1
10
4.54962798338713
20
0.111554891223847
30
0
41
1
10
4.46238023196486
20
0.0579674580912979
30
0
41
1
10
4.32366574558461
20
-0.029191876792197
30
0
41
1
10
4.25473545643362
20
-0.073491210092385
30
0
41
1
10
4.11805663935959
20
-0.163471976857721
30
0
41
1
10
4.05028091334157
20
-0.209169851704218
30
0
41
1
10
3.84878289627281
20
-0.348555565744618
30
0
41
1
10
3.71687840246633
20
-0.44452149641404
30
0
41
1
10
3.52338225863443
20
-0.593917586867121
30
0
41
1
10
3.4596128362526
20
-0.644627261118728
30
0
41
1
10
3.3651726949233
20
-0.722205865290675
30
0
41
1
10
3.33389524499268
20
-0.748318077048481
30
0
41
1
10
3.27176902703545
20
-0.801076744944368
30
0
41
1
10
3.24089269801658
20
-0.827747692786602
30
0
41
1
10
3.08807274365981
20
-0.962141872625722
30
0
41
1
10
2.97074531703427
20
-1.07297407619973
30
0
41
1
10
2.74815729368564
20
-1.30267030383885
30
0
41
1
10
2.64286876737577
20
-1.4215164379282
30
0
41
1
10
2.49657040674751
20
-1.60745161780878
30
0
41
1
10
2.44975535454421
20
-1.67071535571569
30
0
41
1
10
2.38295155248679
20
-1.76785256737873
30
0
41
1
10
2.36120495721443
20
-1.80068724013404
30
0
41
1
10
2.31927447215375
20
-1.86666303598656
30
0
41
1
10
2.29908080806456
20
-1.89981114221081
30
0
41
1
10
2.24092665059919
20
-1.99975518757339
30
0
41
1
10
2.20538783448799
20
-2.06704996597881
30
0
41
1
10
2.14148078546407
20
-2.20309214978133
30
0
41
1
10
2.11311049340515
20
-2.27183925045497
30
0
41
1
10
2.076620626514
20
-2.37617082276975
30
0
41
1
10
2.06544328196139
20
-2.41126055884701
30
0
41
1
10
2.04548925279295
20
-2.48098675558893
30
0
41
1
10
2.01906944558817
20
-2.58509625384383
30
0
41
1
10
1.99269793091023
20
-2.75617239000061
30
0
41
1
10
1.99082632272137
20
-2.89032705910529
30
0
41
1
10
1.99685084882302
20
-2.98988107256187
30
0
41
1
10
2.00011834090222
20
-3.02299221455888
30
0
41
1
10
2.00902975779823
20
-3.08795528613234
30
0
41
1
10
2.01467040847214
20
-3.11989069576319
30
0
41
1
10
2.0349859330332
20
-3.21412938873112
30
0
41
1
10
2.05304912792582
20
-3.27486734905227
30
0
41
1
10
2.0863869158872
20
-3.36308009685203
30
0
41
1
10
2.10461864677046
20
-3.40646204278229
30
0
41
1
10
2.12511088363507
20
-3.4487948107188
30
0
41
1
10
2.13926641083393
20
-3.47678724401794
30
0
41
1
10
2.14660191192769
20
-3.49068790007181
30
0
41
1
10
2.18433938798083
20
-3.55934973094554
30
0
41
1
10
2.21787742462655
20
-3.61157101718146
30
0
41
1
10
2.29070062724108
20
-3.71136088995607
30
0
41
1
10
2.32998896203827
20
-3.75892698524578
30
0
41
1
10
2.41360862443887
20
-3.84997694377819
30
0
41
1
10
2.45794189444823
20
-3.89345927718443
30
0
41
1
10
2.52781653887783
20
-3.95595365108537
30
0
41
1
10
2.55167163324759
20
-3.97632939319789
30
0
41
1
10
2.60045189706128
20
-4.01621624823173
30
0
41
1
10
2.62541536811844
20
-4.03575451945639
30
0
41
1
10
2.75202379954882
20
-4.1308360104708
30
0
41
1
10
2.85933685722713
20
-4.1989662553579
30
0
41
1
10
3.08317014989339
20
-4.32317777181174
30
0
41
1
10
3.19971459790307
20
-4.37922729694137
30
0
41
1
10
3.44030150838984
20
-4.48160344896345
30
0
41
1
10
3.5643548842896
20
-4.52791572881878
30
0
41
1
10
3.75519588842403
20
-4.5912834738962
30
0
41
1
10
3.81965654474058
20
-4.61139577983809
30
0
41
1
10
3.94926712368047
20
-4.64951470145965
30
0
41
1
10
4.01451192863047
20
-4.66755473513311
30
0
41
1
10
4.21145220958232
20
-4.71890413323902
30
0
41
1
10
4.3443489700019
20
-4.74945403651071
30
0
41
1
10
4.61288947528581
20
-4.80437486003891
30
0
41
1
10
4.74853510785354
20
-4.82874116546679
30
0
41
1
10
5.0222446320571
20
-4.87216090931227
30
0
41
1
10
5.16030962028824
20
-4.89121166084917
30
0
41
1
10
5.57776137160175
20
-4.9413925877686
30
0
41
1
10
5.8603868606759
20
-4.9655959415318
30
0
41
1
10
6.43291726102547
20
-4.9993286063989
30
0
41
1
10
6.7228318499522
20
-5.00883408590377
30
0
41
1
10
7.01595508598555
20
-5.0122914779711
30
0
0
SPLINE
5
FE
100
AcDbEntity
8
1
62
256
6
ByLayer
370
18
48
1
60
0
100
AcDbSpline
70
4
71
3
72
10
73
6
40
0
40
0
40
0
40
0
40
0.264917105262534
40
0.264917105262534
40
1
40
1
40
1
40
1
41
1
10
12.8919866507582
20
-3.11224765761045
30
0
41
1
10
12.3660883055185
20
-3.27574606422931
30
0
41
1
10
11.8421861584639
20
-3.4407830622861
30
0
41
1
10
9.87169334031822
20
-4.06833870227339
30
0
41
1
10
8.43767604928675
20
-4.5386988213381
30
0
41
1
10
7.01595893401932
20
-5.01229149793446
30
0
0
SPLINE
5
FF
100
AcDbEntity
8
SK1
62
256
6
ByLayer
370
18
48
1
60
0
100
AcDbSpline
70
4
71
3
72
8
73
4
40
0
40
0
40
0
40
0
40
1
40
1
40
1
40
1
41
1
10
-44.25
20
-1.30660626110927
30
0
41
1
10
-44.5004726338976
20
-1.19191464438026
30
0
41
1
10
-44.7505581229217
20
-1.07705402811791
30
0
41
1
10
-45
20
-0.961912457293323
30
0
0
SPLINE
5
100
100
AcDbEntity
8
SK1
62
256
6
ByLayer
370
18
48
1
60
0
100
AcDbSpline
70
4
71
3
72
20
73
16
40
0
40
0
40
0
40
0
40
0.0624999999999999
40
0.0624999999999999
40
0.125
40
0.125
40
0.25
40
0.25
40
0.375
40
0.375
40
0.5
40
0.5
40
0.75
40
0.75
40
1
40
1
40
1
40
1
41
1
10
-44.15
20
-1.45024578851022
30
0
41
1
10
-44.15
20
-1.44620541042741
30
0
41
1
10
-44.1502569146169
20
-1.44211372326376
30
0
41
1
10
-44.1512466991598
20
-1.43383518987562
30
0
41
1
10
-44.1519837129547
20
-1.4296528681071
30
0
41
1
10
-44.1547653438365
20
-1.41737573583851
30
0
41
1
10
-44.1574101181635
20
-1.40934442230974
30
0
41
1
10
-44.1638373738149
20
-1.39387969831802
30
0
41
1
10
-44.1675465419207
20
-1.38659648614666
30
0
41
1
10
-44.1757372414659
20
-1.37272841616217
30
0
41
1
10
-44.1802613014627
20
-1.36610315056674
30
0
41
1
10
-44.1944507164524
20
-1.34769784616802
30
0
41
1
10
-44.2047953517104
20
-1.33716982760643
30
0
41
1
10
-44.226908544871
20
-1.31914409961433
30
0
41
1
10
-44.2382901766631
20
-1.31196819845636
30
0
41
1
10
-44.25
20
-1.30660626110924
30
0
0
SPLINE
5
101
100
AcDbEntity
8
SK1
62
256
6
ByLayer
370
18
48
1
60
0
100
AcDbSpline
70
4
71
3
72
20
73
16
40
0
40
0
40
0
40
0
40
0.250000000000008
40
0.250000000000008
40
0.375000000000007
40
0.375000000000007
40
0.500000000000005
40
0.500000000000005
40
0.625000000000004
40
0.625000000000004
40
0.750000000000003
40
0.750000000000003
40
0.875000000000001
40
0.875000000000001
40
1
40
1
40
1
40
1
41
1
10
-44.25
20
-3.09400330022149
30
0
41
1
10
-44.2382877407461
20
-3.09936635297689
30
0
41
1
10
-44.226914977972
20
-3.10297328980096
30
0
41
1
10
-44.2103576071414
20
-3.10572181994559
30
0
41
1
10
-44.2049751381096
20
-3.10617003193659
30
0
41
1
10
-44.1946946812026
20
-3.10607730315471
30
0
41
1
10
-44.1897650588918
20
-3.10554320335837
30
0
41
1
10
-44.1803754339179
20
-3.10337781637202
30
0
41
1
10
-44.1758982216171
20
-3.1017421264628
30
0
41
1
10
-44.1675998620729
20
-3.09711552753325
30
0
41
1
10
-44.1638730040088
20
-3.09418380678901
30
0
41
1
10
-44.1574568338975
20
-3.08679394789627
30
0
41
1
10
-44.1547730646344
20
-3.0822960425991
30
0
41
1
10
-44.1510607548749
20
-3.07179791738349
30
0
41
1
10
-44.15
20
-3.06563867940403
30
0
41
1
10
-44.15
20
-3.05890312371119
30
0
0
SPLINE
5
102
100
AcDbEntity
8
SK1
62
256
6
ByLayer
370
18
48
1
60
0
100
AcDbSpline
70
4
71
3
72
8
73
4
40
0
40
0
40
0
40
0
40
1
40
1
40
1
40
1
41
1
10
-45
20
-2.74930949640552
30
0
41
1
10
-44.7505674881679
20
-2.86444674426247
30
0
41
1
10
-44.5004730197948
20
-2.97931150678983
30
0
41
1
10
-44.25
20
-3.09400330022146
30
0
0
SPLINE
5
103
100
AcDbEntity
8
1
62
256
6
ByLayer
370
18
48
1
60
0
100
AcDbSpline
70
4
71
3
72
24
73
20
40
0
40
0
40
0
40
0
40
0.0611978757499682
40
0.114246115847091
40
0.150024065747079
40
0.172948056537679
40
0.199398659498925
40
0.297191712623418
40
0.373101764099949
40
0.470790155139074
40
0.546334545804286
40
0.643774945502776
40
0.690587907879019
40
0.74127192097093
40
0.804534433005476
40
0.855578976025294
40
0.902485346338883
40
0.964892662435528
40
1
40
1
40
1
40
1
41
1
10
24.6999923322042
20
-4.84897653072417
30
0
41
1
10
24.9199614853074
20
-4.85069472305852
30
0
41
1
10
25.3315748366506
20
-4.8532297072033
30
0
41
1
10
25.8735020841434
20
-4.85448063750479
30
0
41
1
10
26.2797483948183
20
-4.85499271416708
30
0
41
1
10
26.5891123918704
20
-4.85557050123586
30
0
41
1
10
27.1241713227533
20
-4.85636560216244
30
0
41
1
10
27.8522990459325
20
-4.85715606858821
30
0
41
1
10
28.8393509323952
20
-4.86047264547054
30
0
41
1
10
29.7455379881406
20
-4.86159130168048
30
0
41
1
10
30.730020689729
20
-4.86250928177697
30
0
41
1
10
31.5294565474417
20
-4.86608973580363
30
0
41
1
10
32.2384775346052
20
-4.86647000243011
30
0
41
1
10
32.8231871742348
20
-4.86688021995445
30
0
41
1
10
33.4232880764141
20
-4.8671037928161
30
0
41
1
10
34.0096438095692
20
-4.8690103388042
30
0
41
1
10
34.5928979816901
20
-4.87065662868309
30
0
41
1
10
35.1181591403404
20
-4.87121152439141
30
0
41
1
10
35.4728619838082
20
-4.8722132652733
30
0
41
1
10
35.6005348875843
20
-4.87258959641127
30
0
0
SPLINE
5
104
100
AcDbEntity
8
1
62
256
6
ByLayer
370
18
48
1
60
0
100
AcDbSpline
70
4
71
3
72
18
73
14
40
0
40
0
40
0
40
0
40
0.0731792498673561
40
0.160148316044692
40
0.264898618467792
40
0.396326818448566
40
0.529519871473511
40
0.6248628514105
40
0.697470548290152
40
0.739927154954179
40
0.809481137397599
40
0.906183478804084
40
1
40
1
40
1
40
1
41
1
10
55.285409237162
20
0.897991856241816
30
0
41
1
10
55.1577526534016
20
0.937948427566255
30
0
41
1
10
54.8786597890254
20
1.02645101096428
30
0
41
1
10
54.4180794106503
20
1.17713886751372
30
0
41
1
10
53.857506586034
20
1.36532876076473
30
0
41
1
10
53.2193169937453
20
1.58691556677732
30
0
41
1
10
52.5994929162502
20
1.80988388220985
30
0
41
1
10
52.0826273480566
20
2.00140509698741
30
0
41
1
10
51.7223647123501
20
2.13774652932392
30
0
41
1
10
51.406729279447
20
2.25889485282536
30
0
41
1
10
51.050509104355
20
2.39752945830188
30
0
41
1
10
50.6076674594177
20
2.57307945844411
30
0
41
1
10
50.2844306386216
20
2.70469787437605
30
0
41
1
10
50.1255197136654
20
2.77018753342685
30
0
0
SPLINE
5
105
100
AcDbEntity
8
1
62
256
6
ByLayer
370
18
48
1
60
0
100
AcDbSpline
70
4
71
3
72
37
73
33
40
0
40
0
40
0
40
0
40
6.3797598661E-06
40
2.78810386352E-05
40
4.35981837828E-05
40
5.57215614449E-05
40
6.63223046162E-05
40
0.0001275020585114
40
0.0001747393776785
40
0.00026173716069
40
0.0004259419423137
40
0.0007488653295276
40
0.0014209995178628
40
0.0063462368591089
40
0.0307373671030947
40
0.0599374626989451
40
0.0897032127161229
40
0.120034585298785
40
0.215542039704458
40
0.284808597739993
40
0.349994739192288
40
0.407036411322516
40
0.46509922828874
40
0.539223883768292
40
0.615231330120804
40
0.66536653799826
40
0.71101624677847
40
0.750799875547006
40
0.78792769757231
40
0.846315132066653
40
0.93086292278973
40
1
40
1
40
1
40
1
41
1
10
25.5020647871712
20
0.07019371730496
30
0
41
1
10
25.5020719731241
20
0.0701919262231456
30
0
41
1
10
25.5021008060656
20
0.0701847596295408
30
0
41
1
10
25.5021256988703
20
0.0701787163086749
30
0
41
1
10
25.5021081770582
20
0.0701846161803417
30
0
41
1
10
25.5020680871584
20
0.0701957360086567
30
0
41
1
10
25.5019011451407
20
0.0702405434648483
30
0
41
1
10
25.5015991664526
20
0.0703206877477953
30
0
41
1
10
25.5011480986701
20
0.0704408791239928
30
0
41
1
10
25.5004318247458
20
0.0706312853766633
30
0
41
1
10
25.4990410532275
20
0.0710005278602353
30
0
41
1
10
25.4961857598059
20
0.0717571430070905
30
0
41
1
10
25.4812523876904
20
0.0757035700021333
30
0
41
1
10
25.4021038530418
20
0.0965280594522824
30
0
41
1
10
25.2453337078477
20
0.138058242025409
30
0
41
1
10
25.0227412129115
20
0.197928795411173
30
0
41
1
10
24.7843669774356
20
0.263075952433638
30
0
41
1
10
24.3694997948444
20
0.378302480041754
30
0
41
1
10
23.8504700174629
20
0.527281267814516
30
0
41
1
10
23.2407584563727
20
0.709665446029533
30
0
41
1
10
22.7344416307023
20
0.866106248852077
30
0
41
1
10
22.2588697237092
20
1.01729419785809
30
0
41
1
10
21.7609286873742
20
1.17977154760305
30
0
41
1
10
21.2146858674344
20
1.36326127989128
30
0
41
1
10
20.6910585922995
20
1.54484626653712
30
0
41
1
10
20.2432793727732
20
1.70420131369582
30
0
41
1
10
19.8907102186679
20
1.83210101168134
30
0
41
1
10
19.5726163165916
20
1.94944939234338
30
0
41
1
10
19.2221325985028
20
2.08065739084202
30
0
41
1
10
18.7566295457894
20
2.25822585124436
30
0
41
1
10
18.2099578387141
20
2.47165103646907
30
0
41
1
10
17.8158178635476
20
2.63147776173949
30
0
41
1
10
17.6388616722086
20
2.70429181017553
30
0
0
SPLINE
5
106
100
AcDbEntity
8
1
62
256
6
ByLayer
370
18
48
1
60
0
100
AcDbSpline
70
4
71
3
72
32
73
28
40
0
40
0
40
0
40
0
40
0.0609571454947694
40
0.115910394517846
40
0.163458921713475
40
0.200069103446546
40
0.239324850409213
40
0.289336551504469
40
0.334794492774816
40
0.367141795827836
40
0.403797353519316
40
0.449524162577077
40
0.49192854677209
40
0.525011147647929
40
0.560119559762648
40
0.611147326525983
40
0.65877053195071
40
0.69551825322399
40
0.738876367819876
40
0.791495983181652
40
0.835090281816762
40
0.861945176432882
40
0.894399939284642
40
0.933692191216909
40
0.971008638610928
40
0.995465928118145
40
1
40
1
40
1
40
1
41
1
10
38.3057156485014
20
4.87568069325997
30
0
41
1
10
38.0708291534247
20
4.87423700879776
30
0
41
1
10
37.6226349622731
20
4.87244220928244
30
0
41
1
10
36.9750566758791
20
4.87387843462585
30
0
41
1
10
36.438817847967
20
4.87476645007504
30
0
41
1
10
35.9516034322163
20
4.87376635061744
30
0
41
1
10
35.4570700281839
20
4.87197330656156
30
0
41
1
10
34.9269214503231
20
4.87101841259462
30
0
41
1
10
34.4241925541244
20
4.87026417466964
30
0
41
1
10
33.9739410092157
20
4.86886308576712
30
0
41
1
10
33.5226455808497
20
4.86736760011274
30
0
41
1
10
33.0317818828015
20
4.86699612693712
30
0
41
1
10
32.5549761807737
20
4.8666770726544
30
0
41
1
10
32.1199369546616
20
4.86641583716928
30
0
41
1
10
31.6509769431246
20
4.8660592036598
30
0
41
1
10
31.1248227692848
20
4.86438629990602
30
0
41
1
10
30.5922207915918
20
4.86256591552487
30
0
41
1
10
30.0897846075269
20
4.86202582577266
30
0
41
1
10
29.5676953192372
20
4.8612628380653
30
0
41
1
10
29.0186740707893
20
4.86051883954337
30
0
41
1
10
28.5345701981277
20
4.85949644134544
30
0
41
1
10
28.1297889906898
20
4.85818357852804
30
0
41
1
10
27.7419282503282
20
4.85722695474254
30
0
41
1
10
27.3129228384916
20
4.85662920280737
30
0
41
1
10
26.9153452000682
20
4.85604398505862
30
0
41
1
10
26.65462884209
20
4.85566724588071
30
0
41
1
10
26.5406876003137
20
4.85547134297303
30
0
41
1
10
26.5228686565606
20
4.85544030241235
30
0
0
LINE
5
82
100
AcDbEntity
8
81
62
256
6
ByLayer
370
18
48
1
60
0
100
AcDbLine
10
57
20
0
30
0
11
60
21
0
31
0
39
0
210
0
220
0
230
1
0
LINE
5
83
100
AcDbEntity
8
80
62
256
6
ByLayer
370
18
48
1
60
0
100
AcDbLine
10
0
20
0
30
0
11
-3
21
0
31
0
39
0
210
0
220
0
230
1
0
LINE
5
84
100
AcDbEntity
8
SK4
62
256
6
ByLayer
370
18
48
0.05
60
0
100
AcDbLine
10
-48
20
0
30
0
11
60
21
0
31
0
39
0
210
0
220
0
230
1
0
LINE
5
86
100
AcDbEntity
8
4
62
256
6
ByLayer
370
18
48
0.05
60
0
100
AcDbLine
10
0
20
0
30
0
11
57
21
0
31
0
39
0
210
0
220
0
230
1
0
LINE
5
88
100
AcDbEntity
8
1
62
256
6
ByLayer
370
18
48
1
60
0
100
AcDbLine
10
0
20
6
30
0
11
0
21
-6
31
0
39
0
210
0
220
0
230
1
0
LINE
5
89
100
AcDbEntity
8
1
62
256
6
ByLayer
370
13
48
1
60
0
100
AcDbLine
10
56.887318
20
0.523077
30
0
11
55.797847
21
1.616668
31
0
39
0
210
0
220
0
230
1
0
LINE
5
8A
100
AcDbEntity
8
1
62
256
6
ByLayer
370
18
48
1
60
0
100
AcDbLine
10
24.700065
20
-4.849135
30
0
11
24.700054
21
-4.851328
31
0
39
0
210
0
220
0
230
1
0
LINE
5
8B
100
AcDbEntity
8
1
62
256
6
ByLayer
370
18
48
1
60
0
100
AcDbLine
10
24.599757
20
-5.045015
30
0
11
24.599757
21
-1.41235
31
0
39
0
210
0
220
0
230
1
0
LINE
5
8C
100
AcDbEntity
8
1
62
256
6
ByLayer
370
18
48
1
60
0
100
AcDbLine
10
24.599757
20
4.934942
30
0
11
24.599757
21
4.914121
31
0
39
0
210
0
220
0
230
1
0
LINE
5
8D
100
AcDbEntity
8
1
62
256
6
ByLayer
370
18
48
1
60
0
100
AcDbLine
10
24.599757
20
5.045015
30
0
11
24.599757
21
5.031368
31
0
39
0
210
0
220
0
230
1
0
LINE
5
8E
100
AcDbEntity
8
1
62
256
6
ByLayer
370
13
48
1
60
0
100
AcDbLine
10
1.483298
20
-5.003406
30
0
11
1.483298
21
5.003406
31
0
39
0
210
0
220
0
230
1
0
LINE
5
8F
100
AcDbEntity
8
1
62
256
6
ByLayer
370
13
48
1
60
0
100
AcDbLine
10
0.740929
20
-5.501702
30
0
11
0.740929
21
5.501702
31
0
39
0
210
0
220
0
230
1
0
LINE
5
90
100
AcDbEntity
8
SK1
62
256
6
ByLayer
370
18
48
1
60
0
100
AcDbLine
10
-45
20
-0.961949
30
0
11
-45
21
-2.749309
31
0
39
0
210
0
220
0
230
1
0
LINE
5
92
100
AcDbEntity
8
SK1
62
256
6
ByLayer
370
13
48
1
60
0
100
AcDbLine
10
-44.25
20
-3.094003
30
0
11
-44.25
21
-1.306599
31
0
39
0
210
0
220
0
230
1
0
LINE
5
93
100
AcDbEntity
8
SK1
62
256
6
ByLayer
370
18
48
1
60
0
100
AcDbLine
10
-44.15
20
-3.058903
30
0
11
-44.15
21
-1.450246
31
0
39
0
210
0
220
0
230
1
0
LINE
5
94
100
AcDbEntity
8
SK1
62
256
6
ByLayer
370
18
48
1
60
0
100
AcDbLine
10
-45
20
-4.255
30
0
11
-45
21
-2.749309
31
0
39
0
210
0
220
0
230
1
0
LINE
5
95
100
AcDbEntity
8
SK1
62
256
6
ByLayer
370
18
48
1
60
0
100
AcDbLine
10
-45
20
4.255
30
0
11
-45
21
-0.961912
31
0
39
0
210
0
220
0
230
1
0
LINE
5
96
100
AcDbEntity
8
SK1
62
256
6
ByLayer
370
18
48
1
60
0
100
AcDbLine
10
-43.255
20
-6
30
0
11
-43.255
21
6
31
0
39
0
210
0
220
0
230
1
0
LINE
5
97
100
AcDbEntity
8
SK1
62
256
6
ByLayer
370
18
48
1
60
0
100
AcDbLine
10
0
20
6
30
0
11
0
21
-6
31
0
39
0
210
0
220
0
230
1
0
LINE
5
98
100
AcDbEntity
8
1
62
256
6
ByLayer
370
18
48
1
60
0
100
AcDbLine
10
1.483298
20
-5.003406
30
0
11
7.229909
21
-5.01375
31
0
39
0
210
0
220
0
230
1
0
LINE
5
99
100
AcDbEntity
8
1
62
256
6
ByLayer
370
18
48
1
60
0
100
AcDbLine
10
22.230023
20
-5.04075
30
0
11
24.599757
21
-5.045015
31
0
39
0
210
0
220
0
230
1
0
LINE
5
9A
100
AcDbEntity
8
1
62
256
6
ByLayer
370
18
48
1
60
0
100
AcDbLine
10
38.30589
20
-5.069686
30
0
11
39.803329
21
-5.072382
31
0
39
0
210
0
220
0
230
1
0
LINE
5
9B
100
AcDbEntity
8
1
62
256
6
ByLayer
370
18
48
1
60
0
100
AcDbLine
10
39.803329
20
5.072382
30
0
11
38.30589
21
5.069686
31
0
39
0
210
0
220
0
230
1
0
LINE
5
9C
100
AcDbEntity
8
1
62
256
6
ByLayer
370
18
48
1
60
0
100
AcDbLine
10
24.599757
20
5.045015
30
0
11
22.230023
21
5.04075
31
0
39
0
210
0
220
0
230
1
0
LINE
5
9D
100
AcDbEntity
8
1
62
256
6
ByLayer
370
18
48
1
60
0
100
AcDbLine
10
7.229909
20
5.01375
30
0
11
1.483298
21
5.003406
31
0
39
0
210
0
220
0
230
1
0
LINE
5
9E
100
AcDbEntity
8
SK1
62
256
6
ByLayer
370
18
48
1
60
0
100
AcDbLine
10
-45.002145
20
0.327807
30
0
11
-44.999999
21
0.328408
31
0
39
0
210
0
220
0
230
1
0
LINE
5
9F
100
AcDbEntity
8
SK1
62
256
6
ByLayer
370
18
48
1
60
0
100
AcDbLine
10
-44.998294
20
-0.328886
30
0
11
-45.002145
21
-0.327807
31
0
39
0
210
0
220
0
230
1
0
LINE
5
A0
100
AcDbEntity
8
SK1
62
256
6
ByLayer
370
18
48
1
60
0
100
AcDbLine
10
-45
20
-4.255
30
0
11
-43.255
21
-6
31
0
39
0
210
0
220
0
230
1
0
LINE
5
A1
100
AcDbEntity
8
SK1
62
256
6
ByLayer
370
18
48
1
60
0
100
AcDbLine
10
-43.255
20
6
30
0
11
-45
21
4.255
31
0
39
0
210
0
220
0
230
1
0
LINE
5
A2
100
AcDbEntity
8
SK1
62
256
6
ByLayer
370
18
48
1
60
0
100
AcDbLine
10
-43.255
20
-6
30
0
11
0
21
-6
31
0
39
0
210
0
220
0
230
1
0
LINE
5
A3
100
AcDbEntity
8
SK1
62
256
6
ByLayer
370
18
48
1
60
0
100
AcDbLine
10
0
20
6
30
0
11
-43.255
21
6
31
0
39
0
210
0
220
0
230
1
0
LINE
5
A4
100
AcDbEntity
8
2
62
256
6
ByLayer
370
13
48
1
60
0
100
AcDbLine
10
64.5
20
-5.1
30
0
11
64.5
21
30.891027
31
0
39
0
210
0
220
0
230
1
0
LINE
5
A6
100
AcDbEntity
8
2
62
256
6
ByLayer
370
13
48
1
60
0
100
AcDbLine
10
58.5875
20
5.1
30
0
11
66.5
21
5.1
31
0
39
0
210
0
220
0
230
1
0
LINE
5
A7
100
AcDbEntity
8
2
62
256
6
ByLayer
370
13
48
1
60
0
100
AcDbLine
10
58.5875
20
-5.1
30
0
11
66.5
21
-5.1
31
0
39
0
210
0
220
0
230
1
0
LINE
5
A8
100
AcDbEntity
8
1
62
256
6
ByLayer
370
18
48
1
60
1
100
AcDbLine
10
64.5
20
5.1
30
0
11
64.960784
21
1.600002
31
0
39
0
210
0
220
0
230
1
0
LINE
5
A9
100
AcDbEntity
8
1
62
256
6
ByLayer
370
18
48
1
60
1
100
AcDbLine
10
64.960784
20
1.600002
30
0
11
64.039216
21
1.599998
31
0
39
0
210
0
220
0
230
1
0
LINE
5
AA
100
AcDbEntity
8
1
62
256
6
ByLayer
370
18
48
1
60
1
100
AcDbLine
10
64.039216
20
1.599998
30
0
11
64.5
21
5.1
31
0
39
0
210
0
220
0
230
1
0
LINE
5
AB
100
AcDbEntity
8
1
62
256
6
ByLayer
370
18
48
1
60
1
100
AcDbLine
10
64.5
20
-5.1
30
0
11
64.039216
21
-1.600002
31
0
39
0
210
0
220
0
230
1
0
LINE
5
AC
100
AcDbEntity
8
1
62
256
6
ByLayer
370
18
48
1
60
1
100
AcDbLine
10
64.039216
20
-1.600002
30
0
11
64.960784
21
-1.599998
31
0
39
0
210
0
220
0
230
1
0
LINE
5
AD
100
AcDbEntity
8
1
62
256
6
ByLayer
370
18
48
1
60
1
100
AcDbLine
10
64.960784
20
-1.599998
30
0
11
64.5
21
-5.1
31
0
39
0
210
0
220
0
230
1
0
LINE
5
AE
100
AcDbEntity
8
SK2
62
256
6
ByLayer
370
13
48
1
60
0
100
AcDbLine
10
-53.5
20
-6
30
0
11
-53.5
21
15.333771
31
0
39
0
210
0
220
0
230
1
0
LINE
5
B0
100
AcDbEntity
8
SK2
62
256
6
ByLayer
370
13
48
1
60
0
100
AcDbLine
10
-46.5875
20
6
30
0
11
-55.5
21
6
31
0
39
0
210
0
220
0
230
1
0
LINE
5
B1
100
AcDbEntity
8
SK2
62
256
6
ByLayer
370
13
48
1
60
0
100
AcDbLine
10
-46.5875
20
-6
30
0
11
-55.5
21
-6
31
0
39
0
210
0
220
0
230
1
0
LINE
5
B2
100
AcDbEntity
8
1
62
256
6
ByLayer
370
18
48
1
60
1
100
AcDbLine
10
-53.5
20
6
30
0
11
-53.039216
21
2.500002
31
0
39
0
210
0
220
0
230
1
0
LINE
5
B3
100
AcDbEntity
8
1
62
256
6
ByLayer
370
18
48
1
60
1
100
AcDbLine
10
-53.039216
20
2.500002
30
0
11
-53.960784
21
2.499998
31
0
39
0
210
0
220
0
230
1
0
LINE
5
B4
100
AcDbEntity
8
1
62
256
6
ByLayer
370
18
48
1
60
1
100
AcDbLine
10
-53.960784
20
2.499998
30
0
11
-53.5
21
6
31
0
39
0
210
0
220
0
230
1
0
LINE
5
B5
100
AcDbEntity
8
1
62
256
6
ByLayer
370
18
48
1
60
1
100
AcDbLine
10
-53.5
20
-6
30
0
11
-53.960784
21
-2.500002
31
0
39
0
210
0
220
0
230
1
0
LINE
5
B6
100
AcDbEntity
8
1
62
256
6
ByLayer
370
18
48
1
60
1
100
AcDbLine
10
-53.960784
20
-2.500002
30
0
11
-53.039216
21
-2.499998
31
0
39
0
210
0
220
0
230
1
0
LINE
5
B7
100
AcDbEntity
8
1
62
256
6
ByLayer
370
18
48
1
60
1
100
AcDbLine
10
-53.039216
20
-2.499998
30
0
11
-53.5
21
-6
31
0
39
0
210
0
220
0
230
1
0
LINE
5
B8
100
AcDbEntity
8
SK2
62
256
6
ByLayer
370
13
48
1
60
0
100
AcDbLine
10
57.542893
20
1.491785
30
0
11
64.828561
21
21.51167
31
0
39
0
210
0
220
0
230
1
0
LINE
5
B9
100
AcDbEntity
8
SK2
62
256
6
ByLayer
370
13
48
1
60
0
100
AcDbLine
10
57.542893
20
-1.491785
30
0
11
64.828561
21
-21.51167
31
0
39
0
210
0
220
0
230
1
0
LINE
5
BA
100
AcDbEntity
8
1
62
256
6
ByLayer
370
18
48
1
60
1
100
AcDbLine
10
64.144601
20
19.632255
30
0
11
67.556234
21
18.725024
31
0
39
0
210
0
220
0
230
1
0
LINE
5
BB
100
AcDbEntity
8
1
62
256
6
ByLayer
370
18
48
1
60
1
100
AcDbLine
10
67.556234
20
18.725024
30
0
11
67.20518
21
17.872939
31
0
39
0
210
0
220
0
230
1
0
LINE
5
BC
100
AcDbEntity
8
1
62
256
6
ByLayer
370
18
48
1
60
1
100
AcDbLine
10
67.20518
20
17.872939
30
0
11
64.144601
21
19.632255
31
0
39
0
210
0
220
0
230
1
0
LINE
5
BD
100
AcDbEntity
8
1
62
256
6
ByLayer
370
18
48
1
60
1
100
AcDbLine
10
64.144601
20
-19.632255
30
0
11
67.205177
21
-17.872941
31
0
39
0
210
0
220
0
230
1
0
LINE
5
BE
100
AcDbEntity
8
1
62
256
6
ByLayer
370
18
48
1
60
1
100
AcDbLine
10
67.205177
20
-17.872941
30
0
11
67.556237
21
-18.725022
31
0
39
0
210
0
220
0
230
1
0
LINE
5
BF
100
AcDbEntity
8
1
62
256
6
ByLayer
370
18
48
1
60
1
100
AcDbLine
10
67.556237
20
-18.725022
30
0
11
64.144601
21
-19.632255
31
0
39
0
210
0
220
0
230
1
0
LINE
5
107
100
AcDbEntity
8
1
62
256
6
ByLayer
370
13
48
0.05
60
0
100
AcDbLine
10
-51.5
20
0
30
0
11
61.649551
21
0
31
0
39
0
210
0
220
0
230
1
0
LINE
5
10C
100
AcDbEntity
8
1
62
256
6
ByLayer
370
18
48
1
60
1
100
AcDbLine
10
64.5
20
5.1
30
0
11
64.960784
21
1.600002
31
0
39
0
210
0
220
0
230
1
0
LINE
5
10D
100
AcDbEntity
8
1
62
256
6
ByLayer
370
18
48
1
60
1
100
AcDbLine
10
64.960784
20
1.600002
30
0
11
64.039216
21
1.599998
31
0
39
0
210
0
220
0
230
1
0
LINE
5
10E
100
AcDbEntity
8
1
62
256
6
ByLayer
370
18
48
1
60
1
100
AcDbLine
10
64.039216
20
1.599998
30
0
11
64.5
21
5.1
31
0
39
0
210
0
220
0
230
1
0
LINE
5
110
100
AcDbEntity
8
1
62
256
6
ByLayer
370
18
48
1
60
1
100
AcDbLine
10
64.5
20
-5.1
30
0
11
64.039216
21
-1.600002
31
0
39
0
210
0
220
0
230
1
0
LINE
5
111
100
AcDbEntity
8
1
62
256
6
ByLayer
370
18
48
1
60
1
100
AcDbLine
10
64.039216
20
-1.600002
30
0
11
64.960784
21
-1.599998
31
0
39
0
210
0
220
0
230
1
0
LINE
5
112
100
AcDbEntity
8
1
62
256
6
ByLayer
370
18
48
1
60
1
100
AcDbLine
10
64.960784
20
-1.599998
30
0
11
64.5
21
-5.1
31
0
39
0
210
0
220
0
230
1
0
LINE
5
116
100
AcDbEntity
8
1
62
256
6
ByLayer
370
18
48
1
60
1
100
AcDbLine
10
-53.5
20
6
30
0
11
-53.039216
21
2.500002
31
0
39
0
210
0
220
0
230
1
0
LINE
5
117
100
AcDbEntity
8
1
62
256
6
ByLayer
370
18
48
1
60
1
100
AcDbLine
10
-53.039216
20
2.500002
30
0
11
-53.960784
21
2.499998
31
0
39
0
210
0
220
0
230
1
0
LINE
5
118
100
AcDbEntity
8
1
62
256
6
ByLayer
370
18
48
1
60
1
100
AcDbLine
10
-53.960784
20
2.499998
30
0
11
-53.5
21
6
31
0
39
0
210
0
220
0
230
1
0
LINE
5
11A
100
AcDbEntity
8
1
62
256
6
ByLayer
370
18
48
1
60
1
100
AcDbLine
10
-53.5
20
-6
30
0
11
-53.960784
21
-2.500002
31
0
39
0
210
0
220
0
230
1
0
LINE
5
11B
100
AcDbEntity
8
1
62
256
6
ByLayer
370
18
48
1
60
1
100
AcDbLine
10
-53.960784
20
-2.500002
30
0
11
-53.039216
21
-2.499998
31
0
39
0
210
0
220
0
230
1
0
LINE
5
11C
100
AcDbEntity
8
1
62
256
6
ByLayer
370
18
48
1
60
1
100
AcDbLine
10
-53.039216
20
-2.499998
30
0
11
-53.5
21
-6
31
0
39
0
210
0
220
0
230
1
0
LINE
5
11F
100
AcDbEntity
8
1
62
256
6
ByLayer
370
18
48
1
60
1
100
AcDbLine
10
64.144601
20
19.632255
30
0
11
67.556234
21
18.725024
31
0
39
0
210
0
220
0
230
1
0
LINE
5
120
100
AcDbEntity
8
1
62
256
6
ByLayer
370
18
48
1
60
1
100
AcDbLine
10
67.556234
20
18.725024
30
0
11
67.20518
21
17.872939
31
0
39
0
210
0
220
0
230
1
0
LINE
5
121
100
AcDbEntity
8
1
62
256
6
ByLayer
370
18
48
1
60
1
100
AcDbLine
10
67.20518
20
17.872939
30
0
11
64.144601
21
19.632255
31
0
39
0
210
0
220
0
230
1
0
LINE
5
123
100
AcDbEntity
8
1
62
256
6
ByLayer
370
18
48
1
60
1
100
AcDbLine
10
64.144601
20
-19.632255
30
0
11
67.205177
21
-17.872941
31
0
39
0
210
0
220
0
230
1
0
LINE
5
124
100
AcDbEntity
8
1
62
256
6
ByLayer
370
18
48
1
60
1
100
AcDbLine
10
67.205177
20
-17.872941
30
0
11
67.556237
21
-18.725022
31
0
39
0
210
0
220
0
230
1
0
LINE
5
125
100
AcDbEntity
8
1
62
256
6
ByLayer
370
18
48
1
60
1
100
AcDbLine
10
67.556237
20
-18.725022
30
0
11
64.144601
21
-19.632255
31
0
39
0
210
0
220
0
230
1
0
MTEXT
5
108
100
AcDbEntity
8
2
62
256
6
ByLayer
370
18
48
1
60
0
100
AcDbMText
10
63.158886
20
18.758437
30
0
210
0
220
0
230
1
1
%%c
40
3
41
0
44
1.084337
50
90
71
7
72
5
7
iso_b_vert
0
MTEXT
5
10B
100
AcDbEntity
8
2
62
256
6
ByLayer
370
18
48
1
60
0
100
AcDbMText
10
63.158886
20
24.735
30
0
210
0
220
0
230
1
1
\W0.6563;10.2
40
3
41
0
44
1.084337
50
90
71
7
72
5
7
iso_b_vert
0
MTEXT
5
114
100
AcDbEntity
8
SK2
62
256
6
ByLayer
370
18
48
1
60
0
100
AcDbMText
10
-54.841114
20
6.658437
30
0
210
0
220
0
230
1
1
%%c
40
3
41
0
44
1.084337
50
90
71
7
72
5
7
iso_b_vert
0
MTEXT
5
115
100
AcDbEntity
8
SK2
62
256
6
ByLayer
370
18
48
1
60
0
100
AcDbMText
10
-54.841114
20
12.635
30
0
210
0
220
0
230
1
1
\W0.5321;12
40
3
41
0
44
1.084337
50
90
71
7
72
5
7
iso_b_vert
0
MTEXT
5
11E
100
AcDbEntity
8
SK2
62
256
6
ByLayer
370
18
48
1
60
0
100
AcDbMText
10
74.451226
20
-2.114886
30
0
210
0
220
0
230
1
1
\W0.7071;140%%d
40
3
41
0
44
1.084337
50
0
71
7
72
5
7
iso_b_vert
0
MTEXT
5
127
100
AcDbEntity
8
SK6
62
256
6
ByLayer
370
18
48
1
60
0
100
AcDbMText
10
-17.469883
20
-47.270517
30
0
210
0
220
0
230
1
1
\W0.7415;860.1-1020-032A1-SD S2BM
40
3
41
0
44
1.084337
50
0
71
7
72
5
7
iso_b_vert
0
HATCH
5
10F
100
AcDbEntity
8
2
62
256
6
ByLayer
370
13
48
1
60
0
100
AcDbHatch
10
0
20
0
30
0
210
0
220
0
230
1
2
ANSI31
70
0
71
0
91
1
92
5
93
3
72
1
10
64.5
20
5.09999999999999
11
64.9607837415528
21
1.60000169255318
72
1
10
64.9607837415528
20
1.60000169255318
11
64.0392162584472
21
1.59999830744681
72
1
10
64.0392162584472
20
1.59999830744681
11
64.5
21
5.09999999999999
97
0
75
0
76
1
52
0
41
0.0062
77
0
78
1
53
45
43
0
44
0
45
-0.0139193969876572
46
0.0139193969876572
79
0
47
0
98
1
10
0
20
0
0
HATCH
5
113
100
AcDbEntity
8
2
62
256
6
ByLayer
370
13
48
1
60
0
100
AcDbHatch
10
0
20
0
30
0
210
0
220
0
230
1
2
ANSI31
70
0
71
0
91
1
92
5
93
3
72
1
10
64.5
20
-5.09999999999999
11
64.0392162584472
21
-1.60000169255318
72
1
10
64.0392162584472
20
-1.60000169255318
11
64.9607837415528
21
-1.59999830744681
72
1
10
64.9607837415528
20
-1.59999830744681
11
64.5
21
-5.09999999999999
97
0
75
0
76
1
52
0
41
0.0062
77
0
78
1
53
45
43
0
44
0
45
-0.0139193969876572
46
0.0139193969876572
79
0
47
0
98
1
10
0
20
0
0
HATCH
5
119
100
AcDbEntity
8
SK2
62
256
6
ByLayer
370
13
48
1
60
0
100
AcDbHatch
10
0
20
0
30
0
210
0
220
0
230
1
2
ANSI31
70
0
71
0
91
1
92
5
93
3
72
1
10
-53.5
20
6
11
-53.0392162584472
21
2.50000169255318
72
1
10
-53.0392162584472
20
2.50000169255318
11
-53.9607837415528
21
2.49999830744682
72
1
10
-53.9607837415528
20
2.49999830744682
11
-53.5
21
6
97
0
75
0
76
1
52
0
41
0.0062
77
0
78
1
53
45
43
0
44
0
45
-0.0139193969876572
46
0.0139193969876572
79
0
47
0
98
1
10
0
20
0
0
HATCH
5
11D
100
AcDbEntity
8
SK2
62
256
6
ByLayer
370
13
48
1
60
0
100
AcDbHatch
10
0
20
0
30
0
210
0
220
0
230
1
2
ANSI31
70
0
71
0
91
1
92
5
93
3
72
1
10
-53.5
20
-6
11
-53.9607837415528
21
-2.50000169255318
72
1
10
-53.9607837415528
20
-2.50000169255318
11
-53.0392162584472
21
-2.49999830744682
72
1
10
-53.0392162584472
20
-2.49999830744682
11
-53.5
21
-6
97
0
75
0
76
1
52
0
41
0.0062
77
0
78
1
53
45
43
0
44
0
45
-0.0139193969876572
46
0.0139193969876572
79
0
47
0
98
1
10
0
20
0
0
HATCH
5
122
100
AcDbEntity
8
SK2
62
256
6
ByLayer
370
13
48
1
60
0
100
AcDbHatch
10
0
20
0
30
0
210
0
220
0
230
1
2
ANSI31
70
0
71
0
91
1
92
5
93
3
72
1
10
64.1446010043746
20
19.6322549150357
11
67.5562341970153
21
18.7250235402022
72
1
10
67.5562341970153
20
18.7250235402022
11
67.2051797665297
21
17.8729393819377
72
1
10
67.2051797665297
20
17.8729393819377
11
64.1446010043746
21
19.6322549150357
97
0
75
0
76
1
52
0
41
0.0062
77
0
78
1
53
45
43
0
44
0
45
-0.0139193969876572
46
0.0139193969876572
79
0
47
0
98
1
10
0
20
0
0
HATCH
5
126
100
AcDbEntity
8
SK2
62
256
6
ByLayer
370
13
48
1
60
0
100
AcDbHatch
10
0
20
0
30
0
210
0
220
0
230
1
2
ANSI31
70
0
71
0
91
1
92
5
93
3
72
1
10
64.1446010043746
20
-19.6322549150357
11
67.2051766366545
21
-17.8729406714441
72
1
10
67.2051766366545
20
-17.8729406714441
11
67.5562373268905
21
-18.7250222506957
72
1
10
67.5562373268905
20
-18.7250222506957
11
64.1446010043746
21
-19.6322549150357
97
0
75
0
76
1
52
0
41
0.0062
77
0
78
1
53
45
43
0
44
0
45
-0.0139193969876572
46
0.0139193969876572
79
0
47
0
98
1
10
0
20
0
0
DIMENSION
5
12A
100
AcDbEntity
8
SK2
62
256
6
ByLayer
370
18
48
1
60
0
100
AcDbDimension
2
_U0
10
24.6
20
-21.47112
30
0
11
40.8
21
-21.47112
31
0
70
32
71
1
72
1
41
1
210
0
220
0
230
1
3
Standard
100
AcDbAlignedDimension
13
57
23
-5.1
33
0
14
24.6
24
-5.1
34
0
50
0
100
AcDbRotatedDimension
1001
ACAD
1000
DSTYLE
1002
{
1070
   371
1070
    13
1070
   372
1070
    13
1070
   170
1070
     0
1070
   144
1040
1.0
1070
   277
1070
     2
1070
   284
1070
     8
1070
   278
1070
    46
1070
   146
1040
1.166667
1070
   345
1005
16
1070
   347
1005
16
1070
   346
1005
16
1070
   344
1005
0
1070
   343
1005
0
1070
   172
1070
     1
1070
    76
1070
     0
1070
    75
1070
     0
1070
   282
1070
     0
1070
   281
1070
     0
1070
     3
1000

1070
    71
1070
     0
1070
    74
1070
     0
1070
   279
1070
     0
1070
   173
1070
     1
1070
   340
1005
109
1070
   271
1070
     2
1070
   272
1070
     2
1070
    77
1070
     1
1070
    73
1070
     1
1070
   171
1070
     3
1070
   274
1070
     4
1070
   177
1070
     2
1070
   176
1070
     2
1070
   178
1070
     2
1070
    78
1070
     8
1070
    48
1040
-0.1
1070
    41
1040
3.5
1070
   147
1040
1.5
1070
    42
1040
1.5875
1070
    44
1040
2.0
1070
   140
1040
3.0
1002
}
1001
ACAD_DSTYLE_DIM_LINETYPE
1070
   380
1005
16
1001
ACAD_DSTYLE_DIM_EXT1_LINETYPE
1070
   381
1005
16
1001
ACAD_DSTYLE_DIM_EXT2_LINETYPE
1070
   382
1005
16
0
DIMENSION
5
145
100
AcDbEntity
8
SK2
62
256
6
ByLayer
370
18
48
1
60
0
100
AcDbDimension
2
_U1
10
2
20
-31.47112
30
0
11
29.5
21
-31.47112
31
0
70
32
71
1
72
1
41
1
210
0
220
0
230
1
3
Standard
100
AcDbAlignedDimension
13
57
23
-5.1
33
0
14
2
24
-5.1
34
0
50
0
100
AcDbRotatedDimension
1001
ACAD
1000
DSTYLE
1002
{
1070
   371
1070
    13
1070
   372
1070
    13
1070
     3
1000

1070
   170
1070
     0
1070
   144
1040
1.0
1070
   277
1070
     2
1070
   284
1070
     8
1070
   278
1070
    46
1070
   146
1040
1.166667
1070
   345
1005
16
1070
   347
1005
16
1070
   346
1005
16
1070
   344
1005
0
1070
   343
1005
0
1070
   172
1070
     1
1070
    76
1070
     0
1070
    75
1070
     0
1070
   282
1070
     0
1070
   281
1070
     0
1070
    71
1070
     0
1070
    74
1070
     0
1070
   279
1070
     0
1070
   173
1070
     1
1070
   340
1005
109
1070
   271
1070
     2
1070
   272
1070
     2
1070
    77
1070
     1
1070
    73
1070
     1
1070
   171
1070
     3
1070
   274
1070
     4
1070
   177
1070
     2
1070
   176
1070
     2
1070
   178
1070
     2
1070
    78
1070
     8
1070
    48
1040
-0.1
1070
    41
1040
3.5
1070
   147
1040
1.5
1070
    42
1040
1.5875
1070
    44
1040
2.0
1070
   140
1040
3.0
1002
}
1001
ACAD_DSTYLE_DIM_LINETYPE
1070
   380
1005
16
1001
ACAD_DSTYLE_DIM_EXT1_LINETYPE
1070
   381
1005
16
1001
ACAD_DSTYLE_DIM_EXT2_LINETYPE
1070
   382
1005
16
0
DIMENSION
5
15D
100
AcDbEntity
8
SK2
62
256
6
ByLayer
370
18
48
1
60
0
100
AcDbDimension
2
_U2
10
0
20
-39.47112
30
0
11
-22.5
21
-39.47112
31
0
70
32
71
1
72
1
41
1
210
0
220
0
230
1
3
Standard
100
AcDbAlignedDimension
13
-45
23
-6
33
0
14
0
24
-6
34
0
50
0
100
AcDbRotatedDimension
1001
ACAD
1000
DSTYLE
1002
{
1070
   371
1070
    13
1070
   372
1070
    13
1070
     3
1000

1070
   170
1070
     0
1070
   144
1040
1.0
1070
   277
1070
     2
1070
   284
1070
     8
1070
   278
1070
    46
1070
   146
1040
1.166667
1070
   345
1005
16
1070
   347
1005
16
1070
   346
1005
16
1070
   344
1005
0
1070
   343
1005
0
1070
   172
1070
     1
1070
    76
1070
     0
1070
    75
1070
     0
1070
   282
1070
     0
1070
   281
1070
     0
1070
    71
1070
     0
1070
    74
1070
     0
1070
   279
1070
     0
1070
   173
1070
     1
1070
   340
1005
109
1070
   271
1070
     2
1070
   272
1070
     2
1070
    77
1070
     1
1070
    73
1070
     1
1070
   171
1070
     3
1070
   274
1070
     4
1070
   177
1070
     2
1070
   176
1070
     2
1070
   178
1070
     2
1070
    78
1070
     8
1070
    48
1040
-0.1
1070
    41
1040
3.5
1070
   147
1040
1.5
1070
    42
1040
1.5875
1070
    44
1040
2.0
1070
   140
1040
3.0
1002
}
1001
ACAD_DSTYLE_DIM_LINETYPE
1070
   380
1005
16
1001
ACAD_DSTYLE_DIM_EXT1_LINETYPE
1070
   381
1005
16
1001
ACAD_DSTYLE_DIM_EXT2_LINETYPE
1070
   382
1005
16
0
DIMENSION
5
175
100
AcDbEntity
8
SK2
62
256
6
ByLayer
370
18
48
1
60
0
100
AcDbDimension
2
_U3
10
57
20
-47.47112
30
0
11
6
21
-47.47112
31
0
70
32
71
1
72
1
41
1
210
0
220
0
230
1
3
Standard
100
AcDbAlignedDimension
13
-45
23
-6
33
0
14
57
24
-5.1
34
0
50
0
100
AcDbRotatedDimension
1001
ACAD
1000
DSTYLE
1002
{
1070
   371
1070
    13
1070
   372
1070
    13
1070
     3
1000

1070
   170
1070
     0
1070
   144
1040
1.0
1070
   277
1070
     2
1070
   284
1070
     8
1070
   278
1070
    46
1070
   146
1040
1.166667
1070
   345
1005
16
1070
   347
1005
16
1070
   346
1005
16
1070
   344
1005
0
1070
   343
1005
0
1070
   172
1070
     1
1070
    76
1070
     0
1070
    75
1070
     0
1070
   282
1070
     0
1070
   281
1070
     0
1070
    71
1070
     0
1070
    74
1070
     0
1070
   279
1070
     0
1070
   173
1070
     1
1070
   340
1005
109
1070
   271
1070
     2
1070
   272
1070
     2
1070
    77
1070
     1
1070
    73
1070
     1
1070
   171
1070
     3
1070
   274
1070
     4
1070
   177
1070
     2
1070
   176
1070
     2
1070
   178
1070
     2
1070
    78
1070
     8
1070
    48
1040
-0.1
1070
    41
1040
3.5
1070
   147
1040
1.5
1070
    42
1040
1.5875
1070
    44
1040
2.0
1070
   140
1040
3.0
1002
}
1001
ACAD_DSTYLE_DIM_LINETYPE
1070
   380
1005
16
1001
ACAD_DSTYLE_DIM_EXT1_LINETYPE
1070
   381
1005
16
1001
ACAD_DSTYLE_DIM_EXT2_LINETYPE
1070
   382
1005
16
0
DIMENSION
5
18D
100
AcDbEntity
8
2
62
256
6
ByLayer
370
18
48
1
60
0
100
AcDbDimension
2
_U4
10
0
20
-39.47112
30
0
11
28.5
21
-39.47112
31
0
70
32
71
1
72
1
41
1
210
0
220
0
230
1
3
Standard
100
AcDbAlignedDimension
13
57
23
-5.1
33
0
14
0
24
-5.1
34
0
50
0
100
AcDbRotatedDimension
1001
ACAD
1000
DSTYLE
1002
{
1070
   371
1070
    13
1070
   372
1070
    13
1070
     3
1000

1070
   170
1070
     0
1070
   144
1040
1.0
1070
   277
1070
     2
1070
   284
1070
     8
1070
   278
1070
    46
1070
   146
1040
1.166667
1070
   345
1005
16
1070
   347
1005
16
1070
   346
1005
16
1070
   344
1005
0
1070
   343
1005
0
1070
   172
1070
     1
1070
    76
1070
     0
1070
    75
1070
     0
1070
   282
1070
     0
1070
   281
1070
     0
1070
    71
1070
     0
1070
    74
1070
     0
1070
   279
1070
     0
1070
   173
1070
     1
1070
   340
1005
109
1070
   271
1070
     2
1070
   272
1070
     2
1070
    77
1070
     1
1070
    73
1070
     1
1070
   171
1070
     3
1070
   274
1070
     4
1070
   177
1070
     2
1070
   176
1070
     2
1070
   178
1070
     2
1070
    78
1070
     8
1070
    48
1040
-0.1
1070
    41
1040
3.5
1070
   147
1040
1.5
1070
    42
1040
1.5875
1070
    44
1040
2.0
1070
   140
1040
3.0
1002
}
1001
ACAD_DSTYLE_DIM_LINETYPE
1070
   380
1005
16
1001
ACAD_DSTYLE_DIM_EXT1_LINETYPE
1070
   381
1005
16
1001
ACAD_DSTYLE_DIM_EXT2_LINETYPE
1070
   382
1005
16
0
ENDSEC
0
SECTION
2
OBJECTS
0
DICTIONARY
5
215
330
0
100
AcDbDictionary
280
0
281
1
3
ACAD_GROUP
350
216
3
ACAD_MLINESTYLE
350
217
0
DICTIONARY
5
216
330
0
100
AcDbDictionary
280
0
281
1
0
DICTIONARY
5
217
330
0
100
AcDbDictionary
280
0
281
1
3
Standard
350
18
0
MLINESTYLE
5
18
330
217
100
AcDbMlineStyle
2
Standard
70
0
3

62
256
51
90
52
90
71
2
49
-0.5
62
256
6
ByLayer
49
0.5
62
256
6
ByLayer
0
RASTERVARIABLES
5
203
330

100
AcDbRasterVariables
90
0
70
1
71
1
72
1
0
ENDSEC
0
EOF
