0
SECTION
2
HEADER
9
$ACADVER
1
AC1015
9
$DWGCODEPAGE
3
ANSI_1252
9
$HANDSEED
5
233
9
$ANGBASE
50
0
9
$ANGDIR
70
0
9
$ATTMODE
70
1
9
$AUNITS
70
0
9
$AUPREC
70
0
9
$CECOLOR
62
256
9
$CELTSCALE
40
1
9
$CELTYPE
6
ByLayer
9
$CELWEIGHT
370
18
9
$CLAYER
8
0
9
$CMLJUST
70
0
9
$CMLSCALE
40
1
9
$CMLSTYLE
2
Standard
9
$DIMSTYLE
2
Standard
9
$TEXTSIZE
40
0.2
9
$TEXTSTYLE
7
Standard
9
$LUNITS
70
2
9
$LUPREC
70
4
9
$EXTNAMES
290
1
9
$INSUNITS
70
4
9
$LTSCALE
40
1
9
$LWDISPLAY
290
1
9
$PDMODE
70
0
9
$PDSIZE
40
0
9
$PLINEGEN
70
0
0
ENDSEC
0
SECTION
2
CLASSES
0
CLASS
1
RASTERVARIABLES
2
AcDbRasterVariables
3
ISM
90
0
280
0
281
0
0
ENDSEC
0
SECTION
2
TABLES
0
TABLE
2
VPORT
5
229
100
AcDbSymbolTable
0
VPORT
5
1
100
AcDbSymbolTableRecord
100
AcDbViewportTableRecord
2
*Active
70
0
10
0
20
0
11
1
21
1
12
-1
22
1
13
0
23
0
14
0.5
24
0.5
15
10
25
10
16
0
26
0
36
1
17
0
27
0
37
0
0
ENDTAB
0
TABLE
2
LTYPE
5
22a
100
AcDbSymbolTable
0
LTYPE
5
14
100
AcDbSymbolTableRecord
100
AcDbLinetypeTableRecord
70
0
2
ByBlock
3

72
65
73
0
40
0
0
LTYPE
5
15
100
AcDbSymbolTableRecord
100
AcDbLinetypeTableRecord
70
0
2
ByLayer
3

72
65
73
0
40
0
0
LTYPE
5
16
100
AcDbSymbolTableRecord
100
AcDbLinetypeTableRecord
70
0
2
Continuous
3
Solid line
72
65
73
0
40
0
0
LTYPE
5
6E
100
AcDbSymbolTableRecord
100
AcDbLinetypeTableRecord
70
0
2
CENTER
3
____ _ ____ _ ____ _ ____
72
65
73
4
40
47.5
49
22
74
0
49
-8.5
74
0
49
8.5
74
0
49
-8.5
74
0
0
LTYPE
5
6F
100
AcDbSymbolTableRecord
100
AcDbLinetypeTableRecord
70
0
2
DASHED
3
__ __ __ __ __ __ __ __ __
72
65
73
2
40
25.72
49
12.86
74
0
49
-12.86
74
0
0
ENDTAB
0
TABLE
2
LAYER
5
22b
100
AcDbSymbolTable
0
LAYER
5
10
100
AcDbSymbolTableRecord
100
AcDbLayerTableRecord
2
0
70
0
62
7
6
Continuous
290
1
370
-3
390
0
0
LAYER
5
71
100
AcDbSymbolTableRecord
100
AcDbLayerTableRecord
2
80
70
0
62
-6
6
Continuous
290
1
370
-3
390
0
0
LAYER
5
73
100
AcDbSymbolTableRecord
100
AcDbLayerTableRecord
2
81
70
0
62
-3
6
Continuous
290
1
370
-3
390
0
0
LAYER
5
75
100
AcDbSymbolTableRecord
100
AcDbLayerTableRecord
2
1
70
0
62
4
6
Continuous
290
1
370
-3
390
0
0
LAYER
5
83
100
AcDbSymbolTableRecord
100
AcDbLayerTableRecord
2
4
70
0
62
-2
6
CENTER
290
1
370
-3
390
0
0
LAYER
5
A8
100
AcDbSymbolTableRecord
100
AcDbLayerTableRecord
2
2
70
0
62
7
6
Continuous
290
1
370
-3
390
0
0
LAYER
5
13E
100
AcDbSymbolTableRecord
100
AcDbLayerTableRecord
2
Defpoints
70
0
62
7
6
Continuous
290
0
370
-3
390
0
0
LAYER
5
215
100
AcDbSymbolTableRecord
100
AcDbLayerTableRecord
2
SK4
70
0
62
2
6
CENTER
290
1
370
-3
390
0
0
LAYER
5
216
100
AcDbSymbolTableRecord
100
AcDbLayerTableRecord
2
SK1
70
0
62
4
6
Continuous
290
1
370
-3
390
0
0
LAYER
5
217
100
AcDbSymbolTableRecord
100
AcDbLayerTableRecord
2
SK2
70
0
62
7
6
Continuous
290
1
370
-3
390
0
0
LAYER
5
218
100
AcDbSymbolTableRecord
100
AcDbLayerTableRecord
2
SK6
70
0
62
5
6
Continuous
290
1
370
-3
390
0
0
ENDTAB
0
TABLE
2
STYLE
5
22c
100
AcDbSymbolTable
0
STYLE
5
11
100
AcDbSymbolTableRecord
100
AcDbTextStyleTableRecord
2
Standard
3
txt
70
0
71
0
40
0
41
1
42
0
50
0
0
STYLE
5
11A
100
AcDbSymbolTableRecord
100
AcDbTextStyleTableRecord
2
iso_b_vert
3
simplex.shx
70
0
71
0
40
0
41
1
42
0
50
0
0
STYLE
5
11B
100
AcDbSymbolTableRecord
100
AcDbTextStyleTableRecord
2
DWGDirectTextStyle
3
simplex
70
0
71
0
40
0
41
1
42
0
50
0
0
ENDTAB
0
TABLE
2
DIMSTYLE
5
22d
100
AcDbSymbolTable
100
AcDbDimStyleTable
0
DIMSTYLE
105
27
100
AcDbSymbolTableRecord
100
AcDbDimStyleTableRecord
2
Standard
70
0
3
<>
41
0.18
42
0.0625
44
0.18
140
0.18
147
0.09
73
0
74
0
77
1
271
2
275
0
278
52
280
0
340
11
0
ENDTAB
0
TABLE
2
VIEW
5
22e
100
AcDbSymbolTable
0
ENDTAB
0
TABLE
2
UCS
5
22f
100
AcDbSymbolTable
0
ENDTAB
0
TABLE
2
APPID
5
230
100
AcDbSymbolTable
0
APPID
5
12
100
AcDbSymbolTableRecord
100
AcDbRegAppTableRecord
2
ACAD
70
0
0
APPID
5
13A
100
AcDbSymbolTableRecord
100
AcDbRegAppTableRecord
2
ACAD_DSTYLE_DIMBREAK
70
0
0
APPID
5
1D4
100
AcDbSymbolTableRecord
100
AcDbRegAppTableRecord
2
ACAD_DSTYLE_DIM_LINETYPE
70
0
0
APPID
5
1D5
100
AcDbSymbolTableRecord
100
AcDbRegAppTableRecord
2
ACAD_DSTYLE_DIM_EXT1_LINETYPE
70
0
0
APPID
5
1D6
100
AcDbSymbolTableRecord
100
AcDbRegAppTableRecord
2
ACAD_DSTYLE_DIM_EXT2_LINETYPE
70
0
0
APPID
5
211
100
AcDbSymbolTableRecord
100
AcDbRegAppTableRecord
2
ACAD_MLEADERVER
70
0
0
ENDTAB
0
TABLE
2
BLOCK_RECORD
5
231
100
AcDbSymbolTable
0
BLOCK_RECORD
5
1F
100
AcDbSymbolTableRecord
100
AcDbBlockTableRecord
2
*Model_Space
340
0
70
0
0
BLOCK_RECORD
5
1B
100
AcDbSymbolTableRecord
100
AcDbBlockTableRecord
2
*Paper_Space
340
0
70
0
0
BLOCK_RECORD
5
23
100
AcDbSymbolTableRecord
100
AcDbBlockTableRecord
2
*Paper_Space0
340
0
70
0
0
BLOCK_RECORD
5
13F
100
AcDbSymbolTableRecord
100
AcDbBlockTableRecord
2
*D1
340
0
70
0
0
BLOCK_RECORD
5
14B
100
AcDbSymbolTableRecord
100
AcDbBlockTableRecord
2
_U0
340
0
70
0
0
BLOCK_RECORD
5
159
100
AcDbSymbolTableRecord
100
AcDbBlockTableRecord
2
*D3
340
0
70
0
0
BLOCK_RECORD
5
165
100
AcDbSymbolTableRecord
100
AcDbBlockTableRecord
2
_U1
340
0
70
0
0
BLOCK_RECORD
5
171
100
AcDbSymbolTableRecord
100
AcDbBlockTableRecord
2
*D5
340
0
70
0
0
BLOCK_RECORD
5
17D
100
AcDbSymbolTableRecord
100
AcDbBlockTableRecord
2
_U2
340
0
70
0
0
BLOCK_RECORD
5
189
100
AcDbSymbolTableRecord
100
AcDbBlockTableRecord
2
*D7
340
0
70
0
0
BLOCK_RECORD
5
195
100
AcDbSymbolTableRecord
100
AcDbBlockTableRecord
2
_U3
340
0
70
0
0
BLOCK_RECORD
5
1A1
100
AcDbSymbolTableRecord
100
AcDbBlockTableRecord
2
*D9
340
0
70
0
0
BLOCK_RECORD
5
1AD
100
AcDbSymbolTableRecord
100
AcDbBlockTableRecord
2
_U4
340
0
70
0
0
ENDTAB
0
ENDSEC
0
SECTION
2
BLOCKS
0
BLOCK
5
20
100
AcDbEntity
8
0
100
AcDbBlockBegin
2
*Model_Space
70
0
10
0
20
0
30
0
3
*Model_Space
0
ENDBLK
5
21
100
AcDbEntity
8
0
100
AcDbBlockEnd
0
BLOCK
5
1C
100
AcDbEntity
8
0
100
AcDbBlockBegin
2
*Paper_Space
70
0
10
0
20
0
30
0
3
*Paper_Space
0
ENDBLK
5
1D
100
AcDbEntity
8
0
100
AcDbBlockEnd
0
BLOCK
5
24
100
AcDbEntity
8
0
100
AcDbBlockBegin
2
*Paper_Space0
70
0
10
0
20
0
30
0
3
*Paper_Space0
0
ENDBLK
5
25
100
AcDbEntity
8
0
100
AcDbBlockEnd
0
BLOCK
5
140
100
AcDbEntity
8
0
100
AcDbBlockBegin
2
*D1
70
1
10
0
20
0
30
0
3
*D1
0
LINE
5
142
100
AcDbEntity
8
0
62
256
6
ByLayer
370
-2
48
1
60
0
100
AcDbLine
10
112
20
-6.2375
30
0
11
112
21
-23.331848
31
0
39
0
210
0
220
0
230
1
0
LINE
5
143
100
AcDbEntity
8
0
62
256
6
ByLayer
370
-2
48
1
60
0
100
AcDbLine
10
36
20
-6.2375
30
0
11
36
21
-23.331848
31
0
39
0
210
0
220
0
230
1
0
LINE
5
144
100
AcDbEntity
8
0
62
256
6
ByLayer
370
-2
48
1
60
0
100
AcDbLine
10
108.5
20
-21.331848
30
0
11
39.5
21
-21.331848
31
0
39
0
210
0
220
0
230
1
0
SOLID
5
145
100
AcDbEntity
8
0
62
256
6
ByLayer
370
-1
48
1
60
0
100
AcDbTrace
10
108.5
20
-21.915181
30
0
11
108.5
21
-20.748514
31
0
12
112
22
-21.331848
32
0
13
112
23
-21.331848
33
0
39
0
210
0
220
0
230
1
0
SOLID
5
146
100
AcDbEntity
8
0
62
256
6
ByLayer
370
-1
48
1
60
0
100
AcDbTrace
10
39.5
20
-20.748514
30
0
11
39.5
21
-21.915181
31
0
12
36
22
-21.331848
32
0
13
36
23
-21.331848
33
0
39
0
210
0
220
0
230
1
0
MTEXT
5
147
100
AcDbEntity
8
0
62
256
6
ByLayer
370
18
48
1
60
0
100
AcDbMText
10
74
20
-15.331848
30
0
210
0
220
0
230
1
1
\A1;76
40
3
41
0
44
1
50
0
71
5
72
5
7
iso_b_vert
0
POINT
5
148
100
AcDbEntity
8
Defpoints
62
0
6
ByLayer
370
-1
48
1
60
0
100
AcDbPoint
10
112
20
-4.65
30
0
39
0
210
0
220
0
230
1
50
360
0
POINT
5
149
100
AcDbEntity
8
Defpoints
62
0
6
ByLayer
370
-1
48
1
60
0
100
AcDbPoint
10
36
20
-4.65
30
0
39
0
210
0
220
0
230
1
50
360
0
POINT
5
14A
100
AcDbEntity
8
Defpoints
62
0
6
ByLayer
370
-1
48
1
60
0
100
AcDbPoint
10
36
20
-21.331848
30
0
39
0
210
0
220
0
230
1
50
360
0
ENDBLK
5
141
100
AcDbEntity
8
0
100
AcDbBlockEnd
0
BLOCK
5
154
100
AcDbEntity
8
0
100
AcDbBlockBegin
2
_U0
70
0
10
0
20
0
30
0
3
_U0
0
MTEXT
5
14C
100
AcDbEntity
8
SK2
62
256
6
ByLayer
370
18
48
1
60
0
100
AcDbMText
10
72.367172
20
-19.134233
30
0
210
0
220
0
230
1
1
\W0.6740;76
40
3
41
0
44
1.084337
50
0
71
7
72
5
7
iso_b_vert
0
MTEXT
5
14D
100
AcDbEntity
8
SK2
62
256
6
ByLayer
370
18
48
1
60
0
100
AcDbMText
10
70.267172
20
-19.134233
30
0
210
0
220
0
230
1
1
\W1.1313;{\H1.88x;(}
40
3
41
0
44
1.084337
50
0
71
7
72
5
7
iso_b_vert
0
MTEXT
5
14E
100
AcDbEntity
8
SK2
62
256
6
ByLayer
370
18
48
1
60
0
100
AcDbMText
10
75.950828
20
-19.134233
30
0
210
0
220
0
230
1
1
\W1.1313;{\H1.88x;)}
40
3
41
0
44
1.084337
50
0
71
7
72
5
7
iso_b_vert
0
LINE
5
14F
100
AcDbEntity
8
SK2
62
256
6
ByLayer
370
13
48
1
60
0
100
AcDbLine
10
112
20
-6.2375
30
0
11
112
21
-23.331848
31
0
39
0
210
0
220
0
230
1
0
LINE
5
150
100
AcDbEntity
8
SK2
62
256
6
ByLayer
370
13
48
1
60
0
100
AcDbLine
10
36
20
-6.2375
30
0
11
36
21
-23.331848
31
0
39
0
210
0
220
0
230
1
0
LINE
5
151
100
AcDbEntity
8
SK2
62
256
6
ByLayer
370
13
48
1
60
0
100
AcDbLine
10
112
20
-21.331848
30
0
11
36
21
-21.331848
31
0
39
0
210
0
220
0
230
1
0
SOLID
5
152
100
AcDbEntity
8
SK2
62
256
6
ByLayer
370
18
48
1
60
0
100
AcDbTrace
10
112
20
-21.331848
30
0
11
108.500002
21
-21.792631
31
0
12
108.499998
22
-20.871064
32
0
13
108.499998
23
-20.871064
33
0
39
0
210
0
220
0
230
1
0
SOLID
5
153
100
AcDbEntity
8
SK2
62
256
6
ByLayer
370
18
48
1
60
0
100
AcDbTrace
10
36
20
-21.331848
30
0
11
39.499998
21
-20.871064
31
0
12
39.500002
22
-21.792631
32
0
13
39.500002
23
-21.792631
33
0
39
0
210
0
220
0
230
1
0
ENDBLK
5
155
100
AcDbEntity
8
0
100
AcDbBlockEnd
0
BLOCK
5
15A
100
AcDbEntity
8
0
100
AcDbBlockBegin
2
*D3
70
1
10
0
20
0
30
0
3
*D3
0
LINE
5
15C
100
AcDbEntity
8
0
62
256
6
ByLayer
370
-2
48
1
60
0
100
AcDbLine
10
112
20
-6.2375
30
0
11
112
21
-33.331848
31
0
39
0
210
0
220
0
230
1
0
LINE
5
15D
100
AcDbEntity
8
0
62
256
6
ByLayer
370
-2
48
1
60
0
100
AcDbLine
10
6
20
-6.2375
30
0
11
6
21
-33.331848
31
0
39
0
210
0
220
0
230
1
0
LINE
5
15E
100
AcDbEntity
8
0
62
256
6
ByLayer
370
-2
48
1
60
0
100
AcDbLine
10
108.5
20
-31.331848
30
0
11
9.5
21
-31.331848
31
0
39
0
210
0
220
0
230
1
0
SOLID
5
15F
100
AcDbEntity
8
0
62
256
6
ByLayer
370
-1
48
1
60
0
100
AcDbTrace
10
108.5
20
-31.915181
30
0
11
108.5
21
-30.748514
31
0
12
112
22
-31.331848
32
0
13
112
23
-31.331848
33
0
39
0
210
0
220
0
230
1
0
SOLID
5
160
100
AcDbEntity
8
0
62
256
6
ByLayer
370
-1
48
1
60
0
100
AcDbTrace
10
9.5
20
-30.748514
30
0
11
9.5
21
-31.915181
31
0
12
6
22
-31.331848
32
0
13
6
23
-31.331848
33
0
39
0
210
0
220
0
230
1
0
MTEXT
5
161
100
AcDbEntity
8
0
62
256
6
ByLayer
370
18
48
1
60
0
100
AcDbMText
10
59
20
-25.331848
30
0
210
0
220
0
230
1
1
\A1;106
40
3
41
0
44
1
50
0
71
5
72
5
7
iso_b_vert
0
POINT
5
162
100
AcDbEntity
8
Defpoints
62
0
6
ByLayer
370
-1
48
1
60
0
100
AcDbPoint
10
112
20
-4.65
30
0
39
0
210
0
220
0
230
1
50
360
0
POINT
5
163
100
AcDbEntity
8
Defpoints
62
0
6
ByLayer
370
-1
48
1
60
0
100
AcDbPoint
10
6
20
-4.65
30
0
39
0
210
0
220
0
230
1
50
360
0
POINT
5
164
100
AcDbEntity
8
Defpoints
62
0
6
ByLayer
370
-1
48
1
60
0
100
AcDbPoint
10
6
20
-31.331848
30
0
39
0
210
0
220
0
230
1
50
360
0
ENDBLK
5
15B
100
AcDbEntity
8
0
100
AcDbBlockEnd
0
BLOCK
5
16C
100
AcDbEntity
8
0
100
AcDbBlockBegin
2
_U1
70
0
10
0
20
0
30
0
3
_U1
0
MTEXT
5
166
100
AcDbEntity
8
SK2
62
256
6
ByLayer
370
18
48
1
60
0
100
AcDbMText
10
56.621201
20
-30.446733
30
0
210
0
220
0
230
1
1
\W0.6217;106
40
3
41
0
44
1.084337
50
0
71
7
72
5
7
iso_b_vert
0
LINE
5
167
100
AcDbEntity
8
SK2
62
256
6
ByLayer
370
13
48
1
60
0
100
AcDbLine
10
112
20
-6.2375
30
0
11
112
21
-33.331848
31
0
39
0
210
0
220
0
230
1
0
LINE
5
168
100
AcDbEntity
8
SK2
62
256
6
ByLayer
370
13
48
1
60
0
100
AcDbLine
10
6
20
-6.2375
30
0
11
6
21
-33.331848
31
0
39
0
210
0
220
0
230
1
0
LINE
5
169
100
AcDbEntity
8
SK2
62
256
6
ByLayer
370
13
48
1
60
0
100
AcDbLine
10
112
20
-31.331848
30
0
11
6
21
-31.331848
31
0
39
0
210
0
220
0
230
1
0
SOLID
5
16A
100
AcDbEntity
8
SK2
62
256
6
ByLayer
370
18
48
1
60
0
100
AcDbTrace
10
112
20
-31.331848
30
0
11
108.500002
21
-31.792631
31
0
12
108.499998
22
-30.871064
32
0
13
108.499998
23
-30.871064
33
0
39
0
210
0
220
0
230
1
0
SOLID
5
16B
100
AcDbEntity
8
SK2
62
256
6
ByLayer
370
18
48
1
60
0
100
AcDbTrace
10
6
20
-31.331848
30
0
11
9.499998
21
-30.871064
31
0
12
9.500002
22
-31.792631
32
0
13
9.500002
23
-31.792631
33
0
39
0
210
0
220
0
230
1
0
ENDBLK
5
16D
100
AcDbEntity
8
0
100
AcDbBlockEnd
0
BLOCK
5
172
100
AcDbEntity
8
0
100
AcDbBlockBegin
2
*D5
70
1
10
0
20
0
30
0
3
*D5
0
LINE
5
174
100
AcDbEntity
8
0
62
256
6
ByLayer
370
-2
48
1
60
0
100
AcDbLine
10
-40
20
-6.5875
30
0
11
-40
21
-41.331848
31
0
39
0
210
0
220
0
230
1
0
LINE
5
175
100
AcDbEntity
8
0
62
256
6
ByLayer
370
-2
48
1
60
0
100
AcDbLine
10
0
20
-6.5875
30
0
11
0
21
-41.331848
31
0
39
0
210
0
220
0
230
1
0
LINE
5
176
100
AcDbEntity
8
0
62
256
6
ByLayer
370
-2
48
1
60
0
100
AcDbLine
10
-36.5
20
-39.331848
30
0
11
-3.5
21
-39.331848
31
0
39
0
210
0
220
0
230
1
0
SOLID
5
177
100
AcDbEntity
8
0
62
256
6
ByLayer
370
-1
48
1
60
0
100
AcDbTrace
10
-36.5
20
-38.748514
30
0
11
-36.5
21
-39.915181
31
0
12
-40
22
-39.331848
32
0
13
-40
23
-39.331848
33
0
39
0
210
0
220
0
230
1
0
SOLID
5
178
100
AcDbEntity
8
0
62
256
6
ByLayer
370
-1
48
1
60
0
100
AcDbTrace
10
-3.5
20
-39.915181
30
0
11
-3.5
21
-38.748514
31
0
12
0
22
-39.331848
32
0
13
0
23
-39.331848
33
0
39
0
210
0
220
0
230
1
0
MTEXT
5
179
100
AcDbEntity
8
0
62
256
6
ByLayer
370
18
48
1
60
0
100
AcDbMText
10
-20
20
-33.331848
30
0
210
0
220
0
230
1
1
\A1;40
40
3
41
0
44
1
50
0
71
5
72
5
7
iso_b_vert
0
POINT
5
17A
100
AcDbEntity
8
Defpoints
62
0
6
ByLayer
370
-1
48
1
60
0
100
AcDbPoint
10
-40
20
-5
30
0
39
0
210
0
220
0
230
1
50
360
0
POINT
5
17B
100
AcDbEntity
8
Defpoints
62
0
6
ByLayer
370
-1
48
1
60
0
100
AcDbPoint
10
0
20
-5
30
0
39
0
210
0
220
0
230
1
50
360
0
POINT
5
17C
100
AcDbEntity
8
Defpoints
62
0
6
ByLayer
370
-1
48
1
60
0
100
AcDbPoint
10
0
20
-39.331848
30
0
39
0
210
0
220
0
230
1
50
360
0
ENDBLK
5
173
100
AcDbEntity
8
0
100
AcDbBlockEnd
0
BLOCK
5
184
100
AcDbEntity
8
0
100
AcDbBlockBegin
2
_U2
70
0
10
0
20
0
30
0
3
_U2
0
MTEXT
5
17E
100
AcDbEntity
8
SK2
62
256
6
ByLayer
370
18
48
1
60
0
100
AcDbMText
10
-21.790771
20
-38.446733
30
0
210
0
220
0
230
1
1
\W0.7361;40
40
3
41
0
44
1.084337
50
0
71
7
72
5
7
iso_b_vert
0
LINE
5
17F
100
AcDbEntity
8
SK2
62
256
6
ByLayer
370
13
48
1
60
0
100
AcDbLine
10
-40
20
-6.5875
30
0
11
-40
21
-41.331848
31
0
39
0
210
0
220
0
230
1
0
LINE
5
180
100
AcDbEntity
8
SK2
62
256
6
ByLayer
370
13
48
1
60
0
100
AcDbLine
10
0
20
-6.5875
30
0
11
0
21
-41.331848
31
0
39
0
210
0
220
0
230
1
0
LINE
5
181
100
AcDbEntity
8
SK2
62
256
6
ByLayer
370
13
48
1
60
0
100
AcDbLine
10
-40
20
-39.331848
30
0
11
0
21
-39.331848
31
0
39
0
210
0
220
0
230
1
0
SOLID
5
182
100
AcDbEntity
8
SK2
62
256
6
ByLayer
370
18
48
1
60
0
100
AcDbTrace
10
-40
20
-39.331848
30
0
11
-36.500002
21
-38.871064
31
0
12
-36.499998
22
-39.792631
32
0
13
-36.499998
23
-39.792631
33
0
39
0
210
0
220
0
230
1
0
SOLID
5
183
100
AcDbEntity
8
SK2
62
256
6
ByLayer
370
18
48
1
60
0
100
AcDbTrace
10
0
20
-39.331848
30
0
11
-3.499998
21
-39.792631
31
0
12
-3.500002
22
-38.871064
32
0
13
-3.500002
23
-38.871064
33
0
39
0
210
0
220
0
230
1
0
ENDBLK
5
185
100
AcDbEntity
8
0
100
AcDbBlockEnd
0
BLOCK
5
18A
100
AcDbEntity
8
0
100
AcDbBlockBegin
2
*D7
70
1
10
0
20
0
30
0
3
*D7
0
LINE
5
18C
100
AcDbEntity
8
0
62
256
6
ByLayer
370
-2
48
1
60
0
100
AcDbLine
10
-40
20
-6.5875
30
0
11
-40
21
-49.331848
31
0
39
0
210
0
220
0
230
1
0
LINE
5
18D
100
AcDbEntity
8
0
62
256
6
ByLayer
370
-2
48
1
60
0
100
AcDbLine
10
112
20
-6.2375
30
0
11
112
21
-49.331848
31
0
39
0
210
0
220
0
230
1
0
LINE
5
18E
100
AcDbEntity
8
0
62
256
6
ByLayer
370
-2
48
1
60
0
100
AcDbLine
10
-36.5
20
-47.331848
30
0
11
108.5
21
-47.331848
31
0
39
0
210
0
220
0
230
1
0
SOLID
5
18F
100
AcDbEntity
8
0
62
256
6
ByLayer
370
-1
48
1
60
0
100
AcDbTrace
10
-36.5
20
-46.748514
30
0
11
-36.5
21
-47.915181
31
0
12
-40
22
-47.331848
32
0
13
-40
23
-47.331848
33
0
39
0
210
0
220
0
230
1
0
SOLID
5
190
100
AcDbEntity
8
0
62
256
6
ByLayer
370
-1
48
1
60
0
100
AcDbTrace
10
108.5
20
-47.915181
30
0
11
108.5
21
-46.748514
31
0
12
112
22
-47.331848
32
0
13
112
23
-47.331848
33
0
39
0
210
0
220
0
230
1
0
MTEXT
5
191
100
AcDbEntity
8
0
62
256
6
ByLayer
370
18
48
1
60
0
100
AcDbMText
10
36
20
-41.331848
30
0
210
0
220
0
230
1
1
\A1;152
40
3
41
0
44
1
50
0
71
5
72
5
7
iso_b_vert
0
POINT
5
192
100
AcDbEntity
8
Defpoints
62
0
6
ByLayer
370
-1
48
1
60
0
100
AcDbPoint
10
-40
20
-5
30
0
39
0
210
0
220
0
230
1
50
360
0
POINT
5
193
100
AcDbEntity
8
Defpoints
62
0
6
ByLayer
370
-1
48
1
60
0
100
AcDbPoint
10
112
20
-4.65
30
0
39
0
210
0
220
0
230
1
50
360
0
POINT
5
194
100
AcDbEntity
8
Defpoints
62
0
6
ByLayer
370
-1
48
1
60
0
100
AcDbPoint
10
112
20
-47.331848
30
0
39
0
210
0
220
0
230
1
50
360
0
ENDBLK
5
18B
100
AcDbEntity
8
0
100
AcDbBlockEnd
0
BLOCK
5
19C
100
AcDbEntity
8
0
100
AcDbBlockBegin
2
_U3
70
0
10
0
20
0
30
0
3
_U3
0
MTEXT
5
196
100
AcDbEntity
8
SK2
62
256
6
ByLayer
370
18
48
1
60
0
100
AcDbMText
10
33.621201
20
-46.446733
30
0
210
0
220
0
230
1
1
\W0.6217;152
40
3
41
0
44
1.084337
50
0
71
7
72
5
7
iso_b_vert
0
LINE
5
197
100
AcDbEntity
8
SK2
62
256
6
ByLayer
370
13
48
1
60
0
100
AcDbLine
10
-40
20
-6.5875
30
0
11
-40
21
-49.331848
31
0
39
0
210
0
220
0
230
1
0
LINE
5
198
100
AcDbEntity
8
SK2
62
256
6
ByLayer
370
13
48
1
60
0
100
AcDbLine
10
112
20
-6.2375
30
0
11
112
21
-49.331848
31
0
39
0
210
0
220
0
230
1
0
LINE
5
199
100
AcDbEntity
8
SK2
62
256
6
ByLayer
370
13
48
1
60
0
100
AcDbLine
10
-40
20
-47.331848
30
0
11
112
21
-47.331848
31
0
39
0
210
0
220
0
230
1
0
SOLID
5
19A
100
AcDbEntity
8
SK2
62
256
6
ByLayer
370
18
48
1
60
0
100
AcDbTrace
10
-40
20
-47.331848
30
0
11
-36.500002
21
-46.871064
31
0
12
-36.499998
22
-47.792631
32
0
13
-36.499998
23
-47.792631
33
0
39
0
210
0
220
0
230
1
0
SOLID
5
19B
100
AcDbEntity
8
SK2
62
256
6
ByLayer
370
18
48
1
60
0
100
AcDbTrace
10
112
20
-47.331848
30
0
11
108.500002
21
-47.792631
31
0
12
108.499998
22
-46.871064
32
0
13
108.499998
23
-46.871064
33
0
39
0
210
0
220
0
230
1
0
ENDBLK
5
19D
100
AcDbEntity
8
0
100
AcDbBlockEnd
0
BLOCK
5
1A2
100
AcDbEntity
8
0
100
AcDbBlockBegin
2
*D9
70
1
10
0
20
0
30
0
3
*D9
0
LINE
5
1A4
100
AcDbEntity
8
0
62
256
6
ByLayer
370
-2
48
1
60
0
100
AcDbLine
10
112
20
-6.2375
30
0
11
112
21
-41.331848
31
0
39
0
210
0
220
0
230
1
0
LINE
5
1A5
100
AcDbEntity
8
0
62
256
6
ByLayer
370
-2
48
1
60
0
100
AcDbLine
10
0
20
-6.2375
30
0
11
0
21
-41.331848
31
0
39
0
210
0
220
0
230
1
0
LINE
5
1A6
100
AcDbEntity
8
0
62
256
6
ByLayer
370
-2
48
1
60
0
100
AcDbLine
10
108.5
20
-39.331848
30
0
11
3.5
21
-39.331848
31
0
39
0
210
0
220
0
230
1
0
SOLID
5
1A7
100
AcDbEntity
8
0
62
256
6
ByLayer
370
-1
48
1
60
0
100
AcDbTrace
10
108.5
20
-39.915181
30
0
11
108.5
21
-38.748514
31
0
12
112
22
-39.331848
32
0
13
112
23
-39.331848
33
0
39
0
210
0
220
0
230
1
0
SOLID
5
1A8
100
AcDbEntity
8
0
62
256
6
ByLayer
370
-1
48
1
60
0
100
AcDbTrace
10
3.5
20
-38.748514
30
0
11
3.5
21
-39.915181
31
0
12
0
22
-39.331848
32
0
13
0
23
-39.331848
33
0
39
0
210
0
220
0
230
1
0
MTEXT
5
1A9
100
AcDbEntity
8
0
62
256
6
ByLayer
370
18
48
1
60
0
100
AcDbMText
10
56
20
-33.331848
30
0
210
0
220
0
230
1
1
\A1;112
40
3
41
0
44
1
50
0
71
5
72
5
7
iso_b_vert
0
POINT
5
1AA
100
AcDbEntity
8
Defpoints
62
0
6
ByLayer
370
-1
48
1
60
0
100
AcDbPoint
10
112
20
-4.65
30
0
39
0
210
0
220
0
230
1
50
360
0
POINT
5
1AB
100
AcDbEntity
8
Defpoints
62
0
6
ByLayer
370
-1
48
1
60
0
100
AcDbPoint
10
0
20
-4.65
30
0
39
0
210
0
220
0
230
1
50
360
0
POINT
5
1AC
100
AcDbEntity
8
Defpoints
62
0
6
ByLayer
370
-1
48
1
60
0
100
AcDbPoint
10
0
20
-39.331848
30
0
39
0
210
0
220
0
230
1
50
360
0
ENDBLK
5
1A3
100
AcDbEntity
8
0
100
AcDbBlockEnd
0
BLOCK
5
1B4
100
AcDbEntity
8
0
100
AcDbBlockBegin
2
_U4
70
0
10
0
20
0
30
0
3
_U4
0
MTEXT
5
1AE
100
AcDbEntity
8
2
62
256
6
ByLayer
370
18
48
1
60
0
100
AcDbMText
10
53.996143
20
-38.446733
30
0
210
0
220
0
230
1
1
\W0.5296;112
40
3
41
0
44
1.084337
50
0
71
7
72
5
7
iso_b_vert
0
LINE
5
1AF
100
AcDbEntity
8
2
62
256
6
ByLayer
370
13
48
1
60
0
100
AcDbLine
10
112
20
-6.2375
30
0
11
112
21
-41.331848
31
0
39
0
210
0
220
0
230
1
0
LINE
5
1B0
100
AcDbEntity
8
2
62
256
6
ByLayer
370
13
48
1
60
0
100
AcDbLine
10
0
20
-6.2375
30
0
11
0
21
-41.331848
31
0
39
0
210
0
220
0
230
1
0
LINE
5
1B1
100
AcDbEntity
8
2
62
256
6
ByLayer
370
13
48
1
60
0
100
AcDbLine
10
112
20
-39.331848
30
0
11
0
21
-39.331848
31
0
39
0
210
0
220
0
230
1
0
SOLID
5
1B2
100
AcDbEntity
8
2
62
256
6
ByLayer
370
18
48
1
60
0
100
AcDbTrace
10
112
20
-39.331848
30
0
11
108.500002
21
-39.792631
31
0
12
108.499998
22
-38.871064
32
0
13
108.499998
23
-38.871064
33
0
39
0
210
0
220
0
230
1
0
SOLID
5
1B3
100
AcDbEntity
8
2
62
256
6
ByLayer
370
18
48
1
60
0
100
AcDbTrace
10
0
20
-39.331848
30
0
11
3.499998
21
-38.871064
31
0
12
3.500002
22
-39.792631
32
0
13
3.500002
23
-39.792631
33
0
39
0
210
0
220
0
230
1
0
ENDBLK
5
1B5
100
AcDbEntity
8
0
100
AcDbBlockEnd
0
ENDSEC
0
SECTION
2
ENTITIES
0
ARC
5
C3
100
AcDbEntity
8
1
62
256
6
ByLayer
370
18
48
1
60
0
100
AcDbCircle
39
0
10
1.204121
20
-5.25361
30
0
40
0.8
210
0
220
0
230
1
100
AcDbArc
50
89.896868
51
138.813963
0
ARC
5
C4
100
AcDbEntity
8
1
62
256
6
ByLayer
370
18
48
1
60
0
100
AcDbCircle
39
0
10
1.204121
20
5.25361
30
0
40
0.8
210
0
220
0
230
1
100
AcDbArc
50
221.186037
51
270.103132
0
ARC
5
C5
100
AcDbEntity
8
1
62
256
6
ByLayer
370
18
48
1
60
0
100
AcDbCircle
39
0
10
0
20
-4.2
30
0
40
0.799999999999999
210
0
220
0
230
1
100
AcDbArc
50
270
51
318.813963
0
ARC
5
C6
100
AcDbEntity
8
1
62
256
6
ByLayer
370
18
48
1
60
0
100
AcDbCircle
39
0
10
0
20
4.2
30
0
40
0.799999999999999
210
0
220
0
230
1
100
AcDbArc
50
41.186037
51
90
0
ARC
5
C7
100
AcDbEntity
8
SK2
62
256
6
ByLayer
370
13
48
1
60
0
100
AcDbCircle
39
0
10
112
20
0
30
0
40
21.1928201270799
210
0
220
0
230
1
100
AcDbArc
50
8.137975
51
70.005022
0
ARC
5
C8
100
AcDbEntity
8
SK2
62
256
6
ByLayer
370
13
48
1
60
0
100
AcDbCircle
39
0
10
112
20
0
30
0
40
21.1928201270799
210
0
220
0
230
1
100
AcDbArc
50
289.994978
51
351.862025
0
ELLIPSE
5
C9
100
AcDbEntity
8
1
62
256
6
ByLayer
370
18
48
1
60
0
100
AcDbEllipse
10
65.599545
20
-4.49317
30
0
11
-0.1
21
1.22460635382238E-17
31
0
210
0
220
0
230
1
40
1
41
-1.55899716667221
42
-0.000774877466571013
0
ELLIPSE
5
CA
100
AcDbEntity
8
1
62
256
6
ByLayer
370
18
48
1
60
0
100
AcDbEllipse
10
65.599545
20
4.49317
30
0
11
-0.1
21
1.22460635382238E-17
31
0
210
0
220
0
230
1
40
1
41
0.000774877466348968
42
1.59269008315412
0
POINT
5
70
100
AcDbEntity
8
80
62
256
6
ByLayer
370
18
48
1
60
0
100
AcDbPoint
10
0
20
0
30
0
39
0
210
0
220
0
230
1
50
360
0
POINT
5
72
100
AcDbEntity
8
81
62
256
6
ByLayer
370
18
48
1
60
0
100
AcDbPoint
10
112
20
0
30
0
39
0
210
0
220
0
230
1
50
360
0
POINT
5
74
100
AcDbEntity
8
1
62
256
6
ByLayer
370
18
48
1
60
0
100
AcDbPoint
10
-181.57859
20
-200
30
0
39
0
210
0
220
0
230
1
50
360
0
POINT
5
76
100
AcDbEntity
8
1
62
256
6
ByLayer
370
13
48
1
60
1
100
AcDbPoint
10
-41.5
20
0
30
0
39
0
210
0
220
0
230
1
50
360
0
POINT
5
77
100
AcDbEntity
8
1
62
256
6
ByLayer
370
13
48
1
60
1
100
AcDbPoint
10
111.797943
20
0
30
0
39
0
210
0
220
0
230
1
50
360
0
POINT
5
78
100
AcDbEntity
8
1
62
256
6
ByLayer
370
18
48
1
60
1
100
AcDbPoint
10
112
20
-4.65
30
0
39
0
210
0
220
0
230
1
50
360
0
POINT
5
79
100
AcDbEntity
8
1
62
256
6
ByLayer
370
18
48
1
60
1
100
AcDbPoint
10
36
20
-4.65
30
0
39
0
210
0
220
0
230
1
50
360
0
POINT
5
7A
100
AcDbEntity
8
1
62
256
6
ByLayer
370
18
48
1
60
1
100
AcDbPoint
10
112
20
-4.65
30
0
39
0
210
0
220
0
230
1
50
360
0
POINT
5
7B
100
AcDbEntity
8
1
62
256
6
ByLayer
370
18
48
1
60
1
100
AcDbPoint
10
6
20
-4.65
30
0
39
0
210
0
220
0
230
1
50
360
0
POINT
5
7C
100
AcDbEntity
8
1
62
256
6
ByLayer
370
18
48
1
60
1
100
AcDbPoint
10
-40
20
-5
30
0
39
0
210
0
220
0
230
1
50
360
0
POINT
5
7D
100
AcDbEntity
8
1
62
256
6
ByLayer
370
18
48
1
60
1
100
AcDbPoint
10
0
20
-5
30
0
39
0
210
0
220
0
230
1
50
360
0
POINT
5
7E
100
AcDbEntity
8
1
62
256
6
ByLayer
370
18
48
1
60
1
100
AcDbPoint
10
-40
20
-5
30
0
39
0
210
0
220
0
230
1
50
360
0
POINT
5
7F
100
AcDbEntity
8
1
62
256
6
ByLayer
370
18
48
1
60
1
100
AcDbPoint
10
112
20
-4.65
30
0
39
0
210
0
220
0
230
1
50
360
0
POINT
5
80
100
AcDbEntity
8
1
62
256
6
ByLayer
370
18
48
1
60
1
100
AcDbPoint
10
112
20
-4.65
30
0
39
0
210
0
220
0
230
1
50
360
0
POINT
5
81
100
AcDbEntity
8
1
62
256
6
ByLayer
370
18
48
1
60
1
100
AcDbPoint
10
0
20
-4.65
30
0
39
0
210
0
220
0
230
1
50
360
0
SPLINE
5
CB
100
AcDbEntity
8
1
62
256
6
ByLayer
370
18
48
1
60
0
100
AcDbSpline
70
4
71
3
72
8
73
4
40
0
40
0
40
0
40
0
40
1
40
1
40
1
40
1
41
1
10
111.49677495985
20
1.58309190653748
30
0
41
1
10
111.625687670314
20
1.22141143316014
30
0
41
1
10
111.75346263038
20
0.859332734112428
30
0
41
1
10
111.880075598524
20
0.496847324583001
30
0
0
SPLINE
5
CC
100
AcDbEntity
8
1
62
256
6
ByLayer
370
18
48
1
60
0
100
AcDbSpline
70
4
71
3
72
8
73
4
40
0
40
0
40
0
40
0
40
1
40
1
40
1
40
1
41
1
10
111.880075598524
20
0.496847324582973
30
0
41
1
10
111.918716418574
20
0.386220951267973
30
0
41
1
10
111.958255113788
20
0.276099006541529
30
0
41
1
10
111.998691881893
20
0.166461338262479
30
0
0
SPLINE
5
CD
100
AcDbEntity
8
1
62
256
6
ByLayer
370
18
48
1
60
0
100
AcDbSpline
70
4
71
3
72
26
73
22
40
0
40
0
40
0
40
0
40
0.250000000000035
40
0.250000000000035
40
0.50000000000007
40
0.50000000000007
40
0.750000000000105
40
0.750000000000105
40
0.875000000000123
40
0.875000000000123
40
0.937500000000132
40
0.937500000000132
40
0.968750000000136
40
0.984375000000142
40
0.992187500000072
40
0.992187500000072
40
0.996093749999967
40
0.996093749999967
40
0.998046874999983
40
0.998046874999983
40
1
40
1
40
1
40
1
41
1
10
110.232569052171
20
4.64980775804875
30
0
41
1
10
110.242673467504
20
4.63344168450558
30
0
41
1
10
110.252776415212
20
4.61704740834548
30
0
41
1
10
110.27297459317
20
4.58421226019362
30
0
41
1
10
110.28306530315
20
4.56778085635071
30
0
41
1
10
110.303276201852
20
4.5347919024837
30
0
41
1
10
110.313408064909
20
4.51820973337325
30
0
41
1
10
110.328637376976
20
4.49322477244655
30
0
41
1
10
110.333709840029
20
4.48489767794791
30
0
41
1
10
110.341244772343
20
4.47254831419818
30
0
41
1
10
110.343732333599
20
4.46847950328686
30
0
41
1
10
110.347501351982
20
4.46229527299633
30
0
41
1
10
110.349397469419
20
4.45917841648466
30
0
41
1
10
110.351643133004
20
4.45547060966541
30
0
41
1
10
110.352613054305
20
4.45386539336099
30
0
41
1
10
110.353099248828
20
4.45306010931887
30
0
41
1
10
110.35326522531
20
4.45278421781384
30
0
41
1
10
110.353483074627
20
4.45243303400949
30
0
41
1
10
110.353552180739
20
4.45232426984157
30
0
41
1
10
110.353597283626
20
4.45227406880338
30
0
41
1
10
110.353576242273
20
4.45232448261899
30
0
41
1
10
110.353548390391
20
4.45238560001704
30
0
0
SPLINE
5
CE
100
AcDbEntity
8
1
62
256
6
ByLayer
370
18
48
1
60
0
100
AcDbSpline
70
4
71
3
72
28
73
24
40
0
40
0
40
0
40
0
40
0.0520575322481923
40
0.0520575322481923
40
0.091555135071163
40
0.091555135071163
40
0.131052737894133
40
0.131052737894133
40
0.210047943540124
40
0.210047943540124
40
0.368038354832104
40
0.368038354832104
40
0.447033560478064
40
0.447033560478064
40
0.526028766124025
40
0.526028766124025
40
0.684019177415946
40
0.684019177415946
40
0.763014383061941
40
0.763014383061941
40
0.842009588707937
40
0.842009588707937
40
1
40
1
40
1
40
1
41
1
10
109.957854842337
20
1.06529629657911
30
0
41
1
10
109.969336872559
20
1.07381169249857
30
0
41
1
10
109.981088415051
20
1.08251216619163
30
0
41
1
10
110.002252126677
20
1.09811667775145
30
0
41
1
10
110.01154592278
20
1.10494742024221
30
0
41
1
10
110.030477121213
20
1.11879383545664
30
0
41
1
10
110.040135589331
20
1.12582490081505
30
0
41
1
10
110.069475334673
20
1.14703495551655
30
0
41
1
10
110.089509966203
20
1.16132408745233
30
0
41
1
10
110.151185926376
20
1.20434282618413
30
0
41
1
10
110.194404599704
20
1.23320920546897
30
0
41
1
10
110.26305447935
20
1.27564227025397
30
0
41
1
10
110.286572376822
20
1.28964757198611
30
0
41
1
10
110.335007309898
20
1.31718424437855
30
0
41
1
10
110.360030654823
20
1.33076558209436
30
0
41
1
10
110.435958515699
20
1.36972209257044
30
0
41
1
10
110.488065716994
20
1.39350091214917
30
0
41
1
10
110.568828810898
20
1.42466765455046
30
0
41
1
10
110.596182994167
20
1.43430814239073
30
0
41
1
10
110.651808582265
20
1.45192039914522
30
0
41
1
10
110.68013123508
20
1.45990792372822
30
0
41
1
10
110.766156140009
20
1.48116921738338
30
0
41
1
10
110.82403448364
20
1.49156242280634
30
0
41
1
10
110.88247100739
20
1.49822447236258
30
0
0
SPLINE
5
CF
100
AcDbEntity
8
1
62
256
6
ByLayer
370
18
48
1
60
0
100
AcDbSpline
70
4
71
3
72
10
73
6
40
0
40
0
40
0
40
0
40
0.5
40
0.5
40
1
40
1
40
1
40
1
41
1
10
110.882471007389
20
1.49822447236264
30
0
41
1
10
110.985199234262
20
1.50993599273269
30
0
41
1
10
111.087868574103
20
1.5227076838363
30
0
41
1
10
111.292695518716
20
1.55075071093373
30
0
41
1
10
111.3948977376
20
1.56598693830458
30
0
41
1
10
111.496774959849
20
1.58309190653745
30
0
0
SPLINE
5
D0
100
AcDbEntity
8
1
62
256
6
ByLayer
370
18
48
1
60
0
100
AcDbSpline
70
4
71
3
72
30
73
26
40
0
40
0
40
0
40
0
40
0.24999999999999
40
0.24999999999999
40
0.374999999999985
40
0.374999999999985
40
0.49999999999998
40
0.49999999999998
40
0.562499999999972
40
0.562499999999972
40
0.593749999999969
40
0.593749999999969
40
0.624999999999965
40
0.624999999999965
40
0.687499999999967
40
0.687499999999967
40
0.749999999999969
40
0.749999999999969
40
0.874999999999984
40
0.874999999999984
40
0.937499999999986
40
0.937499999999986
40
0.968749999999993
40
0.968749999999993
40
1
40
1
40
1
40
1
41
1
10
110.469167909564
20
4.25182967079016
30
0
41
1
10
110.547164179213
20
4.02506749323123
30
0
41
1
10
110.625995792923
20
3.79738508623413
30
0
41
1
10
110.746038377867
20
3.45502632123262
30
0
41
1
10
110.78633661385
20
3.34077616894103
30
0
41
1
10
110.86747192662
20
3.11240325726428
30
0
41
1
10
110.908328397406
20
2.99825842073378
30
0
41
1
10
110.970017143064
20
2.82720395986956
30
0
41
1
10
110.990648258017
20
2.77020807817811
30
0
41
1
10
111.021697461724
20
2.6847481003679
30
0
41
1
10
111.032049407476
20
2.65626214518082
30
0
41
1
10
111.052994402195
20
2.59937009879042
30
0
41
1
10
111.063567287738
20
2.57095735465347
30
0
41
1
10
111.095611726969
20
2.48582757795566
30
0
41
1
10
111.117272142638
20
2.42958951057844
30
0
41
1
10
111.161235886869
20
2.3182821164491
30
0
41
1
10
111.183546866197
20
2.26320084496584
30
0
41
1
10
111.251539976205
20
2.09965226877975
30
0
41
1
10
111.29827106684
20
1.99285782724223
30
0
41
1
10
111.370871475077
20
1.83620555044072
30
0
41
1
10
111.395489913768
20
1.7845803665777
30
0
41
1
10
111.433094959338
20
1.70805788548216
30
0
41
1
10
111.445764903477
20
1.68265956566131
30
0
41
1
10
111.471195088872
20
1.63245194493513
30
0
41
1
10
111.48395947441
20
1.60763259180274
30
0
41
1
10
111.49677495985
20
1.58309190653753
30
0
0
SPLINE
5
D1
100
AcDbEntity
8
1
62
256
6
ByLayer
370
18
48
1
60
0
100
AcDbSpline
70
4
71
3
72
8
73
4
40
0
40
0
40
0
40
0
40
1
40
1
40
1
40
1
41
1
10
110.353548390289
20
4.45238560024149
30
0
41
1
10
110.392067150563
20
4.38553803115181
30
0
41
1
10
110.430607034416
20
4.31868518891284
30
0
41
1
10
110.469167909564
20
4.25182967079016
30
0
0
SPLINE
5
D2
100
AcDbEntity
8
1
62
256
6
ByLayer
370
18
48
1
60
0
100
AcDbSpline
70
4
71
3
72
24
73
20
40
0
40
0
40
0
40
0
40
0.0542770314473124
40
0.0542770314473124
40
0.108554062894625
40
0.108554062894625
40
0.21710812578925
40
0.21710812578925
40
0.325662188683874
40
0.325662188683874
40
0.434216251578499
40
0.434216251578499
40
0.651324377367749
40
0.651324377367749
40
0.868432503156998
40
0.868432503156998
40
0.976986566051623
40
0.976986566051623
40
1
40
1
40
1
40
1
41
1
10
110.353548390287
20
4.45238560024276
30
0
41
1
10
110.236276768735
20
4.45376152263529
30
0
41
1
10
110.118968076977
20
4.45388174004555
30
0
41
1
10
109.884349810814
20
4.45163396203659
30
0
41
1
10
109.767218326077
20
4.44926928206237
30
0
41
1
10
109.416270754341
20
4.43855969304457
30
0
41
1
10
109.182868493318
20
4.42661940495242
30
0
41
1
10
108.71687843412
20
4.39327114528422
30
0
41
1
10
108.484304932725
20
4.37187491861559
30
0
41
1
10
108.019660968708
20
4.31996269697632
30
0
41
1
10
107.787606654281
20
4.28945435125075
30
0
41
1
10
107.091832958476
20
4.18444541153269
30
0
41
1
10
106.628446695013
20
4.09656706088018
30
0
41
1
10
105.700314260607
20
3.88527253869509
30
0
41
1
10
105.235651455712
20
3.76148786497856
30
0
41
1
10
104.535527511057
20
3.55155564092644
30
0
41
1
10
104.301634660735
20
3.47750075195663
30
0
41
1
10
104.017363942269
20
3.38297445521417
30
0
41
1
10
103.967614933123
20
3.36626429287656
30
0
41
1
10
103.917855927594
20
3.34938539285764
30
0
0
SPLINE
5
D3
100
AcDbEntity
8
1
62
256
6
ByLayer
370
18
48
1
60
0
100
AcDbSpline
70
4
71
3
72
24
73
20
40
0
40
0
40
0
40
0
40
0.185667773839137
40
0.185667773839137
40
0.287459302109242
40
0.287459302109242
40
0.389250830379347
40
0.389250830379347
40
0.592833886919561
40
0.592833886919561
40
0.643729651054617
40
0.643729651054617
40
0.694625415189672
40
0.694625415189672
40
0.796416943459781
40
0.796416943459781
40
0.898208471729891
40
0.898208471729891
40
1
40
1
40
1
40
1
41
1
10
72.375903656225
20
-1.52647327360472
30
0
41
1
10
71.9509773603835
20
-1.32104965116292
30
0
41
1
10
71.5272086018511
20
-1.11072298808412
30
0
41
1
10
70.8713767156562
20
-0.780509123999138
30
0
41
1
10
70.6392156475126
20
-0.662643429846156
30
0
41
1
10
70.1747967790253
20
-0.425489302721815
30
0
41
1
10
69.9425193415296
20
-0.306239957873714
30
0
41
1
10
69.2448305734055
20
0.0522147982654246
30
0
41
1
10
68.778720840428
20
0.292454418880737
30
0
41
1
10
68.1934092375019
20
0.591533920280682
30
0
41
1
10
68.0761914580005
20
0.651300437442757
30
0
41
1
10
67.841512623279
20
0.770517674616514
30
0
41
1
10
67.7242394684891
20
0.829851765031975
30
0
41
1
10
67.3726105627303
20
1.00703825365048
30
0
41
1
10
67.1384362917343
20
1.12405535017857
30
0
41
1
10
66.6702243625596
20
1.35524557794559
30
0
41
1
10
66.4362029638655
20
1.46944997574533
30
0
41
1
10
65.9680580668847
20
1.69453158586742
30
0
41
1
10
65.7339187061031
20
1.80538176017706
30
0
41
1
10
65.4995453192981
20
1.91423334537643
30
0
0
SPLINE
5
D4
100
AcDbEntity
8
1
62
256
6
ByLayer
370
18
48
1
60
0
100
AcDbSpline
70
4
71
3
72
8
73
4
40
0
40
0
40
0
40
0
40
1
40
1
40
1
40
1
41
1
10
65.4995453192982
20
1.92953099437244
30
0
41
1
10
65.4995453192982
20
1.92489742806939
30
0
41
1
10
65.4995453192983
20
1.91979526379254
30
0
41
1
10
65.4995453192983
20
1.91423334537609
30
0
0
SPLINE
5
D5
100
AcDbEntity
8
1
62
256
6
ByLayer
370
18
48
1
60
0
100
AcDbSpline
70
4
71
3
72
14
73
10
40
0
40
0
40
0
40
0
40
0.183016217997216
40
0.183016217997216
40
0.366032435994431
40
0.366032435994431
40
0.732064871988862
40
0.732064871988862
40
1
40
1
40
1
40
1
41
1
10
110.988606947795
20
0.708232905133059
30
0
41
1
10
110.961144588808
20
0.720547788122872
30
0
41
1
10
110.933691044235
20
0.732608802375665
30
0
41
1
10
110.878803243857
20
0.756175284597703
30
0
41
1
10
110.85136729288
20
0.767680633577555
30
0
41
1
10
110.769428510721
20
0.80112592759636
30
0
41
1
10
110.71518835645
20
0.822045659030067
30
0
41
1
10
110.621988499934
20
0.855622172305033
30
0
41
1
10
110.582828342914
20
0.868994671483051
30
0
41
1
10
110.543907861441
20
0.881511416820587
30
0
0
SPLINE
5
D6
100
AcDbEntity
8
1
62
256
6
ByLayer
370
18
48
1
60
0
100
AcDbSpline
70
4
71
3
72
8
73
4
40
0
40
0
40
0
40
0
40
1
40
1
40
1
40
1
41
1
10
110.353548390288
20
-4.45238560024282
30
0
41
1
10
110.392067150562
20
-4.38553803115263
30
0
41
1
10
110.430607034416
20
-4.31868518891318
30
0
41
1
10
110.469167909564
20
-4.25182967079002
30
0
0
SPLINE
5
D7
100
AcDbEntity
8
1
62
256
6
ByLayer
370
18
48
1
60
0
100
AcDbSpline
70
4
71
3
72
26
73
22
40
0
40
0
40
0
40
0
40
0.250000000000038
40
0.250000000000038
40
0.500000000000077
40
0.500000000000077
40
0.750000000000115
40
0.750000000000115
40
0.875000000000134
40
0.875000000000134
40
0.93750000000014
40
0.93750000000014
40
0.968750000000143
40
0.984375000000141
40
0.992187500000144
40
0.992187500000144
40
0.996093750000075
40
0.996093750000075
40
0.998046875000038
40
0.998046875000038
40
1
40
1
40
1
40
1
41
1
10
110.232569052171
20
-4.64980775804881
30
0
41
1
10
110.242673467504
20
-4.63344168450533
30
0
41
1
10
110.252776415212
20
-4.61704740834483
30
0
41
1
10
110.272974593171
20
-4.58421226019229
30
0
41
1
10
110.283065303151
20
-4.56778085634906
30
0
41
1
10
110.303276201854
20
-4.53479190248132
30
0
41
1
10
110.313408064911
20
-4.51820973337053
30
0
41
1
10
110.328637376977
20
-4.49322477244331
30
0
41
1
10
110.333709840032
20
-4.48489767794453
30
0
41
1
10
110.341244772345
20
-4.4725483141946
30
0
41
1
10
110.343732333601
20
-4.46847950328325
30
0
41
1
10
110.347501351984
20
-4.46229527299252
30
0
41
1
10
110.349397469422
20
-4.45917841648071
30
0
41
1
10
110.351643133007
20
-4.45547060966129
30
0
41
1
10
110.352613054307
20
-4.45386539335681
30
0
41
1
10
110.35309924883
20
-4.45306010931469
30
0
41
1
10
110.353265225312
20
-4.45278421780964
30
0
41
1
10
110.353483074629
20
-4.45243303400616
30
0
41
1
10
110.35355218074
20
-4.45232426983921
30
0
41
1
10
110.353597283626
20
-4.45227406880417
30
0
41
1
10
110.353576242272
20
-4.45232448262055
30
0
41
1
10
110.353548390391
20
-4.45238560001894
30
0
0
SPLINE
5
D8
100
AcDbEntity
8
1
62
256
6
ByLayer
370
18
48
1
60
0
100
AcDbSpline
70
4
71
3
72
8
73
4
40
0
40
0
40
0
40
0
40
1
40
1
40
1
40
1
41
1
10
110.305699912597
20
-4.45287732647321
30
0
41
1
10
110.28271292356
20
-4.45308010478277
30
0
41
1
10
110.259724701814
20
-4.4532347049138
30
0
41
1
10
110.236735523152
20
-4.453341214197
30
0
0
SPLINE
5
D9
100
AcDbEntity
8
1
62
256
6
ByLayer
370
18
48
1
60
0
100
AcDbSpline
70
4
71
3
72
80
73
76
40
0
40
0
40
0
40
0
40
0.0058715623519946
40
0.0058715623519946
40
0.0369380760284969
40
0.0369380760284969
40
0.068004589704999
40
0.068004589704999
40
0.130137617058004
40
0.130137617058004
40
0.161204130734506
40
0.161204130734506
40
0.192270644411008
40
0.192270644411008
40
0.200037272830132
40
0.200037272830132
40
0.207803901249256
40
0.207803901249256
40
0.223337158087505
40
0.223337158087505
40
0.254403671764001
40
0.254403671764001
40
0.285470185440498
40
0.285470185440498
40
0.316536699116994
40
0.316536699116994
40
0.332069955955242
40
0.332069955955242
40
0.34760321279349
40
0.34760321279349
40
0.37866972646999
40
0.37866972646999
40
0.394202983308241
40
0.394202983308241
40
0.409736240146492
40
0.409736240146492
40
0.440802753822997
40
0.440802753822997
40
0.502935781176007
40
0.502935781176007
40
0.534002294852511
40
0.534002294852511
40
0.565068808529015
40
0.565068808529015
40
0.596135322205519
40
0.596135322205519
40
0.611668579043769
40
0.611668579043769
40
0.62720183588202
40
0.62720183588202
40
0.658268349558518
40
0.658268349558518
40
0.673801606396766
40
0.673801606396766
40
0.689334863235015
40
0.689334863235015
40
0.720401376911513
40
0.720401376911513
40
0.751467890588011
40
0.751467890588011
40
0.813600917941007
40
0.813600917941007
40
0.844667431617505
40
0.844667431617505
40
0.860200688455753
40
0.860200688455753
40
0.875733945294003
40
0.875733945294003
40
0.906800458970502
40
0.906800458970502
40
0.937866972647001
40
0.937866972647001
40
0.968933486323501
40
0.968933486323501
40
1
40
1
40
1
40
1
41
1
10
99.2864843260749
20
-1.3857763478787
30
0
41
1
10
99.2426493427913
20
-1.3643496844069
30
0
41
1
10
99.1988242029115
20
-1.34287378904793
30
0
41
1
10
98.9231754610796
20
-1.20747077690945
30
0
41
1
10
98.6915820771097
20
-1.09228301536032
30
0
41
1
10
98.228551522532
20
-0.8599060916535
30
0
41
1
10
97.9971167341185
20
-0.742708713386122
30
0
41
1
10
97.3026169027159
20
-0.388973741948632
30
0
41
1
10
96.8393956258593
20
-0.150225524442959
30
0
41
1
10
96.1421710168938
20
0.208177309543657
30
0
41
1
10
95.909369344154
20
0.327700452412927
30
0
41
1
10
95.4427326976362
20
0.566382622109955
30
0
41
1
10
95.2089136152652
20
0.685578749087767
30
0
41
1
10
94.9157809795108
20
0.833940967847752
30
0
41
1
10
94.8570903949136
20
0.863589042457193
30
0
41
1
10
94.7397707810394
20
0.92271049611756
30
0
41
1
10
94.6811292986397
20
0.952191708993752
30
0
41
1
10
94.5052620629025
20
1.04040018827152
30
0
41
1
10
94.3880973288154
20
1.09889912572419
30
0
41
1
10
94.0367740182723
20
1.27335845338794
30
0
41
1
10
93.8027757259073
20
1.38826423705544
30
0
41
1
10
93.3349267648058
20
1.6147829946442
30
0
41
1
10
93.1010975709939
20
1.72642908544216
30
0
41
1
10
92.6332345631947
20
1.9457960463794
30
0
41
1
10
92.399149026306
20
2.05343464623937
30
0
41
1
10
92.0476587042462
20
2.21155666617
30
0
41
1
10
91.93042932307
20
2.26369856489265
30
0
41
1
10
91.6957972962664
20
2.36677170791862
30
0
41
1
10
91.5784053542216
20
2.41769779460154
30
0
41
1
10
91.2263440817391
20
2.56838806071107
30
0
41
1
10
90.9917208394826
20
2.66610429813792
30
0
41
1
10
90.6398406683624
20
2.80806945158548
30
0
41
1
10
90.5225470037645
20
2.85463023119505
30
0
41
1
10
90.287913445129
20
2.94616798347101
30
0
41
1
10
90.170519649253
20
2.99116391705957
30
0
41
1
10
89.8187296478164
20
3.12349470802835
30
0
41
1
10
89.5846749611748
20
3.20819544168623
30
0
41
1
10
88.8835382217734
20
3.45129018399564
30
0
41
1
10
88.4174766923637
20
3.59867100883349
30
0
41
1
10
87.718387187093
20
3.79517635165774
30
0
41
1
10
87.4853690754795
20
3.85657601591771
30
0
41
1
10
87.0191034734764
20
3.97092088073617
30
0
41
1
10
86.7858709169373
20
4.02388489241145
30
0
41
1
10
86.3187362992257
20
4.12104635199361
30
0
41
1
10
86.084824797833
20
4.1652329342686
30
0
41
1
10
85.7332872783946
20
4.22477497978383
30
0
41
1
10
85.6159506610421
20
4.24350159682172
30
0
41
1
10
85.3812175053151
20
4.27862797153446
30
0
41
1
10
85.2638515508322
20
4.29502396049133
30
0
41
1
10
84.9117861811401
20
4.34064131154952
30
0
41
1
10
84.6771517568818
20
4.36628163790178
30
0
41
1
10
84.3252407737949
20
4.39741838501695
30
0
41
1
10
84.2079292020929
20
4.40657540965552
30
0
41
1
10
83.9732871829359
20
4.42242679421318
30
0
41
1
10
83.8559007480087
20
4.42912644838412
30
0
41
1
10
83.5040755591233
20
4.44553093890471
30
0
41
1
10
83.269966533676
20
4.45155125120411
30
0
41
1
10
82.8023635832058
20
4.45388691985122
30
0
41
1
10
82.5688639436199
20
4.45020265230741
30
0
41
1
10
81.8687322947516
20
4.42477107627997
30
0
41
1
10
81.4024364530303
20
4.38870801441334
30
0
41
1
10
80.7020282401132
20
4.30599884532779
30
0
41
1
10
80.4683961296858
20
4.27364297744492
30
0
41
1
10
80.1174250836912
20
4.21800425924397
30
0
41
1
10
80.0003478664836
20
4.19827759643618
30
0
41
1
10
79.7659741677982
20
4.1564949843399
30
0
41
1
10
79.6486405561199
20
4.1344314963095
30
0
41
1
10
79.2965439434492
20
4.06483441447816
30
0
41
1
10
79.0618042556896
20
4.01392620515173
30
0
41
1
10
78.5923976117375
20
3.90331525984681
30
0
41
1
10
78.3578194673567
20
3.84362413828569
30
0
41
1
10
77.8883841241976
20
3.71601677436701
30
0
41
1
10
77.6536427396547
20
3.64804199226728
30
0
41
1
10
77.1841894575142
20
3.50411437758547
30
0
41
1
10
76.9494714178894
20
3.4281603148479
30
0
41
1
10
76.7148205909135
20
3.34848295024958
30
0
0
SPLINE
5
DA
100
AcDbEntity
8
1
62
256
6
ByLayer
370
18
48
1
60
0
100
AcDbSpline
70
2053
71
3
72
115
73
111
40
0
40
0
40
0
40
0
40
0.0312499999999696
40
0.0312499999999696
40
0.0624999999999392
40
0.0624999999999392
40
0.0937499999999088
40
0.0937499999999088
40
0.124999999999879
40
0.124999999999879
40
0.140624999999863
40
0.140624999999863
40
0.156249999999848
40
0.156249999999848
40
0.187499999999821
40
0.187499999999821
40
0.203124999999807
40
0.203124999999807
40
0.218749999999792
40
0.234374999999778
40
0.234374999999778
40
0.242187499999771
40
0.242187499999771
40
0.249999999999763
40
0.249999999999763
40
0.281249999999734
40
0.281249999999734
40
0.29687499999972
40
0.29687499999972
40
0.304687499999715
40
0.304687499999715
40
0.312499999999709
40
0.312499999999709
40
0.343749999999686
40
0.343749999999686
40
0.351562499999684
40
0.351562499999684
40
0.359374999999682
40
0.374999999999677
40
0.390624999999673
40
0.390624999999673
40
0.406249999999668
40
0.406249999999668
40
0.421874999999664
40
0.421874999999664
40
0.43749999999966
40
0.43749999999966
40
0.468749999999651
40
0.468749999999651
40
0.48437499999965
40
0.48437499999965
40
0.499999999999649
40
0.499999999999649
40
0.531249999999648
40
0.531249999999648
40
0.539062499999646
40
0.539062499999646
40
0.546874999999644
40
0.546874999999644
40
0.562499999999646
40
0.562499999999646
40
0.593749999999652
40
0.593749999999652
40
0.601562499999656
40
0.601562499999656
40
0.609374999999661
40
0.609374999999661
40
0.62499999999967
40
0.62499999999967
40
0.656249999999687
40
0.656249999999687
40
0.671874999999698
40
0.671874999999698
40
0.687499999999709
40
0.687499999999709
40
0.718749999999731
40
0.718749999999731
40
0.726562499999736
40
0.726562499999736
40
0.734374999999741
40
0.749999999999751
40
0.765624999999761
40
0.765624999999761
40
0.773437499999765
40
0.773437499999765
40
0.781249999999769
40
0.781249999999769
40
0.812499999999791
40
0.812499999999791
40
0.820312499999796
40
0.820312499999796
40
0.828124999999801
40
0.828124999999801
40
0.843749999999817
40
0.859374999999833
40
0.859374999999833
40
0.874999999999848
40
0.874999999999848
40
0.906249999999886
40
0.906249999999886
40
0.921874999999905
40
0.921874999999905
40
0.937499999999924
40
0.953124999999943
40
0.953124999999943
40
0.968749999999962
40
0.968749999999962
40
0.984374999999981
40
0.984374999999981
40
1
40
1
40
1
40
1
41
1
10
110.854122375589
20
-1.92062379684277
30
0
41
1
10
110.838078152624
20
-1.94088423978366
30
0
41
1
10
110.822727759866
20
-1.95765640941536
30
0
41
1
10
110.793262539885
20
-1.98463763735623
30
0
41
1
10
110.779148504342
20
-1.99484490773182
30
0
41
1
10
110.752107876453
20
-2.00840787806681
30
0
41
1
10
110.739541205299
20
-2.01157631210378
30
0
41
1
10
110.716218155481
20
-2.01083975196005
30
0
41
1
10
110.705449580477
20
-2.00694354435495
30
0
41
1
10
110.690643096435
20
-1.99539760519755
30
0
41
1
10
110.685991904084
20
-1.99063335334193
30
0
41
1
10
110.677290301294
20
-1.97934518439843
30
0
41
1
10
110.673230802822
20
-1.97281429615174
30
0
41
1
10
110.661915087184
20
-1.95053372317923
30
0
41
1
10
110.655511412845
20
-1.93212615969631
30
0
41
1
10
110.647735915
20
-1.89860423940846
30
0
41
1
10
110.645488374822
20
-1.88658481786661
30
0
41
1
10
110.641701487713
20
-1.86102028976316
30
0
41
1
10
110.638612231532
20
-1.83388189948852
30
0
41
1
10
110.636935637891
20
-1.80354341272948
30
0
41
1
10
110.636234705245
20
-1.77953074143915
30
0
41
1
10
110.63609402915
20
-1.77131629816185
30
0
41
1
10
110.636006022805
20
-1.75445144361737
30
0
41
1
10
110.63605953252
20
-1.74577151586044
30
0
41
1
10
110.63682230267
20
-1.70176070367128
30
0
41
1
10
110.638986637254
20
-1.66444464273667
30
0
41
1
10
110.644668576713
20
-1.60526920322684
30
0
41
1
10
110.646971950835
20
-1.58500648102344
30
0
41
1
10
110.651090894187
20
-1.55375946382466
30
0
41
1
10
110.65257389906
20
-1.54321455162923
30
0
41
1
10
110.655723172569
20
-1.52213942564484
30
0
41
1
10
110.65739411395
20
-1.51157262694156
30
0
41
1
10
110.666229945753
20
-1.45859572397006
30
0
41
1
10
110.674821054772
20
-1.41576141132137
30
0
41
1
10
110.687626619686
20
-1.36165862373571
30
0
41
1
10
110.690291450173
20
-1.35081650223239
30
0
41
1
10
110.695759487619
20
-1.32936950273628
30
0
41
1
10
110.70419571201
20
-1.29744451526256
30
0
41
1
10
110.719412563321
20
-1.24543311045977
30
0
41
1
10
110.732827272742
20
-1.20507987243693
30
0
41
1
10
110.746883769291
20
-1.1653633069138
30
0
41
1
10
110.754115071149
20
-1.1461573924388
30
0
41
1
10
110.768945784211
20
-1.10903564717032
30
0
41
1
10
110.776549430953
20
-1.09110836541072
30
0
41
1
10
110.792129355177
20
-1.05647740386848
30
0
41
1
10
110.800118280005
20
-1.03974904567184
30
0
41
1
10
110.824570338057
20
-0.991543220141324
30
0
41
1
10
110.841124473505
20
-0.962781082084092
30
0
41
1
10
110.866304476898
20
-0.924176089745458
30
0
41
1
10
110.874756033517
20
-0.912070565016506
30
0
41
1
10
110.891771289828
20
-0.889365009617023
30
0
41
1
10
110.900276599935
20
-0.878847590027078
30
0
41
1
10
110.925549423335
20
-0.849951196264442
30
0
41
1
10
110.94217409471
20
-0.834074974890825
30
0
41
1
10
110.962646588407
20
-0.81826179063151
30
0
41
1
10
110.966725482317
20
-0.815302464996677
30
0
41
1
10
110.974850582087
20
-0.80979207812905
30
0
41
1
10
110.978902310799
20
-0.807238472793614
30
0
41
1
10
110.990910177164
20
-0.800248173645002
30
0
41
1
10
110.998747676721
20
-0.796459075689882
30
0
41
1
10
111.021754987589
20
-0.787618974417768
30
0
41
1
10
111.036424464428
20
-0.785073595255682
30
0
41
1
10
111.053847145561
20
-0.786127216857267
30
0
41
1
10
111.057285584661
20
-0.786551446178265
30
0
41
1
10
111.06406664772
20
-0.787835433567494
30
0
41
1
10
111.067415958661
20
-0.788698021815577
30
0
41
1
10
111.077233615466
20
-0.791926699191151
30
0
41
1
10
111.08349008493
20
-0.794931693572437
30
0
41
1
10
111.101380401281
20
-0.806480874524397
30
0
41
1
10
111.112143702759
20
-0.817534323515531
30
0
41
1
10
111.126349960579
20
-0.839476084920591
30
0
41
1
10
111.130760316468
20
-0.847689380696806
30
0
41
1
10
111.138868323569
20
-0.866057090609843
30
0
41
1
10
111.14250825589
20
-0.876086353940792
30
0
41
1
10
111.152118498993
20
-0.908637241552924
30
0
41
1
10
111.156811875321
20
-0.933633682230294
30
0
41
1
10
111.160270403373
20
-0.969467924442
30
0
41
1
10
111.160841765857
20
-0.976889900618062
30
0
41
1
10
111.161723563324
20
-0.992100554170946
30
0
41
1
10
111.162653653893
20
-1.01541588224691
30
0
41
1
10
111.16225578591
20
-1.0567541851006
30
0
41
1
10
111.159837617176
20
-1.09251197385677
30
0
41
1
10
111.157205378137
20
-1.12038792053684
30
0
41
1
10
111.156191285454
20
-1.1298565333274
30
0
41
1
10
111.153881225687
20
-1.14916028944131
30
0
41
1
10
111.152580378739
20
-1.15902472841339
30
0
41
1
10
111.145454499682
20
-1.20858188730233
30
0
41
1
10
111.137742295595
20
-1.24940059217943
30
0
41
1
10
111.125703846863
20
-1.30189415024017
30
0
41
1
10
111.12317509835
20
-1.31246713487741
30
0
41
1
10
111.117873737715
20
-1.33376490107568
30
0
41
1
10
111.115095562431
20
-1.34450784238635
30
0
41
1
10
111.106512014287
20
-1.37652974264051
30
0
41
1
10
111.094340310622
20
-1.41895042372673
30
0
41
1
10
111.080819330064
20
-1.46085744713443
30
0
41
1
10
111.066652061761
20
-1.50251695053399
30
0
41
1
10
111.059209347857
20
-1.5233100945851
30
0
41
1
10
111.036442179787
20
-1.58398137701104
30
0
41
1
10
111.020564293792
20
-1.62256020651108
30
0
41
1
10
110.995853085333
20
-1.67784592963204
30
0
41
1
10
110.987450278171
20
-1.69586266226327
30
0
41
1
10
110.970693295604
20
-1.73034576049343
30
0
41
1
10
110.953902626815
20
-1.76347010375778
30
0
41
1
10
110.937060465704
20
-1.79400390506365
30
0
41
1
10
110.920196493244
20
-1.82326533877656
30
0
41
1
10
110.911723424235
20
-1.83730480415124
30
0
41
1
10
110.89498005692
20
-1.86375262794743
30
0
41
1
10
110.886694116197
20
-1.87619306715271
30
0
41
1
10
110.870286427114
20
-1.89955084414242
30
0
41
1
10
110.862144487071
20
-1.9104935753723
30
0
41
1
10
110.854122375589
20
-1.92062379684277
30
0
0
SPLINE
5
DB
100
AcDbEntity
8
1
62
256
6
ByLayer
370
18
48
1
60
0
100
AcDbSpline
70
4
71
3
72
13
73
9
40
0
40
0
40
0
40
0
40
0.499999999999967
40
0.499999999999967
40
0.624999999999967
40
0.624999999999967
40
0.749999999999967
40
1
40
1
40
1
40
1
41
1
10
110.469167909564
20
-4.25182967078996
30
0
41
1
10
110.43705792611
20
-4.29998884905638
30
0
41
1
10
110.407277860911
20
-4.34144638790849
30
0
41
1
10
110.372985507981
20
-4.38392187069232
30
0
41
1
10
110.366257418115
20
-4.39196669514487
30
0
41
1
10
110.353178043833
20
-4.40699478550863
30
0
41
1
10
110.334152490725
20
-4.42791716385659
30
0
41
1
10
110.316835728591
20
-4.44405987194185
30
0
41
1
10
110.305991425749
20
-4.45275351385484
30
0
0
SPLINE
5
DC
100
AcDbEntity
8
1
62
256
6
ByLayer
370
18
48
1
60
0
100
AcDbSpline
70
4
71
3
72
30
73
26
40
0
40
0
40
0
40
0
40
0.250000000000009
40
0.250000000000009
40
0.375000000000014
40
0.375000000000014
40
0.500000000000018
40
0.500000000000018
40
0.562500000000016
40
0.562500000000016
40
0.593750000000015
40
0.593750000000015
40
0.625000000000014
40
0.625000000000014
40
0.687500000000011
40
0.687500000000011
40
0.750000000000009
40
0.750000000000009
40
0.875000000000004
40
0.875000000000004
40
0.937500000000002
40
0.937500000000002
40
0.968750000000001
40
0.968750000000001
40
1
40
1
40
1
40
1
41
1
10
110.469167909564
20
-4.25182967079002
30
0
41
1
10
110.547164179213
20
-4.02506749323109
30
0
41
1
10
110.625995792923
20
-3.79738508623402
30
0
41
1
10
110.746038377867
20
-3.45502632123254
30
0
41
1
10
110.78633661385
20
-3.34077616894095
30
0
41
1
10
110.86747192662
20
-3.11240325726419
30
0
41
1
10
110.908328397407
20
-2.99825842073375
30
0
41
1
10
110.970017143064
20
-2.82720395986954
30
0
41
1
10
110.990648258017
20
-2.77020807817809
30
0
41
1
10
111.021697461725
20
-2.68474810036787
30
0
41
1
10
111.032049407476
20
-2.65626214518079
30
0
41
1
10
111.052994402195
20
-2.59937009879039
30
0
41
1
10
111.063567287737
20
-2.57095735465347
30
0
41
1
10
111.095611726969
20
-2.48582757795566
30
0
41
1
10
111.117272142638
20
-2.42958951057838
30
0
41
1
10
111.161235886869
20
-2.31828211644898
30
0
41
1
10
111.183546866197
20
-2.26320084496572
30
0
41
1
10
111.251539976205
20
-2.09965226877961
30
0
41
1
10
111.29827106684
20
-1.99285782724206
30
0
41
1
10
111.370871475077
20
-1.83620555044064
30
0
41
1
10
111.395489913768
20
-1.78458036657761
30
0
41
1
10
111.433094959338
20
-1.70805788548213
30
0
41
1
10
111.445764903477
20
-1.68265956566131
30
0
41
1
10
111.471195088872
20
-1.63245194493513
30
0
41
1
10
111.48395947441
20
-1.60763259180271
30
0
41
1
10
111.49677495985
20
-1.5830919065375
30
0
0
SPLINE
5
DD
100
AcDbEntity
8
1
62
256
6
ByLayer
370
18
48
1
60
0
100
AcDbSpline
70
4
71
3
72
8
73
4
40
0
40
0
40
0
40
0
40
1
40
1
40
1
40
1
41
1
10
111.49677495985
20
-1.58309190653748
30
0
41
1
10
111.625687670314
20
-1.22141143316014
30
0
41
1
10
111.75346263038
20
-0.859332734112428
30
0
41
1
10
111.880075598524
20
-0.496847324583001
30
0
0
SPLINE
5
DE
100
AcDbEntity
8
1
62
256
6
ByLayer
370
18
48
1
60
0
100
AcDbSpline
70
4
71
3
72
8
73
4
40
0
40
0
40
0
40
0
40
1
40
1
40
1
40
1
41
1
10
111.880075598524
20
-0.49684732458303
30
0
41
1
10
111.918716418574
20
-0.386220951268058
30
0
41
1
10
111.958255113788
20
-0.276099006541642
30
0
41
1
10
111.998691881893
20
-0.166461338262621
30
0
0
SPLINE
5
DF
100
AcDbEntity
8
1
62
256
6
ByLayer
370
18
48
1
60
0
100
AcDbSpline
70
4
71
3
72
8
73
4
40
0
40
0
40
0
40
0
40
1
40
1
40
1
40
1
41
1
10
111.998691881894
20
0.166461338262479
30
0
41
1
10
112.000433378268
20
0.0556564284736965
30
0
41
1
10
112.000438708609
20
-0.0553172787961671
30
0
41
1
10
111.998691881894
20
-0.166461338262565
30
0
0
SPLINE
5
E0
100
AcDbEntity
8
1
62
256
6
ByLayer
370
18
48
1
60
0
100
AcDbSpline
70
4
71
3
72
56
73
52
40
0
40
0
40
0
40
0
40
0.0624999999999961
40
0.0624999999999961
40
0.0937499999999998
40
0.0937499999999998
40
0.109375000000002
40
0.109375000000002
40
0.125000000000004
40
0.125000000000004
40
0.187500000000011
40
0.187500000000011
40
0.250000000000018
40
0.250000000000018
40
0.281250000000015
40
0.281250000000015
40
0.312500000000012
40
0.312500000000012
40
0.37500000000002
40
0.37500000000002
40
0.406250000000024
40
0.406250000000024
40
0.421875000000026
40
0.421875000000026
40
0.437500000000028
40
0.437500000000028
40
0.500000000000035
40
0.500000000000035
40
0.531250000000033
40
0.531250000000033
40
0.562500000000031
40
0.562500000000031
40
0.625000000000017
40
0.625000000000017
40
0.656250000000009
40
0.656250000000009
40
0.687500000000002
40
0.687500000000002
40
0.749999999999995
40
0.749999999999995
40
0.781249999999996
40
0.781249999999996
40
0.812499999999996
40
0.812499999999996
40
0.874999999999996
40
0.874999999999996
40
0.937499999999996
40
0.937499999999996
40
0.968749999999998
40
0.968749999999998
40
1
40
1
40
1
40
1
41
1
10
111.998691881894
20
0.166461338262451
30
0
41
1
10
111.979860836403
20
0.113149701478875
30
0
41
1
10
111.959960930643
20
0.0603458195352857
30
0
41
1
10
111.928497421514
20
-0.0180824002044631
30
0
41
1
10
111.917739835903
20
-0.0440951499510049
30
0
41
1
10
111.901189029032
20
-0.082913150867995
30
0
41
1
10
111.895592834386
20
-0.0958414853259342
30
0
41
1
10
111.884342040833
20
-0.121444034817188
30
0
41
1
10
111.878681160311
20
-0.134133696725399
30
0
41
1
10
111.850203972713
20
-0.197026665008622
30
0
41
1
10
111.826872498124
20
-0.245571796629974
30
0
41
1
10
111.779177472958
20
-0.339069666692382
30
0
41
1
10
111.754814459047
20
-0.384024467780932
30
0
41
1
10
111.717481259865
20
-0.448553590558504
30
0
41
1
10
111.704848345302
20
-0.469664059792166
30
0
41
1
10
111.679755222442
20
-0.510140293730728
30
0
41
1
10
111.667260990334
20
-0.529571446232637
30
0
41
1
10
111.62993682125
20
-0.585463622639793
30
0
41
1
10
111.605266091136
20
-0.619536852360682
30
0
41
1
10
111.568572352644
20
-0.665706583489055
30
0
41
1
10
111.556393002558
20
-0.68026988999253
30
0
41
1
10
111.538199433507
20
-0.700822214445054
30
0
41
1
10
111.532134797287
20
-0.707470067501788
30
0
41
1
10
111.520141232498
20
-0.720207051090568
30
0
41
1
10
111.514202166665
20
-0.726308502944846
30
0
41
1
10
111.484787708433
20
-0.75549901449736
30
0
41
1
10
111.462151991574
20
-0.774658965234721
30
0
41
1
10
111.429432247871
20
-0.797200566134393
30
0
41
1
10
111.418731888076
20
-0.803677215259285
30
0
41
1
10
111.397731620002
20
-0.81452153127151
30
0
41
1
10
111.38739957886
20
-0.818892682919142
30
0
41
1
10
111.357499457462
20
-0.828616538414821
30
0
41
1
10
111.338866501016
20
-0.830702384629376
30
0
41
1
10
111.312635175281
20
-0.827580940130446
30
0
41
1
10
111.304179008656
20
-0.825494545723558
30
0
41
1
10
111.287816195018
20
-0.819241678178429
30
0
41
1
10
111.279882516585
20
-0.815052258463822
30
0
41
1
10
111.257165944954
20
-0.799563082110069
30
0
41
1
10
111.243404427563
20
-0.785372868902869
30
0
41
1
10
111.224553289274
20
-0.75874599891344
30
0
41
1
10
111.218569646718
20
-0.748976576385786
30
0
41
1
10
111.207171120165
20
-0.727689122413352
30
0
41
1
10
111.201749823741
20
-0.716155332425529
30
0
41
1
10
111.186346016546
20
-0.679058778520556
30
0
41
1
10
111.177352786321
20
-0.651355466909337
30
0
41
1
10
111.161572800293
20
-0.59055835850603
30
0
41
1
10
111.154787886121
20
-0.557461395726534
30
0
41
1
10
111.146125237287
20
-0.503977553778554
30
0
41
1
10
111.143488103544
20
-0.485482411728299
30
0
41
1
10
111.138723493258
20
-0.447348873240941
30
0
41
1
10
111.136598502459
20
-0.42773862731309
30
0
41
1
10
111.134721115739
20
-0.407600375551283
30
0
0
SPLINE
5
E1
100
AcDbEntity
8
1
62
256
6
ByLayer
370
18
48
1
60
0
100
AcDbSpline
70
4
71
3
72
8
73
4
40
0
40
0
40
0
40
0
40
1
40
1
40
1
40
1
41
1
10
111.134721115739
20
-0.407600375551283
30
0
41
1
10
111.100662586852
20
-0.0422631640648206
30
0
41
1
10
111.051857438623
20
0.329726566986096
30
0
41
1
10
110.988606947795
20
0.708232905133116
30
0
0
SPLINE
5
E2
100
AcDbEntity
8
1
62
256
6
ByLayer
370
18
48
1
60
0
100
AcDbSpline
70
4
71
3
72
27
73
23
40
0
40
0
40
0
40
0
40
0.0624999999999934
40
0.0624999999999934
40
0.124999999999987
40
0.124999999999987
40
0.249999999999992
40
0.249999999999992
40
0.374999999999997
40
0.374999999999997
40
0.4375
40
0.4375
40
0.500000000000002
40
0.500000000000002
40
0.562500000000004
40
0.562500000000004
40
0.625000000000006
40
0.687500000000009
40
0.687500000000009
40
0.750000000000011
40
0.750000000000011
40
1
40
1
40
1
40
1
41
1
10
110.988606947795
20
0.708232905133087
30
0
41
1
10
110.974494051615
20
0.707309721096607
30
0
41
1
10
110.960315916179
20
0.705799884780788
30
0
41
1
10
110.931950394769
20
0.702570387426817
30
0
41
1
10
110.917746341526
20
0.700715620098947
30
0
41
1
10
110.874964807792
20
0.693357898138032
30
0
41
1
10
110.846242424912
20
0.686262621917706
30
0
41
1
10
110.788511852309
20
0.667805967789889
30
0
41
1
10
110.75951373794
20
0.65653644452928
30
0
41
1
10
110.715931142513
20
0.637046779858963
30
0
41
1
10
110.70138903528
20
0.630117790459167
30
0
41
1
10
110.672289837785
20
0.615441824749837
30
0
41
1
10
110.657733363795
20
0.607699891661156
30
0
41
1
10
110.628640711684
20
0.591704695985186
30
0
41
1
10
110.614103033339
20
0.583438558237475
30
0
41
1
10
110.585027361223
20
0.5660694098639
30
0
41
1
10
110.555952298673
20
0.547870359589496
30
0
41
1
10
110.526894019169
20
0.527965921741753
30
0
41
1
10
110.497853101726
20
0.507198999637353
30
0
41
1
10
110.483341901784
20
0.496382224802744
30
0
41
1
10
110.411075047084
20
0.440410799879999
30
0
41
1
10
110.354008592985
20
0.389606189589898
30
0
41
1
10
110.297917688352
20
0.333173950654583
30
0
0
SPLINE
5
E3
100
AcDbEntity
8
1
62
256
6
ByLayer
370
18
48
1
60
0
100
AcDbSpline
70
4
71
3
72
50
73
46
40
0
40
0
40
0
40
0
40
0.0431579135872013
40
0.0431579135872013
40
0.0932832282203877
40
0.0932832282203877
40
0.143408542853574
40
0.143408542853574
40
0.193533857486761
40
0.193533857486761
40
0.293784486753134
40
0.293784486753134
40
0.306315815411431
40
0.306315815411431
40
0.318847144069727
40
0.318847144069727
40
0.34390980138632
40
0.34390980138632
40
0.394035116019505
40
0.394035116019505
40
0.494285745285876
40
0.494285745285876
40
0.54441105991906
40
0.54441105991906
40
0.594536374552245
40
0.594536374552245
40
0.644661689185429
40
0.644661689185429
40
0.694787003818613
40
0.694787003818613
40
0.744912318451798
40
0.744912318451798
40
0.76997497576839
40
0.76997497576839
40
0.795037633084982
40
0.795037633084982
40
0.845162947718168
40
0.845162947718168
40
0.895288262351355
40
0.895288262351355
40
0.945413576984542
40
0.945413576984542
40
0.995538891617728
40
0.995538891617728
40
1
40
1
40
1
40
1
41
1
10
68.5452813327089
20
4.40589809082149
30
0
41
1
10
68.7450120400734
20
4.41040566136579
30
0
41
1
10
68.9446137787892
20
4.41128704957367
30
0
41
1
10
69.375893556645
20
4.40564299765711
30
0
41
1
10
69.6075542631345
20
4.39788305878582
30
0
41
1
10
70.071061953576
20
4.37283332783639
30
0
41
1
10
70.3028957273687
20
4.35556373050079
30
0
41
1
10
70.7666564055798
20
4.31228584055683
30
0
41
1
10
70.9986057235764
20
4.28624575093107
30
0
41
1
10
71.6960652410111
20
4.19322811208491
30
0
41
1
10
72.1631220894798
20
4.11143410581812
30
0
41
1
10
72.6914030885685
20
3.99932218327129
30
0
41
1
10
72.7501664200156
20
3.9865802372866
30
0
41
1
10
72.8675701382898
20
3.96058882690883
30
0
41
1
10
72.9262248996459
20
3.94733657220581
30
0
41
1
10
73.1020500589868
20
3.9068251505077
30
0
41
1
10
73.2190806551477
20
3.87881188103918
30
0
41
1
10
73.5696376754769
20
3.79186976101624
30
0
41
1
10
73.8026503876666
20
3.73001855985959
30
0
41
1
10
74.5008245940172
20
3.53215373782686
30
0
41
1
10
74.9650331031801
20
3.38395702515336
30
0
41
1
10
75.6601044022555
20
3.14177558834754
30
0
41
1
10
75.8915825321298
20
3.05771570977998
30
0
41
1
10
76.3541800825434
20
2.88325161489902
30
0
41
1
10
76.5853415110583
20
2.79285371479244
30
0
41
1
10
77.0486055372604
20
2.6058619450852
30
0
41
1
10
77.2806646598469
20
2.5092772834833
30
0
41
1
10
77.7455012168541
20
2.31066776888545
30
0
41
1
10
77.9782848945303
20
2.20863563262211
30
0
41
1
10
78.4446221908723
20
1.99955573619002
30
0
41
1
10
78.6781592147319
20
1.89249328437393
30
0
41
1
10
79.0288986531544
20
1.72828537239721
30
0
41
1
10
79.1459123302626
20
1.67295988592755
30
0
41
1
10
79.3804520041099
20
1.5612662433104
30
0
41
1
10
79.4976131811196
20
1.50505649444003
30
0
41
1
10
79.8485511612246
20
1.33556034945127
30
0
41
1
10
80.0818971588097
20
1.22134838922733
30
0
41
1
10
80.5475824299494
20
0.990931160956393
30
0
41
1
10
80.7799321143074
20
0.87474681945136
30
0
41
1
10
81.2440628160555
20
0.6412622615386
30
0
41
1
10
81.475829240028
20
0.523932742889031
30
0
41
1
10
81.9388508292974
20
0.288270809536101
30
0
41
1
10
82.1701193943086
20
0.169965301193372
30
0
41
1
10
82.4219178951434
20
0.0410367431465772
30
0
41
1
10
82.4424957220163
20
0.0304989465176391
30
0
41
1
10
82.4630729784177
20
0.0199600911643358
30
0
0
SPLINE
5
E4
100
AcDbEntity
8
1
62
256
6
ByLayer
370
18
48
1
60
0
100
AcDbSpline
70
4
71
3
72
49
73
45
40
0
40
0
40
0
40
0
40
0.0414049171991031
40
0.0414049171991031
40
0.0908731352814527
40
0.0908731352814527
40
0.140341353363803
40
0.140341353363803
40
0.189809571446152
40
0.189809571446152
40
0.239277789528502
40
0.239277789528502
40
0.264011898569677
40
0.264011898569677
40
0.288746007610852
40
0.288746007610852
40
0.338214225693204
40
0.338214225693204
40
0.387682443775556
40
0.387682443775556
40
0.437150661857908
40
0.437150661857908
40
0.48661887994026
40
0.48661887994026
40
0.536087098022612
40
0.536087098022612
40
0.635023534187316
40
0.635023534187316
40
0.684491752269667
40
0.684491752269667
40
0.709225861310844
40
0.721592915831431
40
0.721592915831431
40
0.733959970352018
40
0.733959970352018
40
0.832896406516704
40
0.832896406516704
40
0.882364624599047
40
0.882364624599047
40
0.931832842681389
40
0.931832842681389
40
0.981301060763732
40
0.981301060763732
40
1
40
1
40
1
40
1
41
1
10
82.9779542883961
20
-0.254672673745858
30
0
41
1
10
82.7844829296068
20
-0.155588028443219
30
0
41
1
10
82.5909517698081
20
-0.0566104857240362
30
0
41
1
10
82.1660967511793
20
0.160441876358476
30
0
41
1
10
81.9347721622298
20
0.278521422613267
30
0
41
1
10
81.4716386855772
20
0.513747524520738
30
0
41
1
10
81.2398177841564
20
0.630869806238763
30
0
41
1
10
80.7755825653597
20
0.863965367832918
30
0
41
1
10
80.543181598025
20
0.979965614277887
30
0
41
1
10
80.077395502085
20
1.21003244544113
30
0
41
1
10
79.8440010875185
20
1.32408022796605
30
0
41
1
10
79.4929942728569
20
1.49334856086784
30
0
41
1
10
79.3758105951289
20
1.54948550365805
30
0
41
1
10
79.1412286223432
20
1.66104084586078
30
0
41
1
10
79.0241923262479
20
1.71629979263517
30
0
41
1
10
78.6733766293576
20
1.88030417915195
30
0
41
1
10
78.4397868143349
20
1.98724233750019
30
0
41
1
10
77.9733474857868
20
2.19611087233304
30
0
41
1
10
77.7405129911241
20
2.29805318431431
30
0
41
1
10
77.2755739698658
20
2.4965119010694
30
0
41
1
10
77.0434642914904
20
2.5930372075974
30
0
41
1
10
76.5800991297314
20
2.77994136227386
30
0
41
1
10
76.3488816426327
20
2.87030364742356
30
0
41
1
10
75.886164116033
20
3.04471045494026
30
0
41
1
10
75.6546267146402
20
3.12875438509323
30
0
41
1
10
74.9593838427196
20
3.37092924133933
30
0
41
1
10
74.4950693024644
20
3.51917564222393
30
0
41
1
10
73.7967438095536
20
3.71719077168953
30
0
41
1
10
73.5636780358016
20
3.77910197765803
30
0
41
1
10
73.2130397614251
20
3.86614906908375
30
0
41
1
10
73.0374540517585
20
3.90822592718433
30
0
41
1
10
72.861452104185
20
3.9480472242652
30
0
41
1
10
72.7440238827914
20
3.97408297975363
30
0
41
1
10
72.6852496030634
20
3.98684763890609
30
0
41
1
10
72.1568812499916
20
4.09916868600382
30
0
41
1
10
71.6897885131358
20
4.18118888885999
30
0
41
1
10
70.9923422089478
20
4.2746114316954
30
0
41
1
10
70.7604049499004
20
4.30079804766541
30
0
41
1
10
70.2966848984384
20
4.34439426853339
30
0
41
1
10
70.0648837076646
20
4.36183464136349
30
0
41
1
10
69.6014688132572
20
4.38725013240511
30
0
41
1
10
69.3698664607555
20
4.39520576522253
30
0
41
1
10
69.0506174039357
20
4.3996737213937
30
0
41
1
10
68.9630328601011
20
4.40022806065403
30
0
41
1
10
68.8754319539961
20
4.40009992278172
30
0
0
SPLINE
5
E5
100
AcDbEntity
8
1
62
256
6
ByLayer
370
13
48
1
60
0
100
AcDbSpline
70
4
71
3
72
39
73
35
40
0
40
0
40
0
40
0
40
0.0148069929409226
40
0.0148069929409226
40
0.0586791427642901
40
0.0586791427642901
40
0.146423442411025
40
0.23416774205776
40
0.23416774205776
40
0.278039891881127
40
0.299975966792812
40
0.299975966792812
40
0.321912041704496
40
0.321912041704496
40
0.409656341351232
40
0.409656341351232
40
0.453528491174599
40
0.453528491174599
40
0.497400640997967
40
0.497400640997967
40
0.585144940644703
40
0.585144940644703
40
0.629017090468071
40
0.629017090468071
40
0.672889240291439
40
0.672889240291439
40
0.760633539938175
40
0.760633539938175
40
0.804505689761543
40
0.804505689761543
40
0.848377839584911
40
0.848377839584911
40
0.936122139231646
40
1
40
1
40
1
40
1
41
1
10
65.6000538243409
20
4.39317199516171
30
0
41
1
10
65.6000525712086
20
4.39316843840007
30
0
41
1
10
65.6000513150918
20
4.39300679727199
30
0
41
1
10
65.6000463260846
20
4.39173856355592
30
0
41
1
10
65.6000425685244
20
4.38939268397115
30
0
41
1
10
65.6000313045852
20
4.37823326374044
30
0
41
1
10
65.6000162671299
20
4.3523860975572
30
0
41
1
10
65.6000012688891
20
4.30498870879831
30
0
41
1
10
65.5999900391612
20
4.26131996318421
30
0
41
1
10
65.5999844286704
20
4.23745264575882
30
0
41
1
10
65.599978822096
20
4.21050241894224
30
0
41
1
10
65.5999750847079
20
4.19184489341825
30
0
41
1
10
65.5999732153717
20
4.18216595783332
30
0
41
1
10
65.5999638971256
20
4.13219064332623
30
0
41
1
10
65.5999565131587
20
4.08705955783844
30
0
41
1
10
65.5999454973492
20
4.01169187698963
30
0
41
1
10
65.5999418352161
20
3.98528898581785
30
0
41
1
10
65.5999345201705
20
3.92990985579982
30
0
41
1
10
65.5999308634785
20
3.90090031372111
30
0
41
1
10
65.5999199365685
20
3.81037876873151
30
0
41
1
10
65.5999126992974
20
3.74530858622239
30
0
41
1
10
65.5999018248907
20
3.6406556979006
30
0
41
1
10
65.5998981968195
20
3.60459513249111
30
0
41
1
10
65.5998909167826
20
3.53010736798552
30
0
41
1
10
65.5998872640839
20
3.49166934651544
30
0
41
1
10
65.5998762948325
20
3.37335775772905
30
0
41
1
10
65.5998689502286
20
3.2903171370051
30
0
41
1
10
65.5998577632719
20
3.1595259280077
30
0
41
1
10
65.5998540057944
20
3.11488901034332
30
0
41
1
10
65.5998464113702
20
3.02352085522878
30
0
41
1
10
65.5998425802007
20
2.97685819687123
30
0
41
1
10
65.5998309930675
20
2.83446223861796
30
0
41
1
10
65.599817401377
20
2.66454257735492
30
0
41
1
10
65.5998031133018
20
2.48453070393108
30
0
41
1
10
65.5997969314544
20
2.40688006123017
30
0
0
SPLINE
5
E6
100
AcDbEntity
8
1
62
256
6
ByLayer
370
13
48
1
60
0
100
AcDbSpline
70
4
71
3
72
16
73
12
40
0
40
0
40
0
40
0
40
0.215990870147313
40
0.215990870147313
40
0.384143093598449
40
0.384143093598449
40
0.552295317049585
40
0.552295317049585
40
0.888599763951856
40
0.888599763951856
40
1
40
1
40
1
40
1
41
1
10
65.6001156188136
20
-4.24741720178639
30
0
41
1
10
65.60011165889
20
-4.26822423013988
30
0
41
1
10
65.600107559577
20
-4.28683832488872
30
0
41
1
10
65.6001000555598
20
-4.31603705809042
30
0
41
1
10
65.6000966978627
20
-4.32748516326916
30
0
41
1
10
65.6000898519222
20
-4.34768891384084
30
0
41
1
10
65.6000863584598
20
-4.35645336702063
30
0
41
1
10
65.6000757561078
20
-4.37854535886487
30
0
41
1
10
65.6000685201716
20
-4.38771803326455
30
0
41
1
10
65.600058732476
20
-4.3925768410933
30
0
41
1
10
65.6000562841604
20
-4.39317897613495
30
0
41
1
10
65.6000538243452
20
-4.39317199517407
30
0
0
SPLINE
5
E7
100
AcDbEntity
8
1
62
256
6
ByLayer
370
18
48
1
60
0
100
AcDbSpline
70
4
71
3
72
51
73
47
40
0
40
0
40
0
40
0
40
0.0625000000000008
40
0.0625000000000008
40
0.0937500000000012
40
0.109375000000001
40
0.109375000000001
40
0.125000000000001
40
0.125000000000001
40
0.1875
40
0.1875
40
0.249999999999999
40
0.312499999999998
40
0.312499999999998
40
0.343749999999997
40
0.343749999999997
40
0.359374999999997
40
0.359374999999997
40
0.374999999999997
40
0.437499999999996
40
0.437499999999996
40
0.468749999999995
40
0.468749999999995
40
0.499999999999995
40
0.499999999999995
40
0.562499999999994
40
0.562499999999994
40
0.593749999999994
40
0.593749999999994
40
0.624999999999993
40
0.624999999999993
40
0.687499999999992
40
0.687499999999992
40
0.718749999999992
40
0.718749999999992
40
0.749999999999992
40
0.749999999999992
40
0.812499999999992
40
0.812499999999992
40
0.828124999999992
40
0.828124999999992
40
0.843749999999992
40
0.874999999999994
40
0.874999999999994
40
0.937499999999997
40
1
40
1
40
1
40
1
41
1
10
110.273664871552
20
-0.306167848221776
30
0
41
1
10
110.258004031732
20
-0.435933123186629
30
0
41
1
10
110.24429814955
20
-0.565049391222971
30
0
41
1
10
110.22620205726
20
-0.757706596642663
30
0
41
1
10
110.217770894356
20
-0.853780610037518
30
0
41
1
10
110.210187013427
20
-0.949461783380343
30
0
41
1
10
110.205311340754
20
-1.01316051195337
30
0
41
1
10
110.20296363401
20
-1.0449678617951
30
0
41
1
10
110.191696702193
20
-1.20317873968625
30
0
41
1
10
110.184148196978
20
-1.32759481132089
30
0
41
1
10
110.171375721951
20
-1.57220962103622
30
0
41
1
10
110.160929085907
20
-1.8126065790818
30
0
41
1
10
110.154194451655
20
-2.04456167530938
30
0
41
1
10
110.150269865425
20
-2.21529148483538
30
0
41
1
10
110.14915027121
20
-2.27166128103761
30
0
41
1
10
110.147728349116
20
-2.35538997356988
30
0
41
1
10
110.147297050533
20
-2.38318518894172
30
0
41
1
10
110.146519145582
20
-2.4383195107294
30
0
41
1
10
110.144786000423
20
-2.57507759831708
30
0
41
1
10
110.144040788387
20
-2.70648504678348
30
0
41
1
10
110.143947644693
20
-2.85904494265839
30
0
41
1
10
110.144051184183
20
-2.90904218666859
30
0
41
1
10
110.144515644911
20
-3.00731098127355
30
0
41
1
10
110.144875861475
20
-3.05542467667448
30
0
41
1
10
110.146326909573
20
-3.19663403669131
30
0
41
1
10
110.147784054679
20
-3.28664546479533
30
0
41
1
10
110.150729855123
20
-3.41546392778136
30
0
41
1
10
110.151840938526
20
-3.45741278242869
30
0
41
1
10
110.154328938897
20
-3.53900093693332
30
0
41
1
10
110.155704409811
20
-3.57860593349264
30
0
41
1
10
110.160255248827
20
-3.69387759891114
30
0
41
1
10
110.163850782076
20
-3.76600769750902
30
0
41
1
10
110.170281711411
20
-3.86709910431159
30
0
41
1
10
110.172602126069
20
-3.89963910993635
30
0
41
1
10
110.177612782277
20
-3.96204919527619
30
0
41
1
10
110.180304495615
20
-3.99195023076788
30
0
41
1
10
110.189006681419
20
-4.07776277326667
30
0
41
1
10
110.195640082423
20
-4.12979101590861
30
0
41
1
10
110.205256851941
20
-4.18831237673763
30
0
41
1
10
110.207248184984
20
-4.19969716162103
30
0
41
1
10
110.211360234165
20
-4.22174835848224
30
0
41
1
10
110.217725272862
20
-4.25376727503993
30
0
41
1
10
110.224711732628
20
-4.28263835394458
30
0
41
1
10
110.239602496051
20
-4.33622987338134
30
0
41
1
10
110.261898851897
20
-4.39663127400587
30
0
41
1
10
110.290171233968
20
-4.43505834380224
30
0
41
1
10
110.306129925793
20
-4.44869422144583
30
0
0
SPLINE
5
E8
100
AcDbEntity
8
1
62
256
6
ByLayer
370
18
48
1
60
0
100
AcDbSpline
70
4
71
3
72
16
73
12
40
0
40
0
40
0
40
0
40
0.2499999999998
40
0.2499999999998
40
0.374999999999838
40
0.374999999999838
40
0.499999999999876
40
0.499999999999876
40
0.749999999999938
40
0.749999999999938
40
1
40
1
40
1
40
1
41
1
10
65.5528737241732
20
2.42338328637138
30
0
41
1
10
65.5448033496338
20
2.42698616992354
30
0
41
1
10
65.5374899159745
20
2.43142348843017
30
0
41
1
10
65.5276247281319
20
2.43928941861861
30
0
41
1
10
65.524509715935
20
2.44213469911662
30
0
41
1
10
65.5188383293073
20
2.44807616003948
30
0
41
1
10
65.5162592007331
20
2.4511867052837
30
0
41
1
10
65.5092817240734
20
2.46093042077141
30
0
41
1
10
65.5056267145417
20
2.46806176854588
30
0
41
1
10
65.5007976641601
20
2.482631806509
30
0
41
1
10
65.4995453192983
20
2.49021581910273
30
0
41
1
10
65.4995453192983
20
2.4978568576123
30
0
0
SPLINE
5
E9
100
AcDbEntity
8
1
62
256
6
ByLayer
370
18
48
1
60
0
100
AcDbSpline
70
4
71
3
72
116
73
112
40
0
40
0
40
0
40
0
40
0.0117527184595895
40
0.0117527184595895
40
0.0236002176070079
40
0.0236002176070079
40
0.0354477167544264
40
0.0354477167544264
40
0.0591427150492633
40
0.0591427150492633
40
0.0828377133441002
40
0.0828377133441002
40
0.106532711638937
40
0.106532711638937
40
0.130227709933774
40
0.130227709933774
40
0.142075209081192
40
0.142075209081192
40
0.15392270822861
40
0.15392270822861
40
0.201312704818283
40
0.201312704818283
40
0.225007703113119
40
0.225007703113119
40
0.236855202260536
40
0.236855202260536
40
0.248702701407954
40
0.248702701407954
40
0.272397699702789
40
0.272397699702789
40
0.296092697997625
40
0.296092697997625
40
0.31978769629246
40
0.31978769629246
40
0.343482694587295
40
0.343482694587295
40
0.355330193734714
40
0.355330193734714
40
0.367177692882132
40
0.367177692882132
40
0.390872691176969
40
0.390872691176969
40
0.414567689471807
40
0.414567689471807
40
0.426415188619225
40
0.426415188619225
40
0.438262687766643
40
0.438262687766643
40
0.450110186914061
40
0.450110186914061
40
0.46195768606148
40
0.46195768606148
40
0.485652684356316
40
0.485652684356316
40
0.509347682651152
40
0.509347682651152
40
0.533042680945989
40
0.533042680945989
40
0.544890180093408
40
0.544890180093408
40
0.556737679240826
40
0.556737679240826
40
0.568585178388245
40
0.568585178388245
40
0.580432677535664
40
0.580432677535664
40
0.627822674125339
40
0.627822674125339
40
0.639670173272758
40
0.639670173272758
40
0.651517672420176
40
0.651517672420176
40
0.663365171567595
40
0.663365171567595
40
0.675212670715014
40
0.675212670715014
40
0.698907669009849
40
0.698907669009849
40
0.722602667304684
40
0.722602667304684
40
0.734450166452102
40
0.734450166452102
40
0.746297665599519
40
0.746297665599519
40
0.758145164746937
40
0.758145164746937
40
0.769992663894354
40
0.769992663894354
40
0.793687662189187
40
0.793687662189187
40
0.817382660484021
40
0.817382660484021
40
0.841077658778854
40
0.841077658778854
40
0.864772657073687
40
0.864772657073687
40
0.876620156221103
40
0.876620156221103
40
0.88846765536852
40
0.88846765536852
40
0.912162653663353
40
0.912162653663353
40
0.935857651958186
40
0.935857651958186
40
0.959552650253019
40
0.959552650253019
40
0.971400149400435
40
0.971400149400435
40
0.983247648547852
40
0.983247648547852
40
1
40
1
40
1
40
1
41
1
10
66.6961838410793
20
4.42452824381562
30
0
41
1
10
66.811630569882
20
4.44004349116929
30
0
41
1
10
66.9271055159469
20
4.45437359483435
30
0
41
1
10
67.1590609228788
20
4.48077496291404
30
0
41
1
10
67.2755394541644
20
4.49282439700494
30
0
41
1
10
67.5085584902079
20
4.51450988343271
30
0
41
1
10
67.6251440690873
20
4.52414913800709
30
0
41
1
10
67.9744735906449
20
4.54937740936131
30
0
41
1
10
68.2069224704948
20
4.56126960715307
30
0
41
1
10
68.6716692885938
20
4.5751278676953
30
0
41
1
10
68.9039393228886
20
4.57711098762238
30
0
41
1
10
69.3684397701105
20
4.57122217379685
30
0
41
1
10
69.6006797154822
20
4.56334521520472
30
0
41
1
10
70.0655224901307
20
4.53776048123379
30
0
41
1
10
70.2981072550151
20
4.52005921298019
30
0
41
1
10
70.6472247977006
20
4.48603739591491
30
0
41
1
10
70.7636811598623
20
4.47344562173205
30
0
41
1
10
70.9963377774864
20
4.44586052722252
30
0
41
1
10
71.112590982305
20
4.43086323494694
30
0
41
1
10
71.6937515666831
20
4.35002516139565
30
0
41
1
10
72.1582406018718
20
4.26665692531594
30
0
41
1
10
72.8551574307758
20
4.11437327596479
30
0
41
1
10
73.087496355418
20
4.05906556276182
30
0
41
1
10
73.4360995829952
20
3.96921109915692
30
0
41
1
10
73.5523233652474
20
3.93811440636867
30
0
41
1
10
73.7849626018099
20
3.8737572214184
30
0
41
1
10
73.9013630116645
20
3.84050052903774
30
0
41
1
10
74.2503161966149
20
3.73791233059214
30
0
41
1
10
74.482835934427
20
3.66568012565781
30
0
41
1
10
74.9476216550084
20
3.51362199555299
30
0
41
1
10
75.1798867201406
20
3.43379281769376
30
0
41
1
10
75.644242390171
20
3.26661275545467
30
0
41
1
10
75.8763326593693
20
3.17926034971944
30
0
41
1
10
76.3404853246269
20
2.99710384568516
30
0
41
1
10
76.5725988038818
20
2.90235077055294
30
0
41
1
10
76.9217540731184
20
2.75607327435208
30
0
41
1
10
77.0381924966089
20
2.70664879846601
30
0
41
1
10
77.2709084891456
20
2.6065495863306
30
0
41
1
10
77.3872235578143
20
2.55585877150739
30
0
41
1
10
77.7360211999479
20
2.40184372858891
30
0
41
1
10
77.9683585182795
20
2.29658173986317
30
0
41
1
10
78.4327525245637
20
2.08106161058063
30
0
41
1
10
78.6647952630983
20
1.97078147747268
30
0
41
1
10
79.0126313730968
20
1.80152374948764
30
0
41
1
10
79.1285595742985
20
1.74449892889629
30
0
41
1
10
79.3606375759684
20
1.62968657589818
30
0
41
1
10
79.4767729463506
20
1.57187498987767
30
0
41
1
10
79.709231072916
20
1.45543510433143
30
0
41
1
10
79.825567416207
20
1.39680109649859
30
0
41
1
10
80.0583844112586
20
1.27876133087568
30
0
41
1
10
80.1747096968361
20
1.21943372006183
30
0
41
1
10
80.5234614870699
20
1.04057683438211
30
0
41
1
10
80.7556757547912
20
0.920194743131276
30
0
41
1
10
81.2200044303946
20
0.678032234301412
30
0
41
1
10
81.4521000457988
20
0.55621804673595
30
0
41
1
10
81.9161966573201
20
0.311202150496967
30
0
41
1
10
82.1482154991291
20
0.188032793192946
30
0
41
1
10
82.4965509528033
20
0.0029458231262822
30
0
41
1
10
82.6127097764999
20
-0.0588131170308657
30
0
41
1
10
82.845114207101
20
-0.182473476969761
30
0
41
1
10
82.9614111050445
20
-0.24440556652786
30
0
41
1
10
83.1938419312023
20
-0.368260996241958
30
0
41
1
10
83.3099377198556
20
-0.430124099833222
30
0
41
1
10
83.5421760638016
20
-0.553182234020255
30
0
41
1
10
83.6583028433701
20
-0.614408144717657
30
0
41
1
10
84.238845573724
20
-0.919282868575294
30
0
41
1
10
84.7030180511344
20
-1.15912985001089
30
0
41
1
10
85.2832248982326
20
-1.45327275730355
30
0
41
1
10
85.3992648041152
20
-1.51181858404507
30
0
41
1
10
85.6313337070716
20
-1.62835228040325
30
0
41
1
10
85.7473698150139
20
-1.68632695650757
30
0
41
1
10
85.9795974572471
20
-1.80141609519111
30
0
41
1
10
86.0958492734243
20
-1.85855500734235
30
0
41
1
10
86.3282671868074
20
-1.97147557894274
30
0
41
1
10
86.4444494679921
20
-2.02728171676358
30
0
41
1
10
86.7929241846261
20
-2.19275006229213
30
0
41
1
10
87.0251389815977
20
-2.30047560208465
30
0
41
1
10
87.4893223009916
20
-2.51087387861517
30
0
41
1
10
87.7212899147989
20
-2.61354642320472
30
0
41
1
10
88.0691092250973
20
-2.76364103837159
30
0
41
1
10
88.1850268785603
20
-2.81301974356967
30
0
41
1
10
88.4168248212143
20
-2.91044598298805
30
0
41
1
10
88.5327130842697
20
-2.95848044006806
30
0
41
1
10
88.7646501970737
20
-3.05291768793759
30
0
41
1
10
88.8806984716764
20
-3.0993216069991
30
0
41
1
10
89.1130921883058
20
-3.19030991032216
30
0
41
1
10
89.2294543438433
20
-3.23491171923067
30
0
41
1
10
89.5782370061652
20
-3.36577791219281
30
0
41
1
10
89.8105828979443
20
-3.44920583518086
30
0
41
1
10
90.2748888587706
20
-3.60855525403321
30
0
41
1
10
90.5068471271736
20
-3.68447648965991
30
0
41
1
10
90.9704523050483
20
-3.82865601127051
30
0
41
1
10
91.2021257440328
20
-3.89687267008745
30
0
41
1
10
91.6659127365998
20
-4.02477901602643
30
0
41
1
10
91.8980036230134
20
-4.0845019555523
30
0
41
1
10
92.2465536414394
20
-4.16757693023871
30
0
41
1
10
92.3627578727285
20
-4.19416418573311
30
0
41
1
10
92.5949387250637
20
-4.24497518666018
30
0
41
1
10
92.7109684801426
20
-4.26921151276829
30
0
41
1
10
93.059001782869
20
-4.33834880569691
30
0
41
1
10
93.2909342592747
20
-4.37969414960278
30
0
41
1
10
93.7548016361216
20
-4.4528883986489
30
0
41
1
10
93.9867306324474
20
-4.48474349232777
30
0
41
1
10
94.4506350326438
20
-4.53891501457886
30
0
41
1
10
94.6826102037386
20
-4.56122954364122
30
0
41
1
10
95.0307196823266
20
-4.5873797270477
30
0
41
1
10
95.1467770712348
20
-4.59487640221258
30
0
41
1
10
95.3789452270249
20
-4.60739100613165
30
0
41
1
10
95.4948949317212
20
-4.61239090758869
30
0
41
1
10
95.7748597100693
20
-4.6213969979398
30
0
41
1
10
95.9388615522483
20
-4.62415197227708
30
0
41
1
10
96.1028560223469
20
-4.62442750295938
30
0
0
SPLINE
5
EA
100
AcDbEntity
8
1
62
256
6
ByLayer
370
18
48
1
60
0
100
AcDbSpline
70
4
71
3
72
122
73
118
40
0
40
0
40
0
40
0
40
0.0158152559906084
40
0.0158152559906084
40
0.0391415911046749
40
0.0391415911046749
40
0.0624679262187413
40
0.0624679262187413
40
0.0857942613328077
40
0.0857942613328077
40
0.097457428889841
40
0.097457428889841
40
0.109120596446874
40
0.109120596446874
40
0.120783764003907
40
0.120783764003907
40
0.132446931560941
40
0.132446931560941
40
0.155773266675007
40
0.155773266675007
40
0.161604850453523
40
0.161604850453523
40
0.167436434232039
40
0.167436434232039
40
0.179099601789073
40
0.179099601789073
40
0.225752272017208
40
0.225752272017208
40
0.272404942245343
40
0.272404942245343
40
0.295731277359409
40
0.295731277359409
40
0.319057612473476
40
0.319057612473476
40
0.342383947587542
40
0.342383947587542
40
0.348215531366059
40
0.348215531366059
40
0.354047115144576
40
0.354047115144576
40
0.36571028270161
40
0.36571028270161
40
0.389036617815677
40
0.389036617815677
40
0.40069978537271
40
0.40069978537271
40
0.412362952929743
40
0.412362952929743
40
0.424026120486777
40
0.424026120486777
40
0.43568928804381
40
0.43568928804381
40
0.459015623157874
40
0.459015623157874
40
0.505668293386002
40
0.505668293386002
40
0.528994628500066
40
0.528994628500066
40
0.534826212278583
40
0.534826212278583
40
0.5406577960571
40
0.5406577960571
40
0.552320963614134
40
0.552320963614134
40
0.575647298728202
40
0.575647298728202
40
0.587310466285235
40
0.587310466285235
40
0.598973633842268
40
0.598973633842268
40
0.610636801399301
40
0.610636801399301
40
0.622299968956335
40
0.622299968956335
40
0.645626304070401
40
0.645626304070401
40
0.657289471627434
40
0.657289471627434
40
0.668952639184466
40
0.668952639184466
40
0.692278974298532
40
0.692278974298532
40
0.715605309412597
40
0.715605309412597
40
0.721436893191113
40
0.727268476969629
40
0.727268476969629
40
0.73893164452666
40
0.762257979640721
40
0.762257979640721
40
0.785584314754783
40
0.785584314754783
40
0.808910649868844
40
0.808910649868844
40
0.832236984982906
40
0.832236984982906
40
0.843900152539936
40
0.843900152539936
40
0.855563320096967
40
0.855563320096967
40
0.878889655211027
40
0.878889655211027
40
0.890552822768058
40
0.890552822768058
40
0.902215990325088
40
0.902215990325088
40
0.908047574103603
40
0.908047574103603
40
0.913879157882118
40
0.913879157882118
40
0.925542325439148
40
0.925542325439148
40
0.972194995667267
40
0.972194995667267
40
0.995521330781327
40
0.995521330781327
40
1
40
1
40
1
40
1
41
1
10
103.790193778521
20
-3.40827059957675
30
0
41
1
10
103.612743742236
20
-3.47270104743632
30
0
41
1
10
103.435628265648
20
-3.53483719753456
30
0
41
1
10
102.99790757616
20
-3.6827536700653
30
0
41
1
10
102.737579754202
20
-3.76572623418255
30
0
41
1
10
102.217597800101
20
-3.92100690180553
30
0
41
1
10
101.95795017188
20
-3.99331975281564
30
0
41
1
10
101.438876657743
20
-4.12687639454148
30
0
41
1
10
101.179460088031
20
-4.18812253307919
30
0
41
1
10
100.789985656809
20
-4.27127387068737
30
0
41
1
10
100.660105208517
20
-4.29754209719911
30
0
41
1
10
100.400209190023
20
-4.3471642327961
30
0
41
1
10
100.270187564664
20
-4.37051602885387
30
0
41
1
10
100.010130201356
20
-4.41436111982861
30
0
41
1
10
99.880052252089
20
-4.43482439926558
30
0
41
1
10
99.6196097203606
20
-4.47270652166529
30
0
41
1
10
99.4892598070538
20
-4.49013459456742
30
0
41
1
10
99.0977044510056
20
-4.53780366153987
30
0
41
1
10
98.835974379174
20
-4.56342229834721
30
0
41
1
10
98.5076635585374
20
-4.58757286502555
30
0
41
1
10
98.4419454145115
20
-4.5920097765048
30
0
41
1
10
98.3103954474628
20
-4.60009350805095
30
0
41
1
10
98.2445292696314
20
-4.60374234045008
30
0
41
1
10
98.0472112226595
20
-4.61348458697643
30
0
41
1
10
97.9159713564673
20
-4.61837843644682
30
0
41
1
10
97.2606599237221
20
-4.63478946014359
30
0
41
1
10
96.7394491018378
20
-4.62220700339461
30
0
41
1
10
95.6994594033399
20
-4.54738628780086
30
0
41
1
10
95.1807423817075
20
-4.48510790786221
30
0
41
1
10
94.4016076123665
20
-4.35586998348595
30
0
41
1
10
94.141731705932
20
-4.30682068657748
30
0
41
1
10
93.6212590273721
20
-4.1969724897111
30
0
41
1
10
93.3606648030027
20
-4.13616740191063
30
0
41
1
10
92.8382108549248
20
-4.00311474807143
30
0
41
1
10
92.5762978139516
20
-3.93091918210911
30
0
41
1
10
92.2477615552309
20
-3.83379185784114
30
0
41
1
10
92.1819973381486
20
-3.8140220919762
30
0
41
1
10
92.0503672958345
20
-3.77377547993643
30
0
41
1
10
91.9844825784478
20
-3.75328789957626
30
0
41
1
10
91.7871642294125
20
-3.69086531259128
30
0
41
1
10
91.6558948369841
20
-3.64796515488121
30
0
41
1
10
91.2626064224188
20
-3.51580959992131
30
0
41
1
10
91.0011682775171
20
-3.4230251296452
30
0
41
1
10
90.6096682222319
20
-3.27756353005023
30
0
41
1
10
90.4792752034241
20
-3.228033192222
30
0
41
1
10
90.218674200276
20
-3.12694288776726
30
0
41
1
10
90.0884521146839
20
-3.07540378432623
30
0
41
1
10
89.8282629315005
20
-2.97020159977805
30
0
41
1
10
89.6983297050221
20
-2.91648626882679
30
0
41
1
10
89.4385242084138
20
-2.80721044348721
30
0
41
1
10
89.3086656519655
20
-2.75163091313738
30
0
41
1
10
88.9191254470996
20
-2.58222307775682
30
0
41
1
10
88.6594734463237
20
-2.46573515292741
30
0
41
1
10
87.8800049355197
20
-2.10666080636156
30
0
41
1
10
87.3597288967032
20
-1.85436960520673
30
0
41
1
10
86.5755488058377
20
-1.46115684334376
30
0
41
1
10
86.3134982395696
20
-1.32767990224747
30
0
41
1
10
85.9848564492363
20
-1.15824497617368
30
0
41
1
10
85.9190746936041
20
-1.12422745433418
30
0
41
1
10
85.78739695708
20
-1.05594347591696
30
0
41
1
10
85.7214914683935
20
-1.02167194324099
30
0
41
1
10
85.5240625146656
20
-0.918747877212752
30
0
41
1
10
85.3926726045996
20
-0.849904465265922
30
0
41
1
10
84.9990939565701
20
-0.642879010610557
30
0
41
1
10
84.7375117786134
20
-0.504172091230942
30
0
41
1
10
84.3457996251334
20
-0.296124537276796
30
0
41
1
10
84.2153387201606
20
-0.226777882133604
30
0
41
1
10
83.9546131016407
20
-0.0881317429644923
30
0
41
1
10
83.8243347987227
20
-0.0188583512216383
30
0
41
1
10
83.5641015272696
20
0.119887974397898
30
0
41
1
10
83.4341192064482
20
0.189307267851717
30
0
41
1
10
83.1742001639779
20
0.327808265084855
30
0
41
1
10
83.0442811377556
20
0.396924262586992
30
0
41
1
10
82.6545264477383
20
0.603642950963831
30
0
41
1
10
82.3946750351793
20
0.740581811632353
30
0
41
1
10
82.0045320340921
20
0.944036251720092
30
0
41
1
10
81.8744178528977
20
1.01151859923823
30
0
41
1
10
81.6141374693867
20
1.14596261792582
30
0
41
1
10
81.4840169503184
20
1.21300928878074
30
0
41
1
10
81.0933298480148
20
1.4128981029566
30
0
41
1
10
80.8324633594609
20
1.54453820080551
30
0
41
1
10
80.3094130956632
20
1.80363838663217
30
0
41
1
10
80.0472351146642
20
1.93110948701792
30
0
41
1
10
79.718430654913
20
2.08734694419829
30
0
41
1
10
79.5868003321666
20
2.14953114490388
30
0
41
1
10
79.4549371901273
20
2.21106482058286
30
0
41
1
10
79.257427496484
20
2.30263909408018
30
0
41
1
10
78.8630793675248
20
2.4831064423712
30
0
41
1
10
78.4704705424467
20
2.65515599870318
30
0
41
1
10
77.9479900441807
20
2.87634130585684
30
0
41
1
10
77.6872668266755
20
2.98285880238777
30
0
41
1
10
77.1664691463006
20
3.18725954311921
30
0
41
1
10
76.9063963200316
20
3.28514172674747
30
0
41
1
10
76.3863699174272
20
3.47158037281048
30
0
41
1
10
76.1263639851794
20
3.56006990651576
30
0
41
1
10
75.7360141426263
20
3.68530991389537
30
0
41
1
10
75.605834101127
20
3.72580229178513
30
0
41
1
10
75.345502725123
20
3.8044387872404
30
0
41
1
10
75.215337192847
20
3.84256273855419
30
0
41
1
10
74.8244714686943
20
3.95292940848367
30
0
41
1
10
74.5634762305012
20
4.02124843133996
30
0
41
1
10
74.170890649678
20
4.11534665352002
30
0
41
1
10
74.0398432445516
20
4.14531421820976
30
0
41
1
10
73.7773456926534
20
4.20241591353877
30
0
41
1
10
73.6458844218352
20
4.22954209270824
30
0
41
1
10
73.4484272242642
20
4.26811809278144
30
0
41
1
10
73.3825726615341
20
4.28063070129394
30
0
41
1
10
73.2507764294579
20
4.30494501424948
30
0
41
1
10
73.1848299334498
20
4.31674295286172
30
0
41
1
10
72.9872657777227
20
4.35093939292929
30
0
41
1
10
72.8557766257109
20
4.37217782073614
30
0
41
1
10
72.1992627222105
20
4.47055853234457
30
0
41
1
10
71.6769953326966
20
4.52426092043928
30
0
41
1
10
70.8954274881402
20
4.56739921343899
30
0
41
1
10
70.6352100041769
20
4.57553849739494
30
0
41
1
10
70.3251018206566
20
4.5778055500995
30
0
41
1
10
70.2751527522196
20
4.57794085290729
30
0
41
1
10
70.2252036639045
20
4.57784641545291
30
0
0
SPLINE
5
EB
100
AcDbEntity
8
1
62
256
6
ByLayer
370
18
48
1
60
0
100
AcDbSpline
70
4
71
3
72
131
73
127
40
0
40
0
40
0
40
0
40
0.0060737265748775
40
0.0060737265748775
40
0.0178445254967617
40
0.0178445254967617
40
0.0296153244186463
40
0.0296153244186463
40
0.0355007238795879
40
0.0355007238795879
40
0.0413861233405295
40
0.0413861233405295
40
0.0531569222624141
40
0.0531569222624141
40
0.100240117949953
40
0.100240117949953
40
0.123781715793722
40
0.123781715793722
40
0.147323313637492
40
0.147323313637492
40
0.170864911481261
40
0.170864911481261
40
0.194406509325031
40
0.194406509325031
40
0.206177308246915
40
0.206177308246915
40
0.217948107168799
40
0.217948107168799
40
0.229718906090683
40
0.229718906090683
40
0.241489705012567
40
0.241489705012567
40
0.253260503934451
40
0.253260503934451
40
0.265031302856336
40
0.265031302856336
40
0.276802101778219
40
0.276802101778219
40
0.288572900700104
40
0.288572900700104
40
0.335656096387641
40
0.335656096387641
40
0.359197694231411
40
0.359197694231411
40
0.38273929207518
40
0.38273929207518
40
0.40628088991895
40
0.40628088991895
40
0.418051688840835
40
0.418051688840835
40
0.423937088301777
40
0.423937088301777
40
0.42982248776272
40
0.42982248776272
40
0.441593286684607
40
0.441593286684607
40
0.453364085606494
40
0.453364085606494
40
0.46513488452838
40
0.46513488452838
40
0.476905683450267
40
0.476905683450267
40
0.500447281294041
40
0.500447281294041
40
0.512218080215928
40
0.512218080215928
40
0.523988879137816
40
0.523988879137816
40
0.547530476981589
40
0.547530476981589
40
0.571072074825362
40
0.571072074825362
40
0.594613672669135
40
0.606384471591022
40
0.606384471591022
40
0.612269871051966
40
0.612269871051966
40
0.61815527051291
40
0.61815527051291
40
0.641696868356685
40
0.641696868356685
40
0.66523846620046
40
0.66523846620046
40
0.688780064044236
40
0.688780064044236
40
0.700550862966122
40
0.700550862966122
40
0.71232166188801
40
0.71232166188801
40
0.735863259731783
40
0.735863259731783
40
0.747634058653669
40
0.747634058653669
40
0.759404857575556
40
0.759404857575556
40
0.771175656497443
40
0.771175656497443
40
0.78294645541933
40
0.78294645541933
40
0.794717254341217
40
0.794717254341217
40
0.806488053263103
40
0.806488053263103
40
0.85357124895065
40
0.85357124895065
40
0.877112846794423
40
0.877112846794423
40
0.900654444638196
40
0.900654444638196
40
0.92419604248197
40
0.92419604248197
40
0.935966841403856
40
0.935966841403856
40
0.947737640325742
40
0.947737640325742
40
0.959508439247629
40
0.959508439247629
40
0.971279238169515
40
0.971279238169515
40
0.983050037091402
40
0.983050037091402
40
0.988935436552345
40
0.988935436552345
40
0.994820836013289
40
0.994820836013289
40
1
40
1
40
1
40
1
41
1
10
49.3943428250783
20
-3.38623745750172
30
0
41
1
10
49.3267689579316
20
-3.40978439036621
30
0
41
1
10
49.2591529525866
20
-3.43302376223832
30
0
41
1
10
49.0603625647279
20
-3.50038086005946
30
0
41
1
10
48.9290560575216
20
-3.54363067764237
30
0
41
1
10
48.6661701709512
20
-3.62785820878546
30
0
41
1
10
48.5346424730215
20
-3.66889670364679
30
0
41
1
10
48.3370207430583
20
-3.72857201810714
30
0
41
1
10
48.2710932200817
20
-3.7481522294579
30
0
41
1
10
48.139122845716
20
-3.78667790595185
30
0
41
1
10
48.0730427590848
20
-3.80563377378311
30
0
41
1
10
47.8749109454293
20
-3.8614481199136
30
0
41
1
10
47.7430430015426
20
-3.89723230670089
30
0
41
1
10
47.0846598622054
20
-4.06896811772302
30
0
41
1
10
46.561038529829
20
-4.18339595002121
30
0
41
1
10
45.7776063374605
20
-4.31945620502668
30
0
41
1
10
45.5167904429576
20
-4.35887207407316
30
0
41
1
10
44.995280686475
20
-4.42561040179626
30
0
41
1
10
44.7346073007992
20
-4.45294753885423
30
0
41
1
10
44.2130574666209
20
-4.49541134655382
30
0
41
1
10
43.952182112367
20
-4.51053351295329
30
0
41
1
10
43.4296941710424
20
-4.52837035489981
30
0
41
1
10
43.168023948362
20
-4.53107929143303
30
0
41
1
10
42.7745338302604
20
-4.52577466899228
30
0
41
1
10
42.6432001869213
20
-4.52244914073296
30
0
41
1
10
42.3803656765792
20
-4.51262676322369
30
0
41
1
10
42.2488407582703
20
-4.50612651775072
30
0
41
1
10
41.9853234763411
20
-4.48995492570998
30
0
41
1
10
41.8533369579058
20
-4.48028032836123
30
0
41
1
10
41.588911658274
20
-4.4577597633311
30
0
41
1
10
41.4569130255815
20
-4.44495166236081
30
0
41
1
10
41.1932635130288
20
-4.41631172491233
30
0
41
1
10
41.0616087207132
20
-4.40048226894044
30
0
41
1
10
40.7986120650587
20
-4.36585375516833
30
0
41
1
10
40.6672553309339
20
-4.34706399812023
30
0
41
1
10
40.4049345131927
20
-4.30648889615949
30
0
41
1
10
40.2740135305144
20
-4.28467295066235
30
0
41
1
10
40.0123638295205
20
-4.23816172551616
30
0
41
1
10
39.881648685149
20
-4.21346037992112
30
0
41
1
10
39.2284564604764
20
-4.08288238163507
30
0
41
1
10
38.7071024739791
20
-3.95582621890873
30
0
41
1
10
37.9244380732554
20
-3.73383427137401
30
0
41
1
10
37.6634414702829
20
-3.65460119160395
30
0
41
1
10
37.1407404218729
20
-3.48617193007192
30
0
41
1
10
36.8790105504389
20
-3.397009509349
30
0
41
1
10
36.3544165571327
20
-3.20918097016445
30
0
41
1
10
36.0915651627535
20
-3.1104952796986
30
0
41
1
10
35.6961022978246
20
-2.95568265493915
30
0
41
1
10
35.5640834154345
20
-2.90294801042427
30
0
41
1
10
35.3656980501249
20
-2.82222473569425
30
0
41
1
10
35.2995377695713
20
-2.7950587940457
30
0
41
1
10
35.1673885211728
20
-2.74033420308373
30
0
41
1
10
35.1013641987796
20
-2.71276156341597
30
0
41
1
10
34.9034233555037
20
-2.62944645933021
30
0
41
1
10
34.7716414478391
20
-2.57310291631148
30
0
41
1
10
34.5084161297098
20
-2.45885899535375
30
0
41
1
10
34.3769610668863
20
-2.40097927678718
30
0
41
1
10
34.1145432827697
20
-2.2834020772016
30
0
41
1
10
33.9835381644002
20
-2.22377573944658
30
0
41
1
10
33.7217111284098
20
-2.10324090241141
30
0
41
1
10
33.590907703441
20
-2.04230069125146
30
0
41
1
10
33.1987042454721
20
-1.85769035467581
30
0
41
1
10
32.937488082424
20
-1.73227195109246
30
0
41
1
10
32.5457229033318
20
-1.54124612295846
30
0
41
1
10
32.4151357128769
20
-1.47710444729052
30
0
41
1
10
32.1540938193468
20
-1.34764666636175
30
0
41
1
10
32.0236749911246
20
-1.28226193835073
30
0
41
1
10
31.6322794188038
20
-1.08496529563985
30
0
41
1
10
31.3712279377785
20
-0.951793382867038
30
0
41
1
10
30.8483991007896
20
-0.683087985749665
30
0
41
1
10
30.5866293669566
20
-0.547540631606893
30
0
41
1
10
30.0619921747607
20
-0.274787274982003
30
0
41
1
10
29.6676856322875
20
-0.0689879556763344
30
0
41
1
10
29.2716081839799
20
0.137658606910208
30
0
41
1
10
29.0732221208544
20
0.241021888667063
30
0
41
1
10
29.0070013405698
20
0.275500561798083
30
0
41
1
10
28.8747132866049
20
0.344307668055165
30
0
41
1
10
28.8086231247543
20
0.378647212412432
30
0
41
1
10
28.4784275741359
20
0.550000676718071
30
0
41
1
10
28.2150985022403
20
0.686004448681899
30
0
41
1
10
27.6897033912902
20
0.955147890650579
30
0
41
1
10
27.4276407618417
20
1.08829196001463
30
0
41
1
10
26.9042219251227
20
1.35068522509289
30
0
41
1
10
26.6427986127349
20
1.47980810299418
30
0
41
1
10
26.2507985729872
20
1.6698801720062
30
0
41
1
10
26.1201577849828
20
1.7326430204989
30
0
41
1
10
25.8591009931098
20
1.85728613856358
30
0
41
1
10
25.7286315110541
20
1.9190676735997
30
0
41
1
10
25.3370872007017
20
2.1022308445803
30
0
41
1
10
25.0759423824045
20
2.22154871928314
30
0
41
1
10
24.6835859425364
20
2.39554639735135
30
0
41
1
10
24.5526917250743
20
2.45271288667504
30
0
41
1
10
24.2906690378399
20
2.56535269953068
30
0
41
1
10
24.1595225215602
20
2.62079729044172
30
0
41
1
10
23.8971083115453
20
2.73016802018617
30
0
41
1
10
23.7658628402413
20
2.78412710369759
30
0
41
1
10
23.5029949588191
20
2.89009761224384
30
0
41
1
10
23.3713940969853
20
2.94214447015307
30
0
41
1
10
23.107790169511
20
3.04424639041193
30
0
41
1
10
22.9757863600933
20
3.09430041732963
30
0
41
1
10
22.7113216156888
20
3.1923234583862
30
0
41
1
10
22.5787620362622
20
3.24032457736311
30
0
41
1
10
21.9176854420341
20
3.47386108761154
30
0
41
1
10
21.3922745585193
20
3.64085281625322
30
0
41
1
10
20.6064830788443
20
3.85911662731584
30
0
41
1
10
20.3449062688151
20
3.92647050554507
30
0
41
1
10
19.8221187902443
20
4.05013600578212
30
0
41
1
10
19.5609145152314
20
4.10645006836671
30
0
41
1
10
19.0384265362127
20
4.20766886527534
30
0
41
1
10
18.7771524980921
20
4.25257286489722
30
0
41
1
10
18.3846374195565
20
4.31101192918928
30
0
41
1
10
18.2537035185881
20
4.32901119773857
30
0
41
1
10
17.9916322992345
20
4.36203970338335
30
0
41
1
10
17.860497709032
20
4.37707262920856
30
0
41
1
10
17.5981801177794
20
4.40420344590041
30
0
41
1
10
17.4669342263508
20
4.41627083937749
30
0
41
1
10
17.2040816523367
20
4.43731942690991
30
0
41
1
10
17.0724897626845
20
4.44630686182168
30
0
41
1
10
16.8088920430448
20
4.46117131577697
30
0
41
1
10
16.6768869766846
20
4.46704856755761
30
0
41
1
10
16.4785115036971
20
4.47351197577822
30
0
41
1
10
16.4123248746634
20
4.47527447259873
30
0
41
1
10
16.2798265279616
20
4.47801341478299
30
0
41
1
10
16.2135087808455
20
4.47898934935802
30
0
41
1
10
16.0890031532036
20
4.48008196818995
30
0
41
1
10
16.0307610234085
20
4.48028900704745
30
0
41
1
10
15.9725639087145
20
4.48019217536847
30
0
0
SPLINE
5
EC
100
AcDbEntity
8
1
62
256
6
ByLayer
370
18
48
1
60
0
100
AcDbSpline
70
4
71
3
72
105
73
101
40
0
40
0
40
0
40
0
40
0.0009695349282888
40
0.0009695349282888
40
0.0258296966524596
40
0.0258296966524596
40
0.0506898583766303
40
0.0506898583766303
40
0.0755500201008011
40
0.0755500201008011
40
0.0879801009628865
40
0.0879801009628865
40
0.100410181824972
40
0.100410181824972
40
0.125270343549142
40
0.125270343549142
40
0.150130505273311
40
0.150130505273311
40
0.174990666997481
40
0.174990666997481
40
0.187420747859566
40
0.187420747859566
40
0.199850828721651
40
0.199850828721651
40
0.249571152169989
40
0.249571152169989
40
0.262001233032074
40
0.262001233032074
40
0.268216273463116
40
0.268216273463116
40
0.274431313894158
40
0.274431313894158
40
0.299291475618327
40
0.299291475618327
40
0.324151637342496
40
0.324151637342496
40
0.349011799066666
40
0.349011799066666
40
0.373871960790835
40
0.373871960790835
40
0.398732122515004
40
0.398732122515004
40
0.423592284239174
40
0.423592284239174
40
0.436022365101259
40
0.436022365101259
40
0.448452445963344
40
0.448452445963344
40
0.460882526825429
40
0.460882526825429
40
0.467097567256471
40
0.467097567256471
40
0.473312607687514
40
0.498172769411687
40
0.498172769411687
40
0.52303293113586
40
0.52303293113586
40
0.547893092860034
40
0.547893092860034
40
0.572753254584207
40
0.572753254584207
40
0.59761341630838
40
0.59761341630838
40
0.622473578032553
40
0.622473578032553
40
0.647333739756727
40
0.647333739756727
40
0.653548780187769
40
0.653548780187769
40
0.659763820618812
40
0.659763820618812
40
0.672193901480897
40
0.672193901480897
40
0.684623982342982
40
0.684623982342982
40
0.697054063205067
40
0.697054063205067
40
0.746774386653406
40
0.746774386653406
40
0.771634548377577
40
0.771634548377577
40
0.796494710101747
40
0.796494710101747
40
0.821354871825917
40
0.821354871825917
40
0.846215033550087
40
0.846215033550087
40
0.871075195274258
40
0.871075195274258
40
0.895935356998428
40
0.895935356998428
40
0.920795518722598
40
0.920795518722598
40
0.933225599584683
40
0.933225599584683
40
0.945655680446769
40
0.945655680446769
40
0.995376003895109
40
0.995376003895109
40
1
40
1
40
1
40
1
41
1
10
22.2403736790918
20
3.35996631699828
30
0
41
1
10
22.2511517341387
20
3.36369584827295
30
0
41
1
10
22.2619299372359
20
3.36741772034461
30
0
41
1
10
22.5490798773188
20
3.46636876811522
30
0
41
1
10
22.8255700196977
20
3.55653556928414
30
0
41
1
10
23.3794012459273
20
3.7259081175612
30
0
41
1
10
23.6567377347025
20
3.80512281654538
30
0
41
1
10
24.2127176156299
20
3.95197381471979
30
0
41
1
10
24.4913643396191
20
4.01960412936086
30
0
41
1
10
24.9107594895989
20
4.11178983815296
30
0
41
1
10
25.0509490684559
20
4.14100178124696
30
0
41
1
10
25.3306465831422
20
4.19600665671402
30
0
41
1
10
25.470253125783
20
4.22182641107003
30
0
41
1
10
25.8884243085914
20
4.2942337201352
30
0
41
1
10
26.1663517007749
20
4.33576067476776
30
0
41
1
10
26.7210249627348
20
4.40522016832631
30
0
41
1
10
26.9977280498357
20
4.43316455469159
30
0
41
1
10
27.550644157419
20
4.47531328512846
30
0
41
1
10
27.8268189054038
20
4.4895384702013
30
0
41
1
10
28.24099721905
20
4.50057258517114
30
0
41
1
10
28.3790503103481
20
4.50253266637489
30
0
41
1
10
28.6551808234121
20
4.50301090958803
30
0
41
1
10
28.7932456686609
20
4.50152756265709
30
0
41
1
10
29.4838971067974
20
4.48548625859985
30
0
41
1
10
30.0374501535177
20
4.44508900055726
30
0
41
1
10
30.7330643171655
20
4.36003034197782
30
0
41
1
10
30.8723764723126
20
4.34129181080817
30
0
41
1
10
31.0816823942905
20
4.31059610870838
30
0
41
1
10
31.1515077602728
20
4.29993315056277
30
0
41
1
10
31.2912828497467
20
4.27774717334239
30
0
41
1
10
31.361258846492
20
4.26621965848199
30
0
41
1
10
31.7111809840594
20
4.20648597609184
30
0
41
1
10
31.9900886845598
20
4.15218975821185
30
0
41
1
10
32.5463373507025
20
4.03117075726851
30
0
41
1
10
32.8236821866998
20
3.9644487141137
30
0
41
1
10
33.377391214865
20
3.81925194934448
30
0
41
1
10
33.6537764204708
20
3.74080071990665
30
0
41
1
10
34.2060851160205
20
3.57278875682297
30
0
41
1
10
34.482014408315
20
3.4832343644463
30
0
41
1
10
35.0339094618561
20
3.29362648994817
30
0
41
1
10
35.3098485825652
20
3.19353211663869
30
0
41
1
10
35.8624626121899
20
2.98374775714822
30
0
41
1
10
36.1390966785727
20
2.87400580183115
30
0
41
1
10
36.554893420741
20
2.70257359272887
30
0
41
1
10
36.6936414249021
20
2.64430609215981
30
0
41
1
10
36.9714677592703
20
2.52555414472215
30
0
41
1
10
37.1105387740434
20
2.46505621853367
30
0
41
1
10
37.3891297808989
20
2.34201641743977
30
0
41
1
10
37.5286450656673
20
2.27946710920102
30
0
41
1
10
37.7383032106338
20
2.1841785490239
30
0
41
1
10
37.8082957783998
20
2.15215144547469
30
0
41
1
10
37.9481280478754
20
2.08774831251927
30
0
41
1
10
38.2973909846353
20
1.92584401900925
30
0
41
1
10
38.6451410696244
20
1.75960510057979
30
0
41
1
10
39.2001487437027
20
1.4891180275286
30
0
41
1
10
39.4769598191233
20
1.35162820774463
30
0
41
1
10
40.0298234049787
20
1.07336203098132
30
0
41
1
10
40.3058603720151
20
0.9325567129967
30
0
41
1
10
40.857619103697
20
0.648518871988415
30
0
41
1
10
41.1333450967212
20
0.505294107320765
30
0
41
1
10
41.6850577832957
20
0.217531303869748
30
0
41
1
10
41.9610655215626
20
0.0730347537116813
30
0
41
1
10
42.5138529895383
20
-0.216277848604563
30
0
41
1
10
42.790643951651
20
-0.361071702052499
30
0
41
1
10
43.3455014424365
20
-0.650002545421643
30
0
41
1
10
43.6235578614451
20
-0.794160919668855
30
0
41
1
10
43.972380952552
20
-0.973052982054497
30
0
41
1
10
44.0422063787612
20
-1.00876973081446
30
0
41
1
10
44.1819850979784
20
-1.08006783313087
30
0
41
1
10
44.2519313682177
20
-1.11564542822492
30
0
41
1
10
44.4614499950349
20
-1.22188855028801
30
0
41
1
10
44.6008756007331
20
-1.29215360934552
30
0
41
1
10
44.8792920451041
20
-1.43143373109379
30
0
41
1
10
45.0182891680782
20
-1.50043702568422
30
0
41
1
10
45.2958847474222
20
-1.63713981232596
30
0
41
1
10
45.4344839341296
20
-1.7048369558978
30
0
41
1
10
46.1268003725556
20
-2.0395003395129
30
0
41
1
10
46.6784248551269
20
-2.2951184495964
30
0
41
1
10
47.5053921756012
20
-2.65572072630246
30
0
41
1
10
47.7809842540921
20
-2.77208961343146
30
0
41
1
10
48.3326569427498
20
-2.99618472974882
30
0
41
1
10
48.6087198858018
20
-3.10394009404962
30
0
41
1
10
49.161781425876
20
-3.31009379474554
30
0
41
1
10
49.4387844771139
20
-3.40848417724249
30
0
41
1
10
49.994320973171
20
-3.59498304048196
30
0
41
1
10
50.2729205232078
20
-3.68308096054773
30
0
41
1
10
50.8319990452014
20
-3.84811771766755
30
0
41
1
10
51.1104910405175
20
-3.92444421747817
30
0
41
1
10
51.6658538682613
20
-4.0644651554471
30
0
41
1
10
51.9427369194776
20
-4.12814005293978
30
0
41
1
10
52.4956111913173
20
-4.24240438901847
30
0
41
1
10
52.7715630123132
20
-4.293030300624
30
0
41
1
10
53.1851347066096
20
-4.3590303144409
30
0
41
1
10
53.3229406060488
20
-4.37936972334506
30
0
41
1
10
53.5984673827241
20
-4.41671848584318
30
0
41
1
10
53.7361933367188
20
-4.43372382003102
30
0
41
1
10
54.4249311506976
20
-4.51026980518003
30
0
41
1
10
54.9762021954915
20
-4.54442310156898
30
0
41
1
10
55.5811582443569
20
-4.55123832666487
30
0
41
1
10
55.6326518681339
20
-4.55157646656716
30
0
41
1
10
55.6841672454582
20
-4.55167226702611
30
0
0
SPLINE
5
ED
100
AcDbEntity
8
1
62
256
6
ByLayer
370
18
48
1
60
0
100
AcDbSpline
70
4
71
3
72
75
73
71
40
0
40
0
40
0
40
0
40
0.0480311448755957
40
0.0480311448755957
40
0.134573768068736
40
0.134573768068736
40
0.145391595967878
40
0.145391595967878
40
0.15620942386702
40
0.177845079665305
40
0.177845079665305
40
0.221116391261873
40
0.221116391261873
40
0.242752047060156
40
0.242752047060156
40
0.26438770285844
40
0.26438770285844
40
0.307659014455009
40
0.307659014455009
40
0.318476842354152
40
0.318476842354152
40
0.329294670253294
40
0.329294670253294
40
0.350930326051579
40
0.350930326051579
40
0.39420163764815
40
0.39420163764815
40
0.415837293446434
40
0.415837293446434
40
0.426655121345576
40
0.426655121345576
40
0.437472949244717
40
0.480744260841276
40
0.480744260841276
40
0.524015572437836
40
0.524015572437836
40
0.567286884034395
40
0.567286884034395
40
0.610558195630954
40
0.610558195630954
40
0.621376023530094
40
0.621376023530094
40
0.632193851429235
40
0.653829507227515
40
0.653829507227515
40
0.697100818824077
40
0.697100818824077
40
0.707918646723216
40
0.707918646723216
40
0.718736474622355
40
0.718736474622355
40
0.740372130420634
40
0.740372130420634
40
0.783643442017191
40
0.783643442017191
40
0.805279097815471
40
0.805279097815471
40
0.826914753613751
40
0.826914753613751
40
0.870186065210312
40
0.870186065210312
40
0.891821721008592
40
0.891821721008592
40
0.902639548907733
40
0.902639548907733
40
0.913457376806873
40
0.913457376806873
40
0.956728688403437
40
0.956728688403437
40
1
40
1
40
1
40
1
41
1
10
77.9264073115169
20
3.81464071083548
30
0
41
1
10
78.4405930651914
20
3.9670245161933
30
0
41
1
10
78.9533743665399
20
4.09894829667385
30
0
41
1
10
80.3909945114362
20
4.4069464823923
30
0
41
1
10
81.3167274885652
20
4.53350065454205
30
0
41
1
10
82.3709684844397
20
4.58628771576727
30
0
41
1
10
82.4881368870997
20
4.5908994603885
30
0
41
1
10
82.7222016804302
20
4.59760022261057
30
0
41
1
10
83.0730651328755
20
4.60387655598726
30
0
41
1
10
83.4234245309247
20
4.59884724994575
30
0
41
1
10
84.1239962620885
20
4.57378839261074
30
0
41
1
10
84.5908694969364
20
4.53708797448687
30
0
41
1
10
85.2928461924796
20
4.45240124986879
30
0
41
1
10
85.5273005325322
20
4.4191934214418
30
0
41
1
10
85.9952426753553
20
4.34329298287037
30
0
41
1
10
86.2289150213398
20
4.30058579251784
30
0
41
1
10
86.9295573070038
20
4.15859399624259
30
0
41
1
10
87.396156751779
20
4.04543474470688
30
0
41
1
10
87.980528706941
20
3.88231356079581
30
0
41
1
10
88.0974580162444
20
3.84860512886991
30
0
41
1
10
88.3314649690075
20
3.77905206574926
30
0
41
1
10
88.4485963349366
20
3.74319035914181
30
0
41
1
10
88.7998745767328
20
3.63257769736973
30
0
41
1
10
89.0336979864968
20
3.55486844169965
30
0
41
1
10
89.7345803433898
20
3.31049386148322
30
0
41
1
10
90.2010502947798
20
3.13257504651955
30
0
41
1
10
90.9016344599218
20
2.8459557642762
30
0
41
1
10
91.1353096002051
20
2.74712778072117
30
0
41
1
10
91.4862989317027
20
2.59430660570362
30
0
41
1
10
91.6034578538255
20
2.54256549141766
30
0
41
1
10
91.8373246260551
20
2.43790757368254
30
0
41
1
10
92.4211094557324
20
2.17322266258887
30
0
41
1
10
93.000980634633
20
1.894247570929
30
0
41
1
10
93.9264663347724
20
1.43457171739249
30
0
41
1
10
94.3880682317036
20
1.19809969039579
30
0
41
1
10
95.3116355507763
20
0.716817364682612
30
0
41
1
10
95.7735547076493
20
0.471922411423122
30
0
41
1
10
96.7001382477391
20
-0.0217598540209565
30
0
41
1
10
97.1648094890405
20
-0.270536464791661
30
0
41
1
10
97.7491083618638
20
-0.580654997734825
30
0
41
1
10
97.8662027963565
20
-0.64266716161211
30
0
41
1
10
98.1000750298959
20
-0.766146441427594
30
0
41
1
10
98.4506383241291
20
-0.950668268903712
30
0
41
1
10
98.8006564072093
20
-1.13275691862191
30
0
41
1
10
99.5004355334755
20
-1.49284429412222
30
0
41
1
10
99.9666062701324
20
-1.72745803076
30
0
41
1
10
100.55057531915
20
-2.01088013888918
30
0
41
1
10
100.667432376098
20
-2.06707159907228
30
0
41
1
10
100.901316715807
20
-2.17839061015752
30
0
41
1
10
101.018336521677
20
-2.23351373611919
30
0
41
1
10
101.368973687704
20
-2.3968293983115
30
0
41
1
10
101.602418075597
20
-2.50308313726506
30
0
41
1
10
102.302301875706
20
-2.81323616595372
30
0
41
1
10
102.768271713469
20
-3.00855599726347
30
0
41
1
10
103.468312177662
20
-3.28134634177968
30
0
41
1
10
103.701842349038
20
-3.36890850758701
30
0
41
1
10
104.169625901006
20
-3.53677642399435
30
0
41
1
10
104.403205636059
20
-3.61683766230496
30
0
41
1
10
105.103133604801
20
-3.84471532714599
30
0
41
1
10
105.56886071428
20
-3.98027713541495
30
0
41
1
10
106.268125898314
20
-4.15716267246174
30
0
41
1
10
106.501320030791
20
-4.21172251760356
30
0
41
1
10
106.851491906189
20
-4.28673999266204
30
0
41
1
10
106.968279623513
20
-4.3106083776868
30
0
41
1
10
107.202023094577
20
-4.35603010176652
30
0
41
1
10
107.319008054678
20
-4.37758709908118
30
0
41
1
10
107.903138865769
20
-4.47926450690591
30
0
41
1
10
108.368903027177
20
-4.54126136885097
30
0
41
1
10
109.300191626879
20
-4.62552274662207
30
0
41
1
10
109.765725538841
20
-4.64778437565397
30
0
41
1
10
110.232569052171
20
-4.64980775804878
30
0
0
SPLINE
5
EE
100
AcDbEntity
8
1
62
256
6
ByLayer
370
18
48
1
60
0
100
AcDbSpline
70
4
71
3
72
10
73
6
40
0
40
0
40
0
40
0
40
0.5
40
0.5
40
1
40
1
40
1
40
1
41
1
10
110.202943889943
20
-4.61943828371787
30
0
41
1
10
110.207868739573
20
-4.62913312318673
30
0
41
1
10
110.212798731922
20
-4.63651829218816
30
0
41
1
10
110.222679342802
20
-4.64665412998568
30
0
41
1
10
110.227630679203
20
-4.64939768582303
30
0
41
1
10
110.232569052171
20
-4.64980775804878
30
0
0
SPLINE
5
EF
100
AcDbEntity
8
1
62
256
6
ByLayer
370
18
48
1
60
0
100
AcDbSpline
70
4
71
3
72
27
73
23
40
0
40
0
40
0
40
0
40
0.125000000000087
40
0.125000000000087
40
0.187500000000129
40
0.187500000000129
40
0.250000000000171
40
0.312500000000213
40
0.312500000000213
40
0.375000000000256
40
0.375000000000256
40
0.500000000000204
40
0.500000000000204
40
0.625000000000152
40
0.625000000000152
40
0.687500000000127
40
0.687500000000127
40
0.750000000000101
40
0.750000000000101
40
0.875000000000051
40
0.875000000000051
40
1
40
1
40
1
40
1
41
1
10
65.4995453192983
20
-4.28198753803028
30
0
41
1
10
65.4995453192982
20
-4.27896193686789
30
0
41
1
10
65.5006534101957
20
-4.27598098144745
30
0
41
1
10
65.5039272414384
20
-4.27157777029109
30
0
41
1
10
65.5053039590153
20
-4.27011140678954
30
0
41
1
10
65.5085491087978
20
-4.26727297356683
30
0
41
1
10
65.5122816656956
20
-4.26452198504489
30
0
41
1
10
65.5169684734985
20
-4.26194553423056
30
0
41
1
10
65.5221461688753
20
-4.25946088787546
30
0
41
1
10
65.5249716572468
20
-4.25827131771217
30
0
41
1
10
65.5339446655808
20
-4.25494443097759
30
0
41
1
10
65.540690340148
20
-4.25300183999519
30
0
41
1
10
65.5555136107842
20
-4.24976709694445
30
0
41
1
10
65.5633491430425
20
-4.24852259476816
30
0
41
1
10
65.5757276818624
20
-4.24721527283108
30
0
41
1
10
65.5799816631154
20
-4.24687381742416
30
0
41
1
10
65.5884697324481
20
-4.24640219355112
30
0
41
1
10
65.5927283712718
20
-4.24626840365059
30
0
41
1
10
65.6055474805126
20
-4.24616934972642
30
0
41
1
10
65.6142645120278
20
-4.24651915389421
30
0
41
1
10
65.6308839420137
20
-4.24799787790522
30
0
41
1
10
65.6388724613335
20
-4.24911557778648
30
0
41
1
10
65.6465249635511
20
-4.2506232740609
30
0
0
SPLINE
5
F0
100
AcDbEntity
8
1
62
256
6
ByLayer
370
18
48
1
60
0
100
AcDbSpline
70
4
71
3
72
8
73
4
40
0
40
0
40
0
40
0
40
1
40
1
40
1
40
1
41
1
10
110.213214553331
20
-0.274036337268399
30
0
41
1
10
110.236567092398
20
-0.0719482792399333
30
0
41
1
10
110.264396441969
20
0.130498979329303
30
0
41
1
10
110.297917688347
20
0.333173950654384
30
0
0
SPLINE
5
F1
100
AcDbEntity
8
1
62
256
6
ByLayer
370
18
48
1
60
0
100
AcDbSpline
70
4
71
3
72
56
73
52
40
0
40
0
40
0
40
0
40
0.060415661162686
40
0.060415661162686
40
0.120831322325372
40
0.120831322325372
40
0.151039152906715
40
0.151039152906715
40
0.181246983488058
40
0.181246983488058
40
0.241662644650739
40
0.241662644650739
40
0.271870475232082
40
0.271870475232082
40
0.302078305813425
40
0.302078305813425
40
0.332286136394768
40
0.332286136394768
40
0.362493966976111
40
0.362493966976111
40
0.422909628138792
40
0.422909628138792
40
0.453117458720135
40
0.453117458720135
40
0.483325289301478
40
0.483325289301478
40
0.543740950464164
40
0.543740950464164
40
0.604156611626849
40
0.604156611626849
40
0.664572272789535
40
0.664572272789535
40
0.724987933952221
40
0.724987933952221
40
0.755195764533562
40
0.755195764533562
40
0.785403595114902
40
0.785403595114902
40
0.815611425696243
40
0.815611425696243
40
0.845819256277583
40
0.845819256277583
40
0.906234917440264
40
0.906234917440264
40
0.921338832730937
40
0.921338832730937
40
0.93644274802161
40
0.93644274802161
40
0.966650578602955
40
0.966650578602955
40
1
40
1
40
1
40
1
41
1
10
110.297917688347
20
0.333173950649069
30
0
41
1
10
110.035652213787
20
0.474008318284717
30
0
41
1
10
109.774248609897
20
0.613945437958847
30
0
41
1
10
109.252583355817
20
0.890969844135725
30
0
41
1
10
108.992265210992
20
1.02795037169247
30
0
41
1
10
108.602261777916
20
1.23062085176949
30
0
41
1
10
108.472352191889
20
1.29773501918893
30
0
41
1
10
108.212811498258
20
1.43124994722089
30
0
41
1
10
108.083129408512
20
1.49755630140336
30
0
41
1
10
107.69411934732
20
1.69471165177163
30
0
41
1
10
107.434868611252
20
1.82387085318044
30
0
41
1
10
107.045672985763
20
2.0134184726592
30
0
41
1
10
106.915887045567
20
2.07590167500692
30
0
41
1
10
106.656180779787
20
2.19942622365443
30
0
41
1
10
106.526244956708
20
2.26044217783417
30
0
41
1
10
106.266330871303
20
2.38117996775537
30
0
41
1
10
106.136359190613
20
2.44091066467931
30
0
41
1
10
105.876141102773
20
2.55868222393104
30
0
41
1
10
105.745913037262
20
2.61675390003418
30
0
41
1
10
105.354771633683
20
2.78835654131052
30
0
41
1
10
105.093398904285
20
2.89927208518011
30
0
41
1
10
104.700086440795
20
3.05984167348711
30
0
41
1
10
104.568769885807
20
3.11240003164653
30
0
41
1
10
104.305679323114
20
3.21547889335909
30
0
41
1
10
104.174366577706
20
3.26581755936075
30
0
41
1
10
103.781034441858
20
3.41314628276754
30
0
41
1
10
103.51962471648
20
3.50645275281772
30
0
41
1
10
102.99790757616
20
3.68275367006535
30
0
41
1
10
102.737579754201
20
3.76572623418261
30
0
41
1
10
102.217597800101
20
3.92100690180561
30
0
41
1
10
101.95795017188
20
3.99331975281567
30
0
41
1
10
101.438876657743
20
4.12687639454154
30
0
41
1
10
101.179460088031
20
4.18812253307925
30
0
41
1
10
100.789985656809
20
4.27127387068739
30
0
41
1
10
100.660105208517
20
4.29754209719914
30
0
41
1
10
100.400209190023
20
4.34716423279613
30
0
41
1
10
100.270187564664
20
4.3705160288539
30
0
41
1
10
100.010130201356
20
4.41436111982864
30
0
41
1
10
99.880052252089
20
4.43482439926561
30
0
41
1
10
99.6196097203605
20
4.47270652166532
30
0
41
1
10
99.4892598070537
20
4.49013459456745
30
0
41
1
10
99.0977044510055
20
4.53780366153987
30
0
41
1
10
98.8359743791738
20
4.56342229834723
30
0
41
1
10
98.5076635585371
20
4.58757286502555
30
0
41
1
10
98.4419454145113
20
4.5920097765048
30
0
41
1
10
98.3103954474626
20
4.60009350805097
30
0
41
1
10
98.2445292696314
20
4.60374234045008
30
0
41
1
10
98.0472112226595
20
4.61348458697643
30
0
41
1
10
97.9159713564672
20
4.61837843644682
30
0
41
1
10
97.6402164078081
20
4.625284192658
30
0
41
1
10
97.4957551927638
20
4.62694916475954
30
0
41
1
10
97.351487110695
20
4.62667413002899
30
0
0
SPLINE
5
F2
100
AcDbEntity
8
1
62
256
6
ByLayer
370
18
48
1
60
0
100
AcDbSpline
70
4
71
3
72
126
73
122
40
0
40
0
40
0
40
0
40
0.0020075753559606
40
0.0020075753559606
40
0.0253513355177394
40
0.0253513355177394
40
0.0370232155986285
40
0.0370232155986285
40
0.0486950956795173
40
0.0486950956795173
40
0.0720388558412953
40
0.0720388558412953
40
0.0837107359221847
40
0.0837107359221847
40
0.095382616003074
40
0.095382616003074
40
0.101218556043519
40
0.101218556043519
40
0.107054496083964
40
0.107054496083964
40
0.118726376164852
40
0.118726376164852
40
0.165413896488404
40
0.165413896488404
40
0.18875765665018
40
0.18875765665018
40
0.212101416811955
40
0.212101416811955
40
0.235445176973731
40
0.235445176973731
40
0.258788937135507
40
0.258788937135507
40
0.270460817216395
40
0.270460817216395
40
0.282132697297283
40
0.282132697297283
40
0.287968637337727
40
0.287968637337727
40
0.293804577378171
40
0.293804577378171
40
0.305476457459059
40
0.305476457459059
40
0.328820217620836
40
0.328820217620836
40
0.340492097701724
40
0.340492097701724
40
0.352163977782612
40
0.352163977782612
40
0.37550773794439
40
0.37550773794439
40
0.398851498106166
40
0.398851498106166
40
0.44553901842972
40
0.44553901842972
40
0.468882778591497
40
0.468882778591497
40
0.474718718631942
40
0.474718718631942
40
0.480554658672386
40
0.480554658672386
40
0.492226538753275
40
0.492226538753275
40
0.515570298915053
40
0.515570298915053
40
0.527242178995942
40
0.527242178995942
40
0.538914059076831
40
0.538914059076831
40
0.562257819238607
40
0.562257819238607
40
0.573929699319495
40
0.573929699319495
40
0.585601579400384
40
0.585601579400384
40
0.597273459481273
40
0.597273459481273
40
0.608945339562162
40
0.608945339562162
40
0.632289099723939
40
0.632289099723939
40
0.655632859885716
40
0.655632859885716
40
0.661468799926161
40
0.661468799926161
40
0.667304739966605
40
0.667304739966605
40
0.678976620047494
40
0.678976620047494
40
0.725664140371049
40
0.725664140371049
40
0.749007900532826
40
0.749007900532826
40
0.760679780613715
40
0.760679780613715
40
0.772351660694603
40
0.772351660694603
40
0.784023540775491
40
0.784023540775491
40
0.79569542085638
40
0.79569542085638
40
0.819039181018157
40
0.819039181018157
40
0.830711061099045
40
0.830711061099045
40
0.842382941179934
40
0.842382941179934
40
0.848218881220377
40
0.848218881220377
40
0.854054821260821
40
0.854054821260821
40
0.86572670134171
40
0.86572670134171
40
0.912414221665263
40
0.912414221665263
40
0.935757981827039
40
0.935757981827039
40
0.959101741988815
40
0.959101741988815
40
0.982445502150591
40
0.982445502150591
40
1
40
1
40
1
40
1
41
1
10
76.7134684174653
20
-3.35420707934199
30
0
41
1
10
76.6911060972676
20
-3.36229274359243
30
0
41
1
10
76.6687443875027
20
-3.37034414015002
30
0
41
1
10
76.3863699174272
20
-3.47158037281054
30
0
41
1
10
76.1263639851793
20
-3.56006990651582
30
0
41
1
10
75.7360141426263
20
-3.6853099138954
30
0
41
1
10
75.6058341011269
20
-3.72580229178513
30
0
41
1
10
75.3455027251229
20
-3.8044387872404
30
0
41
1
10
75.215337192847
20
-3.84256273855422
30
0
41
1
10
74.8244714686943
20
-3.9529294084837
30
0
41
1
10
74.5634762305012
20
-4.02124843133998
30
0
41
1
10
74.1708906496779
20
-4.11534665352005
30
0
41
1
10
74.0398432445517
20
-4.14531421820979
30
0
41
1
10
73.7773456926534
20
-4.20241591353877
30
0
41
1
10
73.6458844218352
20
-4.22954209270827
30
0
41
1
10
73.4484272242642
20
-4.26811809278144
30
0
41
1
10
73.3825726615341
20
-4.28063070129397
30
0
41
1
10
73.2507764294578
20
-4.30494501424948
30
0
41
1
10
73.1848299334498
20
-4.31674295286172
30
0
41
1
10
72.9872657777227
20
-4.35093939292932
30
0
41
1
10
72.8557766257108
20
-4.37217782073617
30
0
41
1
10
72.1992627222104
20
-4.47055853234457
30
0
41
1
10
71.6769953326965
20
-4.5242609204393
30
0
41
1
10
70.8954274881401
20
-4.56739921343899
30
0
41
1
10
70.6352100041768
20
-4.57553849739494
30
0
41
1
10
70.1148945009788
20
-4.57934227533897
30
0
41
1
10
69.8547737360419
20
-4.57500882351923
30
0
41
1
10
69.3342152859822
20
-4.55390533362635
30
0
41
1
10
69.0737919557625
20
-4.53713154841924
30
0
41
1
10
68.5522025202995
20
-4.49115608785297
30
0
41
1
10
68.2910487846246
20
-4.46194285552207
30
0
41
1
10
67.8982460512281
20
-4.40892208325084
30
0
41
1
10
67.7671296384798
20
-4.38971929448556
30
0
41
1
10
67.5045111700659
20
-4.34825229768609
30
0
41
1
10
67.3729925056485
20
-4.32600076224634
30
0
41
1
10
67.1755138287482
20
-4.29023943261552
30
0
41
1
10
67.109654202916
20
-4.27792047353412
30
0
41
1
10
66.9778258580532
20
-4.25250794068174
30
0
41
1
10
66.9118450522969
20
-4.2394138588152
30
0
41
1
10
66.7141798468325
20
-4.19908432793784
30
0
41
1
10
66.5826213721132
20
-4.17077004066826
30
0
41
1
10
66.1884755176008
20
-4.08169071503798
30
0
41
1
10
65.926398757002
20
-4.01680632568392
30
0
41
1
10
65.5339496167904
20
-3.91173866527353
30
0
41
1
10
65.4032391368211
20
-3.87543263319458
30
0
41
1
10
65.1421108834428
20
-3.80018105643376
30
0
41
1
10
65.0117430432352
20
-3.76117864863255
30
0
41
1
10
64.6208397461738
20
-3.64045892049552
30
0
41
1
10
64.3605227707174
20
-3.55501635173351
30
0
41
1
10
63.8399657030992
20
-3.3748625213363
30
0
41
1
10
63.5797316081456
20
-3.28014574233549
30
0
41
1
10
62.7985692482808
20
-2.98287369906595
30
0
41
1
10
62.2772146145394
20
-2.76712692706295
30
0
41
1
10
61.4913270683029
20
-2.42127431351304
30
0
41
1
10
61.2287282313085
20
-2.30228066379513
30
0
41
1
10
60.8994404073052
20
-2.14922192880408
30
0
41
1
10
60.8335303457199
20
-2.118395193684
30
0
41
1
10
60.7015978303377
20
-2.05632185328005
30
0
41
1
10
60.6355540661894
20
-2.02506506390978
30
0
41
1
10
60.4376985242943
20
-1.93090268620014
30
0
41
1
10
60.3060233198226
20
-1.86753783260332
30
0
41
1
10
59.9115680398659
20
-1.67589296181833
30
0
41
1
10
59.6493109817165
20
-1.54615111811881
30
0
41
1
10
59.256627070806
20
-1.34928212563256
30
0
41
1
10
59.1258427909427
20
-1.2832958708816
30
0
41
1
10
58.8646604431089
20
-1.15028388971916
30
0
41
1
10
58.734245311332
20
-1.08328991269445
30
0
41
1
10
58.343153269408
20
-0.881556690311953
30
0
41
1
10
58.0827056886428
20
-0.74592204300518
30
0
41
1
10
57.6919889933135
20
-0.541652980707596
30
0
41
1
10
57.5617389928467
20
-0.473434096801441
30
0
41
1
10
57.301188741826
20
-0.336793341494854
30
0
41
1
10
57.1708768692324
20
-0.268394060589941
30
0
41
1
10
56.9102599339171
20
-0.131281783125786
30
0
41
1
10
56.7800079121039
20
-0.0624654557499866
30
0
41
1
10
56.5193576601167
20
0.0751868859717604
30
0
41
1
10
56.3889625854305
20
0.144028769298075
30
0
41
1
10
55.997470923304
20
0.350414106022299
30
0
41
1
10
55.7360596102216
20
0.487800921521398
30
0
41
1
10
55.2119798120187
20
0.76134592553376
30
0
41
1
10
54.9493191764792
20
0.897519650486771
30
0
41
1
10
54.6199359968223
20
1.06644266942681
30
0
41
1
10
54.5540062867064
20
1.10016216031332
30
0
41
1
10
54.4220331723523
20
1.16745625991518
30
0
41
1
10
54.355954870168
20
1.20104847137028
30
0
41
1
10
54.1579539272576
20
1.30137412336671
30
0
41
1
10
54.0261797614714
20
1.3677014696986
30
0
41
1
10
53.3682703340914
20
1.69627066450067
30
0
41
1
10
52.8449499838312
20
1.94919020191523
30
0
41
1
10
52.0620295088677
20
2.3097934796175
30
0
41
1
10
51.8014020914098
20
2.42686223418673
30
0
41
1
10
51.4104407785127
20
2.59691408756382
30
0
41
1
10
51.2801146495924
20
2.65267062099875
30
0
41
1
10
51.0194337466773
20
2.76230819006403
30
0
41
1
10
50.889061853297
20
2.8161641232652
30
0
41
1
10
50.6284265504893
20
2.92220231498953
30
0
41
1
10
50.4981466563224
20
2.97435595942954
30
0
41
1
10
50.23740566142
20
3.07654064039764
30
0
41
1
10
50.1069649143316
20
3.12660287761446
30
0
41
1
10
49.7153110755454
20
3.27352314841062
30
0
41
1
10
49.4537473622412
20
3.36708840777914
30
0
41
1
10
49.0603625647279
20
3.50038086005946
30
0
41
1
10
48.9290560575216
20
3.54363067764237
30
0
41
1
10
48.6661701709511
20
3.62785820878546
30
0
41
1
10
48.5346424730216
20
3.66889670364679
30
0
41
1
10
48.3370207430583
20
3.72857201810714
30
0
41
1
10
48.2710932200817
20
3.7481522294579
30
0
41
1
10
48.139122845716
20
3.78667790595185
30
0
41
1
10
48.0730427590849
20
3.80563377378309
30
0
41
1
10
47.8749109454294
20
3.8614481199136
30
0
41
1
10
47.7430430015426
20
3.89723230670089
30
0
41
1
10
47.0846598622054
20
4.06896811772299
30
0
41
1
10
46.561038529829
20
4.18339595002124
30
0
41
1
10
45.7776063374605
20
4.31945620502668
30
0
41
1
10
45.5167904429576
20
4.35887207407316
30
0
41
1
10
44.995280686475
20
4.42561040179626
30
0
41
1
10
44.7346073007992
20
4.45294753885423
30
0
41
1
10
44.2130574666209
20
4.49541134655382
30
0
41
1
10
43.952182112367
20
4.51053351295329
30
0
41
1
10
43.4944827853533
20
4.52615858275732
30
0
41
1
10
43.2977863820496
20
4.52935374721693
30
0
41
1
10
43.100751007267
20
4.52902217454309
30
0
0
SPLINE
5
F3
100
AcDbEntity
8
1
62
256
6
ByLayer
370
18
48
1
60
0
100
AcDbSpline
70
4
71
3
72
48
73
44
40
0
40
0
40
0
40
0
40
0.110546347615212
40
0.110546347615212
40
0.174078751356981
40
0.174078751356981
40
0.237611155098749
40
0.237611155098749
40
0.301143558840518
40
0.301143558840518
40
0.332909760711403
40
0.332909760711403
40
0.364675962582287
40
0.364675962582287
40
0.396442164453172
40
0.396442164453172
40
0.428208366324057
40
0.428208366324057
40
0.459974568194941
40
0.459974568194941
40
0.475857669130384
40
0.475857669130384
40
0.491740770065826
40
0.491740770065826
40
0.523506971936711
40
0.523506971936711
40
0.555273173807596
40
0.555273173807596
40
0.618805577549367
40
0.618805577549367
40
0.682337981291138
40
0.682337981291138
40
0.74587038503291
40
0.74587038503291
40
0.809402788774681
40
0.809402788774681
40
0.841168990645568
40
0.841168990645568
40
0.872935192516454
40
0.872935192516454
40
0.936467596258227
40
0.936467596258227
40
1
40
1
40
1
40
1
41
1
10
22.2404611444915
20
-3.358886045893
30
0
41
1
10
21.7811045171071
20
-3.51691597263599
30
0
41
1
10
21.3241724864144
20
-3.65976905317274
30
0
41
1
10
20.6064830788444
20
-3.85911662731584
30
0
41
1
10
20.3449062688151
20
-3.92647050554507
30
0
41
1
10
19.8221187902443
20
-4.05013600578212
30
0
41
1
10
19.5609145152314
20
-4.10645006836671
30
0
41
1
10
19.0384265362127
20
-4.20766886527534
30
0
41
1
10
18.7771524980921
20
-4.25257286489719
30
0
41
1
10
18.3846374195565
20
-4.31101192918928
30
0
41
1
10
18.2537035185882
20
-4.32901119773857
30
0
41
1
10
17.9916322992346
20
-4.36203970338332
30
0
41
1
10
17.8604977090321
20
-4.37707262920856
30
0
41
1
10
17.5981801177795
20
-4.40420344590041
30
0
41
1
10
17.4669342263508
20
-4.41627083937749
30
0
41
1
10
17.2040816523368
20
-4.43731942690991
30
0
41
1
10
17.0724897626846
20
-4.44630686182168
30
0
41
1
10
16.8088920430448
20
-4.46117131577697
30
0
41
1
10
16.6768869766846
20
-4.46704856755761
30
0
41
1
10
16.4785115036972
20
-4.47351197577822
30
0
41
1
10
16.4123248746635
20
-4.47527447259873
30
0
41
1
10
16.2798265279616
20
-4.47801341478299
30
0
41
1
10
16.2135087808456
20
-4.47898934935802
30
0
41
1
10
16.0148298115556
20
-4.48073288808365
30
0
41
1
10
15.8825691827755
20
-4.48032293868829
30
0
41
1
10
15.6186160390798
20
-4.47637086314711
30
0
41
1
10
15.4869095479954
20
-4.47282235146167
30
0
41
1
10
15.0921997430334
20
-4.45751740287602
30
0
41
1
10
14.8296877004763
20
-4.44110189282216
30
0
41
1
10
14.3054391375924
20
-4.39615201531075
30
0
41
1
10
14.0437114086844
20
-4.36761735375273
30
0
41
1
10
13.5206677204184
20
-4.2986887339506
30
0
41
1
10
13.2593646056244
20
-4.25828227670385
30
0
41
1
10
12.7366024261772
20
-4.16597812702213
30
0
41
1
10
12.4750862171051
20
-4.11413288290757
30
0
41
1
10
12.0825494379861
20
-4.02786305975226
30
0
41
1
10
11.9516875669159
20
-3.99766270451971
30
0
41
1
10
11.6897791432747
20
-3.9344874481564
30
0
41
1
10
11.5587413591082
20
-3.90150648799076
30
0
41
1
10
11.1653580963956
20
-3.79836823655137
30
0
41
1
10
10.9027467506393
20
-3.72398571946323
30
0
41
1
10
10.3755953160371
20
-3.5652276369797
30
0
41
1
10
10.1111338707492
20
-3.48078210997801
30
0
41
1
10
9.8455728957492
20
-3.39153161592571
30
0
0
SPLINE
5
F4
100
AcDbEntity
8
1
62
256
6
ByLayer
370
18
48
1
60
0
100
AcDbSpline
70
4
71
3
72
46
73
42
40
0
40
0
40
0
40
0
40
0.0512873105668625
40
0.0512873105668625
40
0.102574621133725
40
0.102574621133725
40
0.153861931700588
40
0.153861931700588
40
0.20514924226745
40
0.20514924226745
40
0.307723863401176
40
0.307723863401176
40
0.359011173968039
40
0.359011173968039
40
0.38465482925147
40
0.38465482925147
40
0.397476656893186
40
0.397476656893186
40
0.410298484534901
40
0.410298484534901
40
0.512873105668625
40
0.512873105668625
40
0.615447726802349
40
0.615447726802349
40
0.666735037369212
40
0.666735037369212
40
0.718022347936074
40
0.718022347936074
40
0.769309658502936
40
0.769309658502936
40
0.794953313786367
40
0.794953313786367
40
0.820596969069798
40
0.820596969069798
40
0.87188427963666
40
0.87188427963666
40
0.923171590203522
40
0.923171590203522
40
0.974458900770384
40
0.974458900770384
40
1
40
1
40
1
40
1
41
1
10
12.2768624557086
20
1.35149733703113
30
0
41
1
10
12.557299640691
20
1.21335047028293
30
0
41
1
10
12.8367208376291
20
1.07359203211675
30
0
41
1
10
13.3940254281493
20
0.791828392791331
30
0
41
1
10
13.6719303610675
20
0.649866183744393
30
0
41
1
10
14.2266442882551
20
0.364568447940826
30
0
41
1
10
14.5034676045271
20
0.221262163089847
30
0
41
1
10
15.0568269259695
20
-0.0651232485734283
30
0
41
1
10
15.3332805398564
20
-0.208366011126856
30
0
41
1
10
16.162728182415
20
-0.636734739883366
30
0
41
1
10
16.7157939496858
20
-0.920529218003594
30
0
41
1
10
17.5489062583547
20
-1.33692356559635
30
0
41
1
10
17.8271714744409
20
-1.47422014213743
30
0
41
1
10
18.245830890574
20
-1.6770871050926
30
0
41
1
10
18.3855735321847
20
-1.74423658133901
30
0
41
1
10
18.5955640793544
20
-1.8440712362291
30
0
41
1
10
18.6656617510901
20
-1.87721838472484
30
0
41
1
10
18.8056843201171
20
-1.94305131415837
30
0
41
1
10
18.8756341878551
20
-1.97574916691249
30
0
41
1
10
19.5046724874343
20
-2.26800006648182
30
0
41
1
10
20.0601458837099
20
-2.51343622104341
30
0
41
1
10
21.1676476089819
20
-2.96999111070235
30
0
41
1
10
21.7199651518617
20
-3.18065820595268
30
0
41
1
10
22.5490798773187
20
-3.46636876811516
30
0
41
1
10
22.8255700196976
20
-3.55653556928411
30
0
41
1
10
23.3794012459273
20
-3.72590811756118
30
0
41
1
10
23.6567377347024
20
-3.80512281654535
30
0
41
1
10
24.2127176156298
20
-3.95197381471976
30
0
41
1
10
24.491364339619
20
-4.0196041293608
30
0
41
1
10
24.9107594895988
20
-4.11178983815293
30
0
41
1
10
25.0509490684558
20
-4.14100178124693
30
0
41
1
10
25.3306465831421
20
-4.19600665671399
30
0
41
1
10
25.4702531257829
20
-4.22182641107
30
0
41
1
10
25.8884243085913
20
-4.29423372013517
30
0
41
1
10
26.1663517007748
20
-4.33576067476776
30
0
41
1
10
26.7210249627348
20
-4.40522016832631
30
0
41
1
10
26.9977280498357
20
-4.43316455469159
30
0
41
1
10
27.550644157419
20
-4.47531328512844
30
0
41
1
10
27.8268189054037
20
-4.4895384702013
30
0
41
1
10
28.2404450812605
20
-4.5005578756809
30
0
41
1
10
28.3779460854312
20
-4.50251696108626
30
0
41
1
10
28.5154590842832
20
-4.50276883646558
30
0
0
SPLINE
5
F5
100
AcDbEntity
8
1
62
256
6
ByLayer
370
18
48
1
60
0
100
AcDbSpline
70
4
71
3
72
55
73
51
40
0
40
0
40
0
40
0
40
0.0201134501528697
40
0.0201134501528697
40
0.0716864264606138
40
0.0716864264606138
40
0.123259402768358
40
0.123259402768358
40
0.174832379076102
40
0.174832379076102
40
0.226405355383846
40
0.226405355383846
40
0.252191843537717
40
0.252191843537717
40
0.277978331691589
40
0.277978331691589
40
0.381124284307077
40
0.381124284307077
40
0.43269726061482
40
0.43269726061482
40
0.458483748768692
40
0.458483748768692
40
0.471376992845627
40
0.471376992845627
40
0.484270236922563
40
0.535843213230308
40
0.535843213230308
40
0.587416189538053
40
0.587416189538053
40
0.638989165845798
40
0.638989165845798
40
0.690562142153543
40
0.690562142153543
40
0.742135118461288
40
0.742135118461288
40
0.76792160661516
40
0.76792160661516
40
0.793708094769033
40
0.793708094769033
40
0.845281071076775
40
0.845281071076775
40
0.858174315153711
40
0.858174315153711
40
0.871067559230647
40
0.871067559230647
40
0.896854047384518
40
0.896854047384518
40
0.948427023692259
40
0.948427023692259
40
1
40
1
40
1
40
1
41
1
10
49.3918958298318
20
3.39031297742852
30
0
41
1
10
49.5000099922478
20
3.42821715275278
30
0
41
1
10
49.6082231655405
20
3.46536634970931
30
0
41
1
10
49.9943209731709
20
3.59498304048191
30
0
41
1
10
50.2729205232076
20
3.68308096054767
30
0
41
1
10
50.8319990452012
20
3.84811771766749
30
0
41
1
10
51.1104910405173
20
3.92444421747811
30
0
41
1
10
51.6658538682613
20
4.06446515544707
30
0
41
1
10
51.9427369194775
20
4.12814005293973
30
0
41
1
10
52.4956111913171
20
4.24240438901842
30
0
41
1
10
52.771563012313
20
4.29303030062397
30
0
41
1
10
53.1851347066094
20
4.35903031444087
30
0
41
1
10
53.3229406060486
20
4.37936972334504
30
0
41
1
10
53.598467382724
20
4.41671848584315
30
0
41
1
10
53.7361933367186
20
4.43372382003099
30
0
41
1
10
54.4249311506974
20
4.51026980518
30
0
41
1
10
54.9762021954913
20
4.54442310156898
30
0
41
1
10
55.8064254093128
20
4.55377610844053
30
0
41
1
10
56.0837364137581
20
4.54990607219091
30
0
41
1
10
56.5010324414895
20
4.53348142386693
30
0
41
1
10
56.6403489171595
20
4.52623692636098
30
0
41
1
10
56.8496959662567
20
4.51269697932264
30
0
41
1
10
56.9195797824506
20
4.50773483993618
30
0
41
1
10
57.0591694668293
20
4.49694171061086
30
0
41
1
10
57.4078180681117
20
4.46778173270701
30
0
41
1
10
57.7549530439245
20
4.42781968634591
30
0
41
1
10
58.3090304532149
20
4.35053328145574
30
0
41
1
10
58.5854198420635
20
4.30523059096205
30
0
41
1
10
59.1373697549118
20
4.20173875074079
30
0
41
1
10
59.4129520610883
20
4.14356558392532
30
0
41
1
10
59.9637682102096
20
4.01475228183725
30
0
41
1
10
60.2390241794997
20
3.94412491719191
30
0
41
1
10
60.7899054597009
20
3.79107086246648
30
0
41
1
10
61.0654927288425
20
3.70860975380134
30
0
41
1
10
61.4794679949042
20
3.57637143167321
30
0
41
1
10
61.6175664822229
20
3.53087724065966
30
0
41
1
10
61.8939963732982
20
3.43706245896109
30
0
41
1
10
62.0323347127052
20
3.38874938057609
30
0
41
1
10
62.4478939734086
20
3.23978918109756
30
0
41
1
10
62.7256510960203
20
3.1351147376312
30
0
41
1
10
63.074044048713
20
2.99785761191563
30
0
41
1
10
63.1437825421087
20
2.97008548687185
30
0
41
1
10
63.2833868469404
20
2.91390678086341
30
0
41
1
10
63.3531746617082
20
2.88553135268714
30
0
41
1
10
63.5622743427049
20
2.79966309456287
30
0
41
1
10
63.7014192889732
20
2.74138847101585
30
0
41
1
10
64.1182103830714
20
2.56368934770649
30
0
41
1
10
64.3952073681282
20
2.44137999690125
30
0
41
1
10
64.9481050762991
20
2.1902011938856
30
0
41
1
10
65.2239854769369
20
2.06129847425529
30
0
41
1
10
65.4995453192862
20
1.92953099437983
30
0
0
SPLINE
5
F6
100
AcDbEntity
8
1
62
256
6
ByLayer
370
18
48
1
60
0
100
AcDbSpline
70
4
71
3
72
41
73
37
40
0
40
0
40
0
40
0
40
0.0199004978047864
40
0.0199004978047864
40
0.0398009956095729
40
0.0398009956095729
40
0.0796019912191457
40
0.0796019912191457
40
0.159203982438293
40
0.159203982438293
40
0.199004978047868
40
0.199004978047868
40
0.218905475852655
40
0.218905475852655
40
0.238805973657443
40
0.238805973657443
40
0.318407964876592
40
0.318407964876592
40
0.398009956095742
40
0.398009956095742
40
0.477611947314891
40
0.477611947314891
40
0.55721393853404
40
0.55721393853404
40
0.597014934143616
40
0.597014934143616
40
0.636815929753192
40
0.636815929753192
40
0.796019912191498
40
0.796019912191498
40
0.955223894629804
40
0.955223894629804
40
0.975124392434591
40
0.975124392434591
40
0.995024890239379
40
1
40
1
40
1
40
1
41
1
10
65.4995453192982
20
2.00093071170474
30
0
41
1
10
65.6168717101961
20
1.94544510257282
30
0
41
1
10
65.7341939820543
20
1.88939853046025
30
0
41
1
10
65.9688715251481
20
1.77625303060762
30
0
41
1
10
66.0862178799417
20
1.71915794328405
30
0
41
1
10
66.4378171427294
20
1.54667445455468
30
0
41
1
10
66.6718127272203
20
1.42999929551217
30
0
41
1
10
67.3731028354823
20
1.07587235055138
30
0
41
1
10
67.8397022681694
20
0.834319913997803
30
0
41
1
10
68.5403062565781
20
0.467713982137695
30
0
41
1
10
68.7739602221264
20
0.344803214209691
30
0
41
1
10
69.1248605936939
20
0.159826852994883
30
0
41
1
10
69.241896991037
20
0.0980657945543726
30
0
41
1
10
69.4761492837452
20
-0.0255849804510433
30
0
41
1
10
69.5933963847294
20
-0.087491147871134
30
0
41
1
10
70.179857092506
20
-0.396976322403134
30
0
41
1
10
70.6460927338821
20
-0.6424644061496
30
0
41
1
10
71.5752767678972
20
-1.12451649412478
30
0
41
1
10
72.0382216289967
20
-1.3610833190935
30
0
41
1
10
72.9635153634883
20
-1.82040793281087
30
0
41
1
10
73.4258831673855
20
-2.04313661871487
30
0
41
1
10
74.3524773602415
20
-2.47041620312092
30
0
41
1
10
74.8167123921757
20
-2.67495057960724
30
0
41
1
10
75.5163991809405
20
-2.96468128116857
30
0
41
1
10
75.7502286274184
20
-3.05843463759447
30
0
41
1
10
76.2191454001144
20
-3.2395867312309
30
0
41
1
10
76.4528513489972
20
-3.32645058800961
30
0
41
1
10
77.6185031267742
20
-3.74133054447168
30
0
41
1
10
78.5419652350756
20
-4.0108073044035
30
0
41
1
10
80.3909945114362
20
-4.4069464823923
30
0
41
1
10
81.3167274885652
20
-4.53350065454205
30
0
41
1
10
82.3709684844397
20
-4.58628771576727
30
0
41
1
10
82.4881368870997
20
-4.5908994603885
30
0
41
1
10
82.7222016804302
20
-4.59760022261057
30
0
41
1
10
82.8683946992797
20
-4.60021535997313
30
0
41
1
10
83.0145002087889
20
-4.60086771503276
30
0
41
1
10
83.0437180831049
20
-4.60091972295331
30
0
0
SPLINE
5
F7
100
AcDbEntity
8
1
62
256
6
ByLayer
370
18
48
1
60
0
100
AcDbSpline
70
4
71
3
72
22
73
18
40
0
40
0
40
0
40
0
40
0.0225890801112017
40
0.0225890801112017
40
0.131190293432173
40
0.131190293432173
40
0.348392720074124
40
0.348392720074124
40
0.456993933395095
40
0.456993933395095
40
0.511294540055586
40
0.511294540055586
40
0.565595146716076
40
0.565595146716076
40
0.782797573358039
40
0.782797573358039
40
1
40
1
40
1
40
1
41
1
10
103.789830806973
20
3.39999904012757
30
0
41
1
10
103.838450671225
20
3.41776892513948
30
0
41
1
10
103.887084575873
20
3.43538418104473
30
0
41
1
10
104.169625901006
20
3.53677642399435
30
0
41
1
10
104.403205636059
20
3.61683766230496
30
0
41
1
10
105.103133604801
20
3.84471532714599
30
0
41
1
10
105.56886071428
20
3.98027713541495
30
0
41
1
10
106.268125898314
20
4.15716267246174
30
0
41
1
10
106.501320030791
20
4.21172251760356
30
0
41
1
10
106.851491906189
20
4.28673999266204
30
0
41
1
10
106.968279623513
20
4.3106083776868
30
0
41
1
10
107.202023094577
20
4.35603010176652
30
0
41
1
10
107.319008054678
20
4.37758709908118
30
0
41
1
10
107.903138865769
20
4.47926450690591
30
0
41
1
10
108.368903027178
20
4.54126136885097
30
0
41
1
10
109.300191626879
20
4.62552274662207
30
0
41
1
10
109.765725538841
20
4.64778437565397
30
0
41
1
10
110.232569052171
20
4.64980775804878
30
0
0
SPLINE
5
F8
100
AcDbEntity
8
1
62
256
6
ByLayer
370
18
48
1
60
0
100
AcDbSpline
70
4
71
3
72
46
73
42
40
0
40
0
40
0
40
0
40
0.0480039153585285
40
0.0480039153585285
40
0.0972892772556977
40
0.0972892772556977
40
0.195860001050034
40
0.195860001050034
40
0.220502681998618
40
0.220502681998618
40
0.245145362947202
40
0.245145362947202
40
0.294430724844368
40
0.294430724844368
40
0.3930014486387
40
0.3930014486387
40
0.491572172433032
40
0.491572172433032
40
0.590142896227364
40
0.590142896227364
40
0.639428258124529
40
0.639428258124529
40
0.664070939073113
40
0.664070939073113
40
0.676392279547405
40
0.676392279547405
40
0.688713620021698
40
0.688713620021698
40
0.787284343816032
40
0.787284343816032
40
0.8365697057132
40
0.8365697057132
40
0.885855067610368
40
0.885855067610368
40
0.935140429507536
40
0.935140429507536
40
0.959783110456122
40
0.959783110456122
40
0.984425791404707
40
0.984425791404707
40
1
40
1
40
1
40
1
41
1
10
69.8254309557639
20
0.299492027091503
30
0
41
1
10
70.0516027689107
20
0.184807309024222
30
0
41
1
10
70.2777850799329
20
0.0697514988560215
30
0
41
1
10
70.7365681455387
20
-0.163456763135059
30
0
41
1
10
70.969178957624
20
-0.281610195701887
30
0
41
1
10
71.6679539381161
20
-0.635423025390253
30
0
41
1
10
72.1350532522255
20
-0.870448854668979
30
0
41
1
10
72.7220319348912
20
-1.16005444241952
30
0
41
1
10
72.8396056487172
20
-1.21777622905773
30
0
41
1
10
73.075026666176
20
-1.33264688421283
30
0
41
1
10
73.1925619833975
20
-1.38964342433769
30
0
41
1
10
73.5447283446888
20
-1.55917518251655
30
0
41
1
10
73.778916993336
20
-1.67025616094065
30
0
41
1
10
74.4799716123137
20
-1.99714942504195
30
0
41
1
10
74.9453413541237
20
-2.2066067571744
30
0
41
1
10
75.8746886609527
20
-2.6044263317051
30
0
41
1
10
76.3386877782682
20
-2.79273939526752
30
0
41
1
10
77.2678061840594
20
-3.14417035914315
30
0
41
1
10
77.732906266204
20
-3.30734212459714
30
0
41
1
10
78.433121120233
20
-3.53063425737011
30
0
41
1
10
78.6669545529967
20
-3.60148159829029
30
0
41
1
10
79.0186252454197
20
-3.70192163322875
30
0
41
1
10
79.1360025936501
20
-3.73443398291263
30
0
41
1
10
79.3123324312558
20
-3.78173915281749
30
0
41
1
10
79.3711807973465
20
-3.7972697404567
30
0
41
1
10
79.4888206709897
20
-3.82779025786016
30
0
41
1
10
79.5475959649004
20
-3.84277610735043
30
0
41
1
10
80.0761756257201
20
-3.97514635057641
30
0
41
1
10
80.5432264684815
20
-4.07499341623722
30
0
41
1
10
81.2417605625768
20
-4.1975533966573
30
0
41
1
10
81.4742600115488
20
-4.2338755622682
30
0
41
1
10
81.9388111395661
20
-4.29721139381769
30
0
41
1
10
82.1708664960861
20
-4.32423583800016
30
0
41
1
10
82.6348720588134
20
-4.36895527866241
30
0
41
1
10
82.8668203439139
20
-4.38663993996857
30
0
41
1
10
83.2148969156582
20
-4.40596022474682
30
0
41
1
10
83.3309510614789
20
-4.41121233951446
30
0
41
1
10
83.5631810928035
20
-4.41944613007126
30
0
41
1
10
83.6793524120654
20
-4.42241121639816
30
0
41
1
10
83.8690347857868
20
-4.42525502869637
30
0
41
1
10
83.9425134546967
20
-4.42587192064275
30
0
41
1
10
84.016020588347
20
-4.42600538155807
30
0
0
SPLINE
5
F9
100
AcDbEntity
8
1
62
256
6
ByLayer
370
18
48
1
60
0
100
AcDbSpline
70
4
71
3
72
8
73
4
40
0
40
0
40
0
40
0
40
1
40
1
40
1
40
1
41
1
10
110.302145320035
20
4.45958588728209
30
0
41
1
10
110.280373352252
20
4.45840052030948
30
0
41
1
10
110.258607999837
20
4.45717285424553
30
0
41
1
10
110.236849141136
20
4.45590300907568
30
0
0
SPLINE
5
FA
100
AcDbEntity
8
1
62
256
6
ByLayer
370
18
48
1
60
0
100
AcDbSpline
70
4
71
3
72
46
73
42
40
0
40
0
40
0
40
0
40
0.0416687824788885
40
0.0416687824788885
40
0.0666800374200455
40
0.0666800374200455
40
0.0916912923612028
40
0.0916912923612028
40
0.141713802243514
40
0.141713802243514
40
0.191736312125826
40
0.191736312125826
40
0.241758822008138
40
0.241758822008138
40
0.341803841772761
40
0.341803841772761
40
0.354309469243339
40
0.354309469243339
40
0.366815096713917
40
0.366815096713917
40
0.391826351655073
40
0.391826351655073
40
0.441848861537385
40
0.441848861537385
40
0.541893881302008
40
0.541893881302008
40
0.641938901066632
40
0.641938901066632
40
0.741983920831256
40
0.741983920831256
40
0.792006430713568
40
0.792006430713568
40
0.817017685654724
40
0.817017685654724
40
0.842028940595879
40
0.842028940595879
40
0.942073960360501
40
0.942073960360501
40
0.99209647024281
40
0.99209647024281
40
1
40
1
40
1
40
1
41
1
10
84.3728561045117
20
-4.43237515133993
30
0
41
1
10
84.1787989319447
20
-4.43639829664605
30
0
41
1
10
83.9850009403698
20
-4.43706565107553
30
0
41
1
10
83.675135657924
20
-4.43273651001019
30
0
41
1
10
83.5589630020102
20
-4.42988774301818
30
0
41
1
10
83.3267326165112
20
-4.42188004714652
30
0
41
1
10
83.2106791615417
20
-4.41673768256271
30
0
41
1
10
82.8626029060962
20
-4.39773839641123
30
0
41
1
10
82.6306539301017
20
-4.38025646870602
30
0
41
1
10
82.1666477776805
20
-4.33591638574643
30
0
41
1
10
81.9345922632408
20
-4.3090685474474
30
0
41
1
10
81.4700381834997
20
-4.24606088810589
30
0
41
1
10
81.237536139324
20
-4.2098902424018
30
0
41
1
10
80.5389922525834
20
-4.08774252936487
30
0
41
1
10
80.0719303293757
20
-3.98811535765597
30
0
41
1
10
79.5433271731263
20
-3.85592797473026
30
0
41
1
10
79.4845491297601
20
-3.84096153949255
30
0
41
1
10
79.3669036745399
20
-3.81047767120947
30
0
41
1
10
79.3080521424718
20
-3.79496424928183
30
0
41
1
10
79.1317142652913
20
-3.74770738431866
30
0
41
1
10
79.0143326826331
20
-3.71522295837221
30
0
41
1
10
78.662649540347
20
-3.61485737395466
30
0
41
1
10
78.4288089669033
20
-3.54404626472081
30
0
41
1
10
77.7285776087172
20
-3.32081878338133
30
0
41
1
10
77.2634720672606
20
-3.15763254982409
30
0
41
1
10
76.334351355272
20
-2.80605985980637
30
0
41
1
10
75.87035570508
20
-2.61761681123028
30
0
41
1
10
74.9410048351401
20
-2.21942546150547
30
0
41
1
10
74.4756294375002
20
-2.00972712408691
30
0
41
1
10
73.7745588912248
20
-1.68238297828779
30
0
41
1
10
73.5403640494544
20
-1.57113604097134
30
0
41
1
10
73.1881847862691
20
-1.40133293021202
30
0
41
1
10
73.0706444863127
20
-1.34424237107129
30
0
41
1
10
72.835211930091
20
-1.22917668723201
30
0
41
1
10
72.7176322105428
20
-1.17135438904248
30
0
41
1
10
72.1306279872291
20
-0.881234957070973
30
0
41
1
10
71.6635170193802
20
-0.645756614626947
30
0
41
1
10
70.9647328998385
20
-0.291203486694712
30
0
41
1
10
70.7321206875106
20
-0.172792527531158
30
0
41
1
10
70.462985604064
20
-0.035678079507818
30
0
41
1
10
70.4262692955239
20
-0.0169700616856687
30
0
41
1
10
70.3895571798261
20
0.0017363097799432
30
0
0
SPLINE
5
FB
100
AcDbEntity
8
1
62
256
6
ByLayer
370
18
48
1
60
0
100
AcDbSpline
70
4
71
3
72
62
73
58
40
0
40
0
40
0
40
0
40
0.0091360938277104
40
0.0091360938277104
40
0.0259303973221577
40
0.0259303973221577
40
0.0595190043110521
40
0.0595190043110521
40
0.126696218288843
40
0.126696218288843
40
0.14349052178329
40
0.14349052178329
40
0.160284825277738
40
0.160284825277738
40
0.193873432266635
40
0.193873432266635
40
0.261050646244427
40
0.261050646244427
40
0.294639253233323
40
0.294639253233323
40
0.31143355672777
40
0.31143355672777
40
0.328227860222217
40
0.328227860222217
40
0.395405074200004
40
0.395405074200004
40
0.428993681188898
40
0.445787984683344
40
0.445787984683344
40
0.46258228817779
40
0.46258228817779
40
0.529759502155574
40
0.529759502155574
40
0.596936716133358
40
0.596936716133358
40
0.613731019627803
40
0.613731019627803
40
0.630525323122248
40
0.630525323122248
40
0.664113930111137
40
0.664113930111137
40
0.731291144088917
40
0.731291144088917
40
0.74808544758336
40
0.74808544758336
40
0.764879751077804
40
0.764879751077804
40
0.79846835806669
40
0.79846835806669
40
0.86564557204446
40
0.86564557204446
40
0.882439875538902
40
0.882439875538902
40
0.899234179033345
40
0.93282278602223
40
0.93282278602223
40
1
40
1
40
1
40
1
41
1
10
86.343811100217
20
-4.43807055587587
30
0
41
1
10
86.2804615836584
20
-4.44699525051425
30
0
41
1
10
86.2170899632987
20
-4.45556760009293
30
0
41
1
10
86.0371621327912
20
-4.47889450962961
30
0
41
1
10
85.9207052622129
20
-4.49278536489842
30
0
41
1
10
85.5715831347501
20
-4.53075922309992
30
0
41
1
10
85.3391084150333
20
-4.55114876044516
30
0
41
1
10
84.6420003131233
20
-4.59747046461777
30
0
41
1
10
84.1776944035712
20
-4.60854903459509
30
0
41
1
10
83.5961278930081
20
-4.59750159018972
30
0
41
1
10
83.4797585609365
20
-4.59404831875824
30
0
41
1
10
83.2469060208446
20
-4.58464290243293
30
0
41
1
10
83.1303714832856
20
-4.57868723398525
30
0
41
1
10
82.7808083188616
20
-4.5570926033258
30
0
41
1
10
82.5481069723068
20
-4.53774779206364
30
0
41
1
10
81.8505094806855
20
-4.46513275310855
30
0
41
1
10
81.3860742723017
20
-4.39730485683862
30
0
41
1
10
80.6885233381773
20
-4.26747633264148
30
0
41
1
10
80.455862463232
20
-4.2195131767626
30
0
41
1
10
80.106382876542
20
-4.14069709844389
30
0
41
1
10
79.9897496738586
20
-4.11326502450007
30
0
41
1
10
79.7566805875404
20
-4.05623947709381
30
0
41
1
10
79.6402247154215
20
-4.02664292545813
30
0
41
1
10
79.0582307093767
20
-3.87336258494105
30
0
41
1
10
78.5937137710571
20
-3.73361237186705
30
0
41
1
10
77.8963091960551
20
-3.50079167396086
30
0
41
1
10
77.5474475308273
20
-3.37859259099551
30
0
41
1
10
77.1980112606741
20
-3.24810388446991
30
0
41
1
10
76.9648881988023
20
-3.15931263306214
30
0
41
1
10
76.8482246581225
20
-3.11400899335314
30
0
41
1
10
76.265602929624
20
-2.8835879129675
30
0
41
1
10
75.8007771382487
20
-2.68642228081475
30
0
41
1
10
74.8708548413696
20
-2.27087343129597
30
0
41
1
10
74.4057641236325
20
-2.0524848155857
30
0
41
1
10
73.8225680670337
20
-1.76894969905902
30
0
41
1
10
73.7059091309825
20
-1.71174751501812
30
0
41
1
10
73.4728394039411
20
-1.596558954985
30
0
41
1
10
73.3563818588295
20
-1.53854924497412
30
0
41
1
10
73.0071949044521
20
-1.36335880519178
30
0
41
1
10
72.7746438014603
20
-1.24502924837043
30
0
41
1
10
72.0770371494964
20
-0.88667394326788
30
0
41
1
10
71.6120442036147
20
-0.643255294394294
30
0
41
1
10
71.0293282179972
20
-0.336273959923233
30
0
41
1
10
70.9126993117339
20
-0.274734329013427
30
0
41
1
10
70.6793138031755
20
-0.151471734809235
30
0
41
1
10
70.5626998901458
20
-0.0898237659563677
30
0
41
1
10
70.2130420235375
20
0.0950704144920849
30
0
41
1
10
69.9801770426498
20
0.218257255903268
30
0
41
1
10
69.2816886226717
20
0.586427320262487
30
0
41
1
10
68.8162003147278
20
0.830075555247362
30
0
41
1
10
68.2329982084219
20
1.12945546822101
30
0
41
1
10
68.1162537459936
20
1.18908824191101
30
0
41
1
10
67.8829828222795
20
1.30754515341224
30
0
41
1
10
67.5332759961256
20
1.48408310859972
30
0
41
1
10
67.1839764590909
20
1.65684325810179
30
0
41
1
10
66.48541810905
20
1.99645266628471
30
0
41
1
10
66.019752127372
20
2.21495324244759
30
0
41
1
10
65.5528737241731
20
2.4233832863714
30
0
0
SPLINE
5
FC
100
AcDbEntity
8
1
62
256
6
ByLayer
370
18
48
1
60
0
100
AcDbSpline
70
4
71
3
72
8
73
4
40
0
40
0
40
0
40
0
40
1
40
1
40
1
40
1
41
1
10
110.202943889954
20
-4.6194382836982
30
0
41
1
10
110.235970811348
20
-4.56639015048239
30
0
41
1
10
110.269036292779
20
-4.51310563092275
30
0
41
1
10
110.302145320035
20
-4.45958588728206
30
0
0
SPLINE
5
FD
100
AcDbEntity
8
1
62
256
6
ByLayer
370
18
48
1
60
0
100
AcDbSpline
70
4
71
3
72
80
73
76
40
0
40
0
40
0
40
0
40
0.0531957335182293
40
0.0531957335182293
40
0.0664946668977878
40
0.0664946668977878
40
0.0797936002773463
40
0.106391467036463
40
0.106391467036463
40
0.132989333795581
40
0.132989333795581
40
0.146288267175139
40
0.146288267175139
40
0.159587200554697
40
0.159587200554697
40
0.212782934072924
40
0.212782934072924
40
0.226081867452482
40
0.226081867452482
40
0.23938080083204
40
0.265978667591158
40
0.265978667591158
40
0.319174401109395
40
0.319174401109395
40
0.332473334488954
40
0.332473334488954
40
0.345772267868512
40
0.345772267868512
40
0.372370134627632
40
0.372370134627632
40
0.425565868145873
40
0.425565868145873
40
0.438864801525434
40
0.438864801525434
40
0.452163734904994
40
0.452163734904994
40
0.478761601664115
40
0.478761601664115
40
0.531957335182354
40
0.531957335182354
40
0.558555201941473
40
0.558555201941473
40
0.571854135321032
40
0.571854135321032
40
0.58515306870059
40
0.58515306870059
40
0.638348802218832
40
0.638348802218832
40
0.664946668977953
40
0.664946668977953
40
0.678245602357512
40
0.678245602357512
40
0.691544535737071
40
0.691544535737071
40
0.718142402496189
40
0.718142402496189
40
0.744740269255307
40
0.744740269255307
40
0.797936002773546
40
0.797936002773546
40
0.811234936153107
40
0.811234936153107
40
0.824533869532668
40
0.824533869532668
40
0.851131736291791
40
0.851131736291791
40
0.904327469810032
40
0.904327469810032
40
0.917626403189592
40
0.917626403189592
40
0.930925336569153
40
0.930925336569153
40
0.957523203328273
40
0.957523203328273
40
1
40
1
40
1
40
1
41
1
10
110.202943889953
20
-4.61943828371778
30
0
41
1
10
109.738564891974
20
-4.59009731662903
30
0
41
1
10
109.274433885591
20
-4.54083558494827
30
0
41
1
10
108.693062149911
20
-4.45498675717178
30
0
41
1
10
108.576725563807
20
-4.43660175704341
30
0
41
1
10
108.344228784994
20
-4.39747898894339
30
0
41
1
10
107.995621999754
20
-4.33524811059391
30
0
41
1
10
107.647257101706
20
-4.26250784825118
30
0
41
1
10
107.18266382172
20
-4.1564179558917
30
0
41
1
10
106.950312336748
20
-4.09882103367431
30
0
41
1
10
106.601405712186
20
-4.00583620170849
30
0
41
1
10
106.485043230206
20
-3.97374246922107
30
0
41
1
10
106.252535122252
20
-3.90744273493601
30
0
41
1
10
106.136346376526
20
-3.87322600257269
30
0
41
1
10
105.555495458574
20
-3.69705338716915
30
0
41
1
10
105.091129932479
20
-3.53982767716801
30
0
41
1
10
104.509567647056
20
-3.32468400589514
30
0
41
1
10
104.393205926346
20
-3.28072650027502
30
0
41
1
10
104.160738500036
20
-3.19116728514359
30
0
41
1
10
103.812267400424
20
-3.05430520019613
30
0
41
1
10
103.464278970475
20
-2.91018500428342
30
0
41
1
10
102.768442186754
20
-2.61303806153907
30
0
41
1
10
102.304745556797
20
-2.40305325724978
30
0
41
1
10
101.723750096975
20
-2.12820538054555
30
0
41
1
10
101.607482060821
20
-2.07261779793805
30
0
41
1
10
101.374761841234
20
-1.96027921246511
30
0
41
1
10
101.258417251311
20
-1.9035799031686
30
0
41
1
10
100.909692381928
20
-1.73217790024233
30
0
41
1
10
100.677482199312
20
-1.61610584067233
30
0
41
1
10
99.9812324100413
20
-1.26327418017411
30
0
41
1
10
99.5175589982425
20
-1.02192166453256
30
0
41
1
10
98.9368611361463
20
-0.715699290679339
30
0
41
1
10
98.8206674472542
20
-0.654226188316699
30
0
41
1
10
98.588134575697
20
-0.530890454464782
30
0
41
1
10
98.4717637490477
20
-0.469010968786961
30
0
41
1
10
98.1225832182706
20
-0.283001337704661
30
0
41
1
10
97.8901682060953
20
-0.158734795069932
30
0
41
1
10
97.1934627141258
20
0.21376087550081
30
0
41
1
10
96.7296852032501
20
0.461635912144118
30
0
41
1
10
96.0330602314368
20
0.829027232854656
30
0
41
1
10
95.8006941845382
20
0.950758263089739
30
0
41
1
10
95.4517239620705
20
1.13190877212398
30
0
41
1
10
95.3352688699131
20
1.19208143549017
30
0
41
1
10
95.1025099097961
20
1.3116461874516
30
0
41
1
10
94.9862127190895
20
1.37103646406871
30
0
41
1
10
94.4050316879852
20
1.66584491149959
30
0
41
1
10
93.941055296371
20
1.89481931731595
30
0
41
1
10
93.2445536975484
20
2.22459707577872
30
0
41
1
10
93.012299401831
20
2.33224708937058
30
0
41
1
10
92.6635600505776
20
2.48992232896211
30
0
41
1
10
92.5472535845862
20
2.54184676770291
30
0
41
1
10
92.3144724969498
20
2.64434714800686
30
0
41
1
10
92.1979585037051
20
2.69493922022045
30
0
41
1
10
91.848796433975
20
2.84428016079832
30
0
41
1
10
91.6163269571764
20
2.94069152807381
30
0
41
1
10
91.151739143506
20
3.12687344679029
30
0
41
1
10
90.9196161995065
20
3.21663427979101
30
0
41
1
10
90.223114368329
20
3.47506708711896
30
0
41
1
10
89.7586143460312
20
3.63291601124595
30
0
41
1
10
89.176237362783
20
3.81020471468654
30
0
41
1
10
89.0597085361967
20
3.84465148223399
30
0
41
1
10
88.8269423538346
20
3.91138655100926
30
0
41
1
10
88.7106454291353
20
3.94368955232218
30
0
41
1
10
88.3619075804596
20
4.03730890317522
30
0
41
1
10
88.1296302568954
20
4.0953467767954
30
0
41
1
10
87.4329273518582
20
4.25593231768326
30
0
41
1
10
86.9686062574492
20
4.34492556036588
30
0
41
1
10
86.3866865411579
20
4.43237551739873
30
0
41
1
10
86.2702293361278
20
4.44867829709113
30
0
41
1
10
86.0371621327913
20
4.47889450962961
30
0
41
1
10
85.9207052622129
20
4.49278536489842
30
0
41
1
10
85.5715831347501
20
4.53075922309989
30
0
41
1
10
85.3391084150333
20
4.55114876044516
30
0
41
1
10
84.7356451379413
20
4.59124791769767
30
0
41
1
10
84.3648271984261
20
4.60328034411205
30
0
41
1
10
83.993582572858
20
4.60262858812524
30
0
0
SPLINE
5
FE
100
AcDbEntity
8
1
62
256
6
ByLayer
370
18
48
1
60
0
100
AcDbSpline
70
4
71
3
72
35
73
31
40
0
40
0
40
0
40
0
40
0.0543238636785521
40
0.0543238636785521
40
0.159398989936504
40
0.159398989936504
40
0.264474116194455
40
0.264474116194455
40
0.369549242452407
40
0.369549242452407
40
0.422086805581385
40
0.435221196363628
40
0.435221196363628
40
0.448355587145872
40
0.448355587145872
40
0.474624368710353
40
0.474624368710353
40
0.579699494968285
40
0.579699494968285
40
0.684774621226216
40
0.684774621226216
40
0.711043402790699
40
0.711043402790699
40
0.737312184355182
40
0.737312184355182
40
0.789849747484147
40
0.789849747484147
40
0.894924873742074
40
0.894924873742074
40
1
40
1
40
1
40
1
41
1
10
97.0814677560196
20
0.274105092593828
30
0
41
1
10
97.3211124476839
20
0.15116506072863
30
0
41
1
10
97.5602665851101
20
0.0281064759616072
30
0
41
1
10
98.2610965730196
20
-0.332260157138165
30
0
41
1
10
98.7219636789598
20
-0.568795080241614
30
0
41
1
10
99.6437110409678
20
-1.03541429779347
30
0
41
1
10
100.104567037767
20
-1.26554314771559
30
0
41
1
10
101.028834840323
20
-1.7143202315772
30
0
41
1
10
101.492184637079
20
-1.93309070777045
30
0
41
1
10
102.190873675855
20
-2.24920772687784
30
0
41
1
10
102.48276690567
20
-2.37839684893075
30
0
41
1
10
102.775879571168
20
-2.50393211830939
30
0
41
1
10
102.8932275238
20
-2.55384341149031
30
0
41
1
10
102.95197559901
20
-2.57865703928079
30
0
41
1
10
103.12797280279
20
-2.65245785417625
30
0
41
1
10
103.245094099779
20
-2.70085537927471
30
0
41
1
10
103.829751249041
20
-2.93871204581095
30
0
41
1
10
104.294449836137
20
-3.11588748800165
30
0
41
1
10
105.220386949091
20
-3.44113814223795
30
0
41
1
10
105.681604106533
20
-3.58915553538799
30
0
41
1
10
106.257357490534
20
-3.75413269949846
30
0
41
1
10
106.372481981131
20
-3.78614085395606
30
0
41
1
10
106.602741059061
20
-3.84817958832971
30
0
41
1
10
106.717865388502
20
-3.87819984968522
30
0
41
1
10
107.063216669933
20
-3.96515181815076
30
0
41
1
10
107.293441911378
20
-4.01899167524155
30
0
41
1
10
107.984634412584
20
-4.16771297345994
30
0
41
1
10
108.446107473405
20
-4.24979952559772
30
0
41
1
10
109.372746849484
20
-4.37731886943055
30
0
41
1
10
109.837912950161
20
-4.42276033893299
30
0
41
1
10
110.306129926809
20
-4.44869422143736
30
0
0
SPLINE
5
FF
100
AcDbEntity
8
1
62
256
6
ByLayer
370
18
48
1
60
0
100
AcDbSpline
70
4
71
3
72
36
73
32
40
0
40
0
40
0
40
0
40
0.109039365087095
40
0.109039365087095
40
0.21807873017419
40
0.21807873017419
40
0.27259841271774
40
0.27259841271774
40
0.299858253989513
40
0.299858253989513
40
0.327118095261285
40
0.327118095261285
40
0.436157460348375
40
0.436157460348375
40
0.545196825435466
40
0.545196825435466
40
0.572456666707241
40
0.572456666707241
40
0.586086587343125
40
0.586086587343125
40
0.59971650797901
40
0.59971650797901
40
0.65423619052256
40
0.65423619052256
40
0.763275555609656
40
0.763275555609656
40
0.872314920696751
40
0.872314920696751
40
0.981354285783847
40
0.981354285783847
40
1
40
1
40
1
40
1
41
1
10
110.302145320053
20
-4.45958588728305
30
0
41
1
10
109.833930292113
20
-4.43409408811675
30
0
41
1
10
109.368774756667
20
-4.3890396981993
30
0
41
1
10
108.442162729417
20
-4.26219245707506
30
0
41
1
10
107.980706622655
20
-4.18039083032659
30
0
41
1
10
107.289541543517
20
-4.03201860653078
30
0
41
1
10
107.059325761887
20
-3.97828200326842
30
0
41
1
10
106.713988338239
20
-3.89146543618619
30
0
41
1
10
106.598868527915
20
-3.8614871904488
30
0
41
1
10
106.368619698906
20
-3.79952340316427
30
0
41
1
10
106.253501033115
20
-3.76754794556228
30
0
41
1
10
105.677773344851
20
-3.60271906521425
30
0
41
1
10
105.216568442303
20
-3.45476815057199
30
0
41
1
10
104.290642963139
20
-3.12952917517467
30
0
41
1
10
103.825944936012
20
-2.95229749605579
30
0
41
1
10
103.241273406633
20
-2.71428778989423
30
0
41
1
10
103.124148307794
20
-2.6658557557873
30
0
41
1
10
102.948143989028
20
-2.59199702754373
30
0
41
1
10
102.889392820533
20
-2.56716286121394
30
0
41
1
10
102.772038107921
20
-2.51720848074555
30
0
41
1
10
102.713412354548
20
-2.49207913605238
30
0
41
1
10
102.420528532843
20
-2.36569726127726
30
0
41
1
10
102.187004742415
20
-2.26224052467703
30
0
41
1
10
101.488295220981
20
-1.94576942926582
30
0
41
1
10
101.024942534612
20
-1.7267102293024
30
0
41
1
10
100.100679045219
20
-1.27725873668408
30
0
41
1
10
99.6398288586348
20
-1.04674692650863
30
0
41
1
10
98.718095320955
20
-0.579269318691246
30
0
41
1
10
98.257238010835
20
-0.342255767561682
30
0
41
1
10
97.7162612432458
20
-0.0634723228136238
30
0
41
1
10
97.6372291151039
20
-0.0227339816607071
30
0
41
1
10
97.5581564994577
20
0.0180191271951173
30
0
0
SPLINE
5
100
100
AcDbEntity
8
1
62
256
6
ByLayer
370
18
48
1
60
0
100
AcDbSpline
70
4
71
3
72
10
73
6
40
0
40
0
40
0
40
0
40
0.5
40
0.5
40
1
40
1
40
1
40
1
41
1
10
110.302145320035
20
-4.45958588728209
30
0
41
1
10
110.302816943932
20
-4.45850022751577
30
0
41
1
10
110.303499454867
20
-4.45735319777228
30
0
41
1
10
110.304830662659
20
-4.45500023743242
30
0
41
1
10
110.305470362259
20
-4.45380635424164
30
0
41
1
10
110.305991425749
20
-4.45275351385547
30
0
0
SPLINE
5
101
100
AcDbEntity
8
1
62
256
6
ByLayer
370
18
48
1
60
0
100
AcDbSpline
70
4
71
3
72
10
73
6
40
0
40
0
40
0
40
0
40
0.5
40
0.5
40
1
40
1
40
1
40
1
41
1
10
110.306129925712
20
-4.44869422137663
30
0
41
1
10
110.306316241038
20
-4.44885341819679
30
0
41
1
10
110.306418281924
20
-4.44924460841725
30
0
41
1
10
110.306393164452
20
-4.45059248404346
30
0
41
1
10
110.306258925182
20
-4.45155939113027
30
0
41
1
10
110.305991425749
20
-4.45275351385544
30
0
0
SPLINE
5
102
100
AcDbEntity
8
1
62
256
6
ByLayer
370
18
48
1
60
0
100
AcDbSpline
70
4
71
3
72
55
73
51
40
0
40
0
40
0
40
0
40
0.0980055881448082
40
0.0980055881448082
40
0.196011176289616
40
0.196011176289616
40
0.245013970362017
40
0.245013970362017
40
0.269515367398216
40
0.269515367398216
40
0.294016764434414
40
0.294016764434414
40
0.343019558506811
40
0.343019558506811
40
0.392022352579207
40
0.392022352579207
40
0.441025146651604
40
0.441025146651604
40
0.490027940724002
40
0.490027940724002
40
0.502278639242101
40
0.502278639242101
40
0.5145293377602
40
0.5145293377602
40
0.539030734796398
40
0.5880335288688
40
0.5880335288688
40
0.637036322941201
40
0.637036322941201
40
0.686039117013603
40
0.686039117013603
40
0.735041911086004
40
0.735041911086004
40
0.784044705158405
40
0.784044705158405
40
0.833047499230807
40
0.833047499230807
40
0.857548896267007
40
0.857548896267007
40
0.882050293303208
40
0.882050293303208
40
0.931053087375605
40
0.931053087375605
40
0.955554484411803
40
0.955554484411803
40
0.967805182929903
40
0.967805182929903
40
0.980055881448002
40
0.980055881448002
40
1
40
1
40
1
40
1
41
1
10
110.273664871564
20
-0.306167848222827
30
0
41
1
10
109.807422181605
20
-0.0641007026842715
30
0
41
1
10
109.343608911131
20
0.176700893278735
30
0
41
1
10
108.418722706103
20
0.651795966876563
30
0
41
1
10
107.957641540167
20
0.886082380024277
30
0
41
1
10
107.267099114447
20
1.23011413596566
30
0
41
1
10
107.037098076261
20
1.34356278911437
30
0
41
1
10
106.692237685745
20
1.51149732702353
30
0
41
1
10
106.577307833323
20
1.56710312011433
30
0
41
1
10
106.347472372742
20
1.67749272004895
30
0
41
1
10
106.232577352697
20
1.73228011761782
30
0
41
1
10
105.887733758852
20
1.89522155405373
30
0
41
1
10
105.657545889755
20
2.00191435499696
30
0
41
1
10
105.196391048897
20
2.21096601830771
30
0
41
1
10
104.965434764456
20
2.31333017605485
30
0
41
1
10
104.502634481956
20
2.51330043990345
30
0
41
1
10
104.270796281617
20
2.61092697676506
30
0
41
1
10
103.806027921436
20
2.80072074302328
30
0
41
1
10
103.573116259331
20
2.89285799054286
30
0
41
1
10
103.280973205824
20
3.00432195199605
30
0
41
1
10
103.222493884642
20
3.02642966301701
30
0
41
1
10
103.105425993615
20
3.07026779529048
30
0
41
1
10
103.046815655803
20
3.09200595955448
30
0
41
1
10
102.871158431565
20
3.15651466585842
30
0
41
1
10
102.520262707976
20
3.28281459684413
30
0
41
1
10
102.170568359889
20
3.40072649595322
30
0
41
1
10
101.70527969719
20
3.55009139688931
30
0
41
1
10
101.473120582801
20
3.62086885157521
30
0
41
1
10
101.009681580274
20
3.75390459413839
30
0
41
1
10
100.778450898186
20
3.81607938250804
30
0
41
1
10
100.316005092705
20
3.93243307916626
30
0
41
1
10
100.084718271266
20
3.98670904045326
30
0
41
1
10
99.6221046762542
20
4.08667761845655
30
0
41
1
10
99.3908178169994
20
4.13231853762014
30
0
41
1
10
98.9279642116652
20
4.21467321881536
30
0
41
1
10
98.6963703858566
20
4.25145776160758
30
0
41
1
10
98.3487395757494
20
4.2990569237395
30
0
41
1
10
98.2328388159848
20
4.31361052539415
30
0
41
1
10
98.0008375053468
20
4.34039123017223
30
0
41
1
10
97.8847167592211
20
4.3526705229699
30
0
41
1
10
97.5358918722262
20
4.38638028598413
30
0
41
1
10
97.3027471884656
20
4.40469648796611
30
0
41
1
10
96.9520323963594
20
4.42528439681158
30
0
41
1
10
96.834961218776
20
4.43099558839577
30
0
41
1
10
96.6590916125796
20
4.43774230041697
30
0
41
1
10
96.6004051555093
20
4.43968809488371
30
0
41
1
10
96.4831775623039
20
4.44295170394179
30
0
41
1
10
96.4246109646365
20
4.44427069933028
30
0
41
1
10
96.2708240448013
20
4.44690183872771
30
0
41
1
10
96.1756827342503
20
4.44769452297834
30
0
41
1
10
96.0806724006111
20
4.44761012296505
30
0
0
SPLINE
5
103
100
AcDbEntity
8
1
62
256
6
ByLayer
370
18
48
1
60
0
100
AcDbSpline
70
4
71
3
72
8
73
4
40
0
40
0
40
0
40
0
40
1
40
1
40
1
40
1
41
1
10
110.27147193347
20
-0.294497133658894
30
0
41
1
10
110.273376347831
20
-0.29512903898717
30
0
41
1
10
110.274365562553
20
-0.30036194243695
30
0
41
1
10
110.273664871552
20
-0.306167848217029
30
0
0
SPLINE
5
104
100
AcDbEntity
8
1
62
256
6
ByLayer
370
18
48
1
60
0
100
AcDbSpline
70
4
71
3
72
55
73
51
40
0
40
0
40
0
40
0
40
0.041990028478872
40
0.041990028478872
40
0.054427839680626
40
0.054427839680626
40
0.0668656508823799
40
0.0668656508823799
40
0.0917412732858882
40
0.0917412732858882
40
0.141492518092904
40
0.141492518092904
40
0.166368140496414
40
0.166368140496414
40
0.191243762899925
40
0.191243762899925
40
0.24099500770695
40
0.24099500770695
40
0.290746252513976
40
0.290746252513976
40
0.340497497321001
40
0.340497497321001
40
0.390248742128027
40
0.390248742128027
40
0.439999986935052
40
0.439999986935052
40
0.489751231742077
40
0.514626854145588
40
0.514626854145588
40
0.527064665347345
40
0.527064665347345
40
0.539502476549103
40
0.539502476549103
40
0.589253721356142
40
0.589253721356142
40
0.639004966163181
40
0.639004966163181
40
0.688756210970221
40
0.688756210970221
40
0.73850745577726
40
0.73850745577726
40
0.76338307818078
40
0.76338307818078
40
0.7882587005843
40
0.7882587005843
40
0.838009945391339
40
0.838009945391339
40
0.937512435005418
40
0.937512435005418
40
1
40
1
40
1
40
1
41
1
10
95.776141120417
20
4.45384207576734
30
0
41
1
10
95.9725258490823
20
4.45827367935601
30
0
41
1
10
96.1694933137188
20
4.45874150266931
30
0
41
1
10
96.425513479455
20
4.45467115046512
30
0
41
1
10
96.4840670988852
20
4.45342256978506
30
0
41
1
10
96.601268964263
20
4.4502984845679
30
0
41
1
10
96.659944159731
20
4.44842179034765
30
0
41
1
10
96.8357864830654
20
4.44187962424152
30
0
41
1
10
96.9528385653284
20
4.43630156933443
30
0
41
1
10
97.303493056092
20
4.41610317497234
30
0
41
1
10
97.5365930428003
20
4.39803242453098
30
0
41
1
10
97.8853452691876
20
4.36467339376054
30
0
41
1
10
98.001440919276
20
4.35250765419269
30
0
41
1
10
98.2333923294678
20
4.32595546989648
30
0
41
1
10
98.34926884411
20
4.31151852627141
30
0
41
1
10
98.696826118691
20
4.26425739316872
30
0
41
1
10
98.9283688626365
20
4.22768046043663
30
0
41
1
10
99.3911163871306
20
4.14571332372114
30
0
41
1
10
99.6223489688546
20
4.1002554035006
30
0
41
1
10
100.084852141894
20
4.00062495440989
30
0
41
1
10
100.31608235633
20
3.94650017943542
30
0
41
1
10
100.778411491625
20
3.83042502799034
30
0
41
1
10
101.009583085001
20
3.76838450680052
30
0
41
1
10
101.472905775434
20
3.63559427133944
30
0
41
1
10
101.705006790044
20
3.56492276282893
30
0
41
1
10
102.17018043547
20
3.41573796228116
30
0
41
1
10
102.519789751565
20
3.29793862739254
30
0
41
1
10
102.870602132699
20
3.17171509319667
30
0
41
1
10
103.046217958705
20
3.10723832442443
30
0
41
1
10
103.104816958023
20
3.08550887682631
30
0
41
1
10
103.221867474102
20
3.04168401950176
30
0
41
1
10
103.280337817226
20
3.01958195018162
30
0
41
1
10
103.572435354648
20
2.90814355737922
30
0
41
1
10
103.805308878734
20
2.81601864799782
30
0
41
1
10
104.269997525499
20
2.62622151207432
30
0
41
1
10
104.501792460575
20
2.52857516489519
30
0
41
1
10
104.964501120595
20
2.32853393763438
30
0
41
1
10
105.195409473292
20
2.22611961227059
30
0
41
1
10
105.656463898699
20
2.01693801499633
30
0
41
1
10
105.886598808734
20
1.91016322458646
30
0
41
1
10
106.231360870792
20
1.74708375055653
30
0
41
1
10
106.346228947637
20
1.69225008714793
30
0
41
1
10
106.576009966101
20
1.58175962781363
30
0
41
1
10
106.69091215897
20
1.52609875159607
30
0
41
1
10
107.035689366719
20
1.357987647877
30
0
41
1
10
107.265634502615
20
1.24440580644099
30
0
41
1
10
107.956007964926
20
0.899928688885808
30
0
41
1
10
108.41697605041
20
0.665287737059714
30
0
41
1
10
109.169649681856
20
0.277887608586013
30
0
41
1
10
109.460533670589
20
0.12714299880011
30
0
41
1
10
109.752221468175
20
-0.0244147472836573
30
0
0
SPLINE
5
105
100
AcDbEntity
8
1
62
256
6
ByLayer
370
18
48
1
60
0
100
AcDbSpline
70
4
71
3
72
8
73
4
40
0
40
0
40
0
40
0
40
1
40
1
40
1
40
1
41
1
10
110.213214553339
20
-0.274036337267915
30
0
41
1
10
110.232623223516
20
-0.281229888036535
30
0
41
1
10
110.252039794083
20
-0.288049339171778
30
0
41
1
10
110.27147193347
20
-0.294497133658894
30
0
0
SPLINE
5
106
100
AcDbEntity
8
1
62
256
6
ByLayer
370
18
48
1
60
0
100
AcDbSpline
70
4
71
3
72
16
73
12
40
0
40
0
40
0
40
0
40
0.429184565489397
40
0.429184565489397
40
0.536480706861746
40
0.536480706861746
40
0.643776848234095
40
0.643776848234095
40
0.858369130978794
40
0.858369130978794
40
1
40
1
40
1
40
1
41
1
10
65.6465249635511
20
-4.2506232740609
30
0
41
1
10
66.1116708584742
20
-4.3422663357546
30
0
41
1
10
66.5768435188645
20
-4.41450646678754
30
0
41
1
10
67.1590609228788
20
-4.48077496291404
30
0
41
1
10
67.2755394541644
20
-4.49282439700494
30
0
41
1
10
67.5085584902079
20
-4.51450988343271
30
0
41
1
10
67.6251440690873
20
-4.52414913800709
30
0
41
1
10
67.9744735906449
20
-4.54937740936131
30
0
41
1
10
68.2069224704948
20
-4.56126960715307
30
0
41
1
10
68.5926622888119
20
-4.57277196218934
30
0
41
1
10
68.7459836680603
20
-4.57519070599227
30
0
41
1
10
68.8992840416065
20
-4.57546028276226
30
0
0
SPLINE
5
107
100
AcDbEntity
8
1
62
256
6
ByLayer
370
18
48
1
60
0
100
AcDbSpline
70
4
71
3
72
61
73
57
40
0
40
0
40
0
40
0
40
0.0313750031448305
40
0.0313750031448305
40
0.0734891334428759
40
0.0734891334428759
40
0.0945461985918983
40
0.0945461985918983
40
0.115603263740921
40
0.115603263740921
40
0.157717394038967
40
0.157717394038967
40
0.199831524337012
40
0.199831524337012
40
0.241945654635057
40
0.241945654635057
40
0.26300271978408
40
0.26300271978408
40
0.284059784933102
40
0.284059784933102
40
0.326173915231151
40
0.326173915231151
40
0.368288045529201
40
0.368288045529201
40
0.41040217582725
40
0.41040217582725
40
0.452516306125299
40
0.452516306125299
40
0.473573371274322
40
0.473573371274322
40
0.494630436423344
40
0.494630436423344
40
0.578858697019446
40
0.578858697019446
40
0.620972827317499
40
0.620972827317499
40
0.642029892466526
40
0.642029892466526
40
0.663086957615552
40
0.663086957615552
40
0.705201087913601
40
0.705201087913601
40
0.747315218211651
40
0.747315218211651
40
0.768372283360677
40
0.768372283360677
40
0.789429348509704
40
0.789429348509704
40
0.83154347880776
40
0.83154347880776
40
0.852600543956791
40
0.852600543956791
40
0.873657609105821
40
0.915771739403882
40
0.915771739403882
40
1
40
1
40
1
40
1
41
1
10
93.7002971619026
20
4.44336262827218
30
0
41
1
10
93.8730871966215
20
4.46882440539093
30
0
41
1
10
94.0458785752565
20
4.49165037680359
30
0
41
1
10
94.4506350326438
20
4.53891501457886
30
0
41
1
10
94.6826102037386
20
4.56122954364122
30
0
41
1
10
95.0307196823266
20
4.5873797270477
30
0
41
1
10
95.1467770712348
20
4.59487640221258
30
0
41
1
10
95.3789452270249
20
4.60739100613165
30
0
41
1
10
95.4948949317212
20
4.61239090758869
30
0
41
1
10
95.8428214841246
20
4.62358323679876
30
0
41
1
10
96.0747976892961
20
4.62600258020981
30
0
41
1
10
96.5386875153525
20
4.62098829604949
30
0
41
1
10
96.7706030566602
20
4.61355182937379
30
0
41
1
10
97.2343618328209
20
4.58882601232466
30
0
41
1
10
97.4662038398719
20
4.57153365774312
30
0
41
1
10
97.8139897784936
20
4.53809915127474
30
0
41
1
10
97.9299234311995
20
4.52570385903789
30
0
41
1
10
98.1618544539081
20
4.49840335962153
30
0
41
1
10
98.2779212352244
20
4.4834941473456
30
0
41
1
10
98.6262373619061
20
4.43524927043387
30
0
41
1
10
98.8583480378826
20
4.39841681053926
30
0
41
1
10
99.3221695512334
20
4.31545582960365
30
0
41
1
10
99.5539025721218
20
4.26932804053752
30
0
41
1
10
100.01738443558
20
4.16807257242354
30
0
41
1
10
100.249109332479
20
4.11293703167485
30
0
41
1
10
100.712430410469
20
3.99346279330243
30
0
41
1
10
100.944076271787
20
3.92914401446262
30
0
41
1
10
101.292280010155
20
3.82649751715576
30
0
41
1
10
101.408515440368
20
3.79123208028267
30
0
41
1
10
101.640790284756
20
3.71878495522355
30
0
41
1
10
101.756864527538
20
3.68159389983191
30
0
41
1
10
102.33696117035
20
3.4908747758783
30
0
41
1
10
102.800120919485
20
3.3230466865237
30
0
41
1
10
103.494542167289
20
3.04961761194264
30
0
41
1
10
103.726006753989
20
2.95490049011082
30
0
41
1
10
104.073855819486
20
2.8084179141562
30
0
41
1
10
104.189906238572
20
2.75884692133425
30
0
41
1
10
104.42221095788
20
2.6582238672718
30
0
41
1
10
104.538462860085
20
2.60717183360936
30
0
41
1
10
104.886803048609
20
2.45214570585378
30
0
41
1
10
105.118719394954
20
2.34619367403815
30
0
41
1
10
105.582037479432
20
2.12926548018092
30
0
41
1
10
105.813437363348
20
2.01828533533697
30
0
41
1
10
106.160293537431
20
1.84825019259696
30
0
41
1
10
106.27588188993
20
1.79099393135948
30
0
41
1
10
106.507210690477
20
1.67569421273709
30
0
41
1
10
106.622944053605
20
1.61763948849051
30
0
41
1
10
106.970362243067
20
1.4422879749915
30
0
41
1
10
107.202263597246
20
1.32380214728622
30
0
41
1
10
107.550662953307
20
1.14389841371414
30
0
41
1
10
107.666891100979
20
1.0835669142181
30
0
41
1
10
107.899048013629
20
0.962485717344663
30
0
41
1
10
108.247025067709
20
0.78014010353661
30
0
41
1
10
108.594338566874
20
0.595831145814657
30
0
41
1
10
109.288439477325
20
0.225259661555299
30
0
41
1
10
109.750478604024
20
-0.0243815400668268
30
0
41
1
10
110.213214553338
20
-0.274036337268569
30
0
0
SPLINE
5
108
100
AcDbEntity
8
1
62
256
6
ByLayer
370
18
48
1
60
0
100
AcDbSpline
70
4
71
3
72
70
73
66
40
0
40
0
40
0
40
0
40
0.0180915144533908
40
0.0180915144533908
40
0.0364086083836854
40
0.0364086083836854
40
0.0547257023139799
40
0.0547257023139799
40
0.0730427962442745
40
0.0730427962442745
40
0.091359890174569
40
0.091359890174569
40
0.0959391636571426
40
0.0982288003984294
40
0.0993736187690729
40
0.0996598233617337
40
0.0996598233617337
40
0.0999460279543945
40
0.0999460279543945
40
0.100232232547055
40
0.100232232547055
40
0.100518437139716
40
0.100518437139716
40
0.102808073881003
40
0.102808073881003
40
0.105097710622289
40
0.105097710622289
40
0.109676984104863
40
0.109676984104863
40
0.127994078035155
40
0.127994078035155
40
0.164628265895741
40
0.164628265895741
40
0.237896641616912
40
0.237896641616912
40
0.384433393059255
40
0.384433393059255
40
0.457701768780427
40
0.457701768780427
40
0.494335956641012
40
0.494335956641012
40
0.512653050571305
40
0.512653050571305
40
0.521811597536451
40
0.521811597536451
40
0.524101234277738
40
0.524101234277738
40
0.526390871019025
40
0.526390871019025
40
0.526677075611686
40
0.526677075611686
40
0.526820177908016
40
0.526820177908016
40
0.526963280204346
40
0.526963280204346
40
0.527249484797007
40
0.527249484797007
40
0.527535689389668
40
0.528680507760312
40
0.530970144501599
40
0.677506895943956
40
0.677506895943956
40
0.824043647386314
40
0.824043647386314
40
1
40
1
40
1
40
1
41
1
10
12.2183320509864
20
1.37709604077813
30
0
41
1
10
12.1819792287673
20
1.39072993856891
30
0
41
1
10
12.1442582645882
20
1.40086588553751
30
0
41
1
10
12.0664249596918
20
1.41399427040878
30
0
41
1
10
12.0266088871352
20
1.41673711669307
30
0
41
1
10
11.9441128038181
20
1.41530079688135
30
0
41
1
10
11.9007113120604
20
1.41148322237248
30
0
41
1
10
11.8105683513523
20
1.39719791751236
30
0
41
1
10
11.7640730055624
20
1.38660660120027
30
0
41
1
10
11.6670349890157
20
1.35901309519286
30
0
41
1
10
11.6163907233449
20
1.34200286558163
30
0
41
1
10
11.5511820486789
20
1.31649386236254
30
0
41
1
10
11.5314900735271
20
1.30852861472636
30
0
41
1
10
11.5083099189144
20
1.29868364141061
30
0
41
1
10
11.4975020917203
20
1.29398398293722
30
0
41
1
10
11.4933380992003
20
1.29215573533833
30
0
41
1
10
11.4916719335377
20
1.29142277983749
30
0
41
1
10
11.4900430884919
20
1.291245998498
30
0
41
1
10
11.4914995705463
20
1.28958484596916
30
0
41
1
10
11.4929911741444
20
1.28874330882715
30
0
41
1
10
11.495680084761
20
1.28712354267637
30
0
41
1
10
11.4970747660069
20
1.28632778209783
30
0
41
1
10
11.5097691282708
20
1.27920568883235
30
0
41
1
10
11.5217566402042
20
1.27308790579227
30
0
41
1
10
11.5455448285119
20
1.26082409458499
30
0
41
1
10
11.5575142628585
20
1.25471838888612
30
0
41
1
10
11.5934884716278
20
1.23642517548095
30
0
41
1
10
11.6175697357969
20
1.22426279969972
30
0
41
1
10
11.7381278811035
20
1.16346665220326
30
0
41
1
10
11.835043351432
20
1.11487353596644
30
0
41
1
10
12.1258943771976
20
0.968672750396252
30
0
41
1
10
12.3201004740146
20
0.870687123936733
30
0
41
1
10
12.9026874379984
20
0.574601650607235
30
0
41
1
10
13.29110619031
20
0.37456202457679
30
0
41
1
10
14.4557042765853
20
-0.234018012548091
30
0
41
1
10
15.2311520260739
20
-0.651591899389217
30
0
41
1
10
16.3939967081648
20
-1.2934265062278
30
0
41
1
10
16.7814694340498
20
-1.50983610621665
30
0
41
1
10
17.3621320889413
20
-1.83867961565357
30
0
41
1
10
17.5556297365115
20
-1.94893519785981
30
0
41
1
10
17.8454366380594
20
-2.11580743611512
30
0
41
1
10
17.9419821175387
20
-2.17165225920337
30
0
41
1
10
18.0863456354172
20
-2.25642418100853
30
0
41
1
10
18.1344301347338
20
-2.28478495140334
30
0
41
1
10
18.194103600657
20
-2.32103085676366
30
0
41
1
10
18.2060169949925
20
-2.32832258769901
30
0
41
1
10
18.2296942527027
20
-2.34315496842316
30
0
41
1
10
18.2416243574796
20
-2.35042255017021
30
0
41
1
10
18.2542390334001
20
-2.35992388679551
30
0
41
1
10
18.2556242490272
20
-2.36100118100114
30
0
41
1
10
18.2575869068512
20
-2.36276035995306
30
0
41
1
10
18.258234634583
20
-2.36336770496118
30
0
41
1
10
18.2593361993709
20
-2.36476357393758
30
0
41
1
10
18.2595508892634
20
-2.36592261548987
30
0
41
1
10
18.2570884916328
20
-2.36682553237904
30
0
41
1
10
18.2552883967687
20
-2.36681829222658
30
0
41
1
10
18.2518305545105
20
-2.36732646126936
30
0
41
1
10
18.2431860334593
20
-2.3685967670277
30
0
41
1
10
18.220711379549
20
-2.37189804213026
30
0
41
1
10
17.3149150997168
20
-2.50481790720167
30
0
41
1
10
16.4207095450753
20
-2.63034453286448
30
0
41
1
10
14.6702875529055
20
-2.86250001853804
30
0
41
1
10
13.7995458218628
20
-2.97115385732957
30
0
41
1
10
11.8966091759792
20
-3.19087720693298
30
0
41
1
10
10.8671000488208
20
-3.29803632713919
30
0
41
1
10
9.84557289574749
20
-3.39153161592591
30
0
0
SPLINE
5
109
100
AcDbEntity
8
1
62
256
6
ByLayer
370
18
48
1
60
0
100
AcDbSpline
70
4
71
3
72
108
73
104
40
0
40
0
40
0
40
0
40
0.0625000000000071
40
0.0625000000000071
40
0.125000000000014
40
0.125000000000014
40
0.156250000000018
40
0.156250000000018
40
0.187500000000021
40
0.187500000000021
40
0.203125000000022
40
0.203125000000022
40
0.218750000000024
40
0.218750000000024
40
0.250000000000026
40
0.250000000000026
40
0.265625000000027
40
0.265625000000027
40
0.273437500000028
40
0.273437500000028
40
0.281250000000028
40
0.281250000000028
40
0.31250000000003
40
0.31250000000003
40
0.328125000000031
40
0.328125000000031
40
0.343750000000031
40
0.343750000000031
40
0.351562500000032
40
0.351562500000032
40
0.359375000000032
40
0.359375000000032
40
0.375000000000034
40
0.375000000000034
40
0.390625000000035
40
0.390625000000035
40
0.394531250000035
40
0.394531250000035
40
0.398437500000036
40
0.406250000000037
40
0.421875000000039
40
0.421875000000039
40
0.42968750000004
40
0.42968750000004
40
0.437500000000041
40
0.437500000000041
40
0.468750000000045
40
0.468750000000045
40
0.476562500000046
40
0.476562500000046
40
0.480468750000047
40
0.480468750000047
40
0.484375000000047
40
0.500000000000052
40
0.500000000000052
40
0.53125000000006
40
0.53125000000006
40
0.539062500000062
40
0.539062500000062
40
0.546875000000064
40
0.546875000000064
40
0.562500000000066
40
0.562500000000066
40
0.593750000000073
40
0.593750000000073
40
0.625000000000079
40
0.625000000000079
40
0.656250000000086
40
0.656250000000086
40
0.671875000000088
40
0.671875000000088
40
0.687500000000091
40
0.687500000000091
40
0.691406250000092
40
0.693359375000092
40
0.693359375000092
40
0.694335937500092
40
0.694335937500092
40
0.695312500000092
40
0.695312500000092
40
0.697265625000093
40
0.697265625000093
40
0.699218750000093
40
0.699218750000093
40
0.701171875000093
40
0.701171875000093
40
0.703125000000094
40
0.703125000000094
40
0.705078125000094
40
0.705078125000094
40
0.707031250000094
40
0.710937500000094
40
0.718750000000091
40
0.718750000000091
40
0.75000000000008
40
0.75000000000008
40
0.81250000000006
40
0.81250000000006
40
0.87500000000004
40
0.87500000000004
40
0.93750000000002
40
0.93750000000002
40
1
40
1
40
1
40
1
41
1
10
9.84558260085478
20
-3.3915324381878
30
0
41
1
10
9.58970752185402
20
-3.30509616271738
30
0
41
1
10
9.33712743768359
20
-3.21136917326714
30
0
41
1
10
8.83972449422112
20
-3.00621556925202
30
0
41
1
10
8.59488498345584
20
-2.89483012941011
30
0
41
1
10
8.23485121658706
20
-2.71082038289347
30
0
41
1
10
8.11605112084411
20
-2.6466447535137
30
0
41
1
10
7.88124053938796
20
-2.51167766919195
30
0
41
1
10
7.76522772048315
20
-2.44089196293481
30
0
41
1
10
7.59368411754872
20
-2.32878153363984
30
0
41
1
10
7.53685220097199
20
-2.29037211463631
30
0
41
1
10
7.42459695898944
20
-2.21170879038891
30
0
41
1
10
7.36913918532588
20
-2.17143569763434
30
0
41
1
10
7.20495551903269
20
-2.04753011205912
30
0
41
1
10
7.09840176037631
20
-1.96083628663814
30
0
41
1
10
6.94389685015639
20
-1.82325264738884
30
0
41
1
10
6.89328666422705
20
-1.77612882381646
30
0
41
1
10
6.81887766894855
20
-1.70330549305788
30
0
41
1
10
6.79429941864299
20
-1.6786463309449
30
0
41
1
10
6.74582856703728
20
-1.62872049627256
30
0
41
1
10
6.72194264207292
20
-1.60346237942633
30
0
41
1
10
6.60434711123418
20
-1.47562176680424
30
0
41
1
10
6.5160873142656
20
-1.36843339569395
30
0
41
1
10
6.39464117110253
20
-1.19838704646605
30
0
41
1
10
6.35599277116688
20
-1.14015277172297
30
0
41
1
10
6.28290248619393
20
-1.02012220010209
30
0
41
1
10
6.24845814429062
20
-0.958327968228161
30
0
41
1
10
6.20048395733099
20
-0.862509858865309
30
0
41
1
10
6.18509573908196
20
-0.830005234062526
30
0
41
1
10
6.15597089651777
20
-0.764581364970041
30
0
41
1
10
6.1421923194512
20
-0.731583293933369
30
0
41
1
10
6.1033107879305
20
-0.631693331381456
30
0
41
1
10
6.08065692393066
20
-0.56390752454999
30
0
41
1
10
6.04253911209983
20
-0.42571298103158
30
0
41
1
10
6.02707312766572
20
-0.355304974926952
30
0
41
1
10
6.01275931618787
20
-0.265465569438135
30
0
41
1
10
6.01014996235864
20
-0.247409958068886
30
0
41
1
10
6.00547896712342
20
-0.211378514288327
30
0
41
1
10
5.99927754291713
20
-0.157352398668422
30
0
41
1
10
5.99043042441986
20
-0.0314384423464276
30
0
41
1
10
5.99245295643956
20
0.0762368602473202
30
0
41
1
10
6.00088546877961
20
0.183744944114579
30
0
41
1
10
6.00476521913657
20
0.219553087555255
30
0
41
1
10
6.01467063262717
20
0.291113440239684
30
0
41
1
10
6.02070347628219
20
0.326900722728368
30
0
41
1
10
6.05619238448494
20
0.505331600743546
30
0
41
1
10
6.10049208103891
20
0.641609246807235
30
0
41
1
10
6.17220395287259
20
0.805341879060023
30
0
41
1
10
6.18736967405718
20
0.837755035241258
30
0
41
1
10
6.21130393972172
20
0.885895240185079
30
0
41
1
10
6.21948544360839
20
0.901871847153416
30
0
41
1
10
6.2361520616181
20
0.933512887007737
30
0
41
1
10
6.27862521166841
20
1.01192847000956
30
0
41
1
10
6.32494972548983
20
1.0870662519396
30
0
41
1
10
6.44250248089136
20
1.26198828998562
30
0
41
1
10
6.52932018484404
20
1.37143408706524
30
0
41
1
10
6.6461136698131
20
1.50126927731242
30
0
41
1
10
6.66989014030688
20
1.52688408134034
30
0
41
1
10
6.7182361261041
20
1.57744621077418
30
0
41
1
10
6.74284121774335
20
1.6024278197473
30
0
41
1
10
6.81743834730159
20
1.67607965678656
30
0
41
1
10
6.86824289101512
20
1.7235053305337
30
0
41
1
10
7.02346273229838
20
1.86142183159635
30
0
41
1
10
7.13066495852365
20
1.94758312571088
30
0
41
1
10
7.35097475169707
20
2.11082490686346
30
0
41
1
10
7.46409250881104
20
2.1878890172141
30
0
41
1
10
7.69523635459029
20
2.33455016240163
30
0
41
1
10
7.81326747851134
20
2.40413910476425
30
0
41
1
10
7.99346646498265
20
2.50378087610417
30
0
41
1
10
8.05408924803069
20
2.5362158109034
30
0
41
1
10
8.17604748001389
20
2.59947672223308
30
0
41
1
10
8.23740928652643
20
2.63031810774177
30
0
41
1
10
8.31455622871496
20
2.66795964582656
30
0
41
1
10
8.33773293199371
20
2.67918342380389
30
0
41
1
10
8.36095650895248
20
2.6903055845562
30
0
41
1
10
8.37257604225789
20
2.69584989141978
30
0
41
1
10
8.37642457710842
20
2.6977319822289
30
0
41
1
10
8.38434798719157
20
2.70117696291874
30
0
41
1
10
8.38840794635115
20
2.70271073164858
30
0
41
1
10
8.40091977981322
20
2.70665900465661
30
0
41
1
10
8.40970860270741
20
2.70846941110037
30
0
41
1
10
8.42732134532011
20
2.71060603443851
30
0
41
1
10
8.43622691812536
20
2.71099210407076
30
0
41
1
10
8.45418664995168
20
2.71074319110028
30
0
41
1
10
8.46308929080001
20
2.71008055591264
30
0
41
1
10
8.48068541130971
20
2.70773213478154
30
0
41
1
10
8.48940126585981
20
2.70604868733994
30
0
41
1
10
8.50668961195666
20
2.70226058064006
30
0
41
1
10
8.5153129716131
20
2.70030537409423
30
0
41
1
10
8.53257218548043
20
2.69642876687723
30
0
41
1
10
8.55845495141912
20
2.69059305793263
30
0
41
1
10
8.61880508891377
20
2.67683124907876
30
0
41
1
10
8.67046034381661
20
2.66478581473859
30
0
41
1
10
8.84247127843773
20
2.62407926057438
30
0
41
1
10
8.97956872518299
20
2.58972628818026
30
0
41
1
10
9.38897768064984
20
2.48130644112621
30
0
41
1
10
9.65939530382582
20
2.40186433309216
30
0
41
1
10
10.1956935859273
20
2.22847055936131
30
0
41
1
10
10.4617500885146
20
2.134427541881
30
0
41
1
10
10.988199336766
20
1.93280582371747
30
0
41
1
10
11.248779470582
20
1.82516807036916
30
0
41
1
10
11.7657198392875
20
1.59737418896481
30
0
41
1
10
12.0220706203926
20
1.47719803278366
30
0
41
1
10
12.2768907145181
20
1.35149747661905
30
0
0
SPLINE
5
10A
100
AcDbEntity
8
SK1
62
256
6
ByLayer
370
18
48
1
60
0
100
AcDbSpline
70
4
71
3
72
8
73
4
40
0
40
0
40
0
40
0
40
1
40
1
40
1
40
1
41
1
10
-39.35
20
4.08327308135625
30
0
41
1
10
-39.5672381317204
20
3.89404770205689
30
0
41
1
10
-39.7840099067519
20
3.70444210474665
30
0
41
1
10
-40
20
3.51419920663213
30
0
0
SPLINE
5
10B
100
AcDbEntity
8
SK1
62
256
6
ByLayer
370
18
48
1
60
0
100
AcDbSpline
70
4
71
3
72
20
73
16
40
0
40
0
40
0
40
0
40
0.125000000000002
40
0.125000000000002
40
0.187500000000002
40
0.187500000000002
40
0.250000000000002
40
0.250000000000002
40
0.375000000000003
40
0.375000000000003
40
0.500000000000004
40
0.500000000000004
40
0.750000000000002
40
0.750000000000002
40
1
40
1
40
1
40
1
41
1
10
-39.25
20
4.13589970634973
30
0
41
1
10
-39.25
20
4.13885345343007
30
0
41
1
10
-39.2510680086886
20
4.14080167481416
30
0
41
1
10
-39.2538495157728
20
4.14232342507017
30
0
41
1
10
-39.2549703876943
20
4.14260752362748
30
0
41
1
10
-39.2575552869368
20
4.14278067449129
30
0
41
1
10
-39.2590298143252
20
4.1426666282938
30
0
41
1
10
-39.2638240044233
20
4.14180087656194
30
0
41
1
10
-39.267515960107
20
4.14054433048437
30
0
41
1
10
-39.275680748839
20
4.13696807193153
30
0
41
1
10
-39.2801886771091
20
4.13462194218053
30
0
41
1
10
-39.2943187548888
20
4.12642758364163
30
0
41
1
10
-39.3046720301746
20
4.1193959267483
30
0
41
1
10
-39.3267894589619
20
4.1028243006065
30
0
41
1
10
-39.3382086330433
20
4.09354395722499
30
0
41
1
10
-39.35
20
4.08327308135631
30
0
0
SPLINE
5
10C
100
AcDbEntity
8
SK1
62
256
6
ByLayer
370
18
48
1
60
0
100
AcDbSpline
70
4
71
3
72
20
73
16
40
0
40
0
40
0
40
0
40
0.250000000000004
40
0.250000000000004
40
0.375000000000004
40
0.375000000000004
40
0.500000000000003
40
0.500000000000003
40
0.625000000000002
40
0.625000000000002
40
0.750000000000001
40
0.750000000000001
40
0.875000000000001
40
0.875000000000001
40
1
40
1
40
1
40
1
41
1
10
-39.35
20
3.0209823121867
30
0
41
1
10
-39.338205186486
20
3.03125619018078
30
0
41
1
10
-39.326788992333
20
3.04268194310563
30
0
41
1
10
-39.3102132143741
20
3.06152350299465
30
0
41
1
10
-39.304833241342
20
3.06804032352844
30
0
41
1
10
-39.2945637817252
20
3.08132376373337
30
0
41
1
10
-39.289643923718
20
3.08812364203194
30
0
41
1
10
-39.2802807943173
20
3.10207430671929
30
0
41
1
10
-39.2758194796066
20
3.10925289214907
30
0
41
1
10
-39.267562331863
20
3.12392566601122
30
0
41
1
10
-39.2638525857023
20
3.13126041536009
30
0
41
1
10
-39.2574621956925
20
3.14592322294098
30
0
41
1
10
-39.2547834319691
20
3.15328581313292
30
0
41
1
10
-39.2510694001165
20
3.16720581604852
30
0
41
1
10
-39.25
20
3.17394716308377
30
0
41
1
10
-39.25
20
3.17983801409713
30
0
0
SPLINE
5
10D
100
AcDbEntity
8
SK1
62
256
6
ByLayer
370
18
48
1
60
0
100
AcDbSpline
70
4
71
3
72
8
73
4
40
0
40
0
40
0
40
0
40
1
40
1
40
1
40
1
41
1
10
-40
20
2.45190843746258
30
0
41
1
10
-39.7840050134262
20
2.64215564559174
30
0
41
1
10
-39.5672339748838
20
2.83176055370183
30
0
41
1
10
-39.35
20
3.02098231218673
30
0
0
SPLINE
5
10E
100
AcDbEntity
8
1
62
256
6
ByLayer
370
18
48
1
60
0
100
AcDbSpline
70
4
71
3
72
17
73
13
40
0
40
0
40
0
40
0
40
0.0744900195748806
40
0.228941344016637
40
0.358767416885946
40
0.436072038475034
40
0.524934073676666
40
0.606289226839026
40
0.679181551981868
40
0.764670615851418
40
0.881204869683675
40
1
40
1
40
1
40
1
41
1
10
110.544645465653
20
0.882491981072377
30
0
41
1
10
110.407621948538
20
0.926010678502251
30
0
41
1
10
109.987012219764
20
1.06141369831562
30
0
41
1
10
109.330827025961
20
1.28303478231851
30
0
41
1
10
108.6718974148
20
1.51358669868247
30
0
41
1
10
108.134218765293
20
1.70733590262083
30
0
41
1
10
107.685710119558
20
1.87251457250542
30
0
41
1
10
107.246363129781
20
2.03793327219353
30
0
41
1
10
106.814176612031
20
2.20384082682054
30
0
41
1
10
106.319813586544
20
2.39741846140643
30
0
41
1
10
105.744629572176
20
2.62790676878737
30
0
41
1
10
105.324605303362
20
2.80168892746315
30
0
41
1
10
105.113021795
20
2.89054886578705
30
0
0
SPLINE
5
10F
100
AcDbEntity
8
1
62
256
6
ByLayer
370
18
48
1
60
0
100
AcDbSpline
70
4
71
3
72
31
73
27
40
0
40
0
40
0
40
0
40
4.294553827E-07
40
2.55092487955E-05
40
3.67198553417E-05
40
4.7413954295E-05
40
5.80703199528E-05
40
0.0001143876599367
40
0.0007812985758038
40
0.0013241369330598
40
0.0023359581162488
40
0.0042783894056022
40
0.0081802928853807
40
0.0165330194435291
40
0.0351631346237373
40
0.0757490148438709
40
0.221583824324396
40
0.340120980196944
40
0.470362357264084
40
0.593290792890714
40
0.656725273102674
40
0.715200016775097
40
0.774729023085964
40
0.841443316095096
40
0.933783938998935
40
1
40
1
40
1
40
1
41
1
10
58.7351573610931
20
0.108013441726081
30
0
41
1
10
58.7351583579397
20
0.108013522006484
30
0
41
1
10
58.7351665051379
20
0.108014228454152
30
0
41
1
10
58.735168942745
20
0.108022492342769
30
0
41
1
10
58.7351297066632
20
0.108027831725963
30
0
41
1
10
58.735088643207
20
0.108040031699858
30
0
41
1
10
58.7349440955047
20
0.108081371332787
30
0
41
1
10
58.733082810578
20
0.108597778220513
30
0
41
1
10
58.7297230918167
20
0.109515611577081
30
0
41
1
10
58.7239474921317
20
0.111105847966797
30
0
41
1
10
58.7147950072405
20
0.11362229168742
30
0
41
1
10
58.6968439006049
20
0.118564931711205
30
0
41
1
10
58.6595368768863
20
0.128851733572702
30
0
41
1
10
58.5780962318916
20
0.151389595230967
30
0
41
1
10
58.3995113029457
20
0.201167615861806
30
0
41
1
10
57.8591054440022
20
0.354014708557003
30
0
41
1
10
57.0591403108292
20
0.590795722159584
30
0
41
1
10
56.0285122875782
20
0.914937093644227
30
0
41
1
10
55.0633613085692
20
1.23531266205649
30
0
41
1
10
54.2470511336843
20
1.52059153089394
30
0
41
1
10
53.6187612682517
20
1.74826428851705
30
0
41
1
10
53.1535607693618
20
1.92078768394657
30
0
41
1
10
52.6810715729244
20
2.099817317446
30
0
41
1
10
52.1233080658765
20
2.31617303834301
30
0
41
1
10
51.5498982520298
20
2.5438717078996
30
0
41
1
10
51.1483935413562
20
2.70967739243969
30
0
41
1
10
50.9810121801569
20
2.77974415073661
30
0
0
SPLINE
5
110
100
AcDbEntity
8
1
62
256
6
ByLayer
370
18
48
1
60
0
100
AcDbSpline
70
4
71
3
72
35
73
31
40
0
40
0
40
0
40
0
40
1.6798931406E-06
40
4.47874143384E-05
40
6.1553149719E-05
40
6.91874159383E-05
40
7.66789750262E-05
40
0.0001073246513747
40
0.000493839552682
40
0.0008101978753782
40
0.0014040369520249
40
0.0025568276242009
40
0.0049106270760534
40
0.0261306957770361
40
0.055589300076832
40
0.0916963291634003
40
0.165507996875784
40
0.243681290912023
40
0.316387417351627
40
0.364432839819256
40
0.41511569913499
40
0.475656260647061
40
0.535798874509877
40
0.636319789536334
40
0.742681139349766
40
0.837993409131724
40
0.864646489909782
40
0.90599120668089
40
0.962084470360589
40
1
40
1
40
1
40
1
41
1
10
85.9909170700871
20
0.0929463449949992
30
0
41
1
10
85.9909188280231
20
0.0929458983183906
30
0
41
1
10
85.9909652888057
20
0.0929341024354926
30
0
41
1
10
85.9910140072047
20
0.0929220858630231
30
0
41
1
10
85.9909904576071
20
0.0929299532473635
30
0
41
1
10
85.9909531559371
20
0.0929407491527172
30
0
41
1
10
85.9908721353908
20
0.0929636104292229
30
0
41
1
10
85.9898473964041
20
0.0932478656764033
30
0
41
1
10
85.9878004983267
20
0.0938081998365021
30
0
41
1
10
85.9844014207354
20
0.0947438642679401
30
0
41
1
10
85.9788954233192
20
0.0962572757064493
30
0
41
1
10
85.9679744039595
20
0.0992605694289637
30
0
41
1
10
85.9016839630474
20
0.117492793102116
30
0
41
1
10
85.7579310667508
20
0.157230255795895
30
0
41
1
10
85.5233255539099
20
0.222961991052245
30
0
41
1
10
85.1465821827848
20
0.330293609033049
30
0
41
1
10
84.639138887476
20
0.478901230773943
30
0
41
1
10
84.0345773782052
20
0.66257341987307
30
0
41
1
10
83.5008148393925
20
0.830527987799599
30
0
41
1
10
83.0419963523372
20
0.978876632590783
30
0
41
1
10
82.6166199449736
20
1.11941629786375
30
0
41
1
10
82.1600131971394
20
1.27389532453984
30
0
41
1
10
81.5721169153297
20
1.47783174379771
30
0
41
1
10
80.8648898633068
20
1.73122961985823
30
0
41
1
10
80.068065308082
20
2.02833399619431
30
0
41
1
10
79.4687114144106
20
2.26027918248755
30
0
41
1
10
79.0411947027184
20
2.42932514606184
30
0
41
1
10
78.7168967523033
20
2.55916328123166
30
0
41
1
10
78.3638443218266
20
2.7025217776989
30
0
41
1
10
78.1194712258378
20
2.80415006805933
30
0
41
1
10
78.0210238261189
20
2.84541924953012
30
0
0
SPLINE
5
111
100
AcDbEntity
8
1
62
256
6
ByLayer
370
18
48
1
60
0
100
AcDbSpline
70
4
71
3
72
30
73
26
40
0
40
0
40
0
40
0
40
2.48226859822E-05
40
5.1966062799E-05
40
7.68672146567E-05
40
0.0001011337902868
40
0.0001552326224244
40
0.0012380085106416
40
0.0021136464402052
40
0.0037322884496577
40
0.0067981186989449
40
0.0128321302287214
40
0.0253907474647086
40
0.0535044921513457
40
0.109595977448056
40
0.231725330513327
40
0.363334113162815
40
0.47573263682183
40
0.606752801178263
40
0.710336284010397
40
0.808494444239295
40
0.849229639329837
40
0.905399095516818
40
0.979458478525564
40
1
40
1
40
1
40
1
41
1
10
31.5748856909864
20
0.0971308655737744
30
0
41
1
10
31.5748985710311
20
0.0971279559442735
30
0
41
1
10
31.5749171593646
20
0.0971241663613682
30
0
41
1
10
31.5749076164361
20
0.0971286988790609
30
0
41
1
10
31.5748448565663
20
0.0971476663085298
30
0
41
1
10
31.5746697516839
20
0.0971975334543345
30
0
41
1
10
31.5716868144533
20
0.0980215535089712
30
0
41
1
10
31.5664111268648
20
0.0994644939228806
30
0
41
1
10
31.5571168049302
20
0.102020100373522
30
0
41
1
10
31.5426371847497
20
0.105999308391631
30
0
41
1
10
31.5147394668185
20
0.113677888117621
30
0
41
1
10
31.4583387328193
20
0.129234526554598
30
0
41
1
10
31.3366933764155
20
0.162944573230931
30
0
41
1
10
31.0846522958777
20
0.23349962014791
30
0
41
1
10
30.547893201225
20
0.386905222620697
30
0
41
1
10
29.7447363020376
20
0.626396441442665
30
0
41
1
10
28.8002389373345
20
0.924612700827339
30
0
41
1
10
27.8374456261639
20
1.24479957249471
30
0
41
1
10
26.9508197151361
20
1.5544544886595
30
0
41
1
10
26.1053308177215
20
1.86325689761327
30
0
41
1
10
25.4922934792953
20
2.09557250640847
30
0
41
1
10
25.000841162864
20
2.28632178418604
30
0
41
1
10
24.5708144607924
20
2.45634202984465
30
0
41
1
10
24.192214606137
20
2.60813607309572
30
0
41
1
10
23.9557629608931
20
2.70624496616773
30
0
41
1
10
23.9044552420352
20
2.72764150712996
30
0
0
SPLINE
5
112
100
AcDbEntity
8
1
62
256
6
ByLayer
370
18
48
1
60
0
100
AcDbSpline
70
4
71
3
72
22
73
18
40
0
40
0
40
0
40
0
40
0.0673854627422157
40
0.117096013501536
40
0.152018784435954
40
0.186971212126242
40
0.223727982275677
40
0.368815757834528
40
0.455118523426405
40
0.541387566608092
40
0.623987766799364
40
0.694114898063619
40
0.764811788201835
40
0.847330810535069
40
0.937803971349874
40
0.984881158285871
40
1
40
1
40
1
40
1
41
1
10
83.9919776341871
20
-4.4259581673445
30
0
41
1
10
84.2099441249636
20
-4.42633496489358
30
0
41
1
10
84.5887371401739
20
-4.42697175161805
30
0
41
1
10
85.0808087266856
20
-4.427645296658
30
0
41
1
10
85.4676224165968
20
-4.42830289411913
30
0
41
1
10
85.812684412048
20
-4.42903434921448
30
0
41
1
10
86.5142815475468
20
-4.43102752856262
30
0
41
1
10
87.3820523194228
20
-4.43151755076343
30
0
41
1
10
88.4100566342924
20
-4.43289217923069
30
0
41
1
10
89.2358341686225
20
-4.43636171369556
30
0
41
1
10
90.0092712626793
20
-4.43580726768607
30
0
41
1
10
90.7323134158158
20
-4.43597566734658
30
0
41
1
10
91.4550888265288
20
-4.43828506775006
30
0
41
1
10
92.2437087609487
20
-4.43982671431232
30
0
41
1
10
92.9558900987807
20
-4.44221865491923
30
0
41
1
10
93.4499559020495
20
-4.44219967307987
30
0
41
1
10
93.6512336154531
20
-4.44215074596968
30
0
41
1
10
93.7001609478379
20
-4.44213808116868
30
0
0
SPLINE
5
113
100
AcDbEntity
8
1
62
256
6
ByLayer
370
18
48
1
60
0
100
AcDbSpline
70
4
71
3
72
14
73
10
40
0
40
0
40
0
40
0
40
0.214123616110981
40
0.36696715142306
40
0.481305875309772
40
0.566475833732993
40
0.671191590569595
40
0.825567964173951
40
1
40
1
40
1
40
1
41
1
10
68.897673245214
20
4.40013149178372
30
0
41
1
10
68.6623573553696
20
4.39972651280391
30
0
41
1
10
68.2590540379399
20
4.39902469578144
30
0
41
1
10
67.7298756978325
20
4.39748912635741
30
0
41
1
10
67.3426842635132
20
4.39712048932176
30
0
41
1
10
67.0082384770306
20
4.39691486318907
30
0
41
1
10
66.6297941904043
20
4.39653223533028
30
0
41
1
10
66.1532187705752
20
4.39559250060586
30
0
41
1
10
65.7917632685758
20
4.39406493619165
30
0
41
1
10
65.6000125234557
20
4.39305888983588
30
0
0
SPLINE
5
114
100
AcDbEntity
8
1
62
256
6
ByLayer
370
18
48
1
60
0
100
AcDbSpline
70
4
71
3
72
23
73
19
40
0
40
0
40
0
40
0
40
0.0663978693030491
40
0.115388479097338
40
0.158888141414049
40
0.205392186676466
40
0.252252702108604
40
0.299104376615099
40
0.345944349888561
40
0.430584256018989
40
0.506298480309855
40
0.580608016148583
40
0.661198826245045
40
0.752018462652724
40
0.843132183658072
40
0.933523557772156
40
0.980254938639834
40
1
40
1
40
1
40
1
41
1
10
96.100786312658
20
4.44762797790898
30
0
41
1
10
95.8847963071235
20
4.44712944325218
30
0
41
1
10
95.5094417461466
20
4.44610126391336
30
0
41
1
10
94.9925904289963
20
4.44267976037906
30
0
41
1
10
94.5404434927386
20
4.44208818234353
30
0
41
1
10
94.0952258701321
20
4.44200067824599
30
0
41
1
10
93.6391055864795
20
4.44218548094898
30
0
41
1
10
93.1818867427731
20
4.44221435437962
30
0
41
1
10
92.601798327047
20
4.44137378969518
30
0
41
1
10
91.9276626551901
20
4.43906885800598
30
0
41
1
10
91.1649160891563
20
4.43722357370183
30
0
41
1
10
90.4152368826205
20
4.43558887635302
30
0
41
1
10
89.6157954718663
20
4.43626162394659
30
0
41
1
10
88.7618438672596
20
4.43486613851763
30
0
41
1
10
87.8759730881835
20
4.43162507738543
30
0
41
1
10
87.133523871483
20
4.43161312194084
30
0
41
1
10
86.6232353746373
20
4.43095127499896
30
0
41
1
10
86.4069889322948
20
4.43051944051149
30
0
41
1
10
86.3427586857643
20
4.43038078134009
30
0
0
SPLINE
5
115
100
AcDbEntity
8
1
62
256
6
ByLayer
370
18
48
1
60
0
100
AcDbSpline
70
4
71
3
72
10
73
6
40
0
40
0
40
0
40
0
40
0.474682126169321
40
0.900335222483228
40
1
40
1
40
1
40
1
41
1
10
65.6000016731988
20
-4.39306707927173
30
0
41
1
10
65.7734009574607
20
-4.39397713569949
30
0
41
1
10
66.1023050389863
20
-4.39539348128608
30
0
41
1
10
66.4677358314926
20
-4.39619670876203
30
0
41
1
10
66.6596581156709
20
-4.39649469921173
30
0
41
1
10
66.6960694118944
20
-4.39654692337592
30
0
0
SPLINE
5
116
100
AcDbEntity
8
1
62
256
6
ByLayer
370
18
48
1
60
0
100
AcDbSpline
70
4
71
1
72
4
73
2
40
0
40
0
40
1
40
1
41
1
10
70.3893290416026
20
0.0018526108801211
30
0
41
1
10
70.3893186527465
20
0.0018585961487361
30
0
0
SPLINE
5
117
100
AcDbEntity
8
1
62
256
6
ByLayer
370
18
48
1
60
0
100
AcDbSpline
70
4
71
2
72
6
73
3
40
0
40
0
40
0
40
1
40
1
40
1
41
1
10
97.5973410967947
20
-0.0021761403099561
30
0
41
1
10
97.5973264505309
20
-0.0021676745089394
30
0
41
1
10
97.5973118041352
20
-0.0021589408002569
30
0
0
LINE
5
82
100
AcDbEntity
8
4
62
256
6
ByLayer
370
18
48
0.05
60
0
100
AcDbLine
10
0
20
0
30
0
11
112
21
0
31
0
39
0
210
0
220
0
230
1
0
LINE
5
84
100
AcDbEntity
8
81
62
256
6
ByLayer
370
18
48
1
60
0
100
AcDbLine
10
112
20
0
30
0
11
115
21
0
31
0
39
0
210
0
220
0
230
1
0
LINE
5
85
100
AcDbEntity
8
80
62
256
6
ByLayer
370
18
48
1
60
0
100
AcDbLine
10
0
20
0
30
0
11
-3
21
0
31
0
39
0
210
0
220
0
230
1
0
LINE
5
86
100
AcDbEntity
8
SK4
62
256
6
ByLayer
370
18
48
0.05
60
0
100
AcDbLine
10
-43
20
0
30
0
11
115
21
0
31
0
39
0
210
0
220
0
230
1
0
LINE
5
88
100
AcDbEntity
8
1
62
256
6
ByLayer
370
18
48
1
60
0
100
AcDbLine
10
0
20
5
30
0
11
0
21
-5
31
0
39
0
210
0
220
0
230
1
0
LINE
5
89
100
AcDbEntity
8
1
62
256
6
ByLayer
370
13
48
1
60
0
100
AcDbLine
10
111.880076
20
0.496847
30
0
11
110.882471
21
1.498224
31
0
39
0
210
0
220
0
230
1
0
LINE
5
8A
100
AcDbEntity
8
1
62
256
6
ByLayer
370
13
48
1
60
0
100
AcDbLine
10
0.60206
20
-4.726805
30
0
11
0.60206
21
4.726805
31
0
39
0
210
0
220
0
230
1
0
LINE
5
8B
100
AcDbEntity
8
1
62
256
6
ByLayer
370
18
48
1
60
0
100
AcDbLine
10
65.499545
20
4.56934
30
0
11
65.499545
21
2.497857
31
0
39
0
210
0
220
0
230
1
0
LINE
5
8C
100
AcDbEntity
8
1
62
256
6
ByLayer
370
18
48
1
60
0
100
AcDbLine
10
65.499545
20
-4.281988
30
0
11
65.499545
21
-4.56934
31
0
39
0
210
0
220
0
230
1
0
LINE
5
8D
100
AcDbEntity
8
1
62
256
6
ByLayer
370
18
48
1
60
0
100
AcDbLine
10
65.499545
20
2.000931
30
0
11
65.499545
21
1.929531
31
0
39
0
210
0
220
0
230
1
0
LINE
5
8E
100
AcDbEntity
8
1
62
256
6
ByLayer
370
13
48
1
60
0
100
AcDbLine
10
1.205561
20
-4.453611
30
0
11
1.205561
21
4.453611
31
0
39
0
210
0
220
0
230
1
0
LINE
5
8F
100
AcDbEntity
8
SK1
62
256
6
ByLayer
370
18
48
1
60
0
100
AcDbLine
10
-40
20
3.514199
30
0
11
-40
21
2.451859
31
0
39
0
210
0
220
0
230
1
0
LINE
5
91
100
AcDbEntity
8
SK1
62
256
6
ByLayer
370
13
48
1
60
0
100
AcDbLine
10
-39.35
20
3.020965
30
0
11
-39.35
21
4.083273
31
0
39
0
210
0
220
0
230
1
0
LINE
5
92
100
AcDbEntity
8
SK1
62
256
6
ByLayer
370
18
48
1
60
0
100
AcDbLine
10
-39.25
20
3.179838
30
0
11
-39.25
21
4.1359
31
0
39
0
210
0
220
0
230
1
0
LINE
5
93
100
AcDbEntity
8
SK1
62
256
6
ByLayer
370
18
48
1
60
0
100
AcDbLine
10
-40
20
-3.66
30
0
11
-40
21
2.451908
31
0
39
0
210
0
220
0
230
1
0
LINE
5
94
100
AcDbEntity
8
SK1
62
256
6
ByLayer
370
18
48
1
60
0
100
AcDbLine
10
-40
20
3.514199
30
0
11
-40
21
3.66
31
0
39
0
210
0
220
0
230
1
0
LINE
5
95
100
AcDbEntity
8
SK1
62
256
6
ByLayer
370
18
48
1
60
0
100
AcDbLine
10
0
20
5
30
0
11
0
21
-5
31
0
39
0
210
0
220
0
230
1
0
LINE
5
96
100
AcDbEntity
8
SK1
62
256
6
ByLayer
370
18
48
1
60
0
100
AcDbLine
10
-38.66
20
-5
30
0
11
-38.66
21
5
31
0
39
0
210
0
220
0
230
1
0
LINE
5
97
100
AcDbEntity
8
1
62
256
6
ByLayer
370
18
48
1
60
0
100
AcDbLine
10
1.205561
20
-4.453611
30
0
11
15.971394
21
-4.48019
31
0
39
0
210
0
220
0
230
1
0
LINE
5
98
100
AcDbEntity
8
1
62
256
6
ByLayer
370
18
48
1
60
0
100
AcDbLine
10
28.51524
20
-4.502768
30
0
11
43.099425
21
-4.52902
31
0
39
0
210
0
220
0
230
1
0
LINE
5
99
100
AcDbEntity
8
1
62
256
6
ByLayer
370
18
48
1
60
0
100
AcDbLine
10
55.684575
20
-4.551673
30
0
11
65.499545
21
-4.56934
31
0
39
0
210
0
220
0
230
1
0
LINE
5
9A
100
AcDbEntity
8
1
62
256
6
ByLayer
370
18
48
1
60
0
100
AcDbLine
10
68.899104
20
-4.575459
30
0
11
70.226441
21
-4.577849
31
0
39
0
210
0
220
0
230
1
0
LINE
5
9B
100
AcDbEntity
8
1
62
256
6
ByLayer
370
18
48
1
60
0
100
AcDbLine
10
83.043077
20
-4.600919
30
0
11
83.992862
21
-4.602628
31
0
39
0
210
0
220
0
230
1
0
LINE
5
9C
100
AcDbEntity
8
1
62
256
6
ByLayer
370
18
48
1
60
0
100
AcDbLine
10
96.103491
20
-4.624427
30
0
11
97.352753
21
-4.626676
31
0
39
0
210
0
220
0
230
1
0
LINE
5
9D
100
AcDbEntity
8
1
62
256
6
ByLayer
370
18
48
1
60
0
100
AcDbLine
10
97.352753
20
4.626676
30
0
11
96.103491
21
4.624427
31
0
39
0
210
0
220
0
230
1
0
LINE
5
9E
100
AcDbEntity
8
1
62
256
6
ByLayer
370
18
48
1
60
0
100
AcDbLine
10
83.992862
20
4.602628
30
0
11
83.043077
21
4.600919
31
0
39
0
210
0
220
0
230
1
0
LINE
5
9F
100
AcDbEntity
8
1
62
256
6
ByLayer
370
18
48
1
60
0
100
AcDbLine
10
70.226441
20
4.577849
30
0
11
68.899104
21
4.575459
31
0
39
0
210
0
220
0
230
1
0
LINE
5
A0
100
AcDbEntity
8
1
62
256
6
ByLayer
370
18
48
1
60
0
100
AcDbLine
10
65.499545
20
4.56934
30
0
11
55.684575
21
4.551673
31
0
39
0
210
0
220
0
230
1
0
LINE
5
A1
100
AcDbEntity
8
1
62
256
6
ByLayer
370
18
48
1
60
0
100
AcDbLine
10
43.099425
20
4.52902
30
0
11
28.51524
21
4.502768
31
0
39
0
210
0
220
0
230
1
0
LINE
5
A2
100
AcDbEntity
8
1
62
256
6
ByLayer
370
18
48
1
60
0
100
AcDbLine
10
15.971394
20
4.48019
30
0
11
1.205561
21
4.453611
31
0
39
0
210
0
220
0
230
1
0
LINE
5
A3
100
AcDbEntity
8
SK1
62
256
6
ByLayer
370
18
48
1
60
0
100
AcDbLine
10
-40
20
-3.66
30
0
11
-38.66
21
-5
31
0
39
0
210
0
220
0
230
1
0
LINE
5
A4
100
AcDbEntity
8
SK1
62
256
6
ByLayer
370
18
48
1
60
0
100
AcDbLine
10
-38.66
20
5
30
0
11
-40
21
3.66
31
0
39
0
210
0
220
0
230
1
0
LINE
5
A5
100
AcDbEntity
8
SK1
62
256
6
ByLayer
370
18
48
1
60
0
100
AcDbLine
10
-38.66
20
-5
30
0
11
0
21
-5
31
0
39
0
210
0
220
0
230
1
0
LINE
5
A6
100
AcDbEntity
8
SK1
62
256
6
ByLayer
370
18
48
1
60
0
100
AcDbLine
10
0
20
5
30
0
11
-38.66
21
5
31
0
39
0
210
0
220
0
230
1
0
LINE
5
A7
100
AcDbEntity
8
2
62
256
6
ByLayer
370
13
48
1
60
0
100
AcDbLine
10
119.5
20
-4.65
30
0
11
119.5
21
28.949084
31
0
39
0
210
0
220
0
230
1
0
LINE
5
A9
100
AcDbEntity
8
2
62
256
6
ByLayer
370
13
48
1
60
0
100
AcDbLine
10
113.5875
20
4.65
30
0
11
121.5
21
4.65
31
0
39
0
210
0
220
0
230
1
0
LINE
5
AA
100
AcDbEntity
8
2
62
256
6
ByLayer
370
13
48
1
60
0
100
AcDbLine
10
113.5875
20
-4.65
30
0
11
121.5
21
-4.65
31
0
39
0
210
0
220
0
230
1
0
LINE
5
AB
100
AcDbEntity
8
1
62
256
6
ByLayer
370
18
48
1
60
1
100
AcDbLine
10
119.5
20
4.65
30
0
11
119.960784
21
1.150002
31
0
39
0
210
0
220
0
230
1
0
LINE
5
AC
100
AcDbEntity
8
1
62
256
6
ByLayer
370
18
48
1
60
1
100
AcDbLine
10
119.960784
20
1.150002
30
0
11
119.039216
21
1.149998
31
0
39
0
210
0
220
0
230
1
0
LINE
5
AD
100
AcDbEntity
8
1
62
256
6
ByLayer
370
18
48
1
60
1
100
AcDbLine
10
119.039216
20
1.149998
30
0
11
119.5
21
4.65
31
0
39
0
210
0
220
0
230
1
0
LINE
5
AE
100
AcDbEntity
8
1
62
256
6
ByLayer
370
18
48
1
60
1
100
AcDbLine
10
119.5
20
-4.65
30
0
11
119.039216
21
-1.150002
31
0
39
0
210
0
220
0
230
1
0
LINE
5
AF
100
AcDbEntity
8
1
62
256
6
ByLayer
370
18
48
1
60
1
100
AcDbLine
10
119.039216
20
-1.150002
30
0
11
119.960784
21
-1.149998
31
0
39
0
210
0
220
0
230
1
0
LINE
5
B0
100
AcDbEntity
8
1
62
256
6
ByLayer
370
18
48
1
60
1
100
AcDbLine
10
119.960784
20
-1.149998
30
0
11
119.5
21
-4.65
31
0
39
0
210
0
220
0
230
1
0
LINE
5
B1
100
AcDbEntity
8
SK2
62
256
6
ByLayer
370
13
48
1
60
0
100
AcDbLine
10
-48.5
20
-5
30
0
11
-48.5
21
15.333771
31
0
39
0
210
0
220
0
230
1
0
LINE
5
B3
100
AcDbEntity
8
SK2
62
256
6
ByLayer
370
13
48
1
60
0
100
AcDbLine
10
-41.5875
20
5
30
0
11
-50.5
21
5
31
0
39
0
210
0
220
0
230
1
0
LINE
5
B4
100
AcDbEntity
8
SK2
62
256
6
ByLayer
370
13
48
1
60
0
100
AcDbLine
10
-41.5875
20
-5
30
0
11
-50.5
21
-5
31
0
39
0
210
0
220
0
230
1
0
LINE
5
B5
100
AcDbEntity
8
1
62
256
6
ByLayer
370
18
48
1
60
1
100
AcDbLine
10
-48.5
20
5
30
0
11
-48.039216
21
1.500002
31
0
39
0
210
0
220
0
230
1
0
LINE
5
B6
100
AcDbEntity
8
1
62
256
6
ByLayer
370
18
48
1
60
1
100
AcDbLine
10
-48.039216
20
1.500002
30
0
11
-48.960784
21
1.499998
31
0
39
0
210
0
220
0
230
1
0
LINE
5
B7
100
AcDbEntity
8
1
62
256
6
ByLayer
370
18
48
1
60
1
100
AcDbLine
10
-48.960784
20
1.499998
30
0
11
-48.5
21
5
31
0
39
0
210
0
220
0
230
1
0
LINE
5
B8
100
AcDbEntity
8
1
62
256
6
ByLayer
370
18
48
1
60
1
100
AcDbLine
10
-48.5
20
-5
30
0
11
-48.960784
21
-1.500002
31
0
39
0
210
0
220
0
230
1
0
LINE
5
B9
100
AcDbEntity
8
1
62
256
6
ByLayer
370
18
48
1
60
1
100
AcDbLine
10
-48.960784
20
-1.500002
30
0
11
-48.039216
21
-1.499998
31
0
39
0
210
0
220
0
230
1
0
LINE
5
BA
100
AcDbEntity
8
1
62
256
6
ByLayer
370
18
48
1
60
1
100
AcDbLine
10
-48.039216
20
-1.499998
30
0
11
-48.5
21
-5
31
0
39
0
210
0
220
0
230
1
0
LINE
5
BB
100
AcDbEntity
8
SK2
62
256
6
ByLayer
370
13
48
1
60
0
100
AcDbLine
10
112.542826
20
1.49181
30
0
11
119.930501
21
21.794817
31
0
39
0
210
0
220
0
230
1
0
LINE
5
BC
100
AcDbEntity
8
SK2
62
256
6
ByLayer
370
13
48
1
60
0
100
AcDbLine
10
112.542826
20
-1.49181
30
0
11
119.930501
21
-21.794817
31
0
39
0
210
0
220
0
230
1
0
LINE
5
BD
100
AcDbEntity
8
1
62
256
6
ByLayer
370
18
48
1
60
1
100
AcDbLine
10
119.246626
20
19.915372
30
0
11
122.658835
21
19.010308
31
0
39
0
210
0
220
0
230
1
0
LINE
5
BE
100
AcDbEntity
8
1
62
256
6
ByLayer
370
18
48
1
60
1
100
AcDbLine
10
122.658835
20
19.010308
30
0
11
122.308322
21
18.158001
31
0
39
0
210
0
220
0
230
1
0
LINE
5
BF
100
AcDbEntity
8
1
62
256
6
ByLayer
370
18
48
1
60
1
100
AcDbLine
10
122.308322
20
18.158001
30
0
11
119.246626
21
19.915372
31
0
39
0
210
0
220
0
230
1
0
LINE
5
C0
100
AcDbEntity
8
1
62
256
6
ByLayer
370
18
48
1
60
1
100
AcDbLine
10
119.246626
20
-19.915372
30
0
11
122.308318
21
-18.158003
31
0
39
0
210
0
220
0
230
1
0
LINE
5
C1
100
AcDbEntity
8
1
62
256
6
ByLayer
370
18
48
1
60
1
100
AcDbLine
10
122.308318
20
-18.158003
30
0
11
122.658838
21
-19.010307
31
0
39
0
210
0
220
0
230
1
0
LINE
5
C2
100
AcDbEntity
8
1
62
256
6
ByLayer
370
18
48
1
60
1
100
AcDbLine
10
122.658838
20
-19.010307
30
0
11
119.246626
21
-19.915372
31
0
39
0
210
0
220
0
230
1
0
LINE
5
118
100
AcDbEntity
8
1
62
256
6
ByLayer
370
13
48
0.05
60
0
100
AcDbLine
10
-46.5
20
0
30
0
11
116.797943
21
0
31
0
39
0
210
0
220
0
230
1
0
LINE
5
11D
100
AcDbEntity
8
1
62
256
6
ByLayer
370
18
48
1
60
1
100
AcDbLine
10
119.5
20
4.65
30
0
11
119.960784
21
1.150002
31
0
39
0
210
0
220
0
230
1
0
LINE
5
11E
100
AcDbEntity
8
1
62
256
6
ByLayer
370
18
48
1
60
1
100
AcDbLine
10
119.960784
20
1.150002
30
0
11
119.039216
21
1.149998
31
0
39
0
210
0
220
0
230
1
0
LINE
5
11F
100
AcDbEntity
8
1
62
256
6
ByLayer
370
18
48
1
60
1
100
AcDbLine
10
119.039216
20
1.149998
30
0
11
119.5
21
4.65
31
0
39
0
210
0
220
0
230
1
0
LINE
5
121
100
AcDbEntity
8
1
62
256
6
ByLayer
370
18
48
1
60
1
100
AcDbLine
10
119.5
20
-4.65
30
0
11
119.039216
21
-1.150002
31
0
39
0
210
0
220
0
230
1
0
LINE
5
122
100
AcDbEntity
8
1
62
256
6
ByLayer
370
18
48
1
60
1
100
AcDbLine
10
119.039216
20
-1.150002
30
0
11
119.960784
21
-1.149998
31
0
39
0
210
0
220
0
230
1
0
LINE
5
123
100
AcDbEntity
8
1
62
256
6
ByLayer
370
18
48
1
60
1
100
AcDbLine
10
119.960784
20
-1.149998
30
0
11
119.5
21
-4.65
31
0
39
0
210
0
220
0
230
1
0
LINE
5
127
100
AcDbEntity
8
1
62
256
6
ByLayer
370
18
48
1
60
1
100
AcDbLine
10
-48.5
20
5
30
0
11
-48.039216
21
1.500002
31
0
39
0
210
0
220
0
230
1
0
LINE
5
128
100
AcDbEntity
8
1
62
256
6
ByLayer
370
18
48
1
60
1
100
AcDbLine
10
-48.039216
20
1.500002
30
0
11
-48.960784
21
1.499998
31
0
39
0
210
0
220
0
230
1
0
LINE
5
129
100
AcDbEntity
8
1
62
256
6
ByLayer
370
18
48
1
60
1
100
AcDbLine
10
-48.960784
20
1.499998
30
0
11
-48.5
21
5
31
0
39
0
210
0
220
0
230
1
0
LINE
5
12B
100
AcDbEntity
8
1
62
256
6
ByLayer
370
18
48
1
60
1
100
AcDbLine
10
-48.5
20
-5
30
0
11
-48.960784
21
-1.500002
31
0
39
0
210
0
220
0
230
1
0
LINE
5
12C
100
AcDbEntity
8
1
62
256
6
ByLayer
370
18
48
1
60
1
100
AcDbLine
10
-48.960784
20
-1.500002
30
0
11
-48.039216
21
-1.499998
31
0
39
0
210
0
220
0
230
1
0
LINE
5
12D
100
AcDbEntity
8
1
62
256
6
ByLayer
370
18
48
1
60
1
100
AcDbLine
10
-48.039216
20
-1.499998
30
0
11
-48.5
21
-5
31
0
39
0
210
0
220
0
230
1
0
LINE
5
130
100
AcDbEntity
8
1
62
256
6
ByLayer
370
18
48
1
60
1
100
AcDbLine
10
119.246626
20
19.915372
30
0
11
122.658835
21
19.010308
31
0
39
0
210
0
220
0
230
1
0
LINE
5
131
100
AcDbEntity
8
1
62
256
6
ByLayer
370
18
48
1
60
1
100
AcDbLine
10
122.658835
20
19.010308
30
0
11
122.308322
21
18.158001
31
0
39
0
210
0
220
0
230
1
0
LINE
5
132
100
AcDbEntity
8
1
62
256
6
ByLayer
370
18
48
1
60
1
100
AcDbLine
10
122.308322
20
18.158001
30
0
11
119.246626
21
19.915372
31
0
39
0
210
0
220
0
230
1
0
LINE
5
134
100
AcDbEntity
8
1
62
256
6
ByLayer
370
18
48
1
60
1
100
AcDbLine
10
119.246626
20
-19.915372
30
0
11
122.308318
21
-18.158003
31
0
39
0
210
0
220
0
230
1
0
LINE
5
135
100
AcDbEntity
8
1
62
256
6
ByLayer
370
18
48
1
60
1
100
AcDbLine
10
122.308318
20
-18.158003
30
0
11
122.658838
21
-19.010307
31
0
39
0
210
0
220
0
230
1
0
LINE
5
136
100
AcDbEntity
8
1
62
256
6
ByLayer
370
18
48
1
60
1
100
AcDbLine
10
122.658838
20
-19.010307
30
0
11
119.246626
21
-19.915372
31
0
39
0
210
0
220
0
230
1
0
MTEXT
5
119
100
AcDbEntity
8
2
62
256
6
ByLayer
370
18
48
1
60
0
100
AcDbMText
10
118.158886
20
18.308438
30
0
210
0
220
0
230
1
1
%%c
40
3
41
0
44
1.084337
50
90
71
7
72
5
7
iso_b_vert
0
MTEXT
5
11C
100
AcDbEntity
8
2
62
256
6
ByLayer
370
18
48
1
60
0
100
AcDbMText
10
118.158886
20
24.285
30
0
210
0
220
0
230
1
1
\W0.7121;9.3
40
3
41
0
44
1.084337
50
90
71
7
72
5
7
iso_b_vert
0
MTEXT
5
125
100
AcDbEntity
8
SK2
62
256
6
ByLayer
370
18
48
1
60
0
100
AcDbMText
10
-49.841114
20
6.658437
30
0
210
0
220
0
230
1
1
%%c
40
3
41
0
44
1.084337
50
90
71
7
72
5
7
iso_b_vert
0
MTEXT
5
126
100
AcDbEntity
8
SK2
62
256
6
ByLayer
370
18
48
1
60
0
100
AcDbMText
10
-49.841114
20
12.635
30
0
210
0
220
0
230
1
1
\W0.5321;10
40
3
41
0
44
1.084337
50
90
71
7
72
5
7
iso_b_vert
0
MTEXT
5
12F
100
AcDbEntity
8
SK2
62
256
6
ByLayer
370
18
48
1
60
0
100
AcDbMText
10
129.752163
20
-2.114886
30
0
210
0
220
0
230
1
1
\W0.7071;140%%d
40
3
41
0
44
1.084337
50
0
71
7
72
5
7
iso_b_vert
0
MTEXT
5
138
100
AcDbEntity
8
SK6
62
256
6
ByLayer
370
18
48
1
60
0
100
AcDbMText
10
12.305643
20
-77.114886
30
0
210
0
220
0
230
1
1
\W0.7522;860.1-0930-076A1-SD S2BM
40
3
41
0
44
1.084337
50
0
71
7
72
5
7
iso_b_vert
0
HATCH
5
120
100
AcDbEntity
8
2
62
256
6
ByLayer
370
13
48
1
60
0
100
AcDbHatch
10
0
20
0
30
0
210
0
220
0
230
1
2
ANSI31
70
0
71
0
91
1
92
5
93
3
72
1
10
119.5
20
4.65000000000001
11
119.960783741553
21
1.15000169255319
72
1
10
119.960783741553
20
1.15000169255319
11
119.039216258447
21
1.14999830744682
72
1
10
119.039216258447
20
1.14999830744682
11
119.5
21
4.65000000000001
97
0
75
0
76
1
52
0
41
0.0062
77
0
78
1
53
45
43
0
44
0
45
-0.0139193969876572
46
0.0139193969876572
79
0
47
0
98
1
10
0
20
0
0
HATCH
5
124
100
AcDbEntity
8
2
62
256
6
ByLayer
370
13
48
1
60
0
100
AcDbHatch
10
0
20
0
30
0
210
0
220
0
230
1
2
ANSI31
70
0
71
0
91
1
92
5
93
3
72
1
10
119.5
20
-4.65000000000001
11
119.039216258447
21
-1.15000169255319
72
1
10
119.039216258447
20
-1.15000169255319
11
119.960783741553
21
-1.14999830744682
72
1
10
119.960783741553
20
-1.14999830744682
11
119.5
21
-4.65000000000001
97
0
75
0
76
1
52
0
41
0.0062
77
0
78
1
53
45
43
0
44
0
45
-0.0139193969876572
46
0.0139193969876572
79
0
47
0
98
1
10
0
20
0
0
HATCH
5
12A
100
AcDbEntity
8
SK2
62
256
6
ByLayer
370
13
48
1
60
0
100
AcDbHatch
10
0
20
0
30
0
210
0
220
0
230
1
2
ANSI31
70
0
71
0
91
1
92
5
93
3
72
1
10
-48.5
20
5
11
-48.0392162584472
21
1.50000169255318
72
1
10
-48.0392162584472
20
1.50000169255318
11
-48.9607837415528
21
1.49999830744682
72
1
10
-48.9607837415528
20
1.49999830744682
11
-48.5
21
5
97
0
75
0
76
1
52
0
41
0.0062
77
0
78
1
53
45
43
0
44
0
45
-0.0139193969876572
46
0.0139193969876572
79
0
47
0
98
1
10
0
20
0
0
HATCH
5
12E
100
AcDbEntity
8
SK2
62
256
6
ByLayer
370
13
48
1
60
0
100
AcDbHatch
10
0
20
0
30
0
210
0
220
0
230
1
2
ANSI31
70
0
71
0
91
1
92
5
93
3
72
1
10
-48.5
20
-5
11
-48.9607837415528
21
-1.50000169255318
72
1
10
-48.9607837415528
20
-1.50000169255318
11
-48.0392162584472
21
-1.49999830744682
72
1
10
-48.0392162584472
20
-1.49999830744682
11
-48.5
21
-5
97
0
75
0
76
1
52
0
41
0.0062
77
0
78
1
53
45
43
0
44
0
45
-0.0139193969876572
46
0.0139193969876572
79
0
47
0
98
1
10
0
20
0
0
HATCH
5
133
100
AcDbEntity
8
SK2
62
256
6
ByLayer
370
13
48
1
60
0
100
AcDbHatch
10
0
20
0
30
0
210
0
220
0
230
1
2
ANSI31
70
0
71
0
91
1
92
5
93
3
72
1
10
119.246625676586
20
19.9153719835257
11
122.658834568177
21
19.0103082903184
72
1
10
122.658834568177
20
19.0103082903184
11
122.308321559576
21
18.1580012700901
72
1
10
122.308321559576
20
18.1580012700901
11
119.246625676586
21
19.9153719835257
97
0
75
0
76
1
52
0
41
0.0062
77
0
78
1
53
45
43
0
44
0
45
-0.0139193969876572
46
0.0139193969876572
79
0
47
0
98
1
10
0
20
0
0
HATCH
5
137
100
AcDbEntity
8
SK2
62
256
6
ByLayer
370
13
48
1
60
0
100
AcDbHatch
10
0
20
0
30
0
210
0
220
0
230
1
2
ANSI31
70
0
71
0
91
1
92
5
93
3
72
1
10
119.246625676586
20
-19.9153719835257
11
122.308318428882
21
-18.1580025576078
72
1
10
122.308318428882
20
-18.1580025576078
11
122.65883769887
21
-19.0103070028007
72
1
10
122.65883769887
20
-19.0103070028007
11
119.246625676586
21
-19.9153719835257
97
0
75
0
76
1
52
0
41
0.0062
77
0
78
1
53
45
43
0
44
0
45
-0.0139193969876572
46
0.0139193969876572
79
0
47
0
98
1
10
0
20
0
0
DIMENSION
5
13B
100
AcDbEntity
8
SK2
62
256
6
ByLayer
370
18
48
1
60
0
100
AcDbDimension
2
_U0
10
36
20
-21.331848
30
0
11
74
21
-21.331848
31
0
70
32
71
1
72
1
41
1
210
0
220
0
230
1
3
Standard
100
AcDbAlignedDimension
13
112
23
-4.65
33
0
14
36
24
-4.65
34
0
50
0
100
AcDbRotatedDimension
1001
ACAD
1000
DSTYLE
1002
{
1070
   371
1070
    13
1070
   372
1070
    13
1070
   170
1070
     0
1070
   144
1040
1.0
1070
   277
1070
     2
1070
   284
1070
     8
1070
   278
1070
    46
1070
   146
1040
1.166667
1070
   345
1005
16
1070
   347
1005
16
1070
   346
1005
16
1070
   344
1005
0
1070
   343
1005
0
1070
   172
1070
     1
1070
    76
1070
     0
1070
    75
1070
     0
1070
   282
1070
     0
1070
   281
1070
     0
1070
     3
1000

1070
    71
1070
     0
1070
    74
1070
     0
1070
   279
1070
     0
1070
   173
1070
     1
1070
   340
1005
11A
1070
   271
1070
     2
1070
   272
1070
     2
1070
    77
1070
     1
1070
    73
1070
     1
1070
   171
1070
     3
1070
   274
1070
     4
1070
   177
1070
     2
1070
   176
1070
     2
1070
   178
1070
     2
1070
    78
1070
     8
1070
    48
1040
-0.1
1070
    41
1040
3.5
1070
   147
1040
1.5
1070
    42
1040
1.5875
1070
    44
1040
2.0
1070
   140
1040
3.0
1002
}
1001
ACAD_DSTYLE_DIM_LINETYPE
1070
   380
1005
16
1001
ACAD_DSTYLE_DIM_EXT1_LINETYPE
1070
   381
1005
16
1001
ACAD_DSTYLE_DIM_EXT2_LINETYPE
1070
   382
1005
16
0
DIMENSION
5
156
100
AcDbEntity
8
SK2
62
256
6
ByLayer
370
18
48
1
60
0
100
AcDbDimension
2
_U1
10
6
20
-31.331848
30
0
11
59
21
-31.331848
31
0
70
32
71
1
72
1
41
1
210
0
220
0
230
1
3
Standard
100
AcDbAlignedDimension
13
112
23
-4.65
33
0
14
6
24
-4.65
34
0
50
0
100
AcDbRotatedDimension
1001
ACAD
1000
DSTYLE
1002
{
1070
   371
1070
    13
1070
   372
1070
    13
1070
     3
1000

1070
   170
1070
     0
1070
   144
1040
1.0
1070
   277
1070
     2
1070
   284
1070
     8
1070
   278
1070
    46
1070
   146
1040
1.166667
1070
   345
1005
16
1070
   347
1005
16
1070
   346
1005
16
1070
   344
1005
0
1070
   343
1005
0
1070
   172
1070
     1
1070
    76
1070
     0
1070
    75
1070
     0
1070
   282
1070
     0
1070
   281
1070
     0
1070
    71
1070
     0
1070
    74
1070
     0
1070
   279
1070
     0
1070
   173
1070
     1
1070
   340
1005
11A
1070
   271
1070
     2
1070
   272
1070
     2
1070
    77
1070
     1
1070
    73
1070
     1
1070
   171
1070
     3
1070
   274
1070
     4
1070
   177
1070
     2
1070
   176
1070
     2
1070
   178
1070
     2
1070
    78
1070
     8
1070
    48
1040
-0.1
1070
    41
1040
3.5
1070
   147
1040
1.5
1070
    42
1040
1.5875
1070
    44
1040
2.0
1070
   140
1040
3.0
1002
}
1001
ACAD_DSTYLE_DIM_LINETYPE
1070
   380
1005
16
1001
ACAD_DSTYLE_DIM_EXT1_LINETYPE
1070
   381
1005
16
1001
ACAD_DSTYLE_DIM_EXT2_LINETYPE
1070
   382
1005
16
0
DIMENSION
5
16E
100
AcDbEntity
8
SK2
62
256
6
ByLayer
370
18
48
1
60
0
100
AcDbDimension
2
_U2
10
0
20
-39.331848
30
0
11
-20
21
-39.331848
31
0
70
32
71
1
72
1
41
1
210
0
220
0
230
1
3
Standard
100
AcDbAlignedDimension
13
-40
23
-5
33
0
14
0
24
-5
34
0
50
0
100
AcDbRotatedDimension
1001
ACAD
1000
DSTYLE
1002
{
1070
   371
1070
    13
1070
   372
1070
    13
1070
     3
1000

1070
   170
1070
     0
1070
   144
1040
1.0
1070
   277
1070
     2
1070
   284
1070
     8
1070
   278
1070
    46
1070
   146
1040
1.166667
1070
   345
1005
16
1070
   347
1005
16
1070
   346
1005
16
1070
   344
1005
0
1070
   343
1005
0
1070
   172
1070
     1
1070
    76
1070
     0
1070
    75
1070
     0
1070
   282
1070
     0
1070
   281
1070
     0
1070
    71
1070
     0
1070
    74
1070
     0
1070
   279
1070
     0
1070
   173
1070
     1
1070
   340
1005
11A
1070
   271
1070
     2
1070
   272
1070
     2
1070
    77
1070
     1
1070
    73
1070
     1
1070
   171
1070
     3
1070
   274
1070
     4
1070
   177
1070
     2
1070
   176
1070
     2
1070
   178
1070
     2
1070
    78
1070
     8
1070
    48
1040
-0.1
1070
    41
1040
3.5
1070
   147
1040
1.5
1070
    42
1040
1.5875
1070
    44
1040
2.0
1070
   140
1040
3.0
1002
}
1001
ACAD_DSTYLE_DIM_LINETYPE
1070
   380
1005
16
1001
ACAD_DSTYLE_DIM_EXT1_LINETYPE
1070
   381
1005
16
1001
ACAD_DSTYLE_DIM_EXT2_LINETYPE
1070
   382
1005
16
0
DIMENSION
5
186
100
AcDbEntity
8
SK2
62
256
6
ByLayer
370
18
48
1
60
0
100
AcDbDimension
2
_U3
10
112
20
-47.331848
30
0
11
36
21
-47.331848
31
0
70
32
71
1
72
1
41
1
210
0
220
0
230
1
3
Standard
100
AcDbAlignedDimension
13
-40
23
-5
33
0
14
112
24
-4.65
34
0
50
0
100
AcDbRotatedDimension
1001
ACAD
1000
DSTYLE
1002
{
1070
   371
1070
    13
1070
   372
1070
    13
1070
     3
1000

1070
   170
1070
     0
1070
   144
1040
1.0
1070
   277
1070
     2
1070
   284
1070
     8
1070
   278
1070
    46
1070
   146
1040
1.166667
1070
   345
1005
16
1070
   347
1005
16
1070
   346
1005
16
1070
   344
1005
0
1070
   343
1005
0
1070
   172
1070
     1
1070
    76
1070
     0
1070
    75
1070
     0
1070
   282
1070
     0
1070
   281
1070
     0
1070
    71
1070
     0
1070
    74
1070
     0
1070
   279
1070
     0
1070
   173
1070
     1
1070
   340
1005
11A
1070
   271
1070
     2
1070
   272
1070
     2
1070
    77
1070
     1
1070
    73
1070
     1
1070
   171
1070
     3
1070
   274
1070
     4
1070
   177
1070
     2
1070
   176
1070
     2
1070
   178
1070
     2
1070
    78
1070
     8
1070
    48
1040
-0.1
1070
    41
1040
3.5
1070
   147
1040
1.5
1070
    42
1040
1.5875
1070
    44
1040
2.0
1070
   140
1040
3.0
1002
}
1001
ACAD_DSTYLE_DIM_LINETYPE
1070
   380
1005
16
1001
ACAD_DSTYLE_DIM_EXT1_LINETYPE
1070
   381
1005
16
1001
ACAD_DSTYLE_DIM_EXT2_LINETYPE
1070
   382
1005
16
0
DIMENSION
5
19E
100
AcDbEntity
8
2
62
256
6
ByLayer
370
18
48
1
60
0
100
AcDbDimension
2
_U4
10
0
20
-39.331848
30
0
11
56
21
-39.331848
31
0
70
32
71
1
72
1
41
1
210
0
220
0
230
1
3
Standard
100
AcDbAlignedDimension
13
112
23
-4.65
33
0
14
0
24
-4.65
34
0
50
0
100
AcDbRotatedDimension
1001
ACAD
1000
DSTYLE
1002
{
1070
   371
1070
    13
1070
   372
1070
    13
1070
     3
1000

1070
   170
1070
     0
1070
   144
1040
1.0
1070
   277
1070
     2
1070
   284
1070
     8
1070
   278
1070
    46
1070
   146
1040
1.166667
1070
   345
1005
16
1070
   347
1005
16
1070
   346
1005
16
1070
   344
1005
0
1070
   343
1005
0
1070
   172
1070
     1
1070
    76
1070
     0
1070
    75
1070
     0
1070
   282
1070
     0
1070
   281
1070
     0
1070
    71
1070
     0
1070
    74
1070
     0
1070
   279
1070
     0
1070
   173
1070
     1
1070
   340
1005
11A
1070
   271
1070
     2
1070
   272
1070
     2
1070
    77
1070
     1
1070
    73
1070
     1
1070
   171
1070
     3
1070
   274
1070
     4
1070
   177
1070
     2
1070
   176
1070
     2
1070
   178
1070
     2
1070
    78
1070
     8
1070
    48
1040
-0.1
1070
    41
1040
3.5
1070
   147
1040
1.5
1070
    42
1040
1.5875
1070
    44
1040
2.0
1070
   140
1040
3.0
1002
}
1001
ACAD_DSTYLE_DIM_LINETYPE
1070
   380
1005
16
1001
ACAD_DSTYLE_DIM_EXT1_LINETYPE
1070
   381
1005
16
1001
ACAD_DSTYLE_DIM_EXT2_LINETYPE
1070
   382
1005
16
0
ENDSEC
0
SECTION
2
OBJECTS
0
DICTIONARY
5
226
330
0
100
AcDbDictionary
280
0
281
1
3
ACAD_GROUP
350
227
3
ACAD_MLINESTYLE
350
228
0
DICTIONARY
5
227
330
0
100
AcDbDictionary
280
0
281
1
0
DICTIONARY
5
228
330
0
100
AcDbDictionary
280
0
281
1
3
Standard
350
18
0
MLINESTYLE
5
18
330
228
100
AcDbMlineStyle
2
Standard
70
0
3

62
256
51
90
52
90
71
2
49
-0.5
62
256
6
ByLayer
49
0.5
62
256
6
ByLayer
0
RASTERVARIABLES
5
214
330

100
AcDbRasterVariables
90
0
70
1
71
1
72
1
0
ENDSEC
0
EOF
