0
SECTION
2
HEADER
9
$ACADVER
1
AC1015
9
$DWGCODEPAGE
3
ANSI_1252
9
$HANDSEED
5
22b
9
$ANGBASE
50
0
9
$ANGDIR
70
0
9
$ATTMODE
70
1
9
$AUNITS
70
0
9
$AUPREC
70
0
9
$CECOLOR
62
256
9
$CELTSCALE
40
1
9
$CELTYPE
6
ByLayer
9
$CELWEIGHT
370
18
9
$CLAYER
8
0
9
$CMLJUST
70
0
9
$CMLSCALE
40
1
9
$CMLSTYLE
2
Standard
9
$DIMSTYLE
2
Standard
9
$TEXTSIZE
40
0.2
9
$TEXTSTYLE
7
Standard
9
$LUNITS
70
2
9
$LUPREC
70
4
9
$EXTNAMES
290
1
9
$INSUNITS
70
4
9
$LTSCALE
40
1
9
$LWDISPLAY
290
1
9
$PDMODE
70
0
9
$PDSIZE
40
0
9
$PLINEGEN
70
0
0
ENDSEC
0
SECTION
2
CLASSES
0
CLASS
1
RASTERVARIABLES
2
AcDbRasterVariables
3
ISM
90
0
280
0
281
0
0
ENDSEC
0
SECTION
2
TABLES
0
TABLE
2
VPORT
5
221
100
AcDbSymbolTable
0
VPORT
5
1
100
AcDbSymbolTableRecord
100
AcDbViewportTableRecord
2
*Active
70
0
10
0
20
0
11
1
21
1
12
-1
22
1
13
0
23
0
14
0.5
24
0.5
15
10
25
10
16
0
26
0
36
1
17
0
27
0
37
0
0
ENDTAB
0
TABLE
2
LTYPE
5
222
100
AcDbSymbolTable
0
LTYPE
5
14
100
AcDbSymbolTableRecord
100
AcDbLinetypeTableRecord
70
0
2
ByBlock
3

72
65
73
0
40
0
0
LTYPE
5
15
100
AcDbSymbolTableRecord
100
AcDbLinetypeTableRecord
70
0
2
ByLayer
3

72
65
73
0
40
0
0
LTYPE
5
16
100
AcDbSymbolTableRecord
100
AcDbLinetypeTableRecord
70
0
2
Continuous
3
Solid line
72
65
73
0
40
0
0
LTYPE
5
6E
100
AcDbSymbolTableRecord
100
AcDbLinetypeTableRecord
70
0
2
CENTER
3
____ _ ____ _ ____ _ ____
72
65
73
4
40
47.5
49
22
74
0
49
-8.5
74
0
49
8.5
74
0
49
-8.5
74
0
0
LTYPE
5
6F
100
AcDbSymbolTableRecord
100
AcDbLinetypeTableRecord
70
0
2
DASHED
3
__ __ __ __ __ __ __ __ __
72
65
73
2
40
25.72
49
12.86
74
0
49
-12.86
74
0
0
ENDTAB
0
TABLE
2
LAYER
5
223
100
AcDbSymbolTable
0
LAYER
5
10
100
AcDbSymbolTableRecord
100
AcDbLayerTableRecord
2
0
70
0
62
7
6
Continuous
290
1
370
-3
390
0
0
LAYER
5
71
100
AcDbSymbolTableRecord
100
AcDbLayerTableRecord
2
80
70
0
62
-6
6
Continuous
290
1
370
-3
390
0
0
LAYER
5
73
100
AcDbSymbolTableRecord
100
AcDbLayerTableRecord
2
81
70
0
62
-3
6
Continuous
290
1
370
-3
390
0
0
LAYER
5
75
100
AcDbSymbolTableRecord
100
AcDbLayerTableRecord
2
1
70
0
62
4
6
Continuous
290
1
370
-3
390
0
0
LAYER
5
83
100
AcDbSymbolTableRecord
100
AcDbLayerTableRecord
2
4
70
0
62
-2
6
CENTER
290
1
370
-3
390
0
0
LAYER
5
A7
100
AcDbSymbolTableRecord
100
AcDbLayerTableRecord
2
2
70
0
62
7
6
Continuous
290
1
370
-3
390
0
0
LAYER
5
136
100
AcDbSymbolTableRecord
100
AcDbLayerTableRecord
2
Defpoints
70
0
62
7
6
Continuous
290
0
370
-3
390
0
0
LAYER
5
20d
100
AcDbSymbolTableRecord
100
AcDbLayerTableRecord
2
SK4
70
0
62
2
6
CENTER
290
1
370
-3
390
0
0
LAYER
5
20e
100
AcDbSymbolTableRecord
100
AcDbLayerTableRecord
2
SK1
70
0
62
4
6
Continuous
290
1
370
-3
390
0
0
LAYER
5
20f
100
AcDbSymbolTableRecord
100
AcDbLayerTableRecord
2
SK2
70
0
62
7
6
Continuous
290
1
370
-3
390
0
0
LAYER
5
210
100
AcDbSymbolTableRecord
100
AcDbLayerTableRecord
2
SK6
70
0
62
5
6
Continuous
290
1
370
-3
390
0
0
ENDTAB
0
TABLE
2
STYLE
5
224
100
AcDbSymbolTable
0
STYLE
5
11
100
AcDbSymbolTableRecord
100
AcDbTextStyleTableRecord
2
Standard
3
txt
70
0
71
0
40
0
41
1
42
0
50
0
0
STYLE
5
112
100
AcDbSymbolTableRecord
100
AcDbTextStyleTableRecord
2
iso_b_vert
3
simplex.shx
70
0
71
0
40
0
41
1
42
0
50
0
0
STYLE
5
113
100
AcDbSymbolTableRecord
100
AcDbTextStyleTableRecord
2
DWGDirectTextStyle
3
simplex
70
0
71
0
40
0
41
1
42
0
50
0
0
ENDTAB
0
TABLE
2
DIMSTYLE
5
225
100
AcDbSymbolTable
100
AcDbDimStyleTable
0
DIMSTYLE
105
27
100
AcDbSymbolTableRecord
100
AcDbDimStyleTableRecord
2
Standard
70
0
3
<>
41
0.18
42
0.0625
44
0.18
140
0.18
147
0.09
73
0
74
0
77
1
271
2
275
0
278
52
280
0
340
11
0
ENDTAB
0
TABLE
2
VIEW
5
226
100
AcDbSymbolTable
0
ENDTAB
0
TABLE
2
UCS
5
227
100
AcDbSymbolTable
0
ENDTAB
0
TABLE
2
APPID
5
228
100
AcDbSymbolTable
0
APPID
5
12
100
AcDbSymbolTableRecord
100
AcDbRegAppTableRecord
2
ACAD
70
0
0
APPID
5
132
100
AcDbSymbolTableRecord
100
AcDbRegAppTableRecord
2
ACAD_DSTYLE_DIMBREAK
70
0
0
APPID
5
1CC
100
AcDbSymbolTableRecord
100
AcDbRegAppTableRecord
2
ACAD_DSTYLE_DIM_LINETYPE
70
0
0
APPID
5
1CD
100
AcDbSymbolTableRecord
100
AcDbRegAppTableRecord
2
ACAD_DSTYLE_DIM_EXT1_LINETYPE
70
0
0
APPID
5
1CE
100
AcDbSymbolTableRecord
100
AcDbRegAppTableRecord
2
ACAD_DSTYLE_DIM_EXT2_LINETYPE
70
0
0
APPID
5
209
100
AcDbSymbolTableRecord
100
AcDbRegAppTableRecord
2
ACAD_MLEADERVER
70
0
0
ENDTAB
0
TABLE
2
BLOCK_RECORD
5
229
100
AcDbSymbolTable
0
BLOCK_RECORD
5
1F
100
AcDbSymbolTableRecord
100
AcDbBlockTableRecord
2
*Model_Space
340
0
70
0
0
BLOCK_RECORD
5
1B
100
AcDbSymbolTableRecord
100
AcDbBlockTableRecord
2
*Paper_Space
340
0
70
0
0
BLOCK_RECORD
5
23
100
AcDbSymbolTableRecord
100
AcDbBlockTableRecord
2
*Paper_Space0
340
0
70
0
0
BLOCK_RECORD
5
137
100
AcDbSymbolTableRecord
100
AcDbBlockTableRecord
2
*D1
340
0
70
0
0
BLOCK_RECORD
5
143
100
AcDbSymbolTableRecord
100
AcDbBlockTableRecord
2
_U0
340
0
70
0
0
BLOCK_RECORD
5
151
100
AcDbSymbolTableRecord
100
AcDbBlockTableRecord
2
*D3
340
0
70
0
0
BLOCK_RECORD
5
15D
100
AcDbSymbolTableRecord
100
AcDbBlockTableRecord
2
_U1
340
0
70
0
0
BLOCK_RECORD
5
169
100
AcDbSymbolTableRecord
100
AcDbBlockTableRecord
2
*D5
340
0
70
0
0
BLOCK_RECORD
5
175
100
AcDbSymbolTableRecord
100
AcDbBlockTableRecord
2
_U2
340
0
70
0
0
BLOCK_RECORD
5
181
100
AcDbSymbolTableRecord
100
AcDbBlockTableRecord
2
*D7
340
0
70
0
0
BLOCK_RECORD
5
18D
100
AcDbSymbolTableRecord
100
AcDbBlockTableRecord
2
_U3
340
0
70
0
0
BLOCK_RECORD
5
199
100
AcDbSymbolTableRecord
100
AcDbBlockTableRecord
2
*D9
340
0
70
0
0
BLOCK_RECORD
5
1A5
100
AcDbSymbolTableRecord
100
AcDbBlockTableRecord
2
_U4
340
0
70
0
0
ENDTAB
0
ENDSEC
0
SECTION
2
BLOCKS
0
BLOCK
5
20
100
AcDbEntity
8
0
100
AcDbBlockBegin
2
*Model_Space
70
0
10
0
20
0
30
0
3
*Model_Space
0
ENDBLK
5
21
100
AcDbEntity
8
0
100
AcDbBlockEnd
0
BLOCK
5
1C
100
AcDbEntity
8
0
100
AcDbBlockBegin
2
*Paper_Space
70
0
10
0
20
0
30
0
3
*Paper_Space
0
ENDBLK
5
1D
100
AcDbEntity
8
0
100
AcDbBlockEnd
0
BLOCK
5
24
100
AcDbEntity
8
0
100
AcDbBlockBegin
2
*Paper_Space0
70
0
10
0
20
0
30
0
3
*Paper_Space0
0
ENDBLK
5
25
100
AcDbEntity
8
0
100
AcDbBlockEnd
0
BLOCK
5
138
100
AcDbEntity
8
0
100
AcDbBlockBegin
2
*D1
70
1
10
0
20
0
30
0
3
*D1
0
LINE
5
13A
100
AcDbEntity
8
0
62
256
6
ByLayer
370
-2
48
1
60
0
100
AcDbLine
10
63
20
-6.0375
30
0
11
63
21
-27.295009
31
0
39
0
210
0
220
0
230
1
0
LINE
5
13B
100
AcDbEntity
8
0
62
256
6
ByLayer
370
-2
48
1
60
0
100
AcDbLine
10
16.9
20
-6.0375
30
0
11
16.9
21
-27.295009
31
0
39
0
210
0
220
0
230
1
0
LINE
5
13C
100
AcDbEntity
8
0
62
256
6
ByLayer
370
-2
48
1
60
0
100
AcDbLine
10
59.5
20
-25.295009
30
0
11
20.4
21
-25.295009
31
0
39
0
210
0
220
0
230
1
0
SOLID
5
13D
100
AcDbEntity
8
0
62
256
6
ByLayer
370
-1
48
1
60
0
100
AcDbTrace
10
59.5
20
-25.878343
30
0
11
59.5
21
-24.711676
31
0
12
63
22
-25.295009
32
0
13
63
23
-25.295009
33
0
39
0
210
0
220
0
230
1
0
SOLID
5
13E
100
AcDbEntity
8
0
62
256
6
ByLayer
370
-1
48
1
60
0
100
AcDbTrace
10
20.4
20
-24.711676
30
0
11
20.4
21
-25.878343
31
0
12
16.9
22
-25.295009
32
0
13
16.9
23
-25.295009
33
0
39
0
210
0
220
0
230
1
0
MTEXT
5
13F
100
AcDbEntity
8
0
62
256
6
ByLayer
370
18
48
1
60
0
100
AcDbMText
10
39.95
20
-19.295009
30
0
210
0
220
0
230
1
1
\A1;46.1
40
3
41
0
44
1
50
0
71
5
72
5
7
iso_b_vert
0
POINT
5
140
100
AcDbEntity
8
Defpoints
62
0
6
ByLayer
370
-1
48
1
60
0
100
AcDbPoint
10
63
20
-4.45
30
0
39
0
210
0
220
0
230
1
50
360
0
POINT
5
141
100
AcDbEntity
8
Defpoints
62
0
6
ByLayer
370
-1
48
1
60
0
100
AcDbPoint
10
16.9
20
-4.45
30
0
39
0
210
0
220
0
230
1
50
360
0
POINT
5
142
100
AcDbEntity
8
Defpoints
62
0
6
ByLayer
370
-1
48
1
60
0
100
AcDbPoint
10
16.9
20
-25.295009
30
0
39
0
210
0
220
0
230
1
50
360
0
ENDBLK
5
139
100
AcDbEntity
8
0
100
AcDbBlockEnd
0
BLOCK
5
14C
100
AcDbEntity
8
0
100
AcDbBlockBegin
2
_U0
70
0
10
0
20
0
30
0
3
_U0
0
MTEXT
5
144
100
AcDbEntity
8
SK2
62
256
6
ByLayer
370
18
48
1
60
0
100
AcDbMText
10
36.805544
20
-23.097395
30
0
210
0
220
0
230
1
1
\W0.7531;46.1
40
3
41
0
44
1.084337
50
0
71
7
72
5
7
iso_b_vert
0
MTEXT
5
145
100
AcDbEntity
8
SK2
62
256
6
ByLayer
370
18
48
1
60
0
100
AcDbMText
10
34.705544
20
-23.097395
30
0
210
0
220
0
230
1
1
\W1.1313;{\H1.88x;(}
40
3
41
0
44
1.084337
50
0
71
7
72
5
7
iso_b_vert
0
MTEXT
5
146
100
AcDbEntity
8
SK2
62
256
6
ByLayer
370
18
48
1
60
0
100
AcDbMText
10
43.412456
20
-23.097395
30
0
210
0
220
0
230
1
1
\W1.1313;{\H1.88x;)}
40
3
41
0
44
1.084337
50
0
71
7
72
5
7
iso_b_vert
0
LINE
5
147
100
AcDbEntity
8
SK2
62
256
6
ByLayer
370
13
48
1
60
0
100
AcDbLine
10
63
20
-6.0375
30
0
11
63
21
-27.295009
31
0
39
0
210
0
220
0
230
1
0
LINE
5
148
100
AcDbEntity
8
SK2
62
256
6
ByLayer
370
13
48
1
60
0
100
AcDbLine
10
16.9
20
-6.0375
30
0
11
16.9
21
-27.295009
31
0
39
0
210
0
220
0
230
1
0
LINE
5
149
100
AcDbEntity
8
SK2
62
256
6
ByLayer
370
13
48
1
60
0
100
AcDbLine
10
63
20
-25.295009
30
0
11
16.9
21
-25.295009
31
0
39
0
210
0
220
0
230
1
0
SOLID
5
14A
100
AcDbEntity
8
SK2
62
256
6
ByLayer
370
18
48
1
60
0
100
AcDbTrace
10
63
20
-25.295009
30
0
11
59.500002
21
-25.755793
31
0
12
59.499998
22
-24.834226
32
0
13
59.499998
23
-24.834226
33
0
39
0
210
0
220
0
230
1
0
SOLID
5
14B
100
AcDbEntity
8
SK2
62
256
6
ByLayer
370
18
48
1
60
0
100
AcDbTrace
10
16.9
20
-25.295009
30
0
11
20.399998
21
-24.834226
31
0
12
20.400002
22
-25.755793
32
0
13
20.400002
23
-25.755793
33
0
39
0
210
0
220
0
230
1
0
ENDBLK
5
14D
100
AcDbEntity
8
0
100
AcDbBlockEnd
0
BLOCK
5
152
100
AcDbEntity
8
0
100
AcDbBlockBegin
2
*D3
70
1
10
0
20
0
30
0
3
*D3
0
LINE
5
154
100
AcDbEntity
8
0
62
256
6
ByLayer
370
-2
48
1
60
0
100
AcDbLine
10
63
20
-6.0375
30
0
11
63
21
-37.295009
31
0
39
0
210
0
220
0
230
1
0
LINE
5
155
100
AcDbEntity
8
0
62
256
6
ByLayer
370
-2
48
1
60
0
100
AcDbLine
10
2
20
-6.0375
30
0
11
2
21
-37.295009
31
0
39
0
210
0
220
0
230
1
0
LINE
5
156
100
AcDbEntity
8
0
62
256
6
ByLayer
370
-2
48
1
60
0
100
AcDbLine
10
59.5
20
-35.295009
30
0
11
5.5
21
-35.295009
31
0
39
0
210
0
220
0
230
1
0
SOLID
5
157
100
AcDbEntity
8
0
62
256
6
ByLayer
370
-1
48
1
60
0
100
AcDbTrace
10
59.5
20
-35.878343
30
0
11
59.5
21
-34.711676
31
0
12
63
22
-35.295009
32
0
13
63
23
-35.295009
33
0
39
0
210
0
220
0
230
1
0
SOLID
5
158
100
AcDbEntity
8
0
62
256
6
ByLayer
370
-1
48
1
60
0
100
AcDbTrace
10
5.5
20
-34.711676
30
0
11
5.5
21
-35.878343
31
0
12
2
22
-35.295009
32
0
13
2
23
-35.295009
33
0
39
0
210
0
220
0
230
1
0
MTEXT
5
159
100
AcDbEntity
8
0
62
256
6
ByLayer
370
18
48
1
60
0
100
AcDbMText
10
32.5
20
-29.295009
30
0
210
0
220
0
230
1
1
\A1;61
40
3
41
0
44
1
50
0
71
5
72
5
7
iso_b_vert
0
POINT
5
15A
100
AcDbEntity
8
Defpoints
62
0
6
ByLayer
370
-1
48
1
60
0
100
AcDbPoint
10
63
20
-4.45
30
0
39
0
210
0
220
0
230
1
50
360
0
POINT
5
15B
100
AcDbEntity
8
Defpoints
62
0
6
ByLayer
370
-1
48
1
60
0
100
AcDbPoint
10
2
20
-4.45
30
0
39
0
210
0
220
0
230
1
50
360
0
POINT
5
15C
100
AcDbEntity
8
Defpoints
62
0
6
ByLayer
370
-1
48
1
60
0
100
AcDbPoint
10
2
20
-35.295009
30
0
39
0
210
0
220
0
230
1
50
360
0
ENDBLK
5
153
100
AcDbEntity
8
0
100
AcDbBlockEnd
0
BLOCK
5
164
100
AcDbEntity
8
0
100
AcDbBlockBegin
2
_U1
70
0
10
0
20
0
30
0
3
_U1
0
MTEXT
5
15E
100
AcDbEntity
8
SK2
62
256
6
ByLayer
370
18
48
1
60
0
100
AcDbMText
10
31.242115
20
-34.409895
30
0
210
0
220
0
230
1
1
\W0.6351;61
40
3
41
0
44
1.084337
50
0
71
7
72
5
7
iso_b_vert
0
LINE
5
15F
100
AcDbEntity
8
SK2
62
256
6
ByLayer
370
13
48
1
60
0
100
AcDbLine
10
63
20
-6.0375
30
0
11
63
21
-37.295009
31
0
39
0
210
0
220
0
230
1
0
LINE
5
160
100
AcDbEntity
8
SK2
62
256
6
ByLayer
370
13
48
1
60
0
100
AcDbLine
10
2
20
-6.0375
30
0
11
2
21
-37.295009
31
0
39
0
210
0
220
0
230
1
0
LINE
5
161
100
AcDbEntity
8
SK2
62
256
6
ByLayer
370
13
48
1
60
0
100
AcDbLine
10
63
20
-35.295009
30
0
11
2
21
-35.295009
31
0
39
0
210
0
220
0
230
1
0
SOLID
5
162
100
AcDbEntity
8
SK2
62
256
6
ByLayer
370
18
48
1
60
0
100
AcDbTrace
10
63
20
-35.295009
30
0
11
59.500002
21
-35.755793
31
0
12
59.499998
22
-34.834226
32
0
13
59.499998
23
-34.834226
33
0
39
0
210
0
220
0
230
1
0
SOLID
5
163
100
AcDbEntity
8
SK2
62
256
6
ByLayer
370
18
48
1
60
0
100
AcDbTrace
10
2
20
-35.295009
30
0
11
5.499998
21
-34.834226
31
0
12
5.500002
22
-35.755793
32
0
13
5.500002
23
-35.755793
33
0
39
0
210
0
220
0
230
1
0
ENDBLK
5
165
100
AcDbEntity
8
0
100
AcDbBlockEnd
0
BLOCK
5
16A
100
AcDbEntity
8
0
100
AcDbBlockBegin
2
*D5
70
1
10
0
20
0
30
0
3
*D5
0
LINE
5
16C
100
AcDbEntity
8
0
62
256
6
ByLayer
370
-2
48
1
60
0
100
AcDbLine
10
-40
20
-6.5875
30
0
11
-40
21
-45.295009
31
0
39
0
210
0
220
0
230
1
0
LINE
5
16D
100
AcDbEntity
8
0
62
256
6
ByLayer
370
-2
48
1
60
0
100
AcDbLine
10
0
20
-6.5875
30
0
11
0
21
-45.295009
31
0
39
0
210
0
220
0
230
1
0
LINE
5
16E
100
AcDbEntity
8
0
62
256
6
ByLayer
370
-2
48
1
60
0
100
AcDbLine
10
-36.5
20
-43.295009
30
0
11
-3.5
21
-43.295009
31
0
39
0
210
0
220
0
230
1
0
SOLID
5
16F
100
AcDbEntity
8
0
62
256
6
ByLayer
370
-1
48
1
60
0
100
AcDbTrace
10
-36.5
20
-42.711676
30
0
11
-36.5
21
-43.878343
31
0
12
-40
22
-43.295009
32
0
13
-40
23
-43.295009
33
0
39
0
210
0
220
0
230
1
0
SOLID
5
170
100
AcDbEntity
8
0
62
256
6
ByLayer
370
-1
48
1
60
0
100
AcDbTrace
10
-3.5
20
-43.878343
30
0
11
-3.5
21
-42.711676
31
0
12
0
22
-43.295009
32
0
13
0
23
-43.295009
33
0
39
0
210
0
220
0
230
1
0
MTEXT
5
171
100
AcDbEntity
8
0
62
256
6
ByLayer
370
18
48
1
60
0
100
AcDbMText
10
-20
20
-37.295009
30
0
210
0
220
0
230
1
1
\A1;40
40
3
41
0
44
1
50
0
71
5
72
5
7
iso_b_vert
0
POINT
5
172
100
AcDbEntity
8
Defpoints
62
0
6
ByLayer
370
-1
48
1
60
0
100
AcDbPoint
10
-40
20
-5
30
0
39
0
210
0
220
0
230
1
50
360
0
POINT
5
173
100
AcDbEntity
8
Defpoints
62
0
6
ByLayer
370
-1
48
1
60
0
100
AcDbPoint
10
0
20
-5
30
0
39
0
210
0
220
0
230
1
50
360
0
POINT
5
174
100
AcDbEntity
8
Defpoints
62
0
6
ByLayer
370
-1
48
1
60
0
100
AcDbPoint
10
0
20
-43.295009
30
0
39
0
210
0
220
0
230
1
50
360
0
ENDBLK
5
16B
100
AcDbEntity
8
0
100
AcDbBlockEnd
0
BLOCK
5
17C
100
AcDbEntity
8
0
100
AcDbBlockBegin
2
_U2
70
0
10
0
20
0
30
0
3
_U2
0
MTEXT
5
176
100
AcDbEntity
8
SK2
62
256
6
ByLayer
370
18
48
1
60
0
100
AcDbMText
10
-21.790771
20
-42.409895
30
0
210
0
220
0
230
1
1
\W0.7361;40
40
3
41
0
44
1.084337
50
0
71
7
72
5
7
iso_b_vert
0
LINE
5
177
100
AcDbEntity
8
SK2
62
256
6
ByLayer
370
13
48
1
60
0
100
AcDbLine
10
-40
20
-6.5875
30
0
11
-40
21
-45.295009
31
0
39
0
210
0
220
0
230
1
0
LINE
5
178
100
AcDbEntity
8
SK2
62
256
6
ByLayer
370
13
48
1
60
0
100
AcDbLine
10
0
20
-6.5875
30
0
11
0
21
-45.295009
31
0
39
0
210
0
220
0
230
1
0
LINE
5
179
100
AcDbEntity
8
SK2
62
256
6
ByLayer
370
13
48
1
60
0
100
AcDbLine
10
-40
20
-43.295009
30
0
11
0
21
-43.295009
31
0
39
0
210
0
220
0
230
1
0
SOLID
5
17A
100
AcDbEntity
8
SK2
62
256
6
ByLayer
370
18
48
1
60
0
100
AcDbTrace
10
-40
20
-43.295009
30
0
11
-36.500002
21
-42.834226
31
0
12
-36.499998
22
-43.755793
32
0
13
-36.499998
23
-43.755793
33
0
39
0
210
0
220
0
230
1
0
SOLID
5
17B
100
AcDbEntity
8
SK2
62
256
6
ByLayer
370
18
48
1
60
0
100
AcDbTrace
10
0
20
-43.295009
30
0
11
-3.499998
21
-43.755793
31
0
12
-3.500002
22
-42.834226
32
0
13
-3.500002
23
-42.834226
33
0
39
0
210
0
220
0
230
1
0
ENDBLK
5
17D
100
AcDbEntity
8
0
100
AcDbBlockEnd
0
BLOCK
5
182
100
AcDbEntity
8
0
100
AcDbBlockBegin
2
*D7
70
1
10
0
20
0
30
0
3
*D7
0
LINE
5
184
100
AcDbEntity
8
0
62
256
6
ByLayer
370
-2
48
1
60
0
100
AcDbLine
10
-40
20
-6.5875
30
0
11
-40
21
-53.295009
31
0
39
0
210
0
220
0
230
1
0
LINE
5
185
100
AcDbEntity
8
0
62
256
6
ByLayer
370
-2
48
1
60
0
100
AcDbLine
10
63
20
-6.0375
30
0
11
63
21
-53.295009
31
0
39
0
210
0
220
0
230
1
0
LINE
5
186
100
AcDbEntity
8
0
62
256
6
ByLayer
370
-2
48
1
60
0
100
AcDbLine
10
-36.5
20
-51.295009
30
0
11
59.5
21
-51.295009
31
0
39
0
210
0
220
0
230
1
0
SOLID
5
187
100
AcDbEntity
8
0
62
256
6
ByLayer
370
-1
48
1
60
0
100
AcDbTrace
10
-36.5
20
-50.711676
30
0
11
-36.5
21
-51.878343
31
0
12
-40
22
-51.295009
32
0
13
-40
23
-51.295009
33
0
39
0
210
0
220
0
230
1
0
SOLID
5
188
100
AcDbEntity
8
0
62
256
6
ByLayer
370
-1
48
1
60
0
100
AcDbTrace
10
59.5
20
-51.878343
30
0
11
59.5
21
-50.711676
31
0
12
63
22
-51.295009
32
0
13
63
23
-51.295009
33
0
39
0
210
0
220
0
230
1
0
MTEXT
5
189
100
AcDbEntity
8
0
62
256
6
ByLayer
370
18
48
1
60
0
100
AcDbMText
10
11.5
20
-45.295009
30
0
210
0
220
0
230
1
1
\A1;103
40
3
41
0
44
1
50
0
71
5
72
5
7
iso_b_vert
0
POINT
5
18A
100
AcDbEntity
8
Defpoints
62
0
6
ByLayer
370
-1
48
1
60
0
100
AcDbPoint
10
-40
20
-5
30
0
39
0
210
0
220
0
230
1
50
360
0
POINT
5
18B
100
AcDbEntity
8
Defpoints
62
0
6
ByLayer
370
-1
48
1
60
0
100
AcDbPoint
10
63
20
-4.45
30
0
39
0
210
0
220
0
230
1
50
360
0
POINT
5
18C
100
AcDbEntity
8
Defpoints
62
0
6
ByLayer
370
-1
48
1
60
0
100
AcDbPoint
10
63
20
-51.295009
30
0
39
0
210
0
220
0
230
1
50
360
0
ENDBLK
5
183
100
AcDbEntity
8
0
100
AcDbBlockEnd
0
BLOCK
5
194
100
AcDbEntity
8
0
100
AcDbBlockBegin
2
_U3
70
0
10
0
20
0
30
0
3
_U3
0
MTEXT
5
18E
100
AcDbEntity
8
SK2
62
256
6
ByLayer
370
18
48
1
60
0
100
AcDbMText
10
9.121201
20
-50.409895
30
0
210
0
220
0
230
1
1
\W0.6217;103
40
3
41
0
44
1.084337
50
0
71
7
72
5
7
iso_b_vert
0
LINE
5
18F
100
AcDbEntity
8
SK2
62
256
6
ByLayer
370
13
48
1
60
0
100
AcDbLine
10
-40
20
-6.5875
30
0
11
-40
21
-53.295009
31
0
39
0
210
0
220
0
230
1
0
LINE
5
190
100
AcDbEntity
8
SK2
62
256
6
ByLayer
370
13
48
1
60
0
100
AcDbLine
10
63
20
-6.0375
30
0
11
63
21
-53.295009
31
0
39
0
210
0
220
0
230
1
0
LINE
5
191
100
AcDbEntity
8
SK2
62
256
6
ByLayer
370
13
48
1
60
0
100
AcDbLine
10
-40
20
-51.295009
30
0
11
63
21
-51.295009
31
0
39
0
210
0
220
0
230
1
0
SOLID
5
192
100
AcDbEntity
8
SK2
62
256
6
ByLayer
370
18
48
1
60
0
100
AcDbTrace
10
-40
20
-51.295009
30
0
11
-36.500002
21
-50.834226
31
0
12
-36.499998
22
-51.755793
32
0
13
-36.499998
23
-51.755793
33
0
39
0
210
0
220
0
230
1
0
SOLID
5
193
100
AcDbEntity
8
SK2
62
256
6
ByLayer
370
18
48
1
60
0
100
AcDbTrace
10
63
20
-51.295009
30
0
11
59.500002
21
-51.755793
31
0
12
59.499998
22
-50.834226
32
0
13
59.499998
23
-50.834226
33
0
39
0
210
0
220
0
230
1
0
ENDBLK
5
195
100
AcDbEntity
8
0
100
AcDbBlockEnd
0
BLOCK
5
19A
100
AcDbEntity
8
0
100
AcDbBlockBegin
2
*D9
70
1
10
0
20
0
30
0
3
*D9
0
LINE
5
19C
100
AcDbEntity
8
0
62
256
6
ByLayer
370
-2
48
1
60
0
100
AcDbLine
10
63
20
-6.0375
30
0
11
63
21
-45.295009
31
0
39
0
210
0
220
0
230
1
0
LINE
5
19D
100
AcDbEntity
8
0
62
256
6
ByLayer
370
-2
48
1
60
0
100
AcDbLine
10
0
20
-6.0375
30
0
11
0
21
-45.295009
31
0
39
0
210
0
220
0
230
1
0
LINE
5
19E
100
AcDbEntity
8
0
62
256
6
ByLayer
370
-2
48
1
60
0
100
AcDbLine
10
59.5
20
-43.295009
30
0
11
3.5
21
-43.295009
31
0
39
0
210
0
220
0
230
1
0
SOLID
5
19F
100
AcDbEntity
8
0
62
256
6
ByLayer
370
-1
48
1
60
0
100
AcDbTrace
10
59.5
20
-43.878343
30
0
11
59.5
21
-42.711676
31
0
12
63
22
-43.295009
32
0
13
63
23
-43.295009
33
0
39
0
210
0
220
0
230
1
0
SOLID
5
1A0
100
AcDbEntity
8
0
62
256
6
ByLayer
370
-1
48
1
60
0
100
AcDbTrace
10
3.5
20
-42.711676
30
0
11
3.5
21
-43.878343
31
0
12
0
22
-43.295009
32
0
13
0
23
-43.295009
33
0
39
0
210
0
220
0
230
1
0
MTEXT
5
1A1
100
AcDbEntity
8
0
62
256
6
ByLayer
370
18
48
1
60
0
100
AcDbMText
10
31.5
20
-37.295009
30
0
210
0
220
0
230
1
1
\A1;63
40
3
41
0
44
1
50
0
71
5
72
5
7
iso_b_vert
0
POINT
5
1A2
100
AcDbEntity
8
Defpoints
62
0
6
ByLayer
370
-1
48
1
60
0
100
AcDbPoint
10
63
20
-4.45
30
0
39
0
210
0
220
0
230
1
50
360
0
POINT
5
1A3
100
AcDbEntity
8
Defpoints
62
0
6
ByLayer
370
-1
48
1
60
0
100
AcDbPoint
10
0
20
-4.45
30
0
39
0
210
0
220
0
230
1
50
360
0
POINT
5
1A4
100
AcDbEntity
8
Defpoints
62
0
6
ByLayer
370
-1
48
1
60
0
100
AcDbPoint
10
0
20
-43.295009
30
0
39
0
210
0
220
0
230
1
50
360
0
ENDBLK
5
19B
100
AcDbEntity
8
0
100
AcDbBlockEnd
0
BLOCK
5
1AC
100
AcDbEntity
8
0
100
AcDbBlockBegin
2
_U4
70
0
10
0
20
0
30
0
3
_U4
0
MTEXT
5
1A6
100
AcDbEntity
8
2
62
256
6
ByLayer
370
18
48
1
60
0
100
AcDbMText
10
29.867172
20
-42.409895
30
0
210
0
220
0
230
1
1
\W0.6740;63
40
3
41
0
44
1.084337
50
0
71
7
72
5
7
iso_b_vert
0
LINE
5
1A7
100
AcDbEntity
8
2
62
256
6
ByLayer
370
13
48
1
60
0
100
AcDbLine
10
63
20
-6.0375
30
0
11
63
21
-45.295009
31
0
39
0
210
0
220
0
230
1
0
LINE
5
1A8
100
AcDbEntity
8
2
62
256
6
ByLayer
370
13
48
1
60
0
100
AcDbLine
10
0
20
-6.0375
30
0
11
0
21
-45.295009
31
0
39
0
210
0
220
0
230
1
0
LINE
5
1A9
100
AcDbEntity
8
2
62
256
6
ByLayer
370
13
48
1
60
0
100
AcDbLine
10
63
20
-43.295009
30
0
11
0
21
-43.295009
31
0
39
0
210
0
220
0
230
1
0
SOLID
5
1AA
100
AcDbEntity
8
2
62
256
6
ByLayer
370
18
48
1
60
0
100
AcDbTrace
10
63
20
-43.295009
30
0
11
59.500002
21
-43.755793
31
0
12
59.499998
22
-42.834226
32
0
13
59.499998
23
-42.834226
33
0
39
0
210
0
220
0
230
1
0
SOLID
5
1AB
100
AcDbEntity
8
2
62
256
6
ByLayer
370
18
48
1
60
0
100
AcDbTrace
10
0
20
-43.295009
30
0
11
3.499998
21
-42.834226
31
0
12
3.500002
22
-43.755793
32
0
13
3.500002
23
-43.755793
33
0
39
0
210
0
220
0
230
1
0
ENDBLK
5
1AD
100
AcDbEntity
8
0
100
AcDbBlockEnd
0
ENDSEC
0
SECTION
2
ENTITIES
0
ARC
5
C2
100
AcDbEntity
8
1
62
256
6
ByLayer
370
18
48
1
60
0
100
AcDbCircle
39
0
10
1.293421
20
-5.141839
30
0
40
0.8
210
0
220
0
230
1
100
AcDbArc
50
89.896868
51
143.938758
0
ARC
5
C3
100
AcDbEntity
8
1
62
256
6
ByLayer
370
18
48
1
60
0
100
AcDbCircle
39
0
10
1.293421
20
5.141839
30
0
40
0.8
210
0
220
0
230
1
100
AcDbArc
50
216.061242
51
270.103132
0
ARC
5
C4
100
AcDbEntity
8
1
62
256
6
ByLayer
370
18
48
1
60
0
100
AcDbCircle
39
0
10
0
20
-4.2
30
0
40
0.8
210
0
220
0
230
1
100
AcDbArc
50
270
51
323.938758
0
ARC
5
C5
100
AcDbEntity
8
1
62
256
6
ByLayer
370
18
48
1
60
0
100
AcDbCircle
39
0
10
0
20
4.2
30
0
40
0.8
210
0
220
0
230
1
100
AcDbArc
50
36.061242
51
90
0
ARC
5
C6
100
AcDbEntity
8
SK2
62
256
6
ByLayer
370
13
48
1
60
0
100
AcDbCircle
39
0
10
63
20
0
30
0
40
20.5295148159041
210
0
220
0
230
1
100
AcDbArc
50
8.402783
51
69.99622
0
ARC
5
C7
100
AcDbEntity
8
SK2
62
256
6
ByLayer
370
13
48
1
60
0
100
AcDbCircle
39
0
10
63
20
0
30
0
40
20.5295148159041
210
0
220
0
230
1
100
AcDbArc
50
290.00378
51
351.597217
0
ELLIPSE
5
C8
100
AcDbEntity
8
1
62
256
6
ByLayer
370
18
48
1
60
0
100
AcDbEllipse
10
18.60034
20
4.304219
30
0
11
0.1
21
0
31
0
210
0
220
0
230
1
40
0.999914
41
-3.11265137827815
42
-1.55085862944159
0
POINT
5
70
100
AcDbEntity
8
80
62
256
6
ByLayer
370
18
48
1
60
0
100
AcDbPoint
10
0
20
0
30
0
39
0
210
0
220
0
230
1
50
360
0
POINT
5
72
100
AcDbEntity
8
81
62
256
6
ByLayer
370
18
48
1
60
0
100
AcDbPoint
10
63
20
0
30
0
39
0
210
0
220
0
230
1
50
360
0
POINT
5
74
100
AcDbEntity
8
1
62
256
6
ByLayer
370
18
48
1
60
0
100
AcDbPoint
10
-206.410243
20
-200
30
0
39
0
210
0
220
0
230
1
50
360
0
POINT
5
76
100
AcDbEntity
8
1
62
256
6
ByLayer
370
13
48
1
60
1
100
AcDbPoint
10
-41.5
20
0
30
0
39
0
210
0
220
0
230
1
50
360
0
POINT
5
77
100
AcDbEntity
8
1
62
256
6
ByLayer
370
13
48
1
60
1
100
AcDbPoint
10
62.872614
20
0
30
0
39
0
210
0
220
0
230
1
50
360
0
POINT
5
78
100
AcDbEntity
8
1
62
256
6
ByLayer
370
18
48
1
60
1
100
AcDbPoint
10
63
20
-4.45
30
0
39
0
210
0
220
0
230
1
50
360
0
POINT
5
79
100
AcDbEntity
8
1
62
256
6
ByLayer
370
18
48
1
60
1
100
AcDbPoint
10
16.9
20
-4.45
30
0
39
0
210
0
220
0
230
1
50
360
0
POINT
5
7A
100
AcDbEntity
8
1
62
256
6
ByLayer
370
18
48
1
60
1
100
AcDbPoint
10
63
20
-4.45
30
0
39
0
210
0
220
0
230
1
50
360
0
POINT
5
7B
100
AcDbEntity
8
1
62
256
6
ByLayer
370
18
48
1
60
1
100
AcDbPoint
10
2
20
-4.45
30
0
39
0
210
0
220
0
230
1
50
360
0
POINT
5
7C
100
AcDbEntity
8
1
62
256
6
ByLayer
370
18
48
1
60
1
100
AcDbPoint
10
-40
20
-5
30
0
39
0
210
0
220
0
230
1
50
360
0
POINT
5
7D
100
AcDbEntity
8
1
62
256
6
ByLayer
370
18
48
1
60
1
100
AcDbPoint
10
0
20
-5
30
0
39
0
210
0
220
0
230
1
50
360
0
POINT
5
7E
100
AcDbEntity
8
1
62
256
6
ByLayer
370
18
48
1
60
1
100
AcDbPoint
10
-40
20
-5
30
0
39
0
210
0
220
0
230
1
50
360
0
POINT
5
7F
100
AcDbEntity
8
1
62
256
6
ByLayer
370
18
48
1
60
1
100
AcDbPoint
10
63
20
-4.45
30
0
39
0
210
0
220
0
230
1
50
360
0
POINT
5
80
100
AcDbEntity
8
1
62
256
6
ByLayer
370
18
48
1
60
1
100
AcDbPoint
10
63
20
-4.45
30
0
39
0
210
0
220
0
230
1
50
360
0
POINT
5
81
100
AcDbEntity
8
1
62
256
6
ByLayer
370
18
48
1
60
1
100
AcDbPoint
10
0
20
-4.45
30
0
39
0
210
0
220
0
230
1
50
360
0
SPLINE
5
C9
100
AcDbEntity
8
1
62
256
6
ByLayer
370
18
48
1
60
0
100
AcDbSpline
70
4
71
3
72
8
73
4
40
0
40
0
40
0
40
0
40
1
40
1
40
1
40
1
41
1
10
62.5134609974008
20
1.52891050270313
30
0
41
1
10
62.6385111203503
20
1.17816026531693
30
0
41
1
10
62.7624433798258
20
0.827018763059897
30
0
41
1
10
62.8852336373033
20
0.475477547175387
30
0
0
SPLINE
5
CA
100
AcDbEntity
8
1
62
256
6
ByLayer
370
18
48
1
60
0
100
AcDbSpline
70
4
71
3
72
8
73
4
40
0
40
0
40
0
40
0
40
1
40
1
40
1
40
1
41
1
10
62.8852336373033
20
0.475477547175387
30
0
41
1
10
62.9222124603368
20
0.369609372629498
30
0
41
1
10
62.9600505664163
20
0.264223851905882
30
0
41
1
10
62.9987481450463
20
0.159301710799212
30
0
0
SPLINE
5
CB
100
AcDbEntity
8
1
62
256
6
ByLayer
370
18
48
1
60
0
100
AcDbSpline
70
4
71
3
72
22
73
18
40
0
40
0
40
0
40
0
40
0.499999999999983
40
0.499999999999983
40
0.749999999999971
40
0.749999999999971
40
0.874999999999999
40
0.874999999999999
40
0.937499999999971
40
0.937499999999971
40
0.968749999999991
40
0.968749999999991
40
0.984375000000035
40
0.984375000000035
40
0.992187500000017
40
0.992187500000017
40
1
40
1
40
1
40
1
41
1
10
61.3088132232024
20
-4.44982732729292
30
0
41
1
10
61.328091010054
20
-4.41854472436052
30
0
41
1
10
61.3473741944053
20
-4.38713660682981
30
0
41
1
10
61.3763063258257
20
-4.33983827154884
30
0
41
1
10
61.3859504677362
20
-4.32404351026872
30
0
41
1
10
61.4004218875865
20
-4.30029770081856
30
0
41
1
10
61.405254474369
20
-4.29235682050282
30
0
41
1
10
61.4125025410801
20
-4.28043678035945
30
0
41
1
10
61.4149153811098
20
-4.27646843827634
30
0
41
1
10
61.4185130774304
20
-4.27055806277738
30
0
41
1
10
61.4197020889378
20
-4.26860874772626
30
0
41
1
10
61.4215072040051
20
-4.26563901173637
30
0
41
1
10
61.4221187251874
20
-4.2646286212441
30
0
41
1
10
61.4230557509204
20
-4.26307000883727
30
0
41
1
10
61.423370824117
20
-4.2625450119221
30
0
41
1
10
61.4239712580343
20
-4.26155709290717
30
0
41
1
10
61.4242884707596
20
-4.26104365842701
30
0
41
1
10
61.4243687027229
20
-4.26095714784398
30
0
0
SPLINE
5
CC
100
AcDbEntity
8
1
62
256
6
ByLayer
370
18
48
1
60
0
100
AcDbSpline
70
4
71
3
72
27
73
23
40
0
40
0
40
0
40
0
40
0.130749918542594
40
0.130749918542594
40
0.203187425330697
40
0.203187425330697
40
0.2756249321188
40
0.2756249321188
40
0.420499945695029
40
0.420499945695029
40
0.492937452483158
40
0.492937452483158
40
0.565374959271286
40
0.565374959271286
40
0.710249972847513
40
0.710249972847513
40
0.782687479635626
40
0.8189062330297
40
0.8189062330297
40
0.855124986423774
40
0.855124986423774
40
1
40
1
40
1
40
1
41
1
10
60.9862650276203
20
0.976781687409783
30
0
41
1
10
61.0117696566493
20
0.999633841796481
30
0
41
1
10
61.0392455198842
20
1.02379834827701
30
0
41
1
10
61.0857585212085
20
1.06259040886172
30
0
41
1
10
61.1030811337573
20
1.07668268877609
30
0
41
1
10
61.1392651033862
20
1.1053828721212
30
0
41
1
10
61.1579027169631
20
1.11982469186819
30
0
41
1
10
61.2154148179587
20
1.16312548899148
30
0
41
1
10
61.2559346320318
20
1.1920033018427
30
0
41
1
10
61.3205715749262
20
1.23433811862904
30
0
41
1
10
61.3427621866201
20
1.24828534476177
30
0
41
1
10
61.3885799474143
20
1.27564031481583
30
0
41
1
10
61.4123341655668
20
1.28911026681041
30
0
41
1
10
61.484635951171
20
1.3276115851674
30
0
41
1
10
61.5344282404755
20
1.35087810392039
30
0
41
1
10
61.6118046963637
20
1.38113831307689
30
0
41
1
10
61.6511609982613
20
1.39511875419461
30
0
41
1
10
61.6915405546034
20
1.40727329850733
30
0
41
1
10
61.7186906231877
20
1.41495834278328
30
0
41
1
10
61.7324081770316
20
1.41859833434847
30
0
41
1
10
61.8011395430393
20
1.4356184752663
30
0
41
1
10
61.8566689955185
20
1.44546701201966
30
0
41
1
10
61.9127656956696
20
1.45162298831954
30
0
0
SPLINE
5
CD
100
AcDbEntity
8
1
62
256
6
ByLayer
370
18
48
1
60
0
100
AcDbSpline
70
4
71
3
72
10
73
6
40
0
40
0
40
0
40
0
40
0.5
40
0.5
40
1
40
1
40
1
40
1
41
1
10
61.9127656956696
20
1.45162298831954
30
0
41
1
10
62.0131497587744
20
1.46263900016507
30
0
41
1
10
62.1133890931193
20
1.47466162873638
30
0
41
1
10
62.3136706454245
20
1.50007786873994
30
0
41
1
10
62.4136997109593
20
1.51356295785567
30
0
41
1
10
62.513460997406
20
1.52891050270492
30
0
0
SPLINE
5
CE
100
AcDbEntity
8
1
62
256
6
ByLayer
370
18
48
1
60
0
100
AcDbSpline
70
4
71
3
72
28
73
24
40
0
40
0
40
0
40
0
40
0.12500000000001
40
0.12500000000001
40
0.250000000000021
40
0.250000000000021
40
0.375000000000031
40
0.375000000000031
40
0.500000000000042
40
0.500000000000042
40
0.531250000000041
40
0.531250000000041
40
0.56250000000004
40
0.56250000000004
40
0.625000000000032
40
0.625000000000032
40
0.750000000000024
40
0.750000000000024
40
0.875000000000015
40
0.875000000000015
40
0.937500000000007
40
0.937500000000007
40
1
40
1
40
1
40
1
41
1
10
61.5343302978059
20
4.07013582912802
30
0
41
1
10
61.5715464172294
20
3.96190958775509
30
0
41
1
10
61.6089301969574
20
3.85343985972219
30
0
41
1
10
61.6841399741176
20
3.63609550599819
30
0
41
1
10
61.7219559376846
20
3.52724612411754
30
0
41
1
10
61.7979866069003
20
3.30949245057869
30
0
41
1
10
61.8362157069235
20
3.20053923179634
30
0
41
1
10
61.9131098661421
20
2.98271219838492
30
0
41
1
10
61.9517852062892
20
2.87382319099086
30
0
41
1
10
62.0004419110187
20
2.73776117264021
30
0
41
1
10
62.0101918571742
20
2.71055177839898
30
0
41
1
10
62.0297092775195
20
2.65613563272481
30
0
41
1
10
62.0395447644549
20
2.62891315080316
30
0
41
1
10
62.0692651923047
20
2.54755769114192
30
0
41
1
10
62.0893406310169
20
2.49371788824146
30
0
41
1
10
62.1504685738333
20
2.33344910992182
30
0
41
1
10
62.1924066679707
20
2.22824470266065
30
0
41
1
10
62.2791210267744
20
2.02125010869318
30
0
41
1
10
62.3239039340546
20
1.91947057938015
30
0
41
1
10
62.3936313188853
20
1.76959352250137
30
0
41
1
10
62.4173546390708
20
1.71999583441087
30
0
41
1
10
62.4650882047467
20
1.62302023499788
30
0
41
1
10
62.4891633294877
20
1.57549634018235
30
0
41
1
10
62.5134609974014
20
1.52891050270256
30
0
0
SPLINE
5
CF
100
AcDbEntity
8
1
62
256
6
ByLayer
370
18
48
1
60
0
100
AcDbSpline
70
4
71
3
72
8
73
4
40
0
40
0
40
0
40
0
40
1
40
1
40
1
40
1
41
1
10
61.424368702723
20
4.26095714784387
30
0
41
1
10
61.4610049948029
20
4.19735565561174
30
0
41
1
10
61.4976590124004
20
4.13374791761436
30
0
41
1
10
61.5343302978059
20
4.07013582912802
30
0
0
SPLINE
5
D0
100
AcDbEntity
8
1
62
256
6
ByLayer
370
18
48
1
60
0
100
AcDbSpline
70
4
71
3
72
69
73
65
40
0
40
0
40
0
40
0
40
0.0226730899397643
40
0.0226730899397643
40
0.0412821700355283
40
0.0412821700355283
40
0.059891250131292
40
0.059891250131292
40
0.078500330227056
40
0.078500330227056
40
0.0971094103228199
40
0.0971094103228199
40
0.101761680346761
40
0.101761680346761
40
0.102052447223257
40
0.102052447223257
40
0.102343214099753
40
0.102343214099753
40
0.102924747852746
40
0.102924747852746
40
0.104087815358731
40
0.104087815358731
40
0.106413950370702
40
0.106413950370702
40
0.115718490418584
40
0.115718490418584
40
0.134327570514348
40
0.134327570514348
40
0.171545730705877
40
0.171545730705877
40
0.245982051088934
40
0.245982051088934
40
0.394854691855048
40
0.394854691855048
40
0.469291012238104
40
0.469291012238104
40
0.506509172429633
40
0.506509172429633
40
0.525118252525397
40
0.525118252525397
40
0.529770522549338
40
0.529770522549338
40
0.532096657561309
40
0.532096657561309
40
0.533259725067294
40
0.533259725067294
40
0.534422792573279
40
0.534422792573279
40
0.534568176011527
40
0.534568176011527
40
0.534713559449775
40
0.534713559449775
40
0.535004326326272
40
0.535585860079264
40
0.53674892758525
40
0.53907506259722
40
0.543727332621162
40
0.692599973387284
40
0.692599973387284
40
0.841472614153406
40
0.841472614153406
40
0.990345254919528
40
0.990345254919528
40
1
40
1
40
1
40
1
41
1
10
7.97281130510646
20
4.31123924870974
30
0
41
1
10
7.93274421820504
20
4.19813683937096
30
0
41
1
10
7.88972545916727
20
4.08327126507248
30
0
41
1
10
7.80802374245633
20
3.86989457049736
30
0
41
1
10
7.7703822089629
20
3.77190076238654
30
0
41
1
10
7.69033903962497
20
3.57387846739175
30
0
41
1
10
7.64781095581401
20
3.4738651219065
30
0
41
1
10
7.55885909885603
20
3.27147610673083
30
0
41
1
10
7.51290855736147
20
3.16961698346049
30
0
41
1
10
7.41658819604433
20
2.96539748680897
30
0
41
1
10
7.36645052847922
20
2.86296942489335
30
0
41
1
10
7.30205610337657
20
2.73459449948712
30
0
41
1
10
7.2890897734722
20
2.70890075101093
30
0
41
1
10
7.27522936067675
20
2.68158236996206
30
0
41
1
10
7.27676632986879
20
2.67984180416778
30
0
41
1
10
7.27936339857914
20
2.67734892243391
30
0
41
1
10
7.28076522377296
20
2.67621975373584
30
0
41
1
10
7.28501592697523
20
2.67291634202758
30
0
41
1
10
7.28793767122511
20
2.67085338917619
30
0
41
1
10
7.29676366666868
20
2.66476097779017
30
0
41
1
10
7.30274883002909
20
2.66085777471616
30
0
41
1
10
7.32076642410723
20
2.6492778999517
30
0
41
1
10
7.33288774347406
20
2.64175725358899
30
0
41
1
10
7.39363246351289
20
2.60441098946708
30
0
41
1
10
7.44265041889932
20
2.57532930550084
30
0
41
1
10
7.58975119224075
20
2.48829918942536
30
0
41
1
10
7.68812210224735
20
2.43096009092696
30
0
41
1
10
7.98336722863226
20
2.25957077296857
30
0
41
1
10
8.18042669463682
20
2.14625626218267
30
0
41
1
10
8.77156962242935
20
1.80779803652638
30
0
41
1
10
9.16581323438999
20
1.58440002861147
30
0
41
1
10
10.3477087185595
20
0.920143038810551
30
0
41
1
10
11.1345683695098
20
0.485008942765262
30
0
41
1
10
12.3144740908821
20
-0.153232210023134
30
0
41
1
10
12.707638667143
20
-0.363611249440623
30
0
41
1
10
13.2967476689973
20
-0.675927366216655
30
0
41
1
10
13.4930644996189
20
-0.779437733553294
30
0
41
1
10
13.7869611434625
20
-0.934178976727139
30
0
41
1
10
13.8848747683031
20
-0.985650226701267
30
0
41
1
10
14.0066049180076
20
-1.05021929770186
30
0
41
1
10
14.0309171915384
20
-1.06314475995907
30
0
41
1
10
14.0672166169458
20
-1.08262337887112
30
0
41
1
10
14.0792932430588
20
-1.08912919717116
30
0
41
1
10
14.0972666884327
20
-1.09896378539091
30
0
41
1
10
14.1032363804151
20
-1.10225356223373
30
0
41
1
10
14.1150404168527
20
-1.10890868245156
30
0
41
1
10
14.1213447214557
20
-1.11214527358851
30
0
41
1
10
14.1268035576299
20
-1.11631304507088
30
0
41
1
10
14.1277502271605
20
-1.11699010386678
30
0
41
1
10
14.1266877055542
20
-1.1174447771368
30
0
41
1
10
14.1256091421112
20
-1.11713096690147
30
0
41
1
10
14.1230094640016
20
-1.11668494248553
30
0
41
1
10
14.1178101586245
20
-1.11579265941566
30
0
41
1
10
14.1056788027483
20
-1.11370902605651
30
0
41
1
10
14.0814175151179
20
-1.10953520095848
30
0
41
1
10
14.0329006745643
20
-1.10116132523464
30
0
41
1
10
13.1043754419771
20
-0.939859463858483
30
0
41
1
10
12.194283556136
20
-0.759148784506721
30
0
41
1
10
10.4406776930008
20
-0.368730811545362
30
0
41
1
10
9.56953332231859
20
-0.153553380521146
30
0
41
1
10
7.83763432363179
20
0.316115233087686
30
0
41
1
10
6.97663015423888
20
0.570659404177377
30
0
41
1
10
6.06547746706696
20
0.861914605821283
30
0
41
1
10
6.01001165774846
20
0.879731547593479
30
0
41
1
10
5.95457156689997
20
0.897626997666919
30
0
0
SPLINE
5
D1
100
AcDbEntity
8
1
62
256
6
ByLayer
370
18
48
1
60
0
100
AcDbSpline
70
4
71
3
72
10
73
6
40
0
40
0
40
0
40
0
40
0.621069647419966
40
0.621069647419966
40
1
40
1
40
1
40
1
41
1
10
62.0387042004505
20
0.637988449764975
30
0
41
1
10
61.9909412933828
20
0.657133885332428
30
0
41
1
10
61.9434752459937
20
0.674907986084463
30
0
41
1
10
61.8675228508284
20
0.701337384949056
30
0
41
1
10
61.8388478749085
20
0.710864045388291
30
0
41
1
10
61.8102734066271
20
0.719926413659607
30
0
0
SPLINE
5
D2
100
AcDbEntity
8
1
62
256
6
ByLayer
370
18
48
1
60
0
100
AcDbSpline
70
4
71
3
72
8
73
4
40
0
40
0
40
0
40
0
40
1
40
1
40
1
40
1
41
1
10
61.424368702723
20
-4.2609571478439
30
0
41
1
10
61.4610049948029
20
-4.19735565561169
30
0
41
1
10
61.4976590124006
20
-4.13374791761422
30
0
41
1
10
61.534330297806
20
-4.07013582912779
30
0
0
SPLINE
5
D3
100
AcDbEntity
8
1
62
256
6
ByLayer
370
18
48
1
60
0
100
AcDbSpline
70
4
71
3
72
82
73
78
40
0
40
0
40
0
40
0
40
0.0210476825879812
40
0.0210476825879812
40
0.0505262077850026
40
0.0505262077850026
40
0.0800047329820239
40
0.0800047329820239
40
0.109483258179045
40
0.109483258179045
40
0.168440308573087
40
0.168440308573087
40
0.197918833770107
40
0.197918833770107
40
0.227397358967128
40
0.227397358967128
40
0.242136621565638
40
0.242136621565638
40
0.256875884164148
40
0.256875884164148
40
0.286354409361169
40
0.286354409361169
40
0.315832934558189
40
0.315832934558189
40
0.34531145975521
40
0.34531145975521
40
0.374789984952231
40
0.374789984952231
40
0.389529247550742
40
0.389529247550742
40
0.404268510149253
40
0.404268510149253
40
0.433747035346275
40
0.433747035346275
40
0.463225560543297
40
0.463225560543297
40
0.477964823141809
40
0.477964823141809
40
0.492704085740321
40
0.492704085740321
40
0.522182610937344
40
0.522182610937344
40
0.551661136134368
40
0.551661136134368
40
0.581139661331392
40
0.581139661331392
40
0.610618186528415
40
0.610618186528415
40
0.640096711725439
40
0.640096711725439
40
0.669575236922463
40
0.669575236922463
40
0.684314499520974
40
0.684314499520974
40
0.699053762119485
40
0.699053762119485
40
0.728532287316508
40
0.728532287316508
40
0.758010812513532
40
0.758010812513532
40
0.787489337710556
40
0.787489337710556
40
0.816967862907579
40
0.816967862907579
40
0.846446388104603
40
0.846446388104603
40
0.875924913301627
40
0.875924913301627
40
0.90540343849865
40
0.90540343849865
40
0.934881963695674
40
0.934881963695674
40
0.964360488892697
40
0.964360488892697
40
0.993839014089721
40
0.993839014089721
40
1
40
1
40
1
40
1
41
1
10
50.4994397279026
20
-1.39193950512262
30
0
41
1
10
50.3400042604166
20
-1.31773422277195
30
0
41
1
10
50.180607623283
20
-1.24287611527848
30
0
41
1
10
49.7979929030833
20
-1.06175918502893
30
0
41
1
10
49.5747743179257
20
-0.954951569958837
30
0
41
1
10
49.1280924797696
20
-0.739576520186716
30
0
41
1
10
48.9046123852241
20
-0.63104200751178
30
0
41
1
10
48.4572937954034
20
-0.412414319948766
30
0
41
1
10
48.2332732049227
20
-0.302273790712178
30
0
41
1
10
47.5621952583991
20
0.0277356039268568
30
0
41
1
10
47.1157782189382
20
0.24797045635168
30
0
41
1
10
46.446051110906
20
0.575488733768708
30
0
41
1
10
46.2228310760895
20
0.684270789554887
30
0
41
1
10
45.7761588050129
20
0.900497704898356
30
0
41
1
10
45.5526376073582
20
1.00779753640975
30
0
41
1
10
45.2169441633712
20
1.16726095065894
30
0
41
1
10
45.1049283571181
20
1.22019177142889
30
0
41
1
10
44.8810705638779
20
1.32532515203209
30
0
41
1
10
44.7692107823999
20
1.37753718380881
30
0
41
1
10
44.4337882709906
20
1.53301527166272
30
0
41
1
10
44.2103650497251
20
1.6350919426288
30
0
41
1
10
43.7637912378378
20
1.83588342655722
30
0
41
1
10
43.540668361151
20
1.93464684737535
30
0
41
1
10
43.0942201767218
20
2.12787090948638
30
0
41
1
10
42.8709378050839
20
2.22242241596464
30
0
41
1
10
42.4240421799022
20
2.40706252374005
30
0
41
1
10
42.2004165451526
20
2.49712542112283
30
0
41
1
10
41.8645137158891
20
2.62849842344599
30
0
41
1
10
41.7524967115476
20
2.67165423176596
30
0
41
1
10
41.5285264306206
20
2.7566417571588
30
0
41
1
10
41.4165664622737
20
2.79848814978976
30
0
41
1
10
41.0806798154595
20
2.9219206372166
30
0
41
1
10
40.8567161575691
20
3.00131598246151
30
0
41
1
10
40.4087687536708
20
3.15387618600391
30
0
41
1
10
40.1848837800438
20
3.22705140072432
30
0
41
1
10
39.8490479622406
20
3.33184945874834
30
0
41
1
10
39.7370977573739
20
3.36595609042709
30
0
41
1
10
39.5131564163599
20
3.43247583020116
30
0
41
1
10
39.4011216781559
20
3.46489676072301
30
0
41
1
10
39.0654441375971
20
3.55946851290258
30
0
41
1
10
38.842153344561
20
3.61902371756651
30
0
41
1
10
38.3960861527027
20
3.73041069692528
30
0
41
1
10
38.173326539995
20
3.78224447094783
30
0
41
1
10
37.7281545558947
20
3.87823992323501
30
0
41
1
10
37.5057264616857
20
3.92236983350759
30
0
41
1
10
37.0609105500192
20
4.0027742650868
30
0
41
1
10
36.8385239005743
20
4.03905908254171
30
0
41
1
10
36.3936844757837
20
4.10371617003756
30
0
41
1
10
36.1711633630322
20
4.13202040620303
30
0
41
1
10
35.7255959423516
20
4.1803746101298
30
0
41
1
10
35.5025910377888
20
4.20047075516447
30
0
41
1
10
35.1675417300061
20
4.22437220753406
30
0
41
1
10
35.0557685746523
20
4.23129913401823
30
0
41
1
10
34.8320102250918
20
4.24305436499537
30
0
41
1
10
34.7199937954457
20
4.24788249936219
30
0
41
1
10
34.3840354983572
20
4.25918824032689
30
0
41
1
10
34.1601424176272
20
4.26252031027227
30
0
41
1
10
33.7122894312379
20
4.26060423426711
30
0
41
1
10
33.4882948594256
20
4.25530645914688
30
0
41
1
10
33.0404920492236
20
4.23614818576837
30
0
41
1
10
32.8166584869582
20
4.22228653796651
30
0
41
1
10
32.3688458449625
20
4.18613426475733
30
0
41
1
10
32.1448312273256
20
4.16385112005773
30
0
41
1
10
31.6970104908707
20
4.11095117557824
30
0
41
1
10
31.4731045615476
20
4.08033631188007
30
0
41
1
10
31.0254494509405
20
4.01098298065099
30
0
41
1
10
30.8017080311612
20
3.97222305746658
30
0
41
1
10
30.3541032689039
20
3.88681342495545
30
0
41
1
10
30.1301816579577
20
3.84015531049568
30
0
41
1
10
29.6822549883707
20
3.73927704945501
30
0
41
1
10
29.4583187577497
20
3.68501525085833
30
0
41
1
10
29.0106116417631
20
3.56933127687432
30
0
41
1
10
28.7868205769348
20
3.50793250465989
30
0
41
1
10
28.3392292845209
20
3.37823587165943
30
0
41
1
10
28.1154162045466
20
3.30993769271285
30
0
41
1
10
27.8446398230722
20
3.22339556128407
30
0
41
1
10
27.7978419427929
20
3.20829862778672
30
0
41
1
10
27.7510549944142
20
3.193066182775
30
0
0
SPLINE
5
D4
100
AcDbEntity
8
1
62
256
6
ByLayer
370
18
48
1
60
0
100
AcDbSpline
70
2053
71
3
72
109
73
105
40
0
40
0
40
0
40
0
40
0.0312499999999989
40
0.0312499999999989
40
0.0624999999999978
40
0.0624999999999978
40
0.0937499999999966
40
0.0937499999999966
40
0.124999999999996
40
0.124999999999996
40
0.156249999999994
40
0.156249999999994
40
0.187499999999993
40
0.187499999999993
40
0.218749999999992
40
0.218749999999992
40
0.234374999999992
40
0.234374999999992
40
0.242187499999991
40
0.242187499999991
40
0.249999999999991
40
0.249999999999991
40
0.28124999999999
40
0.28124999999999
40
0.29687499999999
40
0.29687499999999
40
0.304687499999989
40
0.304687499999989
40
0.312499999999989
40
0.312499999999989
40
0.343749999999987
40
0.343749999999987
40
0.351562499999987
40
0.351562499999987
40
0.359374999999987
40
0.374999999999989
40
0.390624999999991
40
0.390624999999991
40
0.406249999999993
40
0.406249999999993
40
0.437499999999997
40
0.437499999999997
40
0.468750000000001
40
0.468750000000001
40
0.484375000000001
40
0.484375000000001
40
0.500000000000001
40
0.500000000000001
40
0.531250000000002
40
0.531250000000002
40
0.539062500000003
40
0.539062500000003
40
0.546875000000004
40
0.546875000000004
40
0.562500000000006
40
0.562500000000006
40
0.59375000000001
40
0.59375000000001
40
0.601562500000011
40
0.601562500000011
40
0.609375000000012
40
0.609375000000012
40
0.625000000000012
40
0.625000000000012
40
0.65625000000001
40
0.65625000000001
40
0.671875000000009
40
0.671875000000009
40
0.687500000000008
40
0.687500000000008
40
0.718750000000007
40
0.718750000000007
40
0.734375000000007
40
0.734375000000007
40
0.750000000000006
40
0.750000000000006
40
0.781250000000005
40
0.781250000000005
40
0.789062500000006
40
0.789062500000006
40
0.796875000000006
40
0.812500000000005
40
0.828125000000004
40
0.828125000000004
40
0.835937500000005
40
0.835937500000005
40
0.843750000000005
40
0.843750000000005
40
0.875000000000005
40
0.875000000000005
40
0.890625000000005
40
0.890625000000005
40
0.906250000000005
40
0.921875000000005
40
0.921875000000005
40
0.937500000000004
40
0.937500000000004
40
0.968750000000004
40
0.968750000000004
40
0.984375000000004
40
0.984375000000004
40
0.992187500000002
40
0.992187500000002
40
1
40
1
40
1
40
1
41
1
10
61.8618889192522
20
-1.94025665579092
30
0
41
1
10
61.8459982542376
20
-1.96103267341456
30
0
41
1
10
61.8307933828913
20
-1.97832635355368
30
0
41
1
10
61.8016027462996
20
-2.00636325455486
30
0
41
1
10
61.7876177869959
20
-2.01710464703845
30
0
41
1
10
61.7608147168632
20
-2.03174800132052
30
0
41
1
10
61.7483619593464
20
-2.03544550616814
30
0
41
1
10
61.7252263962562
20
-2.03575649499703
30
0
41
1
10
61.7145357017882
20
-2.03237693025636
30
0
41
1
10
61.6949081600893
20
-2.01800059055373
30
0
41
1
10
61.6862495662137
20
-2.00719496890946
30
0
41
1
10
61.6711853122598
20
-1.97844363450795
30
0
41
1
10
61.6647653862307
20
-1.96049553241957
30
0
41
1
10
61.6542957076303
20
-1.91667936154087
30
0
41
1
10
61.6504221340262
20
-1.89152283729413
30
0
41
1
10
61.6466640917702
20
-1.84900949330247
30
0
41
1
10
61.6457546357806
20
-1.83402959916634
30
0
41
1
10
61.6449310083198
20
-1.81028701060444
30
0
41
1
10
61.6447467699002
20
-1.80216026769026
30
0
41
1
10
61.6445660718144
20
-1.7854659718524
30
0
41
1
10
61.6445703208005
20
-1.776871892852
30
0
41
1
10
61.6450741948378
20
-1.73330026154929
30
0
41
1
10
61.6469914544472
20
-1.69627701845084
30
0
41
1
10
61.6522454631078
20
-1.63744620007464
30
0
41
1
10
61.6543965840913
20
-1.61728248094462
30
0
41
1
10
61.6582726069878
20
-1.58615806593093
30
0
41
1
10
61.6596717182928
20
-1.5756540338104
30
0
41
1
10
61.6626510315218
20
-1.5546483208945
30
0
41
1
10
61.6642355331209
20
-1.54411107969429
30
0
41
1
10
61.6726324516038
20
-1.49125646609315
30
0
41
1
10
61.6808509640816
20
-1.44843922902788
30
0
41
1
10
61.6931725529909
20
-1.39425247293164
30
0
41
1
10
61.6957407179228
20
-1.38338399814901
30
0
41
1
10
61.7010163751207
20
-1.36187565417387
30
0
41
1
10
61.7091646174087
20
-1.32984450248148
30
0
41
1
10
61.7239060328413
20
-1.27758819773814
30
0
41
1
10
61.7369486178517
20
-1.23696974009494
30
0
41
1
10
61.7506389789735
20
-1.19695386235483
30
0
41
1
10
61.7577013387343
20
-1.17756181393671
30
0
41
1
10
61.7794461129572
20
-1.12132800252198
30
0
41
1
10
61.7947345607718
20
-1.08627720590522
30
0
41
1
10
61.8267844097855
20
-1.02109041904913
30
0
41
1
10
61.8430930767259
20
-0.991861842157903
30
0
41
1
10
61.8679491905323
20
-0.952540682230307
30
0
41
1
10
61.8763002039678
20
-0.940193679892388
30
0
41
1
10
61.8931292231369
20
-0.916999358550129
30
0
41
1
10
61.9015496570231
20
-0.906236205254885
30
0
41
1
10
61.9265903637534
20
-0.876608328413511
30
0
41
1
10
61.9430904566699
20
-0.860247306368194
30
0
41
1
10
61.9634426804179
20
-0.843826460532256
30
0
41
1
10
61.967499302718
20
-0.840745523954865
30
0
41
1
10
61.9755834058265
20
-0.834991638221453
30
0
41
1
10
61.9796151055096
20
-0.832316872964611
30
0
41
1
10
61.9915664513717
20
-0.82496607119802
30
0
41
1
10
61.999373791609
20
-0.820938024007717
30
0
41
1
10
62.0223120377893
20
-0.811383711394967
30
0
41
1
10
62.0369638901608
20
-0.808365677129473
30
0
41
1
10
62.0543983734426
20
-0.808828758973192
30
0
41
1
10
62.0578408752911
20
-0.809134897019135
30
0
41
1
10
62.0646334700436
20
-0.81018264008722
30
0
41
1
10
62.0679885815643
20
-0.810926579865907
30
0
41
1
10
62.0778233538236
20
-0.813799001513758
30
0
41
1
10
62.084098839862
20
-0.816567776420555
30
0
41
1
10
62.1020676921413
20
-0.827412306142293
30
0
41
1
10
62.1129118392037
20
-0.838001249745332
30
0
41
1
10
62.1272798474593
20
-0.859255843567666
30
0
41
1
10
62.1317519499005
20
-0.867243968984099
30
0
41
1
10
62.1399929779828
20
-0.885156031471666
30
0
41
1
10
62.1436910426522
20
-0.894926584244871
30
0
41
1
10
62.153502702068
20
-0.926683291946972
30
0
41
1
10
62.1583465985631
20
-0.951087273675682
30
0
41
1
10
62.1627990168629
20
-0.992994000009048
30
0
41
1
10
62.1638114818444
20
-1.0078556720444
30
0
41
1
10
62.1648011760345
20
-1.03951909987879
30
0
41
1
10
62.1647671977682
20
-1.05597446175696
30
0
41
1
10
62.163097957051
20
-1.107198736539
30
0
41
1
10
62.1599109387923
20
-1.14380403078016
30
0
41
1
10
62.1531801972386
20
-1.19289067449387
30
0
41
1
10
62.1516897096524
20
-1.20291126988781
30
0
41
1
10
62.1484509356956
20
-1.22312801866238
30
0
41
1
10
62.1432223794368
20
-1.25362393864353
30
0
41
1
10
62.1327178282127
20
-1.30528748498179
30
0
41
1
10
62.122471494888
20
-1.34750692165383
30
0
41
1
10
62.1140995666547
20
-1.3795145584869
30
0
41
1
10
62.1111839808841
20
-1.3902763481619
30
0
41
1
10
62.1051905415794
20
-1.41167455538482
30
0
41
1
10
62.1021102347017
20
-1.42232321168345
30
0
41
1
10
62.0863100967506
20
-1.47532398751397
30
0
41
1
10
62.0724082105925
20
-1.51695675579796
30
0
41
1
10
62.0498533083247
20
-1.57833473369993
30
0
41
1
10
62.0421335137575
20
-1.59837839542985
30
0
41
1
10
62.0264600711897
20
-1.6373578350294
30
0
41
1
10
62.0105113661108
20
-1.67534239115395
30
0
41
1
10
61.9940598073441
20
-1.71142084978271
30
0
41
1
10
61.977369552214
20
-1.74655678086628
30
0
41
1
10
61.9690165892344
20
-1.76341799054362
30
0
41
1
10
61.9440067087611
20
-1.81189296189953
30
0
41
1
10
61.9273725614381
20
-1.84147480058456
30
0
41
1
10
61.9024928007908
20
-1.88190842077137
30
0
41
1
10
61.8942220379161
20
-1.89470186125584
30
0
41
1
10
61.8819949179267
20
-1.91265743256403
30
0
41
1
10
61.8779422218129
20
-1.91844785296183
30
0
41
1
10
61.8698819353888
20
-1.92964212220667
30
0
41
1
10
61.8658615855058
20
-1.93506265138501
30
0
41
1
10
61.8618889192522
20
-1.94025665579092
30
0
0
SPLINE
5
D5
100
AcDbEntity
8
1
62
256
6
ByLayer
370
18
48
1
60
0
100
AcDbSpline
70
4
71
3
72
13
73
9
40
0
40
0
40
0
40
0
40
0.500000000000011
40
0.500000000000011
40
0.625000000000009
40
0.625000000000009
40
0.750000000000006
40
1
40
1
40
1
40
1
41
1
10
61.534330297806
20
-4.07013582912788
30
0
41
1
10
61.5037683116565
20
-4.11593751562972
30
0
41
1
10
61.4753974528094
20
-4.15540832545651
30
0
41
1
10
61.4427003037474
20
-4.19588598997251
30
0
41
1
10
61.4362837519254
20
-4.20355412280298
30
0
41
1
10
61.4238395607161
20
-4.21784741936307
30
0
41
1
10
61.4057323991918
20
-4.23775723174742
30
0
41
1
10
61.3892365978982
20
-4.25314764115603
30
0
41
1
10
61.3789008650762
20
-4.26144900446258
30
0
0
SPLINE
5
D6
100
AcDbEntity
8
1
62
256
6
ByLayer
370
18
48
1
60
0
100
AcDbSpline
70
4
71
3
72
28
73
24
40
0
40
0
40
0
40
0
40
0.125000000000009
40
0.125000000000009
40
0.250000000000019
40
0.250000000000019
40
0.375000000000028
40
0.375000000000028
40
0.500000000000038
40
0.500000000000038
40
0.531250000000036
40
0.531250000000036
40
0.562500000000035
40
0.562500000000035
40
0.625000000000032
40
0.625000000000032
40
0.750000000000021
40
0.750000000000021
40
0.875000000000011
40
0.875000000000011
40
0.937500000000005
40
0.937500000000005
40
1
40
1
40
1
40
1
41
1
10
61.534330297806
20
-4.07013582912779
30
0
41
1
10
61.5715464172295
20
-3.96190958775483
30
0
41
1
10
61.6089301969575
20
-3.85343985972193
30
0
41
1
10
61.6841399741177
20
-3.6360955059979
30
0
41
1
10
61.7219559376847
20
-3.52724612411726
30
0
41
1
10
61.7979866069003
20
-3.3094924505784
30
0
41
1
10
61.8362157069237
20
-3.20053923179609
30
0
41
1
10
61.9131098661422
20
-2.98271219838466
30
0
41
1
10
61.9517852062893
20
-2.87382319099061
30
0
41
1
10
62.0004419110188
20
-2.73776117263995
30
0
41
1
10
62.0101918571743
20
-2.71055177839872
30
0
41
1
10
62.0297092775195
20
-2.65613563272456
30
0
41
1
10
62.039544764455
20
-2.62891315080287
30
0
41
1
10
62.0692651923048
20
-2.54755769114172
30
0
41
1
10
62.089340631017
20
-2.49371788824132
30
0
41
1
10
62.1504685738333
20
-2.33344910992176
30
0
41
1
10
62.1924066679707
20
-2.22824470266062
30
0
41
1
10
62.2791210267745
20
-2.02125010869318
30
0
41
1
10
62.3239039340547
20
-1.91947057938015
30
0
41
1
10
62.3936313188854
20
-1.76959352250125
30
0
41
1
10
62.4173546390709
20
-1.71999583441072
30
0
41
1
10
62.4650882047468
20
-1.62302023499782
30
0
41
1
10
62.4891633294877
20
-1.57549634018233
30
0
41
1
10
62.5134609974014
20
-1.52891050270253
30
0
0
SPLINE
5
D7
100
AcDbEntity
8
1
62
256
6
ByLayer
370
18
48
1
60
0
100
AcDbSpline
70
4
71
3
72
8
73
4
40
0
40
0
40
0
40
0
40
1
40
1
40
1
40
1
41
1
10
62.5134609974008
20
-1.52891050270313
30
0
41
1
10
62.6385111203503
20
-1.17816026531693
30
0
41
1
10
62.7624433798258
20
-0.827018763059897
30
0
41
1
10
62.8852336373033
20
-0.475477547175387
30
0
0
SPLINE
5
D8
100
AcDbEntity
8
1
62
256
6
ByLayer
370
18
48
1
60
0
100
AcDbSpline
70
4
71
3
72
8
73
4
40
0
40
0
40
0
40
0
40
1
40
1
40
1
40
1
41
1
10
62.8852336373033
20
-0.475477547175387
30
0
41
1
10
62.9222124603352
20
-0.369609372634017
30
0
41
1
10
62.9600505664131
20
-0.264223851914863
30
0
41
1
10
62.9987481450413
20
-0.159301710812656
30
0
0
SPLINE
5
D9
100
AcDbEntity
8
1
62
256
6
ByLayer
370
18
48
1
60
0
100
AcDbSpline
70
4
71
3
72
8
73
4
40
0
40
0
40
0
40
0
40
1
40
1
40
1
40
1
41
1
10
62.9987481450415
20
0.159301710805067
30
0
41
1
10
63.0004147878718
20
0.0532594524468095
30
0
41
1
10
63.0004197895984
20
-0.0529412112744581
30
0
41
1
10
62.9987481450414
20
-0.159301710812571
30
0
0
SPLINE
5
DA
100
AcDbEntity
8
1
62
256
6
ByLayer
370
18
48
1
60
0
100
AcDbSpline
70
4
71
3
72
56
73
52
40
0
40
0
40
0
40
0
40
0.0624999999999804
40
0.0624999999999804
40
0.0937499999999736
40
0.0937499999999736
40
0.109374999999973
40
0.109374999999973
40
0.124999999999973
40
0.124999999999973
40
0.187499999999971
40
0.187499999999971
40
0.24999999999997
40
0.24999999999997
40
0.281249999999969
40
0.281249999999969
40
0.312499999999969
40
0.312499999999969
40
0.374999999999967
40
0.374999999999967
40
0.406249999999967
40
0.406249999999967
40
0.42187499999997
40
0.42187499999997
40
0.437499999999973
40
0.437499999999973
40
0.499999999999991
40
0.499999999999991
40
0.531249999999997
40
0.531249999999997
40
0.562500000000003
40
0.562500000000003
40
0.62500000000001
40
0.62500000000001
40
0.656250000000011
40
0.656250000000011
40
0.687500000000012
40
0.687500000000012
40
0.750000000000009
40
0.750000000000009
40
0.781250000000009
40
0.781250000000009
40
0.812500000000008
40
0.812500000000008
40
0.875000000000006
40
0.875000000000006
40
0.937500000000004
40
0.937500000000004
40
0.968750000000002
40
0.968750000000002
40
1
40
1
40
1
40
1
41
1
10
62.9987481450378
20
0.159301710802339
30
0
41
1
10
62.9807270369875
20
0.108283047644022
30
0
41
1
10
62.9616830411528
20
0.0577503004078039
30
0
41
1
10
62.9315728012337
20
-0.0173046625687334
30
0
41
1
10
62.9212779074762
20
-0.0421985843690891
30
0
41
1
10
62.9054389632663
20
-0.0793469938487021
30
0
41
1
10
62.9000834651645
20
-0.091719270910545
30
0
41
1
10
62.8893165767105
20
-0.116220635477305
30
0
41
1
10
62.8838991749208
20
-0.128364505475474
30
0
41
1
10
62.856646812595
20
-0.188552399853705
30
0
41
1
10
62.8343188422898
20
-0.23500956882441
30
0
41
1
10
62.788675216055
20
-0.324486025120166
30
0
41
1
10
62.7653600737107
20
-0.36750728637665
30
0
41
1
10
62.7296326035255
20
-0.429260963012837
30
0
41
1
10
62.7175430401265
20
-0.449463455074976
30
0
41
1
10
62.6935291913671
20
-0.488198775725437
30
0
41
1
10
62.6815723455861
20
-0.506794179732452
30
0
41
1
10
62.6458535171077
20
-0.560282391562339
30
0
41
1
10
62.6222438936661
20
-0.592890106026061
30
0
41
1
10
62.587128380485
20
-0.637074042266562
30
0
41
1
10
62.5754728734136
20
-0.651010969995497
30
0
41
1
10
62.558061823461
20
-0.670679323503492
30
0
41
1
10
62.5522580318102
20
-0.677041247396375
30
0
41
1
10
62.5407803192695
20
-0.689230403733802
30
0
41
1
10
62.5350966971282
20
-0.695069427551147
30
0
41
1
10
62.5069473768845
20
-0.723004433229818
30
0
41
1
10
62.4852852392451
20
-0.741340300064081
30
0
41
1
10
62.4539727963469
20
-0.762912369741571
30
0
41
1
10
62.4437326670803
20
-0.769110453312436
30
0
41
1
10
62.4236356363428
20
-0.779488347130155
30
0
41
1
10
62.4137479840676
20
-0.783671492255138
30
0
41
1
10
62.3851338893958
20
-0.792977117406224
30
0
41
1
10
62.3673023504318
20
-0.794973249804599
30
0
41
1
10
62.3421992537602
20
-0.791986060982424
30
0
41
1
10
62.3341067932264
20
-0.78998940396923
30
0
41
1
10
62.3184477565192
20
-0.784005476963301
30
0
41
1
10
62.3108553115666
20
-0.779996247343718
30
0
41
1
10
62.2891157967804
20
-0.765173272122922
30
0
41
1
10
62.2759461726097
20
-0.751593390666272
30
0
41
1
10
62.2579058359677
20
-0.726111762396386
30
0
41
1
10
62.2521795543817
20
-0.716762530084907
30
0
41
1
10
62.2412712870348
20
-0.696390665530373
30
0
41
1
10
62.2360831646506
20
-0.685352952531076
30
0
41
1
10
62.221341886797
20
-0.649851949331406
30
0
41
1
10
62.2127354621731
20
-0.623340178004355
30
0
41
1
10
62.1976341852211
20
-0.565157998994493
30
0
41
1
10
62.1911410953148
20
-0.533484561495726
30
0
41
1
10
62.182851033527
20
-0.48230109984641
30
0
41
1
10
62.1803273248907
20
-0.464601447776801
30
0
41
1
10
62.17576764408
20
-0.428108061482362
30
0
41
1
10
62.1737340507345
20
-0.409341266992243
30
0
41
1
10
62.1719374118299
20
-0.390069176596484
30
0
0
SPLINE
5
DB
100
AcDbEntity
8
1
62
256
6
ByLayer
370
18
48
1
60
0
100
AcDbSpline
70
4
71
3
72
8
73
4
40
0
40
0
40
0
40
0
40
1
40
1
40
1
40
1
41
1
10
62.1719374118298
20
-0.390069176596484
30
0
41
1
10
62.1405379916305
20
-0.0532555503971821
30
0
41
1
10
62.0960415371153
20
0.289468859481218
30
0
41
1
10
62.0387042004505
20
0.637988449764975
30
0
0
SPLINE
5
DC
100
AcDbEntity
8
1
62
256
6
ByLayer
370
18
48
1
60
0
100
AcDbSpline
70
4
71
3
72
28
73
24
40
0
40
0
40
0
40
0
40
0.0625000000000018
40
0.0625000000000018
40
0.125000000000004
40
0.125000000000004
40
0.187500000000005
40
0.187500000000005
40
0.250000000000007
40
0.250000000000007
40
0.375000000000011
40
0.375000000000011
40
0.500000000000015
40
0.500000000000015
40
0.625000000000018
40
0.625000000000018
40
0.687500000000014
40
0.687500000000014
40
0.750000000000011
40
0.750000000000011
40
0.875000000000005
40
0.875000000000005
40
1
40
1
40
1
40
1
41
1
10
62.0387042004505
20
0.637988449764975
30
0
41
1
10
62.0254118619811
20
0.638806738212168
30
0
41
1
10
62.0119590339883
20
0.638885911821632
30
0
41
1
10
61.9848197035956
20
0.637899609871624
30
0
41
1
10
61.971113952423
20
0.636799992171774
30
0
41
1
10
61.9436130429988
20
0.633791500588302
30
0
41
1
10
61.929838272081
20
0.631990073866234
30
0
41
1
10
61.9022337838853
20
0.627647090458424
30
0
41
1
10
61.8883955315564
20
0.625018141136621
30
0
41
1
10
61.8467902592641
20
0.615763538815884
30
0
41
1
10
61.8189421484798
20
0.607874190856194
30
0
41
1
10
61.7630792200656
20
0.588295853761394
30
0
41
1
10
61.7350615581399
20
0.576564970299813
30
0
41
1
10
61.6789622527729
20
0.549442991092292
30
0
41
1
10
61.6508867267187
20
0.534124134207872
30
0
41
1
10
61.6088239568562
20
0.508947901247467
30
0
41
1
10
61.5948126048697
20
0.500207810797804
30
0
41
1
10
61.5668222257216
20
0.482112625768423
30
0
41
1
10
61.5528416516383
20
0.472736395653243
30
0
41
1
10
61.5109442380733
20
0.443439355065095
30
0
41
1
10
61.4830739152332
20
0.422379088377568
30
0
41
1
10
61.4275268012531
20
0.377232570236572
30
0
41
1
10
61.3999402232274
20
0.353191561981618
30
0
41
1
10
61.3725888521942
20
0.327668131283957
30
0
0
SPLINE
5
DD
100
AcDbEntity
8
1
62
256
6
ByLayer
370
18
48
1
60
0
100
AcDbSpline
70
4
71
3
72
22
73
18
40
0
40
0
40
0
40
0
40
0.500000000000004
40
0.500000000000004
40
0.750000000000006
40
0.750000000000006
40
0.875000000000006
40
0.875000000000006
40
0.937500000000045
40
0.937500000000045
40
0.968750000000026
40
0.968750000000026
40
0.984375000000013
40
0.984375000000013
40
0.992187500000007
40
0.992187500000007
40
1
40
1
40
1
40
1
41
1
10
61.3088132232062
20
4.44982732728681
30
0
41
1
10
61.3280910100571
20
4.4185447243554
30
0
41
1
10
61.3473741944078
20
4.38713660682572
30
0
41
1
10
61.3763063258274
20
4.33983827154626
30
0
41
1
10
61.3859504677375
20
4.32404351026662
30
0
41
1
10
61.4004218875872
20
4.30029770081723
30
0
41
1
10
61.4052544743697
20
4.29235682050174
30
0
41
1
10
61.4125025410805
20
4.2804367803588
30
0
41
1
10
61.4149153811101
20
4.27646843827583
30
0
41
1
10
61.4185130774307
20
4.27055806277704
30
0
41
1
10
61.419702088938
20
4.26860874772601
30
0
41
1
10
61.4215072040052
20
4.2656390117362
30
0
41
1
10
61.4221187251875
20
4.26462862124393
30
0
41
1
10
61.4230557509205
20
4.26307000883716
30
0
41
1
10
61.4233708241171
20
4.26254501192199
30
0
41
1
10
61.4239712580343
20
4.26155709290711
30
0
41
1
10
61.4242884707596
20
4.26104365842701
30
0
41
1
10
61.4243687027229
20
4.26095714784398
30
0
0
SPLINE
5
DE
100
AcDbEntity
8
1
62
256
6
ByLayer
370
18
48
1
60
0
100
AcDbSpline
70
4
71
3
72
28
73
24
40
0
40
0
40
0
40
0
40
0.104744947632126
40
0.104744947632126
40
0.157117421448186
40
0.157117421448186
40
0.209489895264246
40
0.209489895264246
40
0.314234842896367
40
0.314234842896367
40
0.418979790528487
40
0.418979790528487
40
0.523724738160608
40
0.523724738160608
40
0.628469685792729
40
0.628469685792729
40
0.733214633424849
40
0.733214633424849
40
0.83795958105697
40
0.83795958105697
40
0.94270452868909
40
0.94270452868909
40
1
40
1
40
1
40
1
41
1
10
61.424368702723
20
4.26095714784398
30
0
41
1
10
61.2009751904776
20
4.2635464714879
30
0
41
1
10
60.9774287267018
20
4.26179033971027
30
0
41
1
10
60.6417302197156
20
4.25272066582082
30
0
41
1
10
60.5297314412536
20
4.24862388793483
30
0
41
1
10
60.3059309952959
20
4.23832537545158
30
0
41
1
10
60.1941027420615
20
4.23212522310411
30
0
41
1
10
59.8587402784859
20
4.21035847859795
30
0
41
1
10
59.6353380215509
20
4.19161805867162
30
0
41
1
10
59.1887122158621
20
4.14594807220888
30
0
41
1
10
58.9654718735162
20
4.11900275545651
30
0
41
1
10
58.5188754782497
20
4.05706156476987
30
0
41
1
10
58.2955181527465
20
4.02207544083745
30
0
41
1
10
57.8485892507277
20
3.94409657000878
30
0
41
1
10
57.6249515535705
20
3.90111981412233
30
0
41
1
10
57.1769961989325
20
3.80725836974878
30
0
41
1
10
56.9532690346803
20
3.75648082163463
30
0
41
1
10
56.5062680043191
20
3.64745554285622
30
0
41
1
10
56.2829487144321
20
3.58921906268551
30
0
41
1
10
55.8364245023805
20
3.46572222003618
30
0
41
1
10
55.6132810185784
20
3.40041488171184
30
0
41
1
10
55.2679197951445
20
3.29426563359462
30
0
41
1
10
55.1457649497306
20
3.25574649848105
30
0
41
1
10
55.0235600833889
20
3.21626424887776
30
0
0
SPLINE
5
DF
100
AcDbEntity
8
1
62
256
6
ByLayer
370
18
48
1
60
0
100
AcDbSpline
70
4
71
3
72
22
73
18
40
0
40
0
40
0
40
0
40
0.0534145452074483
40
0.0534145452074483
40
0.188641038749242
40
0.188641038749242
40
0.323867532291035
40
0.323867532291035
40
0.459094025832828
40
0.459094025832828
40
0.59432051937462
40
0.59432051937462
40
0.729547012916414
40
0.729547012916414
40
0.864773506458207
40
0.864773506458207
40
1
40
1
40
1
40
1
41
1
10
23.4630569273134
20
-1.46747886420775
30
0
41
1
10
23.374897285236
20
-1.42675735670335
30
0
41
1
10
23.2867440757421
20
-1.38581625801893
30
0
41
1
10
22.9754123310283
20
-1.24050694830277
30
0
41
1
10
22.7522073767561
20
-1.13506956205126
30
0
41
1
10
22.3056413214807
20
-0.921830896745661
30
0
41
1
10
22.0822979008808
20
-0.814001585550358
30
0
41
1
10
21.634964316428
20
-0.596916993749915
30
0
41
1
10
21.4109227773042
20
-0.487513785359141
30
0
41
1
10
20.9630074555452
20
-0.267954866764285
30
0
41
1
10
20.7390943879794
20
-0.157801423890902
30
0
41
1
10
20.2912793387229
20
0.0625542662478722
30
0
41
1
10
20.0673228339072
20
0.172838563006223
30
0
41
1
10
19.6195314947329
20
0.392991930021964
30
0
41
1
10
19.3955966278918
20
0.502714399654394
30
0
41
1
10
18.947944066377
20
0.720749621728942
30
0
41
1
10
18.7241797324727
20
0.829119979978003
30
0
41
1
10
18.5003400717719
20
0.93656639795455
30
0
0
SPLINE
5
E0
100
AcDbEntity
8
1
62
256
6
ByLayer
370
18
48
1
60
0
100
AcDbSpline
70
4
71
3
72
50
73
46
40
0
40
0
40
0
40
0
40
0.0129400607621874
40
0.0129400607621874
40
0.0605137998765826
40
0.0605137998765826
40
0.155661278105375
40
0.155661278105375
40
0.179448147662572
40
0.179448147662572
40
0.20323501721977
40
0.20323501721977
40
0.250808756334167
40
0.250808756334167
40
0.298382495448565
40
0.298382495448565
40
0.310275930227166
40
0.310275930227166
40
0.322169365005767
40
0.345956234562967
40
0.345956234562967
40
0.441103712791767
40
0.441103712791767
40
0.536251191020567
40
0.536251191020567
40
0.583824930134965
40
0.583824930134965
40
0.631398669249364
40
0.631398669249364
40
0.678972408363762
40
0.678972408363762
40
0.726546147478161
40
0.726546147478161
40
0.77411988659256
40
0.77411988659256
40
0.78601332137116
40
0.78601332137116
40
0.79790675614976
40
0.821693625706961
40
0.821693625706961
40
0.916841103935758
40
0.916841103935758
40
0.964414843050158
40
0.964414843050158
40
1
40
1
40
1
40
1
41
1
10
35.4786152501998
20
-4.2394625675289
30
0
41
1
10
35.418324822446
20
-4.2407773850274
30
0
41
1
10
35.3580508639044
20
-4.24179235020441
30
0
41
1
10
35.076232625831
20
-4.24508456703805
30
0
41
1
10
34.8548228107894
20
-4.24345419024445
30
0
41
1
10
34.1906139960731
20
-4.22608841009867
30
0
41
1
10
33.7478369269755
20
-4.19790944168884
30
0
41
1
10
33.1930802847298
20
-4.14197309559151
30
0
41
1
10
33.0820625609705
20
-4.12974412874806
30
0
41
1
10
32.8599187660076
20
-4.10329729947344
30
0
41
1
10
32.7487964557989
20
-4.08908733902396
30
0
41
1
10
32.415166345772
20
-4.04338083124816
30
0
41
1
10
32.1923877324125
20
-4.00878490617322
30
0
41
1
10
31.7458215488032
20
-3.93150776750534
30
0
41
1
10
31.5220320797013
20
-3.88882797836578
30
0
41
1
10
31.2415408414501
20
-3.83048780701446
30
0
41
1
10
31.1853789012204
20
-3.81856440041386
30
0
41
1
10
31.0731232068503
20
-3.79425330998302
30
0
41
1
10
30.9048559245381
20
-3.75709415683301
30
0
41
1
10
30.7369161911774
20
-3.71788786665212
30
0
41
1
10
30.1777526102504
20
-3.58277898317135
30
0
41
1
10
29.7324508549637
20
-3.46057040725805
30
0
41
1
10
28.8439669005645
20
-3.19062354562581
30
0
41
1
10
28.4007857377212
20
-3.04283303600045
30
0
41
1
10
27.7360981760321
20
-2.80427213716769
30
0
41
1
10
27.5145499180559
20
-2.72194510657846
30
0
41
1
10
27.0712347315361
20
-2.5521376729117
30
0
41
1
10
26.8494682305384
20
-2.46465960627842
30
0
41
1
10
26.4054416159021
20
-2.28487418113806
30
0
41
1
10
26.1831796765278
20
-2.19256532023587
30
0
41
1
10
25.738009665157
20
-2.0034460106209
30
0
41
1
10
25.5151045306941
20
-1.90663331293939
30
0
41
1
10
25.0682904643984
20
-1.70907335828039
30
0
41
1
10
24.8443798671493
20
-1.60832701661553
30
0
41
1
10
24.5637150524905
20
-1.48020228706562
30
0
41
1
10
24.5075184114722
20
-1.45445630692353
30
0
41
1
10
24.3951994258981
20
-1.40282354226204
30
0
41
1
10
24.2268232189264
20
-1.32515927885495
30
0
41
1
10
24.0587366347415
20
-1.24688566417035
30
0
41
1
10
23.4990169263182
20
-0.984775918670067
30
0
41
1
10
23.0530610264855
20
-0.771256728708465
30
0
41
1
10
22.3853174641663
20
-0.44845436428264
30
0
41
1
10
22.1629340868915
20
-0.340434199515499
30
0
41
1
10
21.774381780816
20
-0.151241962948291
30
0
41
1
10
21.6081698703983
20
-0.0701621559944954
30
0
41
1
10
21.4419500821278
20
0.0109040245802703
30
0
0
SPLINE
5
E1
100
AcDbEntity
8
1
62
256
6
ByLayer
370
13
48
1
60
0
100
AcDbSpline
70
4
71
3
72
8
73
4
40
0
40
0
40
0
40
0
40
1
40
1
40
1
40
1
41
1
10
18.6459818197339
20
4.32033724097857
30
0
41
1
10
18.6456592756318
20
4.28179611520835
30
0
41
1
10
18.6453340559389
20
4.24325548144344
30
0
41
1
10
18.6450061609324
20
4.20471535747743
30
0
0
SPLINE
5
E2
100
AcDbEntity
8
1
62
256
6
ByLayer
370
18
48
1
60
0
100
AcDbSpline
70
4
71
3
72
56
73
52
40
0
40
0
40
0
40
0
40
0.0147656892380019
40
0.0147656892380019
40
0.11158985525166
40
0.11158985525166
40
0.160001938258491
40
0.160001938258491
40
0.20841402126532
40
0.20841402126532
40
0.256826104272151
40
0.256826104272151
40
0.305238187278981
40
0.305238187278981
40
0.329444228782395
40
0.329444228782395
40
0.35365027028581
40
0.35365027028581
40
0.402062353292638
40
0.402062353292638
40
0.450474436299465
40
0.450474436299465
40
0.498886519306293
40
0.498886519306293
40
0.547298602313121
40
0.547298602313121
40
0.595710685319948
40
0.595710685319948
40
0.644122768326776
40
0.644122768326776
40
0.692534851333604
40
0.692534851333604
40
0.740946934340431
40
0.740946934340431
40
0.789359017347259
40
0.789359017347259
40
0.813565058850672
40
0.813565058850672
40
0.825668079602378
40
0.825668079602378
40
0.837771100354084
40
0.837771100354084
40
0.886183183360912
40
0.886183183360912
40
0.934595266367739
40
0.934595266367739
40
0.958801307871154
40
0.958801307871154
40
0.983007349374569
40
0.983007349374569
40
1
40
1
40
1
40
1
41
1
10
19.7792588671578
20
4.21974995765623
30
0
41
1
10
19.8471736997197
20
4.22069023997824
30
0
41
1
10
19.9150695384148
20
4.22120944521905
30
0
41
1
10
20.4280647818401
20
4.2219962325812
30
0
41
1
10
20.8724779856235
20
4.20482975582863
30
0
41
1
10
21.5388545850235
20
4.1551142198993
30
0
41
1
10
21.7609245645482
20
4.13455948396737
30
0
41
1
10
22.2048677810661
20
4.08612463659188
30
0
41
1
10
22.4267765428118
20
4.05818526404309
30
0
41
1
10
22.87126816185
20
3.9938002859746
30
0
41
1
10
23.0938258479028
20
3.95740043945926
30
0
41
1
10
23.5396383816163
20
3.87665788511924
30
0
41
1
10
23.7629057164065
20
3.83230056373381
30
0
41
1
10
24.0987124072432
20
3.75969359479961
30
0
41
1
10
24.2108368975991
20
3.73447275439457
30
0
41
1
10
24.4352178382165
20
3.68210045460711
30
0
41
1
10
24.5472552790073
20
3.65500096150359
30
0
41
1
10
24.8829448711975
20
3.57107343763468
30
0
41
1
10
25.1061749380197
20
3.5116174845808
30
0
41
1
10
25.5516958368458
20
3.38626818508987
30
0
41
1
10
25.7739782972018
20
3.32036982199338
30
0
41
1
10
26.2176244859337
20
3.18256149100145
30
0
41
1
10
26.4390181405706
20
3.1106382362731
30
0
41
1
10
26.8817361652438
20
2.96060941856146
30
0
41
1
10
27.1030387539839
20
2.88252688863366
30
0
41
1
10
27.545671663082
20
2.72090408726305
30
0
41
1
10
27.7669913273857
20
2.63735632680795
30
0
41
1
10
28.2094778115511
20
2.46528565220237
30
0
41
1
10
28.4306478883414
20
2.37675220319667
30
0
41
1
10
28.8728895188193
20
2.19490040009225
30
0
41
1
10
29.0940006300378
20
2.10160499912473
30
0
41
1
10
29.5374209592564
20
1.91085976409664
30
0
41
1
10
29.7596898698032
20
1.81339838423372
30
0
41
1
10
30.2051924419677
20
1.61477315083431
30
0
41
1
10
30.4284296663444
20
1.513605196317
30
0
41
1
10
30.7639944281753
20
1.35929859951833
30
0
41
1
10
30.8759675901526
20
1.30743630186149
30
0
41
1
10
31.0441034639772
20
1.22901859533613
30
0
41
1
10
31.1001970799971
20
1.20276635739987
30
0
41
1
10
31.2122628725083
20
1.15014121668898
30
0
41
1
10
31.2682523000262
20
1.12375966541495
30
0
41
1
10
31.5479905275423
20
0.99152450283637
30
0
41
1
10
31.771122626356
20
0.884714115635092
30
0
41
1
10
32.216544181765
20
0.670197606056917
30
0
41
1
10
32.4388105927547
20
0.562432103458633
30
0
41
1
10
32.7715409190259
20
0.399919588646185
30
0
41
1
10
32.8823523992718
20
0.345636883613423
30
0
41
1
10
33.103929028774
20
0.237215202665624
30
0
41
1
10
33.2146859926875
20
0.183055322044595
30
0
41
1
10
33.4031510381346
20
0.0909692507909767
30
0
41
1
10
33.4808718048369
20
0.0530146841255714
30
0
41
1
10
33.5585802701586
20
0.0150864509211885
30
0
0
SPLINE
5
E3
100
AcDbEntity
8
1
62
256
6
ByLayer
370
18
48
1
60
0
100
AcDbSpline
70
4
71
3
72
8
73
4
40
0
40
0
40
0
40
0
40
1
40
1
40
1
40
1
41
1
10
61.280509675693
20
-4.421131068421
30
0
41
1
10
61.3119897061633
20
-4.37039420933002
30
0
41
1
10
61.3435035826408
20
-4.31944801949467
30
0
41
1
10
61.3750556631224
20
-4.26829345303153
30
0
0
SPLINE
5
E4
100
AcDbEntity
8
1
62
256
6
ByLayer
370
18
48
1
60
0
100
AcDbSpline
70
4
71
3
72
38
73
34
40
0
40
0
40
0
40
0
40
0.104887771842631
40
0.104887771842631
40
0.131109714803291
40
0.131109714803291
40
0.157331657763951
40
0.209775543685271
40
0.209775543685271
40
0.26221942960659
40
0.26221942960659
40
0.288441372567249
40
0.288441372567249
40
0.314663315527907
40
0.314663315527907
40
0.419551087370544
40
0.419551087370544
40
0.524438859213181
40
0.524438859213181
40
0.629326631055817
40
0.629326631055817
40
0.642437602536148
40
0.642437602536148
40
0.655548574016478
40
0.681770516977139
40
0.681770516977139
40
0.734214402898462
40
0.734214402898462
40
0.839102174741106
40
0.839102174741106
40
0.943989946583751
40
0.943989946583751
40
1
40
1
40
1
40
1
41
1
10
61.3750556631376
20
-4.26829345303236
30
0
41
1
10
60.9272999537554
20
-4.24498342901373
30
0
41
1
10
60.4799028452451
20
-4.20437694589248
30
0
41
1
10
59.9198373820545
20
-4.13264229655275
30
0
41
1
10
59.8078137834284
20
-4.11724816097703
30
0
41
1
10
59.5841834900497
20
-4.08446627380022
30
0
41
1
10
59.2491706917231
20
-4.0322788440065
30
0
41
1
10
58.9153133608883
20
-3.97123374739127
30
0
41
1
10
58.4709467345655
20
-3.88227703462596
30
0
41
1
10
58.2491536073937
20
-3.8340183824225
30
0
41
1
10
57.9168159662561
20
-3.75615387735363
30
0
41
1
10
57.8060922434969
20
-3.72928196011742
30
0
41
1
10
57.584765724588
20
-3.67378976539703
30
0
41
1
10
57.4741689753624
20
-3.64517877198796
30
0
41
1
10
56.9213578957405
20
-3.49776168453835
30
0
41
1
10
56.479578321587
20
-3.3657094813513
30
0
41
1
10
55.5951032671506
20
-3.07626508768109
30
0
41
1
10
55.1524082648356
20
-2.91892817412602
30
0
41
1
10
54.2640130082956
20
-2.58165355760585
30
0
41
1
10
53.8183294815877
20
-2.4016017314832
30
0
41
1
10
53.314111335921
20
-2.18793639096347
30
0
41
1
10
53.25805649709
20
-2.16404508339952
30
0
41
1
10
53.1460739467768
20
-2.11605117698898
30
0
41
1
10
52.9782133944997
20
-2.0437108191953
30
0
41
1
10
52.8106728363304
20
-1.97036281069916
30
0
41
1
10
52.4759665005948
20
-1.82242978745205
30
0
41
1
10
52.2533270597855
20
-1.72216267289403
30
0
41
1
10
51.5865380107925
20
-1.41714617722099
30
0
41
1
10
51.143520209238
20
-1.20817333525719
30
0
41
1
10
50.2584822393254
20
-0.783111898687963
30
0
41
1
10
49.8164575861318
20
-0.567035734014127
30
0
41
1
10
49.1376050095117
20
-0.233319051826811
30
0
41
1
10
48.9011499120318
20
-0.116712387005919
30
0
41
1
10
48.6643972212786
20
4.5037250516E-06
30
0
0
SPLINE
5
E5
100
AcDbEntity
8
1
62
256
6
ByLayer
370
18
48
1
60
0
100
AcDbSpline
70
4
71
3
72
10
73
6
40
0
40
0
40
0
40
0
40
0.5
40
0.5
40
1
40
1
40
1
40
1
41
1
10
61.3750556631225
20
-4.26829345303156
30
0
41
1
10
61.3757291773253
20
-4.26720150199284
30
0
41
1
10
61.3764118930467
20
-4.26605097112798
30
0
41
1
10
61.3777424119362
20
-4.26369413090299
30
0
41
1
10
61.3783805229141
20
-4.26250124590339
30
0
41
1
10
61.3789008650763
20
-4.26144900446249
30
0
0
SPLINE
5
E6
100
AcDbEntity
8
1
62
256
6
ByLayer
370
18
48
1
60
0
100
AcDbSpline
70
4
71
3
72
10
73
6
40
0
40
0
40
0
40
0
40
0.5
40
0.5
40
1
40
1
40
1
40
1
41
1
10
61.3790469446373
20
-4.25740547844856
30
0
41
1
10
61.3792317057104
20
-4.25756313075019
30
0
41
1
10
61.3793314926211
20
-4.25795514557691
30
0
41
1
10
61.3793023659009
20
-4.25930048384117
30
0
41
1
10
61.3791666685981
20
-4.26026414450416
30
0
41
1
10
61.3789008650763
20
-4.26144900446246
30
0
0
SPLINE
5
E7
100
AcDbEntity
8
1
62
256
6
ByLayer
370
18
48
1
60
0
100
AcDbSpline
70
4
71
3
72
55
73
51
40
0
40
0
40
0
40
0
40
0.0594450021607325
40
0.0594450021607325
40
0.0829224875406558
40
0.0829224875406558
40
0.106399972920579
40
0.106399972920579
40
0.153354943680425
40
0.153354943680425
40
0.200309914440272
40
0.200309914440272
40
0.212048657130233
40
0.212048657130233
40
0.223787399820194
40
0.223787399820194
40
0.247264885200116
40
0.247264885200116
40
0.29421985595996
40
0.29421985595996
40
0.341174826719804
40
0.341174826719804
40
0.388129797479648
40
0.388129797479648
40
0.435084768239492
40
0.435084768239492
40
0.482039738999336
40
0.482039738999336
40
0.52899470975918
40
0.52899470975918
40
0.575949680519024
40
0.575949680519024
40
0.622904651278868
40
0.622904651278868
40
0.669859622038712
40
0.693337107418633
40
0.693337107418633
40
0.716814592798554
40
0.716814592798554
40
0.763769563558396
40
0.763769563558396
40
0.810724534318238
40
0.810724534318238
40
0.85767950507808
40
0.85767950507808
40
0.904634475837923
40
0.904634475837923
40
0.99854441735761
40
0.99854441735761
40
1
40
1
40
1
40
1
41
1
10
34.1641665438391
20
-0.290501381212664
30
0
41
1
10
33.8840567568808
20
-0.154502189099361
30
0
41
1
10
33.6038057453488
20
-0.0181630119475358
30
0
41
1
10
33.2126404741355
20
0.17253158232819
30
0
41
1
10
33.1018662998588
20
0.226579871681452
30
0
41
1
10
32.8802565488777
20
0.334785301258705
30
0
41
1
10
32.769428383083
20
0.388961939139676
30
0
41
1
10
32.4366454544361
20
0.551155588925468
30
0
41
1
10
32.2143459703608
20
0.65871755370469
30
0
41
1
10
31.7688657785295
20
0.872854698486123
30
0
41
1
10
31.5457051207322
20
0.979483629794089
30
0
41
1
10
31.2659331158244
20
1.11150086540158
30
0
41
1
10
31.2099370699076
20
1.13783934987759
30
0
41
1
10
31.0978585966746
20
1.19037994560458
30
0
41
1
10
31.0417580389043
20
1.21659101452326
30
0
41
1
10
30.8735983772627
20
1.29488929503194
30
0
41
1
10
30.7616091185743
20
1.34667562279449
30
0
41
1
10
30.4259953519954
20
1.50076511754546
30
0
41
1
10
30.2027247687842
20
1.60180346358578
30
0
41
1
10
29.7571535193653
20
1.80019879435804
30
0
41
1
10
29.5348498349722
20
1.89756134604266
30
0
41
1
10
29.0913575768248
20
2.08814055029023
30
0
41
1
10
28.8702061145785
20
2.18136047002474
30
0
41
1
10
28.4278804467632
20
2.36307418554665
30
0
41
1
10
28.2066691445777
20
2.45155111083255
30
0
41
1
10
27.7641028014799
20
2.6235359621505
30
0
41
1
10
27.5427451262461
20
2.70705560542788
30
0
41
1
10
27.1000391490596
20
2.86865353245798
30
0
41
1
10
26.8787010780681
20
2.94673845587317
30
0
41
1
10
26.435913110762
20
3.0967991213468
30
0
41
1
10
26.2144823223704
20
3.16874684803867
30
0
41
1
10
25.7707609290532
20
3.30661867130939
30
0
41
1
10
25.5484431589373
20
3.3725609199312
30
0
41
1
10
25.1028579681648
20
3.49802567060524
30
0
41
1
10
24.7679687319526
20
3.58731572781593
30
0
41
1
10
24.4318186400739
20
3.66874985595973
30
0
41
1
10
24.2074136564436
20
3.72121868729658
30
0
41
1
10
24.0952738709452
20
3.74649184098124
30
0
41
1
10
23.7594231528302
20
3.81926469109138
30
0
41
1
10
23.5361234788043
20
3.8637445695278
30
0
41
1
10
23.0902418527839
20
3.94475333722127
30
0
41
1
10
22.867648322195
20
3.98129794233694
30
0
41
1
10
22.4230834426215
20
4.04599667313454
30
0
41
1
10
22.2011351670943
20
4.07410301048856
30
0
41
1
10
21.757109593512
20
4.12288853826274
30
0
41
1
10
21.5349991343136
20
4.14362877876385
30
0
41
1
10
20.8685051505575
20
4.19393192306171
30
0
41
1
10
20.4240162875417
20
4.21152960942652
30
0
41
1
10
19.9719258493776
20
4.21131027245718
30
0
41
1
10
19.9650253419103
20
4.21130264513417
30
0
41
1
10
19.9581246683398
20
4.21129073199378
30
0
0
SPLINE
5
E8
100
AcDbEntity
8
1
62
256
6
ByLayer
370
13
48
1
60
0
100
AcDbSpline
70
4
71
3
72
44
73
40
40
0
40
0
40
0
40
0
40
0.003705031910603
40
0.0748689582027037
40
0.146032884494804
40
0.146032884494804
40
0.181614847640855
40
0.181614847640855
40
0.217196810786905
40
0.217196810786905
40
0.288360737079005
40
0.359524663371106
40
0.359524663371106
40
0.395106626517155
40
0.41289760809018
40
0.41289760809018
40
0.430688589663205
40
0.430688589663205
40
0.501852515955305
40
0.501852515955305
40
0.537434479101355
40
0.537434479101355
40
0.573016442247405
40
0.573016442247405
40
0.644180368539504
40
0.644180368539504
40
0.679762331685554
40
0.679762331685554
40
0.697553313258579
40
0.697553313258579
40
0.715344294831603
40
0.715344294831603
40
0.786508221123703
40
0.857672147415802
40
0.928836073707901
40
0.928836073707901
40
0.96441803685395
40
0.96441803685395
40
1
40
1
40
1
40
1
41
1
10
18.6011830703349
20
4.20422294111717
30
0
41
1
10
18.6011826370311
20
4.20413948028809
30
0
41
1
10
18.6011738459912
20
4.20216877624452
30
0
41
1
10
18.6011553244171
20
4.18713367780086
30
0
41
1
10
18.601134953698
20
4.15162269396228
30
0
41
1
10
18.6011188563164
20
4.11694316861744
30
0
41
1
10
18.601113353319
20
4.10403954331045
30
0
41
1
10
18.601102078473
20
4.07548629078093
30
0
41
1
10
18.6010963489587
20
4.05994386003161
30
0
41
1
10
18.6010789010074
20
4.00958128518187
30
0
41
1
10
18.6010549482305
20
3.93248447105259
30
0
41
1
10
18.6010297233616
20
3.83580166366568
30
0
41
1
10
18.6010103325512
20
3.75589186257989
30
0
41
1
10
18.6010005185872
20
3.71408497776852
30
0
41
1
10
18.600990522802
20
3.66946602871639
30
0
41
1
10
18.600983817743
20
3.6390896094548
30
0
41
1
10
18.6009804425715
20
3.62357637008671
30
0
41
1
10
18.6009635160772
20
3.54467641648611
30
0
41
1
10
18.60094977891
20
3.47713987522431
30
0
41
1
10
18.6009288420781
20
3.36925891720586
30
0
41
1
10
18.6009218076452
20
3.3322009922766
30
0
41
1
10
18.6009076178055
20
3.2558790643223
30
0
41
1
10
18.6009004547917
20
3.21657137296592
30
0
41
1
10
18.6008788610905
20
3.09584606687795
30
0
41
1
10
18.6008643058866
20
3.011525904026
30
0
41
1
10
18.6008421527325
20
2.87931964262168
30
0
41
1
10
18.6008347147001
20
2.83429518251188
30
0
41
1
10
18.600823464563
20
2.76531614353891
30
0
41
1
10
18.6008196954764
20
2.7420607975601
30
0
41
1
10
18.6008121446154
20
2.6951954598878
30
0
41
1
10
18.6008083630332
20
2.67158701600573
30
0
41
1
10
18.6007894191342
20
2.55267463104224
30
0
41
1
10
18.6007588798626
20
2.35685602304801
30
0
41
1
10
18.6007119528298
20
2.04686575256485
30
0
41
1
10
18.6006795978261
20
1.82938957066901
30
0
41
1
10
18.6006547897078
20
1.66214409156825
30
0
41
1
10
18.600646429777
20
1.6057048758282
30
0
41
1
10
18.6006295022805
20
1.49141873287459
30
0
41
1
10
18.6006209570409
20
1.43372280402391
30
0
41
1
10
18.6006123373532
20
1.37560002481257
30
0
0
SPLINE
5
E9
100
AcDbEntity
8
1
62
256
6
ByLayer
370
18
48
1
60
0
100
AcDbSpline
70
4
71
3
72
50
73
46
40
0
40
0
40
0
40
0
40
0.0277882397386386
40
0.0277882397386386
40
0.0748072363443672
40
0.0748072363443672
40
0.121826232950096
40
0.121826232950096
40
0.215864226161556
40
0.215864226161556
40
0.239373724464422
40
0.251128473615853
40
0.251128473615853
40
0.262883222767285
40
0.262883222767285
40
0.309902219373015
40
0.309902219373015
40
0.356921215978746
40
0.356921215978746
40
0.403940212584477
40
0.403940212584477
40
0.450959209190208
40
0.450959209190208
40
0.497978205795939
40
0.497978205795939
40
0.592016199007399
40
0.592016199007399
40
0.686054192218859
40
0.686054192218859
40
0.709563690521722
40
0.721318439673153
40
0.721318439673153
40
0.733073188824584
40
0.733073188824584
40
0.780092185430309
40
0.780092185430309
40
0.827111182036034
40
0.827111182036034
40
0.850620680338895
40
0.850620680338895
40
0.874130178641757
40
0.874130178641757
40
0.968168171853195
40
0.968168171853195
40
1
40
1
40
1
40
1
41
1
10
20.8841556988212
20
0.293072348999203
30
0
41
1
10
21.015559818294
20
0.229334321791157
30
0
41
1
10
21.1469180926809
20
0.165498380638809
30
0
41
1
10
21.5004905801463
20
-0.0064606486004379
30
0
41
1
10
21.7226713321109
20
-0.114657103947195
30
0
41
1
10
22.167235727776
20
-0.330633735602504
30
0
41
1
10
22.3896178245315
20
-0.438417159812587
30
0
41
1
10
23.057354838504
20
-0.760541941314955
30
0
41
1
10
23.5033037541902
20
-0.973651024044784
30
0
41
1
10
24.0630083099483
20
-1.23529981789309
30
0
41
1
10
24.2310897350081
20
-1.31343928380127
30
0
41
1
10
24.3994597857126
20
-1.39097558783993
30
0
41
1
10
24.5117744356238
20
-1.44252442250266
30
0
41
1
10
24.567968905577
20
-1.46822917624613
30
0
41
1
10
24.8486240717405
20
-1.59615237920878
30
0
41
1
10
25.072529259108
20
-1.69675124819699
30
0
41
1
10
25.5193367244171
20
-1.89404292039211
30
0
41
1
10
25.7422408853239
20
-1.99073434810097
30
0
41
1
10
26.1874125501722
20
-2.17963688164818
30
0
41
1
10
26.4096767878165
20
-2.27185089475415
30
0
41
1
10
26.8537083078228
20
-2.45147455641234
30
0
41
1
10
27.0754779253658
20
-2.53888477363509
30
0
41
1
10
27.5187993684488
20
-2.70858352358363
30
0
41
1
10
27.7403504926822
20
-2.79087017281131
30
0
41
1
10
28.4050476281094
20
-3.02934780951512
30
0
41
1
10
28.8482380581792
20
-3.17713394687991
30
0
41
1
10
29.7367287482204
20
-3.44717731428102
30
0
41
1
10
30.1820277957035
20
-3.56948433295045
30
0
41
1
10
30.7411788633836
20
-3.70478151212771
30
0
41
1
10
30.9091141492846
20
-3.7440491893822
30
0
41
1
10
31.0773758219361
20
-3.78127712595344
30
0
41
1
10
31.1896275034011
20
-3.8056357251163
30
0
41
1
10
31.2457874870028
20
-3.81758375294425
30
0
41
1
10
31.526270302195
20
-3.8760513435281
30
0
41
1
10
31.7500558484112
20
-3.91884677115885
30
0
41
1
10
32.1966169708219
20
-3.996381030365
30
0
41
1
10
32.4193944697918
20
-4.03111834937488
30
0
41
1
10
32.7530262045199
20
-4.07705357466338
30
0
41
1
10
32.8641499138529
20
-4.09134238588899
30
0
41
1
10
33.0862961981185
20
-4.11795369741492
30
0
41
1
10
33.1973146486098
20
-4.13026843227104
30
0
41
1
10
33.7520749361813
20
-4.18664606208475
30
0
41
1
10
34.1948582071875
20
-4.2152167480165
30
0
41
1
10
34.7875636787797
20
-4.23129563432923
30
0
41
1
10
34.937459060378
20
-4.23346109511368
30
0
41
1
10
35.0874007613386
20
-4.233706678049
30
0
0
SPLINE
5
EA
100
AcDbEntity
8
1
62
256
6
ByLayer
370
18
48
1
60
0
100
AcDbSpline
70
4
71
3
72
8
73
4
40
0
40
0
40
0
40
0
40
1
40
1
40
1
40
1
41
1
10
61.2909517184202
20
-0.254601023067238
30
0
41
1
10
61.3095304633555
20
-0.261188197917505
30
0
41
1
10
61.3281160567757
20
-0.267432707945375
30
0
41
1
10
61.3467155369305
20
-0.273336630749299
30
0
0
SPLINE
5
EB
100
AcDbEntity
8
1
62
256
6
ByLayer
370
18
48
1
60
0
100
AcDbSpline
70
4
71
3
72
50
73
46
40
0
40
0
40
0
40
0
40
0.0135315515313336
40
0.0135315515313336
40
0.0373546892315028
40
0.0373546892315028
40
0.0850009646318413
40
0.0850009646318413
40
0.180293515432519
40
0.180293515432519
40
0.227939790832857
40
0.227939790832857
40
0.275586066233195
40
0.275586066233195
40
0.37087861703387
40
0.37087861703387
40
0.418524892434207
40
0.418524892434207
40
0.466171167834545
40
0.466171167834545
40
0.478082736684627
40
0.478082736684627
40
0.48999430553471
40
0.513817443234875
40
0.513817443234875
40
0.561463718635203
40
0.561463718635203
40
0.609109994035531
40
0.609109994035531
40
0.656756269435858
40
0.656756269435858
40
0.752048820236512
40
0.752048820236512
40
0.775871957936675
40
0.775871957936675
40
0.799695095636837
40
0.799695095636837
40
0.847341371037165
40
0.847341371037165
40
0.942633921837821
40
0.942633921837821
40
0.966457059537985
40
0.966457059537985
40
0.990280197238149
40
1
40
1
40
1
40
1
41
1
10
46.850354569725
20
4.25938737559858
30
0
41
1
10
46.9138293779722
20
4.26089931999695
30
0
41
1
10
46.9772469526314
20
4.26210926263721
30
0
41
1
10
47.1521648727174
20
4.26460307651217
30
0
41
1
10
47.2635662037893
20
4.26517093154334
30
0
41
1
10
47.597502272639
20
4.26302428366185
30
0
41
1
10
47.819732124212
20
4.2566969139516
30
0
41
1
10
48.4854915773797
20
4.22476955309133
30
0
41
1
10
48.9280445478954
20
4.18618220417486
30
0
41
1
10
49.5900974685206
20
4.10692574447145
30
0
41
1
10
49.8105369170309
20
4.07681739346424
30
0
41
1
10
50.251702708673
20
4.00790245243894
30
0
41
1
10
50.4723959677876
20
3.96919404250099
30
0
41
1
10
51.1349690431704
20
3.84139471391231
30
0
41
1
10
51.5773202490974
20
3.74058401391827
30
0
41
1
10
52.2421080147579
20
3.56843845933247
30
0
41
1
10
52.4639566560951
20
3.50752737227964
30
0
41
1
10
52.9090057345955
20
3.378124907363
30
0
41
1
10
53.1321707348522
20
3.30967757741598
30
0
41
1
10
53.411942791577
20
3.2198179760083
30
0
41
1
10
53.4679220641835
20
3.2016351281475
30
0
41
1
10
53.5797542479369
20
3.16491231216327
30
0
41
1
10
53.747387717573
20
3.10926849327754
30
0
41
1
10
53.9146878647233
20
3.05197990571028
30
0
41
1
10
54.2488728812154
20
2.93529915616063
30
0
41
1
10
54.4711061371291
20
2.85470766257564
30
0
41
1
10
54.9146310289984
20
2.68838252754119
30
0
41
1
10
55.1359496963674
20
2.60264640826838
30
0
41
1
10
55.5783060739345
20
2.42633290734761
30
0
41
1
10
55.7993194704052
20
2.33576760431029
30
0
41
1
10
56.4620018490413
20
2.05775916049501
30
0
41
1
10
56.9032936808909
20
1.86394066240126
30
0
41
1
10
57.454496020072
20
1.61263522718451
30
0
41
1
10
57.5647324164951
20
1.56193388687924
30
0
41
1
10
57.7854010829364
20
1.45979458635116
30
0
41
1
10
57.8958227864488
20
1.40835103731638
30
0
41
1
10
58.2273560899162
20
1.25299111754865
30
0
41
1
10
58.4487373471209
20
1.14804444099519
30
0
41
1
10
59.1141023257447
20
0.829735503769939
30
0
41
1
10
59.5593071376467
20
0.612892788466212
30
0
41
1
10
60.1182320020309
20
0.337562206395518
30
0
41
1
10
60.2301003105139
20
0.282300741720036
30
0
41
1
10
60.4536293391106
20
0.171624081311307
30
0
41
1
10
60.6109253917473
20
0.0935610917740632
30
0
41
1
10
60.7681460671386
20
0.0153330840660715
30
0
41
1
10
60.8136985567805
20
-0.0073476861517179
30
0
0
SPLINE
5
EC
100
AcDbEntity
8
1
62
256
6
ByLayer
370
18
48
1
60
0
100
AcDbSpline
70
4
71
3
72
8
73
4
40
0
40
0
40
0
40
0
40
1
40
1
40
1
40
1
41
1
10
61.3467155369305
20
-0.273336630749299
30
0
41
1
10
61.3486144103891
20
-0.273939378902526
30
0
41
1
10
61.3496158328771
20
-0.279116733136959
30
0
41
1
10
61.3489160610232
20
-0.284887611582775
30
0
0
SPLINE
5
ED
100
AcDbEntity
8
1
62
256
6
ByLayer
370
18
48
1
60
0
100
AcDbSpline
70
4
71
3
72
47
73
43
40
0
40
0
40
0
40
0
40
0.0469549711850459
40
0.0704324567775689
40
0.0704324567775689
40
0.0939099423700919
40
0.0939099423700919
40
0.187819884740186
40
0.187819884740186
40
0.234774855925233
40
0.234774855925233
40
0.258252341517757
40
0.258252341517757
40
0.28172982711028
40
0.28172982711028
40
0.375639769480377
40
0.375639769480377
40
0.422594740665425
40
0.422594740665425
40
0.469549711850474
40
0.469549711850474
40
0.516504683035522
40
0.516504683035522
40
0.539982168628046
40
0.539982168628046
40
0.56345965422057
40
0.56345965422057
40
0.610414625405616
40
0.610414625405616
40
0.657369596590662
40
0.657369596590662
40
0.751279538960754
40
0.751279538960754
40
0.798234510145799
40
0.798234510145799
40
0.845189481330844
40
0.845189481330844
40
0.939099423700936
40
0.939099423700936
40
0.986054394885983
40
0.986054394885983
40
1
40
1
40
1
40
1
41
1
10
61.3489160610083
20
-0.284887611575357
30
0
41
1
10
61.1257523570107
20
-0.173593467596106
30
0
41
1
10
60.7909010632289
20
-0.0068930555606244
30
0
41
1
10
60.4557114139842
20
0.159083771427646
30
0
41
1
10
60.2321556585616
20
0.269532272253457
30
0
41
1
10
60.1202767281235
20
0.324681315236717
30
0
41
1
10
59.5612536234332
20
0.599487982535805
30
0
41
1
10
59.1159676902955
20
0.815968870454242
30
0
41
1
10
58.4504770238132
20
1.13381741332537
30
0
41
1
10
58.22905352384
20
1.23862542942777
30
0
41
1
10
57.8974561904349
20
1.39379921931763
30
0
41
1
10
57.7870130390688
20
1.44518447922968
30
0
41
1
10
57.5663018480228
20
1.5472165376963
30
0
41
1
10
57.4560442554811
20
1.59786724105302
30
0
41
1
10
56.9047377347571
20
1.84892208570955
30
0
41
1
10
56.4633692546715
20
2.04259195816817
30
0
41
1
10
55.8005788568207
20
2.32046459852569
30
0
41
1
10
55.579531179446
20
2.41100004256808
30
0
41
1
10
55.1371104502613
20
2.58728790476877
30
0
41
1
10
54.915760352793
20
2.67302302837109
30
0
41
1
10
54.4721764943305
20
2.83936218109372
30
0
41
1
10
54.2499167101495
20
2.9199731608874
30
0
41
1
10
53.9156970122582
20
3.03670618161482
30
0
41
1
10
53.8041528313946
20
3.07491959880437
30
0
41
1
10
53.5807697963549
20
3.14989160686218
30
0
41
1
10
53.4688735288689
20
3.18666860067699
30
0
41
1
10
53.1330904492283
20
3.29460557958524
30
0
41
1
10
52.9098860994537
20
3.36313940568243
30
0
41
1
10
52.4647559115534
20
3.49274882409662
30
0
41
1
10
52.242865364907
20
3.55377454523352
30
0
41
1
10
51.5779538906569
20
3.72628320332777
30
0
41
1
10
51.1355222433456
20
3.82738835651458
30
0
41
1
10
50.4728281148622
20
3.95571095544557
30
0
41
1
10
50.2520947827597
20
3.99460758092991
30
0
41
1
10
49.8108506278967
20
4.0639278357188
30
0
41
1
10
49.5903716686364
20
4.09424717142983
30
0
41
1
10
48.9282038556084
20
4.17414263127554
30
0
41
1
10
48.4855852657379
20
4.2132002848943
30
0
41
1
10
47.8197380910074
20
4.24591374163387
30
0
41
1
10
47.597481029762
20
4.25251617243916
30
0
41
1
10
47.3087065436623
20
4.25474791109855
30
0
41
1
10
47.2425488057278
20
4.25480714655308
30
0
41
1
10
47.1763460349536
20
4.25446785013969
30
0
0
SPLINE
5
EE
100
AcDbEntity
8
1
62
256
6
ByLayer
370
18
48
1
60
0
100
AcDbSpline
70
4
71
3
72
8
73
4
40
0
40
0
40
0
40
0
40
1
40
1
40
1
40
1
41
1
10
18.709432063066
20
-4.1611829143927
30
0
41
1
10
18.6863965401642
20
-4.15935340785003
30
0
41
1
10
18.663356929296
20
-4.15747241552032
30
0
41
1
10
18.6403131060326
20
-4.15553970714478
30
0
0
SPLINE
5
EF
100
AcDbEntity
8
1
62
256
6
ByLayer
370
18
48
1
60
0
100
AcDbSpline
70
4
71
3
72
38
73
34
40
0
40
0
40
0
40
0
40
0.098060804967135
40
0.098060804967135
40
0.198276271081892
40
0.198276271081892
40
0.298491737196649
40
0.298491737196649
40
0.348599470254027
40
0.348599470254027
40
0.373653336782717
40
0.386180270047061
40
0.386180270047061
40
0.398707203311406
40
0.398707203311406
40
0.49892266942617
40
0.49892266942617
40
0.599138135540935
40
0.599138135540935
40
0.699353601655699
40
0.699353601655699
40
0.724407468184391
40
0.724407468184391
40
0.749461334713082
40
0.749461334713082
40
0.799569067770466
40
0.799569067770466
40
0.84967680082785
40
0.874730667356541
40
0.874730667356541
40
0.899784533885233
40
0.899784533885233
40
1
40
1
40
1
40
1
41
1
10
48.0764635613713
20
0.299970246392576
30
0
41
1
10
48.5113958273872
20
0.0867062561344198
30
0
41
1
10
48.9448931135146
20
-0.127137174345933
30
0
41
1
10
49.8204700329474
20
-0.556625287915608
30
0
41
1
10
50.2625051518955
20
-0.772271586115977
30
0
41
1
10
51.1475550984707
20
-1.19656645512839
30
0
41
1
10
51.5905766120594
20
-1.40519815056416
30
0
41
1
10
52.2573646514415
20
-1.70976578441071
30
0
41
1
10
52.4800026966726
20
-1.80989366690898
30
0
41
1
10
52.8147030233993
20
-1.95763680421444
30
0
41
1
10
52.9822396212126
20
-2.03089456588643
30
0
41
1
10
53.1500947670814
20
-2.10315153378033
30
0
41
1
10
53.262073388395
20
-2.1510913543666
30
0
41
1
10
53.3181259388647
20
-2.17495629605159
30
0
41
1
10
53.8223286845947
20
-2.38839395705818
30
0
41
1
10
54.2680074019444
20
-2.56830040531611
30
0
41
1
10
55.1564074024161
20
-2.90539143971557
30
0
41
1
10
55.5991101143858
20
-3.06269237158696
30
0
41
1
10
56.4835990936541
20
-3.35217375143077
30
0
41
1
10
56.925385958303
20
-3.48429748932489
30
0
41
1
10
57.4782090626223
20
-3.63186332003969
30
0
41
1
10
57.5888087010657
20
-3.66050663374526
30
0
41
1
10
57.8101391735548
20
-3.71607198414517
30
0
41
1
10
57.9208638167282
20
-3.7429848305685
30
0
41
1
10
58.2532032858998
20
-3.82098106998816
30
0
41
1
10
58.4749966924005
20
-3.86933933617442
30
0
41
1
10
58.9193607461215
20
-3.95851970519678
30
0
41
1
10
59.253213702784
20
-4.0197509509608
30
0
41
1
10
59.5882178955703
20
-4.07215230230136
30
0
41
1
10
59.8118414315895
20
-4.10508305419606
30
0
41
1
10
59.9238607491802
20
-4.12055474778691
30
0
41
1
10
60.4839089094026
20
-4.19269324093318
30
0
41
1
10
60.9312978143502
20
-4.23367224784857
30
0
41
1
10
61.379046945577
20
-4.25740547849696
30
0
0
SPLINE
5
F0
100
AcDbEntity
8
1
62
256
6
ByLayer
370
18
48
1
60
0
100
AcDbSpline
70
4
71
3
72
50
73
46
40
0
40
0
40
0
40
0
40
0.0625000000000003
40
0.0625000000000003
40
0.0937500000000005
40
0.109375000000001
40
0.109375000000001
40
0.125000000000001
40
0.125000000000001
40
0.187500000000001
40
0.250000000000002
40
0.312500000000002
40
0.312500000000002
40
0.343750000000002
40
0.343750000000002
40
0.359375000000002
40
0.359375000000002
40
0.375000000000002
40
0.437500000000003
40
0.437500000000003
40
0.468750000000003
40
0.468750000000003
40
0.500000000000003
40
0.500000000000003
40
0.562500000000003
40
0.562500000000003
40
0.593750000000003
40
0.593750000000003
40
0.625000000000003
40
0.625000000000003
40
0.687500000000002
40
0.687500000000002
40
0.718750000000002
40
0.718750000000002
40
0.750000000000002
40
0.750000000000002
40
0.812500000000002
40
0.812500000000002
40
0.828125000000002
40
0.828125000000002
40
0.843750000000001
40
0.875000000000001
40
0.875000000000001
40
0.937500000000001
40
1
40
1
40
1
40
1
41
1
10
61.3489160610239
20
-0.284887611576892
30
0
41
1
10
61.3338352408084
20
-0.409256118027486
30
0
41
1
10
61.3206339328801
20
-0.53301377986179
30
0
41
1
10
61.3032006849007
20
-0.717691489508695
30
0
41
1
10
61.2950773852495
20
-0.80979037559166
30
0
41
1
10
61.2877691655152
20
-0.901518731251912
30
0
41
1
10
61.2830704308319
20
-0.96258725929664
30
0
41
1
10
61.2808079390946
20
-0.993079733412429
30
0
41
1
10
61.2699492844022
20
-1.14475286307996
30
0
41
1
10
61.2553940008061
20
-1.3833212684375
30
0
41
1
10
61.240276458231
20
-1.72909491637617
30
0
41
1
10
61.233770296993
20
-1.95154895807318
30
0
41
1
10
61.2299750049628
20
-2.1152979597378
30
0
41
1
10
61.2288914172194
20
-2.16936499585981
30
0
41
1
10
61.2275137797527
20
-2.24967638242848
30
0
41
1
10
61.2270956557146
20
-2.276336155964
30
0
41
1
10
61.2263409791252
20
-2.32921281842596
30
0
41
1
10
61.2246578660644
20
-2.46037304769624
30
0
41
1
10
61.2239250328038
20
-2.58641219649462
30
0
41
1
10
61.2238156063661
20
-2.73274893849717
30
0
41
1
10
61.2239084871936
20
-2.78070831543641
30
0
41
1
10
61.2243415113151
20
-2.87497474955268
30
0
41
1
10
61.2246808985816
20
-2.92111663414616
30
0
41
1
10
61.2260547749569
20
-3.05656242696392
30
0
41
1
10
61.2274409210301
20
-3.14290535133105
30
0
41
1
10
61.2302493356493
20
-3.26648042918589
30
0
41
1
10
61.2313094488624
20
-3.30672503419376
30
0
41
1
10
61.2336840789017
20
-3.38498204274643
30
0
41
1
10
61.2349974706381
20
-3.42297106014038
30
0
41
1
10
61.2393446299473
20
-3.53354206256299
30
0
41
1
10
61.2427812726616
20
-3.60273449501383
30
0
41
1
10
61.2489314499107
20
-3.6997123135618
30
0
41
1
10
61.251150836322
20
-3.73092534737398
30
0
41
1
10
61.2559437480942
20
-3.79078479180677
30
0
41
1
10
61.258518951715
20
-3.81946434591424
30
0
41
1
10
61.2668460877435
20
-3.9017723748785
30
0
41
1
10
61.2731955655433
20
-3.95167724920739
30
0
41
1
10
61.2824043724598
20
-4.00780947737144
30
0
41
1
10
61.2843110694183
20
-4.01872747481184
30
0
41
1
10
61.2882479401192
20
-4.03987099613846
30
0
41
1
10
61.2943421792989
20
-4.0705715572567
30
0
41
1
10
61.3010325647495
20
-4.09825258061426
30
0
41
1
10
61.3152940618265
20
-4.14963276765681
30
0
41
1
10
61.3366526078034
20
-4.20753526285597
30
0
41
1
10
61.3637483727286
20
-4.24435156492601
30
0
41
1
10
61.379046944706
20
-4.25740547850418
30
0
0
SPLINE
5
F1
100
AcDbEntity
8
1
62
256
6
ByLayer
370
18
48
1
60
0
100
AcDbSpline
70
4
71
3
72
62
73
58
40
0
40
0
40
0
40
0
40
0.0108104303302147
40
0.0108104303302147
40
0.0814668281637737
40
0.0814668281637737
40
0.0991309276221624
40
0.0991309276221624
40
0.116795027080551
40
0.116795027080551
40
0.152123225997328
40
0.152123225997328
40
0.169787325455715
40
0.169787325455715
40
0.187451424914103
40
0.222779623830878
40
0.222779623830878
40
0.258107822747653
40
0.258107822747653
40
0.293436021664429
40
0.293436021664429
40
0.328764220581204
40
0.328764220581204
40
0.346428320039592
40
0.346428320039592
40
0.364092419497979
40
0.43474881733153
40
0.43474881733153
40
0.470077016248305
40
0.470077016248305
40
0.487741115706693
40
0.487741115706693
40
0.505405215165082
40
0.505405215165082
40
0.576061612998637
40
0.576061612998637
40
0.611389811915416
40
0.611389811915416
40
0.646718010832195
40
0.646718010832195
40
0.664382110290584
40
0.664382110290584
40
0.682046209748973
40
0.682046209748973
40
0.717374408665754
40
0.717374408665754
40
0.788030806499313
40
0.788030806499313
40
0.823359005416092
40
0.823359005416092
40
0.841023104874483
40
0.841023104874483
40
0.858687204332873
40
0.858687204332873
40
0.929343602166436
40
0.929343602166436
40
1
40
1
40
1
40
1
41
1
10
37.4702070603926
20
-4.23790188558252
30
0
41
1
10
37.40196499957
20
-4.24731536437946
30
0
41
1
10
37.333718983379
20
-4.25633344988893
30
0
41
1
10
36.819755830171
20
-4.32124433289968
30
0
41
1
10
36.3750509613671
20
-4.36037447298548
30
0
41
1
10
35.8190853506681
20
-4.38760023928876
30
0
41
1
10
35.7078912414928
20
-4.39196295325524
30
0
41
1
10
35.4855186057231
20
-4.39852130235576
30
0
41
1
10
35.3743363931758
20
-4.40071529303995
30
0
41
1
10
35.040687144689
20
-4.40402239690326
30
0
41
1
10
34.818123424287
20
-4.40186182947659
30
0
41
1
10
34.4838495034041
20
-4.39205544390018
30
0
41
1
10
34.3723228894928
20
-4.38769116074883
30
0
41
1
10
34.1492284838792
20
-4.37678032594286
30
0
41
1
10
33.8148054846691
20
-4.35715628572902
30
0
41
1
10
33.4808837505229
20
-4.32784080645334
30
0
41
1
10
33.0358375867941
20
-4.28028562040973
30
0
41
1
10
32.8134540895521
20
-4.25225405145483
30
0
41
1
10
32.3686925981969
20
-4.18779949963499
30
0
41
1
10
32.1462827245981
20
-4.15139332123141
30
0
41
1
10
31.7010929305978
20
-4.07041155550974
30
0
41
1
10
31.4783145364096
20
-4.02583723938554
30
0
41
1
10
31.1437079873421
20
-3.95294586275114
30
0
41
1
10
31.0320852778181
20
-3.92763943544554
30
0
41
1
10
30.8090811062421
20
-3.87514675296651
30
0
41
1
10
30.2519100519813
20
-3.73915997677108
30
0
41
1
10
29.6959578274715
20
-3.57995034017091
30
0
41
1
10
29.0285003722063
20
-3.36835861016431
30
0
41
1
10
28.805961720307
20
-3.29440339180263
30
0
41
1
10
28.471839626722
20
-3.17862213463383
30
0
41
1
10
28.3604135111577
20
-3.13922024574066
30
0
41
1
10
28.1374250140852
20
-3.05884045003623
30
0
41
1
10
28.0258295474389
20
-3.01785013647708
30
0
41
1
10
27.4677992178009
20
-2.8092007369128
30
0
41
1
10
27.0225993414594
20
-2.63095983793727
30
0
41
1
10
26.3549748884373
20
-2.34937781550659
30
0
41
1
10
26.132465720958
20
-2.2531439040157
30
0
41
1
10
25.687314687483
20
-2.05625546292603
30
0
41
1
10
25.4646674307253
20
-1.95560785382472
30
0
41
1
10
25.1303082696356
20
-1.80181500501084
30
0
41
1
10
25.0187914032777
20
-1.75007927223814
30
0
41
1
10
24.7955995152701
20
-1.64571820096728
30
0
41
1
10
24.6839144870006
20
-1.59308769002231
30
0
41
1
10
24.3492088608546
20
-1.4342450741282
30
0
41
1
10
24.1263281810519
20
-1.32698480565176
30
0
41
1
10
23.4580896636301
20
-1.00181908687887
30
0
41
1
10
23.0131254792074
20
-0.780545680129137
30
0
41
1
10
22.3448276122358
20
-0.445094386067694
30
0
41
1
10
22.1219216877647
20
-0.332683789353155
30
0
41
1
10
21.7871832341851
20
-0.163507498097033
30
0
41
1
10
21.6754873633649
20
-0.106996306530476
30
0
41
1
10
21.4522595501547
20
0.0059600859036664
30
0
41
1
10
21.3407197794217
20
0.0624091388849308
30
0
41
1
10
20.7832889305937
20
0.344305415881706
30
0
41
1
10
20.3381938066787
20
0.568688488352251
30
0
41
1
10
19.4475125061709
20
1.01089520884509
30
0
41
1
10
19.0019295912665
20
1.22872904674801
30
0
41
1
10
18.5552364244889
20
1.44158567697562
30
0
0
SPLINE
5
F2
100
AcDbEntity
8
1
62
256
6
ByLayer
370
18
48
1
60
0
100
AcDbSpline
70
4
71
3
72
16
73
12
40
0
40
0
40
0
40
0
40
0.250000000000056
40
0.250000000000056
40
0.375000000000079
40
0.375000000000079
40
0.500000000000102
40
0.500000000000102
40
0.750000000000051
40
0.750000000000051
40
1
40
1
40
1
40
1
41
1
10
18.5552364244889
20
1.44158567697562
30
0
41
1
10
18.5469606228991
20
1.44552923235068
30
0
41
1
10
18.5394478512448
20
1.45044578564702
30
0
41
1
10
18.5292940831109
20
1.45923741370561
30
0
41
1
10
18.5260877767415
20
1.46242578787002
30
0
41
1
10
18.5202495862265
20
1.46909692390923
30
0
41
1
10
18.5175917811254
20
1.47259847236106
30
0
41
1
10
18.5103945574381
20
1.48359476894646
30
0
41
1
10
18.5066235719646
20
1.49166430761633
30
0
41
1
10
18.5016376173942
20
1.50818552490955
30
0
41
1
10
18.5003400717719
20
1.51682426115985
30
0
41
1
10
18.5003400717719
20
1.52551425317279
30
0
0
SPLINE
5
F3
100
AcDbEntity
8
1
62
256
6
ByLayer
370
18
48
1
60
0
100
AcDbSpline
70
4
71
3
72
27
73
23
40
0
40
0
40
0
40
0
40
0.124999999999983
40
0.124999999999983
40
0.187499999999988
40
0.187499999999988
40
0.249999999999994
40
0.312499999999999
40
0.312499999999999
40
0.375000000000004
40
0.375000000000004
40
0.499999999999945
40
0.499999999999945
40
0.624999999999885
40
0.624999999999885
40
0.687499999999904
40
0.687499999999904
40
0.749999999999924
40
0.749999999999924
40
0.874999999999962
40
0.874999999999962
40
1
40
1
40
1
40
1
41
1
10
18.5003400717719
20
4.33296022873915
30
0
41
1
10
18.5003400717719
20
4.33180133760862
30
0
41
1
10
18.5014318264602
20
4.3306443031201
30
0
41
1
10
18.5046566279923
20
4.32891497650451
30
0
41
1
10
18.5060125057027
20
4.32833554457832
30
0
41
1
10
18.5092113820699
20
4.32720670473679
30
0
41
1
10
18.5128909080099
20
4.32610621691208
30
0
41
1
10
18.5175104179533
20
4.32506477042554
30
0
41
1
10
18.5226125643521
20
4.32405581147003
30
0
41
1
10
18.5254021391563
20
4.32356926934116
30
0
41
1
10
18.5342585786581
20
4.32220351655758
30
0
41
1
10
18.5408999723625
20
4.32139972369217
30
0
41
1
10
18.5555605621416
20
4.32004723852972
30
0
41
1
10
18.5633100346963
20
4.31952231022385
30
0
41
1
10
18.5755484589343
20
4.3189670234155
30
0
41
1
10
18.5797598694213
20
4.31882069566373
30
0
41
1
10
18.5881794461452
20
4.31861628858164
30
0
41
1
10
18.5924036736727
20
4.3185568928844
30
0
41
1
10
18.6051188840105
20
4.31850548699651
30
0
41
1
10
18.6137728238531
20
4.31864527162648
30
0
41
1
10
18.6303487042551
20
4.31925303490536
30
0
41
1
10
18.6383265686186
20
4.31971562423064
30
0
41
1
10
18.6459818197339
20
4.32033724097857
30
0
0
SPLINE
5
F4
100
AcDbEntity
8
1
62
256
6
ByLayer
370
18
48
1
60
0
100
AcDbSpline
70
4
71
3
72
112
73
108
40
0
40
0
40
0
40
0
40
0.0467104180118659
40
0.0467104180118659
40
0.0583880225148327
40
0.0583880225148327
40
0.0700656270177994
40
0.0700656270177994
40
0.093420836023733
40
0.093420836023733
40
0.116776045029667
40
0.116776045029667
40
0.1401312540356
40
0.1401312540356
40
0.163486463041534
40
0.163486463041534
40
0.1751640675445
40
0.1751640675445
40
0.186841672047467
40
0.186841672047467
40
0.233552090059338
40
0.233552090059338
40
0.256907299065273
40
0.256907299065273
40
0.280262508071209
40
0.280262508071209
40
0.291940112574177
40
0.291940112574177
40
0.303617717077145
40
0.303617717077145
40
0.32697292608308
40
0.32697292608308
40
0.350328135089015
40
0.350328135089015
40
0.373683344094949
40
0.373683344094949
40
0.397038553100884
40
0.397038553100884
40
0.408716157603851
40
0.408716157603851
40
0.420393762106817
40
0.420393762106817
40
0.443748971112752
40
0.443748971112752
40
0.467104180118687
40
0.467104180118687
40
0.490459389124621
40
0.490459389124621
40
0.502136993627588
40
0.502136993627588
40
0.513814598130555
40
0.513814598130555
40
0.525492202633522
40
0.525492202633522
40
0.537169807136488
40
0.537169807136488
40
0.560525016142423
40
0.560525016142423
40
0.583880225148358
40
0.583880225148358
40
0.595557829651324
40
0.595557829651324
40
0.607235434154291
40
0.607235434154291
40
0.618913038657258
40
0.618913038657258
40
0.630590643160225
40
0.630590643160225
40
0.653945852166158
40
0.653945852166158
40
0.677301061172092
40
0.677301061172092
40
0.700656270178025
40
0.700656270178025
40
0.724011479183959
40
0.724011479183959
40
0.735689083686925
40
0.735689083686925
40
0.747366688189892
40
0.747366688189892
40
0.770721897195827
40
0.770721897195827
40
0.794077106201761
40
0.794077106201761
40
0.817432315207696
40
0.817432315207696
40
0.840787524213631
40
0.840787524213631
40
0.852465128716598
40
0.852465128716598
40
0.864142733219565
40
0.864142733219565
40
0.887497942225499
40
0.887497942225499
40
0.910853151231432
40
0.910853151231432
40
0.934208360237366
40
0.934208360237366
40
0.957563569243299
40
0.957563569243299
40
0.969241173746266
40
0.969241173746266
40
0.980918778249233
40
0.980918778249233
40
0.992596382752199
40
0.992596382752199
40
1
40
1
40
1
40
1
41
1
10
18.6459818197339
20
4.32033724097857
30
0
41
1
10
19.0904009656523
20
4.35642467691611
30
0
41
1
10
19.5351012972507
20
4.37459049688044
30
0
41
1
10
20.091981783838
20
4.37569585640145
30
0
41
1
10
20.2034076283826
20
4.37483382743974
30
0
41
1
10
20.4263679059776
20
4.37095025932158
30
0
41
1
10
20.5379341914996
20
4.36792744607774
30
0
41
1
10
20.8725940410238
20
4.35562901096324
30
0
41
1
10
21.0954089696546
20
4.34313697687736
30
0
41
1
10
21.5405863067977
20
4.30963901029719
30
0
41
1
10
21.7629314783583
20
4.28863147322565
30
0
41
1
10
22.2071124081968
20
4.23799297521944
30
0
41
1
10
22.4289975100321
20
4.20836388152875
30
0
41
1
10
22.8731724928169
20
4.14089234183419
30
0
41
1
10
23.0954268225208
20
4.10304651979337
30
0
41
1
10
23.4291216529097
20
4.04014994159405
30
0
41
1
10
23.5404092510753
20
4.01816455912905
30
0
41
1
10
23.7631547696346
20
3.97219578578569
30
0
41
1
10
23.8746495788651
20
3.94820387316915
30
0
41
1
10
24.4316595571002
20
3.82359885153147
30
0
41
1
10
24.8764128918441
20
3.70890094483363
30
0
41
1
10
25.5430034713881
20
3.51526842842347
30
0
41
1
10
25.7651070166472
20
3.44711654071196
30
0
41
1
10
26.2091700559623
20
3.3035421680122
30
0
41
1
10
26.431177285693
20
3.22816071989428
30
0
41
1
10
26.7648894888702
20
3.11067813980048
30
0
41
1
10
26.8762344572387
20
3.07077328158616
30
0
41
1
10
27.0991453953749
20
2.98949175921479
30
0
41
1
10
27.2105930229089
20
2.9481587156067
30
0
41
1
10
27.5447415280319
20
2.82218828843742
30
0
41
1
10
27.7673117437314
20
2.73553267750182
30
0
41
1
10
28.2118896176405
20
2.55660603639296
30
0
41
1
10
28.4339052790556
20
2.46434316830067
30
0
41
1
10
28.8775444378618
20
2.27438892648451
30
0
41
1
10
29.0992265337751
20
2.17678174295489
30
0
41
1
10
29.543456228145
20
1.97828780569915
30
0
41
1
10
29.7659426381782
20
1.87731147148546
30
0
41
1
10
30.1001262941551
20
1.72309546904924
30
0
41
1
10
30.2116519513514
20
1.6712088917246
30
0
41
1
10
30.4345369501912
20
1.56667894887539
30
0
41
1
10
30.5458986607209
20
1.5140350109171
30
0
41
1
10
30.8797536822734
20
1.35498987938905
30
0
41
1
10
31.1020127167086
20
1.24746802577394
30
0
41
1
10
31.5460157836258
20
1.02962908616556
30
0
41
1
10
31.7677952814981
20
0.919376759917355
30
0
41
1
10
32.2116204832733
20
0.697577013842505
30
0
41
1
10
32.4336178183136
20
0.585939886609935
30
0
41
1
10
32.7666411033736
20
0.417170978083362
30
0
41
1
10
32.8776739697551
20
0.360735501104244
30
0
41
1
10
33.0999960404112
20
0.247916956164517
30
0
41
1
10
33.2112716956043
20
0.191507451576229
30
0
41
1
10
33.4340365756718
20
0.0786590612023872
30
0
41
1
10
33.5454920297981
20
0.0222380279189451
30
0
41
1
10
33.7681906207663
20
-0.0904338373682378
30
0
41
1
10
33.8794831815146
20
-0.14670977222849
30
0
41
1
10
34.2131886417706
20
-0.315363477685167
30
0
41
1
10
34.4354263828055
20
-0.427573510408791
30
0
41
1
10
34.8794911203358
20
-0.651427492837627
30
0
41
1
10
35.1013136746611
20
-0.763079993673756
30
0
41
1
10
35.4338110171563
20
-0.929974533325463
30
0
41
1
10
35.5446241241617
20
-0.985469056882721
30
0
41
1
10
35.7664884804529
20
-1.09564978755944
30
0
41
1
10
35.8775231616956
20
-1.15036859511872
30
0
41
1
10
36.099758985214
20
-1.25914019932321
30
0
41
1
10
36.2109614831281
20
-1.31319033610549
30
0
41
1
10
36.433527526863
20
-1.42063551165893
30
0
41
1
10
36.5449330355854
20
-1.47405055239582
30
0
41
1
10
36.8790894771468
20
-1.63317674974704
30
0
41
1
10
37.1015317547414
20
-1.73766160935921
30
0
41
1
10
37.5458086749344
20
-1.94333533529937
30
0
41
1
10
37.7676576657678
20
-2.04449352188971
30
0
41
1
10
38.2112005155291
20
-2.24268246397938
30
0
41
1
10
38.4329047023907
20
-2.33969252176729
30
0
41
1
10
38.8768278181066
20
-2.5284759225311
30
0
41
1
10
39.0990214558079
20
-2.62030031921336
30
0
41
1
10
39.4325992116453
20
-2.75428758823151
30
0
41
1
10
39.5438406151032
20
-2.79832279949133
30
0
41
1
10
39.7664201179861
20
-2.88513242947215
30
0
41
1
10
39.8777756318928
20
-2.9279130722841
30
0
41
1
10
40.2113553952731
20
-3.05409151384995
30
0
41
1
10
40.4332750440625
20
-3.13543562478162
30
0
41
1
10
40.876902296424
20
-3.29154032581067
30
0
41
1
10
41.0986296437885
20
-3.36627924203916
30
0
41
1
10
41.5423858982248
20
-3.50860895951004
30
0
41
1
10
41.7643971125168
20
-3.57623248346039
30
0
41
1
10
42.2086038661492
20
-3.70452297632053
30
0
41
1
10
42.4307979173463
20
-3.76518958499852
30
0
41
1
10
42.7642477094312
20
-3.85087152856983
30
0
41
1
10
42.8754470857585
20
-3.87854381085697
30
0
41
1
10
43.0979135237682
20
-3.93199047550968
30
0
41
1
10
43.2090573785031
20
-3.95773528568159
30
0
41
1
10
43.5423275960183
20
-4.03195046533003
30
0
41
1
10
43.7642775127518
20
-4.07742088470252
30
0
41
1
10
44.2077924572683
20
-4.16030608784723
30
0
41
1
10
44.4293801786151
20
-4.19769093455395
30
0
41
1
10
44.8728611159824
20
-4.26397627704489
30
0
41
1
10
45.0947354848296
20
-4.29289985250486
30
0
41
1
10
45.5388800712982
20
-4.34229405172221
30
0
41
1
10
45.7611466095764
20
-4.36276843213534
30
0
41
1
10
46.094869662671
20
-4.3870865108629
30
0
41
1
10
46.2062021869255
20
-4.39412687666223
30
0
41
1
10
46.4285797775831
20
-4.40603272852732
30
0
41
1
10
46.5396681103911
20
-4.41090200384622
30
0
41
1
10
46.7616594307001
20
-4.41846292435929
30
0
41
1
10
46.8725600480191
20
-4.42115499305868
30
0
41
1
10
47.0536208059743
20
-4.4237618760736
30
0
41
1
10
47.1238422434364
20
-4.42433097068727
30
0
41
1
10
47.1940656636625
20
-4.42445883820909
30
0
0
SPLINE
5
F5
100
AcDbEntity
8
1
62
256
6
ByLayer
370
18
48
1
60
0
100
AcDbSpline
70
4
71
3
72
146
73
142
40
0
40
0
40
0
40
0
40
0.0124278048781819
40
0.0124278048781819
40
0.0382116335924596
40
0.0382116335924596
40
0.051103547949599
40
0.051103547949599
40
0.0639954623067384
40
0.0639954623067384
40
0.0897792910210172
40
0.0897792910210172
40
0.115563119735296
40
0.115563119735296
40
0.128455034092436
40
0.128455034092436
40
0.141346948449576
40
0.141346948449576
40
0.154238862806716
40
0.154238862806716
40
0.167130777163855
40
0.167130777163855
40
0.173576734342425
40
0.173576734342425
40
0.180022691520995
40
0.180022691520995
40
0.192914605878136
40
0.192914605878136
40
0.205806520235277
40
0.205806520235277
40
0.218698434592418
40
0.218698434592418
40
0.2444822633067
40
0.2444822633067
40
0.25737417766384
40
0.25737417766384
40
0.270266092020981
40
0.270266092020981
40
0.296049920735264
40
0.296049920735264
40
0.321833749449547
40
0.321833749449547
40
0.334725663806688
40
0.334725663806688
40
0.34761757816383
40
0.34761757816383
40
0.360509492520972
40
0.360509492520972
40
0.366955449699543
40
0.366955449699543
40
0.373401406878113
40
0.373401406878113
40
0.399185235592393
40
0.399185235592393
40
0.412077149949533
40
0.412077149949533
40
0.424969064306672
40
0.424969064306672
40
0.437860978663812
40
0.437860978663812
40
0.450752893020952
40
0.450752893020952
40
0.463644807378092
40
0.463644807378092
40
0.476536721735232
40
0.476536721735232
40
0.489428636092372
40
0.489428636092372
40
0.502320550449512
40
0.502320550449512
40
0.528104379163791
40
0.528104379163791
40
0.540996293520931
40
0.540996293520931
40
0.55388820787807
40
0.55388820787807
40
0.56033416505664
40
0.56033416505664
40
0.566780122235209
40
0.566780122235209
40
0.579672036592348
40
0.579672036592348
40
0.605455865306626
40
0.605455865306626
40
0.618347779663764
40
0.618347779663764
40
0.631239694020902
40
0.631239694020902
40
0.644131608378041
40
0.644131608378041
40
0.657023522735179
40
0.657023522735179
40
0.669915437092318
40
0.669915437092318
40
0.682807351449456
40
0.682807351449456
40
0.695699265806594
40
0.695699265806594
40
0.708591180163733
40
0.708591180163733
40
0.721483094520871
40
0.721483094520871
40
0.73437500887801
40
0.73437500887801
40
0.747266923235148
40
0.747266923235148
40
0.753712880413717
40
0.753712880413717
40
0.760158837592285
40
0.760158837592285
40
0.773050751949422
40
0.773050751949422
40
0.785942666306558
40
0.785942666306558
40
0.811726495020832
40
0.811726495020832
40
0.837510323735106
40
0.837510323735106
40
0.86329415244938
40
0.86329415244938
40
0.889077981163653
40
0.889077981163653
40
0.90196989552079
40
0.90196989552079
40
0.914861809877927
40
0.914861809877927
40
0.927753724235064
40
0.927753724235064
40
0.940645638592201
40
0.940645638592201
40
0.94709159577077
40
0.94709159577077
40
0.953537552949338
40
0.953537552949338
40
0.966429467306476
40
0.966429467306476
40
0.979321381663614
40
0.979321381663614
40
0.992213296020752
40
0.992213296020752
40
1
40
1
40
1
40
1
41
1
10
54.8768402448617
20
-3.26284032237771
30
0
41
1
10
54.7372318671439
20
-3.31139113958437
30
0
41
1
10
54.5978264328654
20
-3.35854863206737
30
0
41
1
10
54.1696423230923
20
-3.49908318154164
30
0
41
1
10
53.8813702116219
20
-3.58772310079505
30
0
41
1
10
53.4498238649996
20
-3.71143759743006
30
0
41
1
10
53.306098218442
20
-3.75110907081537
30
0
41
1
10
53.0188782699595
20
-3.82731134522351
30
0
41
1
10
52.8754336170246
20
-3.86389072806045
30
0
41
1
10
52.4452487495408
20
-3.96870235257867
30
0
41
1
10
52.1586134636709
20
-4.03196825336445
30
0
41
1
10
51.5848453600727
20
-4.14472926465132
30
0
41
1
10
51.2978137139457
20
-4.19431685396029
30
0
41
1
10
50.8667976792538
20
-4.25829713608439
30
0
41
1
10
50.7230342125793
20
-4.27788300059271
30
0
41
1
10
50.4353949948745
20
-4.31357456817426
30
0
41
1
10
50.291475536882
20
-4.32965440896618
30
0
41
1
10
50.0032437146591
20
-4.35817347833563
30
0
41
1
10
49.858939564647
20
-4.37061703418487
30
0
41
1
10
49.5698287708534
20
-4.39182007608119
30
0
41
1
10
49.4250292912989
20
-4.40058358521591
30
0
41
1
10
49.2074525899526
20
-4.41095518243768
30
0
41
1
10
49.134864317583
20
-4.41394996468375
30
0
41
1
10
48.9895591388371
20
-4.41900956898468
30
0
41
1
10
48.9167969626983
20
-4.42107526929215
30
0
41
1
10
48.6986973490187
20
-4.42586010662612
30
0
41
1
10
48.5535641131183
20
-4.42716824336182
30
0
41
1
10
48.2638234735972
20
-4.42605204295148
30
0
41
1
10
48.1192628467579
20
-4.42362317365954
30
0
41
1
10
47.830516290819
20
-4.41505027070514
30
0
41
1
10
47.6863315016302
20
-4.40890816438821
30
0
41
1
10
47.2541468847379
20
-4.38500598583437
30
0
41
1
10
46.9664601051314
20
-4.36179905752846
30
0
41
1
10
46.5354577996481
20
-4.31630533236978
30
0
41
1
10
46.3918879239756
20
-4.29935266277673
30
0
41
1
10
46.1048461762986
20
-4.26192068931678
30
0
41
1
10
45.9613825650979
20
-4.24143957085491
30
0
41
1
10
45.5312398414089
20
-4.1746310134998
30
0
41
1
10
45.244587282001
20
-4.12304464906299
30
0
41
1
10
44.6703671529687
20
-4.00661663713345
30
0
41
1
10
44.3828611456189
20
-3.94175836630464
30
0
41
1
10
43.9509089206533
20
-3.83453955337285
30
0
41
1
10
43.8067846498379
20
-3.79716668236801
30
0
41
1
10
43.5182582284564
20
-3.71912119735268
30
0
41
1
10
43.3739015043587
20
-3.67839536939914
30
0
41
1
10
43.0847462657194
20
-3.59377561346463
30
0
41
1
10
42.9399506978105
20
-3.54988024076272
30
0
41
1
10
42.7223323903531
20
-3.48176351535417
30
0
41
1
10
42.6497208759747
20
-3.45868085814632
30
0
41
1
10
42.5043438879903
20
-3.41177253065635
30
0
41
1
10
42.431536920355
20
-3.38793133395242
30
0
41
1
10
42.0679232191275
20
-3.26713202734644
30
0
41
1
10
41.7780538595094
20
-3.16523455738417
30
0
41
1
10
41.3444811881712
20
-3.00504433246678
30
0
41
1
10
41.2001677803623
20
-2.9504152249701
30
0
41
1
10
40.9119853023513
20
-2.83865811386718
30
0
41
1
10
40.768069245652
20
-2.78160129704105
30
0
41
1
10
40.4804178924465
20
-2.66540994866318
30
0
41
1
10
40.3366857372224
20
-2.60627085276482
30
0
41
1
10
40.0492930158425
20
-2.4861112974645
30
0
41
1
10
39.9056410496009
20
-2.42507750083928
30
0
41
1
10
39.6184151158366
20
-2.30113108353788
30
0
41
1
10
39.4748433769354
20
-2.23821451873042
30
0
41
1
10
39.187752155883
20
-2.11054698640856
30
0
41
1
10
39.0442072547822
20
-2.04584080292085
30
0
41
1
10
38.7571465017425
20
-1.91462962330499
30
0
41
1
10
38.6136695677182
20
-1.84805256770653
30
0
41
1
10
38.326556078698
20
-1.71342703165027
30
0
41
1
10
38.1829273323431
20
-1.64536527029526
30
0
41
1
10
37.7516300140753
20
-1.43929781595455
30
0
41
1
10
37.463502105116
20
-1.2995098428394
30
0
41
1
10
37.0303164045356
20
-1.08638379614908
30
0
41
1
10
36.8857636373527
20
-1.01474963276186
30
0
41
1
10
36.5962370547312
20
-0.870493641262243
30
0
41
1
10
36.4512858358838
20
-0.797826759545103
30
0
41
1
10
36.2335805976028
20
-0.687987427214011
30
0
41
1
10
36.1609562886656
20
-0.651254058497329
30
0
41
1
10
36.0155646771828
20
-0.577609784947441
30
0
41
1
10
35.9427617244557
20
-0.540676020581458
30
0
41
1
10
35.7246322255521
20
-0.429905707769564
30
0
41
1
10
35.5794538838973
20
-0.356045201788703
30
0
41
1
10
35.1444714918256
20
-0.134762452765386
30
0
41
1
10
34.8552641532111
20
0.0124584790769688
30
0
41
1
10
34.4224958494675
20
0.232622926258841
30
0
41
1
10
34.2783820678259
20
0.30583482142751
30
0
41
1
10
33.9904910889145
20
0.452014622678746
30
0
41
1
10
33.8467411243233
20
0.525036450652692
30
0
41
1
10
33.5593588509977
20
0.670391777380303
30
0
41
1
10
33.4157388966223
20
0.742750664540807
30
0
41
1
10
33.128508761898
20
0.886572915593291
30
0
41
1
10
32.9848903088395
20
0.958020363620022
30
0
41
1
10
32.697626302866
20
1.09995428273865
30
0
41
1
10
32.5539830534748
20
1.17044528568516
30
0
41
1
10
32.2666610949385
20
1.31045067709573
30
0
41
1
10
32.1229884864004
20
1.37997646147667
30
0
41
1
10
31.8355153489633
20
1.51787068227088
30
0
41
1
10
31.6917469875509
20
1.58630078069663
30
0
41
1
10
31.4041283110354
20
1.7220822226316
30
0
41
1
10
31.2602312946977
20
1.78934517337513
30
0
41
1
10
30.9721055952824
20
1.92232043257971
30
0
41
1
10
30.8278765236644
20
1.98803223693301
30
0
41
1
10
30.5389816577009
20
2.11771208095311
30
0
41
1
10
30.3943249625959
20
2.18169717837992
30
0
41
1
10
30.1045831745306
20
2.30793554076374
30
0
41
1
10
29.9595011338197
20
2.37019417082814
30
0
41
1
10
29.7415291210647
20
2.4622259275196
30
0
41
1
10
29.6688107837409
20
2.492672071714
30
0
41
1
10
29.5232412812094
20
2.55308165080211
30
0
41
1
10
29.4503578766741
20
2.58306331557637
30
0
41
1
10
29.2320626148625
20
2.67213184570389
30
0
41
1
10
29.0868727647808
20
2.73040552339043
30
0
41
1
10
28.7969013241683
20
2.84430296791916
30
0
41
1
10
28.6521337970988
20
2.89995205240314
30
0
41
1
10
28.2182794390277
20
3.06273699767135
30
0
41
1
10
27.9296121832299
20
3.16568398745596
30
0
41
1
10
27.3533047770211
20
3.36050770881485
30
0
41
1
10
27.0656160800676
20
3.45231644620571
30
0
41
1
10
26.4910385797565
20
3.62453454229825
30
0
41
1
10
26.2039328838222
20
3.70466013765989
30
0
41
1
10
25.6290949163322
20
3.85195479498037
30
0
41
1
10
25.3414431286008
20
3.91922980744675
30
0
41
1
10
24.9094923948885
20
4.01043599500895
30
0
41
1
10
24.7653946805336
20
4.03918970847204
30
0
41
1
10
24.477055692002
20
4.09344111859247
30
0
41
1
10
24.332820829543
20
4.1189385111293
30
0
41
1
10
24.0439487566066
20
4.16644846517332
30
0
41
1
10
23.8993268716484
20
4.18847339044706
30
0
41
1
10
23.609575409707
20
4.22896692166566
30
0
41
1
10
23.4644411526867
20
4.24743466913088
30
0
41
1
10
23.2463416222964
20
4.27245311064246
30
0
41
1
10
23.1735755569576
20
4.28034530614951
30
0
41
1
10
23.0279097207291
20
4.29523082267184
30
0
41
1
10
22.9549721972812
20
4.30222700593728
30
0
41
1
10
22.7364617938797
20
4.32181445198569
30
0
41
1
10
22.5910670433867
20
4.33301861029653
30
0
41
1
10
22.3007436716281
20
4.35172226873541
30
0
41
1
10
22.1558645664993
20
4.35923531249429
30
0
41
1
10
21.8665665707966
20
4.37056379817724
30
0
41
1
10
21.7221111654238
20
4.37437254041248
30
0
41
1
10
21.4906058255195
20
4.37752184069731
30
0
41
1
10
21.4034695211257
20
4.37803546604735
30
0
41
1
10
21.3163685864078
20
4.37788082873902
30
0
0
SPLINE
5
F6
100
AcDbEntity
8
1
62
256
6
ByLayer
370
18
48
1
60
0
100
AcDbSpline
70
4
71
3
72
43
73
39
40
0
40
0
40
0
40
0
40
0.0489376803761665
40
0.0489376803761665
40
0.160160006509425
40
0.160160006509425
40
0.271382332642683
40
0.271382332642683
40
0.326993495709314
40
0.326993495709314
40
0.354799077242627
40
0.354799077242627
40
0.358274774934292
40
0.358274774934292
40
0.361750472625957
40
0.361750472625957
40
0.368701868009286
40
0.368701868009286
40
0.375653263392616
40
0.375653263392616
40
0.382604658775945
40
0.382604658775945
40
0.389556054159275
40
0.389556054159275
40
0.396507449542604
40
0.396507449542604
40
0.410410240309263
40
0.438215821842581
40
0.438215821842581
40
0.493826984909222
40
0.493826984909222
40
0.716271637175801
40
0.716271637175801
40
0.82749396330909
40
0.82749396330909
40
0.938716289442379
40
0.938716289442379
40
1
40
1
40
1
40
1
41
1
10
3.24666499634606
20
-4.34535747400159
30
0
41
1
10
3.29443771302363
20
-4.34542322180224
30
0
41
1
10
3.34277113320797
20
-4.34496185111846
30
0
41
1
10
3.5026208166301
20
-4.34191276073597
30
0
41
1
10
3.61626581068572
20
-4.33735876214232
30
0
41
1
10
3.84800701379851
20
-4.32429960296648
30
0
41
1
10
3.96623987507036
20
-4.3157773178215
30
0
41
1
10
4.14571963007035
20
-4.30059999697485
30
0
41
1
10
4.20592789408556
20
-4.29513943524404
30
0
41
1
10
4.29673676733941
20
-4.28640518006145
30
0
41
1
10
4.32709003713742
20
-4.2834030476204
30
0
41
1
10
4.36132580296413
20
-4.27992856303752
30
0
41
1
10
4.36512642671028
20
-4.27953977623511
30
0
41
1
10
4.37275019626583
20
-4.27876560141794
30
0
41
1
10
4.37661449546789
20
-4.2783919914466
30
0
41
1
10
4.38856604432507
20
-4.27741168793986
30
0
41
1
10
4.39700678540771
20
-4.2769280999465
30
0
41
1
10
4.41410376844769
20
-4.27631248955237
30
0
41
1
10
4.4228678803351
20
-4.27616410578534
30
0
41
1
10
4.44042718335584
20
-4.27610878366315
30
0
41
1
10
4.44913341984187
20
-4.27619401002784
30
0
41
1
10
4.46638818140679
20
-4.27660587983004
30
0
41
1
10
4.47494110825789
20
-4.27692565799092
30
0
41
1
10
4.49194504707231
20
-4.2777175205471
30
0
41
1
10
4.50037784861115
20
-4.27818005941629
30
0
41
1
10
4.52571232832759
20
-4.27950701220064
30
0
41
1
10
4.57635784754535
20
-4.28215189249255
30
0
41
1
10
4.62693204574231
20
-4.28476685921822
30
0
41
1
10
4.72798262498611
20
-4.28994969701466
30
0
41
1
10
4.79522519774889
20
-4.29334244788598
30
0
41
1
10
5.13075128899467
20
-4.30989453305284
30
0
41
1
10
5.39684890343619
20
-4.32182036939281
30
0
41
1
10
5.7928172975115
20
-4.3358272687471
30
0
41
1
10
5.924289047119
20
-4.3398471793152
30
0
41
1
10
6.18578627339565
20
-4.34625276110785
30
0
41
1
10
6.31587284763225
20
-4.34864031847042
30
0
41
1
10
6.51667438067483
20
-4.35083891828106
30
0
41
1
10
6.58782097978445
20
-4.35132466702743
30
0
41
1
10
6.65878811234302
20
-4.35149077404222
30
0
0
SPLINE
5
F7
100
AcDbEntity
8
1
62
256
6
ByLayer
370
18
48
1
60
0
100
AcDbSpline
70
4
71
3
72
84
73
80
40
0
40
0
40
0
40
0
40
0.011369240038123
40
0.011369240038123
40
0.0563070018545761
40
0.0563070018545761
40
0.0787758827628027
40
0.0787758827628027
40
0.0900103232169154
40
0.0900103232169154
40
0.101244763671028
40
0.146182525487479
40
0.146182525487479
40
0.168651406395704
40
0.168651406395704
40
0.179885846849816
40
0.179885846849816
40
0.191120287303928
40
0.191120287303928
40
0.236058049120374
40
0.236058049120374
40
0.280995810936821
40
0.280995810936821
40
0.292230251390933
40
0.292230251390933
40
0.303464691845045
40
0.303464691845045
40
0.32593357275327
40
0.32593357275327
40
0.37087133456972
40
0.37087133456972
40
0.393340215477946
40
0.393340215477946
40
0.404574655932058
40
0.404574655932058
40
0.41580909638617
40
0.460746858202621
40
0.460746858202621
40
0.505684620019072
40
0.505684620019072
40
0.516919060473184
40
0.516919060473184
40
0.528153500927296
40
0.550622381835518
40
0.550622381835518
40
0.595560143651965
40
0.595560143651965
40
0.606794584106076
40
0.606794584106076
40
0.618029024560187
40
0.618029024560187
40
0.640497905468411
40
0.640497905468411
40
0.685435667284858
40
0.685435667284858
40
0.70790454819308
40
0.70790454819308
40
0.719138988647192
40
0.719138988647192
40
0.730373429101303
40
0.730373429101303
40
0.77531119091775
40
0.77531119091775
40
0.820248952734198
40
0.820248952734198
40
0.83148339318831
40
0.83148339318831
40
0.842717833642423
40
0.842717833642423
40
0.865186714550649
40
0.865186714550649
40
0.9101244763671
40
0.9101244763671
40
0.921358916821213
40
0.921358916821213
40
0.932593357275326
40
0.95506223818355
40
0.95506223818355
40
1
40
1
40
1
40
1
41
1
10
31.5560919340957
20
4.20635899980806
30
0
41
1
10
31.6689452427412
20
4.22319928882098
30
0
41
1
10
31.78175501596
20
4.23896567712041
30
0
41
1
10
32.3403231464873
20
4.31169233180569
30
0
41
1
10
32.7856922521225
20
4.35282593492397
30
0
41
1
10
33.4548142535987
20
4.38849455732534
30
0
41
1
10
33.6780372425729
20
4.39604723775489
30
0
41
1
10
34.0133402278054
20
4.40080642640467
30
0
41
1
10
34.1251206089312
20
4.40129607048883
30
0
41
1
10
34.348461449395
20
4.4000854592999
30
0
41
1
10
34.9064715055932
20
4.39158882013007
30
0
41
1
10
35.4631667270343
20
4.35582825138883
30
0
41
1
10
36.1315409228042
20
4.28717395889754
30
0
41
1
10
36.3543894518398
20
4.25999995809272
30
0
41
1
10
36.6889515453791
20
4.21286968479129
30
0
41
1
10
36.8005206030587
20
4.19609817681396
30
0
41
1
10
37.0237911963072
20
4.16044523977604
30
0
41
1
10
37.135545912322
20
4.14155407646638
30
0
41
1
10
37.6940069801124
20
4.04199337946773
30
0
41
1
10
38.1395327508069
20
3.94606362563545
30
0
41
1
10
39.0304343547955
20
3.72391212927377
30
0
41
1
10
39.4757840154118
20
3.59767805089027
30
0
41
1
10
40.0336100388227
20
3.42222786646454
30
0
41
1
10
40.1452328040871
20
3.38625562559241
30
0
41
1
10
40.3686272917596
20
3.31258191764826
30
0
41
1
10
40.480365992536
20
3.27489048224112
30
0
41
1
10
40.8152198634585
20
3.15950471643163
30
0
41
1
10
41.0381737281159
20
3.07943357698346
30
0
41
1
10
41.7065971852823
20
2.83038922266374
30
0
41
1
10
42.1516243317419
20
2.6525746434711
30
0
41
1
10
42.8199385493996
20
2.37071369021089
30
0
41
1
10
43.0428394570403
20
2.27423878592722
30
0
41
1
10
43.3775927659629
20
2.12607162755046
30
0
41
1
10
43.4892930036199
20
2.07608476618171
30
0
41
1
10
43.7126153632584
20
1.97512488980817
30
0
41
1
10
44.2705291501347
20
1.72035244089526
30
0
41
1
10
44.8268846278178
20
1.45445879124779
30
0
41
1
10
45.7172463331335
20
1.01887740327328
30
0
41
1
10
46.1625281738728
20
0.796019303404677
30
0
41
1
10
46.7206367161337
20
0.513723131864367
30
0
41
1
10
46.8323185384095
20
0.457085081800614
30
0
41
1
10
47.0554347019324
20
0.343720315930369
30
0
41
1
10
47.3898973239132
20
0.173459239888217
30
0
41
1
10
47.7238762696084
20
0.0028542724289764
30
0
41
1
10
48.3915989889077
20
-0.338007601343549
30
0
41
1
10
48.8364381815232
20
-0.564776125885317
30
0
41
1
10
49.3934498285953
20
-0.844993996151004
30
0
41
1
10
49.5049000237889
20
-0.900875969678253
30
0
41
1
10
49.7279305043959
20
-1.01224926124385
30
0
41
1
10
49.8395564070268
20
-1.06776310621962
30
0
41
1
10
50.1743497327065
20
-1.2334502625699
30
0
41
1
10
50.3972256705889
20
-1.3426673196175
30
0
41
1
10
51.0653241990375
20
-1.66581291087024
30
0
41
1
10
51.5100266283704
20
-1.87521667419404
30
0
41
1
10
52.1776981941064
20
-2.17731082956425
30
0
41
1
10
52.4003524851826
20
-2.27601806310594
30
0
41
1
10
52.7346718371986
20
-2.42075031125046
30
0
41
1
10
52.8461680700177
20
-2.46843939896954
30
0
41
1
10
53.0693068198412
20
-2.56264829655984
30
0
41
1
10
53.1809397238802
20
-2.6091632273033
30
0
41
1
10
53.7384729137268
20
-2.8382284018488
30
0
41
1
10
54.1833400591486
20
-3.01061312274595
30
0
41
1
10
55.0729175799531
20
-3.33056034904249
30
0
41
1
10
55.51762761642
20
-3.4781173451276
30
0
41
1
10
56.0748752015181
20
-3.64506344109182
30
0
41
1
10
56.1864353645219
20
-3.67758981450413
30
0
41
1
10
56.4095228928824
20
-3.74078720597254
30
0
41
1
10
56.5210026105946
20
-3.771445490741
30
0
41
1
10
56.8553044888982
20
-3.86055217513001
30
0
41
1
10
57.0779932022439
20
-3.91612916624544
30
0
41
1
10
57.745880774044
20
-4.07108570573473
30
0
41
1
10
58.1908844991494
20
-4.15870309861975
30
0
41
1
10
58.7481233818989
20
-4.24750884968648
30
0
41
1
10
58.859649444068
20
-4.26423765615215
30
0
41
1
10
59.0827107086602
20
-4.29557641587292
30
0
41
1
10
59.4170844290082
20
-4.3393756249055
30
0
41
1
10
59.7509648857539
20
-4.37349096504511
30
0
41
1
10
60.4185025399194
20
-4.42867940040935
30
0
41
1
10
60.8632339314742
20
-4.4480735703275
30
0
41
1
10
61.3088132232015
20
-4.44982732728283
30
0
0
SPLINE
5
F8
100
AcDbEntity
8
1
62
256
6
ByLayer
370
18
48
1
60
0
100
AcDbSpline
70
4
71
3
72
10
73
6
40
0
40
0
40
0
40
0
40
0.5
40
0.5
40
1
40
1
40
1
40
1
41
1
10
61.2805096756843
20
-4.42113106843601
30
0
41
1
10
61.2852148340717
20
-4.43033311678442
30
0
41
1
10
61.2899249433546
20
-4.4373321807395
30
0
41
1
10
61.2993648712555
20
-4.44690967729289
30
0
41
1
10
61.3040952317203
20
-4.44948122769605
30
0
41
1
10
61.3088132232086
20
-4.44982732728286
30
0
0
SPLINE
5
F9
100
AcDbEntity
8
1
62
256
6
ByLayer
370
18
48
1
60
0
100
AcDbSpline
70
4
71
3
72
82
73
78
40
0
40
0
40
0
40
0
40
0.0508931749057151
40
0.0508931749057151
40
0.0763397623585732
40
0.0763397623585732
40
0.101786349811431
40
0.101786349811431
40
0.12723293726429
40
0.12723293726429
40
0.152679524717148
40
0.152679524717148
40
0.178126112170006
40
0.178126112170006
40
0.190849405896436
40
0.190849405896436
40
0.203572699622865
40
0.203572699622865
40
0.254465874528583
40
0.254465874528583
40
0.279912461981441
40
0.279912461981441
40
0.305359049434299
40
0.305359049434299
40
0.356252224340014
40
0.356252224340014
40
0.407145399245729
40
0.407145399245729
40
0.419868692972158
40
0.419868692972158
40
0.432591986698587
40
0.432591986698587
40
0.458038574151444
40
0.458038574151444
40
0.508931749057159
40
0.508931749057159
40
0.534378336510017
40
0.534378336510017
40
0.547101630236446
40
0.547101630236446
40
0.559824923962874
40
0.559824923962874
40
0.610718098868588
40
0.610718098868588
40
0.636164686321445
40
0.636164686321445
40
0.661611273774302
40
0.661611273774302
40
0.67433456750073
40
0.67433456750073
40
0.687057861227157
40
0.687057861227157
40
0.712504448680013
40
0.712504448680013
40
0.763397623585726
40
0.763397623585726
40
0.776120917312154
40
0.776120917312154
40
0.788844211038582
40
0.788844211038582
40
0.814290798491439
40
0.814290798491439
40
0.865183973397154
40
0.865183973397154
40
0.890630560850012
40
0.890630560850012
40
0.903353854576441
40
0.903353854576441
40
0.916077148302869
40
0.916077148302869
40
0.966970323208585
40
0.966970323208585
40
0.979693616935014
40
0.979693616935014
40
0.992416910661443
40
0.992416910661443
40
1
40
1
40
1
40
1
41
1
10
61.2805096756925
20
-4.42113106843595
30
0
41
1
10
60.8358793369325
20
-4.3943846786182
30
0
41
1
10
60.3915753963884
20
-4.3501625151348
30
0
41
1
10
59.7240964949206
20
-4.25830550820649
30
0
41
1
10
59.5013235265544
20
-4.22340702175893
30
0
41
1
10
59.0565813507909
20
-4.14547522617252
30
0
41
1
10
58.8344562640823
20
-4.10242445501882
30
0
41
1
10
58.3904388792189
20
-4.00838279622974
30
0
41
1
10
58.1685441241978
20
-3.95739229911123
30
0
41
1
10
57.7246531818025
20
-3.84777886082327
30
0
41
1
10
57.5027128865069
20
-3.7891039946696
30
0
41
1
10
57.0585292308317
20
-3.66429910466155
30
0
41
1
10
56.836250198814
20
-3.5982089401459
30
0
41
1
10
56.5023735238553
20
-3.49371903511272
30
0
41
1
10
56.3909789994376
20
-3.45798740750018
30
0
41
1
10
56.1684310654482
20
-3.38491309545918
30
0
41
1
10
56.0572275618083
20
-3.3475551856657
30
0
41
1
10
55.5014825535642
20
-3.15677742339596
30
0
41
1
10
55.0577408722562
20
-2.99140925195476
30
0
41
1
10
54.3917031942862
20
-2.72676077321933
30
0
41
1
10
54.1696253892615
20
-2.63577175460182
30
0
41
1
10
53.7250771113275
20
-2.44864286713775
30
0
41
1
10
53.502557586971
20
-2.3524813927512
30
0
41
1
10
52.8343082514915
20
-2.05701976286102
30
0
41
1
10
52.3900733788442
20
-1.85172579334596
30
0
41
1
10
51.5018612736919
20
-1.42866345565289
30
0
41
1
10
51.05789763216
20
-1.21087313360445
30
0
41
1
10
50.501810842844
20
-0.933240863559632
30
0
41
1
10
50.3905368172459
20
-0.87744481666752
30
0
41
1
10
50.1678384962964
20
-0.765382675301112
30
0
41
1
10
50.0563911447003
20
-0.709104771897614
30
0
41
1
10
49.722406148365
20
-0.539997379843697
30
0
41
1
10
49.5000215158434
20
-0.426793305266386
30
0
41
1
10
48.8332755109908
20
-0.0865865352486423
30
0
41
1
10
48.3893254921423
20
0.141017498096119
30
0
41
1
10
47.7226396455814
20
0.480512410588545
30
0
41
1
10
47.5002852434222
20
0.59336085933586
30
0
41
1
10
47.1663579338468
20
0.761751778166996
30
0
41
1
10
47.0549568408401
20
0.817746969437707
30
0
41
1
10
46.832090746142
20
0.929304992938484
30
0
41
1
10
46.7207329555228
20
0.984815506599659
30
0
41
1
10
46.1642597684042
20
1.26091616712228
30
0
41
1
10
45.7200825062405
20
1.47712599141158
30
0
41
1
10
45.0535276078816
20
1.79115409264807
30
0
41
1
10
44.8312984202591
20
1.89412519714412
30
0
41
1
10
44.3865748648153
20
2.09633172616458
30
0
41
1
10
44.1640759849795
20
2.19555736599241
30
0
41
1
10
43.8298440907773
20
2.34108241807741
30
0
41
1
10
43.7183336684179
20
2.38904833511069
30
0
41
1
10
43.4955554486685
20
2.48365614088911
30
0
41
1
10
43.3842361007003
20
2.53032077691219
30
0
41
1
10
43.050447414939
20
2.6683383283351
30
0
41
1
10
42.8281448706963
20
2.75770925488291
30
0
41
1
10
42.1614098733649
20
3.01716271076538
30
0
41
1
10
41.7171564856135
20
3.17859872935588
30
0
41
1
10
41.1608199615472
20
3.36412458394176
30
0
41
1
10
41.0495019767208
20
3.40041687435954
30
0
41
1
10
40.8267377221266
20
3.47133687373395
30
0
41
1
10
40.7152633419882
20
3.50597311149826
30
0
41
1
10
40.3807898201606
20
3.60726714799895
30
0
41
1
10
40.158137478217
20
3.67118550001692
30
0
41
1
10
39.4906770657993
20
3.85162879075128
30
0
41
1
10
39.0463502909599
20
3.95683192975704
30
0
41
1
10
38.379289649423
20
4.09068084488393
30
0
41
1
10
38.1568454156118
20
4.13130781978282
30
0
41
1
10
37.8228413369896
20
4.18609297572229
30
0
41
1
10
37.711450241829
20
4.20332873561523
30
0
41
1
10
37.4885170118375
20
4.23571805321816
30
0
41
1
10
37.3769578509718
20
4.25087260496588
30
0
41
1
10
36.8197558301712
20
4.32124433289965
30
0
41
1
10
36.3750509613673
20
4.36037447298546
30
0
41
1
10
35.8190853506683
20
4.38760023928873
30
0
41
1
10
35.707891241493
20
4.39196295325524
30
0
41
1
10
35.4855186057234
20
4.39852130235576
30
0
41
1
10
35.374336393176
20
4.40071529303995
30
0
41
1
10
35.1968349381074
20
4.40247467283913
30
0
41
1
10
35.130538275797
20
4.40274402764462
30
0
41
1
10
35.0642258968928
20
4.40262541526681
30
0
0
SPLINE
5
FA
100
AcDbEntity
8
1
62
256
6
ByLayer
370
18
48
1
60
0
100
AcDbSpline
70
4
71
3
72
27
73
23
40
0
40
0
40
0
40
0
40
0.124999999999896
40
0.124999999999896
40
0.187499999999858
40
0.187499999999858
40
0.249999999999819
40
0.31249999999978
40
0.31249999999978
40
0.374999999999741
40
0.374999999999741
40
0.499999999999734
40
0.499999999999734
40
0.624999999999727
40
0.624999999999727
40
0.687499999999773
40
0.687499999999773
40
0.749999999999818
40
0.749999999999818
40
0.874999999999909
40
0.874999999999909
40
1
40
1
40
1
40
1
41
1
10
18.5003400717719
20
-4.33296022873915
30
0
41
1
10
18.5003400717719
20
-4.33180133760862
30
0
41
1
10
18.5014318264602
20
-4.3306443031201
30
0
41
1
10
18.5046566279923
20
-4.32891497650451
30
0
41
1
10
18.5060125057027
20
-4.32833554457832
30
0
41
1
10
18.5092113820699
20
-4.32720670473679
30
0
41
1
10
18.5128909080099
20
-4.32610621691208
30
0
41
1
10
18.5175104179533
20
-4.32506477042554
30
0
41
1
10
18.5226125643521
20
-4.32405581147003
30
0
41
1
10
18.5254021391563
20
-4.32356926934116
30
0
41
1
10
18.5342585786581
20
-4.32220351655758
30
0
41
1
10
18.5408999723625
20
-4.32139972369217
30
0
41
1
10
18.5555605621416
20
-4.32004723852972
30
0
41
1
10
18.5633100346962
20
-4.31952231022385
30
0
41
1
10
18.5755484589343
20
-4.3189670234155
30
0
41
1
10
18.5797598694213
20
-4.31882069566373
30
0
41
1
10
18.5881794461452
20
-4.31861628858164
30
0
41
1
10
18.5924036736727
20
-4.3185568928844
30
0
41
1
10
18.6051188840105
20
-4.31850548699651
30
0
41
1
10
18.6137728238532
20
-4.31864527162651
30
0
41
1
10
18.6303487042551
20
-4.31925303490536
30
0
41
1
10
18.6383265686186
20
-4.31971562423064
30
0
41
1
10
18.6459818197339
20
-4.32033724097857
30
0
0
SPLINE
5
FB
100
AcDbEntity
8
1
62
256
6
ByLayer
370
18
48
1
60
0
100
AcDbSpline
70
4
71
3
72
10
73
6
40
0
40
0
40
0
40
0
40
0.994530334772721
40
0.994530334772721
40
1
40
1
40
1
40
1
41
1
10
18.6459818197339
20
-4.32033724097857
30
0
41
1
10
19.0904009656523
20
-4.35642467691611
30
0
41
1
10
19.5351012972507
20
-4.37459049688044
30
0
41
1
10
19.9830558479499
20
-4.3754796478554
30
0
41
1
10
19.9855060334547
20
-4.37548398704095
30
0
41
1
10
19.9879562430834
20
-4.37548780208954
30
0
0
SPLINE
5
FC
100
AcDbEntity
8
1
62
256
6
ByLayer
370
18
48
1
60
0
100
AcDbSpline
70
4
71
3
72
57
73
53
40
0
40
0
40
0
40
0
40
0.0269218461359608
40
0.0269218461359608
40
0.0674667692136291
40
0.0674667692136291
40
0.0877392307524631
40
0.0877392307524631
40
0.108011692291297
40
0.108011692291297
40
0.128284153830131
40
0.128284153830131
40
0.148556615368965
40
0.148556615368965
40
0.189101538446634
40
0.189101538446634
40
0.229646461524302
40
0.229646461524302
40
0.27019138460197
40
0.27019138460197
40
0.310736307679638
40
0.310736307679638
40
0.351281230757306
40
0.351281230757306
40
0.432371076912642
40
0.432371076912642
40
0.452643538451475
40
0.452643538451475
40
0.472915999990308
40
0.472915999990308
40
0.513460923067974
40
0.513460923067974
40
0.594550769223308
40
0.594550769223308
40
0.635095692300977
40
0.635095692300977
40
0.675640615378645
40
0.675640615378645
40
0.716185538456313
40
0.716185538456313
40
0.756730461533981
40
0.756730461533981
40
0.777002923072815
40
0.777002923072815
40
0.797275384611649
40
0.837820307689319
40
0.837820307689319
40
0.87836523076699
40
0.87836523076699
40
0.91891015384466
40
0.91891015384466
40
1
40
1
40
1
40
1
41
1
10
44.8746825362171
20
4.26281214275517
30
0
41
1
10
45.0219828482799
20
4.28293574418439
30
0
41
1
10
45.1693516810808
20
4.3011980674888
30
0
41
1
10
45.5388800712982
20
4.34229405172221
30
0
41
1
10
45.7611466095764
20
4.36276843213537
30
0
41
1
10
46.094869662671
20
4.3870865108629
30
0
41
1
10
46.2062021869255
20
4.39412687666223
30
0
41
1
10
46.4285797775831
20
4.40603272852732
30
0
41
1
10
46.5396681103911
20
4.41090200384622
30
0
41
1
10
46.7616594307001
20
4.41846292435929
30
0
41
1
10
46.8725600480192
20
4.42115499305868
30
0
41
1
10
47.0941764570756
20
4.42434578966817
30
0
41
1
10
47.2049072505679
20
4.42484059938798
30
0
41
1
10
47.5372570365427
20
4.42303695369617
30
0
41
1
10
47.7589796985247
20
4.41746785888972
30
0
41
1
10
48.2026972478262
20
4.39774283693274
30
0
41
1
10
48.4246906685573
20
4.38358716253319
30
0
41
1
10
48.8688838561794
20
4.34664648638241
30
0
41
1
10
49.0910817330256
20
4.32385836323442
30
0
41
1
10
49.5357324581993
20
4.26947821745634
30
0
41
1
10
49.7575858301279
20
4.23796018124338
30
0
41
1
10
50.2012401258287
20
4.16684808357638
30
0
41
1
10
50.4230170409782
20
4.12725415496254
30
0
41
1
10
51.0883142823004
20
3.99658828498224
30
0
41
1
10
51.5317664167355
20
3.89364736050973
30
0
41
1
10
52.086468800047
20
3.74530514116228
30
0
41
1
10
52.1974355096616
20
3.7146559899648
30
0
41
1
10
52.4195253909847
20
3.65149632568503
30
0
41
1
10
52.5306917516361
20
3.61897285783343
30
0
41
1
10
52.8639622215633
20
3.51894867357765
30
0
41
1
10
53.0859721373282
20
3.44893969620418
30
0
41
1
10
53.7515932362567
20
3.22918150419196
30
0
41
1
10
54.1947731980567
20
3.06969424007221
30
0
41
1
10
54.8594610821689
20
2.81184716592239
30
0
41
1
10
55.0810422472494
20
2.72282447499865
30
0
41
1
10
55.5250541574787
20
2.5398794871395
30
0
41
1
10
55.7476222295421
20
2.44585543924376
30
0
41
1
10
56.191996188999
20
2.25353097230575
30
0
41
1
10
56.4139538769634
20
2.15517322420919
30
0
41
1
10
56.8574518261433
20
1.95413627927906
30
0
41
1
10
57.0789912715888
20
1.85145486895891
30
0
41
1
10
57.4110752911282
20
1.69430907843548
30
0
41
1
10
57.5217374319298
20
1.64141420084169
30
0
41
1
10
57.7432165525557
20
1.53499874880649
30
0
41
1
10
58.0756597660562
20
1.37442602660559
30
0
41
1
10
58.408736535288
20
1.21095916633592
30
0
41
1
10
58.8535015073243
20
0.990623724543241
30
0
41
1
10
59.0756671560381
20
0.879540174613823
30
0
41
1
10
59.5194664011138
20
0.655877997599134
30
0
41
1
10
59.741134960645
20
0.543280942038848
30
0
41
1
10
60.4056921914341
20
0.203662051030904
30
0
41
1
10
60.8481280404704
20
-0.02519624197177
30
0
41
1
10
61.2909517184194
20
-0.254601023067778
30
0
0
SPLINE
5
FD
100
AcDbEntity
8
1
62
256
6
ByLayer
370
18
48
1
60
0
100
AcDbSpline
70
4
71
3
72
8
73
4
40
0
40
0
40
0
40
0
40
1
40
1
40
1
40
1
41
1
10
61.290951718414
20
-0.254601023067863
30
0
41
1
10
61.3134403123836
20
-0.0609650765302945
30
0
41
1
10
61.3402535254854
20
0.133164194614864
30
0
41
1
10
61.3725888521942
20
0.327668131283957
30
0
0
SPLINE
5
FE
100
AcDbEntity
8
1
62
256
6
ByLayer
370
18
48
1
60
0
100
AcDbSpline
70
4
71
3
72
55
73
51
40
0
40
0
40
0
40
0
40
0.066844919058014
40
0.066844919058014
40
0.100267378587021
40
0.100267378587021
40
0.133689838116028
40
0.133689838116028
40
0.167112297645035
40
0.167112297645035
40
0.200534757174042
40
0.200534757174042
40
0.267379676232056
40
0.267379676232056
40
0.33422459529007
40
0.33422459529007
40
0.401069514348084
40
0.401069514348084
40
0.434491973877092
40
0.434491973877092
40
0.467914433406101
40
0.467914433406101
40
0.484625663170605
40
0.484625663170605
40
0.501336892935109
40
0.53475935246412
40
0.53475935246412
40
0.601604271522139
40
0.601604271522139
40
0.635026731051148
40
0.635026731051148
40
0.668449190580158
40
0.668449190580158
40
0.735294109638179
40
0.735294109638179
40
0.802139028696201
40
0.802139028696201
40
0.83556148822521
40
0.83556148822521
40
0.86898394775422
40
0.86898394775422
40
0.902406407283229
40
0.902406407283229
40
0.935828866812239
40
0.935828866812239
40
0.952540096576745
40
0.952540096576745
40
0.969251326341251
40
0.969251326341251
40
1
40
1
40
1
40
1
41
1
10
61.3725888521943
20
0.327668131283985
30
0
41
1
10
61.0826822973228
20
0.476460527767074
30
0
41
1
10
60.7936943049005
20
0.624011044428158
30
0
41
1
10
60.3613333466991
20
0.843029521157973
30
0
41
1
10
60.2173818740316
20
0.915615070403192
30
0
41
1
10
59.9298964180836
20
1.06010505780992
30
0
41
1
10
59.7863228236283
20
1.13192942800586
30
0
41
1
10
59.4993155723314
20
1.27435623469205
30
0
41
1
10
59.3558914502979
20
1.34497757834345
30
0
41
1
10
59.069073352781
20
1.48480242813397
30
0
41
1
10
58.9256852901104
20
1.55401787479121
30
0
41
1
10
58.4955617824748
20
1.75954464302151
30
0
41
1
10
58.2088925321301
20
1.89378411432202
30
0
41
1
10
57.6353062995254
20
2.15594996564116
30
0
41
1
10
57.3485744752861
20
2.28419095236018
30
0
41
1
10
56.7737748994407
20
2.53239953183854
30
0
41
1
10
56.4856958932248
20
2.65236488589466
30
0
41
1
10
56.0524026181765
20
2.82582192965907
30
0
41
1
10
55.9077854202138
20
2.88257338941264
30
0
41
1
10
55.618091014101
20
2.99378588738549
30
0
41
1
10
55.4730072989945
20
3.04823793066998
30
0
41
1
10
55.2550793655575
20
3.12824595824043
30
0
41
1
10
55.1824497944803
20
3.1545990419377
30
0
41
1
10
55.037374856006
20
3.2065491377831
30
0
41
1
10
54.819952630803
20
3.2833795974048
30
0
41
1
10
54.6030270559584
20
3.35684173261293
30
0
41
1
10
54.1696423230923
20
3.49908318154164
30
0
41
1
10
53.881370211622
20
3.58772310079505
30
0
41
1
10
53.4498238649996
20
3.71143759743003
30
0
41
1
10
53.306098218442
20
3.7511090708154
30
0
41
1
10
53.0188782699594
20
3.82731134522351
30
0
41
1
10
52.8754336170246
20
3.86389072806045
30
0
41
1
10
52.4452487495408
20
3.96870235257867
30
0
41
1
10
52.1586134636709
20
4.03196825336445
30
0
41
1
10
51.5848453600727
20
4.14472926465135
30
0
41
1
10
51.2978137139457
20
4.19431685396029
30
0
41
1
10
50.8667976792539
20
4.25829713608439
30
0
41
1
10
50.7230342125793
20
4.27788300059271
30
0
41
1
10
50.4353949948745
20
4.31357456817426
30
0
41
1
10
50.291475536882
20
4.32965440896621
30
0
41
1
10
50.0032437146591
20
4.35817347833563
30
0
41
1
10
49.8589395646471
20
4.37061703418487
30
0
41
1
10
49.5698287708534
20
4.39182007608119
30
0
41
1
10
49.4250292912988
20
4.40058358521594
30
0
41
1
10
49.2074525899525
20
4.41095518243768
30
0
41
1
10
49.134864317583
20
4.41394996468378
30
0
41
1
10
48.9895591388371
20
4.41900956898468
30
0
41
1
10
48.9167969626983
20
4.42107526929215
30
0
41
1
10
48.7103292810306
20
4.42560491634117
30
0
41
1
10
48.5767870418953
20
4.42694689920398
30
0
41
1
10
48.4434675782517
20
4.42670824725786
30
0
0
SPLINE
5
FF
100
AcDbEntity
8
1
62
256
6
ByLayer
370
18
48
1
60
0
100
AcDbSpline
70
4
71
3
72
92
73
88
40
0
40
0
40
0
40
0
40
0.0052522688784442
40
0.0052522688784442
40
0.0450421781233082
40
0.0450421781233082
40
0.0848320873681726
40
0.0848320873681726
40
0.124621996613037
40
0.124621996613037
40
0.144516951235469
40
0.144516951235469
40
0.1644119058579
40
0.1644119058579
40
0.184306860480332
40
0.184306860480332
40
0.204201815102764
40
0.204201815102764
40
0.21414929241398
40
0.21414929241398
40
0.224096769725197
40
0.224096769725197
40
0.243991724347628
40
0.243991724347628
40
0.26388667897006
40
0.26388667897006
40
0.283781633592491
40
0.283781633592491
40
0.323571542837353
40
0.323571542837353
40
0.343466497459784
40
0.343466497459784
40
0.363361452082214
40
0.363361452082214
40
0.383256406704645
40
0.383256406704645
40
0.403151361327076
40
0.403151361327076
40
0.442941270571937
40
0.442941270571937
40
0.462836225194368
40
0.462836225194368
40
0.482731179816798
40
0.482731179816798
40
0.502626134439228
40
0.502626134439228
40
0.512573611750444
40
0.512573611750444
40
0.522521089061659
40
0.522521089061659
40
0.562310998306522
40
0.562310998306522
40
0.582205952928953
40
0.582205952928953
40
0.602100907551384
40
0.602100907551384
40
0.621995862173816
40
0.621995862173816
40
0.641890816796247
40
0.641890816796247
40
0.681680726041109
40
0.681680726041109
40
0.721470635285972
40
0.721470635285972
40
0.761260544530834
40
0.761260544530834
40
0.781155499153265
40
0.781155499153265
40
0.801050453775697
40
0.801050453775697
40
0.810997931086912
40
0.810997931086912
40
0.820945408398128
40
0.820945408398128
40
0.840840363020559
40
0.840840363020559
40
0.880630272265419
40
0.880630272265419
40
0.90052522688785
40
0.90052522688785
40
0.92042018151028
40
0.92042018151028
40
0.94031513613271
40
0.94031513613271
40
0.960210090755141
40
0.960210090755141
40
1
40
1
40
1
40
1
41
1
10
27.755594337121
20
-3.22423131793278
30
0
41
1
10
27.7175400183189
20
-3.23728266859337
30
0
41
1
10
27.6794947751497
20
-3.25023748042491
30
0
41
1
10
27.3533047770211
20
-3.36050770881488
30
0
41
1
10
27.0656160800676
20
-3.45231644620571
30
0
41
1
10
26.4910385797565
20
-3.62453454229828
30
0
41
1
10
26.2039328838223
20
-3.70466013765989
30
0
41
1
10
25.6290949163322
20
-3.85195479498034
30
0
41
1
10
25.3414431286008
20
-3.91922980744675
30
0
41
1
10
24.9094923948885
20
-4.01043599500895
30
0
41
1
10
24.7653946805336
20
-4.03918970847204
30
0
41
1
10
24.477055692002
20
-4.09344111859247
30
0
41
1
10
24.332820829543
20
-4.1189385111293
30
0
41
1
10
24.0439487566066
20
-4.16644846517332
30
0
41
1
10
23.8993268716484
20
-4.18847339044706
30
0
41
1
10
23.609575409707
20
-4.22896692166566
30
0
41
1
10
23.4644411526868
20
-4.24743466913088
30
0
41
1
10
23.2463416222964
20
-4.27245311064246
30
0
41
1
10
23.1735755569577
20
-4.28034530614951
30
0
41
1
10
23.0279097207292
20
-4.29523082267184
30
0
41
1
10
22.9549721972813
20
-4.30222700593728
30
0
41
1
10
22.7364617938798
20
-4.32181445198569
30
0
41
1
10
22.5910670433867
20
-4.33301861029653
30
0
41
1
10
22.3007436716281
20
-4.35172226873541
30
0
41
1
10
22.1558645664993
20
-4.35923531249429
30
0
41
1
10
21.8665665707966
20
-4.37056379817724
30
0
41
1
10
21.7221111654238
20
-4.37437254041248
30
0
41
1
10
21.2891208708043
20
-4.38026275641676
30
0
41
1
10
21.0008876011361
20
-4.37681848991201
30
0
41
1
10
20.5689837960363
20
-4.36081368984816
30
0
41
1
10
20.4251022220859
20
-4.35366833937741
30
0
41
1
10
20.1374560244272
20
-4.33577197782293
30
0
41
1
10
19.9936634353357
20
-4.32503041857973
30
0
41
1
10
19.7062489717002
20
-4.29991525313497
30
0
41
1
10
19.5626128651823
20
-4.28554047231083
30
0
41
1
10
19.2752291431951
20
-4.25324489441235
30
0
41
1
10
19.1314968275346
20
-4.23531930803844
30
0
41
1
10
18.6999729907161
20
-4.17632743751417
30
0
41
1
10
18.4118509770098
20
-4.13006815206109
30
0
41
1
10
17.9789529435276
20
-4.0502906659527
30
0
41
1
10
17.8345300891122
20
-4.02196582297009
30
0
41
1
10
17.5453564946683
20
-3.96188697258361
30
0
41
1
10
17.4006593375524
20
-3.93008682873477
30
0
41
1
10
17.1109091071662
20
-3.86302781334663
30
0
41
1
10
16.9658236961803
20
-3.82779963725724
30
0
41
1
10
16.747780094932
20
-3.77249100208249
30
0
41
1
10
16.6750296404057
20
-3.75364393938315
30
0
41
1
10
16.5293722936353
20
-3.71514587702774
30
0
41
1
10
16.4564207150206
20
-3.69548187688684
30
0
41
1
10
16.092019320404
20
-3.59535754959057
30
0
41
1
10
15.8014717551184
20
-3.5094235803391
30
0
41
1
10
15.3669217897127
20
-3.37214427708415
30
0
41
1
10
15.2222531788765
20
-3.32502823874799
30
0
41
1
10
14.9333905189355
20
-3.22793690454554
30
0
41
1
10
14.7891660279001
20
-3.17799978687208
30
0
41
1
10
14.5008968794287
20
-3.07568015590476
30
0
41
1
10
14.3568659198007
20
-3.0232789995402
30
0
41
1
10
14.0688729423079
20
-2.91621811218803
30
0
41
1
10
13.924914282046
20
-2.86155465618515
30
0
41
1
10
13.4931392473606
20
-2.69420963817706
30
0
41
1
10
13.2054597379615
20
-2.57811797943921
30
0
41
1
10
12.6300489297252
20
-2.3375051079021
30
0
41
1
10
12.3425331363272
20
-2.21260105893549
30
0
41
1
10
11.7663778221391
20
-1.95612495575054
30
0
41
1
10
11.477712033697
20
-1.82462650794159
30
0
41
1
10
11.0436954095704
20
-1.62272824597878
30
0
41
1
10
10.8988647447246
20
-1.55463034623901
30
0
41
1
10
10.6088105968377
20
-1.41696508605162
30
0
41
1
10
10.4635710033562
20
-1.34743163191973
30
0
41
1
10
10.2454689383579
20
-1.24190025928848
30
0
41
1
10
10.1727212111836
20
-1.20653077063451
30
0
41
1
10
10.0270909599288
20
-1.13548688899169
30
0
41
1
10
9.95417489362359
20
-1.09979578780198
30
0
41
1
10
9.73545655369787
20
-0.992435466374445
30
0
41
1
10
9.58979098844259
20
-0.920533453168673
30
0
41
1
10
9.15302260031308
20
-0.704265339006298
30
0
41
1
10
8.86217550088008
20
-0.559282883793287
30
0
41
1
10
8.42634363594715
20
-0.340723806120082
30
0
41
1
10
8.28111818512372
20
-0.267732376146597
30
0
41
1
10
7.99075525665512
20
-0.121504056187007
30
0
41
1
10
7.84566293610251
20
-0.0481768029037539
30
0
41
1
10
7.55555158822474
20
0.0986945030441575
30
0
41
1
10
7.41052518493322
20
0.17222383792884
30
0
41
1
10
7.12026390196635
20
0.318935088313822
30
0
41
1
10
6.97500833085849
20
0.392075482333411
30
0
41
1
10
6.53870406918759
20
0.610523632341994
30
0
41
1
10
6.24715104144352
20
0.754924907799335
30
0
41
1
10
5.95466682587454
20
0.897596249205662
30
0
0
SPLINE
5
100
100
AcDbEntity
8
1
62
256
6
ByLayer
370
18
48
1
60
0
100
AcDbSpline
70
4
71
3
72
109
73
105
40
0
40
0
40
0
40
0
40
0.0624999999999913
40
0.0624999999999913
40
0.124999999999983
40
0.124999999999983
40
0.156249999999979
40
0.156249999999979
40
0.187499999999975
40
0.187499999999975
40
0.203124999999973
40
0.203124999999973
40
0.218749999999971
40
0.218749999999971
40
0.249999999999968
40
0.249999999999968
40
0.265624999999966
40
0.265624999999966
40
0.273437499999966
40
0.273437499999966
40
0.281249999999965
40
0.281249999999965
40
0.312499999999959
40
0.312499999999959
40
0.343749999999953
40
0.343749999999953
40
0.35937499999995
40
0.35937499999995
40
0.363281249999949
40
0.363281249999949
40
0.367187499999948
40
0.374999999999947
40
0.374999999999947
40
0.390624999999945
40
0.390624999999945
40
0.398437499999944
40
0.398437499999944
40
0.406249999999943
40
0.406249999999943
40
0.437499999999939
40
0.437499999999939
40
0.445312499999938
40
0.449218749999937
40
0.449218749999937
40
0.453124999999937
40
0.453124999999937
40
0.468749999999935
40
0.468749999999935
40
0.484374999999933
40
0.484374999999933
40
0.492187499999932
40
0.492187499999932
40
0.499999999999932
40
0.499999999999932
40
0.51562499999993
40
0.51562499999993
40
0.531249999999928
40
0.531249999999928
40
0.546874999999926
40
0.546874999999926
40
0.554687499999926
40
0.554687499999926
40
0.562499999999925
40
0.562499999999925
40
0.593749999999924
40
0.593749999999924
40
0.624999999999924
40
0.624999999999924
40
0.656249999999924
40
0.656249999999924
40
0.687499999999923
40
0.687499999999923
40
0.703124999999922
40
0.703124999999922
40
0.710937499999923
40
0.710937499999923
40
0.711914062499922
40
0.711914062499922
40
0.712890624999922
40
0.712890624999922
40
0.714843749999921
40
0.714843749999921
40
0.716796874999921
40
0.716796874999921
40
0.71874999999992
40
0.71874999999992
40
0.72070312499992
40
0.72070312499992
40
0.722656249999919
40
0.722656249999919
40
0.726562499999919
40
0.734374999999921
40
0.734374999999921
40
0.749999999999925
40
0.749999999999925
40
0.812499999999943
40
0.812499999999943
40
0.843749999999952
40
0.843749999999952
40
0.874999999999962
40
0.874999999999962
40
0.937499999999981
40
0.937499999999981
40
1
40
1
40
1
40
1
41
1
10
5.95446627978282
20
0.897687131899744
30
0
41
1
10
5.70271819621064
20
1.02146614640304
30
0
41
1
10
5.45393344510012
20
1.14813360924291
30
0
41
1
10
4.96328138512789
20
1.40792446265866
30
0
41
1
10
4.72140103560508
20
1.54103729915744
30
0
41
1
10
4.36494436919011
20
1.74640670095855
30
0
41
1
10
4.24719172695364
20
1.81581771257109
30
0
41
1
10
4.01412006093199
20
1.95677687788
30
0
41
1
10
3.8987993218291
20
2.02832363469904
30
0
41
1
10
3.7279528887818
20
2.13748542104699
30
0
41
1
10
3.67129963279461
20
2.17422112981038
30
0
41
1
10
3.55910550309213
20
2.24814217660813
30
0
41
1
10
3.50358950641959
20
2.28530964911283
30
0
41
1
10
3.33893062993866
20
2.39747369078739
30
0
41
1
10
3.23166369432778
20
2.47312764666026
30
0
41
1
10
3.07529708454635
20
2.58815014026453
30
0
41
1
10
3.0239334197507
20
2.62674883177064
30
0
41
1
10
2.94815791554322
20
2.68507311545488
30
0
41
1
10
2.92311137416999
20
2.7045856795541
30
0
41
1
10
2.87346836947955
20
2.74376099157814
30
0
41
1
10
2.84884782945963
20
2.76344332775207
30
0
41
1
10
2.72724804124877
20
2.86200569106148
30
0
41
1
10
2.63504308993765
20
2.94108015154791
30
0
41
1
10
2.46312173062273
20
3.09972296298921
30
0
41
1
10
2.38337222550004
20
3.17928965638629
30
0
41
1
10
2.27592529883819
20
3.29909359220821
30
0
41
1
10
2.24215292713779
20
3.33910453842142
30
0
41
1
10
2.20294932949992
20
3.38923039820185
30
0
41
1
10
2.1952517409481
20
3.39927235931879
30
0
41
1
10
2.18024993243097
20
3.41926378624831
30
0
41
1
10
2.15831347745964
20
3.44914143608602
30
0
41
1
10
2.13811094662711
20
3.47868398816468
30
0
41
1
10
2.10012270856581
20
3.53730288636677
30
0
41
1
10
2.07801432351243
20
3.57576137124849
30
0
41
1
10
2.05018163370471
20
3.63242715270744
30
0
41
1
10
2.04179363098464
20
3.65114522851533
30
0
41
1
10
2.02689830248573
20
3.68822249575302
30
0
41
1
10
2.02038593769734
20
3.70659817143078
30
0
41
1
10
1.99286686736787
20
3.79735864764609
30
0
41
1
10
1.98772880446208
20
3.86373702976439
30
0
41
1
10
2.00241588609961
20
3.93904149816345
30
0
41
1
10
2.00840977487485
20
3.96105642049116
30
0
41
1
10
2.0167989585662
20
3.98220625075805
30
0
41
1
10
2.02292610931164
20
3.99611368645682
30
0
41
1
10
2.02626060092513
20
4.00297606432761
30
0
41
1
10
2.04413830942579
20
4.03657219996776
30
0
41
1
10
2.06236500026992
20
4.06135550782241
30
0
41
1
10
2.10590160385342
20
4.10717996103304
30
0
41
1
10
2.13121328115517
20
4.12822014034626
30
0
41
1
10
2.17404541213006
20
4.15723840584099
30
0
41
1
10
2.18914970094357
20
4.16649519139435
30
0
41
1
10
2.22085541010915
20
4.18416294397673
30
0
41
1
10
2.2373633444102
20
4.19252404819443
30
0
41
1
10
2.28869850622615
20
4.21630754648487
30
0
41
1
10
2.3253315346492
20
4.23043434853861
30
0
41
1
10
2.40276049824226
20
4.25573738751314
30
0
41
1
10
2.44355843180026
20
4.26691210936508
30
0
41
1
10
2.52882130430945
20
4.28669629927066
30
0
41
1
10
2.57328749064177
20
4.2953048207898
30
0
41
1
10
2.64244535823954
20
4.30652160474426
30
0
41
1
10
2.665908526252
20
4.30997730702529
30
0
41
1
10
2.71361472332967
20
4.3163546718674
30
0
41
1
10
2.73782223539448
20
4.31927081334311
30
0
41
1
10
2.86002400804588
20
4.33253095117678
30
0
41
1
10
2.96194740337688
20
4.33901962563641
30
0
41
1
10
3.17223176270323
20
4.345835819651
30
0
41
1
10
3.28060716903681
20
4.3461476122738
30
0
41
1
10
3.50262081663027
20
4.34191276073597
30
0
41
1
10
3.61626581068594
20
4.33735876214232
30
0
41
1
10
3.84800701379871
20
4.32429960296648
30
0
41
1
10
3.96623987507061
20
4.31577731782147
30
0
41
1
10
4.14571963007057
20
4.30059999697483
30
0
41
1
10
4.20592789408582
20
4.29513943524401
30
0
41
1
10
4.29673676733967
20
4.28640518006142
30
0
41
1
10
4.32709003713762
20
4.28340304762037
30
0
41
1
10
4.36132580296436
20
4.27992856303752
30
0
41
1
10
4.3651264267105
20
4.27953977623508
30
0
41
1
10
4.37275019626605
20
4.27876560141792
30
0
41
1
10
4.37661449546815
20
4.27839199144657
30
0
41
1
10
4.3885660443253
20
4.27741168793983
30
0
41
1
10
4.397006785408
20
4.2769280999465
30
0
41
1
10
4.41410376844797
20
4.27631248955234
30
0
41
1
10
4.42286788033539
20
4.27616410578534
30
0
41
1
10
4.44042718335606
20
4.27610878366315
30
0
41
1
10
4.44913341984213
20
4.27619401002781
30
0
41
1
10
4.46638818140707
20
4.27660587983004
30
0
41
1
10
4.47494110825812
20
4.27692565799094
30
0
41
1
10
4.49194504707256
20
4.27771752054713
30
0
41
1
10
4.50037784861146
20
4.27818005941629
30
0
41
1
10
4.52571232832781
20
4.27950701220064
30
0
41
1
10
4.57635784754558
20
4.28215189249255
30
0
41
1
10
4.62693204574254
20
4.28476685921822
30
0
41
1
10
4.72798262498637
20
4.28994969701469
30
0
41
1
10
4.79522519774915
20
4.293342447886
30
0
41
1
10
5.13075128899487
20
4.30989453305284
30
0
41
1
10
5.39684890343639
20
4.32182036939284
30
0
41
1
10
5.7928172975117
20
4.33582726874712
30
0
41
1
10
5.92428904711915
20
4.3398471793152
30
0
41
1
10
6.18578627339576
20
4.34625276110785
30
0
41
1
10
6.31587284763236
20
4.34864031847042
30
0
41
1
10
6.7042699267933
20
4.35289292417394
30
0
41
1
10
6.96070804589004
20
4.35183717983213
30
0
41
1
10
7.46953261240128
20
4.33961741881961
30
0
41
1
10
7.72192135992353
20
4.32845039706135
30
0
41
1
10
7.97281006135489
20
4.31123937858445
30
0
0
SPLINE
5
101
100
AcDbEntity
8
1
62
256
6
ByLayer
370
18
48
1
60
0
100
AcDbSpline
70
4
71
3
72
40
73
36
40
0
40
0
40
0
40
0
40
0.125
40
0.125
40
0.187499999999999
40
0.187499999999999
40
0.249999999999999
40
0.249999999999999
40
0.312499999999998
40
0.312499999999998
40
0.374999999999997
40
0.374999999999997
40
0.437499999999997
40
0.437499999999997
40
0.499999999999996
40
0.499999999999996
40
0.562499999999995
40
0.562499999999995
40
0.593749999999995
40
0.593749999999995
40
0.609374999999995
40
0.609374999999995
40
0.624999999999994
40
0.624999999999994
40
0.687499999999995
40
0.687499999999995
40
0.749999999999996
40
0.749999999999996
40
0.812499999999997
40
0.812499999999997
40
0.874999999999998
40
0.874999999999998
40
0.937499999999999
40
0.937499999999999
40
1
40
1
40
1
40
1
41
1
10
7.9728113051149
20
4.31123924873359
30
0
41
1
10
8.41576305830316
20
4.28090542229063
30
0
41
1
10
8.85625776879738
20
4.23377446515667
30
0
41
1
10
9.51477058423512
20
4.13911878704357
30
0
41
1
10
9.73391983257306
20
4.10358383060921
30
0
41
1
10
10.1717321377666
20
4.02475228559967
30
0
41
1
10
10.3903445634574
20
3.98141252221407
30
0
41
1
10
10.8274535761875
20
3.88729232127352
30
0
41
1
10
11.0459500178673
20
3.83652013168185
30
0
41
1
10
11.4829262692868
20
3.72766026567706
30
0
41
1
10
11.7014210174214
20
3.66958411134715
30
0
41
1
10
12.1386832810672
20
3.54639264303251
30
0
41
1
10
12.3574638897892
20
3.48129508498295
30
0
41
1
10
12.7954653979963
20
3.34420553751482
30
0
41
1
10
13.0147282737418
20
3.2722620045308
30
0
41
1
10
13.454152373762
20
3.12203135367363
30
0
41
1
10
13.674260946767
20
3.04367280791482
30
0
41
1
10
14.0051915837806
20
2.92144940533609
30
0
41
1
10
14.1156310311893
20
2.87992920676675
30
0
41
1
10
14.2815094984866
20
2.81650895087623
30
0
41
1
10
14.3368643462883
20
2.79516897703243
30
0
41
1
10
14.4474875766749
20
2.75217886201651
30
0
41
1
10
14.5027610353035
20
2.73052711337505
30
0
41
1
10
14.7789488147827
20
2.6215056016427
30
0
41
1
10
14.9992828560546
20
2.53177642931172
30
0
41
1
10
15.4390599039309
20
2.34791025009019
30
0
41
1
10
15.6585586793791
20
2.25387209843851
30
0
41
1
10
16.0969036936747
20
2.06184486278391
30
0
41
1
10
16.3157497919479
20
1.96385434970145
30
0
41
1
10
16.7530450377051
20
1.76439932650462
30
0
41
1
10
16.9715089102397
20
1.66296260842847
30
0
41
1
10
17.4082435691334
20
1.45700080343667
30
0
41
1
10
17.6264930642388
20
1.35243281754666
30
0
41
1
10
18.0632450199033
20
1.14106015230672
30
0
41
1
10
18.2817109720171
20
1.03418742923594
30
0
41
1
10
18.5003400717815
20
0.926267478771507
30
0
0
SPLINE
5
102
100
AcDbEntity
8
1
62
256
6
ByLayer
370
18
48
1
60
0
100
AcDbSpline
70
4
71
3
72
47
73
43
40
0
40
0
40
0
40
0
40
0.0214445019685582
40
0.0214445019685582
40
0.0428890039371164
40
0.0428890039371164
40
0.0857780078742339
40
0.0857780078742339
40
0.17155601574847
40
0.17155601574847
40
0.257334023622706
40
0.257334023622706
40
0.278778525591263
40
0.278778525591263
40
0.300223027559821
40
0.343112031496933
40
0.343112031496933
40
0.428890039371157
40
0.428890039371157
40
0.471779043308267
40
0.471779043308267
40
0.493223545276822
40
0.493223545276822
40
0.514668047245378
40
0.557557051182486
40
0.557557051182486
40
0.600446055119595
40
0.600446055119595
40
0.686224062993811
40
0.686224062993811
40
0.772002070868028
40
0.772002070868028
40
0.793446572836583
40
0.793446572836583
40
0.814891074805138
40
0.857780078742245
40
0.857780078742245
40
0.943558086616462
40
0.943558086616462
40
0.986447090553569
40
0.986447090553569
40
1
40
1
40
1
40
1
41
1
10
18.5003400717719
20
0.998716258787169
30
0
41
1
10
18.6122455457775
20
0.943823989352012
30
0
41
1
10
18.7241427740703
20
0.888668646048814
30
0
41
1
10
18.947954246717
20
0.777896066368641
30
0
41
1
10
19.0599016679731
20
0.72226219826473
30
0
41
1
10
19.395394068343
20
0.554982231018528
30
0
41
1
10
19.6186879249883
20
0.442908169531251
30
0
41
1
10
20.2879034498015
20
0.105898202600429
30
0
41
1
10
20.7331581336339
20
-0.119826548806316
30
0
41
1
10
21.6243664936037
20
-0.568439439002589
30
0
41
1
10
22.0702749480622
20
-0.791418970225038
30
0
41
1
10
22.6291969297845
20
-1.06618081710539
30
0
41
1
10
22.7411152960184
20
-1.12096084396626
30
0
41
1
10
22.9648368750305
20
-1.22991018138814
30
0
41
1
10
23.3001749710399
20
-1.39238374668341
30
0
41
1
10
23.6349270074772
20
-1.55173331091228
30
0
41
1
10
24.3040589477474
20
-1.86551174516171
30
0
41
1
10
24.7496465603827
20
-2.06813881531156
30
0
41
1
10
25.4190115738072
20
-2.35911001446979
30
0
41
1
10
25.6422983843656
20
-2.45393784195082
30
0
41
1
10
25.977699620863
20
-2.59254443268102
30
0
41
1
10
26.0895712293606
20
-2.63813705223481
30
0
41
1
10
26.3131846324088
20
-2.7279196325205
30
0
41
1
10
26.6485296869067
20
-2.86054176542163
30
0
41
1
10
26.9837806857011
20
-2.98681691591128
30
0
41
1
10
27.4309489900361
20
-3.1491709121434
30
0
41
1
10
27.6547528937738
20
-3.22738358729214
30
0
41
1
10
28.3250481187461
20
-3.45183542867861
30
0
41
1
10
28.7708482003638
20
-3.58803822563686
30
0
41
1
10
29.6624308212052
20
-3.83120855704976
30
0
41
1
10
30.1082067586825
20
-3.93817890212301
30
0
41
1
10
30.6667915788791
20
-4.05214658988697
30
0
41
1
10
30.7786302400192
20
-4.07396254019648
30
0
41
1
10
31.0021301156817
20
-4.11552121660554
30
0
41
1
10
31.3371529994302
20
-4.17476012467708
30
0
41
1
10
31.671646051779
20
-4.22462927628033
30
0
41
1
10
32.3403231464872
20
-4.31169233180566
30
0
41
1
10
32.7856922521224
20
-4.35282593492394
30
0
41
1
10
33.4548142535986
20
-4.38849455732534
30
0
41
1
10
33.6780372425728
20
-4.39604723775489
30
0
41
1
10
33.9722096459466
20
-4.40022263142833
30
0
41
1
10
34.0428518062466
20
-4.40078716456605
30
0
41
1
10
34.1134680781553
20
-4.40091408460387
30
0
0
SPLINE
5
103
100
AcDbEntity
8
1
62
256
6
ByLayer
370
18
48
1
60
0
100
AcDbSpline
70
4
71
3
72
23
73
19
40
0
40
0
40
0
40
0
40
0.169090166130881
40
0.169090166130881
40
0.221022030747699
40
0.221022030747699
40
0.272953895364516
40
0.272953895364516
40
0.376817624598155
40
0.376817624598155
40
0.584545083065432
40
0.584545083065432
40
0.636476947682251
40
0.636476947682251
40
0.68840881229907
40
0.792272541532711
40
0.792272541532711
40
1
40
1
40
1
40
1
41
1
10
54.876320189197
20
3.25855309306539
30
0
41
1
10
55.2383872910692
20
3.38496718260993
30
0
41
1
10
55.6005460250231
20
3.50295891460235
30
0
41
1
10
56.0748752015178
20
3.64506344109171
30
0
41
1
10
56.1864353645215
20
3.67758981450402
30
0
41
1
10
56.4095228928821
20
3.74078720597242
30
0
41
1
10
56.5210026105943
20
3.77144549074092
30
0
41
1
10
56.8553044888979
20
3.8605521751299
30
0
41
1
10
57.0779932022436
20
3.91612916624533
30
0
41
1
10
57.7458807740436
20
4.07108570573465
30
0
41
1
10
58.190884499149
20
4.15870309861967
30
0
41
1
10
58.7481233818986
20
4.24750884968643
30
0
41
1
10
58.8596494440675
20
4.26423765615209
30
0
41
1
10
59.0827107086598
20
4.29557641587286
30
0
41
1
10
59.4170844290079
20
4.33937562490547
30
0
41
1
10
59.7509648857535
20
4.37349096504508
30
0
41
1
10
60.418502539919
20
4.42867940040932
30
0
41
1
10
60.8632339314739
20
4.4480735703275
30
0
41
1
10
61.3088132232011
20
4.44982732728283
30
0
0
SPLINE
5
104
100
AcDbEntity
8
SK1
62
256
6
ByLayer
370
18
48
1
60
0
100
AcDbSpline
70
4
71
3
72
20
73
16
40
0
40
0
40
0
40
0
40
0.250000000000008
40
0.250000000000008
40
0.375000000000006
40
0.375000000000006
40
0.500000000000005
40
0.500000000000005
40
0.625000000000004
40
0.625000000000004
40
0.750000000000003
40
0.750000000000003
40
0.875000000000001
40
0.875000000000001
40
1
40
1
40
1
40
1
41
1
10
-39.35
20
4.23880956441207
30
0
41
1
10
-39.338205186486
20
4.25091878966384
30
0
41
1
10
-39.326788992333
20
4.26301414591339
30
0
41
1
10
-39.3102132143741
20
4.28112218146796
30
0
41
1
10
-39.304833241342
20
4.28709669949757
30
0
41
1
10
-39.2945637817252
20
4.29869987961226
30
0
41
1
10
-39.289643923718
20
4.30436145700907
30
0
41
1
10
-39.2802807943173
20
4.31536777320042
30
0
41
1
10
-39.2758194796066
20
4.32073397267209
30
0
41
1
10
-39.267562331863
20
4.33097702934865
30
0
41
1
10
-39.2638525857023
20
4.3357455972743
30
0
41
1
10
-39.2574621956925
20
4.34440866242517
30
0
41
1
10
-39.2547834319691
20
4.3483091210544
30
0
41
1
10
-39.2510694001166
20
4.35453478902588
30
0
41
1
10
-39.25
20
4.35692940420978
30
0
41
1
10
-39.25
20
4.35822832499846
30
0
0
SPLINE
5
105
100
AcDbEntity
8
SK1
62
256
6
ByLayer
370
18
48
1
60
0
100
AcDbSpline
70
4
71
3
72
8
73
4
40
0
40
0
40
0
40
0
40
1
40
1
40
1
40
1
41
1
10
-40
20
3.56807513113222
30
0
41
1
10
-39.7840043256435
20
3.79230921623619
30
0
41
1
10
-39.5672333906464
20
4.01578543126917
30
0
41
1
10
-39.35
20
4.23880956441204
30
0
0
SPLINE
5
106
100
AcDbEntity
8
SK1
62
256
6
ByLayer
370
18
48
1
60
0
100
AcDbSpline
70
4
71
3
72
8
73
4
40
0
40
0
40
0
40
0
40
1
40
1
40
1
40
1
41
1
10
-39.35
20
-4.1345650129625
30
0
41
1
10
-39.5672423831623
20
-3.91153164759214
30
0
41
1
10
-39.7840149110218
20
-3.68805367566557
30
0
41
1
10
-40
20
-3.46383057968268
30
0
0
SPLINE
5
107
100
AcDbEntity
8
SK1
62
256
6
ByLayer
370
18
48
1
60
0
100
AcDbSpline
70
4
71
3
72
20
73
16
40
0
40
0
40
0
40
0
40
0.124999999999998
40
0.124999999999998
40
0.187499999999996
40
0.187499999999996
40
0.249999999999995
40
0.249999999999995
40
0.374999999999998
40
0.374999999999998
40
0.500000000000002
40
0.500000000000002
40
0.750000000000001
40
0.750000000000001
40
1
40
1
40
1
40
1
41
1
10
-39.25
20
-4.2644082286939
30
0
41
1
10
-39.25
20
-4.26223938625671
30
0
41
1
10
-39.2510680086886
20
-4.2589981074191
30
0
41
1
10
-39.2538495157728
20
-4.25316139424098
30
0
41
1
10
-39.2549703876943
20
-4.2510508280626
30
0
41
1
10
-39.2575552869368
20
-4.24653764006464
30
0
41
1
10
-39.2590298143252
20
-4.24411948753104
30
0
41
1
10
-39.2638240044233
20
-4.23662223186233
30
0
41
1
10
-39.267515960107
20
-4.23128362685489
30
0
41
1
10
-39.275680748839
20
-4.22007510714974
30
0
41
1
10
-39.2801886771091
20
-4.21416533496844
30
0
41
1
10
-39.2943187548888
20
-4.19628882377515
30
0
41
1
10
-39.3046720301746
20
-4.18398296863057
30
0
41
1
10
-39.3267894589619
20
-4.15897960636713
30
0
41
1
10
-39.3382086330433
20
-4.1466706997829
30
0
41
1
10
-39.35
20
-4.1345650129625
30
0
0
SPLINE
5
108
100
AcDbEntity
8
SK1
62
256
6
ByLayer
370
18
48
1
60
0
100
AcDbSpline
70
4
71
3
72
20
73
16
40
0
40
0
40
0
40
0
40
0.249999999999993
40
0.249999999999993
40
0.374999999999994
40
0.374999999999994
40
0.499999999999995
40
0.499999999999995
40
0.624999999999997
40
0.624999999999997
40
0.749999999999998
40
0.749999999999998
40
0.874999999999999
40
0.874999999999999
40
1
40
1
40
1
40
1
41
1
10
-39.35
20
-4.23880956441207
30
0
41
1
10
-39.338205186486
20
-4.25091878966384
30
0
41
1
10
-39.326788992333
20
-4.26301414591339
30
0
41
1
10
-39.3102132143741
20
-4.28112218146796
30
0
41
1
10
-39.304833241342
20
-4.28709669949757
30
0
41
1
10
-39.2945637817252
20
-4.29869987961226
30
0
41
1
10
-39.289643923718
20
-4.30436145700907
30
0
41
1
10
-39.2802807943173
20
-4.31536777320042
30
0
41
1
10
-39.2758194796066
20
-4.32073397267209
30
0
41
1
10
-39.267562331863
20
-4.33097702934865
30
0
41
1
10
-39.2638525857023
20
-4.3357455972743
30
0
41
1
10
-39.2574621956925
20
-4.34440866242517
30
0
41
1
10
-39.2547834319691
20
-4.3483091210544
30
0
41
1
10
-39.2510694001166
20
-4.35453478902588
30
0
41
1
10
-39.25
20
-4.35692940420978
30
0
41
1
10
-39.25
20
-4.35822832499846
30
0
0
SPLINE
5
109
100
AcDbEntity
8
SK1
62
256
6
ByLayer
370
18
48
1
60
0
100
AcDbSpline
70
4
71
3
72
8
73
4
40
0
40
0
40
0
40
0
40
1
40
1
40
1
40
1
41
1
10
-40
20
-3.56807513113222
30
0
41
1
10
-39.7840043256435
20
-3.79230921623619
30
0
41
1
10
-39.5672333906464
20
-4.01578543126917
30
0
41
1
10
-39.35
20
-4.23880956441204
30
0
0
SPLINE
5
10A
100
AcDbEntity
8
1
62
256
6
ByLayer
370
18
48
1
60
0
100
AcDbSpline
70
4
71
3
72
11
73
7
40
0
40
0
40
0
40
0
40
0.135070558339003
40
0.504387658836537
40
0.892729338087856
40
1
40
1
40
1
40
1
41
1
10
54.9371170178858
20
3.24017660632379
30
0
41
1
10
55.1126417726105
20
3.29893712117689
30
0
41
1
10
55.7682725278788
20
3.50950899187637
30
0
41
1
10
56.9299513696879
20
3.82049524408112
30
0
41
1
10
58.0564601064061
20
4.06096725665961
30
0
41
1
10
58.7025346674447
20
4.13164669441252
30
0
41
1
10
58.8423943250735
20
4.14471256298199
30
0
0
SPLINE
5
10B
100
AcDbEntity
8
1
62
256
6
ByLayer
370
18
48
1
60
0
100
AcDbSpline
70
4
71
3
72
17
73
13
40
0
40
0
40
0
40
0
40
0.0414137426806486
40
0.157221645287939
40
0.248815194018294
40
0.327752441118005
40
0.393279273255335
40
0.449552914792136
40
0.53539522463306
40
0.660344988459651
40
0.824429015182721
40
1
40
1
40
1
40
1
41
1
10
61.8143360164154
20
0.719261051371433
30
0
41
1
10
61.7396741832362
20
0.742539365649094
30
0
41
1
10
61.4564269240342
20
0.831558060297681
30
0
41
1
10
61.0096295104466
20
0.97732639021163
30
0
41
1
10
60.4966560250735
20
1.14888620762642
30
0
41
1
10
60.0748065011537
20
1.29357823710751
30
0
41
1
10
59.7167961106131
20
1.41879710590453
30
0
41
1
10
59.3471227533328
20
1.55024267328983
30
0
41
1
10
58.8726673718969
20
1.72212739074772
30
0
41
1
10
58.2087689059756
20
1.9693159645789
30
0
41
1
10
57.3893906523012
20
2.28515280725591
30
0
41
1
10
56.7938666266889
20
2.52513141300034
30
0
41
1
10
56.4869199811756
20
2.65152396029754
30
0
0
SPLINE
5
10C
100
AcDbEntity
8
1
62
256
6
ByLayer
370
18
48
1
60
0
100
AcDbSpline
70
4
71
3
72
33
73
29
40
0
40
0
40
0
40
0
40
2.9099561508E-05
40
4.50425701446E-05
40
6.08705454929E-05
40
9.02976678634E-05
40
0.0001162580799237
40
0.0001409423697749
40
0.0002723987355769
40
0.0003714158127727
40
0.0005481618999196
40
0.0008671640275342
40
0.001447603593128
40
0.0025185282677734
40
0.0045407153640207
40
0.0085021746055016
40
0.0617576980579839
40
0.125977469558563
40
0.19608623994031
40
0.266450440429459
40
0.331191216697588
40
0.39223721899085
40
0.455609401546244
40
0.548938077016959
40
0.647493832494463
40
0.753886286587553
40
0.882479230757167
40
1
40
1
40
1
40
1
41
1
10
36.8317877684586
20
0.0652773286728063
30
0
41
1
10
36.8318153191093
20
0.0652709711569912
30
0
41
1
10
36.8318477961161
20
0.0652641358134929
30
0
41
1
10
36.8318620902635
20
0.0652661943234421
30
0
41
1
10
36.8318220126933
20
0.0652776485525237
30
0
41
1
10
36.83174778557
20
0.0653009954028789
30
0
41
1
10
36.8316198050862
20
0.0653388501520737
30
0
41
1
10
36.8312359022967
20
0.0654484441758711
30
0
41
1
10
36.8305419434446
20
0.0656373059147484
30
0
41
1
10
36.8295385707471
20
0.0659149170525666
30
0
41
1
10
36.8280431803205
20
0.0663274628929003
30
0
41
1
10
36.8253550732032
20
0.0670698013754247
30
0
41
1
10
36.8204199663597
20
0.0684322864414924
30
0
41
1
10
36.811219922706
20
0.0709728708386876
30
0
41
1
10
36.7935284380813
20
0.0758598532741246
30
0
41
1
10
36.6447177083131
20
0.116999616694869
30
0
41
1
10
36.3376651005928
20
0.202921368072083
30
0
41
1
10
35.8651821620278
20
0.338946685834571
30
0
41
1
10
35.3503001582934
20
0.4918006936403
30
0
41
1
10
34.8354154182222
20
0.649523085060849
30
0
41
1
10
34.3445001175092
20
0.804349511316815
30
0
41
1
10
33.8722139409659
20
0.957283716935478
30
0
41
1
10
33.3300172323049
20
1.13736347086177
30
0
41
1
10
32.6965954907768
20
1.35437546757433
30
0
41
1
10
31.9595681935758
20
1.61623848447059
30
0
41
1
10
31.1394031836219
20
1.91892993462858
30
0
41
1
10
30.2762804216494
20
2.25009052382697
30
0
41
1
10
29.6774954919742
20
2.49134958463929
30
0
41
1
10
29.3923564358652
20
2.60870130231916
30
0
0
SPLINE
5
10D
100
AcDbEntity
8
1
62
256
6
ByLayer
370
18
48
1
60
0
100
AcDbSpline
70
4
71
3
72
26
73
22
40
0
40
0
40
0
40
0
40
0.0842823810951383
40
0.14567971744065
40
0.184623888985427
40
0.218846467293877
40
0.279084986395757
40
0.339279402534086
40
0.385241900434388
40
0.440314518680378
40
0.508595881022552
40
0.563122415809266
40
0.604909256149272
40
0.646281181131161
40
0.692252666246134
40
0.750971612035708
40
0.818331144086368
40
0.879156869734835
40
0.93195775628986
40
0.975507726456023
40
1
40
1
40
1
40
1
41
1
10
35.0648181654074
20
-4.23367118952146
30
0
41
1
10
35.3404645816088
20
-4.23424641299221
30
0
41
1
10
35.8169098850152
20
-4.23517423317199
30
0
41
1
10
36.4207094072989
20
-4.2364590284744
30
0
41
1
10
36.8608004110375
20
-4.23701927263716
30
0
41
1
10
37.2970051505616
20
-4.23756273200985
30
0
41
1
10
37.8028494319697
20
-4.23833295957846
30
0
41
1
10
38.347031684738
20
-4.23970342564883
30
0
41
1
10
38.8743425809831
20
-4.24077573450995
30
0
41
1
10
39.4280966634805
20
-4.24126224537332
30
0
41
1
10
40.0098633542277
20
-4.24179737231856
30
0
41
1
10
40.5481731829359
20
-4.24349798611217
30
0
41
1
10
40.9984763601456
20
-4.24477656327664
30
0
41
1
10
41.4208010592641
20
-4.24544132989823
30
0
41
1
10
41.8985065101657
20
-4.24555947055228
30
0
41
1
10
42.4611908971546
20
-4.24537941763268
30
0
41
1
10
43.0725103929884
20
-4.24694882677255
30
0
41
1
10
43.664257873867
20
-4.24823843509481
30
0
41
1
10
44.1788368947983
20
-4.24968389799281
30
0
41
1
10
44.5725390535523
20
-4.25099221740155
30
0
41
1
10
44.7949040866572
20
-4.25107410979663
30
0
41
1
10
44.8748957673893
20
-4.25108207910267
30
0
0
SPLINE
5
10E
100
AcDbEntity
8
1
62
256
6
ByLayer
370
18
48
1
60
0
100
AcDbSpline
70
4
71
2
72
6
73
3
40
0
40
0
40
0
40
1
40
1
40
1
41
1
10
19.9802345281608
20
4.21132889748966
30
0
41
1
10
19.2906804566175
20
4.21042100299533
30
0
41
1
10
18.6011033258311
20
4.20440635928938
30
0
0
SPLINE
5
10F
100
AcDbEntity
8
1
62
256
6
ByLayer
370
18
48
1
60
0
100
AcDbSpline
70
4
71
3
72
26
73
22
40
0
40
0
40
0
40
0
40
0.0654562323111317
40
0.128872440249556
40
0.188851897023352
40
0.23658559352543
40
0.275733779918233
40
0.322338001190861
40
0.388705802456152
40
0.466108517515133
40
0.53993748059074
40
0.595865152794709
40
0.632933484620386
40
0.66977635716006
40
0.71436066853187
40
0.772548601154429
40
0.830416254315961
40
0.873241593933169
40
0.917341602944674
40
0.973095927313174
40
1
40
1
40
1
40
1
41
1
10
47.1948495345152
20
4.25457336965076
30
0
41
1
10
46.9841900130182
20
4.25300090581376
30
0
41
1
10
46.5692965723975
20
4.25076114076592
30
0
41
1
10
45.9526104170019
20
4.25118084575544
30
0
41
1
10
45.4080642470584
20
4.25153255277883
30
0
41
1
10
44.9286797766126
20
4.25090559832174
30
0
41
1
10
44.499405804556
20
4.25099140461901
30
0
41
1
10
44.0051895705665
20
4.24895067155822
30
0
41
1
10
43.3873852185601
20
4.24786959846259
30
0
41
1
10
42.6809704406531
20
4.24557324963695
30
0
41
1
10
42.0085206224821
20
4.24551145260921
30
0
41
1
10
41.466978105883
20
4.2454991685743
30
0
41
1
10
41.0455030620519
20
4.24485204027849
30
0
41
1
10
40.6608505708526
20
4.24386852582253
30
0
41
1
10
40.2076429873711
20
4.24232042225958
30
0
41
1
10
39.6861828467982
20
4.2414521574072
30
0
41
1
10
39.1704316746586
20
4.24106141518968
30
0
41
1
10
38.70041363731
20
4.2404851916038
30
0
41
1
10
38.2372549199429
20
4.23939756185993
30
0
41
1
10
37.8257886318852
20
4.23843730120024
30
0
41
1
10
37.5574617850308
20
4.23797727177481
30
0
41
1
10
37.4701274408915
20
4.2378403094732
30
0
0
LINE
5
82
100
AcDbEntity
8
4
62
256
6
ByLayer
370
18
48
0.05
60
0
100
AcDbLine
10
0
20
0
30
0
11
63
21
0
31
0
39
0
210
0
220
0
230
1
0
LINE
5
84
100
AcDbEntity
8
81
62
256
6
ByLayer
370
18
48
1
60
0
100
AcDbLine
10
63
20
0
30
0
11
66
21
0
31
0
39
0
210
0
220
0
230
1
0
LINE
5
85
100
AcDbEntity
8
80
62
256
6
ByLayer
370
18
48
1
60
0
100
AcDbLine
10
0
20
0
30
0
11
-3
21
0
31
0
39
0
210
0
220
0
230
1
0
LINE
5
86
100
AcDbEntity
8
SK4
62
256
6
ByLayer
370
18
48
0.05
60
0
100
AcDbLine
10
-43
20
0
30
0
11
66
21
0
31
0
39
0
210
0
220
0
230
1
0
LINE
5
88
100
AcDbEntity
8
1
62
256
6
ByLayer
370
18
48
1
60
0
100
AcDbLine
10
0
20
5
30
0
11
0
21
-5
31
0
39
0
210
0
220
0
230
1
0
LINE
5
89
100
AcDbEntity
8
1
62
256
6
ByLayer
370
13
48
1
60
0
100
AcDbLine
10
62.885234
20
0.475478
30
0
11
61.912766
21
1.451623
31
0
39
0
210
0
220
0
230
1
0
LINE
5
8A
100
AcDbEntity
8
1
62
256
6
ByLayer
370
13
48
1
60
0
100
AcDbLine
10
0.646711
20
-4.67092
30
0
11
0.646711
21
4.67092
31
0
39
0
210
0
220
0
230
1
0
LINE
5
8B
100
AcDbEntity
8
1
62
256
6
ByLayer
370
18
48
1
60
0
100
AcDbLine
10
18.601187
20
4.204587
30
0
11
18.601183
21
4.204223
31
0
39
0
210
0
220
0
230
1
0
LINE
5
8C
100
AcDbEntity
8
1
62
256
6
ByLayer
370
18
48
1
60
0
100
AcDbLine
10
18.50034
20
1.525514
30
0
11
18.50034
21
4.372811
31
0
39
0
210
0
220
0
230
1
0
LINE
5
8D
100
AcDbEntity
8
1
62
256
6
ByLayer
370
18
48
1
60
0
100
AcDbLine
10
18.50034
20
-4.33296
30
0
11
18.50034
21
-4.372811
31
0
39
0
210
0
220
0
230
1
0
LINE
5
8E
100
AcDbEntity
8
1
62
256
6
ByLayer
370
18
48
1
60
0
100
AcDbLine
10
18.50034
20
0.998716
30
0
11
18.50034
21
0.926267
31
0
39
0
210
0
220
0
230
1
0
LINE
5
8F
100
AcDbEntity
8
1
62
256
6
ByLayer
370
13
48
1
60
0
100
AcDbLine
10
1.294861
20
-4.341841
30
0
11
1.294861
21
4.341841
31
0
39
0
210
0
220
0
230
1
0
LINE
5
90
100
AcDbEntity
8
SK1
62
256
6
ByLayer
370
18
48
1
60
0
100
AcDbLine
10
-40
20
-3.463805
30
0
11
-40
21
-3.568075
31
0
39
0
210
0
220
0
230
1
0
LINE
5
92
100
AcDbEntity
8
SK1
62
256
6
ByLayer
370
13
48
1
60
0
100
AcDbLine
10
-39.35
20
-4.23881
30
0
11
-39.35
21
-4.134535
31
0
39
0
210
0
220
0
230
1
0
LINE
5
93
100
AcDbEntity
8
SK1
62
256
6
ByLayer
370
18
48
1
60
0
100
AcDbLine
10
-39.25
20
4.41
30
0
11
-39.25
21
4.358228
31
0
39
0
210
0
220
0
230
1
0
LINE
5
94
100
AcDbEntity
8
SK1
62
256
6
ByLayer
370
18
48
1
60
0
100
AcDbLine
10
-40
20
3.568075
30
0
11
-40
21
-3.463831
31
0
39
0
210
0
220
0
230
1
0
LINE
5
95
100
AcDbEntity
8
SK1
62
256
6
ByLayer
370
18
48
1
60
0
100
AcDbLine
10
-39.25
20
-4.41
30
0
11
-39.25
21
-4.264408
31
0
39
0
210
0
220
0
230
1
0
LINE
5
96
100
AcDbEntity
8
SK1
62
256
6
ByLayer
370
18
48
1
60
0
100
AcDbLine
10
0
20
5
30
0
11
0
21
-5
31
0
39
0
210
0
220
0
230
1
0
LINE
5
97
100
AcDbEntity
8
SK1
62
256
6
ByLayer
370
18
48
1
60
0
100
AcDbLine
10
-38.66
20
-5
30
0
11
-38.66
21
5
31
0
39
0
210
0
220
0
230
1
0
LINE
5
98
100
AcDbEntity
8
1
62
256
6
ByLayer
370
18
48
1
60
0
100
AcDbLine
10
1.294861
20
-4.341841
30
0
11
3.248528
21
-4.345357
31
0
39
0
210
0
220
0
230
1
0
LINE
5
99
100
AcDbEntity
8
1
62
256
6
ByLayer
370
18
48
1
60
0
100
AcDbLine
10
6.656393
20
-4.351491
30
0
11
18.50034
21
-4.372811
31
0
39
0
210
0
220
0
230
1
0
LINE
5
9A
100
AcDbEntity
8
1
62
256
6
ByLayer
370
18
48
1
60
0
100
AcDbLine
10
19.987882
20
-4.375488
30
0
11
21.316132
21
-4.377879
31
0
39
0
210
0
220
0
230
1
0
LINE
5
9B
100
AcDbEntity
8
1
62
256
6
ByLayer
370
18
48
1
60
0
100
AcDbLine
10
34.112967
20
-4.400913
30
0
11
35.063811
21
-4.402625
31
0
39
0
210
0
220
0
230
1
0
LINE
5
9C
100
AcDbEntity
8
1
62
256
6
ByLayer
370
18
48
1
60
0
100
AcDbLine
10
47.194463
20
-4.42446
30
0
11
48.444222
21
-4.42671
31
0
39
0
210
0
220
0
230
1
0
LINE
5
9D
100
AcDbEntity
8
1
62
256
6
ByLayer
370
18
48
1
60
0
100
AcDbLine
10
48.444222
20
4.42671
30
0
11
47.194463
21
4.42446
31
0
39
0
210
0
220
0
230
1
0
LINE
5
9E
100
AcDbEntity
8
1
62
256
6
ByLayer
370
18
48
1
60
0
100
AcDbLine
10
35.063811
20
4.402625
30
0
11
34.112967
21
4.400913
31
0
39
0
210
0
220
0
230
1
0
LINE
5
9F
100
AcDbEntity
8
1
62
256
6
ByLayer
370
18
48
1
60
0
100
AcDbLine
10
21.316132
20
4.377879
30
0
11
19.987882
21
4.375488
31
0
39
0
210
0
220
0
230
1
0
LINE
5
A0
100
AcDbEntity
8
1
62
256
6
ByLayer
370
18
48
1
60
0
100
AcDbLine
10
18.50034
20
4.372811
30
0
11
6.656393
21
4.351491
31
0
39
0
210
0
220
0
230
1
0
LINE
5
A1
100
AcDbEntity
8
1
62
256
6
ByLayer
370
18
48
1
60
0
100
AcDbLine
10
3.248528
20
4.345357
30
0
11
1.294861
21
4.341841
31
0
39
0
210
0
220
0
230
1
0
LINE
5
A2
100
AcDbEntity
8
SK1
62
256
6
ByLayer
370
18
48
1
60
0
100
AcDbLine
10
-39.25
20
-4.41
30
0
11
-38.66
21
-5
31
0
39
0
210
0
220
0
230
1
0
LINE
5
A3
100
AcDbEntity
8
SK1
62
256
6
ByLayer
370
18
48
1
60
0
100
AcDbLine
10
-38.66
20
5
30
0
11
-39.25
21
4.41
31
0
39
0
210
0
220
0
230
1
0
LINE
5
A4
100
AcDbEntity
8
SK1
62
256
6
ByLayer
370
18
48
1
60
0
100
AcDbLine
10
-38.66
20
-5
30
0
11
0
21
-5
31
0
39
0
210
0
220
0
230
1
0
LINE
5
A5
100
AcDbEntity
8
SK1
62
256
6
ByLayer
370
18
48
1
60
0
100
AcDbLine
10
0
20
5
30
0
11
-38.66
21
5
31
0
39
0
210
0
220
0
230
1
0
LINE
5
A6
100
AcDbEntity
8
2
62
256
6
ByLayer
370
13
48
1
60
0
100
AcDbLine
10
70.5
20
-4.45
30
0
11
70.5
21
28.749084
31
0
39
0
210
0
220
0
230
1
0
LINE
5
A8
100
AcDbEntity
8
2
62
256
6
ByLayer
370
13
48
1
60
0
100
AcDbLine
10
64.5875
20
4.45
30
0
11
72.5
21
4.45
31
0
39
0
210
0
220
0
230
1
0
LINE
5
A9
100
AcDbEntity
8
2
62
256
6
ByLayer
370
13
48
1
60
0
100
AcDbLine
10
64.5875
20
-4.45
30
0
11
72.5
21
-4.45
31
0
39
0
210
0
220
0
230
1
0
LINE
5
AA
100
AcDbEntity
8
1
62
256
6
ByLayer
370
18
48
1
60
1
100
AcDbLine
10
70.5
20
4.45
30
0
11
70.960784
21
0.950002
31
0
39
0
210
0
220
0
230
1
0
LINE
5
AB
100
AcDbEntity
8
1
62
256
6
ByLayer
370
18
48
1
60
1
100
AcDbLine
10
70.960784
20
0.950002
30
0
11
70.039216
21
0.949998
31
0
39
0
210
0
220
0
230
1
0
LINE
5
AC
100
AcDbEntity
8
1
62
256
6
ByLayer
370
18
48
1
60
1
100
AcDbLine
10
70.039216
20
0.949998
30
0
11
70.5
21
4.45
31
0
39
0
210
0
220
0
230
1
0
LINE
5
AD
100
AcDbEntity
8
1
62
256
6
ByLayer
370
18
48
1
60
1
100
AcDbLine
10
70.5
20
-4.45
30
0
11
70.039216
21
-0.950002
31
0
39
0
210
0
220
0
230
1
0
LINE
5
AE
100
AcDbEntity
8
1
62
256
6
ByLayer
370
18
48
1
60
1
100
AcDbLine
10
70.039216
20
-0.950002
30
0
11
70.960784
21
-0.949998
31
0
39
0
210
0
220
0
230
1
0
LINE
5
AF
100
AcDbEntity
8
1
62
256
6
ByLayer
370
18
48
1
60
1
100
AcDbLine
10
70.960784
20
-0.949998
30
0
11
70.5
21
-4.45
31
0
39
0
210
0
220
0
230
1
0
LINE
5
B0
100
AcDbEntity
8
SK2
62
256
6
ByLayer
370
13
48
1
60
0
100
AcDbLine
10
-48.5
20
-5
30
0
11
-48.5
21
15.333771
31
0
39
0
210
0
220
0
230
1
0
LINE
5
B2
100
AcDbEntity
8
SK2
62
256
6
ByLayer
370
13
48
1
60
0
100
AcDbLine
10
-41.5875
20
5
30
0
11
-50.5
21
5
31
0
39
0
210
0
220
0
230
1
0
LINE
5
B3
100
AcDbEntity
8
SK2
62
256
6
ByLayer
370
13
48
1
60
0
100
AcDbLine
10
-41.5875
20
-5
30
0
11
-50.5
21
-5
31
0
39
0
210
0
220
0
230
1
0
LINE
5
B4
100
AcDbEntity
8
1
62
256
6
ByLayer
370
18
48
1
60
1
100
AcDbLine
10
-48.5
20
5
30
0
11
-48.039216
21
1.500002
31
0
39
0
210
0
220
0
230
1
0
LINE
5
B5
100
AcDbEntity
8
1
62
256
6
ByLayer
370
18
48
1
60
1
100
AcDbLine
10
-48.039216
20
1.500002
30
0
11
-48.960784
21
1.499998
31
0
39
0
210
0
220
0
230
1
0
LINE
5
B6
100
AcDbEntity
8
1
62
256
6
ByLayer
370
18
48
1
60
1
100
AcDbLine
10
-48.960784
20
1.499998
30
0
11
-48.5
21
5
31
0
39
0
210
0
220
0
230
1
0
LINE
5
B7
100
AcDbEntity
8
1
62
256
6
ByLayer
370
18
48
1
60
1
100
AcDbLine
10
-48.5
20
-5
30
0
11
-48.960784
21
-1.500002
31
0
39
0
210
0
220
0
230
1
0
LINE
5
B8
100
AcDbEntity
8
1
62
256
6
ByLayer
370
18
48
1
60
1
100
AcDbLine
10
-48.960784
20
-1.500002
30
0
11
-48.039216
21
-1.499998
31
0
39
0
210
0
220
0
230
1
0
LINE
5
B9
100
AcDbEntity
8
1
62
256
6
ByLayer
370
18
48
1
60
1
100
AcDbLine
10
-48.039216
20
-1.499998
30
0
11
-48.5
21
-5
31
0
39
0
210
0
220
0
230
1
0
LINE
5
BA
100
AcDbEntity
8
SK2
62
256
6
ByLayer
370
13
48
1
60
0
100
AcDbLine
10
63.543055
20
1.491726
30
0
11
70.706944
21
21.17031
31
0
39
0
210
0
220
0
230
1
0
LINE
5
BB
100
AcDbEntity
8
SK2
62
256
6
ByLayer
370
13
48
1
60
0
100
AcDbLine
10
63.543055
20
-1.491726
30
0
11
70.706944
21
-21.17031
31
0
39
0
210
0
220
0
230
1
0
LINE
5
BC
100
AcDbEntity
8
1
62
256
6
ByLayer
370
18
48
1
60
1
100
AcDbLine
10
70.02278
20
19.29097
30
0
11
73.433647
21
18.380863
31
0
39
0
210
0
220
0
230
1
0
LINE
5
BD
100
AcDbEntity
8
1
62
256
6
ByLayer
370
18
48
1
60
1
100
AcDbLine
10
73.433647
20
18.380863
30
0
11
73.081875
21
17.529075
31
0
39
0
210
0
220
0
230
1
0
LINE
5
BE
100
AcDbEntity
8
1
62
256
6
ByLayer
370
18
48
1
60
1
100
AcDbLine
10
73.081875
20
17.529075
30
0
11
70.02278
21
19.29097
31
0
39
0
210
0
220
0
230
1
0
LINE
5
BF
100
AcDbEntity
8
1
62
256
6
ByLayer
370
18
48
1
60
1
100
AcDbLine
10
70.02278
20
-19.29097
30
0
11
73.081872
21
-17.529077
31
0
39
0
210
0
220
0
230
1
0
LINE
5
C0
100
AcDbEntity
8
1
62
256
6
ByLayer
370
18
48
1
60
1
100
AcDbLine
10
73.081872
20
-17.529077
30
0
11
73.433651
21
-18.380862
31
0
39
0
210
0
220
0
230
1
0
LINE
5
C1
100
AcDbEntity
8
1
62
256
6
ByLayer
370
18
48
1
60
1
100
AcDbLine
10
73.433651
20
-18.380862
30
0
11
70.02278
21
-19.29097
31
0
39
0
210
0
220
0
230
1
0
LINE
5
110
100
AcDbEntity
8
1
62
256
6
ByLayer
370
13
48
0.05
60
0
100
AcDbLine
10
-46.5
20
0
30
0
11
67.872614
21
0
31
0
39
0
210
0
220
0
230
1
0
LINE
5
115
100
AcDbEntity
8
1
62
256
6
ByLayer
370
18
48
1
60
1
100
AcDbLine
10
70.5
20
4.45
30
0
11
70.960784
21
0.950002
31
0
39
0
210
0
220
0
230
1
0
LINE
5
116
100
AcDbEntity
8
1
62
256
6
ByLayer
370
18
48
1
60
1
100
AcDbLine
10
70.960784
20
0.950002
30
0
11
70.039216
21
0.949998
31
0
39
0
210
0
220
0
230
1
0
LINE
5
117
100
AcDbEntity
8
1
62
256
6
ByLayer
370
18
48
1
60
1
100
AcDbLine
10
70.039216
20
0.949998
30
0
11
70.5
21
4.45
31
0
39
0
210
0
220
0
230
1
0
LINE
5
119
100
AcDbEntity
8
1
62
256
6
ByLayer
370
18
48
1
60
1
100
AcDbLine
10
70.5
20
-4.45
30
0
11
70.039216
21
-0.950002
31
0
39
0
210
0
220
0
230
1
0
LINE
5
11A
100
AcDbEntity
8
1
62
256
6
ByLayer
370
18
48
1
60
1
100
AcDbLine
10
70.039216
20
-0.950002
30
0
11
70.960784
21
-0.949998
31
0
39
0
210
0
220
0
230
1
0
LINE
5
11B
100
AcDbEntity
8
1
62
256
6
ByLayer
370
18
48
1
60
1
100
AcDbLine
10
70.960784
20
-0.949998
30
0
11
70.5
21
-4.45
31
0
39
0
210
0
220
0
230
1
0
LINE
5
11F
100
AcDbEntity
8
1
62
256
6
ByLayer
370
18
48
1
60
1
100
AcDbLine
10
-48.5
20
5
30
0
11
-48.039216
21
1.500002
31
0
39
0
210
0
220
0
230
1
0
LINE
5
120
100
AcDbEntity
8
1
62
256
6
ByLayer
370
18
48
1
60
1
100
AcDbLine
10
-48.039216
20
1.500002
30
0
11
-48.960784
21
1.499998
31
0
39
0
210
0
220
0
230
1
0
LINE
5
121
100
AcDbEntity
8
1
62
256
6
ByLayer
370
18
48
1
60
1
100
AcDbLine
10
-48.960784
20
1.499998
30
0
11
-48.5
21
5
31
0
39
0
210
0
220
0
230
1
0
LINE
5
123
100
AcDbEntity
8
1
62
256
6
ByLayer
370
18
48
1
60
1
100
AcDbLine
10
-48.5
20
-5
30
0
11
-48.960784
21
-1.500002
31
0
39
0
210
0
220
0
230
1
0
LINE
5
124
100
AcDbEntity
8
1
62
256
6
ByLayer
370
18
48
1
60
1
100
AcDbLine
10
-48.960784
20
-1.500002
30
0
11
-48.039216
21
-1.499998
31
0
39
0
210
0
220
0
230
1
0
LINE
5
125
100
AcDbEntity
8
1
62
256
6
ByLayer
370
18
48
1
60
1
100
AcDbLine
10
-48.039216
20
-1.499998
30
0
11
-48.5
21
-5
31
0
39
0
210
0
220
0
230
1
0
LINE
5
128
100
AcDbEntity
8
1
62
256
6
ByLayer
370
18
48
1
60
1
100
AcDbLine
10
70.02278
20
19.29097
30
0
11
73.433647
21
18.380863
31
0
39
0
210
0
220
0
230
1
0
LINE
5
129
100
AcDbEntity
8
1
62
256
6
ByLayer
370
18
48
1
60
1
100
AcDbLine
10
73.433647
20
18.380863
30
0
11
73.081875
21
17.529075
31
0
39
0
210
0
220
0
230
1
0
LINE
5
12A
100
AcDbEntity
8
1
62
256
6
ByLayer
370
18
48
1
60
1
100
AcDbLine
10
73.081875
20
17.529075
30
0
11
70.02278
21
19.29097
31
0
39
0
210
0
220
0
230
1
0
LINE
5
12C
100
AcDbEntity
8
1
62
256
6
ByLayer
370
18
48
1
60
1
100
AcDbLine
10
70.02278
20
-19.29097
30
0
11
73.081872
21
-17.529077
31
0
39
0
210
0
220
0
230
1
0
LINE
5
12D
100
AcDbEntity
8
1
62
256
6
ByLayer
370
18
48
1
60
1
100
AcDbLine
10
73.081872
20
-17.529077
30
0
11
73.433651
21
-18.380862
31
0
39
0
210
0
220
0
230
1
0
LINE
5
12E
100
AcDbEntity
8
1
62
256
6
ByLayer
370
18
48
1
60
1
100
AcDbLine
10
73.433651
20
-18.380862
30
0
11
70.02278
21
-19.29097
31
0
39
0
210
0
220
0
230
1
0
MTEXT
5
111
100
AcDbEntity
8
2
62
256
6
ByLayer
370
18
48
1
60
0
100
AcDbMText
10
69.158886
20
18.108438
30
0
210
0
220
0
230
1
1
%%c
40
3
41
0
44
1.084337
50
90
71
7
72
5
7
iso_b_vert
0
MTEXT
5
114
100
AcDbEntity
8
2
62
256
6
ByLayer
370
18
48
1
60
0
100
AcDbMText
10
69.158886
20
24.085
30
0
210
0
220
0
230
1
1
\W0.7276;8.9
40
3
41
0
44
1.084337
50
90
71
7
72
5
7
iso_b_vert
0
MTEXT
5
11D
100
AcDbEntity
8
SK2
62
256
6
ByLayer
370
18
48
1
60
0
100
AcDbMText
10
-49.841114
20
6.658437
30
0
210
0
220
0
230
1
1
%%c
40
3
41
0
44
1.084337
50
90
71
7
72
5
7
iso_b_vert
0
MTEXT
5
11E
100
AcDbEntity
8
SK2
62
256
6
ByLayer
370
18
48
1
60
0
100
AcDbMText
10
-49.841114
20
12.635
30
0
210
0
220
0
230
1
1
\W0.5321;10
40
3
41
0
44
1.084337
50
90
71
7
72
5
7
iso_b_vert
0
MTEXT
5
127
100
AcDbEntity
8
SK2
62
256
6
ByLayer
370
18
48
1
60
0
100
AcDbMText
10
80.088858
20
-2.114886
30
0
210
0
220
0
230
1
1
\W0.7071;140%%d
40
3
41
0
44
1.084337
50
0
71
7
72
5
7
iso_b_vert
0
MTEXT
5
130
100
AcDbEntity
8
SK6
62
256
6
ByLayer
370
18
48
1
60
0
100
AcDbMText
10
-12.683953
20
-77.114886
30
0
210
0
220
0
230
1
1
\W0.7562;860.1-0890-046A1-SD S2BM
40
3
41
0
44
1.084337
50
0
71
7
72
5
7
iso_b_vert
0
HATCH
5
118
100
AcDbEntity
8
2
62
256
6
ByLayer
370
13
48
1
60
0
100
AcDbHatch
10
0
20
0
30
0
210
0
220
0
230
1
2
ANSI31
70
0
71
0
91
1
92
5
93
3
72
1
10
70.5
20
4.45000000000002
11
70.9607837415528
21
0.950001692553201
72
1
10
70.9607837415528
20
0.950001692553201
11
70.0392162584472
21
0.949998307446833
72
1
10
70.0392162584472
20
0.949998307446833
11
70.5
21
4.45000000000002
97
0
75
0
76
1
52
0
41
0.0062
77
0
78
1
53
45
43
0
44
0
45
-0.0139193969876572
46
0.0139193969876572
79
0
47
0
98
1
10
0
20
0
0
HATCH
5
11C
100
AcDbEntity
8
2
62
256
6
ByLayer
370
13
48
1
60
0
100
AcDbHatch
10
0
20
0
30
0
210
0
220
0
230
1
2
ANSI31
70
0
71
0
91
1
92
5
93
3
72
1
10
70.5
20
-4.44999999999999
11
70.0392162584472
21
-0.950001692553172
72
1
10
70.0392162584472
20
-0.950001692553172
11
70.9607837415528
21
-0.949998307446805
72
1
10
70.9607837415528
20
-0.949998307446805
11
70.5
21
-4.44999999999999
97
0
75
0
76
1
52
0
41
0.0062
77
0
78
1
53
45
43
0
44
0
45
-0.0139193969876572
46
0.0139193969876572
79
0
47
0
98
1
10
0
20
0
0
HATCH
5
122
100
AcDbEntity
8
SK2
62
256
6
ByLayer
370
13
48
1
60
0
100
AcDbHatch
10
0
20
0
30
0
210
0
220
0
230
1
2
ANSI31
70
0
71
0
91
1
92
5
93
3
72
1
10
-48.5
20
5
11
-48.0392162584472
21
1.50000169255318
72
1
10
-48.0392162584472
20
1.50000169255318
11
-48.9607837415528
21
1.49999830744682
72
1
10
-48.9607837415528
20
1.49999830744682
11
-48.5
21
5
97
0
75
0
76
1
52
0
41
0.0062
77
0
78
1
53
45
43
0
44
0
45
-0.0139193969876572
46
0.0139193969876572
79
0
47
0
98
1
10
0
20
0
0
HATCH
5
126
100
AcDbEntity
8
SK2
62
256
6
ByLayer
370
13
48
1
60
0
100
AcDbHatch
10
0
20
0
30
0
210
0
220
0
230
1
2
ANSI31
70
0
71
0
91
1
92
5
93
3
72
1
10
-48.5
20
-5
11
-48.9607837415528
21
-1.50000169255318
72
1
10
-48.9607837415528
20
-1.50000169255318
11
-48.0392162584472
21
-1.49999830744682
72
1
10
-48.0392162584472
20
-1.49999830744682
11
-48.5
21
-5
97
0
75
0
76
1
52
0
41
0.0062
77
0
78
1
53
45
43
0
44
0
45
-0.0139193969876572
46
0.0139193969876572
79
0
47
0
98
1
10
0
20
0
0
HATCH
5
12B
100
AcDbEntity
8
SK2
62
256
6
ByLayer
370
13
48
1
60
0
100
AcDbHatch
10
0
20
0
30
0
210
0
220
0
230
1
2
ANSI31
70
0
71
0
91
1
92
5
93
3
72
1
10
70.0227802135651
20
19.2909703397311
11
73.4336474276962
21
18.380863392073
72
1
10
73.4336474276962
20
18.380863392073
11
73.0818748428718
21
17.5290754639506
72
1
10
73.0818748428718
20
17.5290754639506
11
70.0227802135651
21
19.2909703397311
97
0
75
0
76
1
52
0
41
0.0062
77
0
78
1
53
45
43
0
44
0
45
-0.0139193969876572
46
0.0139193969876572
79
0
47
0
98
1
10
0
20
0
0
HATCH
5
12F
100
AcDbEntity
8
SK2
62
256
6
ByLayer
370
13
48
1
60
0
100
AcDbHatch
10
0
20
0
30
0
210
0
220
0
230
1
2
ANSI31
70
0
71
0
91
1
92
5
93
3
72
1
10
70.0227802135653
20
-19.290970339731
11
73.081871714085
21
-17.5290767560949
72
1
10
73.081871714085
20
-17.5290767560949
11
73.4336505564834
21
-18.3808620999285
72
1
10
73.4336505564834
20
-18.3808620999285
11
70.0227802135653
21
-19.290970339731
97
0
75
0
76
1
52
0
41
0.0062
77
0
78
1
53
45
43
0
44
0
45
-0.0139193969876572
46
0.0139193969876572
79
0
47
0
98
1
10
0
20
0
0
DIMENSION
5
133
100
AcDbEntity
8
SK2
62
256
6
ByLayer
370
18
48
1
60
0
100
AcDbDimension
2
_U0
10
16.9
20
-25.295009
30
0
11
39.95
21
-25.295009
31
0
70
32
71
1
72
1
41
1
210
0
220
0
230
1
3
Standard
100
AcDbAlignedDimension
13
63
23
-4.45
33
0
14
16.9
24
-4.45
34
0
50
0
100
AcDbRotatedDimension
1001
ACAD
1000
DSTYLE
1002
{
1070
   371
1070
    13
1070
   372
1070
    13
1070
   170
1070
     0
1070
   144
1040
1.0
1070
   277
1070
     2
1070
   284
1070
     8
1070
   278
1070
    46
1070
   146
1040
1.166667
1070
   345
1005
16
1070
   347
1005
16
1070
   346
1005
16
1070
   344
1005
0
1070
   343
1005
0
1070
   172
1070
     1
1070
    76
1070
     0
1070
    75
1070
     0
1070
   282
1070
     0
1070
   281
1070
     0
1070
     3
1000

1070
    71
1070
     0
1070
    74
1070
     0
1070
   279
1070
     0
1070
   173
1070
     1
1070
   340
1005
112
1070
   271
1070
     2
1070
   272
1070
     2
1070
    77
1070
     1
1070
    73
1070
     1
1070
   171
1070
     3
1070
   274
1070
     4
1070
   177
1070
     2
1070
   176
1070
     2
1070
   178
1070
     2
1070
    78
1070
     8
1070
    48
1040
-0.1
1070
    41
1040
3.5
1070
   147
1040
1.5
1070
    42
1040
1.5875
1070
    44
1040
2.0
1070
   140
1040
3.0
1002
}
1001
ACAD_DSTYLE_DIM_LINETYPE
1070
   380
1005
16
1001
ACAD_DSTYLE_DIM_EXT1_LINETYPE
1070
   381
1005
16
1001
ACAD_DSTYLE_DIM_EXT2_LINETYPE
1070
   382
1005
16
0
DIMENSION
5
14E
100
AcDbEntity
8
SK2
62
256
6
ByLayer
370
18
48
1
60
0
100
AcDbDimension
2
_U1
10
2
20
-35.295009
30
0
11
32.5
21
-35.295009
31
0
70
32
71
1
72
1
41
1
210
0
220
0
230
1
3
Standard
100
AcDbAlignedDimension
13
63
23
-4.45
33
0
14
2
24
-4.45
34
0
50
0
100
AcDbRotatedDimension
1001
ACAD
1000
DSTYLE
1002
{
1070
   371
1070
    13
1070
   372
1070
    13
1070
     3
1000

1070
   170
1070
     0
1070
   144
1040
1.0
1070
   277
1070
     2
1070
   284
1070
     8
1070
   278
1070
    46
1070
   146
1040
1.166667
1070
   345
1005
16
1070
   347
1005
16
1070
   346
1005
16
1070
   344
1005
0
1070
   343
1005
0
1070
   172
1070
     1
1070
    76
1070
     0
1070
    75
1070
     0
1070
   282
1070
     0
1070
   281
1070
     0
1070
    71
1070
     0
1070
    74
1070
     0
1070
   279
1070
     0
1070
   173
1070
     1
1070
   340
1005
112
1070
   271
1070
     2
1070
   272
1070
     2
1070
    77
1070
     1
1070
    73
1070
     1
1070
   171
1070
     3
1070
   274
1070
     4
1070
   177
1070
     2
1070
   176
1070
     2
1070
   178
1070
     2
1070
    78
1070
     8
1070
    48
1040
-0.1
1070
    41
1040
3.5
1070
   147
1040
1.5
1070
    42
1040
1.5875
1070
    44
1040
2.0
1070
   140
1040
3.0
1002
}
1001
ACAD_DSTYLE_DIM_LINETYPE
1070
   380
1005
16
1001
ACAD_DSTYLE_DIM_EXT1_LINETYPE
1070
   381
1005
16
1001
ACAD_DSTYLE_DIM_EXT2_LINETYPE
1070
   382
1005
16
0
DIMENSION
5
166
100
AcDbEntity
8
SK2
62
256
6
ByLayer
370
18
48
1
60
0
100
AcDbDimension
2
_U2
10
0
20
-43.295009
30
0
11
-20
21
-43.295009
31
0
70
32
71
1
72
1
41
1
210
0
220
0
230
1
3
Standard
100
AcDbAlignedDimension
13
-40
23
-5
33
0
14
0
24
-5
34
0
50
0
100
AcDbRotatedDimension
1001
ACAD
1000
DSTYLE
1002
{
1070
   371
1070
    13
1070
   372
1070
    13
1070
     3
1000

1070
   170
1070
     0
1070
   144
1040
1.0
1070
   277
1070
     2
1070
   284
1070
     8
1070
   278
1070
    46
1070
   146
1040
1.166667
1070
   345
1005
16
1070
   347
1005
16
1070
   346
1005
16
1070
   344
1005
0
1070
   343
1005
0
1070
   172
1070
     1
1070
    76
1070
     0
1070
    75
1070
     0
1070
   282
1070
     0
1070
   281
1070
     0
1070
    71
1070
     0
1070
    74
1070
     0
1070
   279
1070
     0
1070
   173
1070
     1
1070
   340
1005
112
1070
   271
1070
     2
1070
   272
1070
     2
1070
    77
1070
     1
1070
    73
1070
     1
1070
   171
1070
     3
1070
   274
1070
     4
1070
   177
1070
     2
1070
   176
1070
     2
1070
   178
1070
     2
1070
    78
1070
     8
1070
    48
1040
-0.1
1070
    41
1040
3.5
1070
   147
1040
1.5
1070
    42
1040
1.5875
1070
    44
1040
2.0
1070
   140
1040
3.0
1002
}
1001
ACAD_DSTYLE_DIM_LINETYPE
1070
   380
1005
16
1001
ACAD_DSTYLE_DIM_EXT1_LINETYPE
1070
   381
1005
16
1001
ACAD_DSTYLE_DIM_EXT2_LINETYPE
1070
   382
1005
16
0
DIMENSION
5
17E
100
AcDbEntity
8
SK2
62
256
6
ByLayer
370
18
48
1
60
0
100
AcDbDimension
2
_U3
10
63
20
-51.295009
30
0
11
11.5
21
-51.295009
31
0
70
32
71
1
72
1
41
1
210
0
220
0
230
1
3
Standard
100
AcDbAlignedDimension
13
-40
23
-5
33
0
14
63
24
-4.45
34
0
50
0
100
AcDbRotatedDimension
1001
ACAD
1000
DSTYLE
1002
{
1070
   371
1070
    13
1070
   372
1070
    13
1070
     3
1000

1070
   170
1070
     0
1070
   144
1040
1.0
1070
   277
1070
     2
1070
   284
1070
     8
1070
   278
1070
    46
1070
   146
1040
1.166667
1070
   345
1005
16
1070
   347
1005
16
1070
   346
1005
16
1070
   344
1005
0
1070
   343
1005
0
1070
   172
1070
     1
1070
    76
1070
     0
1070
    75
1070
     0
1070
   282
1070
     0
1070
   281
1070
     0
1070
    71
1070
     0
1070
    74
1070
     0
1070
   279
1070
     0
1070
   173
1070
     1
1070
   340
1005
112
1070
   271
1070
     2
1070
   272
1070
     2
1070
    77
1070
     1
1070
    73
1070
     1
1070
   171
1070
     3
1070
   274
1070
     4
1070
   177
1070
     2
1070
   176
1070
     2
1070
   178
1070
     2
1070
    78
1070
     8
1070
    48
1040
-0.1
1070
    41
1040
3.5
1070
   147
1040
1.5
1070
    42
1040
1.5875
1070
    44
1040
2.0
1070
   140
1040
3.0
1002
}
1001
ACAD_DSTYLE_DIM_LINETYPE
1070
   380
1005
16
1001
ACAD_DSTYLE_DIM_EXT1_LINETYPE
1070
   381
1005
16
1001
ACAD_DSTYLE_DIM_EXT2_LINETYPE
1070
   382
1005
16
0
DIMENSION
5
196
100
AcDbEntity
8
2
62
256
6
ByLayer
370
18
48
1
60
0
100
AcDbDimension
2
_U4
10
0
20
-43.295009
30
0
11
31.5
21
-43.295009
31
0
70
32
71
1
72
1
41
1
210
0
220
0
230
1
3
Standard
100
AcDbAlignedDimension
13
63
23
-4.45
33
0
14
0
24
-4.45
34
0
50
0
100
AcDbRotatedDimension
1001
ACAD
1000
DSTYLE
1002
{
1070
   371
1070
    13
1070
   372
1070
    13
1070
     3
1000

1070
   170
1070
     0
1070
   144
1040
1.0
1070
   277
1070
     2
1070
   284
1070
     8
1070
   278
1070
    46
1070
   146
1040
1.166667
1070
   345
1005
16
1070
   347
1005
16
1070
   346
1005
16
1070
   344
1005
0
1070
   343
1005
0
1070
   172
1070
     1
1070
    76
1070
     0
1070
    75
1070
     0
1070
   282
1070
     0
1070
   281
1070
     0
1070
    71
1070
     0
1070
    74
1070
     0
1070
   279
1070
     0
1070
   173
1070
     1
1070
   340
1005
112
1070
   271
1070
     2
1070
   272
1070
     2
1070
    77
1070
     1
1070
    73
1070
     1
1070
   171
1070
     3
1070
   274
1070
     4
1070
   177
1070
     2
1070
   176
1070
     2
1070
   178
1070
     2
1070
    78
1070
     8
1070
    48
1040
-0.1
1070
    41
1040
3.5
1070
   147
1040
1.5
1070
    42
1040
1.5875
1070
    44
1040
2.0
1070
   140
1040
3.0
1002
}
1001
ACAD_DSTYLE_DIM_LINETYPE
1070
   380
1005
16
1001
ACAD_DSTYLE_DIM_EXT1_LINETYPE
1070
   381
1005
16
1001
ACAD_DSTYLE_DIM_EXT2_LINETYPE
1070
   382
1005
16
0
ENDSEC
0
SECTION
2
OBJECTS
0
DICTIONARY
5
21e
330
0
100
AcDbDictionary
280
0
281
1
3
ACAD_GROUP
350
21f
3
ACAD_MLINESTYLE
350
220
0
DICTIONARY
5
21f
330
0
100
AcDbDictionary
280
0
281
1
0
DICTIONARY
5
220
330
0
100
AcDbDictionary
280
0
281
1
3
Standard
350
18
0
MLINESTYLE
5
18
330
220
100
AcDbMlineStyle
2
Standard
70
0
3

62
256
51
90
52
90
71
2
49
-0.5
62
256
6
ByLayer
49
0.5
62
256
6
ByLayer
0
RASTERVARIABLES
5
20c
330

100
AcDbRasterVariables
90
0
70
1
71
1
72
1
0
ENDSEC
0
EOF
