0
SECTION
2
HEADER
9
$ACADVER
1
AC1015
9
$DWGCODEPAGE
3
ANSI_1252
9
$HANDSEED
5
233
9
$ANGBASE
50
0
9
$ANGDIR
70
0
9
$ATTMODE
70
1
9
$AUNITS
70
0
9
$AUPREC
70
0
9
$CECOLOR
62
256
9
$CELTSCALE
40
1
9
$CELTYPE
6
ByLayer
9
$CELWEIGHT
370
18
9
$CLAYER
8
0
9
$CMLJUST
70
0
9
$CMLSCALE
40
1
9
$CMLSTYLE
2
Standard
9
$DIMSTYLE
2
Standard
9
$TEXTSIZE
40
0.2
9
$TEXTSTYLE
7
Standard
9
$LUNITS
70
2
9
$LUPREC
70
4
9
$EXTNAMES
290
1
9
$INSUNITS
70
4
9
$LTSCALE
40
1
9
$LWDISPLAY
290
1
9
$PDMODE
70
0
9
$PDSIZE
40
0
9
$PLINEGEN
70
0
0
ENDSEC
0
SECTION
2
CLASSES
0
CLASS
1
RASTERVARIABLES
2
AcDbRasterVariables
3
ISM
90
0
280
0
281
0
0
ENDSEC
0
SECTION
2
TABLES
0
TABLE
2
VPORT
5
229
100
AcDbSymbolTable
0
VPORT
5
1
100
AcDbSymbolTableRecord
100
AcDbViewportTableRecord
2
*Active
70
0
10
0
20
0
11
1
21
1
12
-1
22
1
13
0
23
0
14
0.5
24
0.5
15
10
25
10
16
0
26
0
36
1
17
0
27
0
37
0
0
ENDTAB
0
TABLE
2
LTYPE
5
22a
100
AcDbSymbolTable
0
LTYPE
5
14
100
AcDbSymbolTableRecord
100
AcDbLinetypeTableRecord
70
0
2
ByBlock
3

72
65
73
0
40
0
0
LTYPE
5
15
100
AcDbSymbolTableRecord
100
AcDbLinetypeTableRecord
70
0
2
ByLayer
3

72
65
73
0
40
0
0
LTYPE
5
16
100
AcDbSymbolTableRecord
100
AcDbLinetypeTableRecord
70
0
2
Continuous
3
Solid line
72
65
73
0
40
0
0
LTYPE
5
6E
100
AcDbSymbolTableRecord
100
AcDbLinetypeTableRecord
70
0
2
CENTER
3
____ _ ____ _ ____ _ ____
72
65
73
4
40
47.5
49
22
74
0
49
-8.5
74
0
49
8.5
74
0
49
-8.5
74
0
0
LTYPE
5
6F
100
AcDbSymbolTableRecord
100
AcDbLinetypeTableRecord
70
0
2
DASHED
3
__ __ __ __ __ __ __ __ __
72
65
73
2
40
25.72
49
12.86
74
0
49
-12.86
74
0
0
ENDTAB
0
TABLE
2
LAYER
5
22b
100
AcDbSymbolTable
0
LAYER
5
10
100
AcDbSymbolTableRecord
100
AcDbLayerTableRecord
2
0
70
0
62
7
6
Continuous
290
1
370
-3
390
0
0
LAYER
5
71
100
AcDbSymbolTableRecord
100
AcDbLayerTableRecord
2
80
70
0
62
-6
6
Continuous
290
1
370
-3
390
0
0
LAYER
5
73
100
AcDbSymbolTableRecord
100
AcDbLayerTableRecord
2
81
70
0
62
-3
6
Continuous
290
1
370
-3
390
0
0
LAYER
5
75
100
AcDbSymbolTableRecord
100
AcDbLayerTableRecord
2
1
70
0
62
4
6
Continuous
290
1
370
-3
390
0
0
LAYER
5
86
100
AcDbSymbolTableRecord
100
AcDbLayerTableRecord
2
4
70
0
62
-2
6
CENTER
290
1
370
-3
390
0
0
LAYER
5
A8
100
AcDbSymbolTableRecord
100
AcDbLayerTableRecord
2
2
70
0
62
7
6
Continuous
290
1
370
-3
390
0
0
LAYER
5
13E
100
AcDbSymbolTableRecord
100
AcDbLayerTableRecord
2
Defpoints
70
0
62
7
6
Continuous
290
0
370
-3
390
0
0
LAYER
5
215
100
AcDbSymbolTableRecord
100
AcDbLayerTableRecord
2
SK4
70
0
62
2
6
CENTER
290
1
370
-3
390
0
0
LAYER
5
216
100
AcDbSymbolTableRecord
100
AcDbLayerTableRecord
2
SK1
70
0
62
4
6
Continuous
290
1
370
-3
390
0
0
LAYER
5
217
100
AcDbSymbolTableRecord
100
AcDbLayerTableRecord
2
SK2
70
0
62
7
6
Continuous
290
1
370
-3
390
0
0
LAYER
5
218
100
AcDbSymbolTableRecord
100
AcDbLayerTableRecord
2
SK6
70
0
62
5
6
Continuous
290
1
370
-3
390
0
0
ENDTAB
0
TABLE
2
STYLE
5
22c
100
AcDbSymbolTable
0
STYLE
5
11
100
AcDbSymbolTableRecord
100
AcDbTextStyleTableRecord
2
Standard
3
txt
70
0
71
0
40
0
41
1
42
0
50
0
0
STYLE
5
11A
100
AcDbSymbolTableRecord
100
AcDbTextStyleTableRecord
2
iso_b_vert
3
simplex.shx
70
0
71
0
40
0
41
1
42
0
50
0
0
STYLE
5
11B
100
AcDbSymbolTableRecord
100
AcDbTextStyleTableRecord
2
DWGDirectTextStyle
3
simplex
70
0
71
0
40
0
41
1
42
0
50
0
0
ENDTAB
0
TABLE
2
DIMSTYLE
5
22d
100
AcDbSymbolTable
100
AcDbDimStyleTable
0
DIMSTYLE
105
27
100
AcDbSymbolTableRecord
100
AcDbDimStyleTableRecord
2
Standard
70
0
3
<>
41
0.18
42
0.0625
44
0.18
140
0.18
147
0.09
73
0
74
0
77
1
271
2
275
0
278
52
280
0
340
11
0
ENDTAB
0
TABLE
2
VIEW
5
22e
100
AcDbSymbolTable
0
ENDTAB
0
TABLE
2
UCS
5
22f
100
AcDbSymbolTable
0
ENDTAB
0
TABLE
2
APPID
5
230
100
AcDbSymbolTable
0
APPID
5
12
100
AcDbSymbolTableRecord
100
AcDbRegAppTableRecord
2
ACAD
70
0
0
APPID
5
13A
100
AcDbSymbolTableRecord
100
AcDbRegAppTableRecord
2
ACAD_DSTYLE_DIMBREAK
70
0
0
APPID
5
1D4
100
AcDbSymbolTableRecord
100
AcDbRegAppTableRecord
2
ACAD_DSTYLE_DIM_LINETYPE
70
0
0
APPID
5
1D5
100
AcDbSymbolTableRecord
100
AcDbRegAppTableRecord
2
ACAD_DSTYLE_DIM_EXT1_LINETYPE
70
0
0
APPID
5
1D6
100
AcDbSymbolTableRecord
100
AcDbRegAppTableRecord
2
ACAD_DSTYLE_DIM_EXT2_LINETYPE
70
0
0
APPID
5
211
100
AcDbSymbolTableRecord
100
AcDbRegAppTableRecord
2
ACAD_MLEADERVER
70
0
0
ENDTAB
0
TABLE
2
BLOCK_RECORD
5
231
100
AcDbSymbolTable
0
BLOCK_RECORD
5
1F
100
AcDbSymbolTableRecord
100
AcDbBlockTableRecord
2
*Model_Space
340
0
70
0
0
BLOCK_RECORD
5
1B
100
AcDbSymbolTableRecord
100
AcDbBlockTableRecord
2
*Paper_Space
340
0
70
0
0
BLOCK_RECORD
5
23
100
AcDbSymbolTableRecord
100
AcDbBlockTableRecord
2
*Paper_Space0
340
0
70
0
0
BLOCK_RECORD
5
13F
100
AcDbSymbolTableRecord
100
AcDbBlockTableRecord
2
*D1
340
0
70
0
0
BLOCK_RECORD
5
14B
100
AcDbSymbolTableRecord
100
AcDbBlockTableRecord
2
_U0
340
0
70
0
0
BLOCK_RECORD
5
159
100
AcDbSymbolTableRecord
100
AcDbBlockTableRecord
2
*D3
340
0
70
0
0
BLOCK_RECORD
5
165
100
AcDbSymbolTableRecord
100
AcDbBlockTableRecord
2
_U1
340
0
70
0
0
BLOCK_RECORD
5
171
100
AcDbSymbolTableRecord
100
AcDbBlockTableRecord
2
*D5
340
0
70
0
0
BLOCK_RECORD
5
17D
100
AcDbSymbolTableRecord
100
AcDbBlockTableRecord
2
_U2
340
0
70
0
0
BLOCK_RECORD
5
189
100
AcDbSymbolTableRecord
100
AcDbBlockTableRecord
2
*D7
340
0
70
0
0
BLOCK_RECORD
5
195
100
AcDbSymbolTableRecord
100
AcDbBlockTableRecord
2
_U3
340
0
70
0
0
BLOCK_RECORD
5
1A1
100
AcDbSymbolTableRecord
100
AcDbBlockTableRecord
2
*D9
340
0
70
0
0
BLOCK_RECORD
5
1AD
100
AcDbSymbolTableRecord
100
AcDbBlockTableRecord
2
_U4
340
0
70
0
0
ENDTAB
0
ENDSEC
0
SECTION
2
BLOCKS
0
BLOCK
5
20
100
AcDbEntity
8
0
100
AcDbBlockBegin
2
*Model_Space
70
0
10
0
20
0
30
0
3
*Model_Space
0
ENDBLK
5
21
100
AcDbEntity
8
0
100
AcDbBlockEnd
0
BLOCK
5
1C
100
AcDbEntity
8
0
100
AcDbBlockBegin
2
*Paper_Space
70
0
10
0
20
0
30
0
3
*Paper_Space
0
ENDBLK
5
1D
100
AcDbEntity
8
0
100
AcDbBlockEnd
0
BLOCK
5
24
100
AcDbEntity
8
0
100
AcDbBlockBegin
2
*Paper_Space0
70
0
10
0
20
0
30
0
3
*Paper_Space0
0
ENDBLK
5
25
100
AcDbEntity
8
0
100
AcDbBlockEnd
0
BLOCK
5
140
100
AcDbEntity
8
0
100
AcDbBlockBegin
2
*D1
70
1
10
0
20
0
30
0
3
*D1
0
LINE
5
142
100
AcDbEntity
8
0
62
256
6
ByLayer
370
-2
48
1
60
0
100
AcDbLine
10
112
20
-5.953
30
0
11
112
21
-23.535981
31
0
39
0
210
0
220
0
230
1
0
LINE
5
143
100
AcDbEntity
8
0
62
256
6
ByLayer
370
-2
48
1
60
0
100
AcDbLine
10
40.6
20
-5.953
30
0
11
40.6
21
-23.535981
31
0
39
0
210
0
220
0
230
1
0
LINE
5
144
100
AcDbEntity
8
0
62
256
6
ByLayer
370
-2
48
1
60
0
100
AcDbLine
10
108.5
20
-21.535981
30
0
11
44.1
21
-21.535981
31
0
39
0
210
0
220
0
230
1
0
SOLID
5
145
100
AcDbEntity
8
0
62
256
6
ByLayer
370
-1
48
1
60
0
100
AcDbTrace
10
108.5
20
-22.119315
30
0
11
108.5
21
-20.952648
31
0
12
112
22
-21.535981
32
0
13
112
23
-21.535981
33
0
39
0
210
0
220
0
230
1
0
SOLID
5
146
100
AcDbEntity
8
0
62
256
6
ByLayer
370
-1
48
1
60
0
100
AcDbTrace
10
44.1
20
-20.952648
30
0
11
44.1
21
-22.119315
31
0
12
40.6
22
-21.535981
32
0
13
40.6
23
-21.535981
33
0
39
0
210
0
220
0
230
1
0
MTEXT
5
147
100
AcDbEntity
8
0
62
256
6
ByLayer
370
18
48
1
60
0
100
AcDbMText
10
76.3
20
-15.535981
30
0
210
0
220
0
230
1
1
\A1;71.4
40
3
41
0
44
1
50
0
71
5
72
5
7
iso_b_vert
0
POINT
5
148
100
AcDbEntity
8
Defpoints
62
0
6
ByLayer
370
-1
48
1
60
0
100
AcDbPoint
10
112
20
-4.3655
30
0
39
0
210
0
220
0
230
1
50
360
0
POINT
5
149
100
AcDbEntity
8
Defpoints
62
0
6
ByLayer
370
-1
48
1
60
0
100
AcDbPoint
10
40.6
20
-4.3655
30
0
39
0
210
0
220
0
230
1
50
360
0
POINT
5
14A
100
AcDbEntity
8
Defpoints
62
0
6
ByLayer
370
-1
48
1
60
0
100
AcDbPoint
10
40.6
20
-21.535981
30
0
39
0
210
0
220
0
230
1
50
360
0
ENDBLK
5
141
100
AcDbEntity
8
0
100
AcDbBlockEnd
0
BLOCK
5
154
100
AcDbEntity
8
0
100
AcDbBlockBegin
2
_U0
70
0
10
0
20
0
30
0
3
_U0
0
MTEXT
5
14C
100
AcDbEntity
8
SK2
62
256
6
ByLayer
370
18
48
1
60
0
100
AcDbMText
10
73.155544
20
-19.338367
30
0
210
0
220
0
230
1
1
\W0.6756;71.4
40
3
41
0
44
1.084337
50
0
71
7
72
5
7
iso_b_vert
0
MTEXT
5
14D
100
AcDbEntity
8
SK2
62
256
6
ByLayer
370
18
48
1
60
0
100
AcDbMText
10
71.055544
20
-19.338367
30
0
210
0
220
0
230
1
1
\W1.1313;{\H1.88x;(}
40
3
41
0
44
1.084337
50
0
71
7
72
5
7
iso_b_vert
0
MTEXT
5
14E
100
AcDbEntity
8
SK2
62
256
6
ByLayer
370
18
48
1
60
0
100
AcDbMText
10
79.762456
20
-19.338367
30
0
210
0
220
0
230
1
1
\W1.1313;{\H1.88x;)}
40
3
41
0
44
1.084337
50
0
71
7
72
5
7
iso_b_vert
0
LINE
5
14F
100
AcDbEntity
8
SK2
62
256
6
ByLayer
370
13
48
1
60
0
100
AcDbLine
10
112
20
-5.953
30
0
11
112
21
-23.535981
31
0
39
0
210
0
220
0
230
1
0
LINE
5
150
100
AcDbEntity
8
SK2
62
256
6
ByLayer
370
13
48
1
60
0
100
AcDbLine
10
40.6
20
-5.953
30
0
11
40.6
21
-23.535981
31
0
39
0
210
0
220
0
230
1
0
LINE
5
151
100
AcDbEntity
8
SK2
62
256
6
ByLayer
370
13
48
1
60
0
100
AcDbLine
10
112
20
-21.535981
30
0
11
40.6
21
-21.535981
31
0
39
0
210
0
220
0
230
1
0
SOLID
5
152
100
AcDbEntity
8
SK2
62
256
6
ByLayer
370
18
48
1
60
0
100
AcDbTrace
10
112
20
-21.535981
30
0
11
108.500002
21
-21.996765
31
0
12
108.499998
22
-21.075198
32
0
13
108.499998
23
-21.075198
33
0
39
0
210
0
220
0
230
1
0
SOLID
5
153
100
AcDbEntity
8
SK2
62
256
6
ByLayer
370
18
48
1
60
0
100
AcDbTrace
10
40.6
20
-21.535981
30
0
11
44.099998
21
-21.075198
31
0
12
44.100002
22
-21.996765
32
0
13
44.100002
23
-21.996765
33
0
39
0
210
0
220
0
230
1
0
ENDBLK
5
155
100
AcDbEntity
8
0
100
AcDbBlockEnd
0
BLOCK
5
15A
100
AcDbEntity
8
0
100
AcDbBlockBegin
2
*D3
70
1
10
0
20
0
30
0
3
*D3
0
LINE
5
15C
100
AcDbEntity
8
0
62
256
6
ByLayer
370
-2
48
1
60
0
100
AcDbLine
10
112
20
-5.953
30
0
11
112
21
-33.535981
31
0
39
0
210
0
220
0
230
1
0
LINE
5
15D
100
AcDbEntity
8
0
62
256
6
ByLayer
370
-2
48
1
60
0
100
AcDbLine
10
6
20
-5.953
30
0
11
6
21
-33.535981
31
0
39
0
210
0
220
0
230
1
0
LINE
5
15E
100
AcDbEntity
8
0
62
256
6
ByLayer
370
-2
48
1
60
0
100
AcDbLine
10
108.5
20
-31.535981
30
0
11
9.5
21
-31.535981
31
0
39
0
210
0
220
0
230
1
0
SOLID
5
15F
100
AcDbEntity
8
0
62
256
6
ByLayer
370
-1
48
1
60
0
100
AcDbTrace
10
108.5
20
-32.119315
30
0
11
108.5
21
-30.952648
31
0
12
112
22
-31.535981
32
0
13
112
23
-31.535981
33
0
39
0
210
0
220
0
230
1
0
SOLID
5
160
100
AcDbEntity
8
0
62
256
6
ByLayer
370
-1
48
1
60
0
100
AcDbTrace
10
9.5
20
-30.952648
30
0
11
9.5
21
-32.119315
31
0
12
6
22
-31.535981
32
0
13
6
23
-31.535981
33
0
39
0
210
0
220
0
230
1
0
MTEXT
5
161
100
AcDbEntity
8
0
62
256
6
ByLayer
370
18
48
1
60
0
100
AcDbMText
10
59
20
-25.535981
30
0
210
0
220
0
230
1
1
\A1;106
40
3
41
0
44
1
50
0
71
5
72
5
7
iso_b_vert
0
POINT
5
162
100
AcDbEntity
8
Defpoints
62
0
6
ByLayer
370
-1
48
1
60
0
100
AcDbPoint
10
112
20
-4.3655
30
0
39
0
210
0
220
0
230
1
50
360
0
POINT
5
163
100
AcDbEntity
8
Defpoints
62
0
6
ByLayer
370
-1
48
1
60
0
100
AcDbPoint
10
6
20
-4.3655
30
0
39
0
210
0
220
0
230
1
50
360
0
POINT
5
164
100
AcDbEntity
8
Defpoints
62
0
6
ByLayer
370
-1
48
1
60
0
100
AcDbPoint
10
6
20
-31.535981
30
0
39
0
210
0
220
0
230
1
50
360
0
ENDBLK
5
15B
100
AcDbEntity
8
0
100
AcDbBlockEnd
0
BLOCK
5
16C
100
AcDbEntity
8
0
100
AcDbBlockBegin
2
_U1
70
0
10
0
20
0
30
0
3
_U1
0
MTEXT
5
166
100
AcDbEntity
8
SK2
62
256
6
ByLayer
370
18
48
1
60
0
100
AcDbMText
10
56.621201
20
-30.650867
30
0
210
0
220
0
230
1
1
\W0.6217;106
40
3
41
0
44
1.084337
50
0
71
7
72
5
7
iso_b_vert
0
LINE
5
167
100
AcDbEntity
8
SK2
62
256
6
ByLayer
370
13
48
1
60
0
100
AcDbLine
10
112
20
-5.953
30
0
11
112
21
-33.535981
31
0
39
0
210
0
220
0
230
1
0
LINE
5
168
100
AcDbEntity
8
SK2
62
256
6
ByLayer
370
13
48
1
60
0
100
AcDbLine
10
6
20
-5.953
30
0
11
6
21
-33.535981
31
0
39
0
210
0
220
0
230
1
0
LINE
5
169
100
AcDbEntity
8
SK2
62
256
6
ByLayer
370
13
48
1
60
0
100
AcDbLine
10
112
20
-31.535981
30
0
11
6
21
-31.535981
31
0
39
0
210
0
220
0
230
1
0
SOLID
5
16A
100
AcDbEntity
8
SK2
62
256
6
ByLayer
370
18
48
1
60
0
100
AcDbTrace
10
112
20
-31.535981
30
0
11
108.500002
21
-31.996765
31
0
12
108.499998
22
-31.075198
32
0
13
108.499998
23
-31.075198
33
0
39
0
210
0
220
0
230
1
0
SOLID
5
16B
100
AcDbEntity
8
SK2
62
256
6
ByLayer
370
18
48
1
60
0
100
AcDbTrace
10
6
20
-31.535981
30
0
11
9.499998
21
-31.075198
31
0
12
9.500002
22
-31.996765
32
0
13
9.500002
23
-31.996765
33
0
39
0
210
0
220
0
230
1
0
ENDBLK
5
16D
100
AcDbEntity
8
0
100
AcDbBlockEnd
0
BLOCK
5
172
100
AcDbEntity
8
0
100
AcDbBlockBegin
2
*D5
70
1
10
0
20
0
30
0
3
*D5
0
LINE
5
174
100
AcDbEntity
8
0
62
256
6
ByLayer
370
-2
48
1
60
0
100
AcDbLine
10
-40
20
-6.5875
30
0
11
-40
21
-41.535981
31
0
39
0
210
0
220
0
230
1
0
LINE
5
175
100
AcDbEntity
8
0
62
256
6
ByLayer
370
-2
48
1
60
0
100
AcDbLine
10
0
20
-6.5875
30
0
11
0
21
-41.535981
31
0
39
0
210
0
220
0
230
1
0
LINE
5
176
100
AcDbEntity
8
0
62
256
6
ByLayer
370
-2
48
1
60
0
100
AcDbLine
10
-36.5
20
-39.535981
30
0
11
-3.5
21
-39.535981
31
0
39
0
210
0
220
0
230
1
0
SOLID
5
177
100
AcDbEntity
8
0
62
256
6
ByLayer
370
-1
48
1
60
0
100
AcDbTrace
10
-36.5
20
-38.952648
30
0
11
-36.5
21
-40.119315
31
0
12
-40
22
-39.535981
32
0
13
-40
23
-39.535981
33
0
39
0
210
0
220
0
230
1
0
SOLID
5
178
100
AcDbEntity
8
0
62
256
6
ByLayer
370
-1
48
1
60
0
100
AcDbTrace
10
-3.5
20
-40.119315
30
0
11
-3.5
21
-38.952648
31
0
12
0
22
-39.535981
32
0
13
0
23
-39.535981
33
0
39
0
210
0
220
0
230
1
0
MTEXT
5
179
100
AcDbEntity
8
0
62
256
6
ByLayer
370
18
48
1
60
0
100
AcDbMText
10
-20
20
-33.535981
30
0
210
0
220
0
230
1
1
\A1;40
40
3
41
0
44
1
50
0
71
5
72
5
7
iso_b_vert
0
POINT
5
17A
100
AcDbEntity
8
Defpoints
62
0
6
ByLayer
370
-1
48
1
60
0
100
AcDbPoint
10
-40
20
-5
30
0
39
0
210
0
220
0
230
1
50
360
0
POINT
5
17B
100
AcDbEntity
8
Defpoints
62
0
6
ByLayer
370
-1
48
1
60
0
100
AcDbPoint
10
0
20
-5
30
0
39
0
210
0
220
0
230
1
50
360
0
POINT
5
17C
100
AcDbEntity
8
Defpoints
62
0
6
ByLayer
370
-1
48
1
60
0
100
AcDbPoint
10
0
20
-39.535981
30
0
39
0
210
0
220
0
230
1
50
360
0
ENDBLK
5
173
100
AcDbEntity
8
0
100
AcDbBlockEnd
0
BLOCK
5
184
100
AcDbEntity
8
0
100
AcDbBlockBegin
2
_U2
70
0
10
0
20
0
30
0
3
_U2
0
MTEXT
5
17E
100
AcDbEntity
8
SK2
62
256
6
ByLayer
370
18
48
1
60
0
100
AcDbMText
10
-21.790771
20
-38.650867
30
0
210
0
220
0
230
1
1
\W0.7361;40
40
3
41
0
44
1.084337
50
0
71
7
72
5
7
iso_b_vert
0
LINE
5
17F
100
AcDbEntity
8
SK2
62
256
6
ByLayer
370
13
48
1
60
0
100
AcDbLine
10
-40
20
-6.5875
30
0
11
-40
21
-41.535981
31
0
39
0
210
0
220
0
230
1
0
LINE
5
180
100
AcDbEntity
8
SK2
62
256
6
ByLayer
370
13
48
1
60
0
100
AcDbLine
10
0
20
-6.5875
30
0
11
0
21
-41.535981
31
0
39
0
210
0
220
0
230
1
0
LINE
5
181
100
AcDbEntity
8
SK2
62
256
6
ByLayer
370
13
48
1
60
0
100
AcDbLine
10
-40
20
-39.535981
30
0
11
0
21
-39.535981
31
0
39
0
210
0
220
0
230
1
0
SOLID
5
182
100
AcDbEntity
8
SK2
62
256
6
ByLayer
370
18
48
1
60
0
100
AcDbTrace
10
-40
20
-39.535981
30
0
11
-36.500002
21
-39.075198
31
0
12
-36.499998
22
-39.996765
32
0
13
-36.499998
23
-39.996765
33
0
39
0
210
0
220
0
230
1
0
SOLID
5
183
100
AcDbEntity
8
SK2
62
256
6
ByLayer
370
18
48
1
60
0
100
AcDbTrace
10
0
20
-39.535981
30
0
11
-3.499998
21
-39.996765
31
0
12
-3.500002
22
-39.075198
32
0
13
-3.500002
23
-39.075198
33
0
39
0
210
0
220
0
230
1
0
ENDBLK
5
185
100
AcDbEntity
8
0
100
AcDbBlockEnd
0
BLOCK
5
18A
100
AcDbEntity
8
0
100
AcDbBlockBegin
2
*D7
70
1
10
0
20
0
30
0
3
*D7
0
LINE
5
18C
100
AcDbEntity
8
0
62
256
6
ByLayer
370
-2
48
1
60
0
100
AcDbLine
10
-40
20
-6.5875
30
0
11
-40
21
-49.535981
31
0
39
0
210
0
220
0
230
1
0
LINE
5
18D
100
AcDbEntity
8
0
62
256
6
ByLayer
370
-2
48
1
60
0
100
AcDbLine
10
112
20
-5.953
30
0
11
112
21
-49.535981
31
0
39
0
210
0
220
0
230
1
0
LINE
5
18E
100
AcDbEntity
8
0
62
256
6
ByLayer
370
-2
48
1
60
0
100
AcDbLine
10
-36.5
20
-47.535981
30
0
11
108.5
21
-47.535981
31
0
39
0
210
0
220
0
230
1
0
SOLID
5
18F
100
AcDbEntity
8
0
62
256
6
ByLayer
370
-1
48
1
60
0
100
AcDbTrace
10
-36.5
20
-46.952648
30
0
11
-36.5
21
-48.119315
31
0
12
-40
22
-47.535981
32
0
13
-40
23
-47.535981
33
0
39
0
210
0
220
0
230
1
0
SOLID
5
190
100
AcDbEntity
8
0
62
256
6
ByLayer
370
-1
48
1
60
0
100
AcDbTrace
10
108.5
20
-48.119315
30
0
11
108.5
21
-46.952648
31
0
12
112
22
-47.535981
32
0
13
112
23
-47.535981
33
0
39
0
210
0
220
0
230
1
0
MTEXT
5
191
100
AcDbEntity
8
0
62
256
6
ByLayer
370
18
48
1
60
0
100
AcDbMText
10
36
20
-41.535981
30
0
210
0
220
0
230
1
1
\A1;152
40
3
41
0
44
1
50
0
71
5
72
5
7
iso_b_vert
0
POINT
5
192
100
AcDbEntity
8
Defpoints
62
0
6
ByLayer
370
-1
48
1
60
0
100
AcDbPoint
10
-40
20
-5
30
0
39
0
210
0
220
0
230
1
50
360
0
POINT
5
193
100
AcDbEntity
8
Defpoints
62
0
6
ByLayer
370
-1
48
1
60
0
100
AcDbPoint
10
112
20
-4.3655
30
0
39
0
210
0
220
0
230
1
50
360
0
POINT
5
194
100
AcDbEntity
8
Defpoints
62
0
6
ByLayer
370
-1
48
1
60
0
100
AcDbPoint
10
112
20
-47.535981
30
0
39
0
210
0
220
0
230
1
50
360
0
ENDBLK
5
18B
100
AcDbEntity
8
0
100
AcDbBlockEnd
0
BLOCK
5
19C
100
AcDbEntity
8
0
100
AcDbBlockBegin
2
_U3
70
0
10
0
20
0
30
0
3
_U3
0
MTEXT
5
196
100
AcDbEntity
8
SK2
62
256
6
ByLayer
370
18
48
1
60
0
100
AcDbMText
10
33.621201
20
-46.650867
30
0
210
0
220
0
230
1
1
\W0.6217;152
40
3
41
0
44
1.084337
50
0
71
7
72
5
7
iso_b_vert
0
LINE
5
197
100
AcDbEntity
8
SK2
62
256
6
ByLayer
370
13
48
1
60
0
100
AcDbLine
10
-40
20
-6.5875
30
0
11
-40
21
-49.535981
31
0
39
0
210
0
220
0
230
1
0
LINE
5
198
100
AcDbEntity
8
SK2
62
256
6
ByLayer
370
13
48
1
60
0
100
AcDbLine
10
112
20
-5.953
30
0
11
112
21
-49.535981
31
0
39
0
210
0
220
0
230
1
0
LINE
5
199
100
AcDbEntity
8
SK2
62
256
6
ByLayer
370
13
48
1
60
0
100
AcDbLine
10
-40
20
-47.535981
30
0
11
112
21
-47.535981
31
0
39
0
210
0
220
0
230
1
0
SOLID
5
19A
100
AcDbEntity
8
SK2
62
256
6
ByLayer
370
18
48
1
60
0
100
AcDbTrace
10
-40
20
-47.535981
30
0
11
-36.500002
21
-47.075198
31
0
12
-36.499998
22
-47.996765
32
0
13
-36.499998
23
-47.996765
33
0
39
0
210
0
220
0
230
1
0
SOLID
5
19B
100
AcDbEntity
8
SK2
62
256
6
ByLayer
370
18
48
1
60
0
100
AcDbTrace
10
112
20
-47.535981
30
0
11
108.500002
21
-47.996765
31
0
12
108.499998
22
-47.075198
32
0
13
108.499998
23
-47.075198
33
0
39
0
210
0
220
0
230
1
0
ENDBLK
5
19D
100
AcDbEntity
8
0
100
AcDbBlockEnd
0
BLOCK
5
1A2
100
AcDbEntity
8
0
100
AcDbBlockBegin
2
*D9
70
1
10
0
20
0
30
0
3
*D9
0
LINE
5
1A4
100
AcDbEntity
8
0
62
256
6
ByLayer
370
-2
48
1
60
0
100
AcDbLine
10
112
20
-5.953
30
0
11
112
21
-41.535981
31
0
39
0
210
0
220
0
230
1
0
LINE
5
1A5
100
AcDbEntity
8
0
62
256
6
ByLayer
370
-2
48
1
60
0
100
AcDbLine
10
0
20
-5.953
30
0
11
0
21
-41.535981
31
0
39
0
210
0
220
0
230
1
0
LINE
5
1A6
100
AcDbEntity
8
0
62
256
6
ByLayer
370
-2
48
1
60
0
100
AcDbLine
10
108.5
20
-39.535981
30
0
11
3.5
21
-39.535981
31
0
39
0
210
0
220
0
230
1
0
SOLID
5
1A7
100
AcDbEntity
8
0
62
256
6
ByLayer
370
-1
48
1
60
0
100
AcDbTrace
10
108.5
20
-40.119315
30
0
11
108.5
21
-38.952648
31
0
12
112
22
-39.535981
32
0
13
112
23
-39.535981
33
0
39
0
210
0
220
0
230
1
0
SOLID
5
1A8
100
AcDbEntity
8
0
62
256
6
ByLayer
370
-1
48
1
60
0
100
AcDbTrace
10
3.5
20
-38.952648
30
0
11
3.5
21
-40.119315
31
0
12
0
22
-39.535981
32
0
13
0
23
-39.535981
33
0
39
0
210
0
220
0
230
1
0
MTEXT
5
1A9
100
AcDbEntity
8
0
62
256
6
ByLayer
370
18
48
1
60
0
100
AcDbMText
10
56
20
-33.535981
30
0
210
0
220
0
230
1
1
\A1;112
40
3
41
0
44
1
50
0
71
5
72
5
7
iso_b_vert
0
POINT
5
1AA
100
AcDbEntity
8
Defpoints
62
0
6
ByLayer
370
-1
48
1
60
0
100
AcDbPoint
10
112
20
-4.3655
30
0
39
0
210
0
220
0
230
1
50
360
0
POINT
5
1AB
100
AcDbEntity
8
Defpoints
62
0
6
ByLayer
370
-1
48
1
60
0
100
AcDbPoint
10
0
20
-4.3655
30
0
39
0
210
0
220
0
230
1
50
360
0
POINT
5
1AC
100
AcDbEntity
8
Defpoints
62
0
6
ByLayer
370
-1
48
1
60
0
100
AcDbPoint
10
0
20
-39.535981
30
0
39
0
210
0
220
0
230
1
50
360
0
ENDBLK
5
1A3
100
AcDbEntity
8
0
100
AcDbBlockEnd
0
BLOCK
5
1B4
100
AcDbEntity
8
0
100
AcDbBlockBegin
2
_U4
70
0
10
0
20
0
30
0
3
_U4
0
MTEXT
5
1AE
100
AcDbEntity
8
2
62
256
6
ByLayer
370
18
48
1
60
0
100
AcDbMText
10
53.996143
20
-38.650867
30
0
210
0
220
0
230
1
1
\W0.5296;112
40
3
41
0
44
1.084337
50
0
71
7
72
5
7
iso_b_vert
0
LINE
5
1AF
100
AcDbEntity
8
2
62
256
6
ByLayer
370
13
48
1
60
0
100
AcDbLine
10
112
20
-5.953
30
0
11
112
21
-41.535981
31
0
39
0
210
0
220
0
230
1
0
LINE
5
1B0
100
AcDbEntity
8
2
62
256
6
ByLayer
370
13
48
1
60
0
100
AcDbLine
10
0
20
-5.953
30
0
11
0
21
-41.535981
31
0
39
0
210
0
220
0
230
1
0
LINE
5
1B1
100
AcDbEntity
8
2
62
256
6
ByLayer
370
13
48
1
60
0
100
AcDbLine
10
112
20
-39.535981
30
0
11
0
21
-39.535981
31
0
39
0
210
0
220
0
230
1
0
SOLID
5
1B2
100
AcDbEntity
8
2
62
256
6
ByLayer
370
18
48
1
60
0
100
AcDbTrace
10
112
20
-39.535981
30
0
11
108.500002
21
-39.996765
31
0
12
108.499998
22
-39.075198
32
0
13
108.499998
23
-39.075198
33
0
39
0
210
0
220
0
230
1
0
SOLID
5
1B3
100
AcDbEntity
8
2
62
256
6
ByLayer
370
18
48
1
60
0
100
AcDbTrace
10
0
20
-39.535981
30
0
11
3.499998
21
-39.075198
31
0
12
3.500002
22
-39.996765
32
0
13
3.500002
23
-39.996765
33
0
39
0
210
0
220
0
230
1
0
ENDBLK
5
1B5
100
AcDbEntity
8
0
100
AcDbBlockEnd
0
ENDSEC
0
SECTION
2
ENTITIES
0
ARC
5
C3
100
AcDbEntity
8
1
62
256
6
ByLayer
370
18
48
1
60
0
100
AcDbCircle
39
0
10
1.402928
20
-4.969281
30
0
40
0.800000000000003
210
0
220
0
230
1
100
AcDbArc
50
89.896868
51
151.262287
0
ARC
5
C4
100
AcDbEntity
8
1
62
256
6
ByLayer
370
18
48
1
60
0
100
AcDbCircle
39
0
10
1.402928
20
4.969281
30
0
40
0.800000000000003
210
0
220
0
230
1
100
AcDbArc
50
208.737713
51
270.103132
0
ARC
5
C5
100
AcDbEntity
8
1
62
256
6
ByLayer
370
18
48
1
60
0
100
AcDbCircle
39
0
10
0
20
-4.2
30
0
40
0.799999999999996
210
0
220
0
230
1
100
AcDbArc
50
270
51
331.262287
0
ARC
5
C6
100
AcDbEntity
8
1
62
256
6
ByLayer
370
18
48
1
60
0
100
AcDbCircle
39
0
10
0
20
4.2
30
0
40
0.799999999999996
210
0
220
0
230
1
100
AcDbArc
50
28.737713
51
90
0
ARC
5
C7
100
AcDbEntity
8
SK2
62
256
6
ByLayer
370
13
48
1
60
0
100
AcDbCircle
39
0
10
112
20
0
30
0
40
20.6272472054159
210
0
220
0
230
1
100
AcDbArc
50
8.362684
51
69.998981
0
ARC
5
C8
100
AcDbEntity
8
SK2
62
256
6
ByLayer
370
13
48
1
60
0
100
AcDbCircle
39
0
10
112
20
0
30
0
40
20.6272472054159
210
0
220
0
230
1
100
AcDbArc
50
290.001019
51
351.637316
0
ELLIPSE
5
C9
100
AcDbEntity
8
1
62
256
6
ByLayer
370
13
48
1
60
0
100
AcDbEllipse
10
68.44588
20
4.126832
30
0
11
-9.23105065858739E-05
21
0.00999957392944189
31
0
210
0
220
0
230
1
40
0.008151
41
3.07956232834658
42
-1.63291554532609
0
ELLIPSE
5
CA
100
AcDbEntity
8
1
62
256
6
ByLayer
370
18
48
1
60
0
100
AcDbEllipse
10
68.484361
20
4.127711
30
0
11
0.000374174826762848
21
-0.00999299720799606
31
0
210
0
220
0
230
1
40
0.435023
41
-0.0664581669436721
42
1.49865683260898
0
ELLIPSE
5
CB
100
AcDbEntity
8
1
62
256
6
ByLayer
370
18
48
1
60
0
100
AcDbEllipse
10
68.445096
20
4.224302
30
0
11
-0.1
21
1.22460635382238E-17
31
0
210
0
220
0
230
1
40
0.999887
41
0.00955340799111365
42
1.57881114499551
0
POINT
5
70
100
AcDbEntity
8
80
62
256
6
ByLayer
370
18
48
1
60
0
100
AcDbPoint
10
0
20
0
30
0
39
0
210
0
220
0
230
1
50
360
0
POINT
5
72
100
AcDbEntity
8
81
62
256
6
ByLayer
370
18
48
1
60
0
100
AcDbPoint
10
112
20
0
30
0
39
0
210
0
220
0
230
1
50
360
0
POINT
5
74
100
AcDbEntity
8
1
62
256
6
ByLayer
370
18
48
1
60
0
100
AcDbPoint
10
-181.861376
20
-200
30
0
39
0
210
0
220
0
230
1
50
360
0
POINT
5
76
100
AcDbEntity
8
1
62
256
6
ByLayer
370
13
48
1
60
1
100
AcDbPoint
10
-41.5
20
0
30
0
39
0
210
0
220
0
230
1
50
360
0
POINT
5
77
100
AcDbEntity
8
1
62
256
6
ByLayer
370
13
48
1
60
1
100
AcDbPoint
10
111.903752
20
0
30
0
39
0
210
0
220
0
230
1
50
360
0
POINT
5
78
100
AcDbEntity
8
1
62
256
6
ByLayer
370
18
48
1
60
1
100
AcDbPoint
10
112
20
-4.3655
30
0
39
0
210
0
220
0
230
1
50
360
0
POINT
5
79
100
AcDbEntity
8
1
62
256
6
ByLayer
370
18
48
1
60
1
100
AcDbPoint
10
40.6
20
-4.3655
30
0
39
0
210
0
220
0
230
1
50
360
0
POINT
5
7A
100
AcDbEntity
8
1
62
256
6
ByLayer
370
18
48
1
60
1
100
AcDbPoint
10
112
20
-4.3655
30
0
39
0
210
0
220
0
230
1
50
360
0
POINT
5
7B
100
AcDbEntity
8
1
62
256
6
ByLayer
370
18
48
1
60
1
100
AcDbPoint
10
6
20
-4.3655
30
0
39
0
210
0
220
0
230
1
50
360
0
POINT
5
7C
100
AcDbEntity
8
1
62
256
6
ByLayer
370
18
48
1
60
1
100
AcDbPoint
10
-40
20
-5
30
0
39
0
210
0
220
0
230
1
50
360
0
POINT
5
7D
100
AcDbEntity
8
1
62
256
6
ByLayer
370
18
48
1
60
1
100
AcDbPoint
10
0
20
-5
30
0
39
0
210
0
220
0
230
1
50
360
0
POINT
5
7E
100
AcDbEntity
8
1
62
256
6
ByLayer
370
18
48
1
60
1
100
AcDbPoint
10
-40
20
-5
30
0
39
0
210
0
220
0
230
1
50
360
0
POINT
5
7F
100
AcDbEntity
8
1
62
256
6
ByLayer
370
18
48
1
60
1
100
AcDbPoint
10
112
20
-4.3655
30
0
39
0
210
0
220
0
230
1
50
360
0
POINT
5
80
100
AcDbEntity
8
1
62
256
6
ByLayer
370
18
48
1
60
1
100
AcDbPoint
10
112
20
-4.3655
30
0
39
0
210
0
220
0
230
1
50
360
0
POINT
5
81
100
AcDbEntity
8
1
62
256
6
ByLayer
370
18
48
1
60
1
100
AcDbPoint
10
0
20
-4.3655
30
0
39
0
210
0
220
0
230
1
50
360
0
SPLINE
5
CC
100
AcDbEntity
8
1
62
256
6
ByLayer
370
13
48
1
60
0
100
AcDbSpline
70
4
71
3
72
10
73
6
40
0
40
0
40
0
40
0
40
0.5
40
0.5
40
1
40
1
40
1
40
1
41
1
10
68.4887243189358
20
4.12715303873523
30
0
41
1
10
68.4820343072844
20
4.12690747703454
30
0
41
1
10
68.4751125440802
20
4.12670478698891
30
0
41
1
10
68.4608231383252
20
4.12638823981402
30
0
41
1
10
68.4534012218707
20
4.12627440942572
30
0
41
1
10
68.4459666775157
20
4.12621223897523
30
0
0
SPLINE
5
CD
100
AcDbEntity
8
1
62
256
6
ByLayer
370
18
48
1
60
0
100
AcDbSpline
70
4
71
3
72
8
73
4
40
0
40
0
40
0
40
0
40
1
40
1
40
1
40
1
41
1
10
111.520748999159
20
1.50534976777473
30
0
41
1
10
111.644086488797
20
1.15944012707823
30
0
41
1
10
111.766315810851
20
0.813142616583775
30
0
41
1
10
111.887412908683
20
0.46644881622538
30
0
0
SPLINE
5
CE
100
AcDbEntity
8
1
62
256
6
ByLayer
370
18
48
1
60
0
100
AcDbSpline
70
4
71
3
72
8
73
4
40
0
40
0
40
0
40
0
40
1
40
1
40
1
40
1
41
1
10
111.887412908683
20
0.46644881622538
30
0
41
1
10
111.923689565847
20
0.362590900869947
30
0
41
1
10
111.960809173117
20
0.25920652324109
30
0
41
1
10
111.998771916223
20
0.156276768200257
30
0
0
SPLINE
5
CF
100
AcDbEntity
8
1
62
256
6
ByLayer
370
18
48
1
60
0
100
AcDbSpline
70
4
71
3
72
36
73
32
40
0
40
0
40
0
40
0
40
0.327330310623958
40
0.327330310623958
40
0.550806254915829
40
0.550806254915829
40
0.700255218361427
40
0.700255218361427
40
0.800185471678401
40
0.800185471678401
40
0.866993871134157
40
0.866993871134157
40
0.911694063425806
40
0.911694063425806
40
0.941636150818974
40
0.941636150818974
40
0.961690366369847
40
0.961690366369847
40
0.975065114385078
40
0.975065114385078
40
0.983963060786518
40
0.983963060786518
40
0.989891551945968
40
0.989891551945968
40
0.993837477040199
40
0.993837477040199
40
0.996452835412074
40
0.996452835412074
40
0.998563612341848
40
0.998563612341848
40
1
40
1
40
1
40
1
41
1
10
110.341040742471
20
4.36533612622264
30
0
41
1
10
110.353378131265
20
4.34529738986706
30
0
41
1
10
110.365715062143
20
4.32521343918276
30
0
41
1
10
110.386467373001
20
4.29135506401261
30
0
41
1
10
110.394885113596
20
4.277600448839
30
0
41
1
10
110.408926671605
20
4.25462264872098
30
0
41
1
10
110.414552251971
20
4.24540778418995
30
0
41
1
10
110.423956025098
20
4.22997985589092
30
0
41
1
10
110.427728775139
20
4.2237837641481
30
0
41
1
10
110.43403641779
20
4.21341152154545
30
0
41
1
10
110.436567937063
20
4.20924489592844
30
0
41
1
10
110.440779823614
20
4.20231563058553
30
0
41
1
10
110.442464690074
20
4.19954456181225
30
0
41
1
10
110.445264538167
20
4.19494419813975
30
0
41
1
10
110.446382498842
20
4.19310917982543
30
0
41
1
10
110.448246756527
20
4.19004948756549
30
0
41
1
10
110.448995202059
20
4.18882065177326
30
0
41
1
10
110.450251210435
20
4.18675446005497
30
0
41
1
10
110.450756005657
20
4.18592299021873
30
0
41
1
10
110.451601660542
20
4.18452762184356
30
0
41
1
10
110.451940865288
20
4.18396727349881
30
0
41
1
10
110.452508481286
20
4.18302839082369
30
0
41
1
10
110.452736103685
20
4.18265156439492
30
0
41
1
10
110.453116316917
20
4.18202156440086
30
0
41
1
10
110.453268557921
20
4.18176915325884
30
0
41
1
10
110.453522148627
20
4.18134846954416
30
0
41
1
10
110.453623373479
20
4.1811805001424
30
0
41
1
10
110.453803118269
20
4.18088365767645
30
0
41
1
10
110.453882662203
20
4.18075276445174
30
0
41
1
10
110.454008889817
20
4.18054763133304
30
0
41
1
10
110.454058532715
20
4.18046769339591
30
0
41
1
10
110.454101492579
20
4.18040038081188
30
0
0
SPLINE
5
D0
100
AcDbEntity
8
1
62
256
6
ByLayer
370
18
48
1
60
0
100
AcDbSpline
70
4
71
3
72
8
73
4
40
0
40
0
40
0
40
0
40
1
40
1
40
1
40
1
41
1
10
110.454101492477
20
-4.18040038093972
30
0
41
1
10
110.48999462265
20
-4.11807919322217
30
0
41
1
10
110.5259040192
20
-4.05575127582512
30
0
41
1
10
110.561829080217
20
-3.9934184612392
30
0
0
SPLINE
5
D1
100
AcDbEntity
8
1
62
256
6
ByLayer
370
18
48
1
60
0
100
AcDbSpline
70
4
71
3
72
33
73
29
40
0
40
0
40
0
40
0
40
0.0165433969573331
40
0.0165433969573331
40
0.157037197391851
40
0.157037197391851
40
0.22728409760911
40
0.22728409760911
40
0.262407547717739
40
0.262407547717739
40
0.297530997826368
40
0.297530997826368
40
0.438024798261028
40
0.438024798261028
40
0.508271698478358
40
0.508271698478358
40
0.543395148587022
40
0.543395148587022
40
0.578518598695687
40
0.578518598695687
40
0.719012399130525
40
0.719012399130525
40
0.789259299347944
40
0.82438274945662
40
0.82438274945662
40
0.859506199565296
40
0.859506199565296
40
1
40
1
40
1
40
1
41
1
10
110.004823451711
20
0.940846845495969
30
0
41
1
10
110.007887004838
20
0.943772694616484
30
0
41
1
10
110.010984250028
20
0.946720065670036
30
0
41
1
10
110.040706760118
20
0.974896565475774
30
0
41
1
10
110.069728605032
20
1.00161739086977
30
0
41
1
10
110.117458424007
20
1.0433723238734
30
0
41
1
10
110.134070423488
20
1.05757069304539
30
0
41
1
10
110.160128330469
20
1.07923096237511
30
0
41
1
10
110.169017709229
20
1.08652144928135
30
0
41
1
10
110.187031426413
20
1.10107944914958
30
0
41
1
10
110.196172857745
20
1.10836145407143
30
0
41
1
10
110.242569749387
20
1.14474560661119
30
0
41
1
10
110.281871015414
20
1.17379104050474
30
0
41
1
10
110.344689013824
20
1.21626386130691
30
0
41
1
10
110.366276592671
20
1.23023576392947
30
0
41
1
10
110.399736784194
20
1.25076199668837
30
0
41
1
10
110.411070213796
20
1.25753192861782
30
0
41
1
10
110.434117779684
20
1.27089920194098
30
0
41
1
10
110.445854243685
20
1.27750777678591
30
0
41
1
10
110.504901611705
20
1.30969721159343
30
0
41
1
10
110.553729743954
20
1.33296711040711
30
0
41
1
10
110.629637922881
20
1.36315971928883
30
0
41
1
10
110.668258094738
20
1.3770799336553
30
0
41
1
10
110.707921074515
20
1.3890789884409
30
0
41
1
10
110.734598584289
20
1.39663694382628
30
0
41
1
10
110.748080748793
20
1.40020125080193
30
0
41
1
10
110.8157651772
20
1.41680910909082
30
0
41
1
10
110.870460782057
20
1.426135878888
30
0
41
1
10
110.925688819527
20
1.43180977577666
30
0
0
SPLINE
5
D2
100
AcDbEntity
8
1
62
256
6
ByLayer
370
18
48
1
60
0
100
AcDbSpline
70
4
71
3
72
10
73
6
40
0
40
0
40
0
40
0
40
0.5
40
0.5
40
1
40
1
40
1
40
1
41
1
10
110.925688819527
20
1.43180977577666
30
0
41
1
10
111.025168943573
20
1.44202994640324
30
0
41
1
10
111.124540222987
20
1.45298064264097
30
0
41
1
10
111.3229447318
20
1.47715090396292
30
0
41
1
10
111.421978425306
20
1.4903673541267
30
0
41
1
10
111.520748999159
20
1.50534976777462
30
0
0
SPLINE
5
D3
100
AcDbEntity
8
1
62
256
6
ByLayer
370
18
48
1
60
0
100
AcDbSpline
70
4
71
3
72
28
73
24
40
0
40
0
40
0
40
0
40
0.125000000000019
40
0.125000000000019
40
0.250000000000039
40
0.250000000000039
40
0.500000000000077
40
0.500000000000077
40
0.531250000000075
40
0.531250000000075
40
0.562500000000072
40
0.562500000000072
40
0.625000000000067
40
0.625000000000067
40
0.750000000000045
40
0.750000000000045
40
0.875000000000022
40
0.875000000000022
40
0.90625000000002
40
0.90625000000002
40
0.937500000000018
40
0.937500000000018
40
1
40
1
40
1
40
1
41
1
10
110.561829080216
20
3.9934184612388
30
0
41
1
10
110.598255377
20
3.88745996711663
30
0
41
1
10
110.634833416651
20
3.78126940617099
30
0
41
1
10
110.708389053224
20
3.5685033559908
30
0
41
1
10
110.74536135422
20
3.46193726334678
30
0
41
1
10
110.856821145873
20
3.14215505688782
30
0
41
1
10
110.931887232175
20
2.92875181435949
30
0
41
1
10
111.017256553534
20
2.68889786326417
30
0
41
1
10
111.026753273046
20
2.66224883094566
30
0
41
1
10
111.045958027185
20
2.6089888481944
30
0
41
1
10
111.055654931997
20
2.58234950510541
30
0
41
1
10
111.084954395414
20
2.50267072241354
30
0
41
1
10
111.104732272017
20
2.4499527176884
30
0
41
1
10
111.164894510419
20
2.29303507158789
30
0
41
1
10
111.206101982146
20
2.19006143222859
30
0
41
1
10
111.291195946693
20
1.98757372203531
30
0
41
1
10
111.335078580784
20
1.88805429608067
30
0
41
1
10
111.391908479156
20
1.76596054618437
30
0
41
1
10
111.403373395933
20
1.74165730472245
30
0
41
1
10
111.426509207291
20
1.6932864782957
30
0
41
1
10
111.438189659182
20
1.66920057684379
30
0
41
1
10
111.473320886684
20
1.59776785701018
30
0
41
1
10
111.496932514357
20
1.55109530095226
30
0
41
1
10
111.520748999159
20
1.5053497677749
30
0
0
SPLINE
5
D4
100
AcDbEntity
8
1
62
256
6
ByLayer
370
18
48
1
60
0
100
AcDbSpline
70
4
71
3
72
8
73
4
40
0
40
0
40
0
40
0
40
1
40
1
40
1
40
1
41
1
10
110.454101492566
20
4.18040038078584
30
0
41
1
10
110.489994622709
20
4.11807919311948
30
0
41
1
10
110.52590401923
20
4.05575127577362
30
0
41
1
10
110.561829080217
20
3.99341846123889
30
0
0
SPLINE
5
D5
100
AcDbEntity
8
1
62
256
6
ByLayer
370
18
48
1
60
0
100
AcDbSpline
70
4
71
3
72
24
73
20
40
0
40
0
40
0
40
0
40
0.102490512737354
40
0.102490512737354
40
0.204981025474709
40
0.204981025474709
40
0.307471538212063
40
0.307471538212063
40
0.409962050949418
40
0.409962050949418
40
0.512452563686772
40
0.512452563686772
40
0.614943076424126
40
0.614943076424126
40
0.819924101898846
40
0.819924101898846
40
0.922414614636211
40
0.922414614636211
40
1
40
1
40
1
40
1
41
1
10
110.454101492627
20
4.18040038093798
30
0
41
1
10
110.234634871992
20
4.18296665319841
30
0
41
1
10
110.015132000837
20
4.18145918022333
30
0
41
1
10
109.576153794142
20
4.1703008124002
30
0
41
1
10
109.356667603171
20
4.16064648836823
30
0
41
1
10
108.917727185896
20
4.13344132308916
30
0
41
1
10
108.69825516069
20
4.11590962389559
30
0
41
1
10
108.259307896293
20
4.0728895044827
30
0
41
1
10
108.039836672508
20
4.04739941398284
30
0
41
1
10
107.600930583433
20
3.98863320518689
30
0
41
1
10
107.381374009115
20
3.95534832858769
30
0
41
1
10
106.942842491107
20
3.88143348942049
30
0
41
1
10
106.723790492816
20
3.84077241241263
30
0
41
1
10
106.066881255612
20
3.70791155971492
30
0
41
1
10
105.629256710372
20
3.6048413479588
30
0
41
1
10
104.971996444725
20
3.42961376178911
30
0
41
1
10
104.752756324522
20
3.36780337130259
30
0
41
1
10
104.367136729358
20
3.25351284917949
30
0
41
1
10
104.200990652513
20
3.20244987441251
30
0
41
1
10
104.034841081738
20
3.14964526876497
30
0
0
SPLINE
5
D6
100
AcDbEntity
8
1
62
256
6
ByLayer
370
18
48
1
60
0
100
AcDbSpline
70
4
71
3
72
20
73
16
40
0
40
0
40
0
40
0
40
0.0129954740795409
40
0.0129954740795409
40
0.177496228399617
40
0.177496228399617
40
0.341996982719694
40
0.341996982719694
40
0.50649773703977
40
0.50649773703977
40
0.670998491359847
40
0.670998491359847
40
0.835499245679924
40
0.835499245679924
40
1
40
1
40
1
40
1
41
1
10
72.3468704292762
20
-1.37357447492514
30
0
41
1
10
72.3295544459239
20
-1.36568802676749
30
0
41
1
10
72.3122379316182
20
-1.35779318661127
30
0
41
1
10
72.0757155964636
20
-1.24984978566317
30
0
41
1
10
71.8564370159576
20
-1.14844191919332
30
0
41
1
10
71.4174785223978
20
-0.94333720369076
30
0
41
1
10
71.1979426746469
20
-0.839725184956393
30
0
41
1
10
70.7589453200741
20
-0.631020240854639
30
0
41
1
10
70.539448640224
20
-0.525923525659408
30
0
41
1
10
70.1004735413347
20
-0.314899124018382
30
0
41
1
10
69.8810076613715
20
-0.208985243636931
30
0
41
1
10
69.4422036964879
20
0.0030426659423028
30
0
41
1
10
69.2227700756062
20
0.109180468164027
30
0
41
1
10
68.7838762349571
20
0.320987207234083
30
0
41
1
10
68.5645081393071
20
0.426606842230711
30
0
41
1
10
68.3450958744425
20
0.531698750698723
30
0
0
SPLINE
5
D7
100
AcDbEntity
8
1
62
256
6
ByLayer
370
18
48
1
60
0
100
AcDbSpline
70
4
71
3
72
10
73
6
40
0
40
0
40
0
40
0
40
0.773842403380477
40
0.773842403380477
40
1
40
1
40
1
40
1
41
1
10
111.060501149854
20
0.604242629401739
30
0
41
1
10
111.015520444535
20
0.621182688006826
30
0
41
1
10
110.970743502847
20
0.637171471119984
30
0
41
1
10
110.913229152922
20
0.656204743746457
30
0
41
1
10
110.900245486793
20
0.660398894253291
30
0
41
1
10
110.887285849148
20
0.664480867194101
30
0
0
SPLINE
5
D8
100
AcDbEntity
8
1
62
256
6
ByLayer
370
18
48
1
60
0
100
AcDbSpline
70
2053
71
3
72
110
73
106
40
0
40
0
40
0
40
0
40
0.0312499999999864
40
0.0312499999999864
40
0.0624999999999728
40
0.0624999999999728
40
0.0937499999999593
40
0.0937499999999593
40
0.124999999999946
40
0.124999999999946
40
0.156249999999932
40
0.156249999999932
40
0.187499999999919
40
0.187499999999919
40
0.218749999999905
40
0.218749999999905
40
0.234374999999899
40
0.234374999999899
40
0.242187499999896
40
0.242187499999896
40
0.249999999999893
40
0.249999999999893
40
0.28124999999988
40
0.28124999999988
40
0.296874999999874
40
0.296874999999874
40
0.30468749999987
40
0.30468749999987
40
0.312499999999867
40
0.312499999999867
40
0.343749999999844
40
0.343749999999844
40
0.35156249999984
40
0.35156249999984
40
0.359374999999836
40
0.374999999999824
40
0.390624999999812
40
0.390624999999812
40
0.4062499999998
40
0.4062499999998
40
0.437499999999782
40
0.437499999999782
40
0.468749999999765
40
0.468749999999765
40
0.484374999999756
40
0.484374999999756
40
0.499999999999747
40
0.499999999999747
40
0.531249999999737
40
0.531249999999737
40
0.539062499999737
40
0.539062499999737
40
0.546874999999736
40
0.546874999999736
40
0.562499999999741
40
0.562499999999741
40
0.593749999999753
40
0.593749999999753
40
0.601562499999757
40
0.601562499999757
40
0.609374999999761
40
0.609374999999761
40
0.62499999999977
40
0.62499999999977
40
0.656249999999792
40
0.656249999999792
40
0.671874999999801
40
0.671874999999801
40
0.68749999999981
40
0.68749999999981
40
0.718749999999828
40
0.718749999999828
40
0.734374999999838
40
0.734374999999838
40
0.749999999999848
40
0.749999999999848
40
0.781249999999868
40
0.781249999999868
40
0.789062499999872
40
0.789062499999872
40
0.796874999999877
40
0.812499999999885
40
0.828124999999894
40
0.828124999999894
40
0.835937499999898
40
0.835937499999898
40
0.843749999999903
40
0.843749999999903
40
0.874999999999903
40
0.874999999999903
40
0.882812499999907
40
0.882812499999907
40
0.89062499999991
40
0.906249999999924
40
0.921874999999938
40
0.921874999999938
40
0.937499999999952
40
0.937499999999952
40
0.968749999999972
40
0.968749999999972
40
0.984374999999986
40
0.984374999999986
40
0.992187499999993
40
0.992187499999993
40
1
40
1
40
1
40
1
41
1
10
110.865508972119
20
-1.9497118553849
30
0
41
1
10
110.849685750298
20
-1.97073786660729
30
0
41
1
10
110.834544601578
20
-1.98828541290587
30
0
41
1
10
110.805473954923
20
-2.01683832834607
30
0
41
1
10
110.791545268975
20
-2.02784184648363
30
0
41
1
10
110.764845528422
20
-2.04301788509065
30
0
41
1
10
110.752441839119
20
-2.04697748983989
30
0
41
1
10
110.729386819024
20
-2.04780939692472
30
0
41
1
10
110.718729326863
20
-2.04468783104343
30
0
41
1
10
110.699149676962
20
-2.03082252836961
30
0
41
1
10
110.690509599877
20
-2.02026834953313
30
0
41
1
10
110.675451974379
20
-1.99199881778725
30
0
41
1
10
110.669022873196
20
-1.9742832069293
30
0
41
1
10
110.658503213465
20
-1.93091483009789
30
0
41
1
10
110.654592274581
20
-1.90598435727659
30
0
41
1
10
110.650748226451
20
-1.86377228502016
30
0
41
1
10
110.649805595705
20
-1.84888869574215
30
0
41
1
10
110.648924904711
20
-1.82528409193299
30
0
41
1
10
110.64872042594
20
-1.8172022636636
30
0
41
1
10
110.648496686704
20
-1.80059556641211
30
0
41
1
10
110.648478077863
20
-1.79204560954102
30
0
41
1
10
110.648862060648
20
-1.74869429703577
30
0
41
1
10
110.650665245561
20
-1.71181939019121
30
0
41
1
10
110.655721402845
20
-1.65316646815487
30
0
41
1
10
110.657802090973
20
-1.63305456417305
30
0
41
1
10
110.661565580843
20
-1.60199572762602
30
0
41
1
10
110.662925974201
20
-1.59151236811422
30
0
41
1
10
110.665826777161
20
-1.57054245170926
30
0
41
1
10
110.667371333337
20
-1.56002065187545
30
0
41
1
10
110.675565313235
20
-1.50723107397152
30
0
41
1
10
110.683611206184
20
-1.46442732025898
30
0
41
1
10
110.695707723074
20
-1.41020706039791
30
0
41
1
10
110.69823107046
20
-1.3993264714756
30
0
41
1
10
110.703417526825
20
-1.37778958010415
30
0
41
1
10
110.711432167566
20
-1.34570876953069
30
0
41
1
10
110.725952560523
20
-1.29333699413749
30
0
41
1
10
110.738821649865
20
-1.2525925774892
30
0
41
1
10
110.752341031138
20
-1.21243416648485
30
0
41
1
10
110.759325180367
20
-1.19295069413545
30
0
41
1
10
110.780836656438
20
-1.13644925118692
30
0
41
1
10
110.795975757816
20
-1.10120945731663
30
0
41
1
10
110.827768970282
20
-1.03557527818546
30
0
41
1
10
110.843963460858
20
-1.00611834118317
30
0
41
1
10
110.86866865389
20
-0.966446494995921
30
0
41
1
10
110.876972766583
20
-0.953981239683628
30
0
41
1
10
110.893714818607
20
-0.930547454965165
30
0
41
1
10
110.902096208615
20
-0.91966301425731
30
0
41
1
10
110.927029449143
20
-0.889675054287352
30
0
41
1
10
110.943471816599
20
-0.873075292117505
30
0
41
1
10
110.963768374138
20
-0.856354554502502
30
0
41
1
10
110.9678146922
20
-0.853213568235418
30
0
41
1
10
110.975879839846
20
-0.847339366562863
30
0
41
1
10
110.979902315048
20
-0.844604672453698
30
0
41
1
10
110.991828027255
20
-0.837075245805778
30
0
41
1
10
110.999621792967
20
-0.832928691216608
30
0
41
1
10
111.022529381586
20
-0.823019685994723
30
0
41
1
10
111.037174153466
20
-0.819766291897707
30
0
41
1
10
111.054615892469
20
-0.819933977607491
30
0
41
1
10
111.058060655889
20
-0.820180977166586
30
0
41
1
10
111.064859401093
20
-0.821110259529689
30
0
41
1
10
111.068217423111
20
-0.821794627407996
30
0
41
1
10
111.078061908482
20
-0.824488457707929
30
0
41
1
10
111.084347496067
20
-0.827138614167012
30
0
41
1
10
111.10235696988
20
-0.837628551990235
30
0
41
1
10
111.113241874758
20
-0.847982763601124
30
0
41
1
10
111.127690764485
20
-0.868887834021962
30
0
41
1
10
111.132195710011
20
-0.87676534987088
30
0
41
1
10
111.140498622249
20
-0.894434725428482
30
0
41
1
10
111.144231241548
20
-0.904085999257632
30
0
41
1
10
111.154156354738
20
-0.935492096069282
30
0
41
1
10
111.159088855264
20
-0.959671845424396
30
0
41
1
10
111.163691249437
20
-1.00126205142553
30
0
41
1
10
111.164756817796
20
-1.01602832107434
30
0
41
1
10
111.165857330858
20
-1.04748154781822
30
0
41
1
10
111.16588080419
20
-1.0638381476443
30
0
41
1
10
111.164388716581
20
-1.11478616905842
30
0
41
1
10
111.161326118088
20
-1.15123373840095
30
0
41
1
10
111.154756039246
20
-1.20016271801097
30
0
41
1
10
111.153298070324
20
-1.21015362622001
30
0
41
1
10
111.150124162609
20
-1.23031626040455
30
0
41
1
10
111.144992562553
20
-1.26073803776569
30
0
41
1
10
111.134647399152
20
-1.31231228777466
30
0
41
1
10
111.124526173889
20
-1.35449675818839
30
0
41
1
10
111.116247181574
20
-1.38649222691888
30
0
41
1
10
111.11336240648
20
-1.39725280981401
30
0
41
1
10
111.107428499961
20
-1.41865714880981
30
0
41
1
10
111.104377529494
20
-1.42931101310168
30
0
41
1
10
111.08872211785
20
-1.48234823853088
30
0
41
1
10
111.074929796426
20
-1.52404312815338
30
0
41
1
10
111.05626583872
20
-1.57530922860389
30
0
41
1
10
111.052471524682
20
-1.58548929008441
30
0
41
1
10
111.044826851469
20
-1.60554499149964
30
0
41
1
10
111.033248220925
20
-1.63524488657811
30
0
41
1
10
111.013428926727
20
-1.68290152704142
30
0
41
1
10
110.997066395267
20
-1.71914474699966
30
0
41
1
10
110.980463484931
20
-1.754457454224
30
0
41
1
10
110.972151062222
20
-1.77141535475351
30
0
41
1
10
110.947262450536
20
-1.82018611036631
30
0
41
1
10
110.930705198002
20
-1.84998083874638
30
0
41
1
10
110.905936728777
20
-1.8907573901885
30
0
41
1
10
110.8977023521
20
-1.90366890746631
30
0
41
1
10
110.885528513418
20
-1.92180468866013
30
0
41
1
10
110.881493377617
20
-1.92765581063898
30
0
41
1
10
110.873467826646
20
-1.93897274958761
30
0
41
1
10
110.869464777574
20
-1.9444553525793
30
0
41
1
10
110.865508972119
20
-1.9497118553849
30
0
0
SPLINE
5
D9
100
AcDbEntity
8
1
62
256
6
ByLayer
370
18
48
1
60
0
100
AcDbSpline
70
4
71
3
72
13
73
9
40
0
40
0
40
0
40
0
40
0.500000000000017
40
0.500000000000017
40
0.625000000000022
40
0.625000000000022
40
0.750000000000026
40
1
40
1
40
1
40
1
41
1
10
110.561829080217
20
-3.99341846123912
30
0
41
1
10
110.531927180057
20
-4.03821295382994
30
0
41
1
10
110.504157355768
20
-4.07683449158776
30
0
41
1
10
110.472140548545
20
-4.11645807985363
30
0
41
1
10
110.465859541747
20
-4.12396201877377
30
0
41
1
10
110.453685950254
20
-4.1379417340624
30
0
41
1
10
110.435970030369
20
-4.15741944107501
30
0
41
1
10
110.419823909499
20
-4.17248895028933
30
0
41
1
10
110.409704755827
20
-4.18062312464301
30
0
0
SPLINE
5
DA
100
AcDbEntity
8
1
62
256
6
ByLayer
370
18
48
1
60
0
100
AcDbSpline
70
4
71
3
72
28
73
24
40
0
40
0
40
0
40
0
40
0.124999999999979
40
0.124999999999979
40
0.249999999999958
40
0.249999999999958
40
0.499999999999916
40
0.499999999999916
40
0.531249999999916
40
0.531249999999916
40
0.562499999999916
40
0.562499999999916
40
0.624999999999926
40
0.624999999999926
40
0.749999999999946
40
0.749999999999946
40
0.874999999999967
40
0.874999999999967
40
0.906249999999978
40
0.906249999999978
40
0.93749999999999
40
0.93749999999999
40
1
40
1
40
1
40
1
41
1
10
110.561829080216
20
-3.99341846123914
30
0
41
1
10
110.598255377
20
-3.88745996711697
30
0
41
1
10
110.634833416651
20
-3.78126940617136
30
0
41
1
10
110.708389053224
20
-3.56850335599114
30
0
41
1
10
110.74536135422
20
-3.46193726334707
30
0
41
1
10
110.856821145873
20
-3.14215505688807
30
0
41
1
10
110.931887232175
20
-2.92875181435974
30
0
41
1
10
111.017256553534
20
-2.6888978632644
30
0
41
1
10
111.026753273046
20
-2.66224883094588
30
0
41
1
10
111.045958027185
20
-2.60898884819463
30
0
41
1
10
111.055654931997
20
-2.58234950510567
30
0
41
1
10
111.084954395414
20
-2.50267072241371
30
0
41
1
10
111.104732272017
20
-2.44995271768855
30
0
41
1
10
111.164894510419
20
-2.29303507158795
30
0
41
1
10
111.206101982146
20
-2.19006143222865
30
0
41
1
10
111.291195946693
20
-1.98757372203534
30
0
41
1
10
111.335078580784
20
-1.88805429608064
30
0
41
1
10
111.391908479156
20
-1.7659605461844
30
0
41
1
10
111.403373395932
20
-1.74165730472251
30
0
41
1
10
111.426509207291
20
-1.69328647829576
30
0
41
1
10
111.438189659182
20
-1.66920057684385
30
0
41
1
10
111.473320886684
20
-1.59776785701021
30
0
41
1
10
111.496932514357
20
-1.55109530095226
30
0
41
1
10
111.520748999159
20
-1.50534976777487
30
0
0
SPLINE
5
DB
100
AcDbEntity
8
1
62
256
6
ByLayer
370
18
48
1
60
0
100
AcDbSpline
70
4
71
3
72
8
73
4
40
0
40
0
40
0
40
0
40
1
40
1
40
1
40
1
41
1
10
111.520748999159
20
-1.50534976777473
30
0
41
1
10
111.644086488797
20
-1.1594401270782
30
0
41
1
10
111.766315810851
20
-0.813142616583775
30
0
41
1
10
111.887412908683
20
-0.46644881622538
30
0
0
SPLINE
5
DC
100
AcDbEntity
8
1
62
256
6
ByLayer
370
18
48
1
60
0
100
AcDbSpline
70
4
71
3
72
8
73
4
40
0
40
0
40
0
40
0
40
1
40
1
40
1
40
1
41
1
10
111.887412908683
20
-0.46644881622538
30
0
41
1
10
111.923689565845
20
-0.362590900873783
30
0
41
1
10
111.960809173114
20
-0.259206523248764
30
0
41
1
10
111.998771916219
20
-0.156276768211711
30
0
0
SPLINE
5
DD
100
AcDbEntity
8
1
62
256
6
ByLayer
370
18
48
1
60
0
100
AcDbSpline
70
4
71
3
72
8
73
4
40
0
40
0
40
0
40
0
40
1
40
1
40
1
40
1
41
1
10
111.998771916219
20
0.156276768205259
30
0
41
1
10
112.00040693336
20
0.0522467343774053
30
0
41
1
10
112.000411796384
20
-0.0519373182973482
30
0
41
1
10
111.998771916219
20
-0.156276768211626
30
0
0
SPLINE
5
DE
100
AcDbEntity
8
1
62
256
6
ByLayer
370
18
48
1
60
0
100
AcDbSpline
70
4
71
3
72
56
73
52
40
0
40
0
40
0
40
0
40
0.0624999999999966
40
0.0624999999999966
40
0.0937499999999948
40
0.0937499999999948
40
0.109374999999994
40
0.109374999999994
40
0.124999999999993
40
0.124999999999993
40
0.187499999999977
40
0.187499999999977
40
0.24999999999996
40
0.24999999999996
40
0.281249999999945
40
0.281249999999945
40
0.31249999999993
40
0.31249999999993
40
0.374999999999899
40
0.374999999999899
40
0.406249999999891
40
0.406249999999891
40
0.421874999999887
40
0.421874999999887
40
0.437499999999883
40
0.437499999999883
40
0.499999999999893
40
0.499999999999893
40
0.531249999999898
40
0.531249999999898
40
0.562499999999903
40
0.562499999999903
40
0.624999999999914
40
0.624999999999914
40
0.656249999999919
40
0.656249999999919
40
0.687499999999924
40
0.687499999999924
40
0.749999999999943
40
0.749999999999943
40
0.781249999999952
40
0.781249999999952
40
0.812499999999962
40
0.812499999999962
40
0.874999999999974
40
0.874999999999974
40
0.937499999999987
40
0.937499999999987
40
0.968749999999994
40
0.968749999999994
40
1
40
1
40
1
40
1
41
1
10
111.998771916216
20
0.156276768202929
30
0
41
1
10
111.981093006734
20
0.106226886401259
30
0
41
1
10
111.962410632843
20
0.0566536935789372
30
0
41
1
10
111.932872149165
20
-0.0169760684151754
30
0
41
1
10
111.922772742716
20
-0.0413972854083227
30
0
41
1
10
111.907234560481
20
-0.0778402925056412
30
0
41
1
10
111.901980756669
20
-0.0899776353176662
30
0
41
1
10
111.891418318119
20
-0.114013749253871
30
0
41
1
10
111.886103786094
20
-0.125927022170032
30
0
41
1
10
111.859368912446
20
-0.18497202282353
30
0
41
1
10
111.837464922701
20
-0.230547027574488
30
0
41
1
10
111.792688012515
20
-0.318324436554065
30
0
41
1
10
111.769815595908
20
-0.36052877723165
30
0
41
1
10
111.734766546224
20
-0.421109827873323
30
0
41
1
10
111.722906548692
20
-0.44092869958061
30
0
41
1
10
111.69934869324
20
-0.478928484367145
30
0
41
1
10
111.687618893183
20
-0.497170784635188
30
0
41
1
10
111.65257832111
20
-0.549643321431603
30
0
41
1
10
111.629417015238
20
-0.581631855699413
30
0
41
1
10
111.594968302251
20
-0.624976793600297
30
0
41
1
10
111.583534118853
20
-0.638649076297128
30
0
41
1
10
111.56645368322
20
-0.657943952081354
30
0
41
1
10
111.5607600984
20
-0.664185070902619
30
0
41
1
10
111.549500333434
20
-0.676142770226534
30
0
41
1
10
111.543924636253
20
-0.681870918198399
30
0
41
1
10
111.516309836809
20
-0.709275472645942
30
0
41
1
10
111.495059036391
20
-0.727263164031598
30
0
41
1
10
111.464341178083
20
-0.748425606768365
30
0
41
1
10
111.454295496215
20
-0.754505996392851
30
0
41
1
10
111.434580083252
20
-0.76468682683381
30
0
41
1
10
111.424880185273
20
-0.768790539203138
30
0
41
1
10
111.396809436893
20
-0.777919462034362
30
0
41
1
10
111.379316496816
20
-0.779877690345955
30
0
41
1
10
111.354690076924
20
-0.776947224547911
30
0
41
1
10
111.346751282214
20
-0.774988481583733
30
0
41
1
10
111.33138959126
20
-0.76911818195606
30
0
41
1
10
111.323941317453
20
-0.765185082651897
30
0
41
1
10
111.302614609184
20
-0.750643577410443
30
0
41
1
10
111.289695059899
20
-0.737321561118733
30
0
41
1
10
111.271997286953
20
-0.712323797475932
30
0
41
1
10
111.266379740377
20
-0.703152095530982
30
0
41
1
10
111.255678607546
20
-0.683167067505906
30
0
41
1
10
111.250589001193
20
-0.672338947034461
30
0
41
1
10
111.236127641987
20
-0.637512064008234
30
0
41
1
10
111.22768464273
20
-0.611503718451559
30
0
41
1
10
111.212870120363
20
-0.554426347110933
30
0
41
1
10
111.206500326209
20
-0.52335434904353
30
0
41
1
10
111.198367682449
20
-0.473142798070768
30
0
41
1
10
111.19589189592
20
-0.455779240518069
30
0
41
1
10
111.191418797813
20
-0.419978818525323
30
0
41
1
10
111.189423819892
20
-0.401568382267754
30
0
41
1
10
111.187661296939
20
-0.382662245049261
30
0
0
SPLINE
5
DF
100
AcDbEntity
8
1
62
256
6
ByLayer
370
18
48
1
60
0
100
AcDbSpline
70
4
71
3
72
8
73
4
40
0
40
0
40
0
40
0
40
1
40
1
40
1
40
1
41
1
10
111.187661296939
20
-0.382662245049261
30
0
41
1
10
111.157508041008
20
-0.0592159072488698
30
0
41
1
10
111.115043003123
20
0.269787737398616
30
0
41
1
10
111.060501149854
20
0.604242629401824
30
0
0
SPLINE
5
E0
100
AcDbEntity
8
1
62
256
6
ByLayer
370
18
48
1
60
0
100
AcDbSpline
70
4
71
3
72
26
73
22
40
0
40
0
40
0
40
0
40
0.0625
40
0.0625
40
0.125
40
0.125
40
0.1875
40
0.1875
40
0.25
40
0.25
40
0.375
40
0.375
40
0.5
40
0.5
40
0.625
40
0.625
40
0.75
40
0.75
40
0.875
40
0.875
40
1
40
1
40
1
40
1
41
1
10
111.060501149854
20
0.604242629401767
30
0
41
1
10
111.047510244857
20
0.605878649115937
30
0
41
1
10
111.034389842018
20
0.606936608551791
30
0
41
1
10
111.007888042088
20
0.607811213135165
30
0
41
1
10
110.994498789452
20
0.607588135389221
30
0
41
1
10
110.967544117501
20
0.606240431009013
30
0
41
1
10
110.953975346906
20
0.605156673990422
30
0
41
1
10
110.926801179654
20
0.602367534620072
30
0
41
1
10
110.913178517312
20
0.600545973579557
30
0
41
1
10
110.872180779252
20
0.593355941296039
30
0
41
1
10
110.844690187671
20
0.586402228452414
30
0
41
1
10
110.789515805766
20
0.568396289428449
30
0
41
1
10
110.761836692943
20
0.557388341812583
30
0
41
1
10
110.706457047152
20
0.532319634556217
30
0
41
1
10
110.678758259892
20
0.518289445138151
30
0
41
1
10
110.623447236739
20
0.487787928604178
30
0
41
1
10
110.595816810309
20
0.471070460133177
30
0
41
1
10
110.540649385022
20
0.434225678521358
30
0
41
1
10
110.513116997354
20
0.414163244429005
30
0
41
1
10
110.458232133802
20
0.370802792311594
30
0
41
1
10
110.430856101123
20
0.347497937485571
30
0
41
1
10
110.403727499833
20
0.322865596740598
30
0
0
SPLINE
5
E1
100
AcDbEntity
8
1
62
256
6
ByLayer
370
18
48
1
60
0
100
AcDbSpline
70
4
71
3
72
36
73
32
40
0
40
0
40
0
40
0
40
0.327330310849709
40
0.327330310849709
40
0.55080625534937
40
0.55080625534937
40
0.700255218934552
40
0.700255218934552
40
0.800185472345411
40
0.800185472345411
40
0.866993871863095
40
0.866993871863095
40
0.911694064196553
40
0.911694064196553
40
0.941636151617701
40
0.941636151617701
40
0.961690367187519
40
0.961690367187519
40
0.975065115215228
40
0.975065115215228
40
0.983963061624765
40
0.983963061624765
40
0.989891552789897
40
0.989891552789897
40
0.993837477887816
40
0.993837477887816
40
0.996452836261929
40
0.996452836261929
40
0.998563613193727
40
0.998563613193727
40
1
40
1
40
1
40
1
41
1
10
110.34104074248
20
-4.36533612620815
30
0
41
1
10
110.35337813127
20
-4.34529738985739
30
0
41
1
10
110.365715062146
20
-4.32521343917799
30
0
41
1
10
110.386467373001
20
-4.29135506401275
30
0
41
1
10
110.394885113596
20
-4.27760044883917
30
0
41
1
10
110.408926671605
20
-4.25462264872118
30
0
41
1
10
110.414552251971
20
-4.24540778419012
30
0
41
1
10
110.423956025098
20
-4.22997985589106
30
0
41
1
10
110.427728775139
20
-4.22378376414821
30
0
41
1
10
110.43403641779
20
-4.21341152154554
30
0
41
1
10
110.436567937063
20
-4.20924489592849
30
0
41
1
10
110.440779823614
20
-4.20231563058562
30
0
41
1
10
110.442464690074
20
-4.1995445618123
30
0
41
1
10
110.445264538167
20
-4.19494419813978
30
0
41
1
10
110.446382498842
20
-4.19310917982548
30
0
41
1
10
110.448246756527
20
-4.19004948756552
30
0
41
1
10
110.448995202059
20
-4.18882065177331
30
0
41
1
10
110.450251210435
20
-4.18675446005503
30
0
41
1
10
110.450756005657
20
-4.18592299021873
30
0
41
1
10
110.451601660542
20
-4.18452762184356
30
0
41
1
10
110.451940865288
20
-4.18396727349881
30
0
41
1
10
110.452508481286
20
-4.18302839082369
30
0
41
1
10
110.452736103685
20
-4.18265156439494
30
0
41
1
10
110.453116316917
20
-4.18202156440086
30
0
41
1
10
110.453268557921
20
-4.18176915325884
30
0
41
1
10
110.453522148627
20
-4.18134846954416
30
0
41
1
10
110.453623373479
20
-4.1811805001424
30
0
41
1
10
110.453803118269
20
-4.18088365767645
30
0
41
1
10
110.453882662203
20
-4.18075276445177
30
0
41
1
10
110.454008889787
20
-4.18054763138221
30
0
41
1
10
110.454058532655
20
-4.1804676934926
30
0
41
1
10
110.454101492502
20
-4.18040038093261
30
0
0
SPLINE
5
E2
100
AcDbEntity
8
1
62
256
6
ByLayer
370
18
48
1
60
0
100
AcDbSpline
70
4
71
3
72
80
73
76
40
0
40
0
40
0
40
0
40
0.0220413290753545
40
0.0220413290753545
40
0.0363724938562214
40
0.0363724938562214
40
0.0507036586370881
40
0.0507036586370881
40
0.108028317760564
40
0.108028317760564
40
0.136690647322302
40
0.136690647322302
40
0.16535297688404
40
0.16535297688404
40
0.194015306445777
40
0.194015306445777
40
0.222677636007516
40
0.222677636007516
40
0.251339965569253
40
0.251339965569253
40
0.280002295130991
40
0.280002295130991
40
0.308664624692729
40
0.308664624692729
40
0.3229957894736
40
0.3229957894736
40
0.33732695425447
40
0.33732695425447
40
0.394651613377952
40
0.394651613377952
40
0.423313942939694
40
0.423313942939694
40
0.451976272501436
40
0.451976272501436
40
0.480638602063178
40
0.480638602063178
40
0.509300931624921
40
0.509300931624921
40
0.537963261186663
40
0.537963261186663
40
0.566625590748405
40
0.566625590748405
40
0.595287920310148
40
0.595287920310148
40
0.62395024987189
40
0.62395024987189
40
0.638281414652761
40
0.638281414652761
40
0.652612579433632
40
0.652612579433632
40
0.681274908995375
40
0.681274908995375
40
0.738599568118859
40
0.738599568118859
40
0.767261897680602
40
0.767261897680602
40
0.781593062461472
40
0.781593062461472
40
0.795924227242342
40
0.795924227242342
40
0.824586556804085
40
0.824586556804085
40
0.853248886365827
40
0.853248886365827
40
0.881911215927569
40
0.881911215927569
40
0.910573545489311
40
0.910573545489311
40
0.939235875051054
40
0.939235875051054
40
0.967898204612796
40
0.967898204612796
40
0.996560534174538
40
0.996560534174538
40
1
40
1
40
1
40
1
41
1
10
99.7750728029003
20
-1.4771103986416
30
0
41
1
10
99.6062933204396
20
-1.40081709448714
30
0
41
1
10
99.4375193722497
20
-1.32369151422975
30
0
41
1
10
99.1589916886987
20
-1.19527082333198
30
0
41
1
10
99.0492300152527
20
-1.14437079065888
30
0
41
1
10
98.8298491383321
20
-1.04211006829044
30
0
41
1
10
98.7202077384563
20
-0.990738762993999
30
0
41
1
10
98.1721646581862
20
-0.732836587463225
30
0
41
1
10
97.7342300808263
20
-0.523216281199723
30
0
41
1
10
97.0766886454309
20
-0.20662962724694
30
0
41
1
10
96.8574097604064
20
-0.100724719567637
30
0
41
1
10
96.4184307204817
20
0.111351480923105
30
0
41
1
10
96.1989396293888
20
0.217381701203237
30
0
41
1
10
95.7599445925633
20
0.428793247352416
30
0
41
1
10
95.5404306509901
20
0.534175180063357
30
0
41
1
10
95.1014467443476
20
0.743641244724472
30
0
41
1
10
94.8818790249226
20
0.847761499524012
30
0
41
1
10
94.4431694771484
20
1.05405790513222
30
0
41
1
10
94.2239898863535
20
1.15627220016148
30
0
41
1
10
93.7857059093118
20
1.35820281898836
30
0
41
1
10
93.5666063268811
20
1.45792791988467
30
0
41
1
10
93.1282401830999
20
1.65439516913787
30
0
41
1
10
92.9089705411239
20
1.75113510652733
30
0
41
1
10
92.579775225721
20
1.89373924786375
30
0
41
1
10
92.4700295161639
20
1.94085023438649
30
0
41
1
10
92.2506837998681
20
2.03408093030558
30
0
41
1
10
92.1410517581944
20
2.08020435517048
30
0
41
1
10
91.5930117089666
20
2.30820395775888
30
0
41
1
10
91.1549243689877
20
2.48215775324232
30
0
41
1
10
90.4970130482969
20
2.72817746684751
30
0
41
1
10
90.2775175346275
20
2.80773855695992
30
0
41
1
10
89.8385087092999
20
2.9612272493228
30
0
41
1
10
89.6190048437654
20
3.03517722212513
30
0
41
1
10
89.1799798339641
20
3.17702851182617
30
0
41
1
10
88.9604601373484
20
3.24492709411635
30
0
41
1
10
88.5214316674561
20
3.37440723620776
30
0
41
1
10
88.3019323703584
20
3.43604119813162
30
0
41
1
10
87.8629208338305
20
3.55255252790323
30
0
41
1
10
87.6433961848646
20
3.60744469343956
30
0
41
1
10
87.2044203579061
20
3.71009072352402
30
0
41
1
10
86.9849765198692
20
3.75783720211561
30
0
41
1
10
86.5459448810352
20
3.8459979483799
30
0
41
1
10
86.3265396304161
20
3.88639251558015
30
0
41
1
10
85.8878903540247
20
3.9597160321494
30
0
41
1
10
85.6686055103819
20
3.99258557245238
30
0
41
1
10
85.339543366001
20
4.03610010042473
30
0
41
1
10
85.2298331497965
20
4.0496394669687
30
0
41
1
10
85.010337396741
20
4.07478111028482
30
0
41
1
10
84.9005906452458
20
4.08637936716073
30
0
41
1
10
84.5716231558839
20
4.11821857260881
30
0
41
1
10
84.3525514804832
20
4.13552477434035
30
0
41
1
10
83.6958353574981
20
4.17550839351594
30
0
41
1
10
83.2585923614792
20
4.18612076967412
30
0
41
1
10
82.6020354766782
20
4.17764463283382
30
0
41
1
10
82.3830764352508
20
4.170783669298
30
0
41
1
10
82.0543253187138
20
4.15457369859948
30
0
41
1
10
81.9446874043765
20
4.14817792206696
30
0
41
1
10
81.7252669382324
20
4.13337477200693
30
0
41
1
10
81.6154893444762
20
4.12497123146321
30
0
41
1
10
81.286226346079
20
4.09678410804065
30
0
41
1
10
81.066690788452
20
4.07399190959518
30
0
41
1
10
80.6277523755957
20
4.02060533637973
30
0
41
1
10
80.4083493727122
20
3.99002388271057
30
0
41
1
10
79.9694758265784
20
3.92136143235314
30
0
41
1
10
79.749934026572
20
3.88321616022611
30
0
41
1
10
79.311319098048
20
3.79946522794131
30
0
41
1
10
79.0921578475069
20
3.75386339054359
30
0
41
1
10
78.6538559433042
20
3.65556140535364
30
0
41
1
10
78.4347124137324
20
3.602884389808
30
0
41
1
10
77.9962364291412
20
3.49081521666014
30
0
41
1
10
77.7769026016584
20
3.43137859504819
30
0
41
1
10
77.3378968584278
20
3.305902863418
30
0
41
1
10
77.1183811191642
20
3.23991480574392
30
0
41
1
10
76.8725555641367
20
3.16256159240763
30
0
41
1
10
76.8462160975648
20
3.15422891072919
30
0
41
1
10
76.8198760326851
20
3.14585178239079
30
0
0
SPLINE
5
E3
100
AcDbEntity
8
1
62
256
6
ByLayer
370
18
48
1
60
0
100
AcDbSpline
70
4
71
3
72
46
73
42
40
0
40
0
40
0
40
0
40
0.0019586424582539
40
0.0019586424582539
40
0.0975015671132407
40
0.0975015671132407
40
0.145273029440735
40
0.145273029440735
40
0.19304449176823
40
0.19304449176823
40
0.240815954095724
40
0.264701685259472
40
0.264701685259472
40
0.276644550841346
40
0.276644550841346
40
0.288587416423221
40
0.288587416423221
40
0.384130341078223
40
0.384130341078223
40
0.479673265733224
40
0.479673265733224
40
0.527444728060724
40
0.527444728060724
40
0.575216190388223
40
0.575216190388223
40
0.622987652715722
40
0.622987652715722
40
0.670759115043222
40
0.670759115043222
40
0.718530577370722
40
0.742416308534473
40
0.742416308534473
40
0.766302039698224
40
0.766302039698224
40
0.861844964353232
40
0.861844964353232
40
0.909616426680737
40
0.909616426680737
40
0.957387889008241
40
0.957387889008241
40
1
40
1
40
1
40
1
41
1
10
84.1907123478287
20
-4.16224819237078
30
0
41
1
10
84.1818151446756
20
-4.16227896780563
30
0
41
1
10
84.1729180131252
20
-4.16230316468497
30
0
41
1
10
83.730020422768
20
-4.16318052397062
30
0
41
1
10
83.2961572079979
20
-4.14839533940082
30
0
41
1
10
82.6441828379121
20
-4.10271856714505
30
0
41
1
10
82.4266807101237
20
-4.08360678017797
30
0
41
1
10
81.9911415768282
20
-4.03768445862568
30
0
41
1
10
81.7730829696739
20
-4.0108279096595
30
0
41
1
10
81.3360974464143
20
-3.94938173293537
30
0
41
1
10
81.0077031664306
20
-3.89749428373298
30
0
41
1
10
80.6781368395603
20
-3.83700870770232
30
0
41
1
10
80.5131344028789
20
-3.80534475381367
30
0
41
1
10
80.4580939151923
20
-3.79455242337821
30
0
41
1
10
80.3481330005618
20
-3.77253665791005
30
0
41
1
10
80.2931879535764
20
-3.76130857605216
30
0
41
1
10
79.7989822634653
20
-3.6582986301521
30
0
41
1
10
79.3618143814287
20
-3.55284297006025
30
0
41
1
10
78.4899532623929
20
-3.31655908813838
30
0
41
1
10
78.0552618321336
20
-3.18568058151877
30
0
41
1
10
77.4037036249793
20
-2.97236150183207
30
0
41
1
10
77.1865975473071
20
-2.89842680260722
30
0
41
1
10
76.75231882284
20
-2.74531828531431
30
0
41
1
10
76.5351465527196
20
-2.66614708488365
30
0
41
1
10
76.1004877417197
20
-2.50284542948776
30
0
41
1
10
75.8829992603216
20
-2.41871307575545
30
0
41
1
10
75.4475682568409
20
-2.24579214796736
30
0
41
1
10
75.2296292301313
20
-2.15700097388839
30
0
41
1
10
74.7929764885766
20
-1.97525913542916
30
0
41
1
10
74.4649024589812
20
-1.83583526722057
30
0
41
1
10
74.1357142690316
20
-1.69216319487026
30
0
41
1
10
73.9159810731443
20
-1.59548511024599
30
0
41
1
10
73.8059261311357
20
-1.54667485652669
30
0
41
1
10
73.2554630102264
20
-1.30075327950581
30
0
41
1
10
72.8169546876549
20
-1.09913576991352
30
0
41
1
10
72.1605598175327
20
-0.79239791614205
30
0
41
1
10
71.9419886778174
20
-0.689436216021079
30
0
41
1
10
71.5051178068076
20
-0.482471429108671
30
0
41
1
10
71.2868200532814
20
-0.378464192613848
30
0
41
1
10
70.873793828341
20
-0.181256576528568
30
0
41
1
10
70.6790650317757
20
-0.088104590691529
30
0
41
1
10
70.4842460598645
20
0.0050419221473987
30
0
0
SPLINE
5
E4
100
AcDbEntity
8
1
62
256
6
ByLayer
370
18
48
1
60
0
100
AcDbSpline
70
4
71
3
72
55
73
51
40
0
40
0
40
0
40
0
40
0.001271130361803
40
0.001271130361803
40
0.0194298370825001
40
0.0194298370825001
40
0.0557472505238939
40
0.0557472505238939
40
0.128382077406678
40
0.128382077406678
40
0.164699490848071
40
0.164699490848071
40
0.182858197568767
40
0.182858197568767
40
0.201016904289462
40
0.201016904289462
40
0.273651731172243
40
0.273651731172243
40
0.346286558055024
40
0.346286558055024
40
0.364445264775718
40
0.364445264775718
40
0.382603971496413
40
0.382603971496413
40
0.4189213849378
40
0.4189213849378
40
0.491556211820573
40
0.491556211820573
40
0.527873625261961
40
0.527873625261961
40
0.564191038703348
40
0.564191038703348
40
0.600508452144736
40
0.600508452144736
40
0.636825865586123
40
0.636825865586123
40
0.709460692468898
40
0.709460692468898
40
0.727619399189593
40
0.727619399189593
40
0.745778105910287
40
0.782095519351675
40
0.782095519351675
40
0.818412932793062
40
0.818412932793062
40
0.85473034623445
40
0.85473034623445
40
0.927365173117225
40
0.927365173117225
40
1
40
1
40
1
40
1
41
1
10
86.44150033247
20
-4.1644965229161
30
0
41
1
10
86.4338442365061
20
-4.16550678737562
30
0
41
1
10
86.4261877924703
20
-4.16651219346107
30
0
41
1
10
86.3091499663481
20
-4.18180598235736
30
0
41
1
10
86.1996519925172
20
-4.19511137227826
30
0
41
1
10
85.8714385751661
20
-4.23195877089898
30
0
41
1
10
85.6528851203099
20
-4.25245005434562
30
0
41
1
10
84.997614911147
20
-4.30165952600049
30
0
41
1
10
84.5615493006621
20
-4.31816149013932
30
0
41
1
10
83.906710665119
20
-4.31814749892985
30
0
41
1
10
83.688320463166
20
-4.31402339986829
30
0
41
1
10
83.3603783112197
20
-4.30165601250147
30
0
41
1
10
83.2510049796566
20
-4.2965034760085
30
0
41
1
10
83.0321119214834
20
-4.28413788904467
30
0
41
1
10
82.9225804686658
20
-4.27692286080443
30
0
41
1
10
82.3755010441804
20
-4.2357816862158
30
0
41
1
10
81.9390021072017
20
-4.18655829611015
30
0
41
1
10
81.0659697368841
20
-4.05677987428817
30
0
41
1
10
80.6294777682098
20
-3.97622124700772
30
0
41
1
10
80.0826880279701
20
-3.85674913112746
30
0
41
1
10
79.973268882022
20
-3.83191842529888
30
0
41
1
10
79.7542796235865
20
-3.7804050380193
30
0
41
1
10
79.644759248473
20
-3.7537332785852
30
0
41
1
10
79.3165128944564
20
-3.67112783204345
30
0
41
1
10
79.0979318321162
20
-3.61256483523999
30
0
41
1
10
78.4425971963397
20
-3.42681874969131
30
0
41
1
10
78.006221113537
20
-3.28960510688233
30
0
41
1
10
77.3508766140855
20
-3.06571382235856
30
0
41
1
10
77.1323045537633
20
-2.98806495126817
30
0
41
1
10
76.6946665150327
20
-2.82705935043754
30
0
41
1
10
76.4754402769548
20
-2.74363949283983
30
0
41
1
10
76.0377403811908
20
-2.57206079517189
30
0
41
1
10
75.8191248527054
20
-2.48384725112337
30
0
41
1
10
75.3821808284483
20
-2.30288805059794
30
0
41
1
10
75.1638466567783
20
-2.21014993933309
30
0
41
1
10
74.5087444646875
20
-1.92605796701341
30
0
41
1
10
74.0718930592999
20
-1.72880511455969
30
0
41
1
10
73.5245740547348
20
-1.47441104180925
30
0
41
1
10
73.4150011666496
20
-1.4231197374182
30
0
41
1
10
73.1959080546657
20
-1.31991509842618
30
0
41
1
10
72.8676085009111
20
-1.16429936380197
30
0
41
1
10
72.5401857374297
20
-1.00654973796261
30
0
41
1
10
72.104154045955
20
-0.794824548153116
30
0
41
1
10
71.8864054140277
20
-0.688263346004788
30
0
41
1
10
71.4512396034987
20
-0.47415792603158
30
0
41
1
10
71.2338203666732
20
-0.366617808000996
30
0
41
1
10
70.5816127729422
20
-0.0434351307318082
30
0
41
1
10
70.1468699470443
20
0.172760440734407
30
0
41
1
10
69.2755478215631
20
0.602619558530705
30
0
41
1
10
68.8389714620123
20
0.816288345998998
30
0
41
1
10
68.4006797670207
20
1.02706128557705
30
0
0
SPLINE
5
E5
100
AcDbEntity
8
1
62
256
6
ByLayer
370
18
48
1
60
0
100
AcDbSpline
70
4
71
3
72
16
73
12
40
0
40
0
40
0
40
0
40
0.249999999999693
40
0.249999999999693
40
0.374999999999678
40
0.374999999999678
40
0.499999999999663
40
0.499999999999663
40
0.749999999999831
40
0.749999999999831
40
1
40
1
40
1
40
1
41
1
10
68.4006797670207
20
1.02706128557708
30
0
41
1
10
68.3923144968066
20
1.03108411469645
30
0
41
1
10
68.3847145971754
20
1.03612742427757
30
0
41
1
10
68.3744342525005
20
1.04518086555481
30
0
41
1
10
68.3711880896479
20
1.0484677679425
30
0
41
1
10
68.3652766335836
20
1.05535157321674
30
0
41
1
10
68.3625842147751
20
1.05896883955634
30
0
41
1
10
68.355290178386
20
1.07034117983864
30
0
41
1
10
68.3514684885119
20
1.07869533792012
30
0
41
1
10
68.3464131875988
20
1.09581703979941
30
0
41
1
10
68.3450958744323
20
1.1047858706786
30
0
41
1
10
68.3450958744323
20
1.11380246323407
30
0
0
SPLINE
5
E6
100
AcDbEntity
8
1
62
256
6
ByLayer
370
18
48
1
60
0
100
AcDbSpline
70
4
71
3
72
28
73
24
40
0
40
0
40
0
40
0
40
0.124999999999886
40
0.124999999999886
40
0.187499999999829
40
0.187499999999829
40
0.249999999999772
40
0.312499999999716
40
0.312499999999716
40
0.374999999999659
40
0.374999999999659
40
0.499999999999687
40
0.499999999999687
40
0.624999999999715
40
0.624999999999715
40
0.687499999999729
40
0.687499999999729
40
0.749999999999743
40
0.812499999999758
40
0.812499999999758
40
0.874999999999772
40
0.874999999999772
40
1
40
1
40
1
40
1
41
1
10
68.3450958744323
20
4.28615442947148
30
0
41
1
10
68.3450958744323
20
4.28580237279593
30
0
41
1
10
68.3461791645868
20
4.28543420897066
30
0
41
1
10
68.3493785738234
20
4.28486212175224
30
0
41
1
10
68.3507236318187
20
4.28466671579059
30
0
41
1
10
68.3538985221058
20
4.28427930240272
30
0
41
1
10
68.3575505615793
20
4.28389503197965
30
0
41
1
10
68.3621352096517
20
4.2835205494948
30
0
41
1
10
68.3671982418725
20
4.28315329013765
30
0
41
1
10
68.3699689535388
20
4.28297367004248
30
0
41
1
10
68.3787649289471
20
4.28246458406304
30
0
41
1
10
68.3853517344286
20
4.28215843291983
30
0
41
1
10
68.3999277999908
20
4.28163765914289
30
0
41
1
10
68.4076325819466
20
4.28143307827884
30
0
41
1
10
68.4197983394164
20
4.28121833999012
30
0
41
1
10
68.4239862724095
20
4.28116207842672
30
0
41
1
10
68.4323701859464
20
4.28108500097593
30
0
41
1
10
68.4407828103521
20
4.28104246299571
30
0
41
1
10
68.4492516845596
20
4.28106859152814
30
0
41
1
10
68.4577494840027
20
4.28112993018146
30
0
41
1
10
68.4619941600811
20
4.28117835449939
30
0
41
1
10
68.4744078195226
20
4.28137118231876
30
0
41
1
10
68.4823792607138
20
4.28156334621531
30
0
41
1
10
68.4900349594788
20
4.28181540921804
30
0
0
SPLINE
5
E7
100
AcDbEntity
8
1
62
256
6
ByLayer
370
18
48
1
60
0
100
AcDbSpline
70
4
71
3
72
131
73
127
40
0
40
0
40
0
40
0
40
0.0159817316015031
40
0.0159817316015031
40
0.0392787214069442
40
0.0392787214069442
40
0.0509272163096647
40
0.0509272163096647
40
0.0625757112123853
40
0.0625757112123853
40
0.0742242061151059
40
0.0742242061151059
40
0.0858727010178265
40
0.0858727010178265
40
0.097521195920547
40
0.097521195920547
40
0.109169690823268
40
0.109169690823268
40
0.132466680628709
40
0.132466680628709
40
0.14411517553143
40
0.14411517553143
40
0.155763670434152
40
0.155763670434152
40
0.179060660239597
40
0.179060660239597
40
0.202357650045042
40
0.202357650045042
40
0.225654639850487
40
0.225654639850487
40
0.272248619461378
40
0.272248619461378
40
0.283897114364101
40
0.283897114364101
40
0.295545609266825
40
0.295545609266825
40
0.318842599072272
40
0.318842599072272
40
0.330491093974995
40
0.330491093974995
40
0.342139588877719
40
0.342139588877719
40
0.365436578683164
40
0.365436578683164
40
0.377085073585886
40
0.377085073585886
40
0.388733568488607
40
0.388733568488607
40
0.400382063391329
40
0.400382063391329
40
0.41203055829405
40
0.41203055829405
40
0.423679053196772
40
0.423679053196772
40
0.435327548099493
40
0.435327548099493
40
0.458624537904935
40
0.458624537904935
40
0.470273032807654
40
0.470273032807654
40
0.481921527710374
40
0.481921527710374
40
0.505218517515813
40
0.505218517515813
40
0.528515507321252
40
0.528515507321252
40
0.540164002223971
40
0.540164002223971
40
0.551812497126689
40
0.551812497126689
40
0.563460992029408
40
0.563460992029408
40
0.575109486932125
40
0.575109486932125
40
0.586757981834843
40
0.586757981834843
40
0.598406476737561
40
0.598406476737561
40
0.621703466542996
40
0.621703466542996
40
0.645000456348431
40
0.645000456348431
40
0.656648951251149
40
0.656648951251149
40
0.668297446153866
40
0.668297446153866
40
0.691594435959302
40
0.691594435959302
40
0.714891425764739
40
0.714891425764739
40
0.738188415570175
40
0.749836910472893
40
0.749836910472893
40
0.761485405375612
40
0.761485405375612
40
0.78478239518105
40
0.78478239518105
40
0.808079384986488
40
0.808079384986488
40
0.819727879889208
40
0.819727879889208
40
0.831376374791927
40
0.831376374791927
40
0.843024869694647
40
0.843024869694647
40
0.854673364597366
40
0.854673364597366
40
0.877970354402805
40
0.877970354402805
40
0.889618849305525
40
0.889618849305525
40
0.901267344208245
40
0.901267344208245
40
0.912915839110964
40
0.912915839110964
40
0.924564334013684
40
0.924564334013684
40
0.936212828916403
40
0.936212828916403
40
0.947861323819123
40
0.947861323819123
40
0.971158313624562
40
0.971158313624562
40
0.994455303430002
40
0.994455303430002
40
1
40
1
40
1
40
1
41
1
10
103.913328202366
20
-3.19989844309973
30
0
41
1
10
103.734643036007
20
-3.26077038140917
30
0
41
1
10
103.556108777166
20
-3.31952155085699
30
0
41
1
10
103.117490760786
20
-3.45846615741948
30
0
41
1
10
102.857460089163
20
-3.53613996902672
30
0
41
1
10
102.467411235028
20
-3.64534483847169
30
0
41
1
10
102.337395105917
20
-3.68052890475121
30
0
41
1
10
102.077339315765
20
-3.74842669087144
30
0
41
1
10
101.947297516167
20
-3.78113673375231
30
0
41
1
10
101.687045810762
20
-3.84393286853546
30
0
41
1
10
101.556826337797
20
-3.87401083996602
30
0
41
1
10
101.29615147552
20
-3.93148658411525
30
0
41
1
10
101.165635635203
20
-3.95889962637139
30
0
41
1
10
100.904657337677
20
-4.01096290081856
30
0
41
1
10
100.774246826921
20
-4.03559510022029
30
0
41
1
10
100.513710597043
20
-4.08216012926715
30
0
41
1
10
100.38357603984
20
-4.1040824885429
30
0
41
1
10
99.9933567793906
20
-4.1656078714783
30
0
41
1
10
99.7334298768257
20
-4.20094619526154
30
0
41
1
10
99.3432667203741
20
-4.24518564503862
30
0
41
1
10
99.2131780550649
20
-4.25847916708923
30
0
41
1
10
98.9529040491573
20
-4.28215954889777
30
0
41
1
10
98.8227076550688
20
-4.29254361731452
30
0
41
1
10
98.4320321629837
20
-4.31934983202927
30
0
41
1
10
98.1715619812443
20
-4.33143047339226
30
0
41
1
10
97.6495714342578
20
-4.34364861252112
30
0
41
1
10
97.3890105054849
20
-4.34379808628424
30
0
41
1
10
96.8683165063872
20
-4.33226918298732
30
0
41
1
10
96.6081553388636
20
-4.32059583850202
30
0
41
1
10
95.8277122039041
20
-4.26800870362007
30
0
41
1
10
95.3074765087279
20
-4.20948398376629
30
0
41
1
10
94.6548793757884
20
-4.10785432763083
30
0
41
1
10
94.5243350916126
20
-4.08611589233271
30
0
41
1
10
94.2635505020154
20
-4.0399035714324
30
0
41
1
10
94.1332527887988
20
-4.01542136703273
30
0
41
1
10
93.7426096988137
20
-3.93787438550956
30
0
41
1
10
93.4824935355803
20
-3.88071030167703
30
0
41
1
10
93.0920938921557
20
-3.78743053403886
30
0
41
1
10
92.9619399904701
20
-3.7550694405021
30
0
41
1
10
92.7015630785077
20
-3.68784843452428
30
0
41
1
10
92.5713257767737
20
-3.65300515394009
30
0
41
1
10
92.1806500066554
20
-3.5445665052786
30
0
41
1
10
91.9202492506084
20
-3.4670332486358
30
0
41
1
10
91.5289028504604
20
-3.34374169972213
30
0
41
1
10
91.3983165231047
20
-3.30147456602657
30
0
41
1
10
91.1373962474817
20
-3.21492634559183
30
0
41
1
10
91.0069961503027
20
-3.17061515273792
30
0
41
1
10
90.746287304912
20
-3.07997405754159
30
0
41
1
10
90.6159693382709
20
-3.03365771114167
30
0
41
1
10
90.3554483327621
20
-2.93897984513097
30
0
41
1
10
90.2252810429594
20
-2.89056475566841
30
0
41
1
10
89.9650170522151
20
-2.79174307023894
30
0
41
1
10
89.8349041348318
20
-2.74136107592471
30
0
41
1
10
89.5746060327905
20
-2.63882771075811
30
0
41
1
10
89.4444323027861
20
-2.58665922622956
30
0
41
1
10
89.0538092992581
20
-2.42749021022354
30
0
41
1
10
88.7932344801459
20
-2.31786146747501
30
0
41
1
10
88.4017512641946
20
-2.1487620468809
30
0
41
1
10
88.2710936561046
20
-2.09157926402654
30
0
41
1
10
88.0100506425344
20
-1.97594589208532
30
0
41
1
10
87.8796259748606
20
-1.9174816669227
30
0
41
1
10
87.4885623515907
20
-1.74029731640579
30
0
41
1
10
87.2281402279464
20
-1.61977292751328
30
0
41
1
10
86.7073800399704
20
-1.37484977478763
30
0
41
1
10
86.4470108011851
20
-1.25051189774874
30
0
41
1
10
86.0562745942522
20
-1.06157334265291
30
0
41
1
10
85.9259999944111
20
-0.998186029618353
30
0
41
1
10
85.6653694864746
20
-0.870636121729092
30
0
41
1
10
85.5350189146161
20
-0.806462458915206
30
0
41
1
10
85.2741099300792
20
-0.677585757666719
30
0
41
1
10
85.1434738542742
20
-0.612869941836522
30
0
41
1
10
84.8822466086445
20
-0.483272237410745
30
0
41
1
10
84.7517065247737
20
-0.418400561062867
30
0
41
1
10
84.4907450204192
20
-0.28856787438238
30
0
41
1
10
84.3603091729802
20
-0.223635960178967
30
0
41
1
10
84.0996343759585
20
-0.0935243215180037
30
0
41
1
10
83.9694106028459
20
-0.028314145444341
30
0
41
1
10
83.5788647359677
20
0.167343564120529
30
0
41
1
10
83.3186393235773
20
0.297759875599581
30
0
41
1
10
82.7975937119573
20
0.556799161063736
30
0
41
1
10
82.5367942978511
20
0.685465018654639
30
0
41
1
10
82.1451114759998
20
0.877046162588613
30
0
41
1
10
82.0144964286235
20
0.94077238046475
30
0
41
1
10
81.7531885029421
20
1.06771163800423
30
0
41
1
10
81.6226547700325
20
1.13080228312441
30
0
41
1
10
81.2312245286583
20
1.3185726415669
30
0
41
1
10
80.9705776263706
20
1.44190670904953
30
0
41
1
10
80.4495118409773
20
1.68417140145686
30
0
41
1
10
80.1890509279438
20
1.80302356741282
30
0
41
1
10
79.6679350283587
20
2.03555300763122
30
0
41
1
10
79.2769433676174
20
2.20605063029041
30
0
41
1
10
78.8852345796088
20
2.3698173675632
30
0
41
1
10
78.6238688242437
20
2.47738031209929
30
0
41
1
10
78.4931754139689
20
2.53030496211471
30
0
41
1
10
78.1014722488632
20
2.68620156600474
30
0
41
1
10
77.8406520526727
20
2.78639811164729
30
0
41
1
10
77.3194367981151
20
2.97902532108941
30
0
41
1
10
77.0590594459132
20
3.07146549074895
30
0
41
1
10
76.6680950809987
20
3.2032753473888
30
0
41
1
10
76.5377231621123
20
3.24609556385241
30
0
41
1
10
76.2768518492828
20
3.32947372842776
30
0
41
1
10
76.1463387019404
20
3.37001500704784
30
0
41
1
10
75.8852500499151
20
3.44891213054785
30
0
41
1
10
75.7546985293839
20
3.48729522071781
30
0
41
1
10
75.4934412699092
20
3.5617353134235
30
0
41
1
10
75.3627282720349
20
3.59778481341823
30
0
41
1
10
74.9710289360465
20
3.70197415883513
30
0
41
1
10
74.7101475010574
20
3.76619514495698
30
0
41
1
10
74.318874121229
20
3.85447356296081
30
0
41
1
10
74.1884595313484
20
3.88256028472873
30
0
41
1
10
73.9276658085439
20
3.93607728272227
30
0
41
1
10
73.7973251162786
20
3.96153879021739
30
0
41
1
10
73.5366871863776
20
4.00979192925465
30
0
41
1
10
73.4063703829219
20
4.03256772812961
30
0
41
1
10
73.1456026386366
20
4.07531714152859
30
0
41
1
10
73.0151639243217
20
4.0953007494447
30
0
41
1
10
72.7541619739811
20
4.13247153212615
30
0
41
1
10
72.6235984734033
20
4.14965769187819
30
0
41
1
10
72.3622707267304
20
4.18117998096454
30
0
41
1
10
72.2314428199916
20
4.19551982983418
30
0
41
1
10
71.8393706664926
20
4.23414124499914
30
0
41
1
10
71.5783641917011
20
4.25405837337465
30
0
41
1
10
71.0566954082629
20
4.28218208545559
30
0
41
1
10
70.7960365145569
20
4.29038713190724
30
0
41
1
10
70.4732613284523
20
4.29327184603952
30
0
41
1
10
70.4112035657974
20
4.2934939009098
30
0
41
1
10
70.3491383808666
20
4.29338342563662
30
0
0
SPLINE
5
E8
100
AcDbEntity
8
1
62
256
6
ByLayer
370
18
48
1
60
0
100
AcDbSpline
70
4
71
3
72
124
73
120
40
0
40
0
40
0
40
0
40
0.0041362998776224
40
0.0041362998776224
40
0.0158871811846053
40
0.0158871811846053
40
0.0276380624915882
40
0.0276380624915882
40
0.0511398251055534
40
0.0511398251055534
40
0.0746415877195185
40
0.0746415877195185
40
0.0863924690265007
40
0.0863924690265007
40
0.098143350333483
40
0.098143350333483
40
0.121645112947448
40
0.121645112947448
40
0.145146875561413
40
0.145146875561413
40
0.168648638175378
40
0.168648638175378
40
0.18039951948236
40
0.18039951948236
40
0.192150400789343
40
0.192150400789343
40
0.215652163403308
40
0.215652163403308
40
0.239153926017273
40
0.239153926017273
40
0.250904807324255
40
0.250904807324255
40
0.262655688631237
40
0.262655688631237
40
0.274406569938219
40
0.274406569938219
40
0.286157451245201
40
0.286157451245201
40
0.309659213859166
40
0.309659213859166
40
0.333160976473131
40
0.333160976473131
40
0.356662739087096
40
0.356662739087096
40
0.368413620394079
40
0.368413620394079
40
0.380164501701062
40
0.380164501701062
40
0.391915383008045
40
0.391915383008045
40
0.403666264315028
40
0.403666264315028
40
0.427168026928993
40
0.427168026928993
40
0.438918908235975
40
0.438918908235975
40
0.450669789542958
40
0.450669789542958
40
0.46242067084994
40
0.46242067084994
40
0.474171552156922
40
0.474171552156922
40
0.497673314770887
40
0.497673314770887
40
0.50942419607787
40
0.50942419607787
40
0.521175077384853
40
0.521175077384853
40
0.568178602612786
40
0.568178602612786
40
0.591680365226752
40
0.591680365226752
40
0.615182127840718
40
0.615182127840718
40
0.638683890454684
40
0.638683890454684
40
0.66218565306865
40
0.66218565306865
40
0.673936534375633
40
0.673936534375633
40
0.685687415682616
40
0.685687415682616
40
0.709189178296581
40
0.709189178296581
40
0.732690940910546
40
0.732690940910546
40
0.744441822217528
40
0.744441822217528
40
0.756192703524511
40
0.756192703524511
40
0.767943584831493
40
0.767943584831493
40
0.779694466138476
40
0.779694466138476
40
0.803196228752441
40
0.803196228752441
40
0.850199753980371
40
0.850199753980371
40
0.861950635287353
40
0.861950635287353
40
0.873701516594336
40
0.873701516594336
40
0.885452397901318
40
0.885452397901318
40
0.8972032792083
40
0.8972032792083
40
0.920705041822265
40
0.920705041822265
40
0.932455923129248
40
0.932455923129248
40
0.944206804436231
40
0.944206804436231
40
0.955957685743213
40
0.955957685743213
40
0.967708567050196
40
0.967708567050196
40
0.991210329664161
40
0.991210329664161
40
1
40
1
40
1
40
1
41
1
10
49.5114011030021
20
-3.17511594440674
30
0
41
1
10
49.46530494723
20
-3.19013795709506
30
0
41
1
10
49.4192184232347
20
-3.20501948004136
30
0
41
1
10
49.2422413059295
20
-3.2616404681666
30
0
41
1
10
49.1114575608696
20
-3.30244087792099
30
0
41
1
10
48.8500840348564
20
-3.38181971772198
30
0
41
1
10
48.7194723254527
20
-3.42036879090998
30
0
41
1
10
48.3276316068236
20
-3.53231878573231
30
0
41
1
10
48.0664761175484
20
-3.60212374587678
30
0
41
1
10
47.5439738093477
20
-3.7317125385504
30
0
41
1
10
47.2825750131651
20
-3.79144257489028
30
0
41
1
10
46.8900067382841
20
-3.87318021017342
30
0
41
1
10
46.7590710521358
20
-3.89911497809356
30
0
41
1
10
46.4969871649853
20
-3.94830721416946
30
0
41
1
10
46.3659938279436
20
-3.97153532703194
30
0
41
1
10
45.9733446036272
20
-4.03702298047574
30
0
41
1
10
45.7119049939676
20
-4.07510346998419
30
0
41
1
10
45.1891610579275
20
-4.13988206040577
30
0
41
1
10
44.9278779141774
20
-4.16660117798912
30
0
41
1
10
44.4053004662343
20
-4.20859571015015
30
0
41
1
10
44.1440425726513
20
-4.2238578229462
30
0
41
1
10
43.7514239779207
20
-4.23794504517994
30
0
41
1
10
43.6204441403081
20
-4.24118085949272
30
0
41
1
10
43.3582462522476
20
-4.24473285955361
30
0
41
1
10
43.2270462936369
20
-4.24504755313774
30
0
41
1
10
42.8340182065461
20
-4.2416160145016
30
0
41
1
10
42.5726311619402
20
-4.23346403529118
30
0
41
1
10
42.04999346117
20
-4.20551871094202
30
0
41
1
10
41.7887055239149
20
-4.18575418034683
30
0
41
1
10
41.3964766878428
20
-4.14763195618733
30
0
41
1
10
41.265688752986
20
-4.13351157173327
30
0
41
1
10
41.0040308751855
20
-4.10244483510047
30
0
41
1
10
40.8731999504238
20
-4.08547865423313
30
0
41
1
10
40.6114906508418
20
-4.04867284019414
30
0
41
1
10
40.4805900108937
20
-4.02884441196878
30
0
41
1
10
40.2185428127733
20
-3.98642358491088
30
0
41
1
10
40.0873649956808
20
-3.96381552168342
30
0
41
1
10
39.6943088779074
20
-3.89198176326153
30
0
41
1
10
39.4326563972503
20
-3.83870958544782
30
0
41
1
10
38.9095869402739
20
-3.72192811270782
30
0
41
1
10
38.6482041389548
20
-3.65839083690182
30
0
41
1
10
38.125349108199
20
-3.52143648043372
30
0
41
1
10
37.8638797536939
20
-3.44801412618656
30
0
41
1
10
37.4712571085723
20
-3.33085915930047
30
0
41
1
10
37.3403086577308
20
-3.29064333496606
30
0
41
1
10
37.0782091222481
20
-3.20794953967251
30
0
41
1
10
36.9469903131968
20
-3.16544325333143
30
0
41
1
10
36.6847730458155
20
-3.07832987517014
30
0
41
1
10
36.5537677949974
20
-3.03372330346809
30
0
41
1
10
36.2919433172917
20
-2.94244246046404
30
0
41
1
10
36.1611332284207
20
-2.89575374840908
30
0
41
1
10
35.7688135920623
20
-2.7528367885661
30
0
41
1
10
35.5073255091606
20
-2.65389683629061
30
0
41
1
10
35.1148975552369
20
-2.50050920842048
30
0
41
1
10
34.9840488522385
20
-2.44856267525938
30
0
41
1
10
34.722362548125
20
-2.34288293229153
30
0
41
1
10
34.5915568456337
20
-2.28909360854189
30
0
41
1
10
34.3298855650587
20
-2.17982742031552
30
0
41
1
10
34.1990129342195
20
-2.12436291059481
30
0
41
1
10
33.9370616347445
20
-2.01199938928949
30
0
41
1
10
33.8059329907715
20
-1.95507622712739
30
0
41
1
10
33.4124337417315
20
-1.78260352460501
30
0
41
1
10
33.1503467284332
20
-1.66550448744457
30
0
41
1
10
32.7575046745935
20
-1.48687000495241
30
0
41
1
10
32.6266523500994
20
-1.42673663355654
30
0
41
1
10
32.365081884634
20
-1.30539542916512
30
0
41
1
10
32.2343418828101
20
-1.24422977506893
30
0
41
1
10
31.5804947762132
20
-0.936660643159797
30
0
41
1
10
31.0573225382772
20
-0.684295881010257
30
0
41
1
10
30.2699656024582
20
-0.301193669109523
30
0
41
1
10
30.0078812184139
20
-0.17310204120048
30
0
41
1
10
29.484208307829
20
0.0828997235439601
30
0
41
1
10
29.2225859146684
20
0.210817367019274
30
0
41
1
10
28.6992593490441
20
0.465441552632228
30
0
41
1
10
28.4375786671828
20
0.592197219928181
30
0
41
1
10
27.9140031099331
20
0.844224159034383
30
0
41
1
10
27.6521333383782
20
0.969544081315149
30
0
41
1
10
27.2584257847227
20
1.15490106561714
30
0
41
1
10
27.1271078212235
20
1.21625927345133
30
0
41
1
10
26.8647344477591
20
1.33787128056369
30
0
41
1
10
26.7336001735965
20
1.39812672382735
30
0
41
1
10
26.3405100534112
20
1.57755199388564
30
0
41
1
10
26.0789765692971
20
1.69557906874365
30
0
41
1
10
25.5557991245818
20
1.9262028574625
30
0
41
1
10
25.294120753506
20
2.03874584608033
30
0
41
1
10
24.9011523092881
20
2.20287149967291
30
0
41
1
10
24.7700894322429
20
2.25680234749703
30
0
41
1
10
24.5078418787245
20
2.36315204455607
30
0
41
1
10
24.3766992663942
20
2.4156432885585
30
0
41
1
10
24.1143001838359
20
2.51911151055995
30
0
41
1
10
23.9829899311915
20
2.57006304404496
30
0
41
1
10
23.7206295519837
20
2.6699275067001
30
0
41
1
10
23.5895264901468
20
2.71889016043335
30
0
41
1
10
23.1964315350039
20
2.86285614740743
30
0
41
1
10
22.934637254428
20
2.95490661509041
30
0
41
1
10
22.149285313071
20
3.21818369749553
30
0
41
1
10
21.6259385818589
20
3.37678739754705
30
0
41
1
10
20.9698707451345
20
3.55099371104285
30
0
41
1
10
20.8384858352383
20
3.58464073429607
30
0
41
1
10
20.5759298460885
20
3.64934146646351
30
0
41
1
10
20.4447409622466
20
3.68040610213603
30
0
41
1
10
20.182518430372
20
3.73995056648863
30
0
41
1
10
20.0514840685902
20
3.76842975049834
30
0
41
1
10
19.7895506706031
20
3.82278374524748
30
0
41
1
10
19.6586589841093
20
3.84866329163023
30
0
41
1
10
19.2659957442699
20
3.92222809973455
30
0
41
1
10
19.0041531106964
20
3.96578023467822
30
0
41
1
10
18.611047041385
20
4.02278641075276
30
0
41
1
10
18.4799442827351
20
4.04039700651677
30
0
41
1
10
18.2177257899611
20
4.07289583467849
30
0
41
1
10
18.0866304535852
20
4.08779102474657
30
0
41
1
10
17.8243136215095
20
4.11476214257931
30
0
41
1
10
17.6930281660968
20
4.12684068580415
30
0
41
1
10
17.430477055909
20
4.14808906557312
30
0
41
1
10
17.2992812233049
20
4.15725456183091
30
0
41
1
10
16.9057840881907
20
4.18037548912781
30
0
41
1
10
16.6435785642566
20
4.18997131601589
30
0
41
1
10
16.2834608009649
20
4.19525443536492
30
0
41
1
10
16.1854872721767
20
4.19588556704937
30
0
41
1
10
16.0875331532665
20
4.19570814131592
30
0
0
SPLINE
5
E9
100
AcDbEntity
8
1
62
256
6
ByLayer
370
18
48
1
60
0
100
AcDbSpline
70
4
71
3
72
104
73
100
40
0
40
0
40
0
40
0
40
0.0221691147962862
40
0.0221691147962862
40
0.0487189623906282
40
0.0487189623906282
40
0.0619938861877996
40
0.0619938861877996
40
0.0686313480863853
40
0.0686313480863853
40
0.075268809984971
40
0.101818657579314
40
0.101818657579314
40
0.128368505173657
40
0.128368505173657
40
0.154918352768
40
0.154918352768
40
0.168193276565171
40
0.168193276565171
40
0.181468200362342
40
0.181468200362342
40
0.208018047956684
40
0.208018047956684
40
0.234567895551026
40
0.247842819348196
40
0.254480281246782
40
0.254480281246782
40
0.261117743145367
40
0.261117743145367
40
0.287667590739706
40
0.287667590739706
40
0.314217438334045
40
0.314217438334045
40
0.340767285928384
40
0.340767285928384
40
0.354042209725553
40
0.354042209725553
40
0.367317133522722
40
0.367317133522722
40
0.39386698111706
40
0.39386698111706
40
0.420416828711398
40
0.420416828711398
40
0.446966676305736
40
0.446966676305736
40
0.460241600102905
40
0.460241600102905
40
0.473516523900074
40
0.473516523900074
40
0.500066371494412
40
0.500066371494412
40
0.52661621908875
40
0.52661621908875
40
0.539891142885918
40
0.539891142885918
40
0.546528604784503
40
0.546528604784503
40
0.553166066683088
40
0.553166066683088
40
0.579715914277428
40
0.579715914277428
40
0.606265761871768
40
0.606265761871768
40
0.632815609466108
40
0.632815609466108
40
0.646090533263277
40
0.646090533263277
40
0.659365457060446
40
0.659365457060446
40
0.685915304654784
40
0.685915304654784
40
0.712465152249122
40
0.712465152249122
40
0.73901499984346
40
0.73901499984346
40
0.745652461742045
40
0.745652461742045
40
0.752289923640629
40
0.765564847437799
40
0.765564847437799
40
0.792114695032137
40
0.792114695032137
40
0.818664542626476
40
0.818664542626476
40
0.831939466423646
40
0.831939466423646
40
0.845214390220816
40
0.845214390220816
40
0.871764237815156
40
0.871764237815156
40
0.898314085409496
40
0.898314085409496
40
0.924863933003836
40
0.924863933003836
40
0.938138856801006
40
0.938138856801006
40
0.951413780598176
40
0.951413780598176
40
1
40
1
40
1
40
1
41
1
10
22.3656618800445
20
3.15221577120548
30
0
41
1
10
22.6128413630031
20
3.23218446563607
30
0
41
1
10
22.8599091102442
20
3.30824332750618
30
0
41
1
10
23.4029300211623
20
3.46640536259832
30
0
41
1
10
23.6988952447315
20
3.54672976351003
30
0
41
1
10
24.1433716866994
20
3.65782601250913
30
0
41
1
10
24.2916188051675
20
3.69329295722702
30
0
41
1
10
24.5141924362188
20
3.74406453166114
30
0
41
1
10
24.5884238299307
20
3.76058480519447
30
0
41
1
10
24.7367794106725
20
3.79277053745946
30
0
41
1
10
25.1075122340741
20
3.87112332958827
30
0
41
1
10
25.4775345650441
20
3.93887197579136
30
0
41
1
10
26.0692646962102
20
4.03327470699008
30
0
41
1
10
26.3649949365451
20
4.07346453309259
30
0
41
1
10
26.9568485656054
20
4.13944822918856
30
0
41
1
10
27.2529343131575
20
4.16526312980042
30
0
41
1
10
27.6977228447911
20
4.19297706559254
30
0
41
1
10
27.8461628544285
20
4.20038039344155
30
0
41
1
10
28.1426597480421
20
4.21145787627165
30
0
41
1
10
28.2907847538956
20
4.21513797696971
30
0
41
1
10
28.7349550877025
20
4.22061139103519
30
0
41
1
10
29.030764367107
20
4.21684423286425
30
0
41
1
10
29.622266479832
20
4.19454527411787
30
0
41
1
10
30.0658171642721
20
4.1667426215088
30
0
41
1
10
30.5839781818915
20
4.11505464410899
30
0
41
1
10
30.8063047188482
20
4.08881198339904
30
0
41
1
10
30.9545857253918
20
4.07040956723174
30
0
41
1
10
31.0287789144987
20
4.06075151382333
30
0
41
1
10
31.3995266323713
20
4.01025128316545
30
0
41
1
10
31.6955912036815
20
3.96275808137136
30
0
41
1
10
32.287248652911
20
3.85407173627243
30
0
41
1
10
32.5828411601179
20
3.79287536759139
30
0
41
1
10
33.1742400593483
20
3.65739838944413
30
0
41
1
10
33.470015024155
20
3.58309211359855
30
0
41
1
10
33.9141896718358
20
3.46213903855218
30
0
41
1
10
34.0623355101047
20
3.42024124033918
30
0
41
1
10
34.3588883540015
20
3.33337075097236
30
0
41
1
10
34.507108191174
20
3.2884485261194
30
0
41
1
10
34.9513715878268
20
3.14956897557926
30
0
41
1
10
35.2471527300555
20
3.05141152614024
30
0
41
1
10
35.8384256424548
20
2.84470080898672
30
0
41
1
10
36.1339211858293
20
2.73614985014339
30
0
41
1
10
36.7252667737976
20
2.50961542309921
30
0
41
1
10
37.0211611284325
20
2.39170723183665
30
0
41
1
10
37.4657014179943
20
2.20845398474873
30
0
41
1
10
37.6140246089334
20
2.1462921623289
30
0
41
1
10
37.910249200797
20
2.02026432264239
30
0
41
1
10
38.0582398584006
20
1.95636217287796
30
0
41
1
10
38.5019725509846
20
1.76222643422835
30
0
41
1
10
38.7974613503791
20
1.6295361738018
30
0
41
1
10
39.3884871909187
20
1.35898540503291
30
0
41
1
10
39.6839972470235
20
1.22107533399961
30
0
41
1
10
40.1276554025951
20
1.01102003339866
30
0
41
1
10
40.2756093257097
20
0.940474453184152
30
0
41
1
10
40.4977031588477
20
0.83398413358023
30
0
41
1
10
40.5717611080728
20
0.798374391932782
30
0
41
1
10
40.7199406548441
20
0.726949106991128
30
0
41
1
10
40.7940670930985
20
0.691132242177019
30
0
41
1
10
41.1644342562103
20
0.511819372821066
30
0
41
1
10
41.4602510586731
20
0.367481300503243
30
0
41
1
10
42.0514055515142
20
0.0780030634661557
30
0
41
1
10
42.346743739849
20
-0.0671359995018292
30
0
41
1
10
42.9376009227785
20
-0.356862773908034
30
0
41
1
10
43.2331635476494
20
-0.501361154819193
30
0
41
1
10
43.6770752038792
20
-0.716809721767419
30
0
41
1
10
43.8251504925873
20
-0.788412861469851
30
0
41
1
10
44.1215237328142
20
-0.931019514119811
30
0
41
1
10
44.2695659577372
20
-1.00190015360153
30
0
41
1
10
44.7133835328247
20
-1.21303176638622
30
0
41
1
10
45.0088557881503
20
-1.35175937250563
30
0
41
1
10
45.5996545481117
20
-1.62388711893865
30
0
41
1
10
45.8949438375871
20
-1.75735993366709
30
0
41
1
10
46.4858677048382
20
-2.01804379279156
30
0
41
1
10
46.781506799997
20
-2.14524528108708
30
0
41
1
10
47.1516919321276
20
-2.29954596545105
30
0
41
1
10
47.225782435757
20
-2.330177734481
30
0
41
1
10
47.3738776876582
20
-2.39088223289295
30
0
41
1
10
47.5959276605454
20
-2.48111773675149
30
0
41
1
10
47.8177262288806
20
-2.56885045662563
30
0
41
1
10
48.2610890265368
20
-2.74082443136857
30
0
41
1
10
48.5563472845476
20
-2.85082386790194
30
0
41
1
10
49.1468594880693
20
-3.0605643905067
30
0
41
1
10
49.4421357396168
20
-3.16027415227768
30
0
41
1
10
49.8855074108379
20
-3.30147731998292
30
0
41
1
10
50.033369857695
20
-3.3471572602584
30
0
41
1
10
50.3293083818364
20
-3.43563816717048
30
0
41
1
10
50.4774697658257
20
-3.47846228122873
30
0
41
1
10
50.921447778062
20
-3.602175988504
30
0
41
1
10
51.2169354595601
20
-3.67835039755485
30
0
41
1
10
51.8075887825092
20
-3.81747959573258
30
0
41
1
10
52.1027175657165
20
-3.88047344960461
30
0
41
1
10
52.6931444317812
20
-3.99280937765522
30
0
41
1
10
52.9884371798765
20
-4.04215041607759
30
0
41
1
10
53.4320436577615
20
-4.1054865220469
30
0
41
1
10
53.5800785384011
20
-4.12482745932263
30
0
41
1
10
53.8761778172273
20
-4.15988083414507
30
0
41
1
10
54.0240891777716
20
-4.17557577822566
30
0
41
1
10
54.7128795154376
20
-4.24013745184857
30
0
41
1
10
55.2524773143072
20
-4.26615449433319
30
0
41
1
10
55.7926829232476
20
-4.26718049817009
30
0
0
SPLINE
5
EA
100
AcDbEntity
8
1
62
256
6
ByLayer
370
18
48
1
60
0
100
AcDbSpline
70
4
71
3
72
76
73
72
40
0
40
0
40
0
40
0
40
0.0006517377581311
40
0.0006517377581311
40
0.0441016622034327
40
0.0441016622034327
40
0.0658266244260835
40
0.0766891055374084
40
0.0766891055374084
40
0.0875515866487333
40
0.0875515866487333
40
0.131001511094029
40
0.131001511094029
40
0.174451435539326
40
0.174451435539326
40
0.196176397761973
40
0.196176397761973
40
0.217901359984621
40
0.217901359984621
40
0.261351284429916
40
0.261351284429916
40
0.283076246652563
40
0.283076246652563
40
0.293938727763888
40
0.293938727763888
40
0.304801208875213
40
0.304801208875213
40
0.391701057765809
40
0.391701057765809
40
0.402563538877135
40
0.402563538877135
40
0.41342601998846
40
0.43515098221111
40
0.43515098221111
40
0.478600906656411
40
0.478600906656411
40
0.50032586887906
40
0.50032586887906
40
0.511188349990385
40
0.511188349990385
40
0.522050831101711
40
0.565500755547014
40
0.565500755547014
40
0.608950679992317
40
0.608950679992317
40
0.619813161103643
40
0.619813161103643
40
0.630675642214969
40
0.652400604437619
40
0.652400604437619
40
0.695850528882918
40
0.695850528882918
40
0.739300453328216
40
0.739300453328216
40
0.782750377773515
40
0.782750377773515
40
0.826200302218813
40
0.826200302218813
40
0.837062783330137
40
0.837062783330137
40
0.847925264441461
40
0.869650226664107
40
0.869650226664107
40
0.913100151109399
40
0.913100151109399
40
0.923962632220723
40
0.923962632220723
40
0.934825113332047
40
0.956550075554697
40
0.956550075554697
40
1
40
1
40
1
40
1
41
1
10
80.1290640594505
20
4.05326787122002
30
0
41
1
10
80.1356420106715
20
4.05439304264959
30
0
41
1
10
80.1422198323825
20
4.05551469861916
30
0
41
1
10
80.5873180243532
20
4.13117669010833
30
0
41
1
10
81.0252699981122
20
4.19008702372381
30
0
41
1
10
81.6828206350962
20
4.25419114574288
30
0
41
1
10
82.0117535929785
20
4.28017822324443
30
0
41
1
10
82.3412119899234
20
4.29692894231204
30
0
41
1
10
82.5610001685713
20
4.30602963897007
30
0
41
1
10
82.670914004533
20
4.30954353135118
30
0
41
1
10
83.2199519007391
20
4.32191025917334
30
0
41
1
10
83.6581686522213
20
4.31518274650358
30
0
41
1
10
84.5344628481853
20
4.26883411748923
30
0
41
1
10
84.972520312755
20
4.2292021960879
30
0
41
1
10
85.6309839642033
20
4.14540190705097
30
0
41
1
10
85.8508716137454
20
4.11337928462419
30
0
41
1
10
86.2898663540767
20
4.04157577057981
30
0
41
1
10
86.5091138154409
20
4.00178462760854
30
0
41
1
10
87.166495372686
20
3.87109028546433
30
0
41
1
10
87.6042484819861
20
3.76884902037708
30
0
41
1
10
88.2615760568325
20
3.59416357497614
30
0
41
1
10
88.4808031150028
20
3.53238310849511
30
0
41
1
10
88.8100123750082
20
3.43457234686079
30
0
41
1
10
88.91983773635
20
3.40110364060016
30
0
41
1
10
89.1395238583114
20
3.33252376986241
30
0
41
1
10
89.2492901974589
20
3.29744255644661
30
0
41
1
10
90.2366426019178
20
2.97480316209464
30
0
41
1
10
91.1104759253317
20
2.63893360736293
30
0
41
1
10
92.0979702502663
20
2.21906015692238
30
0
41
1
10
92.2078039966433
20
2.17180478568648
30
0
41
1
10
92.4273666059908
20
2.07629916264796
30
0
41
1
10
92.7564845280303
20
1.93158013701597
30
0
41
1
10
93.0850755842279
20
1.78275959941303
30
0
41
1
10
93.7419560145617
20
1.48040227375853
30
0
41
1
10
94.1794935824345
20
1.27257963136225
30
0
41
1
10
94.8366361565389
20
0.954149654498025
30
0
41
1
10
95.0558220469555
20
0.846888276551908
30
0
41
1
10
95.3849948931796
20
0.684674900661093
30
0
41
1
10
95.4948317275582
20
0.630360534777765
30
0
41
1
10
95.7143067010537
20
0.521533946332596
30
0
41
1
10
96.2626300228606
20
0.248906996011101
30
0
41
1
10
96.8095443244878
20
-0.0256940593194486
30
0
41
1
10
97.6848684524807
20
-0.463435645043973
30
0
41
1
10
98.1226506378287
20
-0.681517727952667
30
0
41
1
10
98.6712196440575
20
-0.950744115385987
30
0
41
1
10
98.7810251457616
20
-1.00443039090905
30
0
41
1
10
99.0001928130296
20
-1.11110125001662
30
0
41
1
10
99.3285035595721
20
-1.27016562673376
30
0
41
1
10
99.6556387749771
20
-1.42613565314676
30
0
41
1
10
100.308733247821
20
-1.73324680633479
30
0
41
1
10
100.742566470699
20
-1.93153544390685
30
0
41
1
10
101.609132688508
20
-2.31169349602374
30
0
41
1
10
102.041847837965
20
-2.4936012848849
30
0
41
1
10
102.907917882478
20
-2.83805522067203
30
0
41
1
10
103.341276262538
20
-3.00059057197228
30
0
41
1
10
104.210615250113
20
-3.30299165581778
30
0
41
1
10
104.646600377085
20
-3.44284996841213
30
0
41
1
10
105.194508473114
20
-3.60144988763082
30
0
41
1
10
105.304276123301
20
-3.63236878897737
30
0
41
1
10
105.523566494462
20
-3.69238362913924
30
0
41
1
10
105.852331529442
20
-3.77972972942001
30
0
41
1
10
106.180716754855
20
-3.85892887119059
30
0
41
1
10
106.837348555174
20
-4.00613564314125
30
0
41
1
10
107.274916220165
20
-4.08934598496816
30
0
41
1
10
107.822939836983
20
-4.17360918872458
30
0
41
1
10
107.932641132713
20
-4.18948062406017
30
0
41
1
10
108.151937458704
20
-4.21919251674731
30
0
41
1
10
108.480690798906
20
-4.26071273660566
30
0
41
1
10
108.809013793736
20
-4.29304239603977
30
0
41
1
10
109.465473355778
20
-4.34533378769174
30
0
41
1
10
109.902868847366
20
-4.36369781974926
30
0
41
1
10
110.341040742481
20
-4.36533612621858
30
0
0
SPLINE
5
EB
100
AcDbEntity
8
1
62
256
6
ByLayer
370
18
48
1
60
0
100
AcDbSpline
70
4
71
3
72
10
73
6
40
0
40
0
40
0
40
0
40
0.5
40
0.5
40
1
40
1
40
1
40
1
41
1
10
110.313277331526
20
-4.33733785829341
30
0
41
1
10
110.317892702457
20
-4.34633890403339
30
0
41
1
10
110.322512948048
20
-4.35317919737463
30
0
41
1
10
110.331772789561
20
-4.36252379682057
30
0
41
1
10
110.336412833312
20
-4.36502129118276
30
0
41
1
10
110.341040742473
20
-4.36533612621855
30
0
0
SPLINE
5
EC
100
AcDbEntity
8
1
62
256
6
ByLayer
370
18
48
1
60
0
100
AcDbSpline
70
4
71
3
72
28
73
24
40
0
40
0
40
0
40
0
40
0.125000000000064
40
0.125000000000064
40
0.187500000000095
40
0.187500000000095
40
0.250000000000127
40
0.312500000000158
40
0.312500000000158
40
0.37500000000019
40
0.37500000000019
40
0.500000000000112
40
0.500000000000112
40
0.625000000000033
40
0.625000000000033
40
0.687499999999994
40
0.687499999999994
40
0.749999999999955
40
0.812499999999917
40
0.812499999999917
40
0.874999999999877
40
0.874999999999877
40
1
40
1
40
1
40
1
41
1
10
68.3450958744323
20
-4.28615442947145
30
0
41
1
10
68.3450958744323
20
-4.2858023727959
30
0
41
1
10
68.3461791645868
20
-4.28543420897066
30
0
41
1
10
68.3493785738234
20
-4.28486212175224
30
0
41
1
10
68.3507236318187
20
-4.28466671579059
30
0
41
1
10
68.3538985221058
20
-4.28427930240272
30
0
41
1
10
68.3575505566154
20
-4.28389502639268
30
0
41
1
10
68.3621352096518
20
-4.2835205494948
30
0
41
1
10
68.3671982418725
20
-4.28315329013768
30
0
41
1
10
68.3699689535388
20
-4.28297367004248
30
0
41
1
10
68.3787649289471
20
-4.28246458406304
30
0
41
1
10
68.3853517344285
20
-4.28215843291983
30
0
41
1
10
68.3999277999908
20
-4.28163765914289
30
0
41
1
10
68.4076325819466
20
-4.28143307827884
30
0
41
1
10
68.4197983394165
20
-4.28121833999012
30
0
41
1
10
68.4239862724095
20
-4.28116207842672
30
0
41
1
10
68.4323701859464
20
-4.28108500097593
30
0
41
1
10
68.4407828094855
20
-4.28104246163963
30
0
41
1
10
68.4492516845597
20
-4.28106859152814
30
0
41
1
10
68.4577494840026
20
-4.28112993018146
30
0
41
1
10
68.461994160081
20
-4.28117835449939
30
0
41
1
10
68.4744078195226
20
-4.28137118231876
30
0
41
1
10
68.4823792607137
20
-4.28156334621531
30
0
41
1
10
68.4900349594788
20
-4.28181540921804
30
0
0
SPLINE
5
ED
100
AcDbEntity
8
1
62
256
6
ByLayer
370
18
48
1
60
0
100
AcDbSpline
70
4
71
3
72
8
73
4
40
0
40
0
40
0
40
0
40
1
40
1
40
1
40
1
41
1
10
110.323497993254
20
-0.24896141352761
30
0
41
1
10
110.345587424169
20
-0.0588648620129391
30
0
41
1
10
110.371934030397
20
0.131781776195879
30
0
41
1
10
110.403727499833
20
0.322865596740598
30
0
0
SPLINE
5
EE
100
AcDbEntity
8
1
62
256
6
ByLayer
370
18
48
1
60
0
100
AcDbSpline
70
4
71
3
72
58
73
54
40
0
40
0
40
0
40
0
40
0.0302041803110978
40
0.0302041803110978
40
0.0604083606221955
40
0.0604083606221955
40
0.0906125409332933
40
0.0906125409332933
40
0.120816721244391
40
0.120816721244391
40
0.181225081866587
40
0.181225081866587
40
0.211429262177682
40
0.211429262177682
40
0.241633442488777
40
0.241633442488777
40
0.271837622799872
40
0.271837622799872
40
0.302041803110967
40
0.302041803110967
40
0.362450163733158
40
0.362450163733158
40
0.422858524355348
40
0.422858524355348
40
0.453062704666441
40
0.453062704666441
40
0.483266884977533
40
0.483266884977533
40
0.543675245599719
40
0.543675245599719
40
0.604083606221904
40
0.604083606221904
40
0.634287786532997
40
0.634287786532997
40
0.664491966844089
40
0.664491966844089
40
0.694696147155182
40
0.694696147155182
40
0.724900327466274
40
0.724900327466274
40
0.755104507777367
40
0.755104507777367
40
0.78530868808846
40
0.78530868808846
40
0.845717048710645
40
0.845717048710645
40
0.87592122902174
40
0.87592122902174
40
0.906125409332835
40
0.906125409332835
40
0.966533769955026
40
0.966533769955026
40
1
40
1
40
1
40
1
41
1
10
110.403727499833
20
0.322865596740627
30
0
41
1
10
110.27354635943
20
0.388563273754528
30
0
41
1
10
110.14347114025
20
0.45413393509105
30
0
41
1
10
109.883391106713
20
0.584741586891113
30
0
41
1
10
109.753378826041
20
0.649764092013783
30
0
41
1
10
109.493372103176
20
0.779177201001488
30
0
41
1
10
109.363378769044
20
0.843570011234448
30
0
41
1
10
109.103383196738
20
0.971674386136698
30
0
41
1
10
108.973376801433
20
1.03537835007649
30
0
41
1
10
108.583509126758
20
1.22578410238651
30
0
41
1
10
108.32371266454
20
1.35160616640235
30
0
41
1
10
107.933413707191
20
1.53716903880266
30
0
41
1
10
107.803212316712
20
1.59849404383513
30
0
41
1
10
107.542542716123
20
1.71996786868743
30
0
41
1
10
107.41205234021
20
1.7801365601311
30
0
41
1
10
107.151365863802
20
1.89899840849571
30
0
41
1
10
107.021086524625
20
1.95770248924674
30
0
41
1
10
106.76074058766
20
2.07381511664511
30
0
41
1
10
106.630692382313
20
2.13125433753089
30
0
41
1
10
106.240686311204
20
2.30129849722792
30
0
41
1
10
105.980786764885
20
2.41149680999999
30
0
41
1
10
105.460910047377
20
2.62510410640243
30
0
41
1
10
105.20091098165
20
2.72847426335855
30
0
41
1
10
104.810465304892
20
2.87780748890566
30
0
41
1
10
104.6802480932
20
2.92664080241627
30
0
41
1
10
104.419624654507
20
3.02233502038956
30
0
41
1
10
104.289147740671
20
3.06921904440477
30
0
41
1
10
103.89809719169
20
3.20652190721347
30
0
41
1
10
103.637796875144
20
3.2936445457855
30
0
41
1
10
103.117490760786
20
3.45846615741951
30
0
41
1
10
102.857460089163
20
3.53613996902675
30
0
41
1
10
102.467411235028
20
3.64534483847169
30
0
41
1
10
102.337395105917
20
3.68052890475121
30
0
41
1
10
102.077339315765
20
3.74842669087144
30
0
41
1
10
101.947297516167
20
3.78113673375233
30
0
41
1
10
101.687045810762
20
3.84393286853549
30
0
41
1
10
101.556826337797
20
3.87401083996605
30
0
41
1
10
101.29615147552
20
3.93148658411525
30
0
41
1
10
101.165635635203
20
3.95889962637139
30
0
41
1
10
100.904657337677
20
4.01096290081856
30
0
41
1
10
100.774246826921
20
4.03559510022029
30
0
41
1
10
100.513710597042
20
4.08216012926715
30
0
41
1
10
100.38357603984
20
4.10408248854293
30
0
41
1
10
99.9933567793907
20
4.16560787147833
30
0
41
1
10
99.7334298768256
20
4.20094619526154
30
0
41
1
10
99.3432667203741
20
4.24518564503862
30
0
41
1
10
99.2131780550648
20
4.25847916708923
30
0
41
1
10
98.9529040491573
20
4.28215954889779
30
0
41
1
10
98.8227076550688
20
4.29254361731452
30
0
41
1
10
98.4320321629837
20
4.31934983202927
30
0
41
1
10
98.1715619812443
20
4.33143047339226
30
0
41
1
10
97.7659753337523
20
4.34092396731944
30
0
41
1
10
97.6215172670838
20
4.3424792965674
30
0
41
1
10
97.4771550301821
20
4.34221329610259
30
0
0
SPLINE
5
EF
100
AcDbEntity
8
1
62
256
6
ByLayer
370
18
48
1
60
0
100
AcDbSpline
70
4
71
3
72
132
73
128
40
0
40
0
40
0
40
0
40
0.0006065083177078
40
0.0006065083177078
40
0.0122702202398044
40
0.0122702202398044
40
0.0239339321619008
40
0.0239339321619008
40
0.0355976440839975
40
0.0355976440839975
40
0.0472613560060941
40
0.0472613560060941
40
0.0705887798502872
40
0.0705887798502872
40
0.0822524917723833
40
0.0822524917723833
40
0.0939162036944794
40
0.0939162036944794
40
0.105579915616575
40
0.105579915616575
40
0.117243627538672
40
0.117243627538672
40
0.128907339460768
40
0.128907339460768
40
0.140571051382864
40
0.140571051382864
40
0.163898475227056
40
0.163898475227056
40
0.187225899071248
40
0.187225899071248
40
0.21055332291544
40
0.21055332291544
40
0.222217034837537
40
0.222217034837537
40
0.233880746759633
40
0.233880746759633
40
0.257208170603827
40
0.257208170603827
40
0.268871882525923
40
0.268871882525923
40
0.28053559444802
40
0.28053559444802
40
0.303863018292213
40
0.303863018292213
40
0.315526730214309
40
0.315526730214309
40
0.327190442136405
40
0.327190442136405
40
0.338854154058501
40
0.338854154058501
40
0.350517865980597
40
0.350517865980597
40
0.397172713668983
40
0.397172713668983
40
0.420500137513175
40
0.420500137513175
40
0.432163849435272
40
0.432163849435272
40
0.443827561357369
40
0.443827561357369
40
0.467154985201563
40
0.467154985201563
40
0.490482409045757
40
0.490482409045757
40
0.502146120967854
40
0.502146120967854
40
0.513809832889951
40
0.513809832889951
40
0.525473544812048
40
0.525473544812048
40
0.537137256734145
40
0.537137256734145
40
0.560464680578338
40
0.560464680578338
40
0.572128392500435
40
0.572128392500435
40
0.583792104422531
40
0.583792104422531
40
0.595455816344627
40
0.595455816344627
40
0.607119528266724
40
0.607119528266724
40
0.61878324018882
40
0.61878324018882
40
0.630446952110916
40
0.630446952110916
40
0.677101799799302
40
0.677101799799302
40
0.700429223643495
40
0.700429223643495
40
0.712092935565592
40
0.712092935565592
40
0.723756647487688
40
0.723756647487688
40
0.747084071331882
40
0.747084071331882
40
0.758747783253979
40
0.758747783253979
40
0.770411495176077
40
0.770411495176077
40
0.793738919020271
40
0.793738919020271
40
0.805402630942368
40
0.805402630942368
40
0.817066342864465
40
0.817066342864465
40
0.828730054786563
40
0.828730054786563
40
0.84039376670866
40
0.84039376670866
40
0.863721190552854
40
0.863721190552854
40
0.887048614397048
40
0.887048614397048
40
0.898712326319146
40
0.898712326319146
40
0.910376038241243
40
0.910376038241243
40
0.933703462085439
40
0.933703462085439
40
0.957030885929633
40
0.957030885929633
40
0.980358309773829
40
0.980358309773829
40
0.992022021695927
40
0.992022021695927
40
1
40
1
40
1
40
1
41
1
10
76.8187459954997
20
-3.15247541969725
30
0
41
1
10
76.8119696826944
20
-3.15476626837349
30
0
41
1
10
76.8051931990894
20
-3.15705404204024
30
0
41
1
10
76.6680950809987
20
-3.20327534738882
30
0
41
1
10
76.5377231621123
20
-3.24609556385243
30
0
41
1
10
76.2768518492828
20
-3.32947372842779
30
0
41
1
10
76.1463387019405
20
-3.37001500704784
30
0
41
1
10
75.885250049915
20
-3.44891213054788
30
0
41
1
10
75.7546985293839
20
-3.48729522071781
30
0
41
1
10
75.4934412699093
20
-3.5617353134235
30
0
41
1
10
75.3627282720349
20
-3.59778481341823
30
0
41
1
10
74.9710289360465
20
-3.70197415883513
30
0
41
1
10
74.7101475010573
20
-3.76619514495698
30
0
41
1
10
74.3188741212289
20
-3.85447356296081
30
0
41
1
10
74.1884595313484
20
-3.88256028472875
30
0
41
1
10
73.9276658085439
20
-3.93607728272227
30
0
41
1
10
73.7973251162786
20
-3.96153879021739
30
0
41
1
10
73.5366871863776
20
-4.00979192925465
30
0
41
1
10
73.4063703829218
20
-4.03256772812961
30
0
41
1
10
73.1456026386365
20
-4.07531714152859
30
0
41
1
10
73.0151639243217
20
-4.0953007494447
30
0
41
1
10
72.7541619739811
20
-4.13247153212615
30
0
41
1
10
72.6235984734032
20
-4.14965769187819
30
0
41
1
10
72.3622707267303
20
-4.18117998096454
30
0
41
1
10
72.2314428199916
20
-4.19551982983418
30
0
41
1
10
71.8393706664925
20
-4.23414124499914
30
0
41
1
10
71.5783641917011
20
-4.25405837337465
30
0
41
1
10
71.056695408263
20
-4.28218208545559
30
0
41
1
10
70.7960365145568
20
-4.29038713190724
30
0
41
1
10
70.2745905684189
20
-4.2950474111195
30
0
41
1
10
70.0137696221605
20
-4.29150723618116
30
0
41
1
10
69.6221828824627
20
-4.27739033505486
30
0
41
1
10
69.4915966963271
20
-4.27121618001371
30
0
41
1
10
69.2302865494557
20
-4.25591753729214
30
0
41
1
10
69.0995004362958
20
-4.2467834009301
30
0
41
1
10
68.7073366014578
20
-4.21501801336271
30
0
41
1
10
68.4461802446507
20
-4.18807287519044
30
0
41
1
10
68.0545868196896
20
-4.13926543906175
30
0
41
1
10
67.9240722637369
20
-4.12160327181147
30
0
41
1
10
67.6631605214682
20
-4.08344980385183
30
0
41
1
10
67.5327923812674
20
-4.06293826546573
30
0
41
1
10
67.1417534108982
20
-3.9971898420132
30
0
41
1
10
66.8811102888548
20
-3.94775428509462
30
0
41
1
10
66.489531640547
20
-3.86574044287269
30
0
41
1
10
66.3589118839617
20
-3.83708907989811
30
0
41
1
10
66.097459464545
20
-3.77718900681921
30
0
41
1
10
65.9665906849237
20
-3.74593761517608
30
0
41
1
10
65.7047722999671
20
-3.68086708610636
30
0
41
1
10
65.574009651221
20
-3.64704587578697
30
0
41
1
10
65.3127254464746
20
-3.57687894969817
30
0
41
1
10
65.1821832179066
20
-3.54055488063156
30
0
41
1
10
64.5296054729794
20
-3.35316762007827
30
0
41
1
10
64.0083269057171
20
-3.18439573352208
30
0
41
1
10
63.2250868557732
20
-2.90629046282902
30
0
41
1
10
62.9637958123131
20
-2.8094186004285
30
0
41
1
10
62.5712204862282
20
-2.65829905327993
30
0
41
1
10
62.4403845462337
20
-2.60700607310582
30
0
41
1
10
62.1789466644116
20
-2.5027942289029
30
0
41
1
10
62.0483020677047
20
-2.44986457360056
30
0
41
1
10
61.6565089214236
20
-2.28875299284351
30
0
41
1
10
61.3955131494208
20
-2.17823091605479
30
0
41
1
10
60.873723372893
20
-1.95130459448444
30
0
41
1
10
60.6129632354642
20
-1.83482819194575
30
0
41
1
10
60.2212589213854
20
-1.65699618056604
30
0
41
1
10
60.0906115774513
20
-1.5971741610766
30
0
41
1
10
59.8291330170795
20
-1.4764915008148
30
0
41
1
10
59.698289111515
20
-1.41565585208528
30
0
41
1
10
59.436469434081
20
-1.29284058515137
30
0
41
1
10
59.3055388867105
20
-1.23080258132239
30
0
41
1
10
59.0440577141733
20
-1.10596791401042
30
0
41
1
10
58.9134285687671
20
-1.0431522944499
30
0
41
1
10
58.5216802770877
20
-0.853899811881405
30
0
41
1
10
58.2606589980103
20
-0.726739897345453
30
0
41
1
10
57.8689968833406
20
-0.535221904730093
30
0
41
1
10
57.7384255572726
20
-0.471244162613544
30
0
41
1
10
57.4772536595941
20
-0.343001922796844
30
0
41
1
10
57.3466908667567
20
-0.278660858217137
30
0
41
1
10
57.0855697469821
20
-0.149620591392818
30
0
41
1
10
56.9549898219579
20
-0.0849651469295338
30
0
41
1
10
56.6936389093566
20
0.0443061994435539
30
0
41
1
10
56.5628801631642
20
0.108946896978182
30
0
41
1
10
56.301182343099
20
0.238211108215182
30
0
41
1
10
56.1701911623445
20
0.302863221642241
30
0
41
1
10
55.9084970693337
20
0.431734264495901
30
0
41
1
10
55.7777360611893
20
0.495973637531421
30
0
41
1
10
55.1242374434097
20
0.815946186119476
30
0
41
1
10
54.602521012523
20
1.06820878566492
30
0
41
1
10
53.8189818714619
20
1.43592236999055
30
0
41
1
10
53.5575958097745
20
1.55662708732703
30
0
41
1
10
53.1649962314163
20
1.73447201296705
30
0
41
1
10
53.0339736642254
20
1.79325423530952
30
0
41
1
10
52.772148204688
20
1.90952576520655
30
0
41
1
10
52.6413646119822
20
1.96702761719675
30
0
41
1
10
52.249212482185
20
2.13728920349948
30
0
41
1
10
51.9879539235907
20
2.24764727743903
30
0
41
1
10
51.5960315693442
20
2.40801161584324
30
0
41
1
10
51.4653795485277
20
2.46059608572449
30
0
41
1
10
51.2041308350194
20
2.56415500546149
30
0
41
1
10
51.0735676871116
20
2.61518289299204
30
0
41
1
10
50.6818738111787
20
2.76568127012334
30
0
41
1
10
50.4206945881415
20
2.86248900530936
30
0
41
1
10
50.0281445351177
20
3.00132548985275
30
0
41
1
10
49.8971310646276
20
3.04657111637602
30
0
41
1
10
49.6350207671312
20
3.13487225769882
30
0
41
1
10
49.504041945746
20
3.1778815554668
30
0
41
1
10
49.2422413059296
20
3.2616404681666
30
0
41
1
10
49.1114575608696
20
3.30244087792099
30
0
41
1
10
48.8500840348565
20
3.38181971772198
30
0
41
1
10
48.7194723254527
20
3.42036879090998
30
0
41
1
10
48.3276316068237
20
3.53231878573231
30
0
41
1
10
48.0664761175485
20
3.60212374587681
30
0
41
1
10
47.5439738093477
20
3.7317125385504
30
0
41
1
10
47.2825750131651
20
3.79144257489028
30
0
41
1
10
46.8900067382841
20
3.87318021017342
30
0
41
1
10
46.7590710521358
20
3.89911497809356
30
0
41
1
10
46.4969871649852
20
3.94830721416946
30
0
41
1
10
46.3659938279436
20
3.97153532703197
30
0
41
1
10
45.9733446036271
20
4.03702298047574
30
0
41
1
10
45.7119049939675
20
4.07510346998419
30
0
41
1
10
45.1891610579275
20
4.13988206040577
30
0
41
1
10
44.9278779141774
20
4.16660117798912
30
0
41
1
10
44.4053004662343
20
4.20859571015015
30
0
41
1
10
44.1440425726513
20
4.2238578229462
30
0
41
1
10
43.7514239779207
20
4.23794504517994
30
0
41
1
10
43.6204441403081
20
4.24118085949272
30
0
41
1
10
43.3996735258743
20
4.2441716434449
30
0
41
1
10
43.3099545952009
20
4.24470274648945
30
0
41
1
10
43.2202817236376
20
4.24455105402194
30
0
0
SPLINE
5
F0
100
AcDbEntity
8
1
62
256
6
ByLayer
370
18
48
1
60
0
100
AcDbSpline
70
4
71
3
72
52
73
48
40
0
40
0
40
0
40
0
40
0.103139009953936
40
0.103139009953936
40
0.135169759598438
40
0.135169759598438
40
0.167200509242941
40
0.167200509242941
40
0.199231258887443
40
0.199231258887443
40
0.231262008531946
40
0.231262008531946
40
0.29532350782095
40
0.29532350782095
40
0.327354257465451
40
0.327354257465451
40
0.359385007109952
40
0.359385007109952
40
0.391415756754454
40
0.391415756754454
40
0.423446506398955
40
0.423446506398955
40
0.48750800568796
40
0.48750800568796
40
0.551569504976965
40
0.551569504976965
40
0.615631004265969
40
0.615631004265969
40
0.647661753910472
40
0.647661753910472
40
0.679692503554975
40
0.679692503554975
40
0.743754002843981
40
0.743754002843981
40
0.775784752488483
40
0.775784752488483
40
0.807815502132986
40
0.807815502132986
40
0.839846251777488
40
0.839846251777488
40
0.87187700142199
40
0.87187700142199
40
0.903907751066492
40
0.903907751066492
40
0.935938500710994
40
0.935938500710994
40
1
40
1
40
1
40
1
41
1
10
22.3665783871997
20
-3.143396980734
30
0
41
1
10
21.9451227318696
20
-3.27930760030827
30
0
41
1
10
21.523591983348
20
-3.40396358669611
30
0
41
1
10
20.9698707451345
20
-3.55099371104288
30
0
41
1
10
20.8384858352382
20
-3.58464073429607
30
0
41
1
10
20.5759298460885
20
-3.64934146646351
30
0
41
1
10
20.4447409622466
20
-3.68040610213603
30
0
41
1
10
20.182518430372
20
-3.73995056648863
30
0
41
1
10
20.0514840685902
20
-3.76842975049837
30
0
41
1
10
19.7895506706031
20
-3.82278374524748
30
0
41
1
10
19.6586589841092
20
-3.84866329163023
30
0
41
1
10
19.2659957442698
20
-3.92222809973455
30
0
41
1
10
19.0041531106964
20
-3.96578023467822
30
0
41
1
10
18.611047041385
20
-4.02278641075279
30
0
41
1
10
18.4799442827351
20
-4.04039700651677
30
0
41
1
10
18.2177257899611
20
-4.07289583467849
30
0
41
1
10
18.0866304535852
20
-4.08779102474657
30
0
41
1
10
17.8243136215095
20
-4.11476214257931
30
0
41
1
10
17.6930281660968
20
-4.12684068580415
30
0
41
1
10
17.430477055909
20
-4.14808906557312
30
0
41
1
10
17.2992812233048
20
-4.15725456183091
30
0
41
1
10
16.9057840881907
20
-4.18037548912781
30
0
41
1
10
16.6435785642566
20
-4.18997131601589
30
0
41
1
10
16.1193898607631
20
-4.19766144342489
30
0
41
1
10
15.8576521293833
20
-4.19573766959718
30
0
41
1
10
15.3337249044169
20
-4.18028999845427
30
0
41
1
10
15.0716300994821
20
-4.16677987157698
30
0
41
1
10
14.6780077865431
20
-4.13785936782986
30
0
41
1
10
14.5467080885664
20
-4.1267798595976
30
0
41
1
10
14.2838925664236
20
-4.10174950536683
30
0
41
1
10
14.1526228029836
20
-4.08782107897983
30
0
41
1
10
13.7591616952484
20
-4.04185055308213
30
0
41
1
10
13.4973369022293
20
-4.00560699502091
30
0
41
1
10
13.104865043323
20
-3.94320425596791
30
0
41
1
10
12.9740753652544
20
-3.92107261944591
30
0
41
1
10
12.7125465341729
20
-3.87417774833352
30
0
41
1
10
12.581798112456
20
-3.849422874309
30
0
41
1
10
12.3204052233006
20
-3.79723863146288
30
0
41
1
10
12.1897818040969
20
-3.7697877949478
30
0
41
1
10
11.9285020486903
20
-3.71231403415203
30
0
41
1
10
11.7978586528387
20
-3.68228160540937
30
0
41
1
10
11.5365685689162
20
-3.61960710916634
30
0
41
1
10
11.4059298570121
20
-3.58695391985205
30
0
41
1
10
11.1444613696732
20
-3.51922290491612
30
0
41
1
10
11.0136162731184
20
-3.48416347337414
30
0
41
1
10
10.6205941168811
20
-3.37561401328858
30
0
41
1
10
10.3579687001855
20
-3.29871008884018
30
0
41
1
10
10.0945546486759
20
-3.21757116511324
30
0
0
SPLINE
5
F1
100
AcDbEntity
8
1
62
256
6
ByLayer
370
18
48
1
60
0
100
AcDbSpline
70
4
71
3
72
56
73
52
40
0
40
0
40
0
40
0
40
0.104107019772569
40
0.104107019772569
40
0.130133774715711
40
0.130133774715711
40
0.156160529658853
40
0.156160529658853
40
0.182187284601995
40
0.182187284601995
40
0.195200662073566
40
0.195200662073566
40
0.208214039545136
40
0.260267549431419
40
0.260267549431419
40
0.312321059317702
40
0.312321059317702
40
0.364374569203984
40
0.364374569203984
40
0.390401324147125
40
0.390401324147125
40
0.416428079090266
40
0.416428079090266
40
0.520535098862826
40
0.520535098862826
40
0.546561853805966
40
0.546561853805966
40
0.572588608749106
40
0.572588608749106
40
0.624642118635385
40
0.624642118635385
40
0.676695628521665
40
0.676695628521665
40
0.728749138407945
40
0.728749138407945
40
0.754775893351085
40
0.754775893351085
40
0.767789270822656
40
0.767789270822656
40
0.780802648294227
40
0.832856158180506
40
0.832856158180506
40
0.884909668066786
40
0.884909668066786
40
0.936963177953066
40
0.936963177953066
40
0.962989932896206
40
0.962989932896206
40
0.989016687839346
40
0.989016687839346
40
1
40
1
40
1
40
1
41
1
10
11.5488016313807
20
1.64537149276916
30
0
41
1
10
12.1431749112313
20
1.38122387164523
30
0
41
1
10
12.7354352387697
20
1.10640033419318
30
0
41
1
10
13.4756719215366
20
0.754644120620412
30
0
41
1
10
13.6237156073758
20
0.683882585399743
30
0
41
1
10
13.919931638504
20
0.541816170493291
30
0
41
1
10
14.0681299318074
20
0.47056536095846
30
0
41
1
10
14.3646815351255
20
0.327575562357083
30
0
41
1
10
14.5130379422223
20
0.255842613499254
30
0
41
1
10
14.7357535722405
20
0.14800888937387
30
0
41
1
10
14.8100439040236
20
0.112014872585064
30
0
41
1
10
14.9585399047269
20
0.0400388077435707
30
0
41
1
10
15.3296110707978
20
-0.13989260981063
30
0
41
1
10
15.6999551675965
20
-0.319536101910359
30
0
41
1
10
16.2922319831645
20
-0.605242566326382
30
0
41
1
10
16.5882559460952
20
-0.747189063559716
30
0
41
1
10
17.1805356113632
20
-1.02832454401232
30
0
41
1
10
17.4767913281632
20
-1.16751245215514
30
0
41
1
10
17.9218397356984
20
-1.37322196104907
30
0
41
1
10
18.0703932471539
20
-1.44130520748806
30
0
41
1
10
18.3672051460216
20
-1.57597914544752
30
0
41
1
10
18.5154919736128
20
-1.64259854139325
30
0
41
1
10
19.256477473687
20
-1.97184161739125
30
0
41
1
10
19.847786760002
20
-2.22295639540812
30
0
41
1
10
20.5883161997538
20
-2.51568210531903
30
0
41
1
10
20.7364842857501
20
-2.5731832049228
30
0
41
1
10
21.0330117510663
20
-2.68597836599244
30
0
41
1
10
21.1814196778217
20
-2.7412900887968
30
0
41
1
10
21.6267219685295
20
-2.90360344369245
30
0
41
1
10
21.9230329361734
20
-3.00673933608334
30
0
41
1
10
22.5151987390956
20
-3.20196555515881
30
0
41
1
10
22.8110815203746
20
-3.29402164501263
30
0
41
1
10
23.4029300211623
20
-3.46640536259832
30
0
41
1
10
23.6988952447315
20
-3.54672976351003
30
0
41
1
10
24.1433716866994
20
-3.65782601250913
30
0
41
1
10
24.2916188051676
20
-3.69329295722702
30
0
41
1
10
24.5141924362189
20
-3.74406453166114
30
0
41
1
10
24.5884238299308
20
-3.7605848051945
30
0
41
1
10
24.7367794106726
20
-3.79277053745946
30
0
41
1
10
25.1075122340741
20
-3.87112332958827
30
0
41
1
10
25.4775345650442
20
-3.93887197579136
30
0
41
1
10
26.0692646962102
20
-4.03327470699008
30
0
41
1
10
26.3649949365451
20
-4.07346453309259
30
0
41
1
10
26.9568485656054
20
-4.13944822918856
30
0
41
1
10
27.2529343131576
20
-4.16526312980042
30
0
41
1
10
27.6977228447913
20
-4.19297706559254
30
0
41
1
10
27.8461628544286
20
-4.20038039344158
30
0
41
1
10
28.1426597480421
20
-4.21145787627168
30
0
41
1
10
28.2907847538957
20
-4.21513797696971
30
0
41
1
10
28.5013216148505
20
-4.21773237674913
30
0
41
1
10
28.5637881511239
20
-4.21817213164894
30
0
41
1
10
28.626243452074
20
-4.21828203035011
30
0
0
SPLINE
5
F2
100
AcDbEntity
8
1
62
256
6
ByLayer
370
18
48
1
60
0
100
AcDbSpline
70
4
71
3
72
64
73
60
40
0
40
0
40
0
40
0
40
0.0120901237120827
40
0.0120901237120827
40
0.0356117874332226
40
0.0356117874332226
40
0.0591334511543626
40
0.0591334511543626
40
0.106176778596643
40
0.106176778596643
40
0.153220106038922
40
0.153220106038922
40
0.200263433481203
40
0.200263433481203
40
0.223785097202342
40
0.223785097202342
40
0.247306760923482
40
0.247306760923482
40
0.341393415808046
40
0.341393415808046
40
0.388436743250328
40
0.388436743250328
40
0.400197575110899
40
0.400197575110899
40
0.411958406971471
40
0.411958406971471
40
0.435480070692612
40
0.435480070692612
40
0.482523398134895
40
0.482523398134895
40
0.529566725577179
40
0.529566725577179
40
0.553088389298321
40
0.553088389298321
40
0.576610053019462
40
0.576610053019462
40
0.623653380461746
40
0.623653380461746
40
0.67069670790403
40
0.67069670790403
40
0.717740035346313
40
0.717740035346313
40
0.729500867206884
40
0.729500867206884
40
0.741261699067455
40
0.741261699067455
40
0.764783362788595
40
0.764783362788595
40
0.811826690230877
40
0.811826690230877
40
0.858870017673159
40
0.858870017673159
40
0.90591334511544
40
0.90591334511544
40
0.92943500883658
40
0.92943500883658
40
0.95295667255772
40
0.95295667255772
40
1
40
1
40
1
40
1
41
1
10
49.5098796050307
20
3.18073373022233
30
0
41
1
10
49.5858084406904
20
3.20565584705764
30
0
41
1
10
49.6617525793114
20
3.23021681090736
30
0
41
1
10
49.8855074108379
20
3.30147731998292
30
0
41
1
10
50.0333698576951
20
3.34715726025843
30
0
41
1
10
50.3293083818366
20
3.43563816717057
30
0
41
1
10
50.4774697658259
20
3.47846228122881
30
0
41
1
10
50.9214477780621
20
3.60217598850403
30
0
41
1
10
51.2169354595603
20
3.67835039755488
30
0
41
1
10
51.8075887825092
20
3.81747959573258
30
0
41
1
10
52.1027175657165
20
3.88047344960461
30
0
41
1
10
52.6931444317812
20
3.99280937765522
30
0
41
1
10
52.9884371798766
20
4.04215041607762
30
0
41
1
10
53.4320436577617
20
4.10548652204693
30
0
41
1
10
53.5800785384014
20
4.12482745932269
30
0
41
1
10
53.8761778172275
20
4.15988083414507
30
0
41
1
10
54.0240891777717
20
4.17557577822569
30
0
41
1
10
54.7631346247115
20
4.24484796212346
30
0
41
1
10
55.3527185596709
20
4.27077519464618
30
0
41
1
10
56.2385148519534
20
4.26484119761926
30
0
41
1
10
56.5339834783334
20
4.2554022260455
30
0
41
1
10
56.9039487243373
20
4.23424354408297
30
0
41
1
10
56.9779766328003
20
4.22954347515753
30
0
41
1
10
57.1259216414356
20
4.21922164239993
30
0
41
1
10
57.1998612737907
20
4.21359852068406
30
0
41
1
10
57.4215996507617
20
4.19535130756822
30
0
41
1
10
57.5693201026344
20
4.18135007548065
30
0
41
1
10
58.0122890942842
20
4.1339087825385
30
0
41
1
10
58.3073199926446
20
4.09502139633685
30
0
41
1
10
58.897351564398
20
4.00302920835469
30
0
41
1
10
59.1923511109559
20
3.94991658281685
30
0
41
1
10
59.6353876617758
20
3.85995041151216
30
0
41
1
10
59.7831557757894
20
3.82824711025924
30
0
41
1
10
60.0789220692655
20
3.7614436719592
30
0
41
1
10
60.2269830160803
20
3.72632673535918
30
0
41
1
10
60.6705655846971
20
3.61622852905933
30
0
41
1
10
60.9657829360732
20
3.53642940324536
30
0
41
1
10
61.5558537537019
20
3.3648102042074
30
0
41
1
10
61.850747570292
20
3.27304233948914
30
0
41
1
10
62.4407610576724
20
3.07825324834928
30
0
41
1
10
62.735871925768
20
2.97521712384952
30
0
41
1
10
63.1052780170443
20
2.83987346438585
30
0
41
1
10
63.1791855730859
20
2.81247809976102
30
0
41
1
10
63.3270624104124
20
2.75704609864098
30
0
41
1
10
63.4010514737756
20
2.72900078964196
30
0
41
1
10
63.6228795994607
20
2.64402166580885
30
0
41
1
10
63.770635681038
20
2.58622925363937
30
0
41
1
10
64.2136489338722
20
2.40966365366538
30
0
41
1
10
64.5086286364065
20
2.28766614074095
30
0
41
1
10
65.0983952039474
20
2.03602693620104
30
0
41
1
10
65.3931884094291
20
1.90639419587055
30
0
41
1
10
65.9832545454054
20
1.64067319678199
30
0
41
1
10
66.2785499718383
20
1.50462968711832
30
0
41
1
10
66.7222530899355
20
1.29644199483192
30
0
41
1
10
66.87008142489
20
1.22645395476073
30
0
41
1
10
67.1654428282833
20
1.08555563216248
30
0
41
1
10
67.3130136959853
20
1.01463084912635
30
0
41
1
10
67.7555232766195
20
0.80068192833437
30
0
41
1
10
68.0502965242041
20
0.656558138299317
30
0
41
1
10
68.3450958744465
20
0.511464359784128
30
0
0
SPLINE
5
F3
100
AcDbEntity
8
1
62
256
6
ByLayer
370
18
48
1
60
0
100
AcDbSpline
70
4
71
3
72
45
73
41
40
0
40
0
40
0
40
0
40
0.0221749158934776
40
0.0221749158934776
40
0.0443498317869551
40
0.0443498317869551
40
0.0886996635739103
40
0.0886996635739103
40
0.177399327147821
40
0.177399327147821
40
0.266098990721731
40
0.266098990721731
40
0.288273906615207
40
0.288273906615207
40
0.310448822508684
40
0.310448822508684
40
0.354798654295637
40
0.354798654295637
40
0.443498317869545
40
0.443498317869545
40
0.532197981443453
40
0.532197981443453
40
0.620897645017361
40
0.620897645017361
40
0.709597308591269
40
0.709597308591269
40
0.731772224484746
40
0.731772224484746
40
0.753947140378223
40
0.753947140378223
40
0.798296972165175
40
0.798296972165175
40
0.886996635739077
40
0.886996635739077
40
0.931346467526028
40
0.953521383419504
40
0.953521383419504
40
0.975696299312981
40
0.975696299312981
40
1
40
1
40
1
40
1
41
1
10
68.3450958744323
20
0.582538229808733
30
0
41
1
10
68.4550937512635
20
0.528596507346435
30
0
41
1
10
68.5650862762331
20
0.474501689253913
30
0
41
1
10
68.7850936084253
20
0.366071702282284
30
0
41
1
10
68.8951345880563
20
0.311723565439706
30
0
41
1
10
69.2249172776253
20
0.148630079486168
30
0
41
1
10
69.4444370776134
20
0.0397775650563403
30
0
41
1
10
70.1023990650478
20
-0.286320215893085
30
0
41
1
10
70.5402486344196
20
-0.503094436403728
30
0
41
1
10
71.4165005164539
20
-0.931091957862321
30
0
41
1
10
71.8549050472219
20
-1.14231433832785
30
0
41
1
10
72.4042763383799
20
-1.40082563133117
30
0
41
1
10
72.5142197510376
20
-1.45225024237641
30
0
41
1
10
72.7342741790186
20
-1.55448517739845
30
0
41
1
10
72.8441459655256
20
-1.60518425891098
30
0
41
1
10
73.1733291396465
20
-1.75594294575953
30
0
41
1
10
73.3922130608906
20
-1.85466654165847
30
0
41
1
10
74.0475245918631
20
-2.14485008472667
30
0
41
1
10
74.48261120518
20
-2.33031626422172
30
0
41
1
10
75.3512735858267
20
-2.68187347140605
30
0
41
1
10
75.7848553571985
20
-2.84795566451226
30
0
41
1
10
76.6525331328106
20
-3.15764290651421
30
0
41
1
10
77.0866123803862
20
-3.30128354734489
30
0
41
1
10
77.956959180894
20
-3.56358145003557
30
0
41
1
10
78.3932303460464
20
-3.68222457372755
30
0
41
1
10
78.9412078788325
20
-3.81306750518019
30
0
41
1
10
79.0509359148058
20
-3.83836277548397
30
0
41
1
10
79.2706907638076
20
-3.88716065872464
30
0
41
1
10
79.3806508055248
20
-3.91064709172997
30
0
41
1
10
79.7101366095475
20
-3.97818081098646
30
0
41
1
10
79.929537279397
20
-4.01936091097366
30
0
41
1
10
80.5873180243487
20
-4.13117669010768
30
0
41
1
10
81.0252699981074
20
-4.19008702372292
30
0
41
1
10
81.6828206350913
20
-4.25419114574214
30
0
41
1
10
82.0117535929737
20
-4.28017822324426
30
0
41
1
10
82.3412119899183
20
-4.29692894231178
30
0
41
1
10
82.5610001685661
20
-4.3060296389699
30
0
41
1
10
82.6709140045278
20
-4.30954353135104
30
0
41
1
10
82.9010706552994
20
-4.31472766285864
30
0
41
1
10
83.0213436324322
20
-4.3161906192266
30
0
41
1
10
83.1415599321977
20
-4.31640932725452
30
0
0
SPLINE
5
F4
100
AcDbEntity
8
1
62
256
6
ByLayer
370
18
48
1
60
0
100
AcDbSpline
70
4
71
3
72
22
73
18
40
0
40
0
40
0
40
0
40
0.18283960324331
40
0.18283960324331
40
0.233912128040603
40
0.233912128040603
40
0.284984652837896
40
0.387129702432483
40
0.387129702432483
40
0.591419801621655
40
0.591419801621655
40
0.642492326418948
40
0.642492326418948
40
0.693564851216241
40
0.795709900810828
40
0.795709900810828
40
1
40
1
40
1
40
1
41
1
10
103.912911575768
20
3.1990423239557
30
0
41
1
10
104.302198091889
20
3.33221886302505
30
0
41
1
10
104.692624733374
20
3.45617238368996
30
0
41
1
10
105.1945084731
20
3.60144988762704
30
0
41
1
10
105.304276123288
20
3.63236878897365
30
0
41
1
10
105.523566494448
20
3.69238362913563
30
0
41
1
10
105.852331529428
20
3.77972972941663
30
0
41
1
10
106.180716754842
20
3.85892887118737
30
0
41
1
10
106.83734855516
20
4.00613564313846
30
0
41
1
10
107.274916220151
20
4.08934598496566
30
0
41
1
10
107.822939836969
20
4.17360918872248
30
0
41
1
10
107.932641132699
20
4.18948062405815
30
0
41
1
10
108.151937458689
20
4.21919251674547
30
0
41
1
10
108.480690798892
20
4.26071273660403
30
0
41
1
10
108.809013793721
20
4.29304239603843
30
0
41
1
10
109.465473355764
20
4.34533378769095
30
0
41
1
10
109.902868847351
20
4.36369781974881
30
0
41
1
10
110.341040742466
20
4.36533612621852
30
0
0
SPLINE
5
F5
100
AcDbEntity
8
1
62
256
6
ByLayer
370
13
48
1
60
0
100
AcDbSpline
70
4
71
3
72
44
73
40
40
0
40
0
40
0
40
0
40
0.0300011129933968
40
0.0300011129933968
40
0.0623344092269502
40
0.0623344092269502
40
0.0946677054605037
40
0.0946677054605037
40
0.159334297927611
40
0.159334297927611
40
0.191667594161164
40
0.191667594161164
40
0.224000890394717
40
0.224000890394717
40
0.288667482861825
40
0.353334075328932
40
0.418000667796039
40
0.418000667796039
40
0.450333964029592
40
0.450333964029592
40
0.482667260263146
40
0.482667260263146
40
0.515000556496699
40
0.515000556496699
40
0.547333852730253
40
0.547333852730253
40
0.612000445197359
40
0.676667037664466
40
0.741333630131573
40
0.741333630131573
40
0.773666926365126
40
0.773666926365126
40
0.789833574481903
40
0.789833574481903
40
0.806000222598679
40
0.806000222598679
40
0.870666815065786
40
0.935333407532893
40
1
40
1
40
1
40
1
41
1
10
68.4459575182747
20
4.12431755110728
30
0
41
1
10
68.4459546727667
20
4.1251585413456
30
0
41
1
10
68.4459516544492
20
4.1248642239874
30
0
41
1
10
68.445945040719
20
4.121898084474
30
0
41
1
10
68.4459414134513
20
4.11903537369088
30
0
41
1
10
68.4459338164665
20
4.11068699666299
30
0
41
1
10
68.4459298491112
20
4.10520734891026
30
0
41
1
10
68.4459174703949
20
4.08489286206961
30
0
41
1
10
68.445908583925
20
4.06618975900153
30
0
41
1
10
68.4458943934136
20
4.03042381888855
30
0
41
1
10
68.4458895193816
20
4.01721479752854
30
0
41
1
10
68.4458794940386
20
3.98820536844454
30
0
41
1
10
68.4458743385539
20
3.97239141834885
30
0
41
1
10
68.445858493888
20
3.92109989497405
30
0
41
1
10
68.4458365568897
20
3.84310094550921
30
0
41
1
10
68.4458014897941
20
3.69818065332612
30
0
41
1
10
68.4457767565948
20
3.58311962895633
30
0
41
1
10
68.4457576979737
20
3.48981322642876
30
0
41
1
10
68.4457512599743
20
3.4575410137046
30
0
41
1
10
68.4457382093845
20
3.39062039235506
30
0
41
1
10
68.4457315864441
20
3.35591599372643
30
0
41
1
10
68.4457182172721
20
3.28439650187744
30
0
41
1
10
68.4457114732537
20
3.24759609175985
30
0
41
1
10
68.4456978609796
20
3.17191559920588
30
0
41
1
10
68.4456909826701
20
3.13297654301081
30
0
41
1
10
68.4456702605049
20
3.01366993963529
30
0
41
1
10
68.4456423631302
20
2.847777710803
30
0
41
1
10
68.4455995073432
20
2.5790529429994
30
0
41
1
10
68.4455700672451
20
2.38671312259115
30
0
41
1
10
68.4455475630343
20
2.23742587738309
30
0
41
1
10
68.4455399906512
20
2.18682353558293
30
0
41
1
10
68.4455285106219
20
2.10963810089186
30
0
41
1
10
68.4455246592398
20
2.08366580006953
30
0
41
1
10
68.4455169384307
20
2.03145985033203
30
0
41
1
10
68.445513069845
20
2.00523211671674
30
0
41
1
10
68.4454936805128
20
1.87347486816668
30
0
41
1
10
68.445462361681
20
1.65871153783314
30
0
41
1
10
68.4454140496556
20
1.32493466589085
30
0
41
1
10
68.4453806221854
20
1.09463319517883
30
0
41
1
10
68.4453635094348
20
0.977484367777521
30
0
0
SPLINE
5
F6
100
AcDbEntity
8
1
62
256
6
ByLayer
370
18
48
1
60
0
100
AcDbSpline
70
4
71
3
72
44
73
40
40
0
40
0
40
0
40
0
40
0.0827002156321349
40
0.0827002156321349
40
0.128747091227728
40
0.128747091227728
40
0.174793966823321
40
0.174793966823321
40
0.266887718014509
40
0.266887718014509
40
0.289911155812305
40
0.289911155812305
40
0.312934593610101
40
0.358981469205694
40
0.358981469205694
40
0.405028344801287
40
0.405028344801287
40
0.45107522039688
40
0.45107522039688
40
0.497122095992472
40
0.497122095992472
40
0.543168971588065
40
0.543168971588065
40
0.635262722779251
40
0.635262722779251
40
0.727356473970436
40
0.738868192869334
40
0.738868192869334
40
0.750379911768232
40
0.750379911768232
40
0.77340334956603
40
0.77340334956603
40
0.819450225161624
40
0.819450225161624
40
0.865497100757218
40
0.865497100757218
40
0.911543976352811
40
0.911543976352811
40
1
40
1
40
1
40
1
41
1
10
69.8958343805949
20
0.296354374610246
30
0
41
1
10
70.2886289799035
20
0.10969146506315
30
0
41
1
10
70.6807077242543
20
-0.0777713595666683
30
0
41
1
10
71.2910700455487
20
-0.368542269781301
30
0
41
1
10
71.5093652105418
20
-0.472321453044259
30
0
41
1
10
71.9462315088623
20
-0.67884768687469
30
0
41
1
10
72.1648005859219
20
-0.781599066878783
30
0
41
1
10
72.8211861402741
20
-1.08773937126696
30
0
41
1
10
73.2596850965105
20
-1.289001086273
30
0
41
1
10
73.8101294227648
20
-1.53453067533636
30
0
41
1
10
73.9201810669393
20
-1.58326584047171
30
0
41
1
10
74.1399087360867
20
-1.67980055514405
30
0
41
1
10
74.4690901143738
20
-1.82326760489525
30
0
41
1
10
74.7971614943042
20
-1.96251615017945
30
0
41
1
10
75.2338140945795
20
-2.14404981955752
30
0
41
1
10
75.4517549405558
20
-2.23274930567314
30
0
41
1
10
75.8871923748272
20
-2.40551171374443
30
0
41
1
10
76.1046851545033
20
-2.48957782833273
30
0
41
1
10
76.5393523871897
20
-2.65277346998522
30
0
41
1
10
76.7565292448571
20
-2.73190409189141
30
0
41
1
10
77.1908166582605
20
-2.88495725946115
30
0
41
1
10
77.4079265974435
20
-2.9588775616609
30
0
41
1
10
78.0594965058497
20
-3.17218987880028
30
0
41
1
10
78.4941973157461
20
-3.30311340088969
30
0
41
1
10
79.3660642086583
20
-3.53958745742852
30
0
41
1
10
79.8578738917496
20
-3.6583856019675
30
0
41
1
10
80.3523643526607
20
-3.75966566002205
30
0
41
1
10
80.4623218256894
20
-3.78173277334832
30
0
41
1
10
80.5173603648284
20
-3.79255155904102
30
0
41
1
10
80.6823578029605
20
-3.82429737164099
30
0
41
1
10
80.7922103503275
20
-3.84451727367255
30
0
41
1
10
81.1213801516306
20
-3.9023194774451
30
0
41
1
10
81.3403080581035
20
-3.93704577090256
30
0
41
1
10
81.7772929151781
20
-3.99878471921559
30
0
41
1
10
81.9953526535946
20
-4.02579921983457
30
0
41
1
10
82.4308971930807
20
-4.07205871168935
30
0
41
1
10
82.6484036356495
20
-4.09135016036515
30
0
41
1
10
83.2832194336465
20
-4.13637842310658
30
0
41
1
10
83.6999827404377
20
-4.15157235229859
30
0
41
1
10
84.1168399889007
20
-4.15236910478279
30
0
0
SPLINE
5
F7
100
AcDbEntity
8
1
62
256
6
ByLayer
370
18
48
1
60
0
100
AcDbSpline
70
4
71
3
72
8
73
4
40
0
40
0
40
0
40
0
40
1
40
1
40
1
40
1
41
1
10
110.313277331541
20
-4.3373378582678
30
0
41
1
10
110.344105039744
20
-4.2875805612768
30
0
41
1
10
110.374964652789
20
-4.23762499533476
30
0
41
1
10
110.40586026144
20
-4.18747207306211
30
0
0
SPLINE
5
F8
100
AcDbEntity
8
1
62
256
6
ByLayer
370
18
48
1
60
0
100
AcDbSpline
70
4
71
3
72
79
73
75
40
0
40
0
40
0
40
0
40
0.049942565819654
40
0.049942565819654
40
0.0624282072745681
40
0.0624282072745681
40
0.0749138487294823
40
0.0998851316393131
40
0.0998851316393131
40
0.124856414549144
40
0.124856414549144
40
0.149827697458975
40
0.149827697458975
40
0.174798980368806
40
0.174798980368806
40
0.18728462182372
40
0.18728462182372
40
0.199770263278634
40
0.199770263278634
40
0.249712829098298
40
0.249712829098298
40
0.299655394917962
40
0.299655394917962
40
0.31214103637288
40
0.31214103637288
40
0.324626677827798
40
0.349597960737631
40
0.349597960737631
40
0.399540526557298
40
0.399540526557298
40
0.424511809467131
40
0.424511809467131
40
0.436997450922048
40
0.436997450922048
40
0.449483092376965
40
0.499425658196626
40
0.499425658196626
40
0.549368224016288
40
0.549368224016288
40
0.574339506926119
40
0.574339506926119
40
0.599310789835949
40
0.599310789835949
40
0.62428207274578
40
0.62428207274578
40
0.649253355655611
40
0.649253355655611
40
0.661738997110526
40
0.661738997110526
40
0.674224638565442
40
0.674224638565442
40
0.699195921475273
40
0.699195921475273
40
0.749138487294934
40
0.749138487294934
40
0.774109770204766
40
0.774109770204766
40
0.786595411659682
40
0.786595411659682
40
0.799081053114598
40
0.799081053114598
40
0.849023618934255
40
0.849023618934255
40
0.898966184753912
40
0.898966184753912
40
0.911451826208826
40
0.911451826208826
40
0.923937467663741
40
0.923937467663741
40
0.948908750573573
40
0.948908750573573
40
0.998851316393239
40
0.998851316393239
40
1
40
1
40
1
40
1
41
1
10
110.31327733154
20
-4.33733785829332
30
0
41
1
10
109.876941302499
20
-4.31164599450818
30
0
41
1
10
109.440853634271
20
-4.2694387208584
30
0
41
1
10
108.894892142871
20
-4.19655532448093
30
0
41
1
10
108.78561823155
20
-4.18096637385099
30
0
41
1
10
108.567154471655
20
-4.1478185459693
30
0
41
1
10
108.239671363391
20
-4.09515769597263
30
0
41
1
10
107.91269675667
20
-4.03379535473243
30
0
41
1
10
107.47694573404
20
-3.94445444455115
30
0
41
1
10
107.259175042526
20
-3.89602250096368
30
0
41
1
10
106.823541215316
20
-3.79191909701851
30
0
41
1
10
106.605732961662
20
-3.73619612222922
30
0
41
1
10
106.169836295669
20
-3.61767758453104
30
0
41
1
10
105.951717109712
20
-3.55491691453634
30
0
41
1
10
105.624119817346
20
-3.45568803752604
30
0
41
1
10
105.514801125785
20
-3.42174768071578
30
0
41
1
10
105.296337858423
20
-3.352309966977
30
0
41
1
10
105.187176237756
20
-3.3168082932859
30
0
41
1
10
104.641645051859
20
-3.13549311365963
30
0
41
1
10
104.206087390759
20
-2.97827739971226
30
0
41
1
10
103.334622540376
20
-2.64264588523505
30
0
41
1
10
102.898740324186
20
-2.46419654860787
30
0
41
1
10
102.352482747323
20
-2.22971841967524
30
0
41
1
10
102.243135253722
20
-2.1822408323242
30
0
41
1
10
102.024667750232
20
-2.08637614036098
30
0
41
1
10
101.69716699788
20
-1.9411547980423
30
0
41
1
10
101.370114716392
20
-1.79194484585716
30
0
41
1
10
100.716230591281
20
-1.48891585620697
30
0
41
1
10
100.280606109747
20
-1.28074275820757
30
0
41
1
10
99.6261766447947
20
-0.961975632943421
30
0
41
1
10
99.4078680995753
20
-0.854635103571724
30
0
41
1
10
99.0799526448623
20
-0.692389059141135
30
0
41
1
10
98.9705991135393
20
-0.638114679755603
30
0
41
1
10
98.7521135079161
20
-0.529417794693501
30
0
41
1
10
98.2062110104883
20
-0.257186254574606
30
0
41
1
10
97.6614830389882
20
0.0167233959384134
30
0
41
1
10
96.7894872646743
20
0.453248274098598
30
0
41
1
10
96.3532789558722
20
0.670655458645484
30
0
41
1
10
95.6971006368421
20
0.992378240388973
30
0
41
1
10
95.4785945911779
20
1.09865325679712
30
0
41
1
10
95.0420260294105
20
1.30861713473962
30
0
41
1
10
94.8239179075304
20
1.41232785004078
30
0
41
1
10
94.3877871885105
20
1.61671227483961
30
0
41
1
10
94.1697670191741
20
1.71739131785213
30
0
41
1
10
93.7336288431872
20
1.91537435979365
30
0
41
1
10
93.5155071141465
20
2.01267036103655
30
0
41
1
10
93.1880119645314
20
2.15564480462328
30
0
41
1
10
93.078795626034
20
2.20280966591631
30
0
41
1
10
92.8602365924843
20
2.29610921305496
30
0
41
1
10
92.7508684160711
20
2.34225456043342
30
0
41
1
10
92.4227017120704
20
2.47900442882963
30
0
41
1
10
92.2042298633507
20
2.56775466486931
30
0
41
1
10
91.5492739334017
20
2.82606297473791
30
0
41
1
10
91.1132877351068
20
2.98774194510625
30
0
41
1
10
90.4588248875709
20
3.2123729110659
30
0
41
1
10
90.2406048532972
20
3.2842899442324
30
0
41
1
10
89.9129976747832
20
3.38746611140462
30
0
41
1
10
89.8037461657461
20
3.42107115978393
30
0
41
1
10
89.585110972866
20
3.48666015119943
30
0
41
1
10
89.4756777467512
20
3.51865780091345
30
0
41
1
10
88.9287536288641
20
3.67428019395206
30
0
41
1
10
88.4923091205539
20
3.78473013542617
30
0
41
1
10
87.6196499188351
20
3.97587097389118
30
0
41
1
10
87.183487304275
20
4.05660435284332
30
0
41
1
10
86.6372208522755
20
4.13793393800574
30
0
41
1
10
86.5279120229503
20
4.1532194917923
30
0
41
1
10
86.3091499663508
20
4.18180598235702
30
0
41
1
10
86.1996519925198
20
4.19511137227792
30
0
41
1
10
85.8714385751689
20
4.23195877089873
30
0
41
1
10
85.6528851203125
20
4.25245005434536
30
0
41
1
10
84.9976149111495
20
4.30165952600038
30
0
41
1
10
84.5615493006645
20
4.31816149013926
30
0
41
1
10
84.1149493110764
20
4.31815194813359
30
0
41
1
10
84.1049081776988
20
4.318143016806
30
0
41
1
10
84.0948667977842
20
4.31812536854824
30
0
0
SPLINE
5
F9
100
AcDbEntity
8
1
62
256
6
ByLayer
370
18
48
1
60
0
100
AcDbSpline
70
4
71
3
72
34
73
30
40
0
40
0
40
0
40
0
40
0.103417963287409
40
0.103417963287409
40
0.206835926574818
40
0.206835926574818
40
0.258544908218522
40
0.258544908218522
40
0.284399399040377
40
0.284399399040377
40
0.310253889862232
40
0.310253889862232
40
0.413671853149657
40
0.413671853149657
40
0.517089816437081
40
0.517089816437081
40
0.620507779724506
40
0.620507779724506
40
0.723925743011931
40
0.723925743011931
40
0.827343706299356
40
0.827343706299356
40
0.853198197121216
40
0.853198197121216
40
0.879052687943076
40
0.879052687943076
40
0.930761669586791
40
0.930761669586791
40
1
40
1
40
1
40
1
41
1
10
110.405860261438
20
-4.18747207306203
30
0
41
1
10
109.967289007153
20
-4.16507279523609
30
0
41
1
10
109.529878856666
20
-4.12643843971892
30
0
41
1
10
108.655525552772
20
-4.01801207217622
30
0
41
1
10
108.218582477087
20
-3.94821390474954
30
0
41
1
10
107.562180756705
20
-3.82123777804909
30
0
41
1
10
107.343217448134
20
-3.77519931747125
30
0
41
1
10
107.014295669742
20
-3.70066523065074
30
0
41
1
10
106.904571340202
20
-3.67490311397796
30
0
41
1
10
106.684980894572
20
-3.62162134514776
30
0
41
1
10
106.575185187828
20
-3.59412533391716
30
0
41
1
10
106.027240056135
20
-3.45262896390207
30
0
41
1
10
105.591085213953
20
-3.32620049755351
30
0
41
1
10
104.721355751157
20
-3.05022046813704
30
0
41
1
10
104.287771200174
20
-2.90071962777347
30
0
41
1
10
103.421290733744
20
-2.58161948333699
30
0
41
1
10
102.988421610236
20
-2.41192535544067
30
0
41
1
10
102.121612097581
20
-2.05547243670532
30
0
41
1
10
101.687671533827
20
-1.86873541163146
30
0
41
1
10
100.816854849652
20
-1.48151691734878
30
0
41
1
10
100.37998203518
20
-1.28096865964912
30
0
41
1
10
99.830891899842
20
-1.02379607506214
30
0
41
1
10
99.720989300896
20
-0.972067188453877
30
0
41
1
10
99.5014438096832
20
-0.868302782779267
30
0
41
1
10
99.3917344034408
20
-0.816236354672725
30
0
41
1
10
99.0627481581921
20
-0.659584653895791
30
0
41
1
10
98.8436117387699
20
-0.554550525761073
30
0
41
1
10
98.331229172281
20
-0.308011129738645
30
0
41
1
10
98.0380461984545
20
-0.166206152093622
30
0
41
1
10
97.7447084684822
20
-0.0243430329220757
30
0
0
SPLINE
5
FA
100
AcDbEntity
8
1
62
256
6
ByLayer
370
18
48
1
60
0
100
AcDbSpline
70
4
71
3
72
10
73
6
40
0
40
0
40
0
40
0
40
0.5
40
0.5
40
1
40
1
40
1
40
1
41
1
10
110.40586026144
20
-4.18747207306214
30
0
41
1
10
110.406534504967
20
-4.18637757178189
30
0
41
1
10
110.407217228881
20
-4.18522569604406
30
0
41
1
10
110.408547344141
20
-4.18286742555455
30
0
41
1
10
110.409184726502
20
-4.18167508100484
30
0
41
1
10
110.409704755827
20
-4.18062312464275
30
0
0
SPLINE
5
FB
100
AcDbEntity
8
1
62
256
6
ByLayer
370
18
48
1
60
0
100
AcDbSpline
70
4
71
3
72
10
73
6
40
0
40
0
40
0
40
0
40
0.5
40
0.5
40
1
40
1
40
1
40
1
41
1
10
110.409854036668
20
-4.17658556501482
30
0
41
1
10
110.410038176701
20
-4.17674259451891
30
0
41
1
10
110.410137029958
20
-4.17713501595841
30
0
41
1
10
110.410106223706
20
-4.17847950209998
30
0
41
1
10
110.40996990497
20
-4.17944192997342
30
0
41
1
10
110.409704755827
20
-4.18062312464275
30
0
0
SPLINE
5
FC
100
AcDbEntity
8
1
62
256
6
ByLayer
370
18
48
1
60
0
100
AcDbSpline
70
4
71
3
72
8
73
4
40
0
40
0
40
0
40
0
40
1
40
1
40
1
40
1
41
1
10
83.8440757392363
20
4.14979271506496
30
0
41
1
10
83.9356493426794
20
4.15134765352684
30
0
41
1
10
84.0272188678466
20
4.15220758224388
30
0
41
1
10
84.1187929881189
20
4.15237273227294
30
0
0
SPLINE
5
FD
100
AcDbEntity
8
1
62
256
6
ByLayer
370
18
48
1
60
0
100
AcDbSpline
70
4
71
3
72
36
73
32
40
0
40
0
40
0
40
0
40
0.0165224167979718
40
0.0165224167979718
40
0.114870175118166
40
0.114870175118166
40
0.164044054278264
40
0.164044054278264
40
0.188630993858312
40
0.188630993858312
40
0.213217933438361
40
0.213217933438361
40
0.311565691758566
40
0.311565691758566
40
0.409913450078771
40
0.409913450078771
40
0.508261208398976
40
0.508261208398976
40
0.606608966719181
40
0.606608966719181
40
0.704956725039386
40
0.704956725039386
40
0.729543664619437
40
0.729543664619437
40
0.754130604199488
40
0.754130604199488
40
0.80330448335959
40
0.80330448335959
40
0.901652241679795
40
0.901652241679795
40
1
40
1
40
1
40
1
41
1
10
97.0931220621563
20
0.300808953805046
30
0
41
1
10
97.1668270599641
20
0.265364631481674
30
0
41
1
10
97.2405089035586
20
0.229894852164506
30
0
41
1
10
97.7526409945114
20
-0.0168207871363393
30
0
41
1
10
98.190443171674
20
-0.228629582846338
30
0
41
1
10
98.8476134450489
20
-0.544152494785607
30
0
41
1
10
99.0667463348136
20
-0.648965515260386
30
0
41
1
10
99.3957250593564
20
-0.805302337291494
30
0
41
1
10
99.5054316071917
20
-0.857266563807542
30
0
41
1
10
99.7249706629508
20
-0.96083195454554
30
0
41
1
10
99.8348692157766
20
-1.01246379374106
30
0
41
1
10
100.383944340287
20
-1.26916781535681
30
0
41
1
10
100.82081380376
20
-1.46939143800404
30
0
41
1
10
101.691638157636
20
-1.85605637795558
30
0
41
1
10
102.125588164259
20
-2.04256716140705
30
0
41
1
10
102.992416401602
20
-2.39867127474167
30
0
41
1
10
103.425296424086
20
-2.5682399629741
30
0
41
1
10
104.291798684701
20
-2.88718477590814
30
0
41
1
10
104.72539267771
20
-3.03665766403282
30
0
41
1
10
105.595126941709
20
-3.31268372869803
30
0
41
1
10
106.031278151772
20
-3.43918471134319
30
0
41
1
10
106.579212417671
20
-3.58082990557551
30
0
41
1
10
106.689005471949
20
-3.60835806832805
30
0
41
1
10
106.908590963043
20
-3.66171303108661
30
0
41
1
10
107.018312437857
20
-3.68751622475051
30
0
41
1
10
107.347226416752
20
-3.76218271111239
30
0
41
1
10
107.566185938103
20
-3.8083214704333
30
0
41
1
10
108.222578905254
20
-3.9356347100767
30
0
41
1
10
108.659519371722
20
-4.00570592254445
30
0
41
1
10
109.533871332401
20
-4.11477131945642
30
0
41
1
10
109.971282968785
20
-4.15377155131202
30
0
41
1
10
110.409854037493
20
-4.17658556505683
30
0
0
SPLINE
5
FE
100
AcDbEntity
8
1
62
256
6
ByLayer
370
18
48
1
60
0
100
AcDbSpline
70
4
71
3
72
49
73
45
40
0
40
0
40
0
40
0
40
0.0624999999999991
40
0.0624999999999991
40
0.0937499999999986
40
0.109374999999999
40
0.124999999999999
40
0.124999999999999
40
0.187500000000001
40
0.250000000000002
40
0.312500000000004
40
0.312500000000004
40
0.343750000000004
40
0.343750000000004
40
0.359375000000005
40
0.359375000000005
40
0.375000000000005
40
0.437500000000005
40
0.437500000000005
40
0.468750000000005
40
0.468750000000005
40
0.500000000000005
40
0.500000000000005
40
0.562500000000005
40
0.562500000000005
40
0.593750000000005
40
0.593750000000005
40
0.625000000000005
40
0.625000000000005
40
0.687500000000005
40
0.687500000000005
40
0.718750000000006
40
0.718750000000006
40
0.750000000000006
40
0.750000000000006
40
0.812500000000007
40
0.812500000000007
40
0.828125000000006
40
0.828125000000006
40
0.843750000000006
40
0.875000000000005
40
0.875000000000005
40
0.937500000000003
40
1
40
1
40
1
40
1
41
1
10
110.3804022569
20
-0.278365126852322
30
0
41
1
10
110.365592998113
20
-0.400401161780081
30
0
41
1
10
110.352629116556
20
-0.521839623185457
30
0
41
1
10
110.335509105613
20
-0.703059136793513
30
0
41
1
10
110.327531677143
20
-0.793434081879695
30
0
41
1
10
110.317962000907
20
-0.913451131624441
30
0
41
1
10
110.313518256737
20
-0.973294305965197
30
0
41
1
10
110.302854489993
20
-1.12212818460989
30
0
41
1
10
110.288560051152
20
-1.35623351395469
30
0
41
1
10
110.273712108013
20
-1.69554627969364
30
0
41
1
10
110.26732176979
20
-1.91384903957618
30
0
41
1
10
110.263593465821
20
-2.07454401568921
30
0
41
1
10
110.262528924952
20
-2.12760298150403
30
0
41
1
10
110.261175371487
20
-2.20641743886861
30
0
41
1
10
110.260764539289
20
-2.23257991700345
30
0
41
1
10
110.260022984491
20
-2.28446893831688
30
0
41
1
10
110.258368973584
20
-2.41317965369245
30
0
41
1
10
110.257647943588
20
-2.53686649986892
30
0
41
1
10
110.257538593115
20
-2.68047344336492
30
0
41
1
10
110.257629132556
20
-2.72753840317316
30
0
41
1
10
110.25805293761
20
-2.82004723724066
30
0
41
1
10
110.258385438628
20
-2.86532564123004
30
0
41
1
10
110.259732116304
20
-2.99824226044052
30
0
41
1
10
110.261091452157
20
-3.0829736656635
30
0
41
1
10
110.263846151967
20
-3.20424314787908
30
0
41
1
10
110.264886080481
20
-3.24373742903097
30
0
41
1
10
110.267215494011
20
-3.32053145114338
30
0
41
1
10
110.268503933936
20
-3.35781041348613
30
0
41
1
10
110.272768677359
20
-3.46631503276308
30
0
41
1
10
110.276140368465
20
-3.53421480061667
30
0
41
1
10
110.282174695937
20
-3.62938105073968
30
0
41
1
10
110.284352273885
20
-3.66001014356195
30
0
41
1
10
110.289054885793
20
-3.71874843416697
30
0
41
1
10
110.291581622773
20
-3.74689085859944
30
0
41
1
10
110.299752227404
20
-3.8276573245825
30
0
41
1
10
110.305982578313
20
-3.87662746412397
30
0
41
1
10
110.315019077124
20
-3.93170771692834
30
0
41
1
10
110.316890024473
20
-3.94242050551901
30
0
41
1
10
110.32075299288
20
-3.96316598980269
30
0
41
1
10
110.326732865864
20
-3.99328845785979
30
0
41
1
10
110.333297808788
20
-4.02044779787397
30
0
41
1
10
110.347292080801
20
-4.07085895357235
30
0
41
1
10
110.368250850061
20
-4.12766737901944
30
0
41
1
10
110.394840703309
20
-4.16378261145559
30
0
41
1
10
110.409854036727
20
-4.17658556506314
30
0
0
SPLINE
5
FF
100
AcDbEntity
8
1
62
256
6
ByLayer
370
13
48
1
60
0
100
AcDbSpline
70
4
71
3
72
8
73
4
40
0
40
0
40
0
40
0
40
1
40
1
40
1
40
1
41
1
10
68.4900349594788
20
4.28181540921804
30
0
41
1
10
68.4896027732762
20
4.23026091808072
30
0
41
1
10
68.4891658911858
20
4.17870678860254
30
0
41
1
10
68.4887243189358
20
4.12715303873523
30
0
0
SPLINE
5
100
100
AcDbEntity
8
1
62
256
6
ByLayer
370
18
48
1
60
0
100
AcDbSpline
70
4
71
3
72
102
73
98
40
0
40
0
40
0
40
0
40
0.0471520186750038
40
0.0471520186750038
40
0.0707280280125063
40
0.0707280280125063
40
0.0943040373500088
40
0.0943040373500088
40
0.117880046687511
40
0.117880046687511
40
0.141456056025014
40
0.141456056025014
40
0.165032065362516
40
0.165032065362516
40
0.188608074700019
40
0.188608074700019
40
0.235760093375025
40
0.235760093375025
40
0.259336102712528
40
0.259336102712528
40
0.282912112050031
40
0.282912112050031
40
0.294700116718783
40
0.294700116718783
40
0.306488121387534
40
0.306488121387534
40
0.330064130725036
40
0.330064130725036
40
0.353640140062538
40
0.353640140062538
40
0.37721614940004
40
0.37721614940004
40
0.400792158737542
40
0.400792158737542
40
0.412580163406293
40
0.412580163406293
40
0.424368168075044
40
0.424368168075044
40
0.447944177412546
40
0.447944177412546
40
0.471520186750047
40
0.471520186750047
40
0.495096196087549
40
0.495096196087549
40
0.518672205425051
40
0.518672205425051
40
0.530460210093802
40
0.530460210093802
40
0.542248214762553
40
0.542248214762553
40
0.565824224100056
40
0.565824224100056
40
0.589400233437559
40
0.589400233437559
40
0.60118823810631
40
0.60118823810631
40
0.61297624277506
40
0.61297624277506
40
0.636552252112558
40
0.636552252112558
40
0.648340256781307
40
0.648340256781307
40
0.660128261450057
40
0.660128261450057
40
0.683704270787555
40
0.683704270787555
40
0.707280280125053
40
0.707280280125053
40
0.730856289462551
40
0.730856289462551
40
0.75443229880005
40
0.75443229880005
40
0.766220303468799
40
0.766220303468799
40
0.778008308137548
40
0.778008308137548
40
0.789796312806297
40
0.789796312806297
40
0.801584317475046
40
0.801584317475046
40
0.825160326812544
40
0.825160326812544
40
0.848736336150043
40
0.848736336150043
40
0.872312345487541
40
0.872312345487541
40
0.884100350156289
40
0.884100350156289
40
0.895888354825037
40
0.895888354825037
40
0.919464364162533
40
0.919464364162533
40
0.943040373500028
40
0.943040373500028
40
0.990192392175023
40
0.990192392175023
40
1
40
1
40
1
40
1
41
1
10
68.4900349594788
20
4.28181540921804
30
0
41
1
10
68.9260109171299
20
4.29616986756164
30
0
41
1
10
69.3622503646895
20
4.29365238681251
30
0
41
1
10
70.0176937101124
20
4.26559519171323
30
0
41
1
10
70.2363689483606
20
4.25218554893291
30
0
41
1
10
70.6740843981689
20
4.21730229943756
30
0
41
1
10
70.8926575438973
20
4.19586612045549
30
0
41
1
10
71.3293517679911
20
4.14509200284411
30
0
41
1
10
71.5474557206868
20
4.11574880546428
30
0
41
1
10
71.9831608775233
20
4.04905557780165
30
0
41
1
10
72.2008103521788
20
4.01171805424826
30
0
41
1
10
72.6364423636756
20
3.92956417568163
30
0
41
1
10
72.8543900815101
20
3.88473655853744
30
0
41
1
10
73.2906301727822
20
3.78764565550429
30
0
41
1
10
73.5089750792028
20
3.7353816364915
30
0
41
1
10
74.1649830162362
20
3.56811055932863
30
0
41
1
10
74.6013849882532
20
3.44314887902468
30
0
41
1
10
75.2552614942937
20
3.23651963397791
30
0
41
1
10
75.4730942987212
20
3.16443384533415
30
0
41
1
10
75.9085434028407
20
3.01380686664183
30
0
41
1
10
76.1262074912333
20
2.93531654405396
30
0
41
1
10
76.4532892581225
20
2.81381288033651
30
0
41
1
10
76.5624049919774
20
2.77267314409815
30
0
41
1
10
76.7808189667556
20
2.68913280887173
30
0
41
1
10
76.8901477727212
20
2.64672099782541
30
0
41
1
10
77.2182192319856
20
2.51769651616541
30
0
41
1
10
77.4366934190237
20
2.42941001371287
30
0
41
1
10
77.8730110820208
20
2.24805084092432
30
0
41
1
10
78.0908609099972
20
2.15498569112481
30
0
41
1
10
78.5260753402678
20
1.9642597244152
30
0
41
1
10
78.7434967746103
20
1.86668949838312
30
0
41
1
10
79.1790116154871
20
1.66905324542586
30
0
41
1
10
79.3970471860954
20
1.56889375831065
30
0
41
1
10
79.7244263062304
20
1.41649649596002
30
0
41
1
10
79.8336087524771
20
1.36534029094042
30
0
41
1
10
80.0520887949672
20
1.26231683976044
30
0
41
1
10
80.1614267847921
20
1.21043025331534
30
0
41
1
10
80.4893372445633
20
1.0538558734178
30
0
41
1
10
80.7075779485285
20
0.948354867069298
30
0
41
1
10
81.1434288728793
20
0.735314444302361
30
0
41
1
10
81.3610705043242
20
0.627836273622023
30
0
41
1
10
81.7964131075508
20
0.412217212784327
30
0
41
1
10
82.0140772787365
20
0.304004133142598
30
0
41
1
10
82.4493636231804
20
0.0867123603975415
30
0
41
1
10
82.6670749036239
20
-0.0221880792580578
30
0
41
1
10
82.9942365041305
20
-0.184918465909192
30
0
41
1
10
83.1033764891615
20
-0.239084660536491
30
0
41
1
10
83.321811590365
20
-0.347296883269621
30
0
41
1
10
83.4311548354423
20
-0.401366914952348
30
0
41
1
10
83.7590210894144
20
-0.563238288926215
30
0
41
1
10
83.9772819317078
20
-0.670653817430548
30
0
41
1
10
84.4132247371372
20
-0.884372395810487
30
0
41
1
10
84.6309015654692
20
-0.990685428605246
30
0
41
1
10
84.9570427386295
20
-1.14917504732023
30
0
41
1
10
85.0657132998603
20
-1.20180314021101
30
0
41
1
10
85.2832211571834
20
-1.30616767169497
30
0
41
1
10
85.3920428668649
20
-1.35793520277556
30
0
41
1
10
85.7186594864269
20
-1.51210139696448
30
0
41
1
10
85.9366084973323
20
-1.61335965835659
30
0
41
1
10
86.2638100877867
20
-1.76302630401364
30
0
41
1
10
86.3729242262373
20
-1.81254357238498
30
0
41
1
10
86.5912495744399
20
-1.91082578053778
30
0
41
1
10
86.7005114461813
20
-1.95961348279803
30
0
41
1
10
87.0279900115204
20
-2.10460612510437
30
0
41
1
10
87.2459218752002
20
-2.19942702590023
30
0
41
1
10
87.6814042400595
20
-2.38468834316109
30
0
41
1
10
87.8989624615625
20
-2.47511291596174
30
0
41
1
10
88.3342804075322
20
-2.6506491718377
30
0
41
1
10
88.5520202816845
20
-2.73580229037111
30
0
41
1
10
88.9876234283476
20
-2.90096118200253
30
0
41
1
10
89.2054861733336
20
-2.98096655654342
30
0
41
1
10
89.5324065443875
20
-3.09701570122607
30
0
41
1
10
89.6414009331015
20
-3.13503854256615
30
0
41
1
10
89.859438197521
20
-3.20973949984756
30
0
41
1
10
89.9685301017523
20
-3.24642144197622
30
0
41
1
10
90.1865398791749
20
-3.31810252569864
30
0
41
1
10
90.2954900950753
20
-3.35311503731589
30
0
41
1
10
90.5133791768338
20
-3.42137568784517
30
0
41
1
10
90.6223131951015
20
-3.4546311491693
30
0
41
1
10
90.9490652643164
20
-3.55182114310514
30
0
41
1
10
91.1668349685369
20
-3.61317872320615
30
0
41
1
10
91.6023261299077
20
-3.72898233136328
30
0
41
1
10
91.8200402787494
20
-3.78343927861914
30
0
41
1
10
92.2553416362146
20
-3.8854590405553
30
0
41
1
10
92.472952063017
20
-3.93298604280801
30
0
41
1
10
92.7997482455307
20
-3.99861603709195
30
0
41
1
10
92.9087399328462
20
-4.01955450117649
30
0
41
1
10
93.1268515427088
20
-4.05954171651337
30
0
41
1
10
93.23598863709
20
-4.07859247445739
30
0
41
1
10
93.5630062617362
20
-4.13278227764761
30
0
41
1
10
93.7807046774749
20
-4.16497763432827
30
0
41
1
10
94.2160431377158
20
-4.22125016883817
30
0
41
1
10
94.4336687840128
20
-4.24534540730394
30
0
41
1
10
95.0866243362623
20
-4.30554111929945
30
0
41
1
10
95.5219813905722
20
-4.32962823919698
30
0
41
1
10
96.0482604025208
20
-4.3389147031414
30
0
41
1
10
96.1388919637585
20
-4.33980136596873
30
0
41
1
10
96.2295394416017
20
-4.33996780588521
30
0
0
SPLINE
5
101
100
AcDbEntity
8
1
62
256
6
ByLayer
370
18
48
1
60
0
100
AcDbSpline
70
4
71
3
72
54
73
50
40
0
40
0
40
0
40
0
40
0.0928634438510762
40
0.0928634438510762
40
0.116079304813846
40
0.116079304813846
40
0.139295165776615
40
0.139295165776615
40
0.185726887702152
40
0.185726887702152
40
0.232158609627689
40
0.232158609627689
40
0.278590331553226
40
0.278590331553226
40
0.325022053478762
40
0.325022053478762
40
0.371453775404299
40
0.371453775404299
40
0.464317219255375
40
0.464317219255375
40
0.510748941180915
40
0.510748941180915
40
0.557180663106454
40
0.557180663106454
40
0.603612385031994
40
0.603612385031994
40
0.626828245994763
40
0.626828245994763
40
0.650044106957533
40
0.650044106957533
40
0.696475828883072
40
0.696475828883072
40
0.742907550808611
40
0.742907550808611
40
0.789339272734151
40
0.789339272734151
40
0.83577099465969
40
0.83577099465969
40
0.85898685562246
40
0.85898685562246
40
0.882202716585229
40
0.882202716585229
40
0.928634438510767
40
0.928634438510767
40
0.975066160436304
40
0.975066160436304
40
0.998282021399072
40
0.998282021399072
40
1
40
1
40
1
40
1
41
1
10
68.4887243189359
20
4.12715303873523
30
0
41
1
10
68.9275962891513
20
4.14404911006503
30
0
41
1
10
69.3665594556803
20
4.142554453987
30
0
41
1
10
69.9162821838528
20
4.11948281277259
30
0
41
1
10
70.0262762176835
20
4.11380814645909
30
0
41
1
10
70.246374982787
20
4.10038723730131
30
0
41
1
10
70.3565405005835
20
4.09263549307732
30
0
41
1
10
70.6865271681144
20
4.06640604110501
30
0
41
1
10
70.9059735959349
20
4.04495069813549
30
0
41
1
10
71.3439460070468
20
3.99465544562452
30
0
41
1
10
71.5624574538402
20
3.96582987035131
30
0
41
1
10
71.9985478611173
20
3.90144369158745
30
0
41
1
10
72.2161590204096
20
3.86581310248099
30
0
41
1
10
72.6510733283327
20
3.7869739291655
30
0
41
1
10
72.8683535919693
20
3.74382118954799
30
0
41
1
10
73.3026794522653
20
3.65056130710352
30
0
41
1
10
73.5197379066823
20
3.60043672296692
30
0
41
1
10
74.1711798572476
20
3.43967834533549
30
0
41
1
10
74.6057843856681
20
3.3187064575115
30
0
41
1
10
75.2587535520643
20
3.11910655748147
30
0
41
1
10
75.4765771795888
20
3.04954396510141
30
0
41
1
10
75.912501928446
20
2.90466905375089
30
0
41
1
10
76.1306430628137
20
2.82934989795484
30
0
41
1
10
76.5683195464933
20
2.67280842184661
30
0
41
1
10
76.7878220238013
20
2.59160417515449
30
0
41
1
10
77.1181009787653
20
2.46581581394443
30
0
41
1
10
77.2282299752845
20
2.42327034361597
30
0
41
1
10
77.4482585372527
20
2.33710884134879
30
0
41
1
10
77.5582032256471
20
2.2934759055056
30
0
41
1
10
77.8878169570889
20
2.16099327027132
30
0
41
1
10
78.1072636609106
20
2.07054812936929
30
0
41
1
10
78.5456389115184
20
1.8856417412124
30
0
41
1
10
78.7646191967802
20
1.79122213116443
30
0
41
1
10
79.2031596070773
20
1.59930554206454
30
0
41
1
10
79.4226681670443
20
1.50178109663412
30
0
41
1
10
79.8620881851741
20
1.3039644205837
30
0
41
1
10
80.0820034404979
20
1.2036680780472
30
0
41
1
10
80.4121875010613
20
1.0513325913995
30
0
41
1
10
80.5223179746625
20
1.00022926731714
30
0
41
1
10
80.7421298769872
20
0.897669810455113
30
0
41
1
10
80.8518796497069
20
0.846178230012669
30
0
41
1
10
81.1806928099023
20
0.691133890611923
30
0
41
1
10
81.3993370487593
20
0.587059447012848
30
0
41
1
10
81.8359126268909
20
0.378557824090222
30
0
41
1
10
82.0538161748659
20
0.274051061000563
30
0
41
1
10
82.3801530437689
20
0.116944362427176
30
0
41
1
10
82.4888568272872
20
0.0645482730461424
30
0
41
1
10
82.6055741665309
20
0.0083722416656826
30
0
41
1
10
82.6136159995867
20
0.0045020956155497
30
0
41
1
10
82.6216576769011
20
0.0006324362243504
30
0
0
SPLINE
5
102
100
AcDbEntity
8
1
62
256
6
ByLayer
370
18
48
1
60
0
100
AcDbSpline
70
4
71
3
72
56
73
52
40
0
40
0
40
0
40
0
40
0.0151311912367043
40
0.0151311912367043
40
0.0375145732540539
40
0.0375145732540539
40
0.0598979552714041
40
0.0598979552714041
40
0.104664719306101
40
0.104664719306101
40
0.149431483340798
40
0.149431483340798
40
0.171814865358147
40
0.171814865358147
40
0.194198247375496
40
0.194198247375496
40
0.238965011410193
40
0.238965011410193
40
0.283731775444891
40
0.283731775444891
40
0.328498539479589
40
0.328498539479589
40
0.373265303514286
40
0.373265303514286
40
0.395648685531635
40
0.395648685531635
40
0.418032067548983
40
0.418032067548983
40
0.462798831583679
40
0.462798831583679
40
0.507565595618374
40
0.507565595618374
40
0.552332359653069
40
0.552332359653069
40
0.641865887722457
40
0.641865887722457
40
0.686632651757151
40
0.686632651757151
40
0.731399415791845
40
0.731399415791845
40
0.776166179826539
40
0.776166179826539
40
0.820932943861233
40
0.820932943861233
40
0.865699707895927
40
0.865699707895927
40
0.888083089913273
40
0.888083089913273
40
0.910466471930619
40
0.910466471930619
40
1
40
1
40
1
40
1
41
1
10
83.1416926947811
20
-0.259265338613119
30
0
41
1
10
83.0682522485396
20
-0.224249303421118
30
0
41
1
10
82.9948059598706
20
-0.189179101828785
30
0
41
1
10
82.8126986341306
20
-0.102085842625058
30
0
41
1
10
82.7040357615562
20
-0.0499826493317812
30
0
41
1
10
82.4866497235698
20
0.0543977716186248
30
0
41
1
10
82.3779282669423
20
0.106680611125114
30
0
41
1
10
82.0515373623699
20
0.263450017315677
30
0
41
1
10
81.8335990061404
20
0.367739641892768
30
0
41
1
10
81.396960115293
20
0.575831389554708
30
0
41
1
10
81.1782852148127
20
0.679709227135078
30
0
41
1
10
80.8494276903883
20
0.834468030157439
30
0
41
1
10
80.7396636351113
20
0.885866404238357
30
0
41
1
10
80.5198251673909
20
0.988245326869816
30
0
41
1
10
80.4096822512423
20
1.03926102286889
30
0
41
1
10
80.0794546474747
20
1.19134631427812
30
0
41
1
10
79.8595106148981
20
1.29148933970237
30
0
41
1
10
79.4200331398094
20
1.48902631112563
30
0
41
1
10
79.2004963076687
20
1.58642527032268
30
0
41
1
10
78.7618992566377
20
1.77812035073234
30
0
41
1
10
78.5428876478914
20
1.87243760825629
30
0
41
1
10
78.1044467905939
20
2.05714989875119
30
0
41
1
10
77.8849685539921
20
2.14750910361337
30
0
41
1
10
77.5553111021185
20
2.27988320559973
30
0
41
1
10
77.4453524160376
20
2.32348327917987
30
0
41
1
10
77.2252973666169
20
2.40958683566831
30
0
41
1
10
77.1151572058793
20
2.45210650628195
30
0
41
1
10
76.7848359048639
20
2.57783274714683
30
0
41
1
10
76.5653035431321
20
2.65901156071507
30
0
41
1
10
76.1275632556903
20
2.81553063131727
30
0
41
1
10
75.9093861247789
20
2.89084792972037
30
0
41
1
10
75.4733845576949
20
3.03573425212511
30
0
41
1
10
75.2555223731084
20
3.10531506295729
30
0
41
1
10
74.6024393322935
20
3.30501141587698
30
0
41
1
10
74.1677597792024
20
3.42609965348146
30
0
41
1
10
73.5162052975969
20
3.58710490123465
30
0
41
1
10
73.2991086150919
20
3.6373229219341
30
0
41
1
10
72.8647057962749
20
3.73078971884951
30
0
41
1
10
72.6473876483993
20
3.77405691115311
30
0
41
1
10
72.212400306169
20
3.85314916288414
30
0
41
1
10
71.9947521978396
20
3.88891663101265
30
0
41
1
10
71.5585880029453
20
3.95359357156175
30
0
41
1
10
71.3400418569578
20
3.98257477975128
30
0
41
1
10
70.9020068619602
20
4.03320399131738
30
0
41
1
10
70.6825318091578
20
4.05483710319027
30
0
41
1
10
70.3525057534652
20
4.08134891908853
30
0
41
1
10
70.2423276277287
20
4.0891974641047
30
0
41
1
10
70.0222024800358
20
4.10281686425373
30
0
41
1
10
69.9121950156315
20
4.10859324245618
30
0
41
1
10
69.3624038279204
20
4.13218542190452
30
0
41
1
10
68.9233812978987
20
4.13413448299465
30
0
41
1
10
68.4844461301987
20
4.11772920508253
30
0
0
SPLINE
5
103
100
AcDbEntity
8
1
62
256
6
ByLayer
370
18
48
1
60
0
100
AcDbSpline
70
4
71
3
72
50
73
46
40
0
40
0
40
0
40
0
40
0.0918442335910884
40
0.0918442335910884
40
0.183688467182177
40
0.183688467182177
40
0.229610583977721
40
0.229610583977721
40
0.252571642375496
40
0.252571642375496
40
0.275532700773271
40
0.275532700773271
40
0.321454817568815
40
0.321454817568815
40
0.367376934364359
40
0.367376934364359
40
0.413299051159903
40
0.413299051159903
40
0.459221167955447
40
0.459221167955447
40
0.505143284750991
40
0.505143284750991
40
0.551065401546536
40
0.551065401546536
40
0.57402645994431
40
0.57402645994431
40
0.596987518342085
40
0.596987518342085
40
0.642909635137629
40
0.642909635137629
40
0.734753868728713
40
0.734753868728713
40
0.780675985524253
40
0.780675985524253
40
0.826598102319792
40
0.826598102319792
40
0.872520219115332
40
0.872520219115332
40
0.918442335910872
40
0.918442335910872
40
0.964364452706411
40
0.964364452706411
40
0.987325511104181
40
0.987325511104181
40
1
40
1
40
1
40
1
41
1
10
110.380402256886
20
-0.278365126850986
30
0
41
1
10
109.943150556577
20
-0.0643696571989665
30
0
41
1
10
109.507694349437
20
0.147906565750276
30
0
41
1
10
108.639356611834
20
0.566812000326763
30
0
41
1
10
108.206474038999
20
0.773443055858394
30
0
41
1
10
107.558659592378
20
1.07754642556307
30
0
41
1
10
107.342973808929
20
1.1779447985254
30
0
41
1
10
107.019750459691
20
1.32679549026591
30
0
41
1
10
106.912059690831
20
1.37612134711577
30
0
41
1
10
106.696775035548
20
1.47414024824914
30
0
41
1
10
106.589192543956
20
1.52283988930472
30
0
41
1
10
106.26637995774
20
1.66778156774109
30
0
41
1
10
106.051010988327
20
1.76281503228793
30
0
41
1
10
105.619859580909
20
1.94938109083131
30
0
41
1
10
105.404085055702
20
2.04091906541078
30
0
41
1
10
104.972095580774
20
2.22022818002893
30
0
41
1
10
104.75588432851
20
2.30801564263661
30
0
41
1
10
104.322929988235
20
2.47931833523177
30
0
41
1
10
104.106209543956
20
2.56281719094176
30
0
41
1
10
103.671787374194
20
2.72514441452069
30
0
41
1
10
103.454058093842
20
2.803977864849
30
0
41
1
10
103.017386070833
20
2.95655514392155
30
0
41
1
10
102.7984478954
20
3.03029819355595
30
0
41
1
10
102.4690225203
20
3.13675724467905
30
0
41
1
10
102.358936618921
20
3.17158613221363
30
0
41
1
10
102.139237335062
20
3.23952498046734
30
0
41
1
10
102.029564791969
20
3.2726540871893
30
0
41
1
10
101.701078818975
20
3.36941320640253
30
0
41
1
10
101.482843129276
20
3.43035644468236
30
0
41
1
10
100.829220814713
20
3.60314768107762
30
0
41
1
10
100.394679320604
20
3.70520804020808
30
0
41
1
10
99.7444097085373
20
3.83643333208983
30
0
41
1
10
99.5279179308904
20
3.87654303167497
30
0
41
1
10
99.0953889801646
20
3.9488613758366
30
0
41
1
10
98.8793919581499
20
3.98095341374318
30
0
41
1
10
98.4472044957781
20
4.03811649534939
30
0
41
1
10
98.2309582884831
20
4.0633233415798
30
0
41
1
10
97.7981009883748
20
4.10646357562899
30
0
41
1
10
97.5815002850946
20
4.12437138925333
30
0
41
1
10
97.14796215118
20
4.15217080254982
30
0
41
1
10
96.9310331676434
20
4.16208476701303
30
0
41
1
10
96.6053196635996
20
4.1702239903268
30
0
41
1
10
96.4967049642977
20
4.17176169087182
30
0
41
1
10
96.3279819373785
20
4.17258246674638
30
0
41
1
10
96.2679366399098
20
4.17259129817794
30
0
41
1
10
96.2078510628238
20
4.17233142953822
30
0
0
SPLINE
5
104
100
AcDbEntity
8
1
62
256
6
ByLayer
370
18
48
1
60
0
100
AcDbSpline
70
4
71
3
72
8
73
4
40
0
40
0
40
0
40
0
40
1
40
1
40
1
40
1
41
1
10
110.378195271872
20
-0.266868696194763
30
0
41
1
10
110.380092517527
20
-0.267455338279177
30
0
41
1
10
110.38110100222
20
-0.272607100098441
30
0
41
1
10
110.380402256899
20
-0.278365126857523
30
0
0
SPLINE
5
105
100
AcDbEntity
8
1
62
256
6
ByLayer
370
18
48
1
60
0
100
AcDbSpline
70
4
71
3
72
52
73
48
40
0
40
0
40
0
40
0
40
0.0118282662417377
40
0.0118282662417377
40
0.0351122381117513
40
0.0351122381117513
40
0.0583962099817652
40
0.0583962099817652
40
0.104964153721793
40
0.104964153721793
40
0.15153209746182
40
0.15153209746182
40
0.198100041201848
40
0.198100041201848
40
0.244667984941875
40
0.244667984941875
40
0.291235928681903
40
0.291235928681903
40
0.384371816161963
40
0.384371816161963
40
0.43093975990199
40
0.43093975990199
40
0.454223731772002
40
0.454223731772002
40
0.477507703642013
40
0.477507703642013
40
0.524075647382031
40
0.524075647382031
40
0.570643591122049
40
0.570643591122049
40
0.617211534862067
40
0.617211534862067
40
0.663779478602085
40
0.663779478602085
40
0.710347422342103
40
0.710347422342103
40
0.756915366082121
40
0.756915366082121
40
0.78019933795213
40
0.78019933795213
40
0.803483309822139
40
0.803483309822139
40
0.850051253562162
40
0.850051253562162
40
0.943187141042208
40
0.943187141042208
40
1
40
1
40
1
40
1
41
1
10
95.8955714829792
20
4.17816585583873
30
0
41
1
10
95.950993691268
20
4.17932295905578
30
0
41
1
10
96.0063799729426
20
4.18024967476384
30
0
41
1
10
96.1706903496991
20
4.18233209770443
30
0
41
1
10
96.2795037475549
20
4.18286592007431
30
0
41
1
10
96.4968973657438
20
4.18207983292606
30
0
41
1
10
96.6054962277506
20
4.18068111851201
30
0
41
1
10
96.9311605249087
20
4.17294730523437
30
0
41
1
10
97.1480544138072
20
4.16329022544338
30
0
41
1
10
97.5815199192628
20
4.13598074242714
30
0
41
1
10
97.7980832502372
20
4.11830631189576
30
0
41
1
10
98.230862430366
20
4.07560877691157
30
0
41
1
10
98.4470676246263
20
4.05060900405854
30
0
41
1
10
98.879169572165
20
3.99384500103886
30
0
41
1
10
99.0951231057068
20
3.96195075767938
30
0
41
1
10
99.5275661462102
20
3.89000894035013
30
0
41
1
10
99.7440146461408
20
3.85007363135443
30
0
41
1
10
100.394155312541
20
3.71933222469946
30
0
41
1
10
100.828612987174
20
3.61754114190501
30
0
41
1
10
101.482109193873
20
3.4450801093846
30
0
41
1
10
101.70030255761
20
3.38424100264029
30
0
41
1
10
102.028727714115
20
3.28761956480906
30
0
41
1
10
102.138380427281
20
3.25453229378948
30
0
41
1
10
102.358040973356
20
3.1866688937497
30
0
41
1
10
102.468115727063
20
3.15187102537729
30
0
41
1
10
102.797515088735
20
3.04549137373104
30
0
41
1
10
103.01643277557
20
2.97178751994744
30
0
41
1
10
103.453057493805
20
2.819261173629
30
0
41
1
10
103.670759689342
20
2.74043831671224
30
0
41
1
10
104.105122459781
20
2.57810980423599
30
0
41
1
10
104.32181172427
20
2.49460286337248
30
0
41
1
10
104.754701954143
20
2.3232591704959
30
0
41
1
10
104.970879019923
20
2.23543498392925
30
0
41
1
10
105.402796858626
20
2.056024036894
30
0
41
1
10
105.618534338232
20
1.96442202828783
30
0
41
1
10
106.049608766053
20
1.77770151241887
30
0
41
1
10
106.264937712547
20
1.68257609053705
30
0
41
1
10
106.587688011711
20
1.53748138466548
30
0
41
1
10
106.695249595346
20
1.48873023845133
30
0
41
1
10
106.910492346636
20
1.3906014559025
30
0
41
1
10
107.018161977858
20
1.34121631728922
30
0
41
1
10
107.341322193689
20
1.19217754722248
30
0
41
1
10
107.556966206404
20
1.09164019896519
30
0
41
1
10
108.204656110854
20
0.787079123721441
30
0
41
1
10
108.637457829605
20
0.580091994685347
30
0
41
1
10
109.33634209975
20
0.242215197928374
30
0
41
1
10
109.601616540797
20
0.113131025704405
30
0
41
1
10
109.867486551885
20
-0.0167718268937733
30
0
0
SPLINE
5
106
100
AcDbEntity
8
1
62
256
6
ByLayer
370
18
48
1
60
0
100
AcDbSpline
70
4
71
3
72
8
73
4
40
0
40
0
40
0
40
0
40
1
40
1
40
1
40
1
41
1
10
110.32349799326
20
-0.248961413527013
30
0
41
1
10
110.341721573569
20
-0.255259224635921
30
0
41
1
10
110.359951744253
20
-0.261227665450406
30
0
41
1
10
110.378195271872
20
-0.266868696194734
30
0
0
SPLINE
5
107
100
AcDbEntity
8
1
62
256
6
ByLayer
370
18
48
1
60
0
100
AcDbSpline
70
4
71
3
72
8
73
4
40
0
40
0
40
0
40
0
40
1
40
1
40
1
40
1
41
1
10
68.4900349594789
20
-4.28181540921804
30
0
41
1
10
68.6674770183558
20
-4.28765766863131
30
0
41
1
10
68.844962723996
20
-4.29070511311645
30
0
41
1
10
69.0225230414456
20
-4.29100389925506
30
0
0
SPLINE
5
108
100
AcDbEntity
8
1
62
256
6
ByLayer
370
18
48
1
60
0
100
AcDbSpline
70
4
71
3
72
61
73
57
40
0
40
0
40
0
40
0
40
0.0023544641842826
40
0.0023544641842826
40
0.0422602856169033
40
0.0422602856169033
40
0.122071928482149
40
0.122071928482149
40
0.142024839198463
40
0.142024839198463
40
0.161977749914776
40
0.161977749914776
40
0.201883571347407
40
0.201883571347407
40
0.241789392780037
40
0.241789392780037
40
0.281695214212668
40
0.281695214212668
40
0.321601035645299
40
0.321601035645299
40
0.341553946361615
40
0.341553946361615
40
0.36150685707793
40
0.36150685707793
40
0.441318499943188
40
0.441318499943188
40
0.481224321375819
40
0.481224321375819
40
0.52113014280845
40
0.52113014280845
40
0.561035964241081
40
0.561035964241081
40
0.600941785673712
40
0.600941785673712
40
0.640847607106343
40
0.640847607106343
40
0.680753428538974
40
0.680753428538974
40
0.720659249971605
40
0.720659249971605
40
0.740612160687918
40
0.740612160687918
40
0.760565071404231
40
0.760565071404231
40
0.780517982120544
40
0.780517982120544
40
0.800470892836858
40
0.840376714269485
40
0.840376714269485
40
0.880282535702112
40
0.880282535702112
40
0.900235446418425
40
0.900235446418425
40
0.920188357134738
40
0.920188357134738
40
1
40
1
40
1
40
1
41
1
10
93.9598457516614
20
4.18809137490658
30
0
41
1
10
93.9726886108094
20
4.18977966289052
30
0
41
1
10
93.9855313100008
20
4.19145384720636
30
0
41
1
10
94.2160431377157
20
4.22125016883817
30
0
41
1
10
94.4336687840127
20
4.24534540730394
30
0
41
1
10
95.0866243362622
20
4.30554111929945
30
0
41
1
10
95.5219813905721
20
4.32962823919698
30
0
41
1
10
96.0665582980346
20
4.33923757892228
30
0
41
1
10
96.1754940129647
20
4.34013039978345
30
0
41
1
10
96.393412504062
20
4.33983053567991
30
0
41
1
10
96.5023766233543
20
4.33863395724094
30
0
41
1
10
96.8291282932591
20
4.33194472645962
30
0
41
1
10
97.0469229707
20
4.32336669328976
30
0
41
1
10
97.4824012784869
20
4.2981462267218
30
0
41
1
10
97.7000840166662
20
4.28150382425144
30
0
41
1
10
98.135280509264
20
4.24015422551176
30
0
41
1
10
98.3527928720004
20
4.21544425549993
30
0
41
1
10
98.7876839853901
20
4.15784717623504
30
0
41
1
10
99.0050926638237
20
4.12495585695402
30
0
41
1
10
99.3317897797734
20
4.06984257962273
30
0
41
1
10
99.4407805052946
20
4.05050905135334
30
0
41
1
10
99.6589509831437
20
4.00992549792258
30
0
41
1
10
99.7680312859007
20
3.98869348969254
30
0
41
1
10
100.31304748603
20
3.877958489013
30
0
41
1
10
100.748186355902
20
3.77467514083946
30
0
41
1
10
101.400101705366
20
3.59811451206528
30
0
41
1
10
101.617301669076
20
3.53566165195102
30
0
41
1
10
102.052214969688
20
3.40438906280292
30
0
41
1
10
102.26990861914
20
3.33555977645472
30
0
41
1
10
102.705818710346
20
3.19159212964601
30
0
41
1
10
102.924169760406
20
3.11640220578747
30
0
41
1
10
103.359933974765
20
2.960351495293
30
0
41
1
10
103.577515470853
20
2.8794370131709
30
0
41
1
10
104.012215351594
20
2.71201230775748
30
0
41
1
10
104.229352631688
20
2.62552193047742
30
0
41
1
10
104.663963535041
20
2.44821481764424
30
0
41
1
10
104.881417291404
20
2.35737721440572
30
0
41
1
10
105.316606644231
20
2.17133949370225
30
0
41
1
10
105.534343688746
20
2.07614121135663
30
0
41
1
10
105.861189362218
20
1.93008459885644
30
0
41
1
10
105.970217355499
20
1.88083842464269
30
0
41
1
10
106.188174500341
20
1.78135667969232
30
0
41
1
10
106.297064804816
20
1.73113921213044
30
0
41
1
10
106.514683957761
20
1.62977512360106
30
0
41
1
10
106.623414079454
20
1.57863011223469
30
0
41
1
10
106.840925456614
20
1.47580598520366
30
0
41
1
10
107.167269623329
20
1.3207716803827
30
0
41
1
10
107.49379398777
20
1.16327411816704
30
0
41
1
10
107.929409564039
20
0.951275797886296
30
0
41
1
10
108.147343367984
20
0.84427799155128
30
0
41
1
10
108.474508378107
20
0.682421332788266
30
0
41
1
10
108.58355008538
20
0.628271411160341
30
0
41
1
10
108.801455825142
20
0.51969209273102
30
0
41
1
10
108.910345529561
20
0.465249977393199
30
0
41
1
10
109.454527342913
20
0.192373911583502
30
0
41
1
10
109.889008142534
20
-0.0280784736420685
30
0
41
1
10
110.323497993259
20
-0.24896141352761
30
0
0
SPLINE
5
109
100
AcDbEntity
8
1
62
256
6
ByLayer
370
18
48
1
60
0
100
AcDbSpline
70
4
71
3
72
70
73
66
40
0
40
0
40
0
40
0
40
0.0131620758594454
40
0.0131620758594454
40
0.0324804890803679
40
0.0324804890803679
40
0.0517989023012903
40
0.0517989023012903
40
0.0711173155222126
40
0.0711173155222126
40
0.0904357287431351
40
0.0904357287431351
40
0.0928505303957504
40
0.0940579312220581
40
0.0946616316352119
40
0.0949634818417888
40
0.0949634818417888
40
0.0951144069450772
40
0.0951144069450772
40
0.0952653320483656
40
0.0952653320483656
40
0.0964727328746732
40
0.0964727328746732
40
0.0976801337009807
40
0.0976801337009807
40
0.100094935353596
40
0.100094935353596
40
0.109754141964056
40
0.109754141964056
40
0.129072555184977
40
0.129072555184977
40
0.167709381626819
40
0.167709381626819
40
0.244983034510502
40
0.244983034510502
40
0.399530340277869
40
0.399530340277869
40
0.476803993161553
40
0.476803993161553
40
0.515440819603395
40
0.515440819603395
40
0.534759232824315
40
0.534759232824315
40
0.544418439434776
40
0.544418439434776
40
0.549248042740006
40
0.549248042740006
40
0.550455443566314
40
0.550455443566314
40
0.551059143979467
40
0.551059143979467
40
0.551360994186044
40
0.551360994186044
40
0.551436456737688
40
0.551436456737688
40
0.551511919289333
40
0.551511919289333
40
0.551662844392621
40
0.551662844392621
40
0.554077646045235
40
0.708624951812523
40
0.708624951812523
40
0.863172257579811
40
0.863172257579811
40
1
40
1
40
1
40
1
41
1
10
11.5488016313772
20
1.64537149276953
30
0
41
1
10
11.5259669324852
20
1.64785962251207
30
0
41
1
10
11.5023323195023
20
1.64876389773011
30
0
41
1
10
11.4425492484448
20
1.64686551445706
30
0
41
1
10
11.4061532190359
20
1.64189643593073
30
0
41
1
10
11.3284207624046
20
1.62579596354698
30
0
41
1
10
11.2870762056208
20
1.61467628698713
30
0
41
1
10
11.2004741711963
20
1.58562802130297
30
0
41
1
10
11.1553339613571
20
1.56756517473519
30
0
41
1
10
11.0608295996998
20
1.5254168163641
30
0
41
1
10
11.0115708384664
20
1.50118089416392
30
0
41
1
10
10.9545560673994
20
1.47017648579833
30
0
41
1
10
10.9450205212949
20
1.46493147493789
30
0
41
1
10
10.9338404660498
20
1.45867571660199
30
0
41
1
10
10.9282369776363
20
1.45551361433394
30
0
41
1
10
10.9258326327015
20
1.45415108409128
30
0
41
1
10
10.9246299882485
20
1.45346859428582
30
0
41
1
10
10.92444753425
20
1.45311921094088
30
0
41
1
10
10.9253419268972
20
1.45221576924769
30
0
41
1
10
10.9259654664836
20
1.45177685307598
30
0
41
1
10
10.9316586083136
20
1.44788859906816
30
0
41
1
10
10.9377498692733
20
1.4446908973965
30
0
41
1
10
10.9494795631814
20
1.43824206011845
30
0
41
1
10
10.9554112766026
20
1.43504767655011
30
0
41
1
10
10.9732712711593
20
1.42549239841955
30
0
41
1
10
10.9852732261639
20
1.41916278430884
30
0
41
1
10
11.0454090053487
20
1.38756828299572
30
0
41
1
10
11.0938971057274
20
1.36244886935637
30
0
41
1
10
11.2394429944237
20
1.28701518153267
30
0
41
1
10
11.3367653834386
20
1.23672622113386
30
0
41
1
10
11.6288678818793
20
1.08547158763037
30
0
41
1
10
11.8238444535988
20
0.984127700248905
30
0
41
1
10
12.4087492219678
20
0.678084561445303
30
0
41
1
10
12.7986833836824
20
0.471553415752624
30
0
41
1
10
13.9678502397898
20
-0.156121512706818
30
0
41
1
10
14.7463826074137
20
-0.585867960213164
30
0
41
1
10
15.9138047603483
20
-1.24505223000082
30
0
41
1
10
16.3027940530157
20
-1.46710875523712
30
0
41
1
10
16.8857388236386
20
-1.80418782196298
30
0
41
1
10
17.0799929610849
20
-1.91715628713575
30
0
41
1
10
17.3709553025912
20
-2.08800404199209
30
0
41
1
10
17.4678856468302
20
-2.14516566380368
30
0
41
1
10
17.6128810104484
20
-2.23179607833771
30
0
41
1
10
17.6611655682386
20
-2.26078999726715
30
0
41
1
10
17.7332305561115
20
-2.30495557408221
30
0
41
1
10
17.7572482063269
20
-2.31969556500636
30
0
41
1
10
17.786790695681
20
-2.33894568534518
30
0
41
1
10
17.7926753026442
20
-2.34283387050601
30
0
41
1
10
17.801333726538
20
-2.34892935800193
30
0
41
1
10
17.8042108462455
20
-2.35099294688015
30
0
41
1
10
17.8083099780701
20
-2.35436450259803
30
0
41
1
10
17.8097217594682
20
-2.3554359052375
30
0
41
1
10
17.8109990538084
20
-2.35733839672949
30
0
41
1
10
17.8112772504087
20
-2.3578148912452
30
0
41
1
10
17.8109377899854
20
-2.35867059819299
30
0
41
1
10
17.8104177673701
20
-2.35880209542159
30
0
41
1
10
17.8091129636217
20
-2.35908574326703
30
0
41
1
10
17.8082253993485
20
-2.3591619630125
30
0
41
1
10
17.793254552485
20
-2.36120800449621
30
0
41
1
10
16.8774608260766
20
-2.48626418284158
30
0
41
1
10
15.9666048317836
20
-2.60385375301172
30
0
41
1
10
14.183123329099
20
-2.81830027716413
30
0
41
1
10
13.2967573716655
20
-2.91691890759077
30
0
41
1
10
11.6381869486715
20
-3.08413709718127
30
0
41
1
10
10.8641317338896
20
-3.1549135764713
30
0
41
1
10
10.0945546486761
20
-3.21757116511324
30
0
0
SPLINE
5
10A
100
AcDbEntity
8
1
62
256
6
ByLayer
370
18
48
1
60
0
100
AcDbSpline
70
4
71
3
72
109
73
105
40
0
40
0
40
0
40
0
40
0.0624999999999892
40
0.0624999999999892
40
0.124999999999979
40
0.124999999999979
40
0.156249999999974
40
0.156249999999974
40
0.187499999999969
40
0.187499999999969
40
0.203124999999966
40
0.203124999999966
40
0.218749999999963
40
0.218749999999963
40
0.249999999999958
40
0.249999999999958
40
0.281249999999954
40
0.281249999999954
40
0.289062499999952
40
0.289062499999952
40
0.29687499999995
40
0.29687499999995
40
0.312499999999944
40
0.312499999999944
40
0.343749999999935
40
0.343749999999935
40
0.35937499999993
40
0.35937499999993
40
0.374999999999925
40
0.374999999999925
40
0.382812499999922
40
0.382812499999922
40
0.39062499999992
40
0.39062499999992
40
0.406249999999914
40
0.406249999999914
40
0.421874999999908
40
0.421874999999908
40
0.429687499999905
40
0.429687499999905
40
0.437499999999903
40
0.437499999999903
40
0.468749999999892
40
0.468749999999892
40
0.472656249999891
40
0.472656249999891
40
0.476562499999889
40
0.476562499999889
40
0.484374999999886
40
0.484374999999886
40
0.499999999999881
40
0.499999999999881
40
0.507812499999879
40
0.507812499999879
40
0.515624999999877
40
0.515624999999877
40
0.531249999999872
40
0.531249999999872
40
0.562499999999864
40
0.562499999999864
40
0.578124999999859
40
0.578124999999859
40
0.593749999999855
40
0.593749999999855
40
0.624999999999845
40
0.624999999999845
40
0.656249999999836
40
0.656249999999836
40
0.687499999999826
40
0.687499999999826
40
0.703124999999822
40
0.703124999999822
40
0.718749999999818
40
0.718749999999818
40
0.726562499999816
40
0.726562499999816
40
0.730468749999815
40
0.732421874999815
40
0.732421874999815
40
0.733398437499816
40
0.733398437499816
40
0.734374999999816
40
0.734374999999816
40
0.736328124999818
40
0.736328124999818
40
0.738281249999819
40
0.738281249999819
40
0.740234374999821
40
0.740234374999821
40
0.742187499999823
40
0.742187499999823
40
0.744140624999824
40
0.744140624999824
40
0.746093749999826
40
0.749999999999829
40
0.812499999999871
40
0.812499999999871
40
0.843749999999892
40
0.843749999999892
40
0.874999999999913
40
0.874999999999913
40
0.937499999999956
40
0.937499999999956
40
1
40
1
40
1
40
1
41
1
10
10.0945634618555
20
-3.21757202504224
30
0
41
1
10
9.84943115174912
20
-3.1414041512225
30
0
41
1
10
9.60683943339671
20
-3.05902671734697
30
0
41
1
10
9.12752032679953
20
-2.87945544528435
30
0
41
1
10
8.89078375457731
20
-2.78228733190952
30
0
41
1
10
8.54098593095739
20
-2.62272226845025
30
0
41
1
10
8.42527530596365
20
-2.56722013169721
30
0
41
1
10
8.19585827068258
20
-2.45092664896802
30
0
41
1
10
8.08215075098587
20
-2.39013840024217
30
0
41
1
10
7.91332101263973
20
-2.29432993403867
30
0
41
1
10
7.85731740377764
20
-2.26161089889294
30
0
41
1
10
7.74600622646284
20
-2.19452711220438
30
0
41
1
10
7.69082667025532
20
-2.16023994528942
30
0
41
1
10
7.5268243491187
20
-2.05496472960891
30
0
41
1
10
7.41952914605156
20
-1.98157705856673
30
0
41
1
10
7.20976848726116
20
-1.82716688160616
30
0
41
1
10
7.10729646454379
20
-1.74615488541974
30
0
41
1
10
6.98291147706757
20
-1.63900293159182
30
0
41
1
10
6.95822092403389
20
-1.61727628213865
30
0
41
1
10
6.90923553532457
20
-1.57319350757749
30
0
41
1
10
6.88491774042905
20
-1.55081504872282
30
0
41
1
10
6.81288539575846
20
-1.48294966953006
30
0
41
1
10
6.76602513271607
20
-1.4366792272653
30
0
41
1
10
6.62927506820404
20
-1.29447656708277
30
0
41
1
10
6.54317627050116
20
-1.19518813853662
30
0
41
1
10
6.42357586865583
20
-1.03778837568876
30
0
41
1
10
6.3853088543616
20
-0.983903094922283
30
0
41
1
10
6.31244653870135
20
-0.872874955533121
30
0
41
1
10
6.27784910012991
20
-0.815733982775328
30
0
41
1
10
6.22917678489048
20
-0.727161752235133
30
0
41
1
10
6.21349140587134
20
-0.697159626711766
30
0
41
1
10
6.18329824964084
20
-0.636110423270026
30
0
41
1
10
6.16877122283168
20
-0.605007737103534
30
0
41
1
10
6.12762121360811
20
-0.511156356639674
30
0
41
1
10
6.10324977131796
20
-0.447535934483
30
0
41
1
10
6.06121096654442
20
-0.317990492938094
30
0
41
1
10
6.04354189672989
20
-0.252066053784887
30
0
41
1
10
6.022621391049
20
-0.151261019899238
30
0
41
1
10
6.01657982810906
20
-0.117339129220511
30
0
41
1
10
6.0064736649399
20
-0.0488162735461515
30
0
41
1
10
6.00246534748121
20
-0.0145919733438689
30
0
41
1
10
5.98762995082427
20
0.156284273926929
30
0
41
1
10
5.9923646022136
20
0.29226731011488
30
0
41
1
10
6.01641527429553
20
0.444445285404384
30
0
41
1
10
6.01934838270785
20
0.461342767901186
30
0
41
1
10
6.02573767498299
20
0.495115336196676
30
0
41
1
10
6.02919149736218
20
0.511972444961856
30
0
41
1
10
6.04025278939406
20
0.562157233475602
30
0
41
1
10
6.04858060680098
20
0.595212898945903
30
0
41
1
10
6.07627263225464
20
0.693242588507161
30
0
41
1
10
6.09834048631217
20
0.757081389503981
30
0
41
1
10
6.13634725237625
20
0.850785042611705
30
0
41
1
10
6.14983499054802
20
0.881676611242739
30
0
41
1
10
6.17837782024387
20
0.942804083577897
30
0
41
1
10
6.19346997261911
20
0.973108679469078
30
0
41
1
10
6.24072500669797
20
1.06256071357643
30
0
41
1
10
6.2747244681907
20
1.1200393278217
30
0
41
1
10
6.38311478732675
20
1.2869710848349
30
0
41
1
10
6.4638437309479
20
1.39096732528822
30
0
41
1
10
6.59474316451852
20
1.53857706770211
30
0
41
1
10
6.64002665191933
20
1.58636882124679
30
0
41
1
10
6.7335607354201
20
1.67942427905095
30
0
41
1
10
6.78141429974301
20
1.72429511518851
30
0
41
1
10
6.92771644354852
20
1.85454509828997
30
0
41
1
10
7.02892524778198
20
1.93563354396562
30
0
41
1
10
7.23711236369059
20
2.08888285692098
30
0
41
1
10
7.34410175437893
20
2.16102581776985
30
0
41
1
10
7.56284316934639
20
2.29802233166203
30
0
41
1
10
7.67460055075537
20
2.36286722597421
30
0
41
1
10
7.84527940191893
20
2.45553094295843
30
0
41
1
10
7.90271512506195
20
2.48566501683163
30
0
41
1
10
8.01829692539991
20
2.54438899527264
30
0
41
1
10
8.07645666605288
20
2.57298753896819
30
0
41
1
10
8.16420959522401
20
2.61483079297028
30
0
41
1
10
8.19354504255858
20
2.62860206886151
30
0
41
1
10
8.23766410492638
20
2.64900160131862
30
0
41
1
10
8.25975306931747
20
2.65913724757962
30
0
41
1
10
8.2818853995189
20
2.6691785861679
30
0
41
1
10
8.29295856187372
20
2.67418360893359
30
0
41
1
10
8.29663926956977
20
2.67586738142001
30
0
41
1
10
8.30425158540507
20
2.67887672569373
30
0
41
1
10
8.30814371320048
20
2.68021267888773
30
0
41
1
10
8.32004235601607
20
2.68366153734175
30
0
41
1
10
8.32835315114511
20
2.6852460614553
30
0
41
1
10
8.345179644372
20
2.6871638303727
30
0
41
1
10
8.35360325345957
20
2.6875173543923
30
0
41
1
10
8.37046547977192
20
2.68734832583419
30
0
41
1
10
8.37893036404816
20
2.68681997422175
30
0
41
1
10
8.39575817604819
20
2.68480004457084
30
0
41
1
10
8.40405929498777
20
2.68335849447808
30
0
41
1
10
8.42050646394003
20
2.67994907188484
30
0
41
1
10
8.4286763368022
20
2.678098045067
30
0
41
1
10
8.44505087778504
20
2.67448735461625
30
0
41
1
10
8.46960720505939
20
2.66905284698228
30
0
41
1
10
8.75590943103262
20
2.60500000313124
30
0
41
1
10
9.03178700107037
20
2.53561409169302
30
0
41
1
10
9.41815019379933
20
2.4278547723471
30
0
41
1
10
9.54648671355218
20
2.39028234942489
30
0
41
1
10
9.80189576903425
20
2.31192946659229
30
0
41
1
10
9.92898171269863
20
2.27114782835335
30
0
41
1
10
10.3085018302424
20
2.1440117744921
30
0
41
1
10
10.5591920283238
20
2.05285036519214
30
0
41
1
10
11.0566725980442
20
1.85814067898957
30
0
41
1
10
11.3034710866282
20
1.75460639894362
30
0
41
1
10
11.5487984312147
20
1.6453723087416
30
0
0
SPLINE
5
10B
100
AcDbEntity
8
SK1
62
256
6
ByLayer
370
18
48
1
60
0
100
AcDbSpline
70
4
71
3
72
8
73
4
40
0
40
0
40
0
40
0
40
1
40
1
40
1
40
1
41
1
10
-39.35
20
4.05877933519147
30
0
41
1
10
-39.5672381549476
20
3.87163589205235
30
0
41
1
10
-39.7840099340933
20
3.6841164304607
30
0
41
1
10
-40
20
3.49596670760502
30
0
0
SPLINE
5
10C
100
AcDbEntity
8
SK1
62
256
6
ByLayer
370
18
48
1
60
0
100
AcDbSpline
70
4
71
3
72
20
73
16
40
0
40
0
40
0
40
0
40
0.124999999999998
40
0.124999999999998
40
0.187499999999998
40
0.187499999999998
40
0.249999999999997
40
0.249999999999997
40
0.374999999999997
40
0.374999999999997
40
0.499999999999997
40
0.499999999999997
40
0.749999999999998
40
0.749999999999998
40
1
40
1
40
1
40
1
41
1
10
-39.25
20
4.10878367956897
30
0
41
1
10
-39.25
20
4.11187516855588
30
0
41
1
10
-39.2510680086886
20
4.11396879898567
30
0
41
1
10
-39.2538495157728
20
4.11570370535466
30
0
41
1
10
-39.2549703876943
20
4.11605835784317
30
0
41
1
10
-39.2575552869368
20
4.11637173368356
30
0
41
1
10
-39.2590298143252
20
4.11632775052431
30
0
41
1
10
-39.2638240044233
20
4.11566666977583
30
0
41
1
10
-39.267515960107
20
4.11454017690269
30
0
41
1
10
-39.275680748839
20
4.11121397514623
30
0
41
1
10
-39.2801886771091
20
4.10898840240424
30
0
41
1
10
-39.2943187548888
20
4.10113181743404
30
0
41
1
10
-39.3046720301746
20
4.09429858917761
30
0
41
1
10
-39.3267894589619
20
4.07807414283971
30
0
41
1
10
-39.3382086330433
20
4.06893720553495
30
0
41
1
10
-39.35
20
4.0587793351915
30
0
0
SPLINE
5
10D
100
AcDbEntity
8
SK1
62
256
6
ByLayer
370
18
48
1
60
0
100
AcDbSpline
70
4
71
3
72
20
73
16
40
0
40
0
40
0
40
0
40
0.25
40
0.25
40
0.375
40
0.375
40
0.5
40
0.5
40
0.625
40
0.625
40
0.75
40
0.75
40
0.875
40
0.875
40
1
40
1
40
1
40
1
41
1
10
-39.35
20
2.96731134068693
30
0
41
1
10
-39.338205186486
20
2.97747218012481
30
0
41
1
10
-39.326788992333
20
2.98881354440402
30
0
41
1
10
-39.3102132143741
20
3.00757131404518
30
0
41
1
10
-39.304833241342
20
3.0140678489305
30
0
41
1
10
-39.2945637817252
20
3.02732726087007
30
0
41
1
10
-39.289643923718
20
3.03412321997951
30
0
41
1
10
-39.2802807943173
20
3.04808419317976
30
0
41
1
10
-39.2758194796066
20
3.05527704105185
30
0
41
1
10
-39.267562331863
20
3.07000081886269
30
0
41
1
10
-39.2638525857023
20
3.07737166464938
30
0
41
1
10
-39.2574621956925
20
3.09213283661836
30
0
41
1
10
-39.2547834319691
20
3.09955836151113
30
0
41
1
10
-39.2510694001166
20
3.11363196104443
30
0
41
1
10
-39.25
20
3.12046638698166
30
0
41
1
10
-39.25
20
3.12646248451489
30
0
0
SPLINE
5
10E
100
AcDbEntity
8
SK1
62
256
6
ByLayer
370
18
48
1
60
0
100
AcDbSpline
70
4
71
3
72
8
73
4
40
0
40
0
40
0
40
0
40
1
40
1
40
1
40
1
41
1
10
-39.9999999999999
20
2.40449871310051
30
0
41
1
10
-39.7840052278314
20
2.59265253559786
30
0
41
1
10
-39.5672341570118
20
2.78017134163647
30
0
41
1
10
-39.35
20
2.96731134068696
30
0
0
SPLINE
5
10F
100
AcDbEntity
8
1
62
256
6
ByLayer
370
18
48
1
60
0
100
AcDbSpline
70
4
71
3
72
11
73
7
40
0
40
0
40
0
40
0
40
0.0835182233374434
40
0.39598877521175
40
0.738091608362209
40
1
40
1
40
1
40
1
41
1
10
103.967958584764
20
3.17706126967099
30
0
41
1
10
104.064338558753
20
3.20800555910299
30
0
41
1
10
104.521372582499
20
3.35154151119741
30
0
41
1
10
105.373554295335
20
3.59874681737401
30
0
41
1
10
106.432375611752
20
3.84894718929635
30
0
41
1
10
107.130547587588
20
3.96609499291884
30
0
41
1
10
107.433355571343
20
4.00881414994109
30
0
0
SPLINE
5
110
100
AcDbEntity
8
1
62
256
6
ByLayer
370
18
48
1
60
0
100
AcDbSpline
70
4
71
3
72
29
73
25
40
0
40
0
40
0
40
0
40
3.25621214433E-05
40
4.59194354458E-05
40
5.81559082221E-05
40
8.12145330639E-05
40
0.0001954024459046
40
0.0002822834104452
40
0.0004390255961417
40
0.0007228006550882
40
0.0012419205363439
40
0.0022084545448564
40
0.004060777758094
40
0.0402735552371004
40
0.148392551735661
40
0.256488344173209
40
0.357350581402229
40
0.464305311388842
40
0.558393554608846
40
0.763731763878669
40
0.806440928777557
40
0.864594546617702
40
0.941597597066585
40
1
40
1
40
1
40
1
41
1
10
85.8532315003526
20
0.02825632343243
30
0
41
1
10
85.8532495843826
20
0.0282524167677707
30
0
41
1
10
85.8532554398124
20
0.0282523298554906
30
0
41
1
10
85.8532141422382
20
0.0282653623555973
30
0
41
1
10
85.8531532263798
20
0.0282833087770484
30
0
41
1
10
85.8528664303789
20
0.0283645920255822
30
0
41
1
10
85.8523081813181
20
0.02851857290932
30
0
41
1
10
85.8514496988196
20
0.0287553947197239
30
0
41
1
10
85.8501841272287
20
0.0291050188581607
30
0
41
1
10
85.8478788870986
20
0.0297414585339766
30
0
41
1
10
85.8436217167513
20
0.0309167802556942
30
0
41
1
10
85.8355701185803
20
0.0331389896348355
30
0
41
1
10
85.7410025183726
20
0.0592293369910522
30
0
41
1
10
85.3786960870779
20
0.159605193961511
30
0
41
1
10
84.7564733883236
20
0.338122569461945
30
0
41
1
10
83.9755580028009
20
0.573186892098761
30
0
41
1
10
83.2009876340631
20
0.817018947464874
30
0
41
1
10
82.4634674726732
20
1.05921917990224
30
0
41
1
10
81.4745321195161
20
1.39691761037426
30
0
41
1
10
80.646985660677
20
1.69561771690854
30
0
41
1
10
79.9096385851555
20
1.97340682858987
30
0
41
1
10
79.4822840923745
20
2.13726413605835
30
0
41
1
10
79.0183785758514
20
2.31865565830313
30
0
41
1
10
78.6951687783506
20
2.44891993904474
30
0
41
1
10
78.5559744535926
20
2.50565004950235
30
0
0
SPLINE
5
111
100
AcDbEntity
8
1
62
256
6
ByLayer
370
18
48
1
60
0
100
AcDbSpline
70
4
71
3
72
35
73
31
40
0
40
0
40
0
40
0
40
2.6081786396E-06
40
4.61906147976E-05
40
6.42139885514E-05
40
7.96343770343E-05
40
9.34555636083E-05
40
0.0001064725673764
40
0.0001315673989839
40
0.0002804396671563
40
0.0003958713565893
40
0.0006043334980544
40
0.0009832926136871
40
0.0016814113198652
40
0.0029964355822116
40
0.0055633514353681
40
0.0108469933567839
40
0.022523449120271
40
0.0493978134251371
40
0.178496446941519
40
0.315422726866773
40
0.459221009617066
40
0.588486771678209
40
0.646861669375281
40
0.707505065685054
40
0.764806209342114
40
0.818356407844873
40
0.881975167290223
40
0.969314279588768
40
1
40
1
40
1
40
1
41
1
10
31.4352885428893
20
0.0329869292021954
30
0
41
1
10
31.4352915083449
20
0.0329861959114055
30
0
41
1
10
31.4353433435693
20
0.0329733985315954
30
0
41
1
10
31.4353982371759
20
0.0329603626050812
30
0
41
1
10
31.435414317856
20
0.0329614782029921
30
0
41
1
10
31.4353844775661
20
0.0329692825199857
30
0
41
1
10
31.4353422574047
20
0.0329821587455683
30
0
41
1
10
31.4352662823156
20
0.0330043286113835
30
0
41
1
10
31.4348965431458
20
0.0331089226130246
30
0
41
1
10
31.4342036147083
20
0.033299936710705
30
0
41
1
10
31.4331191893482
20
0.0335998906444956
30
0
41
1
10
31.4314963726833
20
0.0340487234280431
30
0
41
1
10
31.4285308032939
20
0.0348687515443658
30
0
41
1
10
31.4229981761811
20
0.0363981204923789
30
0
41
1
10
31.4123751789127
20
0.0393332663628598
30
0
41
1
10
31.3910183594851
20
0.045231498103476
30
0
41
1
10
31.3452516642467
20
0.05787254277854
30
0
41
1
10
31.2418565752449
20
0.0864966358102208
30
0
41
1
10
30.8445504832112
20
0.19737830628705
30
0
41
1
10
30.1526506673641
20
0.397339052570146
30
0
41
1
10
29.1883934231321
20
0.692150797722661
30
0
41
1
10
28.2286183778586
20
1.002519297813
30
0
41
1
10
27.4564626607527
20
1.26538875165258
30
0
41
1
10
26.8801077715869
20
1.4683214960167
30
0
41
1
10
26.4717551737666
20
1.61511713649182
30
0
41
1
10
26.0755376302037
20
1.76045915985742
30
0
41
1
10
25.6733880968806
20
1.91066074409966
30
0
41
1
10
25.2031898577908
20
2.08998532993411
30
0
41
1
10
24.7863387330082
20
2.25156288865824
30
0
41
1
10
24.5168497402732
20
2.36003940745527
30
0
41
1
10
24.4468486481954
20
2.38841181700687
30
0
0
SPLINE
5
112
100
AcDbEntity
8
1
62
256
6
ByLayer
370
18
48
1
60
0
100
AcDbSpline
70
4
71
3
72
17
73
13
40
0
40
0
40
0
40
0
40
0.0364756910908891
40
0.140728041591679
40
0.237568190861914
40
0.317795766862877
40
0.414753874244918
40
0.506851213905401
40
0.586938813079482
40
0.694138455218689
40
0.840895979996973
40
1
40
1
40
1
40
1
41
1
10
110.890631715185
20
0.664042237620578
30
0
41
1
10
110.825630035187
20
0.684127139261562
30
0
41
1
10
110.5750077371
20
0.762142379732921
30
0
41
1
10
110.15334237909
20
0.898279187835072
30
0
41
1
10
109.654994381719
20
1.06295138417261
30
0
41
1
10
109.170664982051
20
1.22728172397513
30
0
41
1
10
108.695993048219
20
1.39223715006918
30
0
41
1
10
108.222886266568
20
1.56087027581933
30
0
41
1
10
107.733154893879
20
1.73936047630861
30
0
41
1
10
107.149231636311
20
1.95733537447225
30
0
41
1
10
106.429806084347
20
2.2340823709454
30
0
41
1
10
105.89992470486
20
2.44628832557746
30
0
41
1
10
105.625012918235
20
2.5585700214242
30
0
0
SPLINE
5
113
100
AcDbEntity
8
1
62
256
6
ByLayer
370
18
48
1
60
0
100
AcDbSpline
70
4
71
3
72
32
73
28
40
0
40
0
40
0
40
0
40
9.79354633E-07
40
2.21257877897E-05
40
4.16104609726E-05
40
5.8763426748E-05
40
7.46620797939E-05
40
9.01284607094E-05
40
0.000151171157673
40
0.0010336511849834
40
0.0017473690729135
40
0.0030669549587592
40
0.0055672434491321
40
0.0104913755937923
40
0.0207514103952148
40
0.112851481592077
40
0.214564379714892
40
0.286397918209078
40
0.364163029089506
40
0.45051129018367
40
0.54185996142251
40
0.604648169846588
40
0.657711397976005
40
0.718714364877697
40
0.803177262891772
40
0.916026940853423
40
1
40
1
40
1
40
1
41
1
10
58.5908275910306
20
0.0456129696012467
30
0
41
1
10
58.5908285711011
20
0.0456127704492958
30
0
41
1
10
58.5908425937938
20
0.045609935209967
30
0
41
1
10
58.590859192007
20
0.0456073422023167
30
0
41
1
10
58.5908487204307
20
0.0456128878378763
30
0
41
1
10
58.5908106278297
20
0.0456255737109927
30
0
41
1
10
58.5907486093049
20
0.0456443372780484
30
0
41
1
10
58.5905907485441
20
0.045690267609757
30
0
41
1
10
58.5883619631313
20
0.046310917253237
30
0
41
1
10
58.5843681203677
20
0.0474010676543628
30
0
41
1
10
58.5774449853434
20
0.0493088241964301
30
0
41
1
10
58.5666299829981
20
0.052283769953533
30
0
41
1
10
58.545766427114
20
0.0580320105165129
30
0
41
1
10
58.5034615082195
20
0.0697046599091777
30
0
41
1
10
58.246085218449
20
0.140988770595271
30
0
41
1
10
57.7545073942891
20
0.280468100418574
30
0
41
1
10
57.1205692849682
20
0.468183541480926
30
0
41
1
10
56.5214425488661
20
0.652289168366025
30
0
41
1
10
55.9604444865356
20
0.830079156040256
30
0
41
1
10
55.3549008140204
20
1.02836082730477
30
0
41
1
10
54.7870240061373
20
1.22074386005033
30
0
41
1
10
54.2991567777043
20
1.39077949087093
30
0
41
1
10
53.8833405757448
20
1.53875084915683
30
0
41
1
10
53.4174135754699
20
1.70786049755435
30
0
41
1
10
52.8128294530406
20
1.93300126058171
30
0
41
1
10
52.1566685282029
20
2.18438171351894
30
0
41
1
10
51.7001455363801
20
2.36713178232887
30
0
41
1
10
51.505776199903
20
2.44618160435184
30
0
0
SPLINE
5
114
100
AcDbEntity
8
1
62
256
6
ByLayer
370
18
48
1
60
0
100
AcDbSpline
70
4
71
1
72
4
73
2
40
0
40
0
40
1
40
1
41
1
10
70.4835809049166
20
0.0053615294004885
30
0
41
1
10
70.4835690261858
20
0.0053672374306473
30
0
0
SPLINE
5
115
100
AcDbEntity
8
1
62
256
6
ByLayer
370
18
48
1
60
0
100
AcDbSpline
70
4
71
3
72
29
73
25
40
0
40
0
40
0
40
0
40
0.0686889853349266
40
0.124650631106458
40
0.167915168058577
40
0.208060494762115
40
0.258131603570914
40
0.318091511763959
40
0.373366335222895
40
0.417417744795076
40
0.45653521442799
40
0.497552142622145
40
0.544494736387755
40
0.599853935725422
40
0.648138038069455
40
0.683470243352862
40
0.720030057893949
40
0.766413701889738
40
0.818021174537615
40
0.860723059791499
40
0.893927988077488
40
0.927149986482116
40
0.965365016091449
40
1
40
1
40
1
40
1
41
1
10
84.0953251114951
20
-4.1523299480499
30
0
41
1
10
84.321065613232
20
-4.15266244817243
30
0
41
1
10
84.7307995383099
20
-4.15336001118007
30
0
41
1
10
85.282930308869
20
-4.1546192474417
30
0
41
1
10
85.7413529704192
20
-4.15568503508652
30
0
41
1
10
86.1797477975676
20
-4.15637674390444
30
0
41
1
10
86.6736598342047
20
-4.15690787036056
30
0
41
1
10
87.217290450061
20
-4.15772246045844
30
0
41
1
10
87.7411349534479
20
-4.15894125190454
30
0
41
1
10
88.1964309963265
20
-4.15991850146389
30
0
41
1
10
88.6048432932743
20
-4.16041337067171
30
0
41
1
10
89.0227633007182
20
-4.16080958281785
30
0
41
1
10
89.4940985980255
20
-4.16124865073309
30
0
41
1
10
89.989329455581
20
-4.16287840267108
30
0
41
1
10
90.4463771761128
20
-4.16457336441636
30
0
41
1
10
90.8416030755516
20
-4.16493270827903
30
0
41
1
10
91.2305772492956
20
-4.16517247266432
30
0
41
1
10
91.6730739054713
20
-4.16507326367332
30
0
41
1
10
92.1357658526203
20
-4.16540586070479
30
0
41
1
10
92.5551169557508
20
-4.16663230399141
30
0
41
1
10
92.9140311536802
20
-4.16744107129858
30
0
41
1
10
93.2579986433971
20
-4.1681719547465
30
0
41
1
10
93.6059275856549
20
-4.16912979923657
30
0
41
1
10
93.8454627184916
20
-4.16976012867096
30
0
41
1
10
93.9593662294002
20
-4.16999370426635
30
0
0
SPLINE
5
116
100
AcDbEntity
8
1
62
256
6
ByLayer
370
18
48
1
60
0
100
AcDbSpline
70
4
71
2
72
6
73
3
40
0
40
0
40
0
40
1
40
1
40
1
41
1
10
69.0204187471941
20
4.12874971182001
30
0
41
1
10
68.7324798704507
20
4.12743056153838
30
0
41
1
10
68.44587476806
20
4.12244733955592
30
0
0
SPLINE
5
117
100
AcDbEntity
8
1
62
256
6
ByLayer
370
18
48
1
60
0
100
AcDbSpline
70
4
71
3
72
29
73
25
40
0
40
0
40
0
40
0
40
0.0686462893028109
40
0.124956031521025
40
0.168967495021798
40
0.21021459397737
40
0.261221556550794
40
0.321898019689385
40
0.376973590983674
40
0.419979406644506
40
0.459006957468781
40
0.501408758819762
40
0.549447194362821
40
0.604363426819774
40
0.651618188514718
40
0.686700023159279
40
0.723763658869912
40
0.770726025730552
40
0.822688318761949
40
0.865573882580627
40
0.898952936761271
40
0.93248383432797
40
0.971076589961508
40
1
40
1
40
1
40
1
41
1
10
96.230738090172
20
4.17242325767177
30
0
41
1
10
96.0068875919908
20
4.17162062087979
30
0
41
1
10
95.5993276377589
20
4.17058720654643
30
0
41
1
10
95.0480096852124
20
4.17066807726579
30
0
41
1
10
94.5859370504582
20
4.17080836164283
30
0
41
1
10
94.1418659282028
20
4.17072317036593
30
0
41
1
10
93.6427567703952
20
4.16940372628682
30
0
41
1
10
93.0985575494212
20
4.16773447686097
30
0
41
1
10
92.580459027829
20
4.16672668761913
30
0
41
1
10
92.1330137874663
20
4.16543311507584
30
0
41
1
10
91.7269217869883
20
4.16508976775663
30
0
41
1
10
91.3044069199647
20
4.16517682093263
30
0
41
1
10
90.8300392782986
20
4.16496707128914
30
0
41
1
10
90.3398344675746
20
4.16440015792412
30
0
41
1
10
89.8919174766583
20
4.16242168280118
30
0
41
1
10
89.5022587956077
20
4.16136994598597
30
0
41
1
10
89.1135534398298
20
4.16088117622166
30
0
41
1
10
88.669758891888
20
4.16048409586867
30
0
41
1
10
88.2069646702753
20
4.15995332111177
30
0
41
1
10
87.7885015908008
20
4.15904198921362
30
0
41
1
10
87.4301838849324
20
4.1582131667459
30
0
41
1
10
87.0858937604382
20
4.15754043232499
30
0
41
1
10
86.7562114445672
20
4.1570284715402
30
0
41
1
10
86.5358993048999
20
4.15674817515233
30
0
41
1
10
86.4415160912899
20
4.15663054746244
30
0
0
LINE
5
82
100
AcDbEntity
8
SK4
62
256
6
ByLayer
370
18
48
0.05
60
0
100
AcDbLine
10
-43
20
0
30
0
11
115
21
0
31
0
39
0
210
0
220
0
230
1
0
LINE
5
84
100
AcDbEntity
8
81
62
256
6
ByLayer
370
18
48
1
60
0
100
AcDbLine
10
112
20
0
30
0
11
115
21
0
31
0
39
0
210
0
220
0
230
1
0
LINE
5
85
100
AcDbEntity
8
4
62
256
6
ByLayer
370
18
48
0.05
60
0
100
AcDbLine
10
0
20
0
30
0
11
112
21
0
31
0
39
0
210
0
220
0
230
1
0
LINE
5
87
100
AcDbEntity
8
80
62
256
6
ByLayer
370
18
48
1
60
0
100
AcDbLine
10
0
20
0
30
0
11
-3
21
0
31
0
39
0
210
0
220
0
230
1
0
LINE
5
88
100
AcDbEntity
8
1
62
256
6
ByLayer
370
18
48
1
60
0
100
AcDbLine
10
0
20
5
30
0
11
0
21
-5
31
0
39
0
210
0
220
0
230
1
0
LINE
5
89
100
AcDbEntity
8
1
62
256
6
ByLayer
370
13
48
1
60
0
100
AcDbLine
10
111.887413
20
0.466449
30
0
11
110.925689
21
1.43181
31
0
39
0
210
0
220
0
230
1
0
LINE
5
8A
100
AcDbEntity
8
1
62
256
6
ByLayer
370
13
48
1
60
0
100
AcDbLine
10
0.701464
20
-4.584641
30
0
11
0.701464
21
4.584641
31
0
39
0
210
0
220
0
230
1
0
LINE
5
8B
100
AcDbEntity
8
1
62
256
6
ByLayer
370
18
48
1
60
0
100
AcDbLine
10
68.345096
20
4.289776
30
0
11
68.345096
21
1.113802
31
0
39
0
210
0
220
0
230
1
0
LINE
5
8C
100
AcDbEntity
8
1
62
256
6
ByLayer
370
18
48
1
60
0
100
AcDbLine
10
68.345096
20
-4.286154
30
0
11
68.345096
21
-4.289776
31
0
39
0
210
0
220
0
230
1
0
LINE
5
8D
100
AcDbEntity
8
1
62
256
6
ByLayer
370
18
48
1
60
0
100
AcDbLine
10
68.345096
20
0.582538
30
0
11
68.345096
21
0.511464
31
0
39
0
210
0
220
0
230
1
0
LINE
5
8E
100
AcDbEntity
8
1
62
256
6
ByLayer
370
13
48
1
60
0
100
AcDbLine
10
1.404368
20
-4.169282
30
0
11
1.404368
21
4.169282
31
0
39
0
210
0
220
0
230
1
0
LINE
5
8F
100
AcDbEntity
8
SK1
62
256
6
ByLayer
370
18
48
1
60
0
100
AcDbLine
10
-40
20
3.495967
30
0
11
-40
21
2.404473
31
0
39
0
210
0
220
0
230
1
0
LINE
5
91
100
AcDbEntity
8
SK1
62
256
6
ByLayer
370
13
48
1
60
0
100
AcDbLine
10
-39.35
20
2.96721
30
0
11
-39.35
21
4.058779
31
0
39
0
210
0
220
0
230
1
0
LINE
5
92
100
AcDbEntity
8
SK1
62
256
6
ByLayer
370
18
48
1
60
0
100
AcDbLine
10
-39.25
20
3.126462
30
0
11
-39.25
21
4.108784
31
0
39
0
210
0
220
0
230
1
0
LINE
5
93
100
AcDbEntity
8
SK1
62
256
6
ByLayer
370
18
48
1
60
0
100
AcDbLine
10
-40
20
-3.66
30
0
11
-40
21
2.404499
31
0
39
0
210
0
220
0
230
1
0
LINE
5
94
100
AcDbEntity
8
SK1
62
256
6
ByLayer
370
18
48
1
60
0
100
AcDbLine
10
-40
20
3.495967
30
0
11
-40
21
3.66
31
0
39
0
210
0
220
0
230
1
0
LINE
5
95
100
AcDbEntity
8
SK1
62
256
6
ByLayer
370
18
48
1
60
0
100
AcDbLine
10
0
20
5
30
0
11
0
21
-5
31
0
39
0
210
0
220
0
230
1
0
LINE
5
96
100
AcDbEntity
8
SK1
62
256
6
ByLayer
370
18
48
1
60
0
100
AcDbLine
10
-38.66
20
-5
30
0
11
-38.66
21
5
31
0
39
0
210
0
220
0
230
1
0
LINE
5
97
100
AcDbEntity
8
1
62
256
6
ByLayer
370
18
48
1
60
0
100
AcDbLine
10
1.404368
20
-4.169282
30
0
11
16.087392
21
-4.195712
31
0
39
0
210
0
220
0
230
1
0
LINE
5
98
100
AcDbEntity
8
1
62
256
6
ByLayer
370
18
48
1
60
0
100
AcDbLine
10
28.625416
20
-4.21828
30
0
11
43.219148
21
-4.244549
31
0
39
0
210
0
220
0
230
1
0
LINE
5
99
100
AcDbEntity
8
1
62
256
6
ByLayer
370
18
48
1
60
0
100
AcDbLine
10
55.793611
20
-4.267183
30
0
11
68.345096
21
-4.289776
31
0
39
0
210
0
220
0
230
1
0
LINE
5
9A
100
AcDbEntity
8
1
62
256
6
ByLayer
370
18
48
1
60
0
100
AcDbLine
10
69.023421
20
-4.290997
30
0
11
70.349097
21
-4.293383
31
0
39
0
210
0
220
0
230
1
0
LINE
5
9B
100
AcDbEntity
8
1
62
256
6
ByLayer
370
18
48
1
60
0
100
AcDbLine
10
83.141454
20
-4.316409
30
0
11
84.093995
21
-4.318124
31
0
39
0
210
0
220
0
230
1
0
LINE
5
9C
100
AcDbEntity
8
1
62
256
6
ByLayer
370
18
48
1
60
0
100
AcDbLine
10
96.229544
20
-4.339968
30
0
11
97.478018
21
-4.342215
31
0
39
0
210
0
220
0
230
1
0
LINE
5
9D
100
AcDbEntity
8
1
62
256
6
ByLayer
370
18
48
1
60
0
100
AcDbLine
10
97.478018
20
4.342215
30
0
11
96.229544
21
4.339968
31
0
39
0
210
0
220
0
230
1
0
LINE
5
9E
100
AcDbEntity
8
1
62
256
6
ByLayer
370
18
48
1
60
0
100
AcDbLine
10
84.093995
20
4.318124
30
0
11
83.141454
21
4.316409
31
0
39
0
210
0
220
0
230
1
0
LINE
5
9F
100
AcDbEntity
8
1
62
256
6
ByLayer
370
18
48
1
60
0
100
AcDbLine
10
70.349097
20
4.293383
30
0
11
69.023421
21
4.290997
31
0
39
0
210
0
220
0
230
1
0
LINE
5
A0
100
AcDbEntity
8
1
62
256
6
ByLayer
370
18
48
1
60
0
100
AcDbLine
10
68.345096
20
4.289776
30
0
11
55.793611
21
4.267183
31
0
39
0
210
0
220
0
230
1
0
LINE
5
A1
100
AcDbEntity
8
1
62
256
6
ByLayer
370
18
48
1
60
0
100
AcDbLine
10
43.219148
20
4.244549
30
0
11
28.625416
21
4.21828
31
0
39
0
210
0
220
0
230
1
0
LINE
5
A2
100
AcDbEntity
8
1
62
256
6
ByLayer
370
18
48
1
60
0
100
AcDbLine
10
16.087392
20
4.195712
30
0
11
1.404368
21
4.169282
31
0
39
0
210
0
220
0
230
1
0
LINE
5
A3
100
AcDbEntity
8
SK1
62
256
6
ByLayer
370
18
48
1
60
0
100
AcDbLine
10
-40
20
-3.66
30
0
11
-38.66
21
-5
31
0
39
0
210
0
220
0
230
1
0
LINE
5
A4
100
AcDbEntity
8
SK1
62
256
6
ByLayer
370
18
48
1
60
0
100
AcDbLine
10
-38.66
20
5
30
0
11
-40
21
3.66
31
0
39
0
210
0
220
0
230
1
0
LINE
5
A5
100
AcDbEntity
8
SK1
62
256
6
ByLayer
370
18
48
1
60
0
100
AcDbLine
10
-38.66
20
-5
30
0
11
0
21
-5
31
0
39
0
210
0
220
0
230
1
0
LINE
5
A6
100
AcDbEntity
8
SK1
62
256
6
ByLayer
370
18
48
1
60
0
100
AcDbLine
10
0
20
5
30
0
11
-38.66
21
5
31
0
39
0
210
0
220
0
230
1
0
LINE
5
A7
100
AcDbEntity
8
2
62
256
6
ByLayer
370
13
48
1
60
0
100
AcDbLine
10
119.5
20
-4.3655
30
0
11
119.5
21
32.398355
31
0
39
0
210
0
220
0
230
1
0
LINE
5
A9
100
AcDbEntity
8
2
62
256
6
ByLayer
370
13
48
1
60
0
100
AcDbLine
10
113.5875
20
4.3655
30
0
11
121.5
21
4.3655
31
0
39
0
210
0
220
0
230
1
0
LINE
5
AA
100
AcDbEntity
8
2
62
256
6
ByLayer
370
13
48
1
60
0
100
AcDbLine
10
113.5875
20
-4.3655
30
0
11
121.5
21
-4.3655
31
0
39
0
210
0
220
0
230
1
0
LINE
5
AB
100
AcDbEntity
8
1
62
256
6
ByLayer
370
18
48
1
60
1
100
AcDbLine
10
119.5
20
4.3655
30
0
11
119.960784
21
0.865502
31
0
39
0
210
0
220
0
230
1
0
LINE
5
AC
100
AcDbEntity
8
1
62
256
6
ByLayer
370
18
48
1
60
1
100
AcDbLine
10
119.960784
20
0.865502
30
0
11
119.039216
21
0.865498
31
0
39
0
210
0
220
0
230
1
0
LINE
5
AD
100
AcDbEntity
8
1
62
256
6
ByLayer
370
18
48
1
60
1
100
AcDbLine
10
119.039216
20
0.865498
30
0
11
119.5
21
4.3655
31
0
39
0
210
0
220
0
230
1
0
LINE
5
AE
100
AcDbEntity
8
1
62
256
6
ByLayer
370
18
48
1
60
1
100
AcDbLine
10
119.5
20
-4.3655
30
0
11
119.039216
21
-0.865502
31
0
39
0
210
0
220
0
230
1
0
LINE
5
AF
100
AcDbEntity
8
1
62
256
6
ByLayer
370
18
48
1
60
1
100
AcDbLine
10
119.039216
20
-0.865502
30
0
11
119.960784
21
-0.865498
31
0
39
0
210
0
220
0
230
1
0
LINE
5
B0
100
AcDbEntity
8
1
62
256
6
ByLayer
370
18
48
1
60
1
100
AcDbLine
10
119.960784
20
-0.865498
30
0
11
119.5
21
-4.3655
31
0
39
0
210
0
220
0
230
1
0
LINE
5
B1
100
AcDbEntity
8
SK2
62
256
6
ByLayer
370
13
48
1
60
0
100
AcDbLine
10
-48.5
20
-5
30
0
11
-48.5
21
15.333771
31
0
39
0
210
0
220
0
230
1
0
LINE
5
B3
100
AcDbEntity
8
SK2
62
256
6
ByLayer
370
13
48
1
60
0
100
AcDbLine
10
-41.5875
20
5
30
0
11
-50.5
21
5
31
0
39
0
210
0
220
0
230
1
0
LINE
5
B4
100
AcDbEntity
8
SK2
62
256
6
ByLayer
370
13
48
1
60
0
100
AcDbLine
10
-41.5875
20
-5
30
0
11
-50.5
21
-5
31
0
39
0
210
0
220
0
230
1
0
LINE
5
B5
100
AcDbEntity
8
1
62
256
6
ByLayer
370
18
48
1
60
1
100
AcDbLine
10
-48.5
20
5
30
0
11
-48.039216
21
1.500002
31
0
39
0
210
0
220
0
230
1
0
LINE
5
B6
100
AcDbEntity
8
1
62
256
6
ByLayer
370
18
48
1
60
1
100
AcDbLine
10
-48.039216
20
1.500002
30
0
11
-48.960784
21
1.499998
31
0
39
0
210
0
220
0
230
1
0
LINE
5
B7
100
AcDbEntity
8
1
62
256
6
ByLayer
370
18
48
1
60
1
100
AcDbLine
10
-48.960784
20
1.499998
30
0
11
-48.5
21
5
31
0
39
0
210
0
220
0
230
1
0
LINE
5
B8
100
AcDbEntity
8
1
62
256
6
ByLayer
370
18
48
1
60
1
100
AcDbLine
10
-48.5
20
-5
30
0
11
-48.960784
21
-1.500002
31
0
39
0
210
0
220
0
230
1
0
LINE
5
B9
100
AcDbEntity
8
1
62
256
6
ByLayer
370
18
48
1
60
1
100
AcDbLine
10
-48.960784
20
-1.500002
30
0
11
-48.039216
21
-1.499998
31
0
39
0
210
0
220
0
230
1
0
LINE
5
BA
100
AcDbEntity
8
1
62
256
6
ByLayer
370
18
48
1
60
1
100
AcDbLine
10
-48.039216
20
-1.499998
30
0
11
-48.5
21
-5
31
0
39
0
210
0
220
0
230
1
0
LINE
5
BB
100
AcDbEntity
8
SK2
62
256
6
ByLayer
370
13
48
1
60
0
100
AcDbLine
10
112.542984
20
1.491752
30
0
11
119.739353
21
21.26252
31
0
39
0
210
0
220
0
230
1
0
LINE
5
BC
100
AcDbEntity
8
SK2
62
256
6
ByLayer
370
13
48
1
60
0
100
AcDbLine
10
112.542984
20
-1.491752
30
0
11
119.739353
21
-21.26252
31
0
39
0
210
0
220
0
230
1
0
LINE
5
BD
100
AcDbEntity
8
1
62
256
6
ByLayer
370
18
48
1
60
1
100
AcDbLine
10
119.055279
20
19.383146
30
0
11
122.466372
21
18.473888
31
0
39
0
210
0
220
0
230
1
0
LINE
5
BE
100
AcDbEntity
8
1
62
256
6
ByLayer
370
18
48
1
60
1
100
AcDbLine
10
122.466372
20
18.473888
30
0
11
122.114812
21
17.622012
31
0
39
0
210
0
220
0
230
1
0
LINE
5
BF
100
AcDbEntity
8
1
62
256
6
ByLayer
370
18
48
1
60
1
100
AcDbLine
10
122.114812
20
17.622012
30
0
11
119.055279
21
19.383146
31
0
39
0
210
0
220
0
230
1
0
LINE
5
C0
100
AcDbEntity
8
1
62
256
6
ByLayer
370
18
48
1
60
1
100
AcDbLine
10
119.055279
20
-19.383146
30
0
11
122.114808
21
-17.622014
31
0
39
0
210
0
220
0
230
1
0
LINE
5
C1
100
AcDbEntity
8
1
62
256
6
ByLayer
370
18
48
1
60
1
100
AcDbLine
10
122.114808
20
-17.622014
30
0
11
122.466375
21
-18.473886
31
0
39
0
210
0
220
0
230
1
0
LINE
5
C2
100
AcDbEntity
8
1
62
256
6
ByLayer
370
18
48
1
60
1
100
AcDbLine
10
122.466375
20
-18.473886
30
0
11
119.055279
21
-19.383146
31
0
39
0
210
0
220
0
230
1
0
LINE
5
118
100
AcDbEntity
8
1
62
256
6
ByLayer
370
13
48
0.05
60
0
100
AcDbLine
10
-46.5
20
0
30
0
11
116.903752
21
0
31
0
39
0
210
0
220
0
230
1
0
LINE
5
11D
100
AcDbEntity
8
1
62
256
6
ByLayer
370
18
48
1
60
1
100
AcDbLine
10
119.5
20
4.3655
30
0
11
119.960784
21
0.865502
31
0
39
0
210
0
220
0
230
1
0
LINE
5
11E
100
AcDbEntity
8
1
62
256
6
ByLayer
370
18
48
1
60
1
100
AcDbLine
10
119.960784
20
0.865502
30
0
11
119.039216
21
0.865498
31
0
39
0
210
0
220
0
230
1
0
LINE
5
11F
100
AcDbEntity
8
1
62
256
6
ByLayer
370
18
48
1
60
1
100
AcDbLine
10
119.039216
20
0.865498
30
0
11
119.5
21
4.3655
31
0
39
0
210
0
220
0
230
1
0
LINE
5
121
100
AcDbEntity
8
1
62
256
6
ByLayer
370
18
48
1
60
1
100
AcDbLine
10
119.5
20
-4.3655
30
0
11
119.039216
21
-0.865502
31
0
39
0
210
0
220
0
230
1
0
LINE
5
122
100
AcDbEntity
8
1
62
256
6
ByLayer
370
18
48
1
60
1
100
AcDbLine
10
119.039216
20
-0.865502
30
0
11
119.960784
21
-0.865498
31
0
39
0
210
0
220
0
230
1
0
LINE
5
123
100
AcDbEntity
8
1
62
256
6
ByLayer
370
18
48
1
60
1
100
AcDbLine
10
119.960784
20
-0.865498
30
0
11
119.5
21
-4.3655
31
0
39
0
210
0
220
0
230
1
0
LINE
5
127
100
AcDbEntity
8
1
62
256
6
ByLayer
370
18
48
1
60
1
100
AcDbLine
10
-48.5
20
5
30
0
11
-48.039216
21
1.500002
31
0
39
0
210
0
220
0
230
1
0
LINE
5
128
100
AcDbEntity
8
1
62
256
6
ByLayer
370
18
48
1
60
1
100
AcDbLine
10
-48.039216
20
1.500002
30
0
11
-48.960784
21
1.499998
31
0
39
0
210
0
220
0
230
1
0
LINE
5
129
100
AcDbEntity
8
1
62
256
6
ByLayer
370
18
48
1
60
1
100
AcDbLine
10
-48.960784
20
1.499998
30
0
11
-48.5
21
5
31
0
39
0
210
0
220
0
230
1
0
LINE
5
12B
100
AcDbEntity
8
1
62
256
6
ByLayer
370
18
48
1
60
1
100
AcDbLine
10
-48.5
20
-5
30
0
11
-48.960784
21
-1.500002
31
0
39
0
210
0
220
0
230
1
0
LINE
5
12C
100
AcDbEntity
8
1
62
256
6
ByLayer
370
18
48
1
60
1
100
AcDbLine
10
-48.960784
20
-1.500002
30
0
11
-48.039216
21
-1.499998
31
0
39
0
210
0
220
0
230
1
0
LINE
5
12D
100
AcDbEntity
8
1
62
256
6
ByLayer
370
18
48
1
60
1
100
AcDbLine
10
-48.039216
20
-1.499998
30
0
11
-48.5
21
-5
31
0
39
0
210
0
220
0
230
1
0
LINE
5
130
100
AcDbEntity
8
1
62
256
6
ByLayer
370
18
48
1
60
1
100
AcDbLine
10
119.055279
20
19.383146
30
0
11
122.466372
21
18.473888
31
0
39
0
210
0
220
0
230
1
0
LINE
5
131
100
AcDbEntity
8
1
62
256
6
ByLayer
370
18
48
1
60
1
100
AcDbLine
10
122.466372
20
18.473888
30
0
11
122.114812
21
17.622012
31
0
39
0
210
0
220
0
230
1
0
LINE
5
132
100
AcDbEntity
8
1
62
256
6
ByLayer
370
18
48
1
60
1
100
AcDbLine
10
122.114812
20
17.622012
30
0
11
119.055279
21
19.383146
31
0
39
0
210
0
220
0
230
1
0
LINE
5
134
100
AcDbEntity
8
1
62
256
6
ByLayer
370
18
48
1
60
1
100
AcDbLine
10
119.055279
20
-19.383146
30
0
11
122.114808
21
-17.622014
31
0
39
0
210
0
220
0
230
1
0
LINE
5
135
100
AcDbEntity
8
1
62
256
6
ByLayer
370
18
48
1
60
1
100
AcDbLine
10
122.114808
20
-17.622014
30
0
11
122.466375
21
-18.473886
31
0
39
0
210
0
220
0
230
1
0
LINE
5
136
100
AcDbEntity
8
1
62
256
6
ByLayer
370
18
48
1
60
1
100
AcDbLine
10
122.466375
20
-18.473886
30
0
11
119.055279
21
-19.383146
31
0
39
0
210
0
220
0
230
1
0
MTEXT
5
119
100
AcDbEntity
8
2
62
256
6
ByLayer
370
18
48
1
60
0
100
AcDbMText
10
118.158886
20
18.023937
30
0
210
0
220
0
230
1
1
%%c
40
3
41
0
44
1.084337
50
90
71
7
72
5
7
iso_b_vert
0
MTEXT
5
11C
100
AcDbEntity
8
2
62
256
6
ByLayer
370
18
48
1
60
0
100
AcDbMText
10
118.158886
20
24.0005
30
0
210
0
220
0
230
1
1
\W0.7373;8.731
40
3
41
0
44
1.084337
50
90
71
7
72
5
7
iso_b_vert
0
MTEXT
5
125
100
AcDbEntity
8
SK2
62
256
6
ByLayer
370
18
48
1
60
0
100
AcDbMText
10
-49.841114
20
6.658437
30
0
210
0
220
0
230
1
1
%%c
40
3
41
0
44
1.084337
50
90
71
7
72
5
7
iso_b_vert
0
MTEXT
5
126
100
AcDbEntity
8
SK2
62
256
6
ByLayer
370
18
48
1
60
0
100
AcDbMText
10
-49.841114
20
12.635
30
0
210
0
220
0
230
1
1
\W0.5321;10
40
3
41
0
44
1.084337
50
90
71
7
72
5
7
iso_b_vert
0
MTEXT
5
12F
100
AcDbEntity
8
SK2
62
256
6
ByLayer
370
18
48
1
60
0
100
AcDbMText
10
129.186591
20
-2.114886
30
0
210
0
220
0
230
1
1
\W0.7071;140%%d
40
3
41
0
44
1.084337
50
0
71
7
72
5
7
iso_b_vert
0
MTEXT
5
138
100
AcDbEntity
8
SK6
62
256
6
ByLayer
370
18
48
1
60
0
100
AcDbMText
10
12.397799
20
-77.114886
30
0
210
0
220
0
230
1
1
\W0.7415;860.1-0873-071A1-SD S2BM
40
3
41
0
44
1.084337
50
0
71
7
72
5
7
iso_b_vert
0
HATCH
5
120
100
AcDbEntity
8
2
62
256
6
ByLayer
370
13
48
1
60
0
100
AcDbHatch
10
0
20
0
30
0
210
0
220
0
230
1
2
ANSI31
70
0
71
0
91
1
92
5
93
3
72
1
10
119.5
20
4.3655
11
119.960783741553
21
0.865501692553181
72
1
10
119.960783741553
20
0.865501692553181
11
119.039216258447
21
0.865498307446813
72
1
10
119.039216258447
20
0.865498307446813
11
119.5
21
4.3655
97
0
75
0
76
1
52
0
41
0.0062
77
0
78
1
53
45
43
0
44
0
45
-0.0139193969876572
46
0.0139193969876572
79
0
47
0
98
1
10
0
20
0
0
HATCH
5
124
100
AcDbEntity
8
2
62
256
6
ByLayer
370
13
48
1
60
0
100
AcDbHatch
10
0
20
0
30
0
210
0
220
0
230
1
2
ANSI31
70
0
71
0
91
1
92
5
93
3
72
1
10
119.5
20
-4.3655
11
119.039216258447
21
-0.865501692553181
72
1
10
119.039216258447
20
-0.865501692553181
11
119.960783741553
21
-0.865498307446813
72
1
10
119.960783741553
20
-0.865498307446813
11
119.5
21
-4.3655
97
0
75
0
76
1
52
0
41
0.0062
77
0
78
1
53
45
43
0
44
0
45
-0.0139193969876572
46
0.0139193969876572
79
0
47
0
98
1
10
0
20
0
0
HATCH
5
12A
100
AcDbEntity
8
SK2
62
256
6
ByLayer
370
13
48
1
60
0
100
AcDbHatch
10
0
20
0
30
0
210
0
220
0
230
1
2
ANSI31
70
0
71
0
91
1
92
5
93
3
72
1
10
-48.5
20
5
11
-48.0392162584472
21
1.50000169255318
72
1
10
-48.0392162584472
20
1.50000169255318
11
-48.9607837415528
21
1.49999830744682
72
1
10
-48.9607837415528
20
1.49999830744682
11
-48.5
21
5
97
0
75
0
76
1
52
0
41
0.0062
77
0
78
1
53
45
43
0
44
0
45
-0.0139193969876572
46
0.0139193969876572
79
0
47
0
98
1
10
0
20
0
0
HATCH
5
12E
100
AcDbEntity
8
SK2
62
256
6
ByLayer
370
13
48
1
60
0
100
AcDbHatch
10
0
20
0
30
0
210
0
220
0
230
1
2
ANSI31
70
0
71
0
91
1
92
5
93
3
72
1
10
-48.5
20
-5
11
-48.9607837415528
21
-1.50000169255318
72
1
10
-48.9607837415528
20
-1.50000169255318
11
-48.0392162584472
21
-1.49999830744682
72
1
10
-48.0392162584472
20
-1.49999830744682
11
-48.5
21
-5
97
0
75
0
76
1
52
0
41
0.0062
77
0
78
1
53
45
43
0
44
0
45
-0.0139193969876572
46
0.0139193969876572
79
0
47
0
98
1
10
0
20
0
0
HATCH
5
133
100
AcDbEntity
8
SK2
62
256
6
ByLayer
370
13
48
1
60
0
100
AcDbHatch
10
0
20
0
30
0
210
0
220
0
230
1
2
ANSI31
70
0
71
0
91
1
92
5
93
3
72
1
10
119.055278838567
20
19.3831464882099
11
122.466372265717
21
18.4738877572281
72
1
10
122.466372265717
20
18.4738877572281
11
122.114811507917
21
17.6220123793093
72
1
10
122.114811507917
20
17.6220123793093
11
119.055278838567
21
19.3831464882099
97
0
75
0
76
1
52
0
41
0.0062
77
0
78
1
53
45
43
0
44
0
45
-0.0139193969876572
46
0.0139193969876572
79
0
47
0
98
1
10
0
20
0
0
HATCH
5
137
100
AcDbEntity
8
SK2
62
256
6
ByLayer
370
13
48
1
60
0
100
AcDbHatch
10
0
20
0
30
0
210
0
220
0
230
1
2
ANSI31
70
0
71
0
91
1
92
5
93
3
72
1
10
119.055278838567
20
-19.3831464882098
11
122.114808378809
21
-17.6220136706754
72
1
10
122.114808378809
20
-17.6220136706754
11
122.466375394825
21
-18.4738864658618
72
1
10
122.466375394825
20
-18.4738864658618
11
119.055278838567
21
-19.3831464882098
97
0
75
0
76
1
52
0
41
0.0062
77
0
78
1
53
45
43
0
44
0
45
-0.0139193969876572
46
0.0139193969876572
79
0
47
0
98
1
10
0
20
0
0
DIMENSION
5
13B
100
AcDbEntity
8
SK2
62
256
6
ByLayer
370
18
48
1
60
0
100
AcDbDimension
2
_U0
10
40.6
20
-21.535981
30
0
11
76.3
21
-21.535981
31
0
70
32
71
1
72
1
41
1
210
0
220
0
230
1
3
Standard
100
AcDbAlignedDimension
13
112
23
-4.3655
33
0
14
40.6
24
-4.3655
34
0
50
0
100
AcDbRotatedDimension
1001
ACAD
1000
DSTYLE
1002
{
1070
   371
1070
    13
1070
   372
1070
    13
1070
   170
1070
     0
1070
   144
1040
1.0
1070
   277
1070
     2
1070
   284
1070
     8
1070
   278
1070
    46
1070
   146
1040
1.166667
1070
   345
1005
16
1070
   347
1005
16
1070
   346
1005
16
1070
   344
1005
0
1070
   343
1005
0
1070
   172
1070
     1
1070
    76
1070
     0
1070
    75
1070
     0
1070
   282
1070
     0
1070
   281
1070
     0
1070
     3
1000

1070
    71
1070
     0
1070
    74
1070
     0
1070
   279
1070
     0
1070
   173
1070
     1
1070
   340
1005
11A
1070
   271
1070
     2
1070
   272
1070
     2
1070
    77
1070
     1
1070
    73
1070
     1
1070
   171
1070
     3
1070
   274
1070
     4
1070
   177
1070
     2
1070
   176
1070
     2
1070
   178
1070
     2
1070
    78
1070
     8
1070
    48
1040
-0.1
1070
    41
1040
3.5
1070
   147
1040
1.5
1070
    42
1040
1.5875
1070
    44
1040
2.0
1070
   140
1040
3.0
1002
}
1001
ACAD_DSTYLE_DIM_LINETYPE
1070
   380
1005
16
1001
ACAD_DSTYLE_DIM_EXT1_LINETYPE
1070
   381
1005
16
1001
ACAD_DSTYLE_DIM_EXT2_LINETYPE
1070
   382
1005
16
0
DIMENSION
5
156
100
AcDbEntity
8
SK2
62
256
6
ByLayer
370
18
48
1
60
0
100
AcDbDimension
2
_U1
10
6
20
-31.535981
30
0
11
59
21
-31.535981
31
0
70
32
71
1
72
1
41
1
210
0
220
0
230
1
3
Standard
100
AcDbAlignedDimension
13
112
23
-4.3655
33
0
14
6
24
-4.3655
34
0
50
0
100
AcDbRotatedDimension
1001
ACAD
1000
DSTYLE
1002
{
1070
   371
1070
    13
1070
   372
1070
    13
1070
     3
1000

1070
   170
1070
     0
1070
   144
1040
1.0
1070
   277
1070
     2
1070
   284
1070
     8
1070
   278
1070
    46
1070
   146
1040
1.166667
1070
   345
1005
16
1070
   347
1005
16
1070
   346
1005
16
1070
   344
1005
0
1070
   343
1005
0
1070
   172
1070
     1
1070
    76
1070
     0
1070
    75
1070
     0
1070
   282
1070
     0
1070
   281
1070
     0
1070
    71
1070
     0
1070
    74
1070
     0
1070
   279
1070
     0
1070
   173
1070
     1
1070
   340
1005
11A
1070
   271
1070
     2
1070
   272
1070
     2
1070
    77
1070
     1
1070
    73
1070
     1
1070
   171
1070
     3
1070
   274
1070
     4
1070
   177
1070
     2
1070
   176
1070
     2
1070
   178
1070
     2
1070
    78
1070
     8
1070
    48
1040
-0.1
1070
    41
1040
3.5
1070
   147
1040
1.5
1070
    42
1040
1.5875
1070
    44
1040
2.0
1070
   140
1040
3.0
1002
}
1001
ACAD_DSTYLE_DIM_LINETYPE
1070
   380
1005
16
1001
ACAD_DSTYLE_DIM_EXT1_LINETYPE
1070
   381
1005
16
1001
ACAD_DSTYLE_DIM_EXT2_LINETYPE
1070
   382
1005
16
0
DIMENSION
5
16E
100
AcDbEntity
8
SK2
62
256
6
ByLayer
370
18
48
1
60
0
100
AcDbDimension
2
_U2
10
0
20
-39.535981
30
0
11
-20
21
-39.535981
31
0
70
32
71
1
72
1
41
1
210
0
220
0
230
1
3
Standard
100
AcDbAlignedDimension
13
-40
23
-5
33
0
14
0
24
-5
34
0
50
0
100
AcDbRotatedDimension
1001
ACAD
1000
DSTYLE
1002
{
1070
   371
1070
    13
1070
   372
1070
    13
1070
     3
1000

1070
   170
1070
     0
1070
   144
1040
1.0
1070
   277
1070
     2
1070
   284
1070
     8
1070
   278
1070
    46
1070
   146
1040
1.166667
1070
   345
1005
16
1070
   347
1005
16
1070
   346
1005
16
1070
   344
1005
0
1070
   343
1005
0
1070
   172
1070
     1
1070
    76
1070
     0
1070
    75
1070
     0
1070
   282
1070
     0
1070
   281
1070
     0
1070
    71
1070
     0
1070
    74
1070
     0
1070
   279
1070
     0
1070
   173
1070
     1
1070
   340
1005
11A
1070
   271
1070
     2
1070
   272
1070
     2
1070
    77
1070
     1
1070
    73
1070
     1
1070
   171
1070
     3
1070
   274
1070
     4
1070
   177
1070
     2
1070
   176
1070
     2
1070
   178
1070
     2
1070
    78
1070
     8
1070
    48
1040
-0.1
1070
    41
1040
3.5
1070
   147
1040
1.5
1070
    42
1040
1.5875
1070
    44
1040
2.0
1070
   140
1040
3.0
1002
}
1001
ACAD_DSTYLE_DIM_LINETYPE
1070
   380
1005
16
1001
ACAD_DSTYLE_DIM_EXT1_LINETYPE
1070
   381
1005
16
1001
ACAD_DSTYLE_DIM_EXT2_LINETYPE
1070
   382
1005
16
0
DIMENSION
5
186
100
AcDbEntity
8
SK2
62
256
6
ByLayer
370
18
48
1
60
0
100
AcDbDimension
2
_U3
10
112
20
-47.535981
30
0
11
36
21
-47.535981
31
0
70
32
71
1
72
1
41
1
210
0
220
0
230
1
3
Standard
100
AcDbAlignedDimension
13
-40
23
-5
33
0
14
112
24
-4.3655
34
0
50
0
100
AcDbRotatedDimension
1001
ACAD
1000
DSTYLE
1002
{
1070
   371
1070
    13
1070
   372
1070
    13
1070
     3
1000

1070
   170
1070
     0
1070
   144
1040
1.0
1070
   277
1070
     2
1070
   284
1070
     8
1070
   278
1070
    46
1070
   146
1040
1.166667
1070
   345
1005
16
1070
   347
1005
16
1070
   346
1005
16
1070
   344
1005
0
1070
   343
1005
0
1070
   172
1070
     1
1070
    76
1070
     0
1070
    75
1070
     0
1070
   282
1070
     0
1070
   281
1070
     0
1070
    71
1070
     0
1070
    74
1070
     0
1070
   279
1070
     0
1070
   173
1070
     1
1070
   340
1005
11A
1070
   271
1070
     2
1070
   272
1070
     2
1070
    77
1070
     1
1070
    73
1070
     1
1070
   171
1070
     3
1070
   274
1070
     4
1070
   177
1070
     2
1070
   176
1070
     2
1070
   178
1070
     2
1070
    78
1070
     8
1070
    48
1040
-0.1
1070
    41
1040
3.5
1070
   147
1040
1.5
1070
    42
1040
1.5875
1070
    44
1040
2.0
1070
   140
1040
3.0
1002
}
1001
ACAD_DSTYLE_DIM_LINETYPE
1070
   380
1005
16
1001
ACAD_DSTYLE_DIM_EXT1_LINETYPE
1070
   381
1005
16
1001
ACAD_DSTYLE_DIM_EXT2_LINETYPE
1070
   382
1005
16
0
DIMENSION
5
19E
100
AcDbEntity
8
2
62
256
6
ByLayer
370
18
48
1
60
0
100
AcDbDimension
2
_U4
10
0
20
-39.535981
30
0
11
56
21
-39.535981
31
0
70
32
71
1
72
1
41
1
210
0
220
0
230
1
3
Standard
100
AcDbAlignedDimension
13
112
23
-4.3655
33
0
14
0
24
-4.3655
34
0
50
0
100
AcDbRotatedDimension
1001
ACAD
1000
DSTYLE
1002
{
1070
   371
1070
    13
1070
   372
1070
    13
1070
     3
1000

1070
   170
1070
     0
1070
   144
1040
1.0
1070
   277
1070
     2
1070
   284
1070
     8
1070
   278
1070
    46
1070
   146
1040
1.166667
1070
   345
1005
16
1070
   347
1005
16
1070
   346
1005
16
1070
   344
1005
0
1070
   343
1005
0
1070
   172
1070
     1
1070
    76
1070
     0
1070
    75
1070
     0
1070
   282
1070
     0
1070
   281
1070
     0
1070
    71
1070
     0
1070
    74
1070
     0
1070
   279
1070
     0
1070
   173
1070
     1
1070
   340
1005
11A
1070
   271
1070
     2
1070
   272
1070
     2
1070
    77
1070
     1
1070
    73
1070
     1
1070
   171
1070
     3
1070
   274
1070
     4
1070
   177
1070
     2
1070
   176
1070
     2
1070
   178
1070
     2
1070
    78
1070
     8
1070
    48
1040
-0.1
1070
    41
1040
3.5
1070
   147
1040
1.5
1070
    42
1040
1.5875
1070
    44
1040
2.0
1070
   140
1040
3.0
1002
}
1001
ACAD_DSTYLE_DIM_LINETYPE
1070
   380
1005
16
1001
ACAD_DSTYLE_DIM_EXT1_LINETYPE
1070
   381
1005
16
1001
ACAD_DSTYLE_DIM_EXT2_LINETYPE
1070
   382
1005
16
0
ENDSEC
0
SECTION
2
OBJECTS
0
DICTIONARY
5
226
330
0
100
AcDbDictionary
280
0
281
1
3
ACAD_GROUP
350
227
3
ACAD_MLINESTYLE
350
228
0
DICTIONARY
5
227
330
0
100
AcDbDictionary
280
0
281
1
0
DICTIONARY
5
228
330
0
100
AcDbDictionary
280
0
281
1
3
Standard
350
18
0
MLINESTYLE
5
18
330
228
100
AcDbMlineStyle
2
Standard
70
0
3

62
256
51
90
52
90
71
2
49
-0.5
62
256
6
ByLayer
49
0.5
62
256
6
ByLayer
0
RASTERVARIABLES
5
214
330

100
AcDbRasterVariables
90
0
70
1
71
1
72
1
0
ENDSEC
0
EOF
