0
SECTION
2
HEADER
9
$ACADVER
1
AC1015
9
$DWGCODEPAGE
3
ANSI_1252
9
$HANDSEED
5
24c
9
$ANGBASE
50
0
9
$ANGDIR
70
0
9
$ATTMODE
70
1
9
$AUNITS
70
0
9
$AUPREC
70
0
9
$CECOLOR
62
256
9
$CELTSCALE
40
1
9
$CELTYPE
6
ByLayer
9
$CELWEIGHT
370
18
9
$CLAYER
8
0
9
$CMLJUST
70
0
9
$CMLSCALE
40
1
9
$CMLSTYLE
2
Standard
9
$DIMSTYLE
2
Standard
9
$TEXTSIZE
40
0.2
9
$TEXTSTYLE
7
Standard
9
$LUNITS
70
2
9
$LUPREC
70
4
9
$EXTNAMES
290
1
9
$INSUNITS
70
4
9
$LTSCALE
40
1
9
$LWDISPLAY
290
1
9
$PDMODE
70
0
9
$PDSIZE
40
0
9
$PLINEGEN
70
0
0
ENDSEC
0
SECTION
2
CLASSES
0
CLASS
1
RASTERVARIABLES
2
AcDbRasterVariables
3
ISM
90
0
280
0
281
0
0
ENDSEC
0
SECTION
2
TABLES
0
TABLE
2
VPORT
5
242
100
AcDbSymbolTable
0
VPORT
5
1
100
AcDbSymbolTableRecord
100
AcDbViewportTableRecord
2
*Active
70
0
10
0
20
0
11
1
21
1
12
-1
22
1
13
0
23
0
14
0.5
24
0.5
15
10
25
10
16
0
26
0
36
1
17
0
27
0
37
0
0
ENDTAB
0
TABLE
2
LTYPE
5
243
100
AcDbSymbolTable
0
LTYPE
5
14
100
AcDbSymbolTableRecord
100
AcDbLinetypeTableRecord
70
0
2
ByBlock
3

72
65
73
0
40
0
0
LTYPE
5
15
100
AcDbSymbolTableRecord
100
AcDbLinetypeTableRecord
70
0
2
ByLayer
3

72
65
73
0
40
0
0
LTYPE
5
16
100
AcDbSymbolTableRecord
100
AcDbLinetypeTableRecord
70
0
2
Continuous
3
Solid line
72
65
73
0
40
0
0
LTYPE
5
6E
100
AcDbSymbolTableRecord
100
AcDbLinetypeTableRecord
70
0
2
CENTER
3
____ _ ____ _ ____ _ ____
72
65
73
4
40
47.5
49
22
74
0
49
-8.5
74
0
49
8.5
74
0
49
-8.5
74
0
0
LTYPE
5
6F
100
AcDbSymbolTableRecord
100
AcDbLinetypeTableRecord
70
0
2
DASHED
3
__ __ __ __ __ __ __ __ __
72
65
73
2
40
25.72
49
12.86
74
0
49
-12.86
74
0
0
ENDTAB
0
TABLE
2
LAYER
5
244
100
AcDbSymbolTable
0
LAYER
5
10
100
AcDbSymbolTableRecord
100
AcDbLayerTableRecord
2
0
70
0
62
7
6
Continuous
290
1
370
-3
390
0
0
LAYER
5
71
100
AcDbSymbolTableRecord
100
AcDbLayerTableRecord
2
81
70
0
62
-3
6
Continuous
290
1
370
-3
390
0
0
LAYER
5
73
100
AcDbSymbolTableRecord
100
AcDbLayerTableRecord
2
80
70
0
62
-6
6
Continuous
290
1
370
-3
390
0
0
LAYER
5
75
100
AcDbSymbolTableRecord
100
AcDbLayerTableRecord
2
1
70
0
62
4
6
Continuous
290
1
370
-3
390
0
0
LAYER
5
83
100
AcDbSymbolTableRecord
100
AcDbLayerTableRecord
2
4
70
0
62
-2
6
CENTER
290
1
370
-3
390
0
0
LAYER
5
A9
100
AcDbSymbolTableRecord
100
AcDbLayerTableRecord
2
2
70
0
62
7
6
Continuous
290
1
370
-3
390
0
0
LAYER
5
157
100
AcDbSymbolTableRecord
100
AcDbLayerTableRecord
2
Defpoints
70
0
62
7
6
Continuous
290
0
370
-3
390
0
0
LAYER
5
22e
100
AcDbSymbolTableRecord
100
AcDbLayerTableRecord
2
SK4
70
0
62
2
6
CENTER
290
1
370
-3
390
0
0
LAYER
5
22f
100
AcDbSymbolTableRecord
100
AcDbLayerTableRecord
2
SK1
70
0
62
4
6
Continuous
290
1
370
-3
390
0
0
LAYER
5
230
100
AcDbSymbolTableRecord
100
AcDbLayerTableRecord
2
SK2
70
0
62
7
6
Continuous
290
1
370
-3
390
0
0
LAYER
5
231
100
AcDbSymbolTableRecord
100
AcDbLayerTableRecord
2
SK6
70
0
62
5
6
Continuous
290
1
370
-3
390
0
0
ENDTAB
0
TABLE
2
STYLE
5
245
100
AcDbSymbolTable
0
STYLE
5
11
100
AcDbSymbolTableRecord
100
AcDbTextStyleTableRecord
2
Standard
3
txt
70
0
71
0
40
0
41
1
42
0
50
0
0
STYLE
5
133
100
AcDbSymbolTableRecord
100
AcDbTextStyleTableRecord
2
iso_b_vert
3
simplex.shx
70
0
71
0
40
0
41
1
42
0
50
0
0
STYLE
5
134
100
AcDbSymbolTableRecord
100
AcDbTextStyleTableRecord
2
DWGDirectTextStyle
3
simplex
70
0
71
0
40
0
41
1
42
0
50
0
0
ENDTAB
0
TABLE
2
DIMSTYLE
5
246
100
AcDbSymbolTable
100
AcDbDimStyleTable
0
DIMSTYLE
105
27
100
AcDbSymbolTableRecord
100
AcDbDimStyleTableRecord
2
Standard
70
0
3
<>
41
0.18
42
0.0625
44
0.18
140
0.18
147
0.09
73
0
74
0
77
1
271
2
275
0
278
52
280
0
340
11
0
ENDTAB
0
TABLE
2
VIEW
5
247
100
AcDbSymbolTable
0
ENDTAB
0
TABLE
2
UCS
5
248
100
AcDbSymbolTable
0
ENDTAB
0
TABLE
2
APPID
5
249
100
AcDbSymbolTable
0
APPID
5
12
100
AcDbSymbolTableRecord
100
AcDbRegAppTableRecord
2
ACAD
70
0
0
APPID
5
153
100
AcDbSymbolTableRecord
100
AcDbRegAppTableRecord
2
ACAD_DSTYLE_DIMBREAK
70
0
0
APPID
5
1ED
100
AcDbSymbolTableRecord
100
AcDbRegAppTableRecord
2
ACAD_DSTYLE_DIM_LINETYPE
70
0
0
APPID
5
1EE
100
AcDbSymbolTableRecord
100
AcDbRegAppTableRecord
2
ACAD_DSTYLE_DIM_EXT1_LINETYPE
70
0
0
APPID
5
1EF
100
AcDbSymbolTableRecord
100
AcDbRegAppTableRecord
2
ACAD_DSTYLE_DIM_EXT2_LINETYPE
70
0
0
APPID
5
22A
100
AcDbSymbolTableRecord
100
AcDbRegAppTableRecord
2
ACAD_MLEADERVER
70
0
0
ENDTAB
0
TABLE
2
BLOCK_RECORD
5
24a
100
AcDbSymbolTable
0
BLOCK_RECORD
5
1F
100
AcDbSymbolTableRecord
100
AcDbBlockTableRecord
2
*Model_Space
340
0
70
0
0
BLOCK_RECORD
5
1B
100
AcDbSymbolTableRecord
100
AcDbBlockTableRecord
2
*Paper_Space
340
0
70
0
0
BLOCK_RECORD
5
23
100
AcDbSymbolTableRecord
100
AcDbBlockTableRecord
2
*Paper_Space0
340
0
70
0
0
BLOCK_RECORD
5
158
100
AcDbSymbolTableRecord
100
AcDbBlockTableRecord
2
*D1
340
0
70
0
0
BLOCK_RECORD
5
164
100
AcDbSymbolTableRecord
100
AcDbBlockTableRecord
2
_U0
340
0
70
0
0
BLOCK_RECORD
5
172
100
AcDbSymbolTableRecord
100
AcDbBlockTableRecord
2
*D3
340
0
70
0
0
BLOCK_RECORD
5
17E
100
AcDbSymbolTableRecord
100
AcDbBlockTableRecord
2
_U1
340
0
70
0
0
BLOCK_RECORD
5
18A
100
AcDbSymbolTableRecord
100
AcDbBlockTableRecord
2
*D5
340
0
70
0
0
BLOCK_RECORD
5
196
100
AcDbSymbolTableRecord
100
AcDbBlockTableRecord
2
_U2
340
0
70
0
0
BLOCK_RECORD
5
1A2
100
AcDbSymbolTableRecord
100
AcDbBlockTableRecord
2
*D7
340
0
70
0
0
BLOCK_RECORD
5
1AE
100
AcDbSymbolTableRecord
100
AcDbBlockTableRecord
2
_U3
340
0
70
0
0
BLOCK_RECORD
5
1BA
100
AcDbSymbolTableRecord
100
AcDbBlockTableRecord
2
*D9
340
0
70
0
0
BLOCK_RECORD
5
1C6
100
AcDbSymbolTableRecord
100
AcDbBlockTableRecord
2
_U4
340
0
70
0
0
ENDTAB
0
ENDSEC
0
SECTION
2
BLOCKS
0
BLOCK
5
20
100
AcDbEntity
8
0
100
AcDbBlockBegin
2
*Model_Space
70
0
10
0
20
0
30
0
3
*Model_Space
0
ENDBLK
5
21
100
AcDbEntity
8
0
100
AcDbBlockEnd
0
BLOCK
5
1C
100
AcDbEntity
8
0
100
AcDbBlockBegin
2
*Paper_Space
70
0
10
0
20
0
30
0
3
*Paper_Space
0
ENDBLK
5
1D
100
AcDbEntity
8
0
100
AcDbBlockEnd
0
BLOCK
5
24
100
AcDbEntity
8
0
100
AcDbBlockBegin
2
*Paper_Space0
70
0
10
0
20
0
30
0
3
*Paper_Space0
0
ENDBLK
5
25
100
AcDbEntity
8
0
100
AcDbBlockEnd
0
BLOCK
5
159
100
AcDbEntity
8
0
100
AcDbBlockBegin
2
*D1
70
1
10
0
20
0
30
0
3
*D1
0
LINE
5
15B
100
AcDbEntity
8
0
62
256
6
ByLayer
370
-2
48
1
60
0
100
AcDbLine
10
90
20
-5.5875
30
0
11
90
21
-21.800885
31
0
39
0
210
0
220
0
230
1
0
LINE
5
15C
100
AcDbEntity
8
0
62
256
6
ByLayer
370
-2
48
1
60
0
100
AcDbLine
10
24.6
20
-5.5875
30
0
11
24.6
21
-21.800885
31
0
39
0
210
0
220
0
230
1
0
LINE
5
15D
100
AcDbEntity
8
0
62
256
6
ByLayer
370
-2
48
1
60
0
100
AcDbLine
10
86.5
20
-19.800885
30
0
11
28.1
21
-19.800885
31
0
39
0
210
0
220
0
230
1
0
SOLID
5
15E
100
AcDbEntity
8
0
62
256
6
ByLayer
370
-1
48
1
60
0
100
AcDbTrace
10
86.5
20
-20.384219
30
0
11
86.5
21
-19.217552
31
0
12
90
22
-19.800885
32
0
13
90
23
-19.800885
33
0
39
0
210
0
220
0
230
1
0
SOLID
5
15F
100
AcDbEntity
8
0
62
256
6
ByLayer
370
-1
48
1
60
0
100
AcDbTrace
10
28.1
20
-19.217552
30
0
11
28.1
21
-20.384219
31
0
12
24.6
22
-19.800885
32
0
13
24.6
23
-19.800885
33
0
39
0
210
0
220
0
230
1
0
MTEXT
5
160
100
AcDbEntity
8
0
62
256
6
ByLayer
370
18
48
1
60
0
100
AcDbMText
10
57.3
20
-13.800885
30
0
210
0
220
0
230
1
1
\A1;65.4
40
3
41
0
44
1
50
0
71
5
72
5
7
iso_b_vert
0
POINT
5
161
100
AcDbEntity
8
Defpoints
62
0
6
ByLayer
370
-1
48
1
60
0
100
AcDbPoint
10
90
20
-4
30
0
39
0
210
0
220
0
230
1
50
360
0
POINT
5
162
100
AcDbEntity
8
Defpoints
62
0
6
ByLayer
370
-1
48
1
60
0
100
AcDbPoint
10
24.6
20
-4
30
0
39
0
210
0
220
0
230
1
50
360
0
POINT
5
163
100
AcDbEntity
8
Defpoints
62
0
6
ByLayer
370
-1
48
1
60
0
100
AcDbPoint
10
24.6
20
-19.800885
30
0
39
0
210
0
220
0
230
1
50
360
0
ENDBLK
5
15A
100
AcDbEntity
8
0
100
AcDbBlockEnd
0
BLOCK
5
16D
100
AcDbEntity
8
0
100
AcDbBlockBegin
2
_U0
70
0
10
0
20
0
30
0
3
_U0
0
MTEXT
5
165
100
AcDbEntity
8
SK2
62
256
6
ByLayer
370
18
48
1
60
0
100
AcDbMText
10
53.780601
20
-17.603271
30
0
210
0
220
0
230
1
1
\W0.7528;65.4
40
3
41
0
44
1.084337
50
0
71
7
72
5
7
iso_b_vert
0
MTEXT
5
166
100
AcDbEntity
8
SK2
62
256
6
ByLayer
370
18
48
1
60
0
100
AcDbMText
10
51.680601
20
-17.603271
30
0
210
0
220
0
230
1
1
\W1.1313;{\H1.88x;(}
40
3
41
0
44
1.084337
50
0
71
7
72
5
7
iso_b_vert
0
MTEXT
5
167
100
AcDbEntity
8
SK2
62
256
6
ByLayer
370
18
48
1
60
0
100
AcDbMText
10
61.137399
20
-17.603271
30
0
210
0
220
0
230
1
1
\W1.1313;{\H1.88x;)}
40
3
41
0
44
1.084337
50
0
71
7
72
5
7
iso_b_vert
0
LINE
5
168
100
AcDbEntity
8
SK2
62
256
6
ByLayer
370
13
48
1
60
0
100
AcDbLine
10
90
20
-5.5875
30
0
11
90
21
-21.800885
31
0
39
0
210
0
220
0
230
1
0
LINE
5
169
100
AcDbEntity
8
SK2
62
256
6
ByLayer
370
13
48
1
60
0
100
AcDbLine
10
24.6
20
-5.5875
30
0
11
24.6
21
-21.800885
31
0
39
0
210
0
220
0
230
1
0
LINE
5
16A
100
AcDbEntity
8
SK2
62
256
6
ByLayer
370
13
48
1
60
0
100
AcDbLine
10
90
20
-19.800885
30
0
11
24.6
21
-19.800885
31
0
39
0
210
0
220
0
230
1
0
SOLID
5
16B
100
AcDbEntity
8
SK2
62
256
6
ByLayer
370
18
48
1
60
0
100
AcDbTrace
10
90
20
-19.800885
30
0
11
86.500002
21
-20.261669
31
0
12
86.499998
22
-19.340102
32
0
13
86.499998
23
-19.340102
33
0
39
0
210
0
220
0
230
1
0
SOLID
5
16C
100
AcDbEntity
8
SK2
62
256
6
ByLayer
370
18
48
1
60
0
100
AcDbTrace
10
24.6
20
-19.800885
30
0
11
28.099998
21
-19.340102
31
0
12
28.100002
22
-20.261669
32
0
13
28.100002
23
-20.261669
33
0
39
0
210
0
220
0
230
1
0
ENDBLK
5
16E
100
AcDbEntity
8
0
100
AcDbBlockEnd
0
BLOCK
5
173
100
AcDbEntity
8
0
100
AcDbBlockBegin
2
*D3
70
1
10
0
20
0
30
0
3
*D3
0
LINE
5
175
100
AcDbEntity
8
0
62
256
6
ByLayer
370
-2
48
1
60
0
100
AcDbLine
10
90
20
-5.5875
30
0
11
90
21
-31.800885
31
0
39
0
210
0
220
0
230
1
0
LINE
5
176
100
AcDbEntity
8
0
62
256
6
ByLayer
370
-2
48
1
60
0
100
AcDbLine
10
6
20
-5.5875
30
0
11
6
21
-31.800885
31
0
39
0
210
0
220
0
230
1
0
LINE
5
177
100
AcDbEntity
8
0
62
256
6
ByLayer
370
-2
48
1
60
0
100
AcDbLine
10
86.5
20
-29.800885
30
0
11
9.5
21
-29.800885
31
0
39
0
210
0
220
0
230
1
0
SOLID
5
178
100
AcDbEntity
8
0
62
256
6
ByLayer
370
-1
48
1
60
0
100
AcDbTrace
10
86.5
20
-30.384219
30
0
11
86.5
21
-29.217552
31
0
12
90
22
-29.800885
32
0
13
90
23
-29.800885
33
0
39
0
210
0
220
0
230
1
0
SOLID
5
179
100
AcDbEntity
8
0
62
256
6
ByLayer
370
-1
48
1
60
0
100
AcDbTrace
10
9.5
20
-29.217552
30
0
11
9.5
21
-30.384219
31
0
12
6
22
-29.800885
32
0
13
6
23
-29.800885
33
0
39
0
210
0
220
0
230
1
0
MTEXT
5
17A
100
AcDbEntity
8
0
62
256
6
ByLayer
370
18
48
1
60
0
100
AcDbMText
10
48
20
-23.800885
30
0
210
0
220
0
230
1
1
\A1;84
40
3
41
0
44
1
50
0
71
5
72
5
7
iso_b_vert
0
POINT
5
17B
100
AcDbEntity
8
Defpoints
62
0
6
ByLayer
370
-1
48
1
60
0
100
AcDbPoint
10
90
20
-4
30
0
39
0
210
0
220
0
230
1
50
360
0
POINT
5
17C
100
AcDbEntity
8
Defpoints
62
0
6
ByLayer
370
-1
48
1
60
0
100
AcDbPoint
10
6
20
-4
30
0
39
0
210
0
220
0
230
1
50
360
0
POINT
5
17D
100
AcDbEntity
8
Defpoints
62
0
6
ByLayer
370
-1
48
1
60
0
100
AcDbPoint
10
6
20
-29.800885
30
0
39
0
210
0
220
0
230
1
50
360
0
ENDBLK
5
174
100
AcDbEntity
8
0
100
AcDbBlockEnd
0
BLOCK
5
185
100
AcDbEntity
8
0
100
AcDbBlockBegin
2
_U1
70
0
10
0
20
0
30
0
3
_U1
0
MTEXT
5
17F
100
AcDbEntity
8
SK2
62
256
6
ByLayer
370
18
48
1
60
0
100
AcDbMText
10
46.209229
20
-28.915771
30
0
210
0
220
0
230
1
1
\W0.7167;84
40
3
41
0
44
1.084337
50
0
71
7
72
5
7
iso_b_vert
0
LINE
5
180
100
AcDbEntity
8
SK2
62
256
6
ByLayer
370
13
48
1
60
0
100
AcDbLine
10
90
20
-5.5875
30
0
11
90
21
-31.800885
31
0
39
0
210
0
220
0
230
1
0
LINE
5
181
100
AcDbEntity
8
SK2
62
256
6
ByLayer
370
13
48
1
60
0
100
AcDbLine
10
6
20
-5.5875
30
0
11
6
21
-31.800885
31
0
39
0
210
0
220
0
230
1
0
LINE
5
182
100
AcDbEntity
8
SK2
62
256
6
ByLayer
370
13
48
1
60
0
100
AcDbLine
10
90
20
-29.800885
30
0
11
6
21
-29.800885
31
0
39
0
210
0
220
0
230
1
0
SOLID
5
183
100
AcDbEntity
8
SK2
62
256
6
ByLayer
370
18
48
1
60
0
100
AcDbTrace
10
90
20
-29.800885
30
0
11
86.500002
21
-30.261669
31
0
12
86.499998
22
-29.340102
32
0
13
86.499998
23
-29.340102
33
0
39
0
210
0
220
0
230
1
0
SOLID
5
184
100
AcDbEntity
8
SK2
62
256
6
ByLayer
370
18
48
1
60
0
100
AcDbTrace
10
6
20
-29.800885
30
0
11
9.499998
21
-29.340102
31
0
12
9.500002
22
-30.261669
32
0
13
9.500002
23
-30.261669
33
0
39
0
210
0
220
0
230
1
0
ENDBLK
5
186
100
AcDbEntity
8
0
100
AcDbBlockEnd
0
BLOCK
5
18B
100
AcDbEntity
8
0
100
AcDbBlockBegin
2
*D5
70
1
10
0
20
0
30
0
3
*D5
0
LINE
5
18D
100
AcDbEntity
8
0
62
256
6
ByLayer
370
-2
48
1
60
0
100
AcDbLine
10
-36
20
-5.5875
30
0
11
-36
21
-39.800885
31
0
39
0
210
0
220
0
230
1
0
LINE
5
18E
100
AcDbEntity
8
0
62
256
6
ByLayer
370
-2
48
1
60
0
100
AcDbLine
10
0
20
-5.5875
30
0
11
0
21
-39.800885
31
0
39
0
210
0
220
0
230
1
0
LINE
5
18F
100
AcDbEntity
8
0
62
256
6
ByLayer
370
-2
48
1
60
0
100
AcDbLine
10
-32.5
20
-37.800885
30
0
11
-3.5
21
-37.800885
31
0
39
0
210
0
220
0
230
1
0
SOLID
5
190
100
AcDbEntity
8
0
62
256
6
ByLayer
370
-1
48
1
60
0
100
AcDbTrace
10
-32.5
20
-37.217552
30
0
11
-32.5
21
-38.384219
31
0
12
-36
22
-37.800885
32
0
13
-36
23
-37.800885
33
0
39
0
210
0
220
0
230
1
0
SOLID
5
191
100
AcDbEntity
8
0
62
256
6
ByLayer
370
-1
48
1
60
0
100
AcDbTrace
10
-3.5
20
-38.384219
30
0
11
-3.5
21
-37.217552
31
0
12
0
22
-37.800885
32
0
13
0
23
-37.800885
33
0
39
0
210
0
220
0
230
1
0
MTEXT
5
192
100
AcDbEntity
8
0
62
256
6
ByLayer
370
18
48
1
60
0
100
AcDbMText
10
-18
20
-31.800885
30
0
210
0
220
0
230
1
1
\A1;36
40
3
41
0
44
1
50
0
71
5
72
5
7
iso_b_vert
0
POINT
5
193
100
AcDbEntity
8
Defpoints
62
0
6
ByLayer
370
-1
48
1
60
0
100
AcDbPoint
10
-36
20
-4
30
0
39
0
210
0
220
0
230
1
50
360
0
POINT
5
194
100
AcDbEntity
8
Defpoints
62
0
6
ByLayer
370
-1
48
1
60
0
100
AcDbPoint
10
0
20
-4
30
0
39
0
210
0
220
0
230
1
50
360
0
POINT
5
195
100
AcDbEntity
8
Defpoints
62
0
6
ByLayer
370
-1
48
1
60
0
100
AcDbPoint
10
0
20
-37.800885
30
0
39
0
210
0
220
0
230
1
50
360
0
ENDBLK
5
18C
100
AcDbEntity
8
0
100
AcDbBlockEnd
0
BLOCK
5
19D
100
AcDbEntity
8
0
100
AcDbBlockBegin
2
_U2
70
0
10
0
20
0
30
0
3
_U2
0
MTEXT
5
197
100
AcDbEntity
8
SK2
62
256
6
ByLayer
370
18
48
1
60
0
100
AcDbMText
10
-19.632828
20
-36.915771
30
0
210
0
220
0
230
1
1
\W0.6740;36
40
3
41
0
44
1.084337
50
0
71
7
72
5
7
iso_b_vert
0
LINE
5
198
100
AcDbEntity
8
SK2
62
256
6
ByLayer
370
13
48
1
60
0
100
AcDbLine
10
-36
20
-5.5875
30
0
11
-36
21
-39.800885
31
0
39
0
210
0
220
0
230
1
0
LINE
5
199
100
AcDbEntity
8
SK2
62
256
6
ByLayer
370
13
48
1
60
0
100
AcDbLine
10
0
20
-5.5875
30
0
11
0
21
-39.800885
31
0
39
0
210
0
220
0
230
1
0
LINE
5
19A
100
AcDbEntity
8
SK2
62
256
6
ByLayer
370
13
48
1
60
0
100
AcDbLine
10
-36
20
-37.800885
30
0
11
0
21
-37.800885
31
0
39
0
210
0
220
0
230
1
0
SOLID
5
19B
100
AcDbEntity
8
SK2
62
256
6
ByLayer
370
18
48
1
60
0
100
AcDbTrace
10
-36
20
-37.800885
30
0
11
-32.500002
21
-37.340102
31
0
12
-32.499998
22
-38.261669
32
0
13
-32.499998
23
-38.261669
33
0
39
0
210
0
220
0
230
1
0
SOLID
5
19C
100
AcDbEntity
8
SK2
62
256
6
ByLayer
370
18
48
1
60
0
100
AcDbTrace
10
0
20
-37.800885
30
0
11
-3.499998
21
-38.261669
31
0
12
-3.500002
22
-37.340102
32
0
13
-3.500002
23
-37.340102
33
0
39
0
210
0
220
0
230
1
0
ENDBLK
5
19E
100
AcDbEntity
8
0
100
AcDbBlockEnd
0
BLOCK
5
1A3
100
AcDbEntity
8
0
100
AcDbBlockBegin
2
*D7
70
1
10
0
20
0
30
0
3
*D7
0
LINE
5
1A5
100
AcDbEntity
8
0
62
256
6
ByLayer
370
-2
48
1
60
0
100
AcDbLine
10
-36
20
-5.5875
30
0
11
-36
21
-47.800885
31
0
39
0
210
0
220
0
230
1
0
LINE
5
1A6
100
AcDbEntity
8
0
62
256
6
ByLayer
370
-2
48
1
60
0
100
AcDbLine
10
90
20
-5.5875
30
0
11
90
21
-47.800885
31
0
39
0
210
0
220
0
230
1
0
LINE
5
1A7
100
AcDbEntity
8
0
62
256
6
ByLayer
370
-2
48
1
60
0
100
AcDbLine
10
-32.5
20
-45.800885
30
0
11
86.5
21
-45.800885
31
0
39
0
210
0
220
0
230
1
0
SOLID
5
1A8
100
AcDbEntity
8
0
62
256
6
ByLayer
370
-1
48
1
60
0
100
AcDbTrace
10
-32.5
20
-45.217552
30
0
11
-32.5
21
-46.384219
31
0
12
-36
22
-45.800885
32
0
13
-36
23
-45.800885
33
0
39
0
210
0
220
0
230
1
0
SOLID
5
1A9
100
AcDbEntity
8
0
62
256
6
ByLayer
370
-1
48
1
60
0
100
AcDbTrace
10
86.5
20
-46.384219
30
0
11
86.5
21
-45.217552
31
0
12
90
22
-45.800885
32
0
13
90
23
-45.800885
33
0
39
0
210
0
220
0
230
1
0
MTEXT
5
1AA
100
AcDbEntity
8
0
62
256
6
ByLayer
370
18
48
1
60
0
100
AcDbMText
10
27
20
-39.800885
30
0
210
0
220
0
230
1
1
\A1;126
40
3
41
0
44
1
50
0
71
5
72
5
7
iso_b_vert
0
POINT
5
1AB
100
AcDbEntity
8
Defpoints
62
0
6
ByLayer
370
-1
48
1
60
0
100
AcDbPoint
10
-36
20
-4
30
0
39
0
210
0
220
0
230
1
50
360
0
POINT
5
1AC
100
AcDbEntity
8
Defpoints
62
0
6
ByLayer
370
-1
48
1
60
0
100
AcDbPoint
10
90
20
-4
30
0
39
0
210
0
220
0
230
1
50
360
0
POINT
5
1AD
100
AcDbEntity
8
Defpoints
62
0
6
ByLayer
370
-1
48
1
60
0
100
AcDbPoint
10
90
20
-45.800885
30
0
39
0
210
0
220
0
230
1
50
360
0
ENDBLK
5
1A4
100
AcDbEntity
8
0
100
AcDbBlockEnd
0
BLOCK
5
1B5
100
AcDbEntity
8
0
100
AcDbBlockBegin
2
_U3
70
0
10
0
20
0
30
0
3
_U3
0
MTEXT
5
1AF
100
AcDbEntity
8
SK2
62
256
6
ByLayer
370
18
48
1
60
0
100
AcDbMText
10
24.621201
20
-44.915771
30
0
210
0
220
0
230
1
1
\W0.6217;126
40
3
41
0
44
1.084337
50
0
71
7
72
5
7
iso_b_vert
0
LINE
5
1B0
100
AcDbEntity
8
SK2
62
256
6
ByLayer
370
13
48
1
60
0
100
AcDbLine
10
-36
20
-5.5875
30
0
11
-36
21
-47.800885
31
0
39
0
210
0
220
0
230
1
0
LINE
5
1B1
100
AcDbEntity
8
SK2
62
256
6
ByLayer
370
13
48
1
60
0
100
AcDbLine
10
90
20
-5.5875
30
0
11
90
21
-47.800885
31
0
39
0
210
0
220
0
230
1
0
LINE
5
1B2
100
AcDbEntity
8
SK2
62
256
6
ByLayer
370
13
48
1
60
0
100
AcDbLine
10
-36
20
-45.800885
30
0
11
90
21
-45.800885
31
0
39
0
210
0
220
0
230
1
0
SOLID
5
1B3
100
AcDbEntity
8
SK2
62
256
6
ByLayer
370
18
48
1
60
0
100
AcDbTrace
10
-36
20
-45.800885
30
0
11
-32.500002
21
-45.340102
31
0
12
-32.499998
22
-46.261669
32
0
13
-32.499998
23
-46.261669
33
0
39
0
210
0
220
0
230
1
0
SOLID
5
1B4
100
AcDbEntity
8
SK2
62
256
6
ByLayer
370
18
48
1
60
0
100
AcDbTrace
10
90
20
-45.800885
30
0
11
86.500002
21
-46.261669
31
0
12
86.499998
22
-45.340102
32
0
13
86.499998
23
-45.340102
33
0
39
0
210
0
220
0
230
1
0
ENDBLK
5
1B6
100
AcDbEntity
8
0
100
AcDbBlockEnd
0
BLOCK
5
1BB
100
AcDbEntity
8
0
100
AcDbBlockBegin
2
*D9
70
1
10
0
20
0
30
0
3
*D9
0
LINE
5
1BD
100
AcDbEntity
8
0
62
256
6
ByLayer
370
-2
48
1
60
0
100
AcDbLine
10
90
20
-5.5875
30
0
11
90
21
-39.800885
31
0
39
0
210
0
220
0
230
1
0
LINE
5
1BE
100
AcDbEntity
8
0
62
256
6
ByLayer
370
-2
48
1
60
0
100
AcDbLine
10
0
20
-5.5875
30
0
11
0
21
-39.800885
31
0
39
0
210
0
220
0
230
1
0
LINE
5
1BF
100
AcDbEntity
8
0
62
256
6
ByLayer
370
-2
48
1
60
0
100
AcDbLine
10
86.5
20
-37.800885
30
0
11
3.5
21
-37.800885
31
0
39
0
210
0
220
0
230
1
0
SOLID
5
1C0
100
AcDbEntity
8
0
62
256
6
ByLayer
370
-1
48
1
60
0
100
AcDbTrace
10
86.5
20
-38.384219
30
0
11
86.5
21
-37.217552
31
0
12
90
22
-37.800885
32
0
13
90
23
-37.800885
33
0
39
0
210
0
220
0
230
1
0
SOLID
5
1C1
100
AcDbEntity
8
0
62
256
6
ByLayer
370
-1
48
1
60
0
100
AcDbTrace
10
3.5
20
-37.217552
30
0
11
3.5
21
-38.384219
31
0
12
0
22
-37.800885
32
0
13
0
23
-37.800885
33
0
39
0
210
0
220
0
230
1
0
MTEXT
5
1C2
100
AcDbEntity
8
0
62
256
6
ByLayer
370
18
48
1
60
0
100
AcDbMText
10
45
20
-31.800885
30
0
210
0
220
0
230
1
1
\A1;90
40
3
41
0
44
1
50
0
71
5
72
5
7
iso_b_vert
0
POINT
5
1C3
100
AcDbEntity
8
Defpoints
62
0
6
ByLayer
370
-1
48
1
60
0
100
AcDbPoint
10
90
20
-4
30
0
39
0
210
0
220
0
230
1
50
360
0
POINT
5
1C4
100
AcDbEntity
8
Defpoints
62
0
6
ByLayer
370
-1
48
1
60
0
100
AcDbPoint
10
0
20
-4
30
0
39
0
210
0
220
0
230
1
50
360
0
POINT
5
1C5
100
AcDbEntity
8
Defpoints
62
0
6
ByLayer
370
-1
48
1
60
0
100
AcDbPoint
10
0
20
-37.800885
30
0
39
0
210
0
220
0
230
1
50
360
0
ENDBLK
5
1BC
100
AcDbEntity
8
0
100
AcDbBlockEnd
0
BLOCK
5
1CD
100
AcDbEntity
8
0
100
AcDbBlockBegin
2
_U4
70
0
10
0
20
0
30
0
3
_U4
0
MTEXT
5
1C7
100
AcDbEntity
8
2
62
256
6
ByLayer
370
18
48
1
60
0
100
AcDbMText
10
43.367172
20
-36.915771
30
0
210
0
220
0
230
1
1
\W0.6740;90
40
3
41
0
44
1.084337
50
0
71
7
72
5
7
iso_b_vert
0
LINE
5
1C8
100
AcDbEntity
8
2
62
256
6
ByLayer
370
13
48
1
60
0
100
AcDbLine
10
90
20
-5.5875
30
0
11
90
21
-39.800885
31
0
39
0
210
0
220
0
230
1
0
LINE
5
1C9
100
AcDbEntity
8
2
62
256
6
ByLayer
370
13
48
1
60
0
100
AcDbLine
10
0
20
-5.5875
30
0
11
0
21
-39.800885
31
0
39
0
210
0
220
0
230
1
0
LINE
5
1CA
100
AcDbEntity
8
2
62
256
6
ByLayer
370
13
48
1
60
0
100
AcDbLine
10
90
20
-37.800885
30
0
11
0
21
-37.800885
31
0
39
0
210
0
220
0
230
1
0
SOLID
5
1CB
100
AcDbEntity
8
2
62
256
6
ByLayer
370
18
48
1
60
0
100
AcDbTrace
10
90
20
-37.800885
30
0
11
86.500002
21
-38.261669
31
0
12
86.499998
22
-37.340102
32
0
13
86.499998
23
-37.340102
33
0
39
0
210
0
220
0
230
1
0
SOLID
5
1CC
100
AcDbEntity
8
2
62
256
6
ByLayer
370
18
48
1
60
0
100
AcDbTrace
10
0
20
-37.800885
30
0
11
3.499998
21
-37.340102
31
0
12
3.500002
22
-38.261669
32
0
13
3.500002
23
-38.261669
33
0
39
0
210
0
220
0
230
1
0
ENDBLK
5
1CE
100
AcDbEntity
8
0
100
AcDbBlockEnd
0
ENDSEC
0
SECTION
2
ENTITIES
0
ARC
5
C4
100
AcDbEntity
8
SK2
62
256
6
ByLayer
370
13
48
1
60
0
100
AcDbCircle
39
0
10
90
20
0
30
0
40
20.4325088493994
210
0
220
0
230
1
100
AcDbArc
50
8.442966
51
69.998494
0
ARC
5
C5
100
AcDbEntity
8
SK2
62
256
6
ByLayer
370
13
48
1
60
0
100
AcDbCircle
39
0
10
90
20
0
30
0
40
20.4325088493994
210
0
220
0
230
1
100
AcDbArc
50
290.001506
51
351.557034
0
ELLIPSE
5
C6
100
AcDbEntity
8
1
62
256
6
ByLayer
370
13
48
1
60
0
100
AcDbEllipse
10
12.224594
20
-59.877785
30
0
11
-51.8264703624868
21
54.1790680659516
31
0
210
0
220
0
230
1
40
0.679874
41
-0.925275798697916
42
-0.901300712934639
0
ELLIPSE
5
C7
100
AcDbEntity
8
1
62
256
6
ByLayer
370
13
48
1
60
0
100
AcDbEllipse
10
12.193119
20
-59.907894
30
0
11
-51.8301086673277
21
54.1828715270834
31
0
210
0
220
0
230
1
40
0.679874
41
-0.936097165370694
42
-0.90003801137771
0
ELLIPSE
5
C8
100
AcDbEntity
8
1
62
256
6
ByLayer
370
13
48
1
60
0
100
AcDbEllipse
10
12.190633
20
-59.910271
30
0
11
-51.8278922392402
21
54.1805544870192
31
0
210
0
220
0
230
1
40
0.679874
41
-0.937170531972708
42
-0.899960949761243
0
ELLIPSE
5
C9
100
AcDbEntity
8
1
62
256
6
ByLayer
370
18
48
1
60
0
100
AcDbEllipse
10
50.100129
20
3.879047
30
0
11
-0.1
21
1.22460635382238E-17
31
0
210
0
220
0
230
1
40
0.999999
41
0.00135346483835065
42
1.59685182940094
0
ELLIPSE
5
CA
100
AcDbEntity
8
1
62
256
6
ByLayer
370
18
48
1
60
0
100
AcDbEllipse
10
50.100129
20
-3.879047
30
0
11
-0.1
21
1.22460635382238E-17
31
0
210
0
220
0
230
1
40
0.999999
41
-1.55303390355293
42
-0.00135346483856825
0
POINT
5
70
100
AcDbEntity
8
81
62
256
6
ByLayer
370
18
48
1
60
0
100
AcDbPoint
10
90
20
0
30
0
39
0
210
0
220
0
230
1
50
360
0
POINT
5
72
100
AcDbEntity
8
80
62
256
6
ByLayer
370
18
48
1
60
0
100
AcDbPoint
10
0
20
0
30
0
39
0
210
0
220
0
230
1
50
360
0
POINT
5
74
100
AcDbEntity
8
1
62
256
6
ByLayer
370
18
48
1
60
0
100
AcDbPoint
10
-190.958746
20
-174.013843
30
0
39
0
210
0
220
0
230
1
50
360
0
POINT
5
76
100
AcDbEntity
8
1
62
256
6
ByLayer
370
13
48
1
60
1
100
AcDbPoint
10
-37.5
20
0
30
0
39
0
210
0
220
0
230
1
50
360
0
POINT
5
77
100
AcDbEntity
8
1
62
256
6
ByLayer
370
13
48
1
60
1
100
AcDbPoint
10
90.059476
20
0
30
0
39
0
210
0
220
0
230
1
50
360
0
POINT
5
78
100
AcDbEntity
8
1
62
256
6
ByLayer
370
18
48
1
60
1
100
AcDbPoint
10
90
20
-4
30
0
39
0
210
0
220
0
230
1
50
360
0
POINT
5
79
100
AcDbEntity
8
1
62
256
6
ByLayer
370
18
48
1
60
1
100
AcDbPoint
10
24.6
20
-4
30
0
39
0
210
0
220
0
230
1
50
360
0
POINT
5
7A
100
AcDbEntity
8
1
62
256
6
ByLayer
370
18
48
1
60
1
100
AcDbPoint
10
90
20
-4
30
0
39
0
210
0
220
0
230
1
50
360
0
POINT
5
7B
100
AcDbEntity
8
1
62
256
6
ByLayer
370
18
48
1
60
1
100
AcDbPoint
10
6
20
-4
30
0
39
0
210
0
220
0
230
1
50
360
0
POINT
5
7C
100
AcDbEntity
8
1
62
256
6
ByLayer
370
18
48
1
60
1
100
AcDbPoint
10
-36
20
-4
30
0
39
0
210
0
220
0
230
1
50
360
0
POINT
5
7D
100
AcDbEntity
8
1
62
256
6
ByLayer
370
18
48
1
60
1
100
AcDbPoint
10
0
20
-4
30
0
39
0
210
0
220
0
230
1
50
360
0
POINT
5
7E
100
AcDbEntity
8
1
62
256
6
ByLayer
370
18
48
1
60
1
100
AcDbPoint
10
-36
20
-4
30
0
39
0
210
0
220
0
230
1
50
360
0
POINT
5
7F
100
AcDbEntity
8
1
62
256
6
ByLayer
370
18
48
1
60
1
100
AcDbPoint
10
90
20
-4
30
0
39
0
210
0
220
0
230
1
50
360
0
POINT
5
80
100
AcDbEntity
8
1
62
256
6
ByLayer
370
18
48
1
60
1
100
AcDbPoint
10
90
20
-4
30
0
39
0
210
0
220
0
230
1
50
360
0
POINT
5
81
100
AcDbEntity
8
1
62
256
6
ByLayer
370
18
48
1
60
1
100
AcDbPoint
10
0
20
-4
30
0
39
0
210
0
220
0
230
1
50
360
0
SPLINE
5
CB
100
AcDbEntity
8
1
62
256
6
ByLayer
370
18
48
1
60
0
100
AcDbSpline
70
4
71
3
72
8
73
4
40
0
40
0
40
0
40
0
40
1
40
1
40
1
40
1
41
1
10
89.5702863231709
20
1.35291021591806
30
0
41
1
10
89.6801043962257
20
1.04474382143908
30
0
41
1
10
89.7889621186185
20
0.736241296541209
30
0
41
1
10
89.8968392245372
20
0.427395548027903
30
0
0
SPLINE
5
CC
100
AcDbEntity
8
1
62
256
6
ByLayer
370
18
48
1
60
0
100
AcDbSpline
70
4
71
3
72
8
73
4
40
0
40
0
40
0
40
0
40
1
40
1
40
1
40
1
41
1
10
89.8968392245372
20
0.427395548027903
30
0
41
1
10
89.9300786664644
20
0.332232999545084
30
0
41
1
10
89.9640904473905
20
0.237504448748524
30
0
41
1
10
89.9988747371131
20
0.143192549043334
30
0
0
SPLINE
5
CD
100
AcDbEntity
8
1
62
256
6
ByLayer
370
13
48
1
60
0
100
AcDbSpline
70
4
71
3
72
44
73
40
40
0
40
0
40
0
40
0
40
0.0104727705800028
40
0.0280144048947327
40
0.0630976735241925
40
0.0981809421536523
40
0.133264210783112
40
0.150805845097842
40
0.168347479412572
40
0.203430748042032
40
0.238514016671491
40
0.273597285300951
40
0.291138919615681
40
0.308680553930411
40
0.343763822559871
40
0.378847091189331
40
0.413930359818791
40
0.431471994133521
40
0.44901362844825
40
0.48409689707771
40
0.51918016570717
40
0.55426343433663
40
0.57180506865136
40
0.58934670296609
40
0.624429971595549
40
0.659513240225009
40
0.694596508854469
40
0.712138143169199
40
0.729679777483929
40
0.764763046113389
40
0.799846314742849
40
0.834929583372308
40
0.852471217687038
40
0.870012852001768
40
0.905096120631228
40
0.940179389260688
40
0.975262657890148
40
0.992804292204876
40
1
40
1
40
1
40
1
41
1
10
80.8464642513389
20
-1.78151339313158
30
0
41
1
10
80.8056000970174
20
-1.78198505089122
30
0
41
1
10
80.6963379618639
20
-1.78292931616042
30
0
41
1
10
80.4509083803391
20
-1.78216243813375
30
0
41
1
10
80.1097063850605
20
-1.7764419822266
30
0
41
1
10
79.6994899974
20
-1.76466015400746
30
0
41
1
10
79.3570772056972
20
-1.7514637754997
30
0
41
1
10
79.0832253949964
20
-1.73830335191022
30
0
41
1
10
78.8102956667429
20
-1.7206888125618
30
0
41
1
10
78.4690835129888
20
-1.69421632420591
30
0
41
1
10
78.0588539767132
20
-1.65805271740518
30
0
41
1
10
77.7164345036619
20
-1.62513877869679
30
0
41
1
10
77.4425835599109
20
-1.59637624139773
30
0
41
1
10
77.1696583803527
20
-1.56299440602268
30
0
41
1
10
76.8284563850772
20
-1.51727478234261
30
0
41
1
10
76.4182399974151
20
-1.45878255740126
30
0
41
1
10
76.0758272057
20
-1.40800793086916
30
0
41
1
10
75.8019753949878
20
-1.36525420316255
30
0
41
1
10
75.5290456667298
20
-1.31796785130376
30
0
41
1
10
75.1878335129726
20
-1.25554586808113
30
0
41
1
10
74.7776039766988
20
-1.17798052703063
30
0
41
1
10
74.4351845036561
20
-1.11217337661023
30
0
41
1
10
74.1613335599107
20
-1.05781205378781
30
0
41
1
10
73.8884083803522
20
-0.999260285225091
30
0
41
1
10
73.5472063850736
20
-0.923620501004365
30
0
41
1
10
73.1369899974055
20
-0.831312639004011
30
0
41
1
10
72.7945772056874
20
-0.754153159934162
30
0
41
1
10
72.5207253949764
20
-0.691231296052422
30
0
41
1
10
72.2477956667212
20
-0.624697528121658
30
0
41
1
10
71.9065835129692
20
-0.540087134843645
30
0
41
1
10
71.4963539767004
20
-0.43821953604413
30
0
41
1
10
71.1539345036535
20
-0.354026527419734
30
0
41
1
10
70.8800835599017
20
-0.286050510819507
30
0
41
1
10
70.6071583803407
20
-0.215236695230487
30
0
41
1
10
70.2659563850596
20
-0.126351733115854
30
0
41
1
10
69.8557399973933
20
-0.0205777368080362
30
0
41
1
10
69.513327205686
20
0.0659565915732685
30
0
41
1
10
69.2798543394433
20
0.124969134936606
30
0
41
1
10
69.1835365949752
20
0.14984337310824
30
0
41
1
10
69.1555304711395
20
0.157098977413085
30
0
0
SPLINE
5
CE
100
AcDbEntity
8
1
62
256
6
ByLayer
370
13
48
1
60
0
100
AcDbSpline
70
4
71
3
72
43
73
39
40
0
40
0
40
0
40
0
40
0.0178189062994983
40
0.053384290066431
40
0.0711669819498966
40
0.0889496738333622
40
0.124515057600293
40
0.160080441367225
40
0.195645825134156
40
0.21342851701762
40
0.231211208901087
40
0.266776592668017
40
0.302341976434949
40
0.337907360201881
40
0.355690052085347
40
0.373472743968812
40
0.409038127735744
40
0.444603511502675
40
0.480168895269606
40
0.497951587153072
40
0.515734279036537
40
0.551299662803469
40
0.5868650465704
40
0.622430430337331
40
0.640213122220798
40
0.657995814104262
40
0.693561197871194
40
0.729126581638124
40
0.764691965405056
40
0.782474657288522
40
0.800257349171988
40
0.835822732938919
40
0.87138811670585
40
0.906953500472781
40
0.924736192356247
40
0.942518884239713
40
0.978084268006644
40
1
40
1
40
1
40
1
41
1
10
37.2487356112735
20
-1.78049132167649
30
0
41
1
10
37.1802290865804
20
-1.78069030201209
30
0
41
1
10
36.9748969036517
20
-1.78069630348881
30
0
41
1
10
36.7008272056916
20
-1.77853406945556
30
0
41
1
10
36.4269753949858
20
-1.77374035488125
30
0
41
1
10
36.1540456667315
20
-1.76467724977056
30
0
41
1
10
35.812833512979
20
-1.74875414351646
30
0
41
1
10
35.4026039767073
20
-1.7249486377024
30
0
41
1
10
35.0601845036579
20
-1.70200688961705
30
0
41
1
10
34.7863335599058
20
-1.68112086456415
30
0
41
1
10
34.5134083803456
20
-1.65567119727353
30
0
41
1
10
34.1722063850662
20
-1.61960280633736
30
0
41
1
10
33.7619899974012
20
-1.57226919242768
30
0
41
1
10
33.419577205691
20
-1.53039001979184
30
0
41
1
10
33.1457253949859
20
-1.49458082245215
30
0
41
1
10
32.8727956667325
20
-1.45416045149446
30
0
41
1
10
32.531583512981
20
-1.39994449161125
30
0
41
1
10
32.1213539767101
20
-1.33170517557056
30
0
41
1
10
31.7789345036606
20
-1.27321567147916
30
0
41
1
10
31.5050835599079
20
-1.22448015784261
30
0
41
1
10
31.232158380347
20
-1.17134801315038
30
0
41
1
10
30.8909563850667
20
-1.10201818868734
30
0
41
1
10
30.4807399974008
20
-1.01669215933924
30
0
41
1
10
30.1383272056904
20
-0.944867601281885
30
0
41
1
10
29.8644753949856
20
-0.885937149727027
30
0
41
1
10
29.5915456667318
20
-0.823070286413838
30
0
41
1
10
29.2503335129799
20
-0.742513519027824
30
0
41
1
10
28.8401039767085
20
-0.644883923387624
30
0
41
1
10
28.4976845036584
20
-0.563740823099181
30
0
41
1
10
28.2238335599058
20
-0.497899688706383
30
0
41
1
10
27.9509083803457
20
-0.428798182928006
30
0
41
1
10
27.6097063850669
20
-0.341490860919066
30
0
41
1
10
27.1994899974028
20
-0.236982756128043
30
0
41
1
10
26.8570772056928
20
-0.151046718989136
30
0
41
1
10
26.5832253949872
20
-0.0819863810162929
30
0
41
1
10
26.3102956669559
20
-0.010532184511078
30
0
41
1
10
26.0214650895985
20
0.0649222298200698
30
0
41
1
10
25.8005395644631
20
0.121909307838791
30
0
41
1
10
25.7162625472782
20
0.143507129594923
30
0
0
SPLINE
5
CF
100
AcDbEntity
8
1
62
256
6
ByLayer
370
18
48
1
60
0
100
AcDbSpline
70
4
71
3
72
28
73
24
40
0
40
0
40
0
40
0
40
0.0237161720651525
40
0.0237161720651525
40
0.105073157726386
40
0.105073157726386
40
0.186430143387619
40
0.186430143387619
40
0.349144114710124
40
0.349144114710124
40
0.430501100371396
40
0.430501100371396
40
0.471179593202033
40
0.471179593202033
40
0.511858086032669
40
0.511858086032669
40
0.674572057355129
40
0.674572057355129
40
0.837286028677588
40
0.837286028677588
40
0.918643014338818
40
0.918643014338818
40
1
40
1
40
1
40
1
41
1
10
88.3190529659576
20
0.957669179141647
30
0
41
1
10
88.3236480329361
20
0.960618411845331
30
0
41
1
10
88.3282799833755
20
0.963589831896911
30
0
41
1
10
88.3489722235074
20
0.976844162713149
30
0
41
1
10
88.3655055331845
20
0.98739740916443
30
0
41
1
10
88.3991677996521
20
1.0086248557615
30
0
41
1
10
88.4163029073215
20
1.01930201845036
30
0
41
1
10
88.4687125257538
20
1.05132057207928
30
0
41
1
10
88.5049747617511
20
1.07267151201569
30
0
41
1
10
88.5616791696797
20
1.10403667184622
30
0
41
1
10
88.5809663720626
20
1.11438169916283
30
0
41
1
10
88.610540438603
20
1.12961909682875
30
0
41
1
10
88.6205060235294
20
1.13465099449951
30
0
41
1
10
88.6406652518295
20
1.14459791202748
30
0
41
1
10
88.6508817439766
20
1.14952352447395
30
0
41
1
10
88.7022555813763
20
1.1736549444789
30
0
41
1
10
88.744170438787
20
1.19129223528853
30
0
41
1
10
88.8298666494104
20
1.22234385769448
30
0
41
1
10
88.8736188753483
20
1.23584350903883
30
0
41
1
10
88.9407536953812
20
1.25248557901745
30
0
41
1
10
88.9634396429321
20
1.25743350578554
30
0
41
1
10
89.0090797974096
20
1.26597564573621
30
0
41
1
10
89.0319730287328
20
1.26956317524599
30
0
41
1
10
89.0549426503901
20
1.27247585102276
30
0
0
SPLINE
5
D0
100
AcDbEntity
8
1
62
256
6
ByLayer
370
18
48
1
60
0
100
AcDbSpline
70
4
71
3
72
10
73
6
40
0
40
0
40
0
40
0
40
0.5
40
0.5
40
1
40
1
40
1
40
1
41
1
10
89.0549426503901
20
1.27247585102273
30
0
41
1
10
89.1412155225014
20
1.28341573103211
30
0
41
1
10
89.2273471539434
20
1.295321157687
30
0
41
1
10
89.3992360681056
20
1.32169112625934
30
0
41
1
10
89.4850171198121
20
1.33616143654282
30
0
41
1
10
89.5702863231708
20
1.35291021591982
30
0
0
SPLINE
5
D1
100
AcDbEntity
8
1
62
256
6
ByLayer
370
18
48
1
60
0
100
AcDbSpline
70
4
71
3
72
10
73
6
40
0
40
0
40
0
40
0
40
0.5
40
0.5
40
1
40
1
40
1
40
1
41
1
10
89.2853270355655
20
1.98256473342917
30
0
41
1
10
89.3295905406349
20
1.87085183611521
30
0
41
1
10
89.3752563057297
20
1.76250956579295
30
0
41
1
10
89.470058367914
20
1.55264078765774
30
0
41
1
10
89.51915706569
20
1.45102406275771
30
0
41
1
10
89.5702863231712
20
1.352910215918
30
0
0
SPLINE
5
D2
100
AcDbEntity
8
1
62
256
6
ByLayer
370
13
48
1
60
0
100
AcDbSpline
70
4
71
3
72
43
73
39
40
0
40
0
40
0
40
0
40
0.0307938094052854
40
0.0659170303934723
40
0.101040251381657
40
0.118601861875751
40
0.136163472369843
40
0.171286693358031
40
0.20640991434622
40
0.241533135334405
40
0.259094745828499
40
0.276656356322592
40
0.311779577310779
40
0.346902798298962
40
0.382026019287153
40
0.39958762978125
40
0.41714924027534
40
0.452272461263528
40
0.487395682251714
40
0.522518903239901
40
0.540080513733992
40
0.557642124228088
40
0.592765345216275
40
0.627888566204461
40
0.663011787192648
40
0.680573397686742
40
0.698135008180835
40
0.733258229169022
40
0.768381450157207
40
0.803504671145396
40
0.821066281639489
40
0.838627892133583
40
0.87375111312177
40
0.908874334109957
40
0.943997555098144
40
0.961559165592238
40
0.979120776086331
40
1
40
1
40
1
40
1
41
1
10
59.1405580609681
20
-1.78109157791675
30
0
41
1
10
59.0209040667432
20
-1.781812060199
30
0
41
1
10
58.764728068477
20
-1.78138632104952
30
0
41
1
10
58.3713539767039
20
-1.77622673511328
30
0
41
1
10
58.0289345036569
20
-1.76825020396393
30
0
41
1
10
57.7550835599066
20
-1.75925671167934
30
0
41
1
10
57.4821583803461
20
-1.74589904434791
30
0
41
1
10
57.1409563850658
20
-1.72467663643693
30
0
41
1
10
56.7307399973986
20
-1.69465494112032
30
0
41
1
10
56.3883272056864
20
-1.66668489883082
30
0
41
1
10
56.1144753949805
20
-1.64181574473653
30
0
41
1
10
55.8415456667269
20
-1.61234279600686
30
0
41
1
10
55.5003335129761
20
-1.57136527945573
30
0
41
1
10
55.0901039767069
20
-1.51834439986842
30
0
41
1
10
54.7476845036583
20
-1.47192528819815
30
0
41
1
10
54.4738335599065
20
-1.43256801050438
30
0
41
1
10
54.2009083803476
20
-1.38863200570367
30
0
41
1
10
53.85970638507
20
-1.33020430301298
30
0
41
1
10
53.4494899974066
20
-1.25716640201495
30
0
41
1
10
53.1070772056964
20
-1.19490457613279
30
0
41
1
10
52.83322539499
20
-1.14326440670072
30
0
41
1
10
52.5602956667349
20
-1.08732324912822
30
0
41
1
10
52.2190835129808
20
-1.01471168890532
30
0
41
1
10
51.8088539767073
20
-0.925739183260134
30
0
41
1
10
51.4664345036583
20
-0.851110702229079
30
0
41
1
10
51.1925835599067
20
-0.790066051032568
30
0
41
1
10
50.9196583803455
20
-0.725237512689091
30
0
41
1
10
50.5784563850646
20
-0.642485050766737
30
0
41
1
10
50.1682399973973
20
-0.542532334973657
30
0
41
1
10
49.8258272056854
20
-0.459704503237902
30
0
41
1
10
49.55197539498
20
-0.392677525046679
30
0
41
1
10
49.2790456667268
20
-0.322600528968223
30
0
41
1
10
48.9378335129764
20
-0.234362328026322
30
0
41
1
10
48.5276039767073
20
-0.129052411257248
30
0
41
1
10
48.1851845036581
20
-0.0426665991278696
30
0
41
1
10
47.9113335599054
20
0.0266079771062095
30
0
41
1
10
47.6937499086829
20
0.0835535540612113
30
0
41
1
10
47.5443830119677
20
0.122497199814575
30
0
41
1
10
47.4632252147082
20
0.143570317391152
30
0
0
SPLINE
5
D3
100
AcDbEntity
8
1
62
256
6
ByLayer
370
13
48
1
60
0
100
AcDbSpline
70
4
71
3
72
46
73
42
40
0
40
0
40
0
40
0
40
0.0194473066785995
40
0.0525282358859589
40
0.0690687004896386
40
0.0856091650933184
40
0.118690094300678
40
0.151771023508037
40
0.184851952715397
40
0.201392417319076
40
0.217932881922756
40
0.251013811130116
40
0.284094740337475
40
0.317175669544835
40
0.333716134148514
40
0.350256598752194
40
0.383337527959553
40
0.416418457166913
40
0.449499386374272
40
0.466039850977952
40
0.482580315581632
40
0.515661244788991
40
0.548742173996351
40
0.58182310320371
40
0.59836356780739
40
0.614904032411069
40
0.647984961618429
40
0.681065890825788
40
0.714146820033148
40
0.730687284636828
40
0.747227749240507
40
0.780308678447867
40
0.813389607655226
40
0.846470536862586
40
0.863011001466265
40
0.879551466069945
40
0.912632395277305
40
0.945713324484664
40
0.978794253692023
40
0.995334718295701
40
1
40
1
40
1
40
1
41
1
10
76.7240280526664
20
0.452643869548467
30
0
41
1
10
76.6436478756344
20
0.475048789154727
30
0
41
1
10
76.4265183863838
20
0.535331394365329
30
0
41
1
10
76.1409863967361
20
0.613726907191335
30
0
41
1
10
75.8675385577506
20
0.687534767265618
30
0
41
1
10
75.594183083754
20
0.760374053759818
30
0
41
1
10
75.2524699525619
20
0.850161989619266
30
0
41
1
10
74.8422547722164
20
0.954926687980731
30
0
41
1
10
74.5003621841675
20
1.03933278581769
30
0
41
1
10
74.2269150413807
20
1.10475132443673
30
0
41
1
10
73.9535596345474
20
1.16897024601016
30
0
41
1
10
73.6118461986451
20
1.24716247883455
30
0
41
1
10
73.2016301731066
20
1.33665987580781
30
0
41
1
10
72.859736396739
20
1.40690390511094
30
0
41
1
10
72.5862885577628
20
1.46027425496308
30
0
41
1
10
72.3129330837701
20
1.51227095363305
30
0
41
1
10
71.9712199525808
20
1.57446528907616
30
0
41
1
10
71.5610047722326
20
1.64364916317743
30
0
41
1
10
71.2191121841704
20
1.69578029703118
30
0
41
1
10
70.9456650413715
20
1.73411776928887
30
0
41
1
10
70.6723096345329
20
1.77099577552863
30
0
41
1
10
70.3305961986261
20
1.81374557921092
30
0
41
1
10
69.9203801730887
20
1.8587929534751
30
0
41
1
10
69.5784863967315
20
1.88992536197566
30
0
41
1
10
69.3050385577648
20
1.91109257235462
30
0
41
1
10
69.031683083777
20
1.93078387884566
30
0
41
1
10
68.6899699525929
20
1.95167371457924
30
0
41
1
10
68.2797547722476
20
1.97002500356308
30
0
41
1
10
67.9378621841859
20
1.97838873249182
30
0
41
1
10
67.6644150413869
20
1.98119354519642
30
0
41
1
10
67.3910596345475
20
1.98260078590701
30
0
41
1
10
67.0493461986387
20
1.98048385759392
30
0
41
1
10
66.6391301730964
20
1.97115040103642
30
0
41
1
10
66.2972363967287
20
1.95630797018131
30
0
41
1
10
66.023788557753
20
1.9406056757748
30
0
41
1
10
65.7504330837612
20
1.92365059153269
30
0
41
1
10
65.4087199525741
20
1.89863071017064
30
0
41
1
10
64.9985047722312
20
1.86210382572116
30
0
41
1
10
64.6566121841813
20
1.82485634441522
30
0
41
1
10
64.4322452049761
20
1.79749536904367
30
0
41
1
10
64.3446206449928
20
1.78659635732365
30
0
41
1
10
64.3253437956705
20
1.78418591933655
30
0
0
SPLINE
5
D4
100
AcDbEntity
8
1
62
256
6
ByLayer
370
13
48
1
60
0
100
AcDbSpline
70
4
71
3
72
45
73
41
40
0
40
0
40
0
40
0
40
0.012492001342144
40
0.0456729985227429
40
0.0788539957033411
40
0.112034992883941
40
0.128625491474241
40
0.145215990064541
40
0.17839698724514
40
0.211577984425739
40
0.244758981606339
40
0.261349480196638
40
0.277939978786938
40
0.311120975967537
40
0.344301973148136
40
0.377482970328737
40
0.394073468919036
40
0.410663967509335
40
0.443844964689935
40
0.477025961870535
40
0.510206959051133
40
0.526797457641434
40
0.543387956231733
40
0.576568953412333
40
0.609749950592932
40
0.642930947773531
40
0.659521446363832
40
0.676111944954131
40
0.70929294213473
40
0.742473939315329
40
0.775654936495929
40
0.792245435086228
40
0.808835933676528
40
0.842016930857127
40
0.875197928037727
40
0.908378925218326
40
0.924969423808626
40
0.941559922398925
40
0.974740919579525
40
1
40
1
40
1
40
1
41
1
10
33.1606464066452
20
0.470398994947743
30
0
41
1
10
33.1091849055107
20
0.484692642843214
30
0
41
1
10
32.9210498018047
20
0.536764353503571
30
0
41
1
10
32.5962199525774
20
0.625963900202123
30
0
41
1
10
32.1860047722326
20
0.736353147721047
30
0
41
1
10
31.8441121841775
20
0.826251967838061
30
0
41
1
10
31.5706650413845
20
0.896478065912646
30
0
41
1
10
31.297309634548
20
0.965617881695209
30
0
41
1
10
30.955596198642
20
1.05037507977011
30
0
41
1
10
30.5453801731012
20
1.14842099218774
30
0
41
1
10
30.2034863967331
20
1.22649965874336
30
0
41
1
10
29.930038557757
20
1.28648502946012
30
0
41
1
10
29.656683083765
20
1.34517450583698
30
0
41
1
10
29.3149699525772
20
1.41608364134982
30
0
41
1
10
28.9047547722325
20
1.49626322760946
30
0
41
1
10
28.5628621841779
20
1.558135303222
30
0
41
1
10
28.2894150413855
20
1.6045275504795
30
0
41
1
10
28.0160596345495
20
1.649497521288
30
0
41
1
10
27.6743461986443
20
1.70262611762863
30
0
41
1
10
27.2641301731041
20
1.76050203190775
30
0
41
1
10
26.9222363967359
20
1.80273566057147
30
0
41
1
10
26.6487885577593
20
1.83294522470265
30
0
41
1
10
26.3754330837668
20
1.86167373527835
30
0
41
1
10
26.0337199525783
20
1.89402414524835
30
0
41
1
10
25.6235047722328
20
1.92631827670627
30
0
41
1
10
25.2816121841784
20
1.94652375151602
30
0
41
1
10
25.0081650413863
20
1.95885485915665
30
0
41
1
10
24.73480963455
20
1.96974124064982
30
0
41
1
10
24.3930961986443
20
1.97952890118518
30
0
41
1
10
23.9828801731033
20
1.98447592495242
30
0
41
1
10
23.640986396734
20
1.98155400496324
30
0
41
1
10
23.3675385577566
20
1.97532798732749
30
0
41
1
10
23.0941830837641
20
1.96776225894018
30
0
41
1
10
22.7524699525757
20
1.95442221327974
30
0
41
1
10
22.3422547722307
20
1.93171156659037
30
0
41
1
10
22.0003621841759
20
1.90579609233208
30
0
41
1
10
21.7269150413832
20
1.88134763634383
30
0
41
1
10
21.4535596346016
20
1.85575049816109
30
0
41
1
10
21.1444796412797
20
1.82344988832594
30
0
41
1
10
20.9036596656945
20
1.79507611145391
30
0
41
1
10
20.7995641604947
20
1.78209194500224
30
0
0
SPLINE
5
D5
100
AcDbEntity
8
1
62
256
6
ByLayer
370
13
48
1
60
0
100
AcDbSpline
70
4
71
3
72
18
73
14
40
0
40
0
40
0
40
0
40
0.027369710847657
40
0.0913830470843667
40
0.155396383321076
40
0.283423055794496
40
0.411449728267916
40
0.539476400741335
40
0.603489736978045
40
0.667503073214755
40
0.795529745688174
40
0.923556418161594
40
1
40
1
40
1
40
1
41
1
10
89.2853270355655
20
1.98256473342917
30
0
41
1
10
89.256093885955
20
1.98261204776125
30
0
41
1
10
89.1584914970263
20
1.98256850862396
30
0
41
1
10
88.9925385577507
20
1.9813691329731
30
0
41
1
10
88.7191830837541
20
1.97802084067641
30
0
41
1
10
88.3774699525621
20
1.96994578926842
30
0
41
1
10
87.9672547722168
20
1.95349623287072
30
0
41
1
10
87.625362184168
20
1.93275083561247
30
0
41
1
10
87.3519150413813
20
1.91238140098409
30
0
41
1
10
87.078559634548
20
1.89081483244479
30
0
41
1
10
86.7368461986458
20
1.86008638979052
30
0
41
1
10
86.3817234074998
20
1.82265861861381
30
0
41
1
10
86.1633152698485
20
1.79623687258794
30
0
41
1
10
86.0816642625788
20
1.78592249970833
30
0
0
SPLINE
5
D6
100
AcDbEntity
8
1
62
256
6
ByLayer
370
13
48
1
60
0
100
AcDbSpline
70
4
71
3
72
46
73
42
40
0
40
0
40
0
40
0
40
0.0175278146321084
40
0.0340876117787983
40
0.0506474089254861
40
0.0837670032188651
40
0.116886597512243
40
0.150006191805618
40
0.166565988952307
40
0.183125786098994
40
0.216245380392373
40
0.249364974685752
40
0.282484568979127
40
0.299044366125816
40
0.315604163272505
40
0.348723757565882
40
0.381843351859256
40
0.414962946152637
40
0.43152274329933
40
0.448082540446015
40
0.481202134739393
40
0.514321729032769
40
0.547441323326147
40
0.564001120472833
40
0.580560917619524
40
0.613680511912902
40
0.646800106206279
40
0.679919700499656
40
0.696479497646345
40
0.713039294793034
40
0.746158889086411
40
0.779278483379786
40
0.812398077673166
40
0.828957874819854
40
0.845517671966543
40
0.878637266259921
40
0.911756860553298
40
0.944876454846675
40
0.961436251993364
40
0.977996049140053
40
1
40
1
40
1
40
1
41
1
10
54.9616115443274
20
0.456103195485412
30
0
41
1
10
54.8892398986943
20
0.476296373889795
30
0
41
1
10
54.7484965466964
20
0.515426924891386
30
0
41
1
10
54.5394150413796
20
0.573014583662825
30
0
41
1
10
54.2660596345419
20
0.647435952634964
30
0
41
1
10
53.9243461986352
20
0.739434853566479
30
0
41
1
10
53.5141301730953
20
0.847232528664932
30
0
41
1
10
53.1722363967314
20
0.934556509555307
30
0
41
1
10
52.898788557759
20
1.00250321626493
30
0
41
1
10
52.625433083769
20
1.06929991608413
30
0
41
1
10
52.2837199525833
20
1.15090970093351
30
0
41
1
10
51.8735047722394
20
1.24483339941614
30
0
41
1
10
51.5316121841842
20
1.31912056696203
30
0
41
1
10
51.2581650413909
20
1.37590351952312
30
0
41
1
10
50.9848096345539
20
1.43135494710674
30
0
41
1
10
50.6430961986472
20
1.49804604808998
30
0
41
1
10
50.2328801731048
20
1.57288937983492
30
0
41
1
10
49.8909863967339
20
1.63001100244782
30
0
41
1
10
49.6175385577553
20
1.67245694585353
30
0
41
1
10
49.3441830837619
20
1.71345313141785
30
0
41
1
10
49.0024699525729
20
1.76146754926108
30
0
41
1
10
48.5922547722272
20
1.81300301365826
30
0
41
1
10
48.2503621841717
20
1.84973906006115
30
0
41
1
10
47.9769150413784
20
1.87547102810544
30
0
41
1
10
47.7035596345419
20
1.89972810618366
30
0
41
1
10
47.3618461986362
20
1.92640918453481
30
0
41
1
10
46.9516301730968
20
1.95179877024503
30
0
41
1
10
46.6097363967323
20
1.96612542770606
30
0
41
1
10
46.3362885577596
20
1.97371329171145
30
0
41
1
10
46.0629330837695
20
1.97987124972965
30
0
41
1
10
45.7212199525839
20
1.98370540014221
30
0
41
1
10
45.3110047722403
20
1.98149150637374
30
0
41
1
10
44.9691121841853
20
1.97257787685194
30
0
41
1
10
44.6956650413919
20
1.96158618263019
30
0
41
1
10
44.4223096345549
20
1.94930137669672
30
0
41
1
10
44.0805961986479
20
1.93009052089263
30
0
41
1
10
43.670380173105
20
1.90042916188801
30
0
41
1
10
43.3284863967333
20
1.86880250616636
30
0
41
1
10
43.0550385577542
20
1.83985952687902
30
0
41
1
10
42.8275550523689
20
1.8148623847533
30
0
41
1
10
42.6684036226034
20
1.79605720160222
30
0
41
1
10
42.5775854440914
20
1.78488777727378
30
0
0
SPLINE
5
D7
100
AcDbEntity
8
1
62
256
6
ByLayer
370
18
48
1
60
0
100
AcDbSpline
70
4
71
3
72
10
73
6
40
0
40
0
40
0
40
0
40
0.5
40
0.5
40
1
40
1
40
1
40
1
41
1
10
89.2135359463862
20
2.16977248673271
30
0
41
1
10
89.2252097905195
20
2.13838207102705
30
0
41
1
10
89.2370096530988
20
2.1070678832871
30
0
41
1
10
89.2609408474099
20
2.04463637348303
30
0
41
1
10
89.2730571809223
20
2.01353157642194
30
0
41
1
10
89.2853270355655
20
1.98256473342914
30
0
0
SPLINE
5
D8
100
AcDbEntity
8
1
62
256
6
ByLayer
370
18
48
1
60
0
100
AcDbSpline
70
4
71
3
72
14
73
10
40
0
40
0
40
0
40
0
40
0.205984719541638
40
0.205984719541638
40
0.470656479694425
40
0.470656479694425
40
0.735328239847213
40
0.735328239847213
40
1
40
1
40
1
40
1
41
1
10
89.331948232753
20
-0.656603076271296
30
0
41
1
10
89.3351353138113
20
-0.659378505701596
30
0
41
1
10
89.3387208834972
20
-0.662394872612452
30
0
41
1
10
89.3475859884553
20
-0.669668388249391
30
0
41
1
10
89.3530808976992
20
-0.674055329238286
30
0
41
1
10
89.3648996293257
20
-0.683309426540347
30
0
41
1
10
89.3712243880377
20
-0.688177169666631
30
0
41
1
10
89.3845708311871
20
-0.698315931534211
30
0
41
1
10
89.3915992546171
20
-0.703591589546107
30
0
41
1
10
89.3988454364563
20
-0.708980736731633
30
0
0
SPLINE
5
D9
100
AcDbEntity
8
1
62
256
6
ByLayer
370
18
48
1
60
0
100
AcDbSpline
70
4
71
3
72
8
73
4
40
0
40
0
40
0
40
0
40
1
40
1
40
1
40
1
41
1
10
88.5842627184821
20
-3.82976021628471
30
0
41
1
10
88.617551524685
20
-3.77199255036553
30
0
41
1
10
88.6508684887172
20
-3.71421184529496
30
0
41
1
10
88.6842056540417
20
-3.65643422638459
30
0
0
SPLINE
5
DA
100
AcDbEntity
8
1
62
256
6
ByLayer
370
18
48
1
60
0
100
AcDbSpline
70
4
71
3
72
47
73
43
40
0
40
0
40
0
40
0
40
0.0002921757260581
40
0.0329292955796499
40
0.0655664154332417
40
0.0818849753600376
40
0.0982035352868335
40
0.130840655140425
40
0.163477774994017
40
0.196114894847609
40
0.212433454774405
40
0.228752014701201
40
0.261389134554793
40
0.294026254408384
40
0.326663374261976
40
0.342981934188772
40
0.359300494115568
40
0.39193761396916
40
0.424574733822752
40
0.457211853676344
40
0.47353041360314
40
0.489848973529935
40
0.522486093383527
40
0.555123213237119
40
0.587760333090711
40
0.604078893017507
40
0.620397452944303
40
0.653034572797895
40
0.685671692651486
40
0.718308812505078
40
0.734627372431874
40
0.75094593235867
40
0.783583052212262
40
0.816220172065854
40
0.848857291919445
40
0.865175851846241
40
0.881494411773037
40
0.914131531626629
40
0.946768651480221
40
0.979405771333813
40
0.995724331260607
40
1
40
1
40
1
40
1
41
1
10
76.5738113692156
20
0.534675405025666
30
0
41
1
10
76.5725874336614
20
0.535046807587378
30
0
41
1
10
76.4346451483597
20
0.576902485971999
30
0
41
1
10
76.1599445114506
20
0.659616764229554
30
0
41
1
10
75.8180859607678
20
0.760935388405159
30
0
41
1
10
75.5446647550761
20
0.840465186743472
30
0
41
1
10
75.2712804296715
20
0.918709355848051
30
0
41
1
10
74.9295331078893
20
1.01488033184489
30
0
41
1
10
74.5193183541917
20
1.12681368669052
30
0
41
1
10
74.1774606246643
20
1.21680278188003
30
0
41
1
10
73.9040402172039
20
1.28639052945897
30
0
41
1
10
73.6306562661022
20
1.35441207640517
30
0
41
1
10
73.2889092937197
20
1.43693437850683
30
0
41
1
10
72.8786945114426
20
1.53106660973651
30
0
41
1
10
72.5368359607708
20
1.60471572675831
30
0
41
1
10
72.2634147550883
20
1.66046935691665
30
0
41
1
10
71.9900304296878
20
1.7144537970438
30
0
41
1
10
71.6482831079084
20
1.77868300671702
30
0
41
1
10
71.238068354208
20
1.84970836201077
30
0
41
1
10
70.8962106246671
20
1.90287604145109
30
0
41
1
10
70.6227902171946
20
1.94167777579844
30
0
41
1
10
70.3494062660876
20
1.97861791158988
30
0
41
1
10
70.0076592937005
20
2.02099469044507
30
0
41
1
10
69.5974445114245
20
2.06498893044696
30
0
41
1
10
69.2555859607631
20
2.09473240529948
30
0
41
1
10
68.9821647550905
20
2.11441883782598
30
0
41
1
10
68.7087804296952
20
2.13224254196533
30
0
41
1
10
68.3670331079216
20
2.15037049282759
30
0
41
1
10
67.9568183542247
20
2.16483012850605
30
0
41
1
10
67.6149606246846
20
2.16945544214894
30
0
41
1
10
67.3415402172118
20
2.16891722231654
30
0
41
1
10
67.0681562661038
20
2.1666324001404
30
0
41
1
10
66.7264092937142
20
2.15952158716612
30
0
41
1
10
66.3161945114327
20
2.14367919395025
30
0
41
1
10
65.9743359607603
20
2.12296000203145
30
0
41
1
10
65.7009147550786
20
2.10223931285375
30
0
41
1
10
65.4275304296791
20
2.07997300013488
30
0
41
1
10
65.0857831079025
20
2.04800333933756
30
0
41
1
10
64.675568354208
20
2.00270959194404
30
0
41
1
10
64.3337106246798
20
1.957772877628
30
0
41
1
10
64.1107354193415
20
1.92534886186561
30
0
41
1
10
64.0244776756296
20
1.9125564357544
30
0
41
1
10
64.0065694931839
20
1.90988811844969
30
0
0
SPLINE
5
DB
100
AcDbEntity
8
1
62
256
6
ByLayer
370
18
48
1
60
0
100
AcDbSpline
70
4
71
3
72
46
73
42
40
0
40
0
40
0
40
0
40
0.0091565711809096
40
0.0255303150016096
40
0.0582778026430101
40
0.0910252902844113
40
0.123772777925814
40
0.140146521746515
40
0.156520265567216
40
0.189267753208618
40
0.22201524085002
40
0.254762728491422
40
0.271136472312122
40
0.287510216132824
40
0.320257703774225
40
0.353005191415627
40
0.385752679057029
40
0.402126422877731
40
0.418500166698431
40
0.451247654339833
40
0.483995141981235
40
0.516742629622637
40
0.533116373443338
40
0.549490117264039
40
0.582237604905441
40
0.614985092546843
40
0.647732580188245
40
0.664106324008947
40
0.680480067829647
40
0.713227555471048
40
0.74597504311245
40
0.778722530753852
40
0.795096274574554
40
0.811470018395254
40
0.844217506036656
40
0.876964993678058
40
0.90971248131946
40
0.926086225140161
40
0.942459968960862
40
0.975207456602264
40
1
40
1
40
1
40
1
41
1
10
33.0030936395304
20
0.55631956059716
30
0
41
1
10
32.9648673394821
20
0.567914745874106
30
0
41
1
10
32.8582893620294
20
0.600149154454044
30
0
41
1
10
32.6150304296831
20
0.672960634590311
30
0
41
1
10
32.2732831079055
20
0.774102892025439
30
0
41
1
10
31.8630683542088
20
0.892816134382741
30
0
41
1
10
31.5212106246754
20
0.989303648039311
30
0
41
1
10
31.2477902172086
20
1.06453249786099
30
0
41
1
10
30.9744062661036
20
1.13833143307377
30
0
41
1
10
30.6326592937171
20
1.22851220114197
30
0
41
1
10
30.2224445114372
20
1.33253757849764
30
0
41
1
10
29.8805859607647
20
1.41517307246113
30
0
41
1
10
29.6071647550826
20
1.47848333110306
30
0
41
1
10
29.3337804296828
20
1.54011438243322
30
0
41
1
10
28.9920331079053
20
1.6142612547151
30
0
41
1
10
28.5818183542088
20
1.69774171732371
30
0
41
1
10
28.2399606246758
20
1.76188411117406
30
0
41
1
10
27.9665402172096
20
1.80973768567984
30
0
41
1
10
27.6931562661051
20
1.8557674960978
30
0
41
1
10
27.3514092937194
20
1.90976763381622
30
0
41
1
10
26.9411945114402
20
1.96808239465699
30
0
41
1
10
26.5993359607675
20
2.01017358337393
30
0
41
1
10
26.3259147550848
20
2.03989913594825
30
0
41
1
10
26.0525304296846
20
2.06774600097157
30
0
41
1
10
25.7107831079065
20
2.09855162168566
30
0
41
1
10
25.3005683542093
20
2.12839582442391
30
0
41
1
10
24.9587106246764
20
2.14605274474485
30
0
41
1
10
24.6852902172105
20
2.15598160182947
30
0
41
1
10
24.4119062661057
20
2.16409489877611
30
0
41
1
10
24.0701592937195
20
2.17000993856223
30
0
41
1
10
23.6599445114394
20
2.16975844567509
30
0
41
1
10
23.3180859607656
20
2.16202621963268
30
0
41
1
10
23.0446647550821
20
2.15161399253577
30
0
41
1
10
22.7712804296818
20
2.1395377590928
30
0
41
1
10
22.4295331079037
20
2.12021095086826
30
0
41
1
10
22.0193183542068
20
2.08983966340239
30
0
41
1
10
21.6774606246736
20
2.05711859724198
30
0
41
1
10
21.4040402172071
20
2.02693389513314
30
0
41
1
10
21.1306562661455
20
1.99534208174904
30
0
41
1
10
20.8221158487982
20
1.95609228417084
30
0
41
1
10
20.5818638947486
20
1.92214459299646
30
0
41
1
10
20.4783415397207
20
1.90676707170127
30
0
0
SPLINE
5
DC
100
AcDbEntity
8
1
62
256
6
ByLayer
370
18
48
1
60
0
100
AcDbSpline
70
4
71
3
72
8
73
4
40
0
40
0
40
0
40
0
40
1
40
1
40
1
40
1
41
1
10
88.5842627184821
20
3.82976021628468
30
0
41
1
10
88.617551524685
20
3.77199255036553
30
0
41
1
10
88.6508684887172
20
3.71421184529498
30
0
41
1
10
88.6842056540416
20
3.65643422638465
30
0
0
SPLINE
5
DD
100
AcDbEntity
8
1
62
256
6
ByLayer
370
18
48
1
60
0
100
AcDbSpline
70
4
71
3
72
8
73
4
40
0
40
0
40
0
40
0
40
1
40
1
40
1
40
1
41
1
10
50.0001285270196
20
2.89236863144421
30
0
41
1
10
50.0001285270196
20
2.8761492198476
30
0
41
1
10
50.0001285270196
20
2.85953362484895
30
0
41
1
10
50.0001285270196
20
2.84252641389833
30
0
0
SPLINE
5
DE
100
AcDbEntity
8
1
62
256
6
ByLayer
370
18
48
1
60
0
100
AcDbSpline
70
4
71
3
72
18
73
14
40
0
40
0
40
0
40
0
40
0.0975397584119263
40
0.156587928893506
40
0.215636099375086
40
0.333732440338247
40
0.451828781301407
40
0.569925122264567
40
0.628973292746147
40
0.688021463227727
40
0.806117804190887
40
0.924214145154047
40
1
40
1
40
1
40
1
41
1
10
89.2135359463861
20
2.16977248673271
30
0
41
1
10
89.1005969360995
20
2.16994938373236
30
0
41
1
10
88.9192892641884
20
2.16860899197206
30
0
41
1
10
88.6696647550761
20
2.16333942951491
30
0
41
1
10
88.3962804296716
20
2.15585873100724
30
0
41
1
10
88.0545331078896
20
2.14225433110264
30
0
41
1
10
87.6443183541922
20
2.11867330530393
30
0
41
1
10
87.3024606246649
20
2.09154828746179
30
0
41
1
10
87.0290402172045
20
2.0657714993535
30
0
41
1
10
86.7556562661029
20
2.03852281469361
30
0
41
1
10
86.4139092937205
20
2.00040268777437
30
0
41
1
10
86.0526838555359
20
1.95416905390761
30
0
41
1
10
85.8281897249632
20
1.92164266787768
30
0
41
1
10
85.7404434916578
20
1.90839557424948
30
0
0
SPLINE
5
DF
100
AcDbEntity
8
1
62
256
6
ByLayer
370
18
48
1
60
0
100
AcDbSpline
70
4
71
3
72
46
73
42
40
0
40
0
40
0
40
0
40
0.0311728030578953
40
0.0474976515533066
40
0.0638225000487159
40
0.0964721970395382
40
0.129121894030359
40
0.161771591021178
40
0.178096439516588
40
0.194421288011997
40
0.227070985002819
40
0.259720681993641
40
0.29237037898446
40
0.30869522747987
40
0.325020075975281
40
0.357669772966101
40
0.390319469956919
40
0.422969166947743
40
0.439294015443157
40
0.455618863938563
40
0.488268560929384
40
0.520918257920204
40
0.553567954911025
40
0.569892803406434
40
0.586217651901846
40
0.618867348892667
40
0.651517045883487
40
0.684166742874307
40
0.700491591369717
40
0.716816439865128
40
0.749466136855949
40
0.782115833846767
40
0.81476553083759
40
0.831090379333
40
0.84741522782841
40
0.880064924819231
40
0.912714621810052
40
0.945364318800872
40
0.961689167296282
40
0.978014015791693
40
1
40
1
40
1
40
1
41
1
10
54.8132597183389
20
0.537798806842432
30
0
41
1
10
54.6827042863123
20
0.577459981365166
30
0
41
1
10
54.4837766018771
20
0.637558526930007
30
0
41
1
10
54.2165402172033
20
0.71710647636408
30
0
41
1
10
53.9431562660971
20
0.797299007621461
30
0
41
1
10
53.60140929371
20
0.896154961073222
30
0
41
1
10
53.1911945114312
20
1.01171282032141
30
0
41
1
10
52.8493359607629
20
1.10513366410922
30
0
41
1
10
52.5759147550847
20
1.17767478895456
30
0
41
1
10
52.302530429687
20
1.24871022567387
30
0
41
1
10
51.9607831079119
20
1.33520590873408
30
0
41
1
10
51.5505683542164
20
1.43444654494724
30
0
41
1
10
51.2087106246829
20
1.51272200792459
30
0
41
1
10
50.9352902172157
20
1.57236442049037
30
0
41
1
10
50.6619062661103
20
1.63028524417177
30
0
41
1
10
50.3201592937228
20
1.69961797591239
30
0
41
1
10
49.9099445114411
20
1.77703796942441
30
0
41
1
10
49.5680859607655
20
1.83581652318341
30
0
41
1
10
49.2946647550807
20
1.87922700758952
30
0
41
1
10
49.0212804296794
20
1.92078492242513
30
0
41
1
10
48.6795331079004
20
1.96904822924279
30
0
41
1
10
48.2693183542028
20
2.02027469440714
30
0
41
1
10
47.9274606246688
20
2.05624286918595
30
0
41
1
10
47.6540402172018
20
2.08099063247525
30
0
41
1
10
47.3806562660968
20
2.10387095581891
30
0
41
1
10
47.0389092937108
20
2.1283958889519
30
0
41
1
10
46.6286945114325
20
2.15061058241361
30
0
41
1
10
46.2868359607639
20
2.16178896458916
30
0
41
1
10
46.0134147550853
20
2.16649885694605
30
0
41
1
10
45.7400304296877
20
2.16941770196234
30
0
41
1
10
45.3982831079126
20
2.16880886390726
30
0
41
1
10
44.9880683542174
20
2.16072815360974
30
0
41
1
10
44.646210624684
20
2.14645976465951
30
0
41
1
10
44.3727902172169
20
2.13085717136218
30
0
41
1
10
44.0994062661113
20
2.11365296894113
30
0
41
1
10
43.7576592937235
20
2.08796351963474
30
0
41
1
10
43.3474445114413
20
2.05007562742875
30
0
41
1
10
43.0055859607649
20
2.01118953527615
30
0
41
1
10
42.7321647550795
20
1.97616052785426
30
0
41
1
10
42.5034254370444
20
1.94573520626488
30
0
41
1
10
42.3430259898633
20
1.92297177209647
30
0
41
1
10
42.2509685987817
20
1.90942926099271
30
0
0
SPLINE
5
E0
100
AcDbEntity
8
1
62
256
6
ByLayer
370
18
48
1
60
0
100
AcDbSpline
70
4
71
3
72
12
73
8
40
0
40
0
40
0
40
0
40
0.249999999999996
40
0.249999999999996
40
0.499999999999991
40
0.499999999999991
40
1
40
1
40
1
40
1
41
1
10
88.6842056540417
20
3.65643422638468
30
0
41
1
10
88.7265493999783
20
3.5330656935802
30
0
41
1
10
88.7693490091492
20
3.40913320073261
30
0
41
1
10
88.8557392651698
20
3.16118200259515
30
0
41
1
10
88.8993530566955
20
3.03708535279441
30
0
41
1
10
89.0316476757828
20
2.66462532460233
30
0
41
1
10
89.1216429565467
20
2.41686115009725
30
0
41
1
10
89.2135359463861
20
2.16977248673274
30
0
0
SPLINE
5
E1
100
AcDbEntity
8
1
62
256
6
ByLayer
370
18
48
1
60
0
100
AcDbSpline
70
4
71
3
72
20
73
16
40
0
40
0
40
0
40
0
40
0.132775753105411
40
0.132775753105411
40
0.265551506210821
40
0.265551506210821
40
0.398327259316232
40
0.398327259316232
40
0.531103012421642
40
0.531103012421642
40
0.796654518632508
40
0.796654518632508
40
0.929430271737963
40
0.929430271737963
40
1
40
1
40
1
40
1
41
1
10
89.1252354772845
20
0.637479528608679
30
0
41
1
10
89.0990722676057
20
0.650521715196447
30
0
41
1
10
89.072874065369
20
0.663315567579104
30
0
41
1
10
89.0204064128015
20
0.68839764087042
30
0
41
1
10
88.9941320989911
20
0.70068840195492
30
0
41
1
10
88.9417404413459
20
0.724679121249181
30
0
41
1
10
88.9155983179756
20
0.736370596039592
30
0
41
1
10
88.8633473106933
20
0.759565464752825
30
0
41
1
10
88.8372322638979
20
0.771103730497657
30
0
41
1
10
88.7590493169729
20
0.804800778515443
30
0
41
1
10
88.7071372033646
20
0.826078064354562
30
0
41
1
10
88.6296897817504
20
0.855613244363497
30
0
41
1
10
88.6039446500564
20
0.865058396786509
30
0
41
1
10
88.5646460714142
20
0.878788148115063
30
0
41
1
10
88.5510241317626
20
0.883414497516526
30
0
41
1
10
88.5374470575833
20
0.887889578363911
30
0
0
SPLINE
5
E2
100
AcDbEntity
8
1
62
256
6
ByLayer
370
13
48
1
60
0
100
AcDbSpline
70
4
71
3
72
44
73
40
40
0
40
0
40
0
40
0
40
0.0305000113668249
40
0.0646183042465518
40
0.0987365971262771
40
0.115795743566141
40
0.132854890006003
40
0.166973182885731
40
0.201091475765461
40
0.235209768645186
40
0.252268915085049
40
0.269328061524913
40
0.30344635440464
40
0.337564647284363
40
0.371682940164094
40
0.388742086603962
40
0.405801233043822
40
0.439919525923549
40
0.474037818803276
40
0.508156111683003
40
0.525215258122865
40
0.54227440456273
40
0.576392697442458
40
0.610510990322184
40
0.644629283201911
40
0.661688429641775
40
0.678747576081639
40
0.712865868961366
40
0.746984161841091
40
0.78110245472082
40
0.798161601160683
40
0.815220747600547
40
0.849339040480274
40
0.883457333360002
40
0.917575626239729
40
0.934634772679593
40
0.951693919119456
40
0.985812211999183
40
1
40
1
40
1
40
1
41
1
10
59.4344407080365
20
-1.93704394570352
30
0
41
1
10
59.3124493073546
20
-1.9396105239608
30
0
41
1
10
59.0539492522377
20
-1.94285003582758
30
0
41
1
10
58.6582210009835
20
-1.94277527955464
30
0
41
1
10
58.3157704992472
20
-1.93883066498083
30
0
41
1
10
58.0418954223539
20
-1.93277482990453
30
0
41
1
10
57.7689956241815
20
-1.92201502130928
30
0
41
1
10
57.427823851979
20
-1.90364239005643
30
0
41
1
10
57.0176077046319
20
-1.87650424402506
30
0
41
1
10
56.6751642090491
20
-1.85050289164028
30
0
41
1
10
56.401288170124
20
-1.8268903468196
30
0
41
1
10
56.128383548468
20
-1.79831470236161
30
0
41
1
10
55.787201030274
20
-1.75804876295391
30
0
41
1
10
55.3769710009859
20
-1.70533133332751
30
0
41
1
10
55.0345204992485
20
-1.65870806750263
30
0
41
1
10
54.760645422354
20
-1.61885600764
30
0
41
1
10
54.4877456241836
20
-1.57406619817937
30
0
41
1
10
54.146573851984
20
-1.51417096971139
30
0
41
1
10
53.7363577046411
20
-1.4388376571317
30
0
41
1
10
53.3939142090604
20
-1.37420915264602
30
0
41
1
10
53.1200381701349
20
-1.32035049359783
30
0
41
1
10
52.8471335484772
20
-1.26185277439268
30
0
41
1
10
52.5059510302796
20
-1.18567843320955
30
0
41
1
10
52.0957210009869
20
-1.09194276108823
30
0
41
1
10
51.7532704992487
20
-1.01291906147571
30
0
41
1
10
51.479395422354
20
-0.948056264720464
30
0
41
1
10
51.2064956241809
20
-0.879110481728702
30
0
41
1
10
50.8653238519776
20
-0.790896711381436
30
0
41
1
10
50.4551077046304
20
-0.683975652457036
30
0
41
1
10
50.112664209048
20
-0.594967513922086
30
0
41
1
10
49.8387881701234
20
-0.522736018898172
30
0
41
1
10
49.5658835484678
20
-0.447212195790797
30
0
41
1
10
49.2247010302742
20
-0.351922279900322
30
0
41
1
10
48.8144710009865
20
-0.237832632370612
30
0
41
1
10
48.4720204992484
20
-0.143829474337537
30
0
41
1
10
48.198145422353
20
-0.0682551090455661
30
0
41
1
10
47.9252456241818
20
0.0096473744278569
30
0
41
1
10
47.6637932646069
20
0.0840474249239378
30
0
41
1
10
47.4703046307473
20
0.138507652233756
30
0
41
1
10
47.4134536301413
20
0.154447617522578
30
0
0
SPLINE
5
E3
100
AcDbEntity
8
1
62
256
6
ByLayer
370
13
48
1
60
0
100
AcDbSpline
70
4
71
3
72
44
73
40
40
0
40
0
40
0
40
0
40
0.0143042992266797
40
0.0316535562604021
40
0.066352070327847
40
0.101050584395292
40
0.135749098462737
40
0.153098355496459
40
0.170447612530182
40
0.205146126597626
40
0.239844640665071
40
0.274543154732516
40
0.291892411766239
40
0.309241668799961
40
0.343940182867406
40
0.378638696934851
40
0.413337211002296
40
0.430686468036018
40
0.448035725069741
40
0.482734239137185
40
0.51743275320463
40
0.552131267272075
40
0.569480524305798
40
0.58682978133952
40
0.621528295406965
40
0.65622680947441
40
0.690925323541855
40
0.708274580575577
40
0.7256238376093
40
0.760322351676744
40
0.79502086574419
40
0.829719379811634
40
0.847068636845357
40
0.864417893879079
40
0.899116407946524
40
0.933814922013969
40
0.968513436081414
40
0.985862693115134
40
1
40
1
40
1
40
1
41
1
10
81.1800056351284
20
-1.93698512097123
30
0
41
1
10
81.1235528899391
20
-1.93860206773266
30
0
41
1
10
80.998671301938
20
-1.94174066297171
30
0
41
1
10
80.7377456241751
20
-1.94453206827919
30
0
41
1
10
80.3965738519746
20
-1.94315344059169
30
0
41
1
10
79.9863577046347
20
-1.93607589684686
30
0
41
1
10
79.6439142090615
20
-1.92639807524967
30
0
41
1
10
79.3700381701415
20
-1.91575514982244
30
0
41
1
10
79.0971335484852
20
-1.90031140617944
30
0
41
1
10
78.7559510302875
20
-1.87614955000677
30
0
41
1
10
78.3457210009925
20
-1.84221602166949
30
0
41
1
10
78.0032704992521
20
-1.81071790644771
30
0
41
1
10
77.7293954223582
20
-1.78276439585201
30
0
41
1
10
77.4564956241884
20
-1.74983030470295
30
0
41
1
10
77.1153238519911
20
-1.70426039256736
30
0
41
1
10
76.7051077046497
20
-1.64539840593474
30
0
41
1
10
76.3626642090644
20
-1.59385713606702
30
0
41
1
10
76.088788170133
20
-1.55015883048304
30
0
41
1
10
75.8158835484724
20
-1.50157260699152
30
0
41
1
10
75.4747010302716
20
-1.437132362461
30
0
41
1
10
75.0644710009784
20
-1.35662015873905
30
0
41
1
10
74.7220204992463
20
-1.28790800447189
30
0
41
1
10
74.448145422358
20
-1.23090128748464
30
0
41
1
10
74.1752456241875
20
-1.16937400379211
30
0
41
1
10
73.8340738519865
20
-1.08965881015101
30
0
41
1
10
73.4238577046387
20
-0.991988655200117
30
0
41
1
10
73.0814142090501
20
-0.909946341021794
30
0
41
1
10
72.80753817012
20
-0.842826057817177
30
0
41
1
10
72.5346335484623
20
-0.771808310920193
30
0
41
1
10
72.1934510302672
20
-0.681295693676532
30
0
41
1
10
71.7832210009796
20
-0.571953934433736
30
0
41
1
10
71.4407704992438
20
-0.481175510108557
30
0
41
1
10
71.1668954223491
20
-0.407682862340977
30
0
41
1
10
70.8939956241763
20
-0.331126232137649
30
0
41
1
10
70.5528238519729
20
-0.234839174000086
30
0
41
1
10
70.1426077046267
20
-0.11989248458849
30
0
41
1
10
69.8001642090489
20
-0.0254355627320706
30
0
41
1
10
69.5389641622808
20
0.0468040838164541
30
0
41
1
10
69.4151020839658
20
0.0820141340165321
30
0
41
1
10
69.3595017021578
20
0.0978327206179586
30
0
0
SPLINE
5
E4
100
AcDbEntity
8
1
62
256
6
ByLayer
370
13
48
1
60
0
100
AcDbSpline
70
4
71
3
72
44
73
40
40
0
40
0
40
0
40
0
40
0.0194388669558252
40
0.0544514560749838
40
0.0719577506345625
40
0.0894640451941411
40
0.124476634313298
40
0.159489223432455
40
0.194501812551612
40
0.21200810711119
40
0.22951440167077
40
0.264526990789926
40
0.299539579909083
40
0.334552169028242
40
0.35205846358782
40
0.369564758147398
40
0.404577347266555
40
0.439589936385713
40
0.47460252550487
40
0.492108820064449
40
0.509615114624027
40
0.544627703743185
40
0.579640292862341
40
0.614652881981499
40
0.632159176541079
40
0.649665471100656
40
0.684678060219813
40
0.719690649338969
40
0.754703238458128
40
0.772209533017706
40
0.789715827577285
40
0.824728416696442
40
0.859741005815599
40
0.894753594934756
40
0.912259889494335
40
0.929766184053914
40
0.964778773173071
40
0.999791362292228
40
1
40
1
40
1
40
1
41
1
10
37.5578246676872
20
-1.93819621412217
30
0
41
1
10
37.4819178059528
20
-1.93955823143648
30
0
41
1
10
37.2691796785634
20
-1.94262354860135
30
0
41
1
10
36.987664209055
20
-1.94412727242997
30
0
41
1
10
36.71378817013
20
-1.94268065238833
30
0
41
1
10
36.4408835484733
20
-1.936632978793
30
0
41
1
10
36.0997010302773
20
-1.92408860123746
30
0
41
1
10
35.6894710009866
20
-1.90381012537665
30
0
41
1
10
35.3470204992482
20
-1.88338305793587
30
0
41
1
10
35.0731454223532
20
-1.86419645089941
30
0
41
1
10
34.8002456241812
20
-1.84008990595109
30
0
41
1
10
34.4590738519797
20
-1.80529115561365
30
0
41
1
10
34.0488577046351
20
-1.75893122741593
30
0
41
1
10
33.7064142090544
20
-1.71741002692497
30
0
41
1
10
33.4325381701301
20
-1.681557709104
30
0
41
1
10
33.1596335484741
20
-1.64073341597089
30
0
41
1
10
32.8184510302793
20
-1.58560798386676
30
0
41
1
10
32.4082210009895
20
-1.5157361098706
30
0
41
1
10
32.0657704992509
20
-1.45542878423862
30
0
41
1
10
31.7918954223553
20
-1.40490997291366
30
0
41
1
10
31.5189956241826
20
-1.34964886514894
30
0
41
1
10
31.1778238519802
20
-1.27727963772753
30
0
41
1
10
30.7676077046345
20
-1.18780349638814
30
0
41
1
10
30.4251642090538
20
-1.11208537675097
30
0
41
1
10
30.1512881701297
20
-1.04973109572049
30
0
41
1
10
29.8783835484735
20
-0.983130002210942
30
0
41
1
10
29.5372010302781
20
-0.897576057146779
30
0
41
1
10
29.1269710009878
20
-0.793514217192325
30
0
41
1
10
28.7845204992487
20
-0.706621536556156
30
0
41
1
10
28.5106454223532
20
-0.635907521277176
30
0
41
1
10
28.2377456241815
20
-0.561674302330829
30
0
41
1
10
27.8965738519806
20
-0.467688577912128
30
0
41
1
10
27.4863577046368
20
-0.354821466161042
30
0
41
1
10
27.1439142090564
20
-0.261598679262079
30
0
41
1
10
26.8700381701317
20
-0.186488594727848
30
0
41
1
10
26.5971335487076
20
-0.108793080511759
30
0
41
1
10
26.2559510317241
20
-0.0116712036881381
30
0
41
1
10
25.9816495040201
20
0.0654319213328449
30
0
41
1
10
25.8439714742994
20
0.103739722559112
30
0
41
1
10
25.8431559156679
20
0.103966631501635
30
0
0
SPLINE
5
E5
100
AcDbEntity
8
1
62
256
6
ByLayer
370
18
48
1
60
0
100
AcDbSpline
70
4
71
3
72
22
73
18
40
0
40
0
40
0
40
0
40
0.49999999999992
40
0.49999999999992
40
0.749999999999917
40
0.749999999999917
40
0.874999999999956
40
0.874999999999956
40
0.937499999999976
40
0.937499999999976
40
0.968749999999988
40
0.968749999999988
40
0.984374999999994
40
0.984374999999994
40
0.992187499999997
40
0.992187499999997
40
1
40
1
40
1
40
1
41
1
10
88.4798983012778
20
3.9998350701641
30
0
41
1
10
88.4972753233613
20
3.97175975782736
30
0
41
1
10
88.5146629880515
20
3.94354437608493
30
0
41
1
10
88.5407492042869
20
3.90103614813509
30
0
41
1
10
88.5494440965524
20
3.8868385544198
30
0
41
1
10
88.562490002603
20
3.86549075630273
30
0
41
1
10
88.5668420983216
20
3.85836030725531
30
0
41
1
10
88.5733718458584
20
3.84765043138287
30
0
41
1
10
88.575544839932
20
3.84408608202801
30
0
41
1
10
88.5788006119568
20
3.83874442327811
30
0
41
1
10
88.5798894499366
20
3.83695601725893
30
0
41
1
10
88.5815325858759
20
3.83425234844623
30
0
41
1
10
88.582080405375
20
3.83335098800072
30
0
41
1
10
88.5828757998711
20
3.83205228214865
30
0
41
1
10
88.5831391419099
20
3.83162300394272
30
0
41
1
10
88.5836982876671
20
3.83069775435209
30
0
41
1
10
88.5840025831518
20
3.830183431698
30
0
41
1
10
88.5842627184821
20
3.82976021628468
30
0
0
SPLINE
5
E6
100
AcDbEntity
8
1
62
256
6
ByLayer
370
18
48
1
60
0
100
AcDbSpline
70
4
71
3
72
46
73
42
40
0
40
0
40
0
40
0
40
0.0541623790841105
40
0.0541623790841105
40
0.108324758168221
40
0.108324758168221
40
0.162487137252331
40
0.162487137252331
40
0.216649516336442
40
0.216649516336442
40
0.243730705878495
40
0.243730705878495
40
0.270811895420549
40
0.270811895420549
40
0.297893084962602
40
0.297893084962602
40
0.324974274504656
40
0.324974274504656
40
0.433299032672877
40
0.433299032672877
40
0.487461411756989
40
0.487461411756989
40
0.541623790841101
40
0.541623790841101
40
0.595786169925213
40
0.595786169925213
40
0.649948549009325
40
0.649948549009325
40
0.704110928093436
40
0.704110928093436
40
0.758273307177549
40
0.758273307177549
40
0.81243568626166
40
0.81243568626166
40
0.866598065345772
40
0.866598065345772
40
0.920760444429884
40
0.920760444429884
40
0.974922823513996
40
0.974922823513996
40
1
40
1
40
1
40
1
41
1
10
50.0001285270397
20
2.84252641381522
30
0
41
1
10
50.201083406694
20
2.76801533461938
30
0
41
1
10
50.4016582088507
20
2.68999298663849
30
0
41
1
10
50.8025929763111
20
2.52746840865521
30
0
41
1
10
51.002947298851
20
2.44292718394433
30
0
41
1
10
51.4037323811918
20
2.26787272641857
30
0
41
1
10
51.6041803519986
20
2.17738080560287
30
0
41
1
10
52.0053940520073
20
1.99091053782067
30
0
41
1
10
52.2062077385912
20
1.89497525088586
30
0
41
1
10
52.5080022465167
20
1.74749500634792
30
0
41
1
10
52.6087590167905
20
1.69770023370123
30
0
41
1
10
52.8101338461985
20
1.59713660878097
30
0
41
1
10
52.91072155484
20
1.54638436604841
30
0
41
1
10
53.1117405811973
20
1.44400797065072
30
0
41
1
10
53.2121739236034
20
1.39238985512406
30
0
41
1
10
53.4129207966284
20
1.28832559712609
30
0
41
1
10
53.5132312381119
20
1.23586740577795
30
0
41
1
10
54.0146482021737
20
0.971834530720344
30
0
41
1
10
54.41533004215
20
0.754990248272321
30
0
41
1
10
55.0178180862989
20
0.424897695532167
30
0
41
1
10
55.2188626328665
20
0.314006572028404
30
0
41
1
10
55.6217999518168
20
0.0913308243317772
30
0
41
1
10
55.8232279687794
20
-0.0201790117401686
30
0
41
1
10
56.2261950965257
20
-0.24289933200447
30
0
41
1
10
56.4277442424123
20
-0.354087030419095
30
0
41
1
10
56.8307485487032
20
-0.575349541870821
30
0
41
1
10
57.0322222137021
20
-0.685435883703917
30
0
41
1
10
57.4352136069288
20
-0.903542592968165
30
0
41
1
10
57.6364420802049
20
-1.01147512885115
30
0
41
1
10
58.0384033382982
20
-1.22440056839963
30
0
41
1
10
58.2391868828589
20
-1.32939876939997
30
0
41
1
10
58.6406968768881
20
-1.53574068265212
30
0
41
1
10
58.8414504664813
20
-1.63709616648521
30
0
41
1
10
59.2433490526313
20
-1.83546133152612
30
0
41
1
10
59.4444922965208
20
-1.93245367931911
30
0
41
1
10
59.8475262590378
20
-2.12147661274838
30
0
41
1
10
60.0488596836635
20
-2.21329112544538
30
0
41
1
10
60.4513990181588
20
-2.39100667466837
30
0
41
1
10
60.6526506964608
20
-2.47689571968687
30
0
41
1
10
60.9472672063072
20
-2.59797409268336
30
0
41
1
10
61.0405439473012
20
-2.63562681782488
30
0
41
1
10
61.1338364158925
20
-2.67257364821634
30
0
0
SPLINE
5
E7
100
AcDbEntity
8
1
62
256
6
ByLayer
370
18
48
1
60
0
100
AcDbSpline
70
4
71
3
72
28
73
24
40
0
40
0
40
0
40
0
40
0.0797192421028787
40
0.0797192421028787
40
0.194754336840021
40
0.194754336840021
40
0.309789431577163
40
0.309789431577163
40
0.424824526314306
40
0.424824526314306
40
0.482342073682877
40
0.482342073682877
40
0.539859621051448
40
0.539859621051448
40
0.654894715788585
40
0.654894715788585
40
0.769929810525721
40
0.769929810525721
40
0.884964905262857
40
0.884964905262857
40
0.942482452631429
40
0.942482452631429
40
1
40
1
40
1
40
1
41
1
10
83.3577985425688
20
2.85525213484249
30
0
41
1
10
83.4954899611922
20
2.90605262111907
30
0
41
1
10
83.6331954052172
20
2.95512768883304
30
0
41
1
10
83.9697663098893
20
3.07070461034132
30
0
41
1
10
84.1686920203353
20
3.13531464437895
30
0
41
1
10
84.5671133992073
20
3.25686661813674
30
0
41
1
10
84.7665776734999
20
3.31380339730484
30
0
41
1
10
85.1664746118442
20
3.41951608848905
30
0
41
1
10
85.3669036316671
20
3.4682975593179
30
0
41
1
10
85.6685185116983
20
3.53499989456918
30
0
41
1
10
85.7693069898568
20
3.55617150406496
30
0
41
1
10
85.9706849272191
20
3.5961799230607
30
0
41
1
10
86.0712974608009
20
3.61502343634555
30
0
41
1
10
86.3729343844808
20
3.66802201506172
30
0
41
1
10
86.5737830233091
20
3.69861971741955
30
0
41
1
10
86.9754594292174
20
3.75034115929057
30
0
41
1
10
87.1762639549384
20
3.77150960504542
30
0
41
1
10
87.5780832091039
20
3.80452096258563
30
0
41
1
10
87.7790998871461
20
3.81637364637802
30
0
41
1
10
88.0810512642969
20
3.82678017578686
30
0
41
1
10
88.1818254017245
20
3.82905344945451
30
0
41
1
10
88.38314711795
20
3.83120315803319
30
0
41
1
10
88.4837326409163
20
3.83108317721434
30
0
41
1
10
88.5842627184931
20
3.82976021621875
30
0
0
SPLINE
5
E8
100
AcDbEntity
8
1
62
256
6
ByLayer
370
18
48
1
60
0
100
AcDbSpline
70
4
71
3
72
32
73
28
40
0
40
0
40
0
40
0
40
0.124999999999969
40
0.124999999999969
40
0.187499999999964
40
0.187499999999964
40
0.249999999999959
40
0.249999999999959
40
0.374999999999971
40
0.374999999999971
40
0.40624999999998
40
0.40624999999998
40
0.437499999999989
40
0.437499999999989
40
0.499999999999983
40
0.499999999999983
40
0.624999999999947
40
0.624999999999947
40
0.656249999999944
40
0.656249999999944
40
0.68749999999994
40
0.749999999999956
40
0.812499999999972
40
0.812499999999972
40
0.874999999999987
40
0.874999999999987
40
1
40
1
40
1
40
1
41
1
10
89.9988747371131
20
0.143192549043334
30
0
41
1
10
89.9778252447211
20
0.0836003775184224
30
0
41
1
10
89.95522797909
20
0.0247434154659913
30
0
41
1
10
89.9189665526066
20
-0.0623972665005965
30
0
41
1
10
89.9064259520257
20
-0.0913713867462036
30
0
41
1
10
89.8810233350427
20
-0.147815234663113
30
0
41
1
10
89.8681206695045
20
-0.175392441987356
30
0
41
1
10
89.8288389833792
20
-0.256186963151748
30
0
41
1
10
89.801893302547
20
-0.307486017794616
30
0
41
1
10
89.7672672306297
20
-0.368145337495264
30
0
41
1
10
89.7602942578298
20
-0.380102481119451
30
0
41
1
10
89.7462504158704
20
-0.403654126442234
30
0
41
1
10
89.7392077489044
20
-0.415199884735955
30
0
41
1
10
89.7181876495904
20
-0.448872998535819
30
0
41
1
10
89.7042504273735
20
-0.470152407483482
30
0
41
1
10
89.6626692921963
20
-0.530501606607118
30
0
41
1
10
89.6352577267939
20
-0.566118196937481
30
0
41
1
10
89.6013613271137
20
-0.604433894985647
30
0
41
1
10
89.5945908260974
20
-0.611791763438276
30
0
41
1
10
89.5812584909453
20
-0.625685460911853
30
0
41
1
10
89.5615096046879
20
-0.645366538165604
30
0
41
1
10
89.5297993341382
20
-0.672475814435813
30
0
41
1
10
89.5056460191956
20
-0.688155729079028
30
0
41
1
10
89.4820756380192
20
-0.700782709496849
30
0
41
1
10
89.4705440924425
20
-0.705565611247351
30
0
41
1
10
89.4375400506169
20
-0.715015406178026
30
0
41
1
10
89.4173937880265
20
-0.714998322217923
30
0
41
1
10
89.3988454364563
20
-0.708980736731661
30
0
0
SPLINE
5
E9
100
AcDbEntity
8
1
62
256
6
ByLayer
370
18
48
1
60
0
100
AcDbSpline
70
4
71
3
72
101
73
97
40
0
40
0
40
0
40
0
40
0.0312500000000011
40
0.0312500000000011
40
0.0468750000000026
40
0.0468750000000026
40
0.0625000000000041
40
0.0625000000000041
40
0.0937500000000071
40
0.0937500000000071
40
0.101562500000009
40
0.101562500000009
40
0.109375000000012
40
0.125000000000016
40
0.14062500000002
40
0.14062500000002
40
0.156250000000025
40
0.156250000000025
40
0.187500000000033
40
0.187500000000033
40
0.203125000000038
40
0.203125000000038
40
0.218750000000042
40
0.234375000000046
40
0.234375000000046
40
0.250000000000051
40
0.250000000000051
40
0.281250000000059
40
0.281250000000059
40
0.296875000000058
40
0.296875000000058
40
0.312500000000057
40
0.312500000000057
40
0.343750000000054
40
0.343750000000054
40
0.375000000000052
40
0.375000000000052
40
0.390625000000056
40
0.390625000000056
40
0.40625000000006
40
0.40625000000006
40
0.437500000000067
40
0.437500000000067
40
0.468750000000075
40
0.468750000000075
40
0.484375000000075
40
0.484375000000075
40
0.500000000000075
40
0.500000000000075
40
0.531250000000082
40
0.531250000000082
40
0.546875000000083
40
0.546875000000083
40
0.562500000000084
40
0.562500000000084
40
0.593750000000086
40
0.593750000000086
40
0.609375000000086
40
0.609375000000086
40
0.625000000000087
40
0.625000000000087
40
0.656250000000089
40
0.656250000000089
40
0.66406250000009
40
0.66406250000009
40
0.67187500000009
40
0.687500000000092
40
0.703125000000093
40
0.703125000000093
40
0.718750000000094
40
0.718750000000094
40
0.750000000000096
40
0.750000000000096
40
0.765625000000089
40
0.765625000000089
40
0.781250000000082
40
0.781250000000082
40
0.812500000000067
40
0.812500000000067
40
0.843750000000053
40
0.843750000000053
40
0.859375000000051
40
0.859375000000051
40
0.87500000000005
40
0.87500000000005
40
0.906250000000035
40
0.906250000000035
40
0.921875000000027
40
0.921875000000027
40
0.93750000000002
40
0.93750000000002
40
0.968750000000005
40
0.968750000000005
40
0.984375000000003
40
0.984375000000003
40
1
40
1
40
1
40
1
41
1
10
89.3988454364563
20
-0.708980736731633
30
0
41
1
10
89.4035034009944
20
-0.723327465129842
30
0
41
1
10
89.407045410013
20
-0.73988324069623
30
0
41
1
10
89.4104695001303
20
-0.76841814835575
30
0
41
1
10
89.411295279761
20
-0.778626070568606
30
0
41
1
10
89.4122348660176
20
-0.799912562543568
30
0
41
1
10
89.4123559716303
20
-0.811000995604502
30
0
41
1
10
89.4116733485889
20
-0.845604819685661
30
0
41
1
10
89.409832959822
20
-0.870445184946391
30
0
41
1
10
89.4056746017506
20
-0.903903807009357
30
0
41
1
10
89.4047454953138
20
-0.910741681243081
30
0
41
1
10
89.4027154143344
20
-0.924526303836615
30
0
41
1
10
89.3994156280222
20
-0.945358164664583
30
0
41
1
10
89.3926754763673
20
-0.980838480596645
30
0
41
1
10
89.3859975292119
20
-1.01002563893104
30
0
41
1
10
89.378678852947
20
-1.03962140317347
30
0
41
1
10
89.3746746493017
20
-1.05470276323405
30
0
41
1
10
89.3619822991577
20
-1.09956134819805
30
0
41
1
10
89.3525732343472
20
-1.12919406572408
30
0
41
1
10
89.3371794579682
20
-1.17327614609147
30
0
41
1
10
89.3318052941396
20
-1.18797821117067
30
0
41
1
10
89.3208344100109
20
-1.21674285911101
30
0
41
1
10
89.3096193804702
20
-1.24494400824383
30
0
41
1
10
89.2979579095902
20
-1.27208274771843
30
0
41
1
10
89.286086297072
20
-1.29870686680525
30
0
41
1
10
89.2800216169659
20
-1.31181058416604
30
0
41
1
10
89.2616965171926
20
-1.34999310166282
30
0
41
1
10
89.2494070633825
20
-1.37376223731039
30
0
41
1
10
89.2308951344088
20
-1.40710420914741
30
0
41
1
10
89.2247112201921
20
-1.41783004890061
30
0
41
1
10
89.2123187768438
20
-1.43851103001174
30
0
41
1
10
89.2061077360455
20
-1.44846702155624
30
0
41
1
10
89.1876593497895
20
-1.47683661491655
30
0
41
1
10
89.1754678795172
20
-1.49395830513211
30
0
41
1
10
89.1519640082123
20
-1.52385174004792
30
0
41
1
10
89.1405878898551
20
-1.53673483991236
30
0
41
1
10
89.1240484754684
20
-1.55304824841227
30
0
41
1
10
89.1186231686259
20
-1.55798144658493
30
0
41
1
10
89.1079458984306
20
-1.56682022789843
30
0
41
1
10
89.1026720595912
20
-1.57073894098019
30
0
41
1
10
89.0873030687214
20
-1.58077379149574
30
0
41
1
10
89.0776603100968
20
-1.58519944877287
30
0
41
1
10
89.059507191508
20
-1.58957880474506
30
0
41
1
10
89.0509967080522
20
-1.5895342039959
30
0
41
1
10
89.0390925856867
20
-1.58586779705843
30
0
41
1
10
89.0352974099153
20
-1.58404651609817
30
0
41
1
10
89.0281216630248
20
-1.57924770562062
30
0
41
1
10
89.0247283368817
20
-1.57626660207396
30
0
41
1
10
89.0151235097749
20
-1.56556810404868
30
0
41
1
10
89.0094821055066
20
-1.55611063924133
30
0
41
1
10
89.002212727773
20
-1.53815137643599
30
0
41
1
10
88.999980956996
20
-1.53149221119295
30
0
41
1
10
88.9960162715205
20
-1.51711011741008
30
0
41
1
10
88.9942739242117
20
-1.50937577115656
30
0
41
1
10
88.989761350021
20
-1.48454063385057
30
0
41
1
10
88.9876980499346
20
-1.46582311468868
30
0
41
1
10
88.9861229496834
20
-1.43424625844173
30
0
41
1
10
88.9858542140906
20
-1.42305712105267
30
0
41
1
10
88.9858653801952
20
-1.39987052787848
30
0
41
1
10
88.9861408066954
20
-1.38787779887338
30
0
41
1
10
88.9877762268081
20
-1.35070936553072
30
0
41
1
10
88.9899360723863
20
-1.32435516814263
30
0
41
1
10
88.9941001622385
20
-1.28930609036209
30
0
41
1
10
88.9950103293928
20
-1.28216635385107
30
0
41
1
10
88.996963303259
20
-1.2678214075319
30
0
41
1
10
89.0000922151143
20
-1.24619143587162
30
0
41
1
10
89.0062938309112
20
-1.20959101347347
30
0
41
1
10
89.0123146834779
20
-1.17973450373248
30
0
41
1
10
89.0188845390256
20
-1.14958757077426
30
0
41
1
10
89.0224683863246
20
-1.1342767686003
30
0
41
1
10
89.0338539083723
20
-1.08883245890692
30
0
41
1
10
89.0422962677275
20
-1.05906598870351
30
0
41
1
10
89.0562359965815
20
-1.01518850270142
30
0
41
1
10
89.061122345761
20
-1.00062090066211
30
0
41
1
10
89.0712066225009
20
-0.972118334253992
30
0
41
1
10
89.0763856854569
20
-0.95822761088462
30
0
41
1
10
89.0923226225713
20
-0.917581306611197
30
0
41
1
10
89.1034827441507
20
-0.891833942152459
30
0
41
1
10
89.1268507361026
20
-0.843014561148777
30
0
41
1
10
89.1387450300539
20
-0.820593487904404
30
0
41
1
10
89.1568852179169
20
-0.789650741475725
30
0
41
1
10
89.1629818813601
20
-0.779787852299847
30
0
41
1
10
89.1752737688137
20
-0.760949258068933
30
0
41
1
10
89.1814876947018
20
-0.751951072163678
30
0
41
1
10
89.1999961751128
20
-0.726658121412669
30
0
41
1
10
89.2122344158186
20
-0.711924556100229
30
0
41
1
10
89.2304349171906
20
-0.692808504531143
30
0
41
1
10
89.2364753398596
20
-0.68693685043246
30
0
41
1
10
89.2484992321822
20
-0.676192877681217
30
0
41
1
10
89.2544962449138
20
-0.671313792289595
30
0
41
1
10
89.2721341002499
20
-0.658376085865712
30
0
41
1
10
89.2835047335004
20
-0.651924354065613
30
0
41
1
10
89.2999599219863
20
-0.645407725186942
30
0
41
1
10
89.3053442839211
20
-0.643765214401554
30
0
41
1
10
89.3159012216236
20
-0.641557674763703
30
0
41
1
10
89.3210850986246
20
-0.640992671013635
30
0
41
1
10
89.3261304657673
20
-0.640987671079444
30
0
0
SPLINE
5
EA
100
AcDbEntity
8
1
62
256
6
ByLayer
370
18
48
1
60
0
100
AcDbSpline
70
4
71
3
72
18
73
14
40
0
40
0
40
0
40
0
40
0.125000000000012
40
0.125000000000012
40
0.250000000000023
40
0.250000000000023
40
0.500000000000021
40
0.500000000000021
40
0.750000000000018
40
0.750000000000018
40
0.875000000000009
40
0.875000000000009
40
1
40
1
40
1
40
1
41
1
10
89.3261304657679
20
-0.640987671077795
30
0
41
1
10
89.3216109584079
20
-0.633023300593749
30
0
41
1
10
89.3172927399575
20
-0.624444322690522
30
0
41
1
10
89.3090430650421
20
-0.606072186464303
30
0
41
1
10
89.3051182983002
20
-0.596287369956684
30
0
41
1
10
89.2940201949274
20
-0.565492376714218
30
0
41
1
10
89.2874737401778
20
-0.542948180467192
30
0
41
1
10
89.2758947753767
20
-0.494132542982697
30
0
41
1
10
89.2708630610769
20
-0.467859744134643
30
0
41
1
10
89.2643708819992
20
-0.425769125012408
30
0
41
1
10
89.2623809255605
20
-0.411269802144062
30
0
41
1
10
89.258761392922
20
-0.381511085058037
30
0
41
1
10
89.2571310363421
20
-0.366252401448605
30
0
41
1
10
89.2556740780532
20
-0.350623978966979
30
0
0
SPLINE
5
EB
100
AcDbEntity
8
1
62
256
6
ByLayer
370
18
48
1
60
0
100
AcDbSpline
70
4
71
3
72
8
73
4
40
0
40
0
40
0
40
0
40
1
40
1
40
1
40
1
41
1
10
89.2556740780531
20
-0.350623978967064
30
0
41
1
10
89.2255304242586
20
-0.0272806408605675
30
0
41
1
10
89.181957200106
20
0.302129519808659
30
0
41
1
10
89.1252354772845
20
0.637479528608708
30
0
0
SPLINE
5
EC
100
AcDbEntity
8
1
62
256
6
ByLayer
370
18
48
1
60
0
100
AcDbSpline
70
4
71
3
72
24
73
20
40
0
40
0
40
0
40
0
40
0.124999999999981
40
0.124999999999981
40
0.187499999999983
40
0.187499999999983
40
0.249999999999985
40
0.249999999999985
40
0.312499999999988
40
0.312499999999988
40
0.37499999999999
40
0.37499999999999
40
0.499999999999994
40
0.499999999999994
40
0.750000000000003
40
0.750000000000003
40
0.875000000000001
40
0.875000000000001
40
1
40
1
40
1
40
1
41
1
10
89.1252354772846
20
0.637479528608708
30
0
41
1
10
89.1003393597905
20
0.632438570375541
30
0
41
1
10
89.0751980351788
20
0.625196164844596
30
0
41
1
10
89.0372747360805
20
0.611695122285511
30
0
41
1
10
89.0245976922332
20
0.606751516285385
30
0
41
1
10
88.9991898977664
20
0.596043782370373
30
0
41
1
10
88.9864635722276
20
0.590315524102152
30
0
41
1
10
88.9610092381547
20
0.578418779377188
30
0
41
1
10
88.9482714476181
20
0.572168641164382
30
0
41
1
10
88.9227511728043
20
0.558779742971097
30
0
41
1
10
88.9099716739013
20
0.551666311500526
30
0
41
1
10
88.8715859388053
20
0.529031816874863
30
0
41
1
10
88.8458820632548
20
0.51215560829641
30
0
41
1
10
88.7693453270208
20
0.45713558492514
30
0
41
1
10
88.7189429317507
20
0.414492867563268
30
0
41
1
10
88.6445660489635
20
0.343491249927297
30
0
41
1
10
88.6199794530629
20
0.31849190192267
30
0
41
1
10
88.5712720671178
20
0.265683333506757
30
0
41
1
10
88.5471511149967
20
0.237889170058708
30
0
41
1
10
88.523286602615
20
0.208740391980285
30
0
0
SPLINE
5
ED
100
AcDbEntity
8
1
62
256
6
ByLayer
370
18
48
1
60
0
100
AcDbSpline
70
4
71
3
72
14
73
10
40
0
40
0
40
0
40
0
40
0.249999999999999
40
0.249999999999999
40
0.374999999999999
40
0.374999999999999
40
0.499999999999999
40
0.499999999999999
40
1
40
1
40
1
40
1
41
1
10
88.6842056540417
20
-3.6564342263845
30
0
41
1
10
88.6702602455606
20
-3.67740100482021
30
0
41
1
10
88.6567983686343
20
-3.69694181620298
30
0
41
1
10
88.6373407382811
20
-3.72397418455148
30
0
41
1
10
88.6309773780031
20
-3.73260494730386
30
0
41
1
10
88.6184971652564
20
-3.74908015203738
30
0
41
1
10
88.6123723460846
20
-3.75693329155416
30
0
41
1
10
88.582661090031
20
-3.79380991737614
30
0
41
1
10
88.5615745318891
20
-3.8160024051119
30
0
41
1
10
88.54282687183
20
-3.83111077757698
30
0
0
SPLINE
5
EE
100
AcDbEntity
8
1
62
256
6
ByLayer
370
18
48
1
60
0
100
AcDbSpline
70
4
71
3
72
12
73
8
40
0
40
0
40
0
40
0
40
0.250000000000002
40
0.250000000000002
40
0.500000000000004
40
0.500000000000004
40
1
40
1
40
1
40
1
41
1
10
88.6842056540417
20
-3.65643422638459
30
0
41
1
10
88.7265493999783
20
-3.53306569358014
30
0
41
1
10
88.7693490091493
20
-3.40913320073253
30
0
41
1
10
88.8557392651698
20
-3.16118200259507
30
0
41
1
10
88.8993530566956
20
-3.03708535279435
30
0
41
1
10
89.0316476757828
20
-2.66462532460227
30
0
41
1
10
89.1216429565467
20
-2.41686115009719
30
0
41
1
10
89.2135359463861
20
-2.16977248673271
30
0
0
SPLINE
5
EF
100
AcDbEntity
8
1
62
256
6
ByLayer
370
18
48
1
60
0
100
AcDbSpline
70
4
71
3
72
10
73
6
40
0
40
0
40
0
40
0
40
0.5
40
0.5
40
1
40
1
40
1
40
1
41
1
10
89.2135359463861
20
-2.16977248673271
30
0
41
1
10
89.2252097905195
20
-2.13838207102705
30
0
41
1
10
89.2370096530987
20
-2.10706788328713
30
0
41
1
10
89.2609408474099
20
-2.04463637348309
30
0
41
1
10
89.2730571809225
20
-2.01353157642197
30
0
41
1
10
89.2853270355655
20
-1.98256473342917
30
0
0
SPLINE
5
F0
100
AcDbEntity
8
1
62
256
6
ByLayer
370
18
48
1
60
0
100
AcDbSpline
70
4
71
3
72
10
73
6
40
0
40
0
40
0
40
0
40
0.5
40
0.5
40
1
40
1
40
1
40
1
41
1
10
89.2853270355655
20
-1.98256473342917
30
0
41
1
10
89.3295905406349
20
-1.87085183611521
30
0
41
1
10
89.3752563057297
20
-1.76250956579293
30
0
41
1
10
89.470058367914
20
-1.55264078765771
30
0
41
1
10
89.5191570656899
20
-1.45102406275765
30
0
41
1
10
89.5702863231711
20
-1.35291021591797
30
0
0
SPLINE
5
F1
100
AcDbEntity
8
1
62
256
6
ByLayer
370
18
48
1
60
0
100
AcDbSpline
70
4
71
3
72
8
73
4
40
0
40
0
40
0
40
0
40
1
40
1
40
1
40
1
41
1
10
89.5702863231708
20
-1.35291021591803
30
0
41
1
10
89.6801043962256
20
-1.04474382143903
30
0
41
1
10
89.7889621186186
20
-0.736241296541181
30
0
41
1
10
89.8968392245372
20
-0.427395548027874
30
0
0
SPLINE
5
F2
100
AcDbEntity
8
1
62
256
6
ByLayer
370
18
48
1
60
0
100
AcDbSpline
70
4
71
3
72
8
73
4
40
0
40
0
40
0
40
0
40
1
40
1
40
1
40
1
41
1
10
89.8968392245372
20
-0.427395548027874
30
0
41
1
10
89.9300786664644
20
-0.332232999545141
30
0
41
1
10
89.9640904473905
20
-0.237504448748638
30
0
41
1
10
89.998874737113
20
-0.143192549043505
30
0
0
SPLINE
5
F3
100
AcDbEntity
8
1
62
256
6
ByLayer
370
18
48
1
60
0
100
AcDbSpline
70
4
71
3
72
8
73
4
40
0
40
0
40
0
40
0
40
1
40
1
40
1
40
1
41
1
10
89.9988747371131
20
0.143192549043363
30
0
41
1
10
90.0003729585674
20
0.0478663137857609
30
0
41
1
10
90.0003772227462
20
-0.0475950000239607
30
0
41
1
10
89.9988747371131
20
-0.14319254904342
30
0
0
SPLINE
5
F4
100
AcDbEntity
8
1
62
256
6
ByLayer
370
18
48
1
60
0
100
AcDbSpline
70
4
71
3
72
22
73
18
40
0
40
0
40
0
40
0
40
0.499999999999966
40
0.499999999999966
40
0.749999999999949
40
0.749999999999949
40
0.874999999999939
40
0.874999999999939
40
0.937499999999931
40
0.937499999999931
40
0.968749999999925
40
0.968749999999925
40
0.984374999999923
40
0.984374999999923
40
0.992187499999961
40
0.992187499999961
40
1
40
1
40
1
40
1
41
1
10
88.4798983012809
20
-3.99983507015909
30
0
41
1
10
88.4972753233638
20
-3.97175975782318
30
0
41
1
10
88.5146629880536
20
-3.94354437608158
30
0
41
1
10
88.5407492042882
20
-3.90103614813299
30
0
41
1
10
88.5494440965535
20
-3.88683855441812
30
0
41
1
10
88.5624900026035
20
-3.86549075630165
30
0
41
1
10
88.566842098322
20
-3.85836030725449
30
0
41
1
10
88.5733718458586
20
-3.84765043138236
30
0
41
1
10
88.5755448399322
20
-3.84408608202764
30
0
41
1
10
88.578800611957
20
-3.83874442327789
30
0
41
1
10
88.5798894499367
20
-3.8369560172587
30
0
41
1
10
88.581532585876
20
-3.83425234844609
30
0
41
1
10
88.582080405375
20
-3.83335098800066
30
0
41
1
10
88.5828757998711
20
-3.83205228214862
30
0
41
1
10
88.5831391419099
20
-3.8316230039427
30
0
41
1
10
88.5836982876671
20
-3.83069775435209
30
0
41
1
10
88.5840025831518
20
-3.83018343169806
30
0
41
1
10
88.5842627184821
20
-3.82976021628474
30
0
0
SPLINE
5
F5
100
AcDbEntity
8
1
62
256
6
ByLayer
370
18
48
1
60
0
100
AcDbSpline
70
4
71
3
72
100
73
96
40
0
40
0
40
0
40
0
40
0.0187166642520639
40
0.0187166642520639
40
0.0437724136810101
40
0.0437724136810101
40
0.0688281631099562
40
0.0688281631099562
40
0.0938839125389022
40
0.0938839125389022
40
0.118939661967848
40
0.118939661967848
40
0.169051160825741
40
0.169051160825741
40
0.194106910254687
40
0.194106910254687
40
0.219162659683633
40
0.219162659683633
40
0.231690534398106
40
0.231690534398106
40
0.244218409112579
40
0.244218409112579
40
0.269274158541527
40
0.269274158541527
40
0.294329907970474
40
0.294329907970474
40
0.319385657399422
40
0.319385657399422
40
0.331913532113895
40
0.331913532113895
40
0.344441406828368
40
0.344441406828368
40
0.369497156257314
40
0.369497156257314
40
0.382025030971787
40
0.382025030971787
40
0.39455290568626
40
0.39455290568626
40
0.407080780400733
40
0.407080780400733
40
0.419608655115206
40
0.419608655115206
40
0.444664404544153
40
0.444664404544153
40
0.469720153973099
40
0.469720153973099
40
0.494775903402045
40
0.494775903402045
40
0.507303778116518
40
0.507303778116518
40
0.519831652830991
40
0.519831652830991
40
0.544887402259936
40
0.544887402259936
40
0.569943151688881
40
0.569943151688881
40
0.594998901117826
40
0.594998901117826
40
0.607526775832299
40
0.607526775832299
40
0.620054650546772
40
0.620054650546772
40
0.645110399975719
40
0.645110399975719
40
0.670166149404667
40
0.670166149404667
40
0.695221898833615
40
0.695221898833615
40
0.707749773548088
40
0.707749773548088
40
0.720277648262561
40
0.720277648262561
40
0.745333397691507
40
0.745333397691507
40
0.770389147120453
40
0.770389147120453
40
0.795444896549399
40
0.795444896549399
40
0.807972771263872
40
0.807972771263872
40
0.820500645978345
40
0.820500645978345
40
0.870612144836238
40
0.870612144836238
40
0.895667894265184
40
0.895667894265184
40
0.92072364369413
40
0.92072364369413
40
0.945779393123076
40
0.945779393123076
40
0.970835142552023
40
0.970835142552023
40
0.995890891980969
40
0.995890891980969
40
1
40
1
40
1
40
1
41
1
10
61.6114139193048
20
2.85532486383082
30
0
41
1
10
61.7619332391072
20
2.91085117724839
30
0
41
1
10
61.9124440379244
20
2.96436462372728
30
0
41
1
10
62.2644538130561
20
3.08460578550964
30
0
41
1
10
62.4659548874369
20
3.14965365437735
30
0
41
1
10
62.8689401555602
20
3.27161789646993
30
0
41
1
10
63.0703681145521
20
3.32850955869279
30
0
41
1
10
63.4730884424041
20
3.43372344897412
30
0
41
1
10
63.6745118216189
20
3.48204630814718
30
0
41
1
10
64.0775128862244
20
3.56936751536296
30
0
41
1
10
64.2790986572399
20
3.60844658657746
30
0
41
1
10
64.8834198580577
20
3.71183140248712
30
0
41
1
10
65.2854159187123
20
3.76227572280831
30
0
41
1
10
65.8894574387562
20
3.80914792149173
30
0
41
1
10
66.0910156716861
20
3.81992469401763
30
0
41
1
10
66.4940472341843
20
3.83171145336038
30
0
41
1
10
66.6955550095699
20
3.83262353259479
30
0
41
1
10
66.9978196403828
20
3.82682632782402
30
0
41
1
10
67.0985769714737
20
3.82369653731925
30
0
41
1
10
67.300094875346
20
3.81504008811493
30
0
41
1
10
67.400873674685
20
3.80950918950319
30
0
41
1
10
67.7029020309946
20
3.78933699365896
30
0
41
1
10
67.9039508307418
20
3.77112791346318
30
0
41
1
10
68.3057387327213
20
3.725234888985
30
0
41
1
10
68.5064679197829
20
3.69756471638419
30
0
41
1
10
68.9081113222587
20
3.63286502340784
30
0
41
1
10
69.1090050890477
20
3.59585158180281
30
0
41
1
10
69.4106657182032
20
3.53357128925342
30
0
41
1
10
69.5112738532088
20
3.51168370505422
30
0
41
1
10
69.7126415874849
20
3.46567658946759
30
0
41
1
10
69.8134147015545
20
3.44153543606936
30
0
41
1
10
70.1154937846885
20
3.36587441085217
30
0
41
1
10
70.316755411776
20
3.31115443193045
30
0
41
1
10
70.6187459527456
20
3.22287807336036
30
0
41
1
10
70.7194237847287
20
3.19241417001402
30
0
41
1
10
70.9208546177837
20
3.12943148725418
30
0
41
1
10
71.0216224865768
20
3.09690572530155
30
0
41
1
10
71.2231329327224
20
3.02989881754888
30
0
41
1
10
71.3239078799152
20
2.99541663809401
30
0
41
1
10
71.5253984019627
20
2.92452219586693
30
0
41
1
10
71.6260957882575
20
2.88812976668905
30
0
41
1
10
71.9281471495545
20
2.77631944232346
30
0
41
1
10
72.1294567600155
20
2.69825035092512
30
0
41
1
10
72.5322721662315
20
2.5354573344737
30
0
41
1
10
72.7338212510185
20
2.45070890289466
30
0
41
1
10
73.1368491827411
20
2.27521909898675
30
0
41
1
10
73.3383243139248
20
2.18438883213082
30
0
41
1
10
73.640566840721
20
2.04425901747032
30
0
41
1
10
73.7413429151806
20
1.99688256576354
30
0
41
1
10
73.9427760426146
20
1.90095136921212
30
0
41
1
10
74.0434103832366
20
1.85240638585961
30
0
41
1
10
74.3451334844818
20
1.70513610844327
30
0
41
1
10
74.5460569179315
20
1.60480030823416
30
0
41
1
10
74.947707627446
20
1.40026713704413
30
0
41
1
10
75.148464649723
20
1.29612693174244
30
0
41
1
10
75.5502429925812
20
1.08481805968205
30
0
41
1
10
75.7512461866034
20
0.977617757033187
30
0
41
1
10
76.0531722885296
20
0.814902909966889
30
0
41
1
10
76.1539460109908
20
0.760319024323792
30
0
41
1
10
76.3553083318555
20
0.650775244508424
30
0
41
1
10
76.4558960738904
20
0.595798079931626
30
0
41
1
10
76.7574920989141
20
0.43045797612632
30
0
41
1
10
76.9583374007738
20
0.319693895933369
30
0
41
1
10
77.3599700500891
20
0.0977732598420005
30
0
41
1
10
77.5607519847942
20
-0.013393419724224
30
0
41
1
10
77.9625838593916
20
-0.23552246117444
30
0
41
1
10
78.1635990476041
20
-0.346548459550917
30
0
41
1
10
78.4655985158625
20
-0.512431242458774
30
0
41
1
10
78.5663897608963
20
-0.567639648800423
30
0
41
1
10
78.7677384884186
20
-0.67752960605506
30
0
41
1
10
78.8683368235951
20
-0.732237140591423
30
0
41
1
10
79.1699601803907
20
-0.895547326999889
30
0
41
1
10
79.3708192790459
20
-1.00333381545246
30
0
41
1
10
79.7724146422027
20
-1.2160957230796
30
0
41
1
10
79.9731426333591
20
-1.32107481381718
30
0
41
1
10
80.3749249902743
20
-1.5274961531521
30
0
41
1
10
80.5759679685433
20
-1.62894351284586
30
0
41
1
10
80.8779942864557
20
-1.7780704539436
30
0
41
1
10
80.9788072634243
20
-1.82729909380296
30
0
41
1
10
81.1799617365376
20
-1.92434519113215
30
0
41
1
10
81.2803682155322
20
-1.97219786269002
30
0
41
1
10
81.7816551472814
20
-2.20799072382388
30
0
41
1
10
82.1804803872317
20
-2.38548976238215
30
0
41
1
10
82.7773910132681
20
-2.63221694643113
30
0
41
1
10
82.9761240808649
20
-2.71122570310686
30
0
41
1
10
83.3734946894553
20
-2.86222530865132
30
0
41
1
10
83.5721631906681
20
-2.93416950328432
30
0
41
1
10
83.9697663098893
20
-3.07070461034135
30
0
41
1
10
84.1686920203353
20
-3.13531464437895
30
0
41
1
10
84.5671133992073
20
-3.25686661813674
30
0
41
1
10
84.7665776734999
20
-3.31380339730484
30
0
41
1
10
85.1664746118442
20
-3.41951608848908
30
0
41
1
10
85.3669036316671
20
-3.4682975593179
30
0
41
1
10
85.6009564985947
20
-3.52005850955589
30
0
41
1
10
85.6339596942609
20
-3.52723692999143
30
0
41
1
10
85.6669774658121
20
-3.53429734263511
30
0
0
SPLINE
5
F6
100
AcDbEntity
8
1
62
256
6
ByLayer
370
18
48
1
60
0
100
AcDbSpline
70
4
71
3
72
10
73
6
40
0
40
0
40
0
40
0
40
0.5
40
0.5
40
1
40
1
40
1
40
1
41
1
10
88.53904589458
20
-3.83778905931658
30
0
41
1
10
88.5397001182712
20
-3.83673653902326
30
0
41
1
10
88.5403665266959
20
-3.83562253895431
30
0
41
1
10
88.5416743207806
20
-3.83332439344463
30
0
41
1
10
88.5423065536846
20
-3.83215252733848
30
0
41
1
10
88.5428268718346
20
-3.83111077757164
30
0
0
SPLINE
5
F7
100
AcDbEntity
8
1
62
256
6
ByLayer
370
18
48
1
60
0
100
AcDbSpline
70
4
71
3
72
10
73
6
40
0
40
0
40
0
40
0
40
0.5
40
0.5
40
1
40
1
40
1
40
1
41
1
10
88.542980047972
20
-3.82689490545241
30
0
41
1
10
88.543172646976
20
-3.82705917097334
30
0
41
1
10
88.5432794159961
20
-3.82745966514614
30
0
41
1
10
88.5432535513166
20
-3.8288524766142
30
0
41
1
10
88.5431143700065
20
-3.82985174207701
30
0
41
1
10
88.5428268718338
20
-3.83111077757175
30
0
0
SPLINE
5
F8
100
AcDbEntity
8
1
62
256
6
ByLayer
370
18
48
1
60
0
100
AcDbSpline
70
4
71
3
72
8
73
4
40
0
40
0
40
0
40
0
40
1
40
1
40
1
40
1
41
1
10
88.4543425183034
20
-3.97358450145944
30
0
41
1
10
88.482538345165
20
-3.92854314796225
30
0
41
1
10
88.51077122745
20
-3.88327756935621
30
0
41
1
10
88.53904589458
20
-3.83778905931658
30
0
0
SPLINE
5
F9
100
AcDbEntity
8
1
62
256
6
ByLayer
370
18
48
1
60
0
100
AcDbSpline
70
4
71
3
72
37
73
33
40
0
40
0
40
0
40
0
40
0.11789671780985
40
0.11789671780985
40
0.176845076714775
40
0.176845076714775
40
0.2357934356197
40
0.2357934356197
40
0.265267615072163
40
0.265267615072163
40
0.294741794524625
40
0.294741794524625
40
0.35369015342955
40
0.35369015342955
40
0.471586871239401
40
0.471586871239401
40
0.530535230144327
40
0.530535230144327
40
0.589483589049253
40
0.589483589049253
40
0.707380306859107
40
0.722117396585338
40
0.722117396585338
40
0.73685448631157
40
0.73685448631157
40
0.766328665764034
40
0.766328665764034
40
0.825277024668957
40
0.825277024668957
40
0.943173742478804
40
0.943173742478804
40
1
40
1
40
1
40
1
41
1
10
88.5390458945994
20
-3.83778905931771
30
0
41
1
10
88.1370723646242
20
-3.81436872768867
30
0
41
1
10
87.7362067082668
20
-3.77141348356093
30
0
41
1
10
87.134596834604
20
-3.67888052440307
30
0
41
1
10
86.9340016253952
20
-3.64334265749625
30
0
41
1
10
86.5324699631227
20
-3.56320710570387
30
0
41
1
10
86.3315479828786
20
-3.51862744023671
30
0
41
1
10
86.0295320660257
20
-3.4449942251367
30
0
41
1
10
85.9289264905708
20
-3.41936030221626
30
0
41
1
10
85.7281321888867
20
-3.36605857317696
30
0
41
1
10
85.6278934832359
20
-3.33837968976607
30
0
41
1
10
85.3276015122881
20
-3.25236855916836
30
0
41
1
10
85.1279807272938
20
-3.19107164608647
30
0
41
1
10
84.5302131374106
20
-2.99594487767752
30
0
41
1
10
84.1331298512088
20
-2.85085109487591
30
0
41
1
10
83.537662686703
20
-2.61346443851534
30
0
41
1
10
83.3391986816422
20
-2.53103957406157
30
0
41
1
10
82.9420038526666
20
-2.36009456577733
30
0
41
1
10
82.7432770511674
20
-2.2715798160865
30
0
41
1
10
82.1461461886296
20
-1.99755910718315
30
0
41
1
10
81.6968583417155
20
-1.77928990947234
30
0
41
1
10
81.2441746902842
20
-1.54920715049894
30
0
41
1
10
81.1434881916179
20
-1.49779427651828
30
0
41
1
10
81.0930896498932
20
-1.47194065382095
30
0
41
1
10
80.9421107351873
20
-1.39415420287753
30
0
41
1
10
80.8416301020374
20
-1.34193642522726
30
0
41
1
10
80.540633411948
20
-1.18433285589774
30
0
41
1
10
80.3405586344769
20
-1.07800411031968
30
0
41
1
10
79.7416369164352
20
-0.75609592646552
30
0
41
1
10
79.344081331789
20
-0.537614875866012
30
0
41
1
10
78.7553276946178
20
-0.212009235303299
30
0
41
1
10
78.5639302474511
20
-0.105788432118573
30
0
41
1
10
78.372445008929
20
0.0004330814005016
30
0
0
SPLINE
5
FA
100
AcDbEntity
8
1
62
256
6
ByLayer
370
18
48
1
60
0
100
AcDbSpline
70
4
71
3
72
51
73
47
40
0
40
0
40
0
40
0
40
0.0079764103942788
40
0.0079764103942788
40
0.0352928429848372
40
0.0352928429848372
40
0.0626092755753952
40
0.0626092755753952
40
0.171875005937637
40
0.171875005937637
40
0.199191438528199
40
0.199191438528199
40
0.226507871118761
40
0.226507871118761
40
0.281140736299888
40
0.281140736299888
40
0.335773601481014
40
0.335773601481014
40
0.390406466662141
40
0.390406466662141
40
0.417722899252704
40
0.417722899252704
40
0.445039331843265
40
0.499672197024389
40
0.499672197024389
40
0.526988629614951
40
0.526988629614951
40
0.554305062205513
40
0.554305062205513
40
0.60893792738664
40
0.60893792738664
40
0.718203657748894
40
0.718203657748894
40
0.827469388111147
40
0.827469388111147
40
0.841127604406429
40
0.841127604406429
40
0.854785820701711
40
0.854785820701711
40
0.882102253292277
40
0.882102253292277
40
0.936735118473413
40
0.936735118473413
40
0.991367983654548
40
0.991367983654548
40
1
40
1
40
1
40
1
41
1
10
67.6211031337304
20
-3.81963620815907
30
0
41
1
10
67.5916822207573
20
-3.81987095366406
30
0
41
1
10
67.5622576817459
20
-3.82000379084772
30
0
41
1
10
67.4320463589144
20
-3.82014183333973
30
0
41
1
10
67.3311651929755
20
-3.81903108275694
30
0
41
1
10
67.1294369567326
20
-3.81436818799617
30
0
41
1
10
67.0287258366833
20
-3.81081929532198
30
0
41
1
10
66.5257819770232
20
-3.78710226508124
30
0
41
1
10
66.1253658043535
20
-3.74908424262301
30
0
41
1
10
65.6253638953227
20
-3.67826767715047
30
0
41
1
10
65.5253876702979
20
-3.66293025507383
30
0
41
1
10
65.3255127821226
20
-3.63007271232433
30
0
41
1
10
65.2256182026842
20
-3.61256444732174
30
0
41
1
10
64.9259149841215
20
-3.55663595170469
30
0
41
1
10
64.7260781927368
20
-3.514778645897
30
0
41
1
10
64.3259887017624
20
-3.42233064544416
30
0
41
1
10
64.1257372673963
20
-3.37174613400685
30
0
41
1
10
63.7244300594009
20
-3.26201571818683
30
0
41
1
10
63.5233719409211
20
-3.20286316719006
30
0
41
1
10
63.2209725628158
20
-3.10794919250947
30
0
41
1
10
63.1199434868593
20
-3.07524786641974
30
0
41
1
10
62.9183435647026
20
-3.00807122475277
30
0
41
1
10
62.6164392412762
20
-2.90459065071735
30
0
41
1
10
62.3158154862146
20
-2.79321803709666
30
0
41
1
10
62.0157681030266
20
-2.67698426979271
30
0
41
1
10
61.9158480484366
20
-2.63742793823997
30
0
41
1
10
61.716178171409
20
-2.55677925450982
30
0
41
1
10
61.6164292279695
20
-2.51568885441125
30
0
41
1
10
61.3173415191832
20
-2.39018010865942
30
0
41
1
10
61.1181597236533
20
-2.3035181142416
30
0
41
1
10
60.5207550755303
20
-2.03548810094696
30
0
41
1
10
60.1226785996799
20
-1.84608573537218
30
0
41
1
10
59.3242235390941
20
-1.44986919893512
30
0
41
1
10
58.9238772658034
20
-1.24297787084234
30
0
41
1
10
58.4706264642514
20
-1.00291319958248
30
0
41
1
10
58.4202248455294
20
-0.976138972634004
30
0
41
1
10
58.3193348831615
20
-0.922399327835507
30
0
41
1
10
58.2688185799738
20
-0.895418901552006
30
0
41
1
10
58.1174315312921
20
-0.814366584007928
30
0
41
1
10
58.0166751464518
20
-0.760158790748648
30
0
41
1
10
57.7148409095507
20
-0.597147306721496
30
0
41
1
10
57.5141974482851
20
-0.487956363623084
30
0
41
1
10
57.1137093762225
20
-0.269215898693773
30
0
41
1
10
56.913866701536
20
-0.159662567023986
30
0
41
1
10
56.6827930907065
20
-0.0327949399423915
30
0
41
1
10
56.6512721634011
20
-0.0154848904086577
30
0
41
1
10
56.6197576170478
20
0.00182328730466
30
0
0
SPLINE
5
FB
100
AcDbEntity
8
1
62
256
6
ByLayer
370
18
48
1
60
0
100
AcDbSpline
70
4
71
3
72
50
73
46
40
0
40
0
40
0
40
0
40
0.103316841860789
40
0.103316841860789
40
0.156987947313877
40
0.156987947313877
40
0.210659052766964
40
0.210659052766964
40
0.264330158220052
40
0.264330158220052
40
0.291165710946596
40
0.291165710946596
40
0.31800126367314
40
0.31800126367314
40
0.371672369126228
40
0.371672369126228
40
0.425343474579316
40
0.425343474579316
40
0.479014580032403
40
0.479014580032403
40
0.532685685485491
40
0.532685685485491
40
0.586356790938579
40
0.586356790938579
40
0.613192343665123
40
0.613192343665123
40
0.640027896391667
40
0.640027896391667
40
0.693699001844752
40
0.693699001844752
40
0.720534554571296
40
0.720534554571296
40
0.74737010729784
40
0.74737010729784
40
0.801041212750927
40
0.801041212750927
40
0.854712318204015
40
0.854712318204015
40
0.908383423657103
40
0.908383423657103
40
0.935218976383647
40
0.935218976383647
40
0.962054529110191
40
0.962054529110191
40
1
40
1
40
1
40
1
41
1
10
55.0028665111275
20
3.7962863479527
30
0
41
1
10
55.3857126197346
20
3.80577890883123
30
0
41
1
10
55.768153096664
20
3.7965315313605
30
0
41
1
10
56.3496019022924
20
3.75705822569017
30
0
41
1
10
56.5484451804897
20
3.73904264564746
30
0
41
1
10
56.9462553356968
20
3.69444296683392
30
0
41
1
10
57.145237688808
20
3.66785025410408
30
0
41
1
10
57.544590210739
20
3.60459134125426
30
0
41
1
10
57.7449445102853
20
3.56793775179182
30
0
41
1
10
58.0464757212525
20
3.50593745859314
30
0
41
1
10
58.1471904477163
20
3.48409246866572
30
0
41
1
10
58.3487916014425
20
3.43818995924494
30
0
41
1
10
58.4494105401104
20
3.41419477975421
30
0
41
1
10
58.7507667864591
20
3.33926526219804
30
0
41
1
10
58.9509997613989
20
3.28537569940139
30
0
41
1
10
59.3502770177841
20
3.17015146282662
30
0
41
1
10
59.5493520119182
20
3.1087995592321
30
0
41
1
10
59.9474107645159
20
2.97797632004469
30
0
41
1
10
60.146362668123
20
2.90854450845589
30
0
41
1
10
60.5441228281023
20
2.7627796520911
30
0
41
1
10
60.742934628429
20
2.6864334410067
30
0
41
1
10
61.1405339458316
20
2.527402843294
30
0
41
1
10
61.3393111732971
20
2.44471189356207
30
0
41
1
10
61.6373874022671
20
2.31625180853825
30
0
41
1
10
61.7367491720098
20
2.27269287669603
30
0
41
1
10
61.9357632486403
20
2.18403825046386
30
0
41
1
10
62.0354016742726
20
2.13894684875689
30
0
41
1
10
62.3346926851068
20
2.00153128496012
30
0
41
1
10
62.5347252371928
20
1.90706037480513
30
0
41
1
10
62.8356318516252
20
1.76147218623959
30
0
41
1
10
62.9360795283068
20
1.71229683186723
30
0
41
1
10
63.1373341232422
20
1.61273167082729
30
0
41
1
10
63.2381831784341
20
1.56232008617709
30
0
41
1
10
63.540041481652
20
1.41005322268379
30
0
41
1
10
63.7407779798286
20
1.30694674496863
30
0
41
1
10
64.1413862651409
20
1.09791653002705
30
0
41
1
10
64.3412684751358
20
0.992006843925594
30
0
41
1
10
64.7406108355103
20
0.778088290955651
30
0
41
1
10
64.9400528517725
20
0.670053031547923
30
0
41
1
10
65.2388592473472
20
0.506475220448976
30
0
41
1
10
65.3384201489766
20
0.451722317850994
30
0
41
1
10
65.5377473851811
20
0.342190992446746
30
0
41
1
10
65.6374987071319
20
0.287390787834283
30
0
41
1
10
65.8784755114543
20
0.155001800794878
30
0
41
1
10
66.0197772079736
20
0.0773741760156952
30
0
41
1
10
66.1612327557222
20
-0.0003090549120941
30
0
0
SPLINE
5
FC
100
AcDbEntity
8
1
62
256
6
ByLayer
370
18
48
1
60
0
100
AcDbSpline
70
4
71
3
72
8
73
4
40
0
40
0
40
0
40
0
40
1
40
1
40
1
40
1
41
1
10
88.5036545524415
20
-0.328749618717893
30
0
41
1
10
88.5055700099451
20
-0.329344605919374
30
0
41
1
10
88.5065557520862
20
-0.334615966899264
30
0
41
1
10
88.5058845580957
20
-0.340491495109944
30
0
0
SPLINE
5
FD
100
AcDbEntity
8
1
62
256
6
ByLayer
370
18
48
1
60
0
100
AcDbSpline
70
4
71
3
72
56
73
52
40
0
40
0
40
0
40
0
40
0.002027238435286
40
0.002027238435286
40
0.0153641283564328
40
0.0153641283564328
40
0.0420379081987269
40
0.0420379081987269
40
0.0953854678833143
40
0.0953854678833143
40
0.148733027567902
40
0.148733027567902
40
0.20208058725249
40
0.20208058725249
40
0.255428146937078
40
0.255428146937078
40
0.308775706621666
40
0.308775706621666
40
0.362123266306254
40
0.362123266306254
40
0.415470825990842
40
0.415470825990842
40
0.428807715911989
40
0.428807715911989
40
0.442144605833135
40
0.442144605833135
40
0.468818385675426
40
0.468818385675426
40
0.522165945360006
40
0.522165945360006
40
0.575513505044585
40
0.575513505044585
40
0.628861064729164
40
0.628861064729164
40
0.642197954650308
40
0.642197954650308
40
0.655534844571451
40
0.655534844571451
40
0.682208624413735
40
0.682208624413735
40
0.735556184098303
40
0.735556184098303
40
0.788903743782872
40
0.788903743782872
40
0.84225130346744
40
0.84225130346744
40
0.895598863152008
40
0.895598863152008
40
0.948946422836576
40
0.948946422836576
40
1
40
1
40
1
40
1
41
1
10
76.6685058680448
20
3.83081882273615
30
0
41
1
10
76.6761362029045
20
3.83106179174587
30
0
41
1
10
76.6837674443084
20
3.83129796986052
30
0
41
1
10
76.7416105081195
20
3.83303617354971
30
0
41
1
10
76.7918860386107
20
3.83424967300647
30
0
41
1
10
76.9425323935567
20
3.83696546596562
30
0
41
1
10
77.0428010617287
20
3.83753698045007
30
0
41
1
10
77.343202998001
20
3.83543289614238
30
0
41
1
10
77.5429053976759
20
3.82905462302333
30
0
41
1
10
77.9412826791222
20
3.80755614427139
30
0
41
1
10
78.1400073720394
20
3.79228520799518
30
0
41
1
10
78.5372257155277
20
3.7517183532365
30
0
41
1
10
78.7356685655456
20
3.72656242399583
30
0
41
1
10
79.1322373727055
20
3.66762697018794
30
0
41
1
10
79.3304077323272
20
3.63375283534228
30
0
41
1
10
79.7271092904234
20
3.55677293365704
30
0
41
1
10
79.9255852657815
20
3.5137562083658
30
0
41
1
10
80.3226653939791
20
3.41963140776122
30
0
41
1
10
80.5213402965647
20
3.36842662883456
30
0
41
1
10
80.9199541383294
20
3.2569234111096
30
0
41
1
10
81.1198469233019
20
3.19670007295733
30
0
41
1
10
81.3705403658985
20
3.11623100534055
30
0
41
1
10
81.4207203730741
20
3.09987670998612
30
0
41
1
10
81.5211651646664
20
3.06665274501395
30
0
41
1
10
81.5714506594338
20
3.04977592159037
30
0
41
1
10
81.7222149080004
20
2.9984573893704
30
0
41
1
10
81.8226367161046
20
2.96331685991782
30
0
41
1
10
82.1236785445566
20
2.85521978499543
30
0
41
1
10
82.324068504956
20
2.77959194600047
30
0
41
1
10
82.7244885872049
20
2.62176013007354
30
0
41
1
10
82.9245585304219
20
2.53952989309118
30
0
41
1
10
83.325136460747
20
2.36855616704011
30
0
41
1
10
83.5256103231629
20
2.27984614134877
30
0
41
1
10
83.7765630147475
20
2.16534164211447
30
0
41
1
10
83.8267719014645
20
2.14225925097068
30
0
41
1
10
83.9272308970695
20
2.09573913413016
30
0
41
1
10
83.9775003222622
20
2.07229224955708
30
0
41
1
10
84.1281411433323
20
2.00154141573671
30
0
41
1
10
84.2283960893584
20
1.95380430831372
30
0
41
1
10
84.528705195613
20
1.80899917602434
30
0
41
1
10
84.7283024214671
20
1.71033691618538
30
0
41
1
10
85.1266007455136
20
1.50935888328462
30
0
41
1
10
85.3253127534087
20
1.40705240975731
30
0
41
1
10
85.7222906567301
20
1.19945480535347
30
0
41
1
10
85.9205460248991
20
1.09415681700017
30
0
41
1
10
86.3168592526338
20
0.881126511667134
30
0
41
1
10
86.5149283186045
20
0.773406050479537
30
0
41
1
10
86.9113480236685
20
0.556263136599853
30
0
41
1
10
87.1096889361899
20
0.44683027502083
30
0
41
1
10
87.498274608427
20
0.231432603025098
30
0
41
1
10
87.6885055054463
20
0.125527353006106
30
0
41
1
10
87.8790878666277
20
0.0193103204105114
30
0
0
SPLINE
5
FE
100
AcDbEntity
8
1
62
256
6
ByLayer
370
18
48
1
60
0
100
AcDbSpline
70
4
71
3
72
8
73
4
40
0
40
0
40
0
40
0
40
1
40
1
40
1
40
1
41
1
10
88.4543636801485
20
-0.312425736024864
30
0
41
1
10
88.4707804385247
20
-0.31820052237947
30
0
41
1
10
88.4872084541001
20
-0.3236410647512
30
0
41
1
10
88.5036545524415
20
-0.328749618717922
30
0
0
SPLINE
5
FF
100
AcDbEntity
8
1
62
256
6
ByLayer
370
18
48
1
60
0
100
AcDbSpline
70
4
71
3
72
77
73
73
40
0
40
0
40
0
40
0
40
0.004386941941168
40
0.004386941941168
40
0.0199433959733369
40
0.0199433959733369
40
0.0354998500055058
40
0.0354998500055058
40
0.0666127580698438
40
0.0666127580698438
40
0.128838574198518
40
0.128838574198518
40
0.144395028230687
40
0.144395028230687
40
0.159951482262855
40
0.191064390327191
40
0.191064390327191
40
0.206620844359359
40
0.206620844359359
40
0.222177298391528
40
0.222177298391528
40
0.237733752423696
40
0.237733752423696
40
0.253290206455864
40
0.253290206455864
40
0.315516022584544
40
0.315516022584544
40
0.331072476616713
40
0.331072476616713
40
0.346628930648882
40
0.346628930648882
40
0.377741838713221
40
0.377741838713221
40
0.408854746777561
40
0.408854746777561
40
0.4399676548419
40
0.4399676548419
40
0.45552410887407
40
0.45552410887407
40
0.47108056290624
40
0.50219347097058
40
0.50219347097058
40
0.533306379034919
40
0.533306379034919
40
0.548862833067089
40
0.548862833067089
40
0.564419287099259
40
0.626645103227935
40
0.626645103227935
40
0.642201557260104
40
0.642201557260104
40
0.657758011292273
40
0.657758011292273
40
0.688870919356611
40
0.688870919356611
40
0.751096735485288
40
0.751096735485288
40
0.766653189517457
40
0.766653189517457
40
0.782209643549626
40
0.782209643549626
40
0.813322551613965
40
0.813322551613965
40
0.844435459678305
40
0.844435459678305
40
0.859991913710475
40
0.859991913710475
40
0.875548367742645
40
0.875548367742645
40
0.937774183871322
40
0.937774183871322
40
1
40
1
40
1
40
1
41
1
10
69.3563927622365
20
-3.82343724355124
30
0
41
1
10
69.3281946992552
20
-3.82767310332847
30
0
41
1
10
69.2999932557184
20
-3.83181402282486
30
0
41
1
10
69.1717693070014
20
-3.85020596153942
30
0
41
1
10
69.0717023875607
20
-3.86335512212301
30
0
41
1
10
68.8714240537594
20
-3.88723288806733
30
0
41
1
10
68.7711974913666
20
-3.89796149014754
30
0
41
1
10
68.4708477786282
20
-3.92642752778616
30
0
41
1
10
68.2708511212148
20
-3.9404713957104
30
0
41
1
10
67.671023721552
20
-3.9677736560933
30
0
41
1
10
67.2715017028349
20
-3.96620964316952
30
0
41
1
10
66.7705372305977
20
-3.9393573696027
30
0
41
1
10
66.6703657309641
20
-3.93274818888804
30
0
41
1
10
66.470171371384
20
-3.91708294138002
30
0
41
1
10
66.170029873861
20
-3.88991054481031
30
0
41
1
10
65.8701147102408
20
-3.85182015189005
30
0
41
1
10
65.5700779218136
20
-3.80658498441574
30
0
41
1
10
65.470050531083
20
-3.79031417434737
30
0
41
1
10
65.2699799104386
20
-3.75537142035725
30
0
41
1
10
65.1699298714199
20
-3.73670167870341
30
0
41
1
10
64.9697004840549
20
-3.69701174839423
30
0
41
1
10
64.869480094302
20
-3.67598063394044
30
0
41
1
10
64.6690822944479
20
-3.63163512028743
30
0
41
1
10
64.5689533308176
20
-3.60833260968207
30
0
41
1
10
64.0685361083868
20
-3.48628166645864
30
0
41
1
10
63.6688790997291
20
-3.37096552490169
30
0
41
1
10
63.1684397619792
20
-3.20631103833313
30
0
41
1
10
63.0683101189666
20
-3.17235247268601
30
0
41
1
10
62.8679177775561
20
-3.1024245559426
30
0
41
1
10
62.7676158598497
20
-3.06644006690738
30
0
41
1
10
62.4670182783309
20
-2.95575555710101
30
0
41
1
10
62.2668768035293
20
-2.87827427137358
30
0
41
1
10
61.8667327394569
20
-2.71641419689351
30
0
41
1
10
61.6667656646144
20
-2.6319900289073
30
0
41
1
10
61.2665939589614
20
-2.45672551626433
30
0
41
1
10
61.0663770503377
20
-2.36590355443755
30
0
41
1
10
60.7655994665956
20
-2.22522170081817
30
0
41
1
10
60.6653107481377
20
-2.17760761521723
30
0
41
1
10
60.464935969301
20
-2.0811533427387
30
0
41
1
10
60.164544590237
20
-1.9345707172989
30
0
41
1
10
59.8644653219605
20
-1.7826026305566
30
0
41
1
10
59.4642915040345
20
-1.57573642542025
30
0
41
1
10
59.2641698385575
20
-1.47018293361472
30
0
41
1
10
58.9636450986911
20
-1.30913027256403
30
0
41
1
10
58.8633896736015
20
-1.25497974489056
30
0
41
1
10
58.6628151382166
20
-1.1459059764417
30
0
41
1
10
58.1617442495264
20
-0.871574770490838
30
0
41
1
10
57.6618641941593
20
-0.590115284786378
30
0
41
1
10
57.1610866851324
20
-0.306180200311019
30
0
41
1
10
57.060888416642
20
-0.249265754079971
30
0
41
1
10
56.8603765753269
20
-0.135233192936255
30
0
41
1
10
56.7600131460539
20
-0.0780849510691155
30
0
41
1
10
56.4592033171741
20
0.0932866589178616
30
0
41
1
10
56.258970465317
20
0.207446551197904
30
0
41
1
10
55.6584270974906
20
0.548318701892583
30
0
41
1
10
55.2582976982705
20
0.773471652889953
30
0
41
1
10
54.7566744205472
20
1.04924030176252
30
0
41
1
10
54.6562807532909
20
1.10411028482466
30
0
41
1
10
54.4557253553195
20
1.21300039783165
30
0
41
1
10
54.3555126040658
20
1.2670497689376
30
0
41
1
10
54.0550092638798
20
1.42791307778094
30
0
41
1
10
53.8548457786726
20
1.53342812058355
30
0
41
1
10
53.4544071669504
20
1.7402668126719
30
0
41
1
10
53.2541379072082
20
1.84160115774236
30
0
41
1
10
52.9534093546806
20
1.99007418330299
30
0
41
1
10
52.8531121175959
20
2.03897660083408
30
0
41
1
10
52.6523630097457
20
2.13553040405597
30
0
41
1
10
52.5520724891874
20
2.18310402256128
30
0
41
1
10
52.0510804973661
20
2.4172327206806
30
0
41
1
10
51.6516059724967
20
2.59265466514424
30
0
41
1
10
50.8522310992579
20
2.91580791410499
30
0
41
1
10
50.4522970347655
20
3.06350970737591
30
0
41
1
10
50.0507678343313
20
3.19562112081061
30
0
0
SPLINE
5
100
100
AcDbEntity
8
1
62
256
6
ByLayer
370
18
48
1
60
0
100
AcDbSpline
70
4
71
3
72
16
73
12
40
0
40
0
40
0
40
0
40
0.250000000000089
40
0.250000000000089
40
0.375000000000135
40
0.375000000000135
40
0.500000000000182
40
0.500000000000182
40
0.750000000000091
40
0.750000000000091
40
1
40
1
40
1
40
1
41
1
10
50.0507678343313
20
3.19562112081061
30
0
41
1
10
50.0430540751514
20
3.19815910715644
30
0
41
1
10
50.0360844431272
20
3.20122291278037
30
0
41
1
10
50.0267138165749
20
3.20657100905458
30
0
41
1
10
50.0237566407814
20
3.20849541200533
30
0
41
1
10
50.0183704615477
20
3.21250049112291
30
0
41
1
10
50.0159254597598
20
3.21458708887832
30
0
41
1
10
50.0093216668474
20
3.22109137820775
30
0
41
1
10
50.005866779387
20
3.22582017115417
30
0
41
1
10
50.0013031005475
20
3.23544353504747
30
0
41
1
10
50.0001285270197
20
3.24040095456789
30
0
41
1
10
50.0001285270196
20
3.24540472412943
30
0
0
SPLINE
5
101
100
AcDbEntity
8
1
62
256
6
ByLayer
370
18
48
1
60
0
100
AcDbSpline
70
4
71
3
72
112
73
108
40
0
40
0
40
0
40
0
40
0.0137521678273594
40
0.0137521678273594
40
0.0264386591038985
40
0.0264386591038985
40
0.0391251503804376
40
0.0391251503804376
40
0.0644981329335144
40
0.0644981329335144
40
0.0898711154865912
40
0.0898711154865912
40
0.10255760676313
40
0.10255760676313
40
0.115244098039668
40
0.115244098039668
40
0.140617080592746
40
0.140617080592746
40
0.165990063145824
40
0.165990063145824
40
0.191363045698902
40
0.191363045698902
40
0.204049536975441
40
0.204049536975441
40
0.21673602825198
40
0.21673602825198
40
0.24210901080506
40
0.24210901080506
40
0.267481993358139
40
0.267481993358139
40
0.28016848463468
40
0.28016848463468
40
0.29285497591122
40
0.29285497591122
40
0.318227958464299
40
0.318227958464299
40
0.343600941017379
40
0.343600941017379
40
0.356287432293918
40
0.356287432293918
40
0.368973923570457
40
0.368973923570457
40
0.394346906123534
40
0.394346906123534
40
0.419719888676611
40
0.419719888676611
40
0.445092871229687
40
0.445092871229687
40
0.457779362506226
40
0.457779362506226
40
0.470465853782766
40
0.470465853782766
40
0.495838836335842
40
0.495838836335842
40
0.508525327612381
40
0.508525327612381
40
0.52121181888892
40
0.52121181888892
40
0.533898310165459
40
0.533898310165459
40
0.546584801441999
40
0.546584801441999
40
0.571957783995077
40
0.571957783995077
40
0.584644275271616
40
0.584644275271616
40
0.597330766548155
40
0.597330766548155
40
0.610017257824694
40
0.610017257824694
40
0.622703749101233
40
0.622703749101233
40
0.67344971420739
40
0.67344971420739
40
0.686136205483929
40
0.686136205483929
40
0.698822696760467
40
0.698822696760467
40
0.711509188037006
40
0.711509188037006
40
0.724195679313544
40
0.724195679313544
40
0.749568661866621
40
0.749568661866621
40
0.774941644419697
40
0.774941644419697
40
0.787628135696235
40
0.787628135696235
40
0.800314626972773
40
0.800314626972773
40
0.825687609525848
40
0.825687609525848
40
0.876433574631999
40
0.876433574631999
40
0.889120065908536
40
0.889120065908536
40
0.901806557185073
40
0.901806557185073
40
0.927179539738146
40
0.927179539738146
40
0.952552522291219
40
0.952552522291219
40
0.965239013567755
40
0.965239013567755
40
0.977925504844292
40
0.977925504844292
40
1
40
1
40
1
40
1
41
1
10
53.4241369333727
20
3.79543979992849
30
0
41
1
10
53.5325016365121
20
3.81197802658173
30
0
41
1
10
53.6409031516011
20
3.82713016418731
30
0
41
1
10
53.8494441857934
20
3.85355942349742
30
0
41
1
10
53.9495876481706
20
3.86505002750638
30
0
41
1
10
54.1499107587937
20
3.88562473604639
30
0
41
1
10
54.2499738877168
20
3.89469734496774
30
0
41
1
10
54.5498767191074
20
3.91825989003118
30
0
41
1
10
54.7494565923693
20
3.92906987977079
30
0
41
1
10
55.1489081116951
20
3.94078050693625
30
0
41
1
10
55.3487561272678
20
3.94170568456585
30
0
41
1
10
55.6487961350611
20
3.93574223346738
30
0
41
1
10
55.7488547106238
20
3.93252797821114
30
0
41
1
10
55.9490842258077
20
3.92364168242878
30
0
41
1
10
56.0493063671793
20
3.91796560256015
30
0
41
1
10
56.3497089018228
20
3.89727002867019
30
0
41
1
10
56.5496363781232
20
3.87859301556335
30
0
41
1
10
56.9489157564077
20
3.83144759820314
30
0
41
1
10
57.1483020014356
20
3.80296587315036
30
0
41
1
10
57.5477346812127
20
3.73673968339753
30
0
41
1
10
57.747744835234
20
3.69900564082809
30
0
41
1
10
58.0481828065944
20
3.63549418540563
30
0
41
1
10
58.1484109169658
20
3.61316676587799
30
0
41
1
10
58.3486105375545
20
3.56629962023246
30
0
41
1
10
58.4486326327601
20
3.54174954938154
30
0
41
1
10
58.7484918823152
20
3.46476646080475
30
0
41
1
10
58.9481192074474
20
3.40900040205591
30
0
41
1
10
59.3470279641909
20
3.28865676254074
30
0
41
1
10
59.5463636751226
20
3.22410629238394
30
0
41
1
10
59.8461565347853
20
3.12170692386482
30
0
41
1
10
59.9462048586446
20
3.08663561861977
30
0
41
1
10
60.1465103642544
20
3.01459893589697
30
0
41
1
10
60.2466639444994
20
2.97766992485961
30
0
41
1
10
60.5468904533959
20
2.8642294199864
30
0
41
1
10
60.7468253066573
20
2.7850357497839
30
0
41
1
10
61.1464030494914
20
2.6196844290545
30
0
41
1
10
61.3460299682045
20
2.53350746586102
30
0
41
1
10
61.6452848311347
20
2.39897032838621
30
0
41
1
10
61.7450308297361
20
2.35327796897755
30
0
41
1
10
61.9447740434314
20
2.26057006769125
30
0
41
1
10
62.0447958226837
20
2.21351049766429
30
0
41
1
10
62.3448526687479
20
2.07039630169547
30
0
41
1
10
62.5446769768184
20
1.97251283080163
30
0
41
1
10
62.944068670487
20
1.7720927284951
30
0
41
1
10
63.1436535657607
20
1.66957945685149
30
0
41
1
10
63.5431146475143
20
1.46077421463983
30
0
41
1
10
63.7429668971937
20
1.35444845129069
30
0
41
1
10
64.0429776794133
20
1.19213245977417
30
0
41
1
10
64.1430667583167
20
1.13753990923351
30
0
41
1
10
64.3430210293308
20
1.0277436567836
30
0
41
1
10
64.4429217715731
20
0.972522474231198
30
0
41
1
10
64.7424825039123
20
0.806040491479138
30
0
41
1
10
64.9419720509549
20
0.693913183051649
30
0
41
1
10
65.2408901435557
20
0.524019476762362
30
0
41
1
10
65.3405028817016
20
0.467148851463065
30
0
41
1
10
65.5399800996426
20
0.353462075899699
30
0
41
1
10
65.639823864721
20
0.296610432466935
30
0
41
1
10
65.8396702729395
20
0.182803508036869
30
0
41
1
10
65.9396754692666
20
0.125852616590691
30
0
41
1
10
66.1398503498585
20
0.0118570545783427
30
0
41
1
10
66.2399871771057
20
-0.04516898566294
30
0
41
1
10
66.540051673927
20
-0.216026272576897
30
0
41
1
10
66.739819435555
20
-0.329750480827158
30
0
41
1
10
67.0391621155727
20
-0.49987947373134
30
0
41
1
10
67.1388884309522
20
-0.556518194390435
30
0
41
1
10
67.3382237585206
20
-0.669664628148865
30
0
41
1
10
67.4378432597652
20
-0.726153867086026
30
0
41
1
10
67.6371560900426
20
-0.838668466377186
30
0
41
1
10
67.7368519321742
20
-0.894689506299358
30
0
41
1
10
67.9364870704755
20
-1.00597785714334
30
0
41
1
10
68.0364291509216
20
-1.06126864227065
30
0
41
1
10
68.5365602230907
20
-1.3358758266356
30
0
41
1
10
68.9359387059658
20
-1.54858374880931
30
0
41
1
10
69.4345971420995
20
-1.80521038848462
30
0
41
1
10
69.534300049784
20
-1.8560706953561
30
0
41
1
10
69.7336727513888
20
-1.95681217149175
30
0
41
1
10
69.8333538367472
20
-2.00667509961121
30
0
41
1
10
70.0328906487885
20
-2.10509812679274
30
0
41
1
10
70.1327971988127
20
-2.1536842338088
30
0
41
1
10
70.3326017330174
20
-2.24923134182026
30
0
41
1
10
70.4324882879612
20
-2.29620650994045
30
0
41
1
10
70.7320847608233
20
-2.43478661440119
30
0
41
1
10
70.9317321587351
20
-2.52404809582313
30
0
41
1
10
71.3309330835301
20
-2.69625604623343
30
0
41
1
10
71.5304875859941
20
-2.77919976822483
30
0
41
1
10
71.8298733771892
20
-2.89866431837225
30
0
41
1
10
71.9296691093586
20
-2.93767066864589
30
0
41
1
10
72.1292571284463
20
-3.01403529541693
30
0
41
1
10
72.2290918515266
20
-3.05136606536013
30
0
41
1
10
72.5284341294456
20
-3.16012462392081
30
0
41
1
10
72.7279077818904
20
-3.22849337114025
30
0
41
1
10
73.3262285615688
20
-3.42119601722786
30
0
41
1
10
73.7250504851756
20
-3.53307834950022
30
0
41
1
10
74.2246349955812
20
-3.65102995244689
30
0
41
1
10
74.3245122758489
20
-3.67349932492391
30
0
41
1
10
74.5240699902939
20
-3.71611086380065
30
0
41
1
10
74.6237872482136
20
-3.7362538840851
30
0
41
1
10
74.9229200859093
20
-3.79311104732517
30
0
41
1
10
75.1222714858011
20
-3.82628994447398
30
0
41
1
10
75.5208855688067
20
-3.88316971287608
30
0
41
1
10
75.7201944830048
20
-3.90683559915345
30
0
41
1
10
76.0196713509567
20
-3.93498258435582
30
0
41
1
10
76.119631394441
20
-3.94314912243931
30
0
41
1
10
76.3194126704767
20
-3.95701755722519
30
0
41
1
10
76.4191392447601
20
-3.96271478038173
30
0
41
1
10
76.6919615838285
20
-3.97494735016491
30
0
41
1
10
76.8647710963766
20
-3.9789705747261
30
0
41
1
10
77.0373792777457
20
-3.97928209122284
30
0
0
SPLINE
5
102
100
AcDbEntity
8
1
62
256
6
ByLayer
370
18
48
1
60
0
100
AcDbSpline
70
4
71
3
72
125
73
121
40
0
40
0
40
0
40
0
40
0.010197537988819
40
0.010197537988819
40
0.0159136527821322
40
0.0159136527821322
40
0.0216297675754454
40
0.0216297675754454
40
0.033061997162073
40
0.033061997162073
40
0.0559264563353281
40
0.0559264563353281
40
0.0787909155085832
40
0.0787909155085832
40
0.101655374681838
40
0.101655374681838
40
0.124519833855093
40
0.124519833855093
40
0.135952063441722
40
0.135952063441722
40
0.14738429302835
40
0.170248752201605
40
0.170248752201605
40
0.181680981788233
40
0.181680981788233
40
0.193113211374861
40
0.193113211374861
40
0.215977670548116
40
0.215977670548116
40
0.238842129721371
40
0.238842129721371
40
0.261706588894626
40
0.261706588894626
40
0.284571048067882
40
0.284571048067882
40
0.307435507241137
40
0.307435507241137
40
0.318867736827764
40
0.318867736827764
40
0.330299966414392
40
0.330299966414392
40
0.353164425587647
40
0.353164425587647
40
0.358880540380961
40
0.358880540380961
40
0.364596655174276
40
0.364596655174276
40
0.376028884760905
40
0.376028884760905
40
0.398893343934163
40
0.398893343934163
40
0.421757803107422
40
0.421757803107422
40
0.44462226228068
40
0.44462226228068
40
0.467486721453939
40
0.467486721453939
40
0.490351180627197
40
0.490351180627197
40
0.501783410213826
40
0.501783410213826
40
0.513215639800455
40
0.513215639800455
40
0.536080098973712
40
0.536080098973712
40
0.541796213767027
40
0.541796213767027
40
0.547512328560341
40
0.547512328560341
40
0.55894455814697
40
0.55894455814697
40
0.581809017320229
40
0.581809017320229
40
0.604673476493488
40
0.604673476493488
40
0.627537935666746
40
0.627537935666746
40
0.650402394840005
40
0.650402394840005
40
0.673266854013264
40
0.673266854013264
40
0.684699083599893
40
0.684699083599893
40
0.696131313186522
40
0.696131313186522
40
0.707563542773151
40
0.707563542773151
40
0.718995772359781
40
0.718995772359781
40
0.741860231533039
40
0.741860231533039
40
0.764724690706298
40
0.764724690706298
40
0.787589149879557
40
0.787589149879557
40
0.810453609052815
40
0.810453609052815
40
0.833318068226074
40
0.833318068226074
40
0.856182527399332
40
0.856182527399332
40
0.867614756985962
40
0.867614756985962
40
0.879046986572591
40
0.879046986572591
40
0.884763101365906
40
0.884763101365906
40
0.89047921615922
40
0.89047921615922
40
0.90191144574585
40
0.90191144574585
40
0.924775904919113
40
0.924775904919113
40
0.947640364092375
40
0.947640364092375
40
0.970504823265637
40
0.970504823265637
40
0.993369282438899
40
0.993369282438899
40
1
40
1
40
1
40
1
41
1
10
83.2629474254331
20
-2.90174202501007
30
0
41
1
10
83.1711186117198
20
-2.93803951601203
30
0
41
1
10
83.0791570734422
20
-2.97360793634584
30
0
41
1
10
82.9354154751811
20
-3.02793858957176
30
0
41
1
10
82.8837077341138
20
-3.04722947683496
30
0
41
1
10
82.7803668902488
20
-3.08528547251487
30
0
41
1
10
82.72875125428
20
-3.10404690501443
30
0
41
1
10
82.5740449486843
20
-3.15950685471958
30
0
41
1
10
82.4710864404581
20
-3.19537126301205
30
0
41
1
10
82.1626399200937
20
-3.29955545409214
30
0
41
1
10
81.9575893805402
20
-3.36447506349424
30
0
41
1
10
81.5481843272251
20
-3.48495330765226
30
0
41
1
10
81.3438021611304
20
-3.54049560121743
30
0
41
1
10
80.9355901812695
20
-3.64219219418268
30
0
41
1
10
80.7317261358619
20
-3.68830769940553
30
0
41
1
10
80.3238946741821
20
-3.77069017632093
30
0
41
1
10
80.1199417699997
20
-3.80697061343778
30
0
41
1
10
79.8136520955134
20
-3.85385858885115
30
0
41
1
10
79.7114936004776
20
-3.86823221705708
30
0
41
1
10
79.5070492048572
20
-3.89445740777154
30
0
41
1
10
79.2002519533298
20
-3.93003115400526
30
0
41
1
10
78.8925264434415
20
-3.95403652277048
30
0
41
1
10
78.5838370654858
20
-3.97014747803792
30
0
41
1
10
78.4807787213206
20
-3.97420217695117
30
0
41
1
10
78.2742866133176
20
-3.97965341780562
30
0
41
1
10
78.170741524466
20
-3.98104825578579
30
0
41
1
10
77.8608742772638
20
-3.98121491973285
30
0
41
1
10
77.6551132690505
20
-3.97598211141036
30
0
41
1
10
77.2445673037614
20
-3.95503700604087
30
0
41
1
10
77.0397940607171
20
-3.93932815410338
30
0
41
1
10
76.6307862695982
20
-3.8976992058717
30
0
41
1
10
76.4265242901962
20
-3.87179746755032
30
0
41
1
10
76.018426135041
20
-3.80989587364181
30
0
41
1
10
75.8145335682436
20
-3.77390926231306
30
0
41
1
10
75.4064972511349
20
-3.69217523537634
30
0
41
1
10
75.2023636997646
20
-3.64642577440486
30
0
41
1
10
74.8956928521038
20
-3.5706672831497
30
0
41
1
10
74.7933879335188
20
-3.54422834739148
30
0
41
1
10
74.5886234036683
20
-3.48895894153066
30
0
41
1
10
74.486180959726
20
-3.46011236947425
30
0
41
1
10
74.1784757291178
20
-3.37007602884012
30
0
41
1
10
73.9728503962649
20
-3.30537831112028
30
0
41
1
10
73.7149163944379
20
-3.21885829427808
30
0
41
1
10
73.6632844306449
20
-3.20127202992595
30
0
41
1
10
73.5599225895836
20
-3.16554050845559
30
0
41
1
10
73.5081610796679
20
-3.1473838458663
30
0
41
1
10
73.3529853422886
20
-3.09217331152152
30
0
41
1
10
73.2497144831729
20
-3.05439544833453
30
0
41
1
10
72.940395600377
20
-2.93822774383281
30
0
41
1
10
72.7349366199192
20
-2.85688380993355
30
0
41
1
10
72.3248332554734
20
-2.68734280992811
30
0
41
1
10
72.1202080374989
20
-2.59912445303505
30
0
41
1
10
71.7113559461154
20
-2.41647776483092
30
0
41
1
10
71.507103847005
20
-2.32209021179551
30
0
41
1
10
71.0989150990217
20
-2.12724917810161
30
0
41
1
10
70.8949000974319
20
-2.02690358136033
30
0
41
1
10
70.4864894757903
20
-1.82117340611379
30
0
41
1
10
70.2820990472395
20
-1.7157829051404
30
0
41
1
10
69.9749440499818
20
-1.55435870899862
30
0
41
1
10
69.8724602402287
20
-1.50000116302488
30
0
41
1
10
69.6673158701486
20
-1.39014290540831
30
0
41
1
10
69.564666257941
20
-1.33462259929718
30
0
41
1
10
69.2562771223033
20
-1.16662235370586
30
0
41
1
10
69.0501252049784
20
-1.05265658425318
30
0
41
1
10
68.7914409547947
20
-0.908205228187796
30
0
41
1
10
68.7396481768763
20
-0.879211948212173
30
0
41
1
10
68.6362129687505
20
-0.821182859926751
30
0
41
1
10
68.5845387862113
20
-0.792128919604068
30
0
41
1
10
68.429639027981
20
-0.704861884065423
30
0
41
1
10
68.3265332968456
20
-0.646548916512899
30
0
41
1
10
68.0176700609617
20
-0.471252370559625
30
0
41
1
10
67.8124528486012
20
-0.353755166449133
30
0
41
1
10
67.4026799596984
20
-0.118788392530178
30
0
41
1
10
67.1981502073524
20
-0.001271252369861
30
0
41
1
10
66.7893550429423
20
0.233039484116716
30
0
41
1
10
66.5850688478361
20
0.349797278693927
30
0
41
1
10
66.176697015041
20
0.582478829160152
30
0
41
1
10
65.9725132848406
20
0.698227925955251
30
0
41
1
10
65.5636373474911
20
0.927639452942174
30
0
41
1
10
65.358944735711
20
1.04130159454965
30
0
41
1
10
65.0512415427574
20
1.20973363794454
30
0
41
1
10
64.9485584720472
20
1.26552624660184
30
0
41
1
10
64.7429974581641
20
1.37646784582679
30
0
41
1
10
64.6401194164879
20
1.43161639578514
30
0
41
1
10
64.4340328401522
20
1.54103369078322
30
0
41
1
10
64.3308326113438
20
1.59531676007481
30
0
41
1
10
64.1240587062568
20
1.70292742849989
30
0
41
1
10
64.0203789021298
20
1.75630780776808
30
0
41
1
10
63.7101064423041
20
1.91414297403577
30
0
41
1
10
63.5039147649042
20
2.01644129463764
30
0
41
1
10
63.0926046530433
20
2.21495939810222
30
0
41
1
10
62.8875763213923
20
2.31130835127018
30
0
41
1
10
62.4780321713911
20
2.49715704845576
30
0
41
1
10
62.2735472750063
20
2.58670689237653
30
0
41
1
10
61.8647121811477
20
2.75852841944698
30
0
41
1
10
61.6603491123219
20
2.84079090661138
30
0
41
1
10
61.2517065937921
20
2.99797259914206
30
0
41
1
10
61.0473134692054
20
3.07274639814722
30
0
41
1
10
60.6378957592435
20
3.21407441285805
30
0
41
1
10
60.4328651136052
20
3.28062443504501
30
0
41
1
10
60.1245625269091
20
3.37395440768245
30
0
41
1
10
60.0216652875244
20
3.40397919597334
30
0
41
1
10
59.8156555815393
20
3.46188058357683
30
0
41
1
10
59.7125302471248
20
3.48974376437423
30
0
41
1
10
59.557569084006
20
3.52981074277679
30
0
41
1
10
59.5058717978394
20
3.54288028116494
30
0
41
1
10
59.4023826833558
20
3.5684386068051
30
0
41
1
10
59.3505615689326
20
3.58093420466247
30
0
41
1
10
59.1951674456732
20
3.6174848828293
30
0
41
1
10
59.0917536086346
20
3.64058442135763
30
0
41
1
10
58.7819679895757
20
3.70606367161127
30
0
41
1
10
58.5760252143758
20
3.74461241034294
30
0
41
1
10
58.1651249212445
20
3.81158337188199
30
0
41
1
10
57.9602337357777
20
3.84002460472431
30
0
41
1
10
57.5508263558042
20
3.88657428708507
30
0
41
1
10
57.3463431897432
20
3.90470318035636
30
0
41
1
10
56.9373877700699
20
3.9306318543822
30
0
41
1
10
56.7329141595979
20
3.93844121337256
30
0
41
1
10
56.4691139739094
20
3.94183257272675
30
0
41
1
10
56.4097977659362
20
3.94215789513612
30
0
41
1
10
56.3504637376226
20
3.94204569418969
30
0
0
SPLINE
5
103
100
AcDbEntity
8
1
62
256
6
ByLayer
370
18
48
1
60
0
100
AcDbSpline
70
4
71
3
72
127
73
123
40
0
40
0
40
0
40
0
40
0.0187877999145715
40
0.0187877999145715
40
0.0418686288685343
40
0.0418686288685343
40
0.0649494578224974
40
0.0649494578224974
40
0.0880302867764605
40
0.0880302867764605
40
0.0995707012534413
40
0.0995707012534413
40
0.111111115730422
40
0.111111115730422
40
0.134191944684383
40
0.134191944684383
40
0.145732359161364
40
0.145732359161364
40
0.151502566399854
40
0.151502566399854
40
0.157272773638344
40
0.157272773638344
40
0.180353602592305
40
0.180353602592305
40
0.203434431546265
40
0.203434431546265
40
0.226515260500226
40
0.226515260500226
40
0.249596089454187
40
0.249596089454187
40
0.272676918408147
40
0.272676918408147
40
0.284217332885127
40
0.284217332885127
40
0.295757747362107
40
0.295757747362107
40
0.318838576316068
40
0.318838576316068
40
0.330378990793047
40
0.330378990793047
40
0.336149198031537
40
0.336149198031537
40
0.341919405270027
40
0.341919405270027
40
0.353459819747007
40
0.353459819747007
40
0.365000234223986
40
0.365000234223986
40
0.388081063177946
40
0.388081063177946
40
0.399621477654925
40
0.399621477654925
40
0.411161892131905
40
0.411161892131905
40
0.434242721085865
40
0.434242721085865
40
0.457323550039824
40
0.457323550039824
40
0.468863964516804
40
0.468863964516804
40
0.480404378993784
40
0.480404378993784
40
0.503485207947744
40
0.503485207947744
40
0.509255415186234
40
0.509255415186234
40
0.515025622424724
40
0.515025622424724
40
0.526566036901704
40
0.526566036901704
40
0.549646865855665
40
0.549646865855665
40
0.572727694809626
40
0.572727694809626
40
0.584268109286606
40
0.584268109286606
40
0.595808523763586
40
0.618889352717547
40
0.618889352717547
40
0.641970181671508
40
0.641970181671508
40
0.665051010625469
40
0.665051010625469
40
0.688131839579429
40
0.688131839579429
40
0.693902046817919
40
0.693902046817919
40
0.69967225405641
40
0.711212668533389
40
0.711212668533389
40
0.734293497487349
40
0.734293497487349
40
0.757374326441309
40
0.757374326441309
40
0.768914740918288
40
0.768914740918288
40
0.780455155395268
40
0.780455155395268
40
0.803535984349228
40
0.803535984349228
40
0.826616813303188
40
0.826616813303188
40
0.849697642257148
40
0.849697642257148
40
0.861238056734127
40
0.867008263972616
40
0.867008263972616
40
0.872778471211106
40
0.872778471211106
40
0.895859300165065
40
0.895859300165065
40
0.918940129119024
40
0.918940129119024
40
0.942020958072983
40
0.942020958072983
40
0.953561372549963
40
0.953561372549963
40
0.965101787026942
40
0.965101787026942
40
0.988182615980902
40
0.988182615980902
40
1
40
1
40
1
40
1
41
1
10
39.7545371543437
20
-2.8957864834228
30
0
41
1
10
39.5864933837051
20
-2.95963121828581
30
0
41
1
10
39.4188072672304
20
-3.02071881714605
30
0
41
1
10
39.0456366961807
20
-3.15048037715641
30
0
41
1
10
38.840245972905
20
-3.21768261189766
30
0
41
1
10
38.4301694741211
20
-3.34354021380253
30
0
41
1
10
38.2253666596738
20
-3.40206581739412
30
0
41
1
10
37.8156944454352
20
-3.50986250443506
30
0
41
1
10
37.6108249255711
20
-3.55913765916532
30
0
41
1
10
37.3032003878165
20
-3.62591981603634
30
0
41
1
10
37.2006001568904
20
-3.64698946486905
30
0
41
1
10
36.9953365936186
20
-3.68677038463704
30
0
41
1
10
36.8926730174948
20
-3.70547902778253
30
0
41
1
10
36.5843604351454
20
-3.75790145088058
30
0
41
1
10
36.3784293409768
20
-3.78793687601555
30
0
41
1
10
36.0685958516704
20
-3.82537628932422
30
0
41
1
10
35.9651598267221
20
-3.83658691729221
30
0
41
1
10
35.8097389311305
20
-3.85147605308418
30
0
41
1
10
35.7578877006942
20
-3.85611801219713
30
0
41
1
10
35.6540924544187
20
-3.86475570455627
30
0
41
1
10
35.6021226069435
20
-3.86875295913683
30
0
41
1
10
35.3423497541859
20
-3.88709833392167
30
0
41
1
10
35.135424564562
20
-3.89648508312249
30
0
41
1
10
34.7225448708151
20
-3.90472161118703
30
0
41
1
10
34.5166264969563
20
-3.90358454926684
30
0
41
1
10
34.1053838311451
20
-3.89098690695425
30
0
41
1
10
33.9000504299047
20
-3.87953944819529
30
0
41
1
10
33.4899849888384
20
-3.84638352642551
30
0
41
1
10
33.2851136827558
20
-3.82469651233117
30
0
41
1
10
32.8752058670276
20
-3.77130580643939
30
0
41
1
10
32.6701593315645
20
-3.7396102147778
30
0
41
1
10
32.3622002816557
20
-3.68469104343163
30
0
41
1
10
32.2594802305858
20
-3.66515773687132
30
0
41
1
10
32.0539678564286
20
-3.62358098812226
30
0
41
1
10
31.9511546934045
20
-3.60154850044088
30
0
41
1
10
31.6423550472214
20
-3.53182337513121
30
0
41
1
10
31.4360436080867
20
-3.48047942542428
30
0
41
1
10
31.1255528183448
20
-3.39636910667019
30
0
41
1
10
31.0218836380471
20
-3.36715217624726
30
0
41
1
10
30.8660951471111
20
-3.32156597702829
30
0
41
1
10
30.8140887259877
20
-3.30606804488056
30
0
41
1
10
30.7101280678212
20
-3.2745318147914
30
0
41
1
10
30.6581947894345
20
-3.25849976988394
30
0
41
1
10
30.502552470156
20
-3.20959713193869
30
0
41
1
10
30.399011770396
20
-3.17590723515124
30
0
41
1
10
30.19220909769
20
-3.10653842510953
30
0
41
1
10
30.0889546622698
20
-3.0708520851083
30
0
41
1
10
29.7795427888124
20
-2.96091180050266
30
0
41
1
10
29.5737292540103
20
-2.88378517812097
30
0
41
1
10
29.2653802356559
20
-2.76281445781851
30
0
41
1
10
29.1626600523278
20
-2.72161001728148
30
0
41
1
10
28.9573356816705
20
-2.63745875137064
30
0
41
1
10
28.8547605836271
20
-2.59447290424831
30
0
41
1
10
28.5471613239487
20
-2.46296051117582
30
0
41
1
10
28.3421939454935
20
-2.37197396202271
30
0
41
1
10
27.9319960332425
20
-2.18404991510988
30
0
41
1
10
27.7267493620484
20
-2.08713860429347
30
0
41
1
10
27.4184266608213
20
-1.93769239122588
30
0
41
1
10
27.3155858441413
20
-1.88718359752593
30
0
41
1
10
27.109802373199
20
-1.78471459649705
30
0
41
1
10
27.0068286084067
20
-1.7328036176842
30
0
41
1
10
26.6975153292897
20
-1.57526560253197
30
0
41
1
10
26.4908064868075
20
-1.46779587482769
30
0
41
1
10
26.2314965650537
20
-1.3308651522658
30
0
41
1
10
26.1795883662386
20
-1.30334946724378
30
0
41
1
10
26.0756754506395
20
-1.24806470650927
30
0
41
1
10
26.0236404559972
20
-1.2202793829554
30
0
41
1
10
25.8676227018041
20
-1.13667939825615
30
0
41
1
10
25.7637846076173
20
-1.08067345757951
30
0
41
1
10
25.452885821478
20
-0.911663952413221
30
0
41
1
10
25.2463571110326
20
-0.797822198681644
30
0
41
1
10
24.8340580319723
20
-0.569104971867574
30
0
41
1
10
24.6283126385239
20
-0.454183605480267
30
0
41
1
10
24.3199989998546
20
-0.281503716001367
30
0
41
1
10
24.2172763497568
20
-0.223898047629803
30
0
41
1
10
24.0119461393502
20
-0.108562395572164
30
0
41
1
10
23.7042107551172
20
0.0647859523689363
30
0
41
1
10
23.3965803616774
20
0.237942649621829
30
0
41
1
10
22.9860381661359
20
0.467811913414721
30
0
41
1
10
22.780564393071
20
0.582210060770677
30
0
41
1
10
22.3689433296501
20
0.80944782610112
30
0
41
1
10
22.1629443127123
20
0.922554533671587
30
0
41
1
10
21.7498071276264
20
1.14636462907944
30
0
41
1
10
21.5426856249785
20
1.25709825627979
30
0
41
1
10
21.2827943683243
20
1.39351233393074
30
0
41
1
10
21.2307380260137
20
1.42071095538623
30
0
41
1
10
21.1266709006569
20
1.47482553816519
30
0
41
1
10
20.9707058579973
20
1.55554030497393
30
0
41
1
10
20.8151234435705
20
1.6348565175939
30
0
41
1
10
20.5045540780735
20
1.79178699893529
30
0
41
1
10
20.298154917433
20
1.89387942871875
30
0
41
1
10
19.886035632716
20
2.09210662963102
30
0
41
1
10
19.6803237499108
20
2.18825900320118
30
0
41
1
10
19.371999585875
20
2.32769026386245
30
0
41
1
10
19.2692603855382
20
2.37336110540946
30
0
41
1
10
19.0639055555914
20
2.4631675716073
30
0
41
1
10
18.961302381738
20
2.50731893020139
30
0
41
1
10
18.6534613065398
20
2.63715659207966
30
0
41
1
10
18.4482314861799
20
2.72028364926626
30
0
41
1
10
18.0373030577896
20
2.87907146428463
30
0
41
1
10
17.8315801475168
20
2.95470646025802
30
0
41
1
10
17.419421316043
20
3.09818798753247
30
0
41
1
10
17.2131216663601
20
3.16617966412051
30
0
41
1
10
16.9027074441659
20
3.26175456487769
30
0
41
1
10
16.7472735529992
20
3.30795686347625
30
0
41
1
10
16.5914319868283
20
3.35169902472353
30
0
41
1
10
16.48743942781
20
3.38030481324265
30
0
41
1
10
16.4353690709529
20
3.39433607691316
30
0
41
1
10
16.1750488761549
20
3.46300977941118
30
0
41
1
10
15.967467560369
20
3.5130349040208
30
0
41
1
10
15.5537297693762
20
3.60348528883091
30
0
41
1
10
15.3474276663448
20
3.64378485692748
30
0
41
1
10
14.9354272687738
20
3.71434602952803
30
0
41
1
10
14.7297217673238
20
3.74460868246055
30
0
41
1
10
14.4213530202168
20
3.78244579304331
30
0
41
1
10
14.3185909080591
20
3.7937983467944
30
0
41
1
10
14.1131980986555
20
3.81400743829511
30
0
41
1
10
14.0105496882206
20
3.82285523584937
30
0
41
1
10
13.7025351669963
20
3.84556226919165
30
0
41
1
10
13.497140916464
20
3.8555980407989
30
0
41
1
10
13.1861551098838
20
3.8630004401962
30
0
41
1
10
13.0807647405792
20
3.8641616636971
30
0
41
1
10
12.9752856190432
20
3.86397220660268
30
0
0
SPLINE
5
104
100
AcDbEntity
8
1
62
256
6
ByLayer
370
18
48
1
60
0
100
AcDbSpline
70
4
71
3
72
100
73
96
40
0
40
0
40
0
40
0
40
0.0143912993666256
40
0.0143912993666256
40
0.0361963187789692
40
0.0361963187789692
40
0.0580013381913129
40
0.0580013381913129
40
0.101611377016
40
0.101611377016
40
0.112513886722172
40
0.112513886722172
40
0.123416396428343
40
0.123416396428343
40
0.145221415840687
40
0.145221415840687
40
0.188831454665374
40
0.188831454665374
40
0.199733964371546
40
0.199733964371546
40
0.210636474077717
40
0.210636474077717
40
0.232441493490061
40
0.232441493490061
40
0.276051532314747
40
0.276051532314747
40
0.29785655172709
40
0.29785655172709
40
0.319661571139433
40
0.319661571139433
40
0.341466590551776
40
0.341466590551776
40
0.363271609964119
40
0.363271609964119
40
0.374174119670291
40
0.379625374523376
40
0.379625374523376
40
0.385076629376462
40
0.406881648788809
40
0.406881648788809
40
0.450491687613502
40
0.450491687613502
40
0.494101726438195
40
0.494101726438195
40
0.515906745850541
40
0.515906745850541
40
0.537711765262887
40
0.537711765262887
40
0.559516784675233
40
0.559516784675233
40
0.56496803952832
40
0.56496803952832
40
0.570419294381406
40
0.570419294381406
40
0.581321804087578
40
0.581321804087578
40
0.603126823499922
40
0.603126823499922
40
0.624931842912266
40
0.624931842912266
40
0.646736862324609
40
0.646736862324609
40
0.657639372030782
40
0.657639372030782
40
0.668541881736954
40
0.668541881736954
40
0.712151920561646
40
0.712151920561646
40
0.733956939973993
40
0.733956939973993
40
0.744859449680167
40
0.744859449680167
40
0.755761959386341
40
0.755761959386341
40
0.799371998211034
40
0.799371998211034
40
0.82117701762338
40
0.82117701762338
40
0.842982037035727
40
0.842982037035727
40
0.886592075860421
40
0.886592075860421
40
0.908397095272769
40
0.908397095272769
40
0.913848350125856
40
0.913848350125856
40
0.919299604978942
40
0.919299604978942
40
0.930202114685115
40
0.930202114685115
40
0.952007134097463
40
0.952007134097463
40
0.973812153509811
40
0.973812153509811
40
1
40
1
40
1
40
1
41
1
10
18.0394121195783
20
2.87016269591299
30
0
41
1
10
18.1680466431689
20
2.91870082191113
30
0
41
1
10
18.2965608583067
20
2.96570739939278
30
0
41
1
10
18.6195970724383
20
3.07997735183613
30
0
41
1
10
18.8140308824356
20
3.14518738006572
30
0
41
1
10
19.2028049878551
20
3.26810039875019
30
0
41
1
10
19.3971804527724
20
3.32576491200442
30
0
41
1
10
19.9808244104058
20
3.48683448345727
30
0
41
1
10
20.3705606569044
20
3.5783726194118
30
0
41
1
10
20.8600423460345
20
3.67141180409772
30
0
41
1
10
20.9580623747704
20
3.68894469209169
30
0
41
1
10
21.1543954510005
20
3.72181777767898
30
0
41
1
10
21.252747501409
20
3.73716154909445
30
0
41
1
10
21.5473639764638
20
3.77972112875889
30
0
41
1
10
21.7434783562908
20
3.80351985210496
30
0
41
1
10
22.3314262257505
20
3.86108470267615
30
0
41
1
10
22.7228043866631
20
3.88102094308169
30
0
41
1
10
23.2131601551824
20
3.88251086187043
30
0
41
1
10
23.311283796264
20
3.88163836612924
30
0
41
1
10
23.5076771247259
20
3.87754388578961
30
0
41
1
10
23.6060076345461
20
3.87431763053843
30
0
41
1
10
23.9003150315291
20
3.86115449722726
30
0
41
1
10
24.0958424647045
20
3.8477248975872
30
0
41
1
10
24.6810839714732
20
3.79384512616963
30
0
41
1
10
25.0694358505741
20
3.73982096702966
30
0
41
1
10
25.6510346608503
20
3.63289490387822
30
0
41
1
10
25.8447321965836
20
3.59292427500841
30
0
41
1
10
26.2322291126289
20
3.50463078436425
30
0
41
1
10
26.426013356003
20
3.45630025724984
30
0
41
1
10
26.8139402368304
20
3.35147577873775
30
0
41
1
10
27.0080957284426
20
3.29499432473003
30
0
41
1
10
27.3970349635535
20
3.1740386738073
30
0
41
1
10
27.5918495407742
20
3.1095929283324
30
0
41
1
10
27.8848750846476
20
3.00720130648528
30
0
41
1
10
28.0315849237738
20
2.95457078243675
30
0
41
1
10
28.1786321092199
20
2.89981689154837
30
0
41
1
10
28.2767441604863
20
2.86284672039608
30
0
41
1
10
28.5223682750941
20
2.76919478533438
30
0
41
1
10
28.7669311456166
20
2.67057937433498
30
0
41
1
10
29.3522987452368
20
2.42509897136841
30
0
41
1
10
29.7405941172958
20
2.24993493185914
30
0
41
1
10
30.5157652758158
20
1.8805859372836
30
0
41
1
10
30.9025861532789
20
1.68630609166578
30
0
41
1
10
31.4838186818818
20
1.3839299667224
30
0
41
1
10
31.6777130452128
20
1.28128562029079
30
0
41
1
10
32.0661258979529
20
1.07281407450441
30
0
41
1
10
32.2606129455116
20
0.966930533933237
30
0
41
1
10
32.6505825526992
20
0.752584692267305
30
0
41
1
10
32.8460660636007
20
0.64412581826528
30
0
41
1
10
33.0912343461916
20
0.507251523843479
30
0
41
1
10
33.1403298825919
20
0.479800025368206
30
0
41
1
10
33.2384683373577
20
0.424853995630542
30
0
41
1
10
33.2875166194647
20
0.397356464798065
30
0
41
1
10
33.4346065929046
20
0.314804500385804
30
0
41
1
10
33.5325953964136
20
0.25969424085082
30
0
41
1
10
33.8263929661347
20
0.0942160660328
30
0
41
1
10
34.0220194907954
20
-0.0163230145602711
30
0
41
1
10
34.4132613649079
20
-0.237012132229239
30
0
41
1
10
34.6088626055025
20
-0.347187462330993
30
0
41
1
10
35.0003264547733
20
-0.566664611206818
30
0
41
1
10
35.1962019593675
20
-0.675943611044886
30
0
41
1
10
35.4904260480952
20
-0.838824116820206
30
0
41
1
10
35.5885832706424
20
-0.892943339781624
30
0
41
1
10
35.7846496458049
20
-1.00046259429422
30
0
41
1
10
35.8826134417286
20
-1.05389744172183
30
0
41
1
10
36.3721933930379
20
-1.31927053705297
30
0
41
1
10
36.7630764541758
20
-1.52583725747013
30
0
41
1
10
37.3500694882184
20
-1.82403799989174
30
0
41
1
10
37.5458797026268
20
-1.92144043262419
30
0
41
1
10
37.8400699138411
20
-2.06412823193799
30
0
41
1
10
37.9382155438391
20
-2.11112549174345
30
0
41
1
10
38.1340215248112
20
-2.20360445721855
30
0
41
1
10
38.2317669534534
20
-2.24912778877211
30
0
41
1
10
38.7198125650271
20
-2.47304014415818
30
0
41
1
10
39.1080178856423
20
-2.64038098112332
30
0
41
1
10
39.6891758890486
20
-2.87113771370093
30
0
41
1
10
39.8826865422417
20
-2.94470544488627
30
0
41
1
10
40.2696117123264
20
-3.08477301538252
30
0
41
1
10
40.4629963431919
20
-3.15130519636631
30
0
41
1
10
41.0435469507004
20
-3.33968142274384
30
0
41
1
10
41.4311046992447
20
-3.45032446104068
30
0
41
1
10
42.0150627537353
20
-3.5918040637907
30
0
41
1
10
42.2101303043884
20
-3.63489598630477
30
0
41
1
10
42.4547725412226
20
-3.68338403789517
30
0
41
1
10
42.5037406137281
20
-3.69281347035141
30
0
41
1
10
42.6017612794519
20
-3.71113029085768
30
0
41
1
10
42.6508020548414
20
-3.72001516585774
30
0
41
1
10
42.7977186501627
20
-3.7457925901418
30
0
41
1
10
42.8954985408115
20
-3.76182887689876
30
0
41
1
10
43.1884070606532
20
-3.80649186277742
30
0
41
1
10
43.3831139061036
20
-3.83166984778038
30
0
41
1
10
43.7716637330508
20
-3.87284768679686
30
0
41
1
10
43.9655233205226
20
-3.88883831917508
30
0
41
1
10
44.3917347141399
20
-3.91390003474609
30
0
41
1
10
44.6239759337087
20
-3.92094410918421
30
0
41
1
10
44.8561441011688
20
-3.92135830740037
30
0
0
SPLINE
5
105
100
AcDbEntity
8
1
62
256
6
ByLayer
370
18
48
1
60
0
100
AcDbSpline
70
4
71
3
72
77
73
73
40
0
40
0
40
0
40
0
40
0.0399155235365131
40
0.0399155235365131
40
0.0519165794923088
40
0.0519165794923088
40
0.0639176354481045
40
0.0639176354481045
40
0.0879197473596957
40
0.0879197473596957
40
0.135923971182878
40
0.135923971182878
40
0.147925027138673
40
0.147925027138673
40
0.159926083094468
40
0.159926083094468
40
0.183928195006058
40
0.183928195006058
40
0.231932418829241
40
0.231932418829241
40
0.243933474785036
40
0.243933474785036
40
0.25593453074083
40
0.27993664265242
40
0.27993664265242
40
0.327940866475599
40
0.327940866475599
40
0.339941922431393
40
0.339941922431393
40
0.351942978387188
40
0.375945090298776
40
0.375945090298776
40
0.423949314121952
40
0.423949314121952
40
0.471953537945129
40
0.471953537945129
40
0.519957761768305
40
0.519957761768305
40
0.525958289746202
40
0.525958289746202
40
0.531958817724099
40
0.543959873679893
40
0.543959873679893
40
0.567961985591481
40
0.567961985591481
40
0.615966209414657
40
0.615966209414657
40
0.627967265370451
40
0.627967265370451
40
0.639968321326244
40
0.663970433237831
40
0.663970433237831
40
0.687972545149418
40
0.699973601105212
40
0.705974129083108
40
0.705974129083108
40
0.711974657061004
40
0.711974657061004
40
0.75997888088417
40
0.75997888088417
40
0.807983104707336
40
0.807983104707336
40
0.855987328530503
40
0.855987328530503
40
0.879989440442085
40
0.891990496397876
40
0.891990496397876
40
0.903991552353668
40
0.903991552353668
40
0.951995776176834
40
0.951995776176834
40
1
40
1
40
1
40
1
41
1
10
63.4544978844065
20
3.51873703746605
30
0
41
1
10
63.7885498374742
20
3.60629753003434
30
0
41
1
10
64.1223736851557
20
3.68155229182793
30
0
41
1
10
64.5573164406825
20
3.76263484022149
30
0
41
1
10
64.6579109177872
20
3.78020949787288
30
0
41
1
10
64.8592540225892
20
3.8129853689895
30
0
41
1
10
64.9600326588728
20
3.82818930612638
30
0
41
1
10
65.2619670273046
20
3.8700956856265
30
0
41
1
10
65.4629417923084
20
3.89313117176715
30
0
41
1
10
66.0655289963737
20
3.9474162952483
30
0
41
1
10
66.4668236053016
20
3.96385227481514
30
0
41
1
10
66.9696348081572
20
3.95940029857675
30
0
41
1
10
67.070257382528
20
3.95725946485274
30
0
41
1
10
67.2716698626984
20
3.95046777791973
30
0
41
1
10
67.3723771998623
20
3.94581853839443
30
0
41
1
10
67.67415164021
20
3.9281507719451
30
0
41
1
10
67.8750419387781
20
3.91140673534534
30
0
41
1
10
68.4774045950368
20
3.84649687039445
30
0
41
1
10
68.878577730289
20
3.78366108645275
30
0
41
1
10
69.3813463596491
20
3.68135444318571
30
0
41
1
10
69.4820033942263
20
3.65969636804053
30
0
41
1
10
69.6833281738774
20
3.61406180325588
30
0
41
1
10
69.9850426745611
20
3.54220102452669
30
0
41
1
10
70.2861638720798
20
3.46031669403197
30
0
41
1
10
70.8882238265184
20
3.28375462901676
30
0
41
1
10
71.2893999285036
20
3.14904100251749
30
0
41
1
10
71.792366296913
20
2.96106782036787
30
0
41
1
10
71.8931182841298
20
2.92245855427464
30
0
41
1
10
72.0941952223452
20
2.84356716812499
30
0
41
1
10
72.3952879889415
20
2.72268211892296
30
0
41
1
10
72.6950221356526
20
2.59447544361524
30
0
41
1
10
73.2932438829528
20
2.3291692484095
30
0
41
1
10
73.6903999600386
20
2.14044382656672
30
0
41
1
10
74.4843920000293
20
1.74394397214917
30
0
41
1
10
74.8812193725276
20
1.53616267476104
30
0
41
1
10
75.67725586874
20
1.10576549825222
30
0
41
1
10
76.0764699749689
20
0.883150774648954
30
0
41
1
10
76.5286896039749
20
0.627139213757062
30
0
41
1
10
76.5790021806285
20
0.598603614360172
30
0
41
1
10
76.6795867736816
20
0.541464551427168
30
0
41
1
10
76.830398932336
20
0.455656516056422
30
0
41
1
10
76.9810452142314
20
0.369599697040343
30
0
41
1
10
77.2821905523486
20
0.197283692879893
30
0
41
1
10
77.4827611999522
20
0.0821424552427175
30
0
41
1
10
78.0843869716828
20
-0.263211428910438
30
0
41
1
10
78.4853370490044
20
-0.493387230678422
30
0
41
1
10
78.9882060243642
20
-0.777796932115706
30
0
41
1
10
79.0887521983833
20
-0.834447410113512
30
0
41
1
10
79.2896379064918
20
-0.947089491357616
30
0
41
1
10
79.5907511944583
20
-1.11511816460123
30
0
41
1
10
79.8914436619924
20
-1.27997199019936
30
0
41
1
10
80.2923884511139
20
-1.49630641759853
30
0
41
1
10
80.5931159960335
20
-1.65595027953225
30
0
41
1
10
80.9444485590423
20
-1.8369000761985
30
0
41
1
10
81.0951743419433
20
-1.91322973042963
30
0
41
1
10
81.1956983970752
20
-1.96383540060549
30
0
41
1
10
81.2460022318367
20
-1.98900859995342
30
0
41
1
10
81.6982605792985
20
-2.21392162351955
30
0
41
1
10
82.0974044594119
20
-2.40240599425587
30
0
41
1
10
82.8930155543715
20
-2.75286580531616
30
0
41
1
10
83.2894944388082
20
-2.91483051470934
30
0
41
1
10
84.082610864312
20
-3.20894826844798
30
0
41
1
10
84.4792320311525
20
-3.34111440965282
30
0
41
1
10
85.0764857250956
20
-3.51443089389392
30
0
41
1
10
85.3756960651633
20
-3.59485391388748
30
0
41
1
10
85.6762159164953
20
-3.66543259468466
30
0
41
1
10
85.8769020426148
20
-3.71024312751399
30
0
41
1
10
85.9774932371892
20
-3.73154147390989
30
0
41
1
10
86.4796009324294
20
-3.83194535651123
30
0
41
1
10
86.8796801417026
20
-3.89306880506467
30
0
41
1
10
87.6793647765104
20
-3.97611985319833
30
0
41
1
10
88.078969842304
20
-3.99802847043554
30
0
41
1
10
88.4798983012809
20
-3.99983507015918
30
0
0
SPLINE
5
106
100
AcDbEntity
8
1
62
256
6
ByLayer
370
18
48
1
60
0
100
AcDbSpline
70
4
71
3
72
10
73
6
40
0
40
0
40
0
40
0
40
0.5
40
0.5
40
1
40
1
40
1
40
1
41
1
10
88.4543425182905
20
-3.97358450148178
30
0
41
1
10
88.4585962788013
20
-3.98197891712454
30
0
41
1
10
88.4628647328123
20
-3.98838183647109
30
0
41
1
10
88.4713875103311
20
-3.99712913227697
30
0
41
1
10
88.4756445764771
20
-3.99948464696965
30
0
41
1
10
88.4798983012808
20
-3.99983507015918
30
0
0
SPLINE
5
107
100
AcDbEntity
8
1
62
256
6
ByLayer
370
18
48
1
60
0
100
AcDbSpline
70
4
71
3
72
79
73
75
40
0
40
0
40
0
40
0
40
0.0572164203169803
40
0.0572164203169803
40
0.0858246304754697
40
0.0858246304754697
40
0.114432840633959
40
0.114432840633959
40
0.143041050792448
40
0.143041050792448
40
0.157345155871693
40
0.157345155871693
40
0.171649260950938
40
0.171649260950938
40
0.228865681267914
40
0.228865681267914
40
0.257473891426402
40
0.257473891426402
40
0.271777996505646
40
0.271777996505646
40
0.286082101584891
40
0.343298521901871
40
0.343298521901871
40
0.357602626981116
40
0.357602626981116
40
0.371906732060362
40
0.371906732060362
40
0.400514942218852
40
0.400514942218852
40
0.429123152377342
40
0.429123152377342
40
0.443427257456588
40
0.443427257456588
40
0.457731362535833
40
0.457731362535833
40
0.486339572694325
40
0.486339572694325
40
0.514947782852817
40
0.514947782852817
40
0.543555993011308
40
0.543555993011308
40
0.557860098090555
40
0.557860098090555
40
0.572164203169802
40
0.572164203169802
40
0.629380623486785
40
0.629380623486785
40
0.64368472856603
40
0.64368472856603
40
0.657988833645276
40
0.657988833645276
40
0.686597043803767
40
0.686597043803767
40
0.74381346412075
40
0.74381346412075
40
0.801029884437733
40
0.801029884437733
40
0.829638094596225
40
0.829638094596225
40
0.84394219967547
40
0.84394219967547
40
0.858246304754715
40
0.858246304754715
40
0.886854514913203
40
0.886854514913203
40
0.915462725071692
40
0.915462725071692
40
0.929766830150936
40
0.929766830150936
40
0.944070935230179
40
0.944070935230179
40
0.972679145388666
40
0.972679145388666
40
1
40
1
40
1
40
1
41
1
10
88.4543425183026
20
-3.97358450148167
30
0
41
1
10
88.0553757980344
20
-3.94646378954298
30
0
41
1
10
87.6568094840436
20
-3.89959405441138
30
0
41
1
10
87.0575695881196
20
-3.80049327357082
30
0
41
1
10
86.8574250335566
20
-3.7626161375814
30
0
41
1
10
86.4579489309975
20
-3.67766451923427
30
0
41
1
10
86.2584684567002
20
-3.63057089916558
30
0
41
1
10
85.8595024287847
20
-3.52755031314118
30
0
41
1
10
85.6600176887262
20
-3.47162862294024
30
0
41
1
10
85.3605976008609
20
-3.38128222528232
30
0
41
1
10
85.2607590116028
20
-3.35008841994784
30
0
41
1
10
85.060959637178
20
-3.28559130437955
30
0
41
1
10
84.9609492017825
20
-3.25227085056733
30
0
41
1
10
84.4610977402505
20
-3.08074731898699
30
0
41
1
10
84.0622698575366
20
-2.92795614662026
30
0
41
1
10
83.4635059732979
20
-2.67800850542918
30
0
41
1
10
83.2638301101795
20
-2.59123230690474
30
0
41
1
10
82.9639149254149
20
-2.45620235238198
30
0
41
1
10
82.8638467914629
20
-2.41036687392148
30
0
41
1
10
82.663929581089
20
-2.31732913416042
30
0
41
1
10
82.1644537056673
20
-2.08121622836444
30
0
41
1
10
81.6659244786933
20
-1.82848969090313
30
0
41
1
10
81.1663527843083
20
-1.56522414947574
30
0
41
1
10
81.0663862181098
20
-1.51204411481649
30
0
41
1
10
80.8663001624934
20
-1.40470427998378
30
0
41
1
10
80.7662523315149
20
-1.35058268300708
30
0
41
1
10
80.4663847447119
20
-1.18718274982152
30
0
41
1
10
80.2666921912815
20
-1.0767933700555
30
0
41
1
10
79.8674102807128
20
-0.853673946489494
30
0
41
1
10
79.6678236060211
20
-0.740938900822272
30
0
41
1
10
79.368211088931
20
-0.570608093677379
30
0
41
1
10
79.2683010054793
20
-0.513627384765954
30
0
41
1
10
79.0683614815631
20
-0.399328055912747
30
0
41
1
10
78.9682972530968
20
-0.341989372858421
30
0
41
1
10
78.6681015781345
20
-0.169706144873572
30
0
41
1
10
78.4682772301061
20
-0.0546682998435699
30
0
41
1
10
78.0688129080627
20
0.175026785104904
30
0
41
1
10
77.8691708896045
20
0.28968064759664
30
0
41
1
10
77.4697518829337
20
0.518052614502807
30
0
41
1
10
77.269977426989
20
0.631774928028705
30
0
41
1
10
76.9699006411647
20
0.801110339182941
30
0
41
1
10
76.8697583604327
20
0.857372870858512
30
0
41
1
10
76.6696589014382
20
0.969203608480001
30
0
41
1
10
76.56967461837
20
1.02478740736626
30
0
41
1
10
76.0699771785442
20
1.30088065533681
30
0
41
1
10
75.6709157224708
20
1.51587713414196
30
0
41
1
10
75.1710702077011
20
1.77419394767816
30
0
41
1
10
75.0710521568664
20
1.82533907737812
30
0
41
1
10
74.870869161226
20
1.92651308168033
30
0
41
1
10
74.7707259673447
20
1.9765301243452
30
0
41
1
10
74.4706184569798
20
2.12448612670946
30
0
41
1
10
74.2707806567796
20
2.22043924765126
30
0
41
1
10
73.6714470483707
20
2.49952281951354
30
0
41
1
10
73.2720747608296
20
2.67385034797397
30
0
41
1
10
72.4708698062328
20
2.99481004526862
30
0
41
1
10
72.0714882831674
20
3.14049795521464
30
0
41
1
10
71.4720406617635
20
3.33456355165004
30
0
41
1
10
71.2721519015124
20
3.395163333467
30
0
41
1
10
70.9719086527647
20
3.47963146637034
30
0
41
1
10
70.8717075042104
20
3.50672884695678
30
0
41
1
10
70.6714219800378
20
3.55865568942127
30
0
41
1
10
70.5713419206411
20
3.5834854345743
30
0
41
1
10
70.2712195908278
20
3.65453691143384
30
0
41
1
10
70.0713420574719
20
3.69735620228275
30
0
41
1
10
69.6716642717119
20
3.77368359741644
30
0
41
1
10
69.4718250196849
20
3.80716715066327
30
0
41
1
10
69.1717693070008
20
3.8502059615395
30
0
41
1
10
69.0717023875601
20
3.86335512212307
30
0
41
1
10
68.8714240537588
20
3.88723288806742
30
0
41
1
10
68.7711974913661
20
3.89796149014759
30
0
41
1
10
68.4708477786276
20
3.92642752778622
30
0
41
1
10
68.2708511212142
20
3.94047139571046
30
0
41
1
10
67.879963501884
20
3.9582633731516
30
0
41
1
10
67.6891010959417
20
3.96244793048348
30
0
41
1
10
67.4981458817666
20
3.96210924130131
30
0
0
SPLINE
5
108
100
AcDbEntity
8
1
62
256
6
ByLayer
370
18
48
1
60
0
100
AcDbSpline
70
4
71
3
72
28
73
24
40
0
40
0
40
0
40
0
40
0.125000000000034
40
0.125000000000034
40
0.187500000000051
40
0.187500000000051
40
0.250000000000068
40
0.250000000000068
40
0.375000000000102
40
0.375000000000102
40
0.43750000000012
40
0.43750000000012
40
0.500000000000137
40
0.500000000000137
40
0.625000000000347
40
0.625000000000347
40
0.687500000000356
40
0.687500000000356
40
0.750000000000365
40
0.750000000000365
40
0.875000000000182
40
0.875000000000182
40
1
40
1
40
1
40
1
41
1
10
50.0001285270196
20
-2.95543942791781
30
0
41
1
10
50.0001285270196
20
-2.94964221729944
30
0
41
1
10
50.0012680439765
20
-2.943952345013
30
0
41
1
10
50.0046365578739
20
-2.93557707159945
30
0
41
1
10
50.0060533500904
20
-2.93279370714203
30
0
41
1
10
50.0093877867431
20
-2.92742397452136
30
0
41
1
10
50.0113052458024
20
-2.92482724701151
30
0
41
1
10
50.0177942266838
20
-2.91729897414916
30
0
41
1
10
50.0231908868981
20
-2.91257183331146
30
0
41
1
10
50.0323889784212
20
-2.90638000089953
30
0
41
1
10
50.0356426020664
20
-2.90445536181349
30
0
41
1
10
50.0425258900576
20
-2.90088738990033
30
0
41
1
10
50.046182801079
20
-2.89923396174319
30
0
41
1
10
50.0575351336583
20
-2.8948014274944
30
0
41
1
10
50.0655365952822
20
-2.89255363457008
30
0
41
1
10
50.0781861391188
20
-2.89024756741921
30
0
41
1
10
50.0825124488373
20
-2.8896625390731
30
0
41
1
10
50.0911318953903
20
-2.88888934718872
30
0
41
1
10
50.0954565765438
20
-2.88869454901746
30
0
41
1
10
50.1084752202138
20
-2.88868247526557
30
0
41
1
10
50.1172890008811
20
-2.8894614247321
30
0
41
1
10
50.1340566164023
20
-2.89248540969234
30
0
41
1
10
50.1421934680644
20
-2.89474456950345
30
0
41
1
10
50.1498241050308
20
-2.89770749234984
30
0
0
SPLINE
5
109
100
AcDbEntity
8
1
62
256
6
ByLayer
370
18
48
1
60
0
100
AcDbSpline
70
4
71
3
72
26
73
22
40
0
40
0
40
0
40
0
40
0.233672143935969
40
0.233672143935969
40
0.350508215903953
40
0.350508215903953
40
0.408926251887945
40
0.408926251887945
40
0.467344287871937
40
0.467344287871937
40
0.584180359839928
40
0.584180359839928
40
0.701016431807918
40
0.701016431807918
40
0.759434467791913
40
0.759434467791913
40
0.817852503775909
40
0.817852503775909
40
0.934688575743893
40
0.934688575743893
40
1
40
1
40
1
40
1
41
1
10
50.1498241050308
20
-2.89770749234984
30
0
41
1
10
50.5495102195357
20
-3.05290280897702
30
0
41
1
10
50.9490236268528
20
-3.19199158485293
30
0
41
1
10
51.5491338114289
20
-3.37596928082436
30
0
41
1
10
51.7492865323038
20
-3.43320100892581
30
0
41
1
10
52.0496985243103
20
-3.51282058188519
30
0
41
1
10
52.1498361640882
20
-3.53829828019622
30
0
41
1
10
52.3499024535379
20
-3.58696423196861
30
0
41
1
10
52.4498774560769
20
-3.61016402427489
30
0
41
1
10
52.7497656577241
20
-3.67628347447644
30
0
41
1
10
52.9496184611232
20
-3.71574605390887
30
0
41
1
10
53.3493507353701
20
-3.78536725604295
30
0
41
1
10
53.5492412896461
20
-3.81551348103506
30
0
41
1
10
53.8494441857934
20
-3.85355942349742
30
0
41
1
10
53.9495876481706
20
-3.86505002750638
30
0
41
1
10
54.1499107587937
20
-3.88562473604639
30
0
41
1
10
54.2499738877168
20
-3.89469734496774
30
0
41
1
10
54.5498767191074
20
-3.91825989003118
30
0
41
1
10
54.7494565923693
20
-3.92906987977079
30
0
41
1
10
55.0608291542953
20
-3.93819831665451
30
0
41
1
10
55.1725141592777
20
-3.93993086331093
30
0
41
1
10
55.2842472188487
20
-3.94012795560676
30
0
0
SPLINE
5
10A
100
AcDbEntity
8
1
62
256
6
ByLayer
370
18
48
1
60
0
100
AcDbSpline
70
4
71
3
72
54
73
50
40
0
40
0
40
0
40
0
40
0.0147783452685748
40
0.0147783452685748
40
0.0595611477563614
40
0.0595611477563614
40
0.0819525490002558
40
0.0819525490002558
40
0.10434395024415
40
0.10434395024415
40
0.14912675273194
40
0.14912675273194
40
0.193909555219728
40
0.193909555219728
40
0.238692357707518
40
0.238692357707518
40
0.283475160195306
40
0.283475160195306
40
0.328257962683096
40
0.328257962683096
40
0.373040765170885
40
0.373040765170885
40
0.395432166414779
40
0.395432166414779
40
0.417823567658674
40
0.417823567658674
40
0.462606370146465
40
0.462606370146465
40
0.55217197512205
40
0.55217197512205
40
0.574563376365947
40
0.574563376365947
40
0.596954777609844
40
0.596954777609844
40
0.641737580097637
40
0.641737580097637
40
0.731303185073224
40
0.731303185073224
40
0.776085987561019
40
0.776085987561019
40
0.820868790048814
40
0.820868790048814
40
0.865651592536609
40
0.865651592536609
40
0.888042993780507
40
0.888042993780507
40
0.910434395024406
40
0.910434395024406
40
1
40
1
40
1
40
1
41
1
10
75.1242488521185
20
3.8250265365653
30
0
41
1
10
75.190030867265
20
3.83544339919322
30
0
41
1
10
75.2558071126054
20
3.84534465390323
30
0
41
1
10
75.5208855688068
20
3.88316971287608
30
0
41
1
10
75.7201944830048
20
3.90683559915345
30
0
41
1
10
76.0196713509567
20
3.93498258435582
30
0
41
1
10
76.119631394441
20
3.94314912243931
30
0
41
1
10
76.3194126704769
20
3.95701755722519
30
0
41
1
10
76.4191392447603
20
3.96271478038173
30
0
41
1
10
76.7178498321063
20
3.97610810483297
30
0
41
1
10
76.9164054294771
20
3.98008930167978
30
0
41
1
10
77.3130799088744
20
3.97825714476002
30
0
41
1
10
77.5111420389493
20
3.97246213800801
30
0
41
1
10
77.9066690215253
20
3.95113440152383
30
0
41
1
10
78.1041955955207
20
3.93558995461447
30
0
41
1
10
78.4996245432367
20
3.89499775235126
30
0
41
1
10
78.697469821666
20
3.86995427686517
30
0
41
1
10
79.0933584715713
20
3.81030778429803
30
0
41
1
10
79.2914447799896
20
3.77570708839642
30
0
41
1
10
79.6885560355362
20
3.69722665863162
30
0
41
1
10
79.8875339148332
20
3.65333691287941
30
0
41
1
10
80.1865788568959
20
3.58032363714494
30
0
41
1
10
80.2864253173336
20
3.55477880732394
30
0
41
1
10
80.4858410237077
20
3.50155685680812
30
0
41
1
10
80.5854781911005
20
3.47386600417718
30
0
41
1
10
80.8843402691927
20
3.3877172104597
30
0
41
1
10
81.0834876084332
20
3.32616478183746
30
0
41
1
10
81.6809033621339
20
3.12951634297678
30
0
41
1
10
82.0791026012065
20
2.9824170182747
30
0
41
1
10
82.5778737682625
20
2.7794103688571
30
0
41
1
10
82.6776580042153
20
2.7378728496378
30
0
41
1
10
82.8769817995858
20
2.65323129542412
30
0
41
1
10
82.976578990198
20
2.61010581216436
30
0
41
1
10
83.2753056304635
20
2.47850026145295
30
0
41
1
10
83.4743476548059
20
2.3877646360734
30
0
41
1
10
84.0714342418777
20
2.10701886708731
30
0
41
1
10
84.4694727337185
20
1.9084715494495
30
0
41
1
10
85.0682999336991
20
1.5962632189175
30
0
41
1
10
85.2675595497664
20
1.49016132351102
30
0
41
1
10
85.6658966139621
20
1.27474491180794
30
0
41
1
10
85.864961704897
20
1.16541208318714
30
0
41
1
10
86.2631423945539
20
0.943925204924398
30
0
41
1
10
86.46226813999
20
0.831786402042752
30
0
41
1
10
86.7613858403917
20
0.662116598148941
30
0
41
1
10
86.8612111938351
20
0.60528654601859
30
0
41
1
10
87.0607716640151
20
0.491317133946381
30
0
41
1
10
87.1604747988452
20
0.434196230796346
30
0
41
1
10
87.6586758702238
20
0.148033889839837
30
0
41
1
10
88.0562333432491
20
-0.0826752389320689
30
0
41
1
10
88.4543636801477
20
-0.31242573602637
30
0
0
SPLINE
5
10B
100
AcDbEntity
8
1
62
256
6
ByLayer
370
18
48
1
60
0
100
AcDbSpline
70
4
71
3
72
8
73
4
40
0
40
0
40
0
40
0
40
1
40
1
40
1
40
1
41
1
10
88.4543636801392
20
-0.312425736026597
30
0
41
1
10
88.4732478522846
20
-0.139468493011321
30
0
41
1
10
88.495861839049
20
0.034282723193968
30
0
41
1
10
88.5232866026149
20
0.208740391980314
30
0
0
SPLINE
5
10C
100
AcDbEntity
8
1
62
256
6
ByLayer
370
18
48
1
60
0
100
AcDbSpline
70
4
71
3
72
54
73
50
40
0
40
0
40
0
40
0
40
0.0586647886544937
40
0.0586647886544937
40
0.087997182981742
40
0.087997182981742
40
0.102663380145366
40
0.102663380145366
40
0.11732957730899
40
0.175994365963484
40
0.175994365963484
40
0.234659154617978
40
0.234659154617978
40
0.293323943272471
40
0.293323943272471
40
0.351988731926965
40
0.351988731926965
40
0.381321126254212
40
0.381321126254212
40
0.410653520581458
40
0.410653520581458
40
0.469318309235955
40
0.469318309235955
40
0.527983097890451
40
0.527983097890451
40
0.542649295054078
40
0.542649295054078
40
0.557315492217704
40
0.557315492217704
40
0.586647886544954
40
0.586647886544954
40
0.645312675199453
40
0.645312675199453
40
0.703977463853953
40
0.703977463853953
40
0.762642252508453
40
0.762642252508453
40
0.821307041162952
40
0.821307041162952
40
0.850639435490202
40
0.850639435490202
40
0.879971829817452
40
0.938636618471949
40
0.938636618471949
40
0.967969012799196
40
0.967969012799196
40
0.997301407126442
40
0.997301407126442
40
1
40
1
40
1
40
1
41
1
10
88.523286602615
20
0.208740391980285
30
0
41
1
10
88.3168322377516
20
0.328197154167071
30
0
41
1
10
88.1104450653666
20
0.447215256080511
30
0
41
1
10
87.8006884717286
20
0.624610857778578
30
0
41
1
10
87.6974153110788
20
0.683568460296129
30
0
41
1
10
87.542472119901
20
0.771739026070009
30
0
41
1
10
87.4908087168096
20
0.801081136707523
30
0
41
1
10
87.3876114239883
20
0.859542929489635
30
0
41
1
10
87.1298456850591
20
1.00520714494815
30
0
41
1
10
86.8731267853671
20
1.14827895495873
30
0
41
1
10
86.4632459111029
20
1.37315977379663
30
0
41
1
10
86.2587133931995
20
1.48354186882023
30
0
41
1
10
85.8503368341902
20
1.70003678117749
30
0
41
1
10
85.6464798872392
20
1.80612200236536
30
0
41
1
10
85.2388226803062
20
2.01303091264865
30
0
41
1
10
85.0350403306179
20
2.11388492980012
30
0
41
1
10
84.7291278949316
20
2.26080979176996
30
0
41
1
10
84.6271163153025
20
2.30905762708619
30
0
41
1
10
84.4229990954227
20
2.40407788558562
30
0
41
1
10
84.3209141370682
20
2.45087927349525
30
0
41
1
10
84.0144254821652
20
2.58892553203572
30
0
41
1
10
83.8097709021912
20
2.67778947773041
30
0
41
1
10
83.399350109525
20
2.8485145484893
30
0
41
1
10
83.1935722564947
20
2.93036191912191
30
0
41
1
10
82.9354154751813
20
3.02793858957176
30
0
41
1
10
82.8837077341138
20
3.04722947683499
30
0
41
1
10
82.7803668902488
20
3.08528547251487
30
0
41
1
10
82.72875125428
20
3.10404690501446
30
0
41
1
10
82.5740449486842
20
3.15950685471958
30
0
41
1
10
82.4710864404581
20
3.19537126301205
30
0
41
1
10
82.1626399200938
20
3.29955545409214
30
0
41
1
10
81.9575893805403
20
3.36447506349424
30
0
41
1
10
81.5481843272252
20
3.48495330765226
30
0
41
1
10
81.3438021611304
20
3.54049560121743
30
0
41
1
10
80.9355901812695
20
3.64219219418268
30
0
41
1
10
80.7317261358619
20
3.6883076994055
30
0
41
1
10
80.3238946741822
20
3.77069017632093
30
0
41
1
10
80.1199417699998
20
3.80697061343778
30
0
41
1
10
79.8136520955135
20
3.85385858885115
30
0
41
1
10
79.7114936004776
20
3.86823221705708
30
0
41
1
10
79.5070492048572
20
3.89445740777157
30
0
41
1
10
79.2002519533297
20
3.93003115400526
30
0
41
1
10
78.8925264434415
20
3.95403652277048
30
0
41
1
10
78.5838370654858
20
3.97014747803792
30
0
41
1
10
78.4807787213206
20
3.97420217695117
30
0
41
1
10
78.2742866133176
20
3.97965341780562
30
0
41
1
10
78.1707415244659
20
3.98104825578579
30
0
41
1
10
78.0579498021315
20
3.9811089214864
30
0
41
1
10
78.0484488913173
20
3.98110272470271
30
0
41
1
10
78.038949677586
20
3.98108523022373
30
0
0
SPLINE
5
10D
100
AcDbEntity
8
1
62
256
6
ByLayer
370
18
48
1
60
0
100
AcDbSpline
70
4
71
3
72
127
73
123
40
0
40
0
40
0
40
0
40
0.0218918919351567
40
0.0218918919351567
40
0.0444144146962579
40
0.0444144146962579
40
0.0669369374573589
40
0.0669369374573589
40
0.0781981988379096
40
0.0781981988379096
40
0.0894594602184602
40
0.0894594602184602
40
0.0950900909087354
40
0.0950900909087354
40
0.100720721599011
40
0.100720721599011
40
0.111981982979562
40
0.111981982979562
40
0.134504505740667
40
0.134504505740667
40
0.157027028501772
40
0.157027028501772
40
0.179549551262876
40
0.179549551262876
40
0.202072074023981
40
0.202072074023981
40
0.224594596785086
40
0.224594596785086
40
0.24711711954619
40
0.24711711954619
40
0.258378380926742
40
0.258378380926742
40
0.269639642307295
40
0.269639642307295
40
0.275270272997571
40
0.275270272997571
40
0.280900903687848
40
0.292162165068403
40
0.292162165068403
40
0.314684687829512
40
0.314684687829512
40
0.337207210590621
40
0.337207210590621
40
0.35972973335173
40
0.35972973335173
40
0.370990994732285
40
0.370990994732285
40
0.38225225611284
40
0.38225225611284
40
0.404774778873952
40
0.404774778873952
40
0.427297301635063
40
0.427297301635063
40
0.438558563015619
40
0.438558563015619
40
0.444189193705897
40
0.444189193705897
40
0.449819824396174
40
0.449819824396174
40
0.472342347157282
40
0.472342347157282
40
0.49486486991839
40
0.49486486991839
40
0.517387392679499
40
0.517387392679499
40
0.539909915440606
40
0.539909915440606
40
0.55117117682116
40
0.55117117682116
40
0.562432438201713
40
0.562432438201713
40
0.584954960962821
40
0.584954960962821
40
0.607477483723929
40
0.607477483723929
40
0.618738745104483
40
0.618738745104483
40
0.630000006485037
40
0.630000006485037
40
0.652522529246145
40
0.652522529246145
40
0.675045052007253
40
0.675045052007253
40
0.697567574768361
40
0.697567574768361
40
0.720090097529469
40
0.720090097529469
40
0.731351358910023
40
0.731351358910023
40
0.742612620290577
40
0.742612620290577
40
0.765135143051686
40
0.765135143051686
40
0.787657665812795
40
0.787657665812795
40
0.798918927193349
40
0.798918927193349
40
0.810180188573903
40
0.810180188573903
40
0.832702711335011
40
0.832702711335011
40
0.855225234096119
40
0.855225234096119
40
0.877747756857227
40
0.877747756857227
40
0.900270279618335
40
0.900270279618335
40
0.911531540998888
40
0.911531540998888
40
0.922792802379441
40
0.922792802379441
40
0.945315325140549
40
0.945315325140549
40
0.956576586521102
40
0.956576586521102
40
0.962207217211379
40
0.962207217211379
40
0.967837847901656
40
0.967837847901656
40
0.990360370662761
40
0.990360370662761
40
1
40
1
40
1
40
1
41
1
10
62.0519587768532
20
-2.67982558094323
30
0
41
1
10
61.853267878649
20
-2.76313224153799
30
0
41
1
10
61.6546281153513
20
-2.84299145096503
30
0
41
1
10
61.251706593792
20
-2.99797259914203
30
0
41
1
10
61.0473134692054
20
-3.07274639814722
30
0
41
1
10
60.6378957592435
20
-3.21407441285803
30
0
41
1
10
60.4328651136052
20
-3.28062443504501
30
0
41
1
10
60.1245625269091
20
-3.37395440768245
30
0
41
1
10
60.0216652875245
20
-3.40397919597334
30
0
41
1
10
59.8156555815394
20
-3.46188058357683
30
0
41
1
10
59.7125302471248
20
-3.48974376437423
30
0
41
1
10
59.557569084006
20
-3.52981074277679
30
0
41
1
10
59.5058717978394
20
-3.54288028116494
30
0
41
1
10
59.4023826833559
20
-3.5684386068051
30
0
41
1
10
59.3505615689324
20
-3.58093420466247
30
0
41
1
10
59.195167445673
20
-3.61748488282933
30
0
41
1
10
59.0917536086346
20
-3.64058442135763
30
0
41
1
10
58.7819679895757
20
-3.70606367161127
30
0
41
1
10
58.5760252143759
20
-3.74461241034294
30
0
41
1
10
58.1651249212445
20
-3.81158337188199
30
0
41
1
10
57.9602337357776
20
-3.84002460472431
30
0
41
1
10
57.5508263558041
20
-3.88657428708507
30
0
41
1
10
57.3463431897432
20
-3.90470318035636
30
0
41
1
10
56.9373877700699
20
-3.9306318543822
30
0
41
1
10
56.7329141595979
20
-3.93844121337256
30
0
41
1
10
56.3239219619993
20
-3.94369913050218
30
0
41
1
10
56.1192817372208
20
-3.94113100032558
30
0
41
1
10
55.7092456780128
20
-3.92556407301495
30
0
41
1
10
55.503838776848
20
-3.91256981996702
30
0
41
1
10
55.1948832868962
20
-3.88524043260699
30
0
41
1
10
55.0917581927869
20
-3.87482498702261
30
0
41
1
10
54.8852656223879
20
-3.85133897294111
30
0
41
1
10
54.7818755387862
20
-3.83827452105478
30
0
41
1
10
54.6264942475076
20
-3.81670635583487
30
0
41
1
10
54.574627479042
20
-3.80918373409284
30
0
41
1
10
54.4710300083854
20
-3.79351755032664
30
0
41
1
10
54.3157688566458
20
-3.76907839572036
30
0
41
1
10
54.1608791015229
20
-3.74185214878636
30
0
41
1
10
53.8515041607015
20
-3.68377362853653
30
0
41
1
10
53.6457624275527
20
-3.64024612015723
30
0
41
1
10
53.2351897244496
20
-3.54377702167838
30
0
41
1
10
53.0303866541568
20
-3.49080056749472
30
0
41
1
10
52.6210276165232
20
-3.37600873067223
30
0
41
1
10
52.416502125239
20
-3.31417332166771
30
0
41
1
10
52.1096329535668
20
-3.21509772451805
30
0
41
1
10
52.0073301577532
20
-3.18101890322632
30
0
41
1
10
51.8026857828729
20
-3.11076659144879
30
0
41
1
10
51.7003699978531
20
-3.07456454407512
30
0
41
1
10
51.3933052684669
20
-2.96286200073243
30
0
41
1
10
51.1883851832366
20
-2.88432675895297
30
0
41
1
10
50.7776667021755
20
-2.71961925907283
30
0
41
1
10
50.5718541000542
20
-2.63346800863113
30
0
41
1
10
50.2622040422207
20
-2.49880945185711
30
0
41
1
10
50.1588416760832
20
-2.45300494425186
30
0
41
1
10
50.0035880911281
20
-2.38288573996382
30
0
41
1
10
49.9517967302156
20
-2.35928465736907
30
0
41
1
10
49.8481151984522
20
-2.31165098088667
30
0
41
1
10
49.7962355023664
20
-2.28762067661344
30
0
41
1
10
49.5372181871385
20
-2.166705203486
30
0
41
1
10
49.3307175900151
20
-2.06729788929377
30
0
41
1
10
48.9186612638472
20
-1.86395897020898
30
0
41
1
10
48.7130711776148
20
-1.76008574457492
30
0
41
1
10
48.3027439663018
20
-1.54800483071912
30
0
41
1
10
48.0979802045608
20
-1.43983604672607
30
0
41
1
10
47.6885895949809
20
-1.22036553308726
30
0
41
1
10
47.4839846869529
20
-1.10902865477155
30
0
41
1
10
47.1769118901953
20
-0.94014731197214
30
0
41
1
10
47.0745250591681
20
-0.883543969596133
30
0
41
1
10
46.8696986338056
20
-0.769706974479902
30
0
41
1
10
46.7672851452738
20
-0.712426941534659
30
0
41
1
10
46.4598475520018
20
-0.539842056547826
30
0
41
1
10
46.2546172191737
20
-0.423809310532306
30
0
41
1
10
45.8431514991053
20
-0.190599742255159
30
0
41
1
10
45.6369002592373
20
-0.0734530988714823
30
0
41
1
10
45.3265141601853
20
0.102680196317721
30
0
41
1
10
45.2229046942934
20
0.161499196538529
30
0
41
1
10
45.0153579899295
20
0.279302380835247
30
0
41
1
10
44.9117089465417
20
0.338059358386431
30
0
41
1
10
44.6013468888004
20
0.513529873403371
30
0
41
1
10
44.3950867128603
20
0.629532944314803
30
0
41
1
10
43.9833862199451
20
0.85879585936388
30
0
41
1
10
43.7779130209397
20
0.972001653908279
30
0
41
1
10
43.3677521858228
20
1.1956557569315
30
0
41
1
10
43.1629869629702
20
1.30596210268632
30
0
41
1
10
42.7534883004747
20
1.52253255053975
30
0
41
1
10
42.5487659241597
20
1.62881749545159
30
0
41
1
10
42.2414369216994
20
1.78478433446983
30
0
41
1
10
42.1389491823895
20
1.83619073166335
30
0
41
1
10
41.9339133244191
20
1.93788148278051
30
0
41
1
10
41.8313836019699
20
1.98819398984901
30
0
41
1
10
41.523527088515
20
2.13715852222151
30
0
41
1
10
41.3179587023184
20
2.23387896132513
30
0
41
1
10
40.9056942981342
20
2.42139457298182
30
0
41
1
10
40.698978643315
20
2.51216293442849
30
0
41
1
10
40.3878310654463
20
2.64349449267135
30
0
41
1
10
40.2838825064919
20
2.68654242792147
30
0
41
1
10
40.0765862505118
20
2.77058502798636
30
0
41
1
10
39.9731144982705
20
2.81160275283332
30
0
41
1
10
39.663138376657
20
2.93156477897659
30
0
41
1
10
39.4570705717966
20
3.00741362515919
30
0
41
1
10
39.0456366961807
20
3.15048037715641
30
0
41
1
10
38.840245972905
20
3.21768261189766
30
0
41
1
10
38.4301694741211
20
3.34354021380253
30
0
41
1
10
38.2253666596739
20
3.40206581739412
30
0
41
1
10
37.8156944454353
20
3.50986250443506
30
0
41
1
10
37.610824925571
20
3.55913765916532
30
0
41
1
10
37.3032003878165
20
3.62591981603634
30
0
41
1
10
37.2006001568904
20
3.64698946486908
30
0
41
1
10
36.9953365936185
20
3.68677038463704
30
0
41
1
10
36.8926730174948
20
3.70547902778256
30
0
41
1
10
36.5843604351454
20
3.75790145088058
30
0
41
1
10
36.3784293409769
20
3.78793687601555
30
0
41
1
10
36.0685958516704
20
3.82537628932422
30
0
41
1
10
35.9651598267222
20
3.83658691729221
30
0
41
1
10
35.8097389311305
20
3.85147605308418
30
0
41
1
10
35.7578877006942
20
3.8561180121971
30
0
41
1
10
35.6540924544187
20
3.86475570455627
30
0
41
1
10
35.6021226069435
20
3.86875295913683
30
0
41
1
10
35.342349754186
20
3.88709833392167
30
0
41
1
10
35.135424564562
20
3.89648508312249
30
0
41
1
10
34.8406285585937
20
3.90236596225807
30
0
41
1
10
34.7523679248054
20
3.9031658878103
30
0
41
1
10
34.6641852202893
20
3.90301045967573
30
0
0
SPLINE
5
10E
100
AcDbEntity
8
1
62
256
6
ByLayer
370
18
48
1
60
0
100
AcDbSpline
70
4
71
3
72
41
73
37
40
0
40
0
40
0
40
0
40
0.0491515292579723
40
0.0491515292579723
40
0.122293719315058
40
0.122293719315058
40
0.158864814343599
40
0.17715036185787
40
0.17715036185787
40
0.195435909372142
40
0.195435909372142
40
0.26857809942922
40
0.26857809942922
40
0.341720289486299
40
0.341720289486299
40
0.414862479543379
40
0.414862479543379
40
0.451433574571918
40
0.451433574571918
40
0.488004669600458
40
0.488004669600458
40
0.561146859657536
40
0.561146859657536
40
0.634289049714616
40
0.634289049714616
40
0.707431239771695
40
0.707431239771695
40
0.744002334800233
40
0.744002334800233
40
0.780573429828772
40
0.780573429828772
40
0.853715619885848
40
0.853715619885848
40
0.926857809942924
40
0.926857809942924
40
1
40
1
40
1
40
1
41
1
10
18.0405033496396
20
-2.87658326126413
30
0
41
1
10
17.9023103479489
20
-2.92826911021882
30
0
41
1
10
17.7639860358725
20
-2.97823745276105
30
0
41
1
10
17.419421316043
20
-3.09818798753247
30
0
41
1
10
17.2131216663602
20
-3.16617966412051
30
0
41
1
10
16.9027074441659
20
-3.26175456487769
30
0
41
1
10
16.7472735529991
20
-3.30795686347625
30
0
41
1
10
16.5914319868283
20
-3.35169902472353
30
0
41
1
10
16.4874394278101
20
-3.38030481324265
30
0
41
1
10
16.4353690709529
20
-3.39433607691316
30
0
41
1
10
16.1750488761549
20
-3.46300977941118
30
0
41
1
10
15.967467560369
20
-3.5130349040208
30
0
41
1
10
15.5537297693762
20
-3.60348528883091
30
0
41
1
10
15.3474276663449
20
-3.64378485692748
30
0
41
1
10
14.9354272687739
20
-3.71434602952806
30
0
41
1
10
14.7297217673238
20
-3.74460868246058
30
0
41
1
10
14.4213530202168
20
-3.78244579304331
30
0
41
1
10
14.318590908059
20
-3.7937983467944
30
0
41
1
10
14.1131980986555
20
-3.81400743829511
30
0
41
1
10
14.0105496882206
20
-3.82285523584937
30
0
41
1
10
13.7025351669963
20
-3.84556226919165
30
0
41
1
10
13.497140916464
20
-3.8555980407989
30
0
41
1
10
13.0857840246754
20
-3.86538957450696
30
0
41
1
10
12.8797889260086
20
-3.86515301281378
30
0
41
1
10
12.4670798366221
20
-3.85433668006505
30
0
41
1
10
12.2604644189569
20
-3.8437267010882
30
0
41
1
10
11.9494740692703
20
-3.81997598457994
30
0
41
1
10
11.8456392985782
20
-3.81075515985324
30
0
41
1
10
11.6375825840049
20
-3.78970064101787
30
0
41
1
10
11.5333039050898
20
-3.77785819669219
30
0
41
1
10
11.2208863202403
20
-3.73854153903935
30
0
41
1
10
11.0129223181225
20
-3.70722530521383
30
0
41
1
10
10.5972877256425
20
-3.63454083378758
30
0
41
1
10
10.389565440245
20
-3.59319142153879
30
0
41
1
10
9.97358849257341
20
-3.50097899560075
30
0
41
1
10
9.76537119831994
20
-3.45009918132135
30
0
41
1
10
9.55675417673987
20
-3.39458655974582
30
0
0
SPLINE
5
10F
100
AcDbEntity
8
1
62
256
6
ByLayer
370
18
48
1
60
0
100
AcDbSpline
70
4
71
3
72
20
73
16
40
0
40
0
40
0
40
0
40
0.0087039687927635
40
0.0087039687927635
40
0.017407937741866
40
0.017407937741866
40
0.0522239626621343
40
0.0522239626621343
40
0.191497268834686
40
0.191497268834686
40
0.470092866972577
40
0.470092866972577
40
0.748681859691556
40
0.748681859691556
40
1
40
1
40
1
40
1
41
1
10
8.82602337507106
20
1.37136494265491
30
0
41
1
10
8.82604375684457
20
1.37137593103427
30
0
41
1
10
8.8260641443064
20
1.37138691017628
30
0
41
1
10
8.8261049311109
20
1.37140884910249
30
0
41
1
10
8.82612533046046
20
1.37141980888703
30
0
41
1
10
8.82622735834263
20
1.37147455734777
30
0
41
1
10
8.82630909356209
20
1.37151817209423
30
0
41
1
10
8.82671813485214
20
1.37173566485299
30
0
41
1
10
8.82704699988778
20
1.37190699662094
30
0
41
1
10
8.82803777880511
20
1.37241387312795
30
0
41
1
10
8.82870413602873
20
1.37274200358669
30
0
41
1
10
8.83004686716535
20
1.37337937214323
30
0
41
1
10
8.83072337828233
20
1.3736887082427
30
0
41
1
10
8.8320186542127
20
1.37425995928425
30
0
41
1
10
8.83263669410653
20
1.3745236052799
30
0
41
1
10
8.83325799297742
20
1.37478021784622
30
0
0
SPLINE
5
110
100
AcDbEntity
8
1
62
256
6
ByLayer
370
18
48
1
60
0
100
AcDbSpline
70
4
71
3
72
14
73
10
40
0
40
0
40
0
40
0
40
0.0300274026644137
40
0.0300274026644137
40
0.272520547912347
40
0.272520547912347
40
0.75750685477068
40
0.75750685477068
40
1
40
1
40
1
40
1
41
1
10
8.93440425172724
20
1.37749566493667
30
0
41
1
10
8.93451176368151
20
1.37746676062295
30
0
41
1
10
8.93461927524416
20
1.37743785490528
30
0
41
1
10
8.93559501728816
20
1.37717550166411
30
0
41
1
10
8.93646322252465
20
1.37694196366314
30
0
41
1
10
8.93906776123043
20
1.3762410738608
30
0
41
1
10
8.94080401789449
20
1.37577344679909
30
0
41
1
10
8.94340824843417
20
1.37507145410942
30
0
41
1
10
8.94427629966285
20
1.37483736490793
30
0
41
1
10
8.94514432514822
20
1.37460318371223
30
0
0
SPLINE
5
111
100
AcDbEntity
8
1
62
256
6
ByLayer
370
18
48
1
60
0
100
AcDbSpline
70
4
71
3
72
42
73
38
40
0
40
0
40
0
40
0
40
0.110944697352133
40
0.110944697352133
40
0.221889394704267
40
0.221889394704267
40
0.277361743380333
40
0.277361743380333
40
0.332834092056399
40
0.332834092056399
40
0.388306440732465
40
0.388306440732465
40
0.402174527901481
40
0.402174527901481
40
0.416042615070497
40
0.416042615070497
40
0.443778789408529
40
0.443778789408529
40
0.499251138084594
40
0.499251138084594
40
0.554723486760658
40
0.554723486760658
40
0.610195835436723
40
0.610195835436723
40
0.665668184112787
40
0.665668184112787
40
0.776612881464916
40
0.776612881464916
40
0.804349055802948
40
0.804349055802948
40
0.83208523014098
40
0.83208523014098
40
0.887557578817042
40
0.887557578817042
40
0.998502276169167
40
0.998502276169167
40
1
40
1
40
1
40
1
41
1
10
12.5662129052509
20
-0.166792550197954
30
0
41
1
10
12.9597210371693
20
-0.386544656211498
30
0
41
1
10
13.3508315366919
20
-0.604079578605138
30
0
41
1
10
14.130770071857
20
-1.03042632713746
30
0
41
1
10
14.5195856179591
20
-1.23925467319549
30
0
41
1
10
15.1031428106386
20
-1.54244258079729
30
0
41
1
10
15.2977092325356
20
-1.64184425984885
30
0
41
1
10
15.6872587049226
20
-1.83677622096923
30
0
41
1
10
15.8822047523463
20
-1.93236579797292
30
0
41
1
10
16.2728946767831
20
-2.11902692255231
30
0
41
1
10
16.4686336917772
20
-2.21010765626772
30
0
41
1
10
16.7139850864261
20
-2.32083028339122
30
0
41
1
10
16.7630894160492
20
-2.34281811345107
30
0
41
1
10
16.8613713023582
20
-2.38647165725868
30
0
41
1
10
16.910561129254
20
-2.40814254372364
30
0
41
1
10
17.0579482644827
20
-2.47252800745912
30
0
41
1
10
17.1560600817071
20
-2.51465388568911
30
0
41
1
10
17.4499893766746
20
-2.638613550814
30
0
41
1
10
17.6454055082588
20
-2.71801900162325
30
0
41
1
10
18.0356169405099
20
-2.86985196508468
30
0
41
1
10
18.2303966698757
20
-2.94230265919734
30
0
41
1
10
18.6195970724383
20
-3.07997735183613
30
0
41
1
10
18.8140308824356
20
-3.14518738006575
30
0
41
1
10
19.2028049878551
20
-3.26810039875016
30
0
41
1
10
19.3971804527724
20
-3.32576491200442
30
0
41
1
10
19.9808244104058
20
-3.48683448345727
30
0
41
1
10
20.3705606569044
20
-3.5783726194118
30
0
41
1
10
20.8600423460345
20
-3.67141180409772
30
0
41
1
10
20.9580623747704
20
-3.68894469209169
30
0
41
1
10
21.1543954510005
20
-3.72181777767898
30
0
41
1
10
21.252747501409
20
-3.73716154909445
30
0
41
1
10
21.5473639764638
20
-3.77972112875889
30
0
41
1
10
21.7434783562909
20
-3.80351985210496
30
0
41
1
10
22.3314262257505
20
-3.86108470267612
30
0
41
1
10
22.7228043866631
20
-3.88102094308169
30
0
41
1
10
23.1203847391758
20
-3.88222896891779
30
0
41
1
10
23.1256806299202
20
-3.88224164673949
30
0
41
1
10
23.1309766769452
20
-3.88225091090629
30
0
0
SPLINE
5
112
100
AcDbEntity
8
1
62
256
6
ByLayer
370
18
48
1
60
0
100
AcDbSpline
70
4
71
3
72
43
73
39
40
0
40
0
40
0
40
0
40
0.0316149456858938
40
0.0316149456858938
40
0.0885787724102592
40
0.0885787724102592
40
0.20250642585899
40
0.20250642585899
40
0.259470252583355
40
0.259470252583355
40
0.273711209264445
40
0.273711209264445
40
0.287952165945536
40
0.287952165945536
40
0.316434079307717
40
0.316434079307717
40
0.373397906032076
40
0.373397906032076
40
0.430361732756436
40
0.430361732756436
40
0.544289386205153
40
0.544289386205153
40
0.658217039653871
40
0.658217039653871
40
0.715180866378229
40
0.715180866378229
40
0.743662779740408
40
0.743662779740408
40
0.772144693102586
40
0.772144693102586
40
0.829108519826941
40
0.829108519826941
40
0.886072346551295
40
0.886072346551295
40
0.943036173275649
40
0.971518086637825
40
0.971518086637825
40
1
40
1
40
1
40
1
41
1
10
39.753961824395
20
2.89489850615101
30
0
41
1
10
39.8613907032326
20
2.93591312957051
30
0
41
1
10
39.9687773183646
20
2.97587045245354
30
0
41
1
10
40.2696117123263
20
3.0847730153825
30
0
41
1
10
40.4629963431918
20
3.15130519636628
30
0
41
1
10
41.0435469507002
20
3.33968142274381
30
0
41
1
10
41.4311046992446
20
3.45032446104074
30
0
41
1
10
42.0150627537353
20
3.59180406379065
30
0
41
1
10
42.2101303043884
20
3.63489598630477
30
0
41
1
10
42.4547725412226
20
3.68338403789517
30
0
41
1
10
42.503740613728
20
3.69281347035138
30
0
41
1
10
42.6017612794518
20
3.71113029085765
30
0
41
1
10
42.6508020548414
20
3.72001516585774
30
0
41
1
10
42.7977186501627
20
3.7457925901418
30
0
41
1
10
42.8954985408114
20
3.76182887689876
30
0
41
1
10
43.1884070606532
20
3.80649186277742
30
0
41
1
10
43.3831139061036
20
3.83166984778038
30
0
41
1
10
43.7716637330508
20
3.87284768679686
30
0
41
1
10
43.9655233205226
20
3.88883831917508
30
0
41
1
10
44.5464563948546
20
3.92299784586237
30
0
41
1
10
44.9328415745822
20
3.92738173876478
30
0
41
1
10
45.7061394207377
20
3.89938287551118
30
0
41
1
10
46.0931953424244
20
3.86701056611807
30
0
41
1
10
46.6762687895724
20
3.79096287158384
30
0
41
1
10
46.8710345142287
20
3.76102768474922
30
0
41
1
10
47.1640473327046
20
3.70924870381822
30
0
41
1
10
47.2618683427435
20
3.69084652068625
30
0
41
1
10
47.4578556642368
20
3.65176234271357
30
0
41
1
10
47.5558172843579
20
3.63112103679453
30
0
41
1
10
47.849427278363
20
3.5659975678312
30
0
41
1
10
48.0449002458064
20
3.51829463928732
30
0
41
1
10
48.4356466772639
20
3.41461008133297
30
0
41
1
10
48.6308968135776
20
3.35860732192356
30
0
41
1
10
49.0215617320867
20
3.23863995382371
30
0
41
1
10
49.3146975040817
20
3.14270951599582
30
0
41
1
10
49.6083851502746
20
3.03815896712635
30
0
41
1
10
49.8043411445956
20
2.96657939915323
30
0
41
1
10
49.9022811981857
20
2.92989486271262
30
0
41
1
10
50.0001285270197
20
2.89236863144416
30
0
0
SPLINE
5
113
100
AcDbEntity
8
1
62
256
6
ByLayer
370
18
48
1
60
0
100
AcDbSpline
70
4
71
3
72
59
73
55
40
0
40
0
40
0
40
0
40
0.0179946731139638
40
0.0179946731139638
40
0.0359893462279275
40
0.0359893462279275
40
0.071978692455855
40
0.071978692455855
40
0.107968038683783
40
0.107968038683783
40
0.125962711797746
40
0.125962711797746
40
0.14395738491171
40
0.215936077367569
40
0.215936077367569
40
0.251925423595499
40
0.251925423595499
40
0.260922760152482
40
0.260922760152482
40
0.269920096709464
40
0.287914769823427
40
0.287914769823427
40
0.359893462279276
40
0.359893462279276
40
0.431872154735126
40
0.431872154735126
40
0.503850847190975
40
0.503850847190975
40
0.539840193418898
40
0.539840193418898
40
0.575829539646822
40
0.575829539646822
40
0.647808232102669
40
0.647808232102669
40
0.66580290521663
40
0.66580290521663
40
0.68379757833059
40
0.68379757833059
40
0.719786924558509
40
0.737781597672469
40
0.737781597672469
40
0.755776270786428
40
0.755776270786428
40
0.791765617014349
40
0.791765617014349
40
0.863744309470191
40
0.863744309470191
40
0.88173898258415
40
0.88173898258415
40
0.899733655698109
40
0.899733655698109
40
0.935723001926029
40
0.935723001926029
40
1
40
1
40
1
40
1
41
1
10
50.0001285270201
20
2.93861711048629
30
0
41
1
10
50.1010374249353
20
2.90074166341816
30
0
41
1
10
50.2019385851197
20
2.8619373098731
30
0
41
1
10
50.4035886980193
20
2.7826056696411
30
0
41
1
10
50.5043645043357
20
2.74206894190951
30
0
41
1
10
50.8066098344533
20
2.61793691503769
30
0
41
1
10
51.007992584815
20
2.53181452578059
30
0
41
1
10
51.4108447765237
20
2.35325831801004
30
0
41
1
10
51.612314340908
20
2.2608240384362
30
0
41
1
10
51.9148505375206
20
2.11778872644337
30
0
41
1
10
52.0157774807987
20
2.06936671203917
30
0
41
1
10
52.2173640099402
20
1.97133553600975
30
0
41
1
10
52.7209124583398
20
1.72317373865863
30
0
41
1
10
53.2229856447833
20
1.46056538363968
30
0
41
1
10
53.8264419824563
20
1.13544063453969
30
0
41
1
10
54.0277527627801
20
1.02539628545759
30
0
41
1
10
54.2798331747292
20
0.886154773939751
30
0
41
1
10
54.330280028381
20
0.858217338467057
30
0
41
1
10
54.431045415051
20
0.802283519179895
30
0
41
1
10
54.5820656610005
20
0.718258618400284
30
0
41
1
10
54.7327306205333
20
0.633911547614076
30
0
41
1
10
55.2342775573581
20
0.352252297306308
30
0
41
1
10
55.6333594648491
20
0.125292042693729
30
0
41
1
10
56.4298503046683
20
-0.327196390683696
30
0
41
1
10
56.8272520318901
20
-0.55273622094316
30
0
41
1
10
57.6231688977118
20
-0.997400006534349
30
0
41
1
10
58.02169151128
20
-1.2165089854781
30
0
41
1
10
58.6226961034121
20
-1.53611627880486
30
0
41
1
10
58.8235697576962
20
-1.64113950810165
30
0
41
1
10
59.2267994887871
20
-1.84744525473414
30
0
41
1
10
59.4281432092788
20
-1.94819532065995
30
0
41
1
10
60.0315680194401
20
-2.24239684648757
30
0
41
1
10
60.4331350481241
20
-2.42792467593944
30
0
41
1
10
60.9359086331593
20
-2.64409812391435
30
0
41
1
10
61.0365052836187
20
-2.6865440109155
30
0
41
1
10
61.2378296934805
20
-2.76978942085861
30
0
41
1
10
61.3385922711157
20
-2.81060264694506
30
0
41
1
10
61.6409047350257
20
-2.93037038286403
30
0
41
1
10
61.9429367008478
20
-3.04466711198455
30
0
41
1
10
62.2449924459725
20
-3.15024854883296
30
0
41
1
10
62.4464179559181
20
-3.21864376391099
30
0
41
1
10
62.5472028620476
20
-3.25185916100446
30
0
41
1
10
62.8493411095541
20
-3.34831661772299
30
0
41
1
10
63.0504322112604
20
-3.40835878429075
30
0
41
1
10
63.6532777622332
20
-3.57526708726098
30
0
41
1
10
64.0546087895119
20
-3.66891947897921
30
0
41
1
10
64.5573164406791
20
-3.76263484022087
30
0
41
1
10
64.6579109177838
20
-3.78020949787228
30
0
41
1
10
64.8592540225857
20
-3.81298536898896
30
0
41
1
10
64.9600326588693
20
-3.82818930612586
30
0
41
1
10
65.2619670273009
20
-3.87009568562607
30
0
41
1
10
65.4629417923047
20
-3.89313117176675
30
0
41
1
10
66.0225445859766
20
-3.94354396936689
30
0
41
1
10
66.3809419204176
20
-3.96010882371721
30
0
41
1
10
66.7399821645839
20
-3.96074740412254
30
0
0
SPLINE
5
114
100
AcDbEntity
8
1
62
256
6
ByLayer
370
18
48
1
60
0
100
AcDbSpline
70
4
71
3
72
19
73
15
40
0
40
0
40
0
40
0
40
0.0816209331249663
40
0.0816209331249663
40
0.311215699843725
40
0.311215699843725
40
0.426013083203104
40
0.483411774882794
40
0.483411774882794
40
0.540810466562483
40
0.540810466562483
40
0.770405233281242
40
0.770405233281242
40
1
40
1
40
1
40
1
41
1
10
83.2630902590164
20
2.89947341493342
30
0
41
1
10
83.4041098100751
20
2.95544673583251
30
0
41
1
10
83.5450762180483
20
3.0096099649758
30
0
41
1
10
84.0826108643039
20
3.2089482684452
30
0
41
1
10
84.4792320311443
20
3.3411144096502
30
0
41
1
10
85.0764857250872
20
3.51443089389161
30
0
41
1
10
85.3756960651548
20
3.59485391388532
30
0
41
1
10
85.6762159164868
20
3.66543259468267
30
0
41
1
10
85.8769020426063
20
3.71024312751211
30
0
41
1
10
85.9774932371805
20
3.7315414739081
30
0
41
1
10
86.4796009324207
20
3.83194535650978
30
0
41
1
10
86.8796801416937
20
3.89306880506348
30
0
41
1
10
87.6793647765014
20
3.97611985319767
30
0
41
1
10
88.078969842295
20
3.9980284704352
30
0
41
1
10
88.4798983012717
20
3.99983507015912
30
0
0
SPLINE
5
115
100
AcDbEntity
8
1
62
256
6
ByLayer
370
18
48
1
60
0
100
AcDbSpline
70
4
71
3
72
50
73
46
40
0
40
0
40
0
40
0
40
0.0822528829918004
40
0.0822528829918004
40
0.10849822387684
40
0.10849822387684
40
0.13474356476188
40
0.13474356476188
40
0.187234246531957
40
0.187234246531957
40
0.239724928302034
40
0.239724928302034
40
0.29221561007211
40
0.29221561007211
40
0.31846095095715
40
0.31846095095715
40
0.34470629184219
40
0.34470629184219
40
0.397196973612267
40
0.397196973612267
40
0.423442314497306
40
0.423442314497306
40
0.449687655382346
40
0.449687655382346
40
0.502178337152426
40
0.502178337152426
40
0.554669018922506
40
0.554669018922506
40
0.607159700692585
40
0.607159700692585
40
0.659650382462665
40
0.659650382462665
40
0.712141064232745
40
0.712141064232745
40
0.738386405117784
40
0.738386405117784
40
0.764631746002824
40
0.764631746002824
40
0.817122427772904
40
0.817122427772904
40
0.869613109542983
40
0.869613109542983
40
0.922103791313063
40
0.922103791313063
40
1
40
1
40
1
40
1
41
1
10
66.6764610445132
20
-0.293689520652606
30
0
41
1
10
66.362034490433
20
-0.121750478982875
30
0
41
1
10
66.0483910554881
20
0.0501034656014383
30
0
41
1
10
65.6356369060943
20
0.276312366084625
30
0
41
1
10
65.5358666117823
20
0.330993486466895
30
0
41
1
10
65.3365028768391
20
0.440297787248454
30
0
41
1
10
65.2369228610033
20
0.494939571900147
30
0
41
1
10
64.9380545550464
20
0.658181767802517
30
0
41
1
10
64.7385729121444
20
0.766005841780071
30
0
41
1
10
64.3391589329668
20
0.979538904803292
30
0
41
1
10
64.1392422869915
20
1.08526944776636
30
0
41
1
10
63.7385682723627
20
1.29396554088532
30
0
41
1
10
63.537802003017
20
1.39691995144344
30
0
41
1
10
63.2359047004385
20
1.54898417611562
30
0
41
1
10
63.1350426565612
20
1.59933228487142
30
0
41
1
10
62.9337515889624
20
1.69878341216975
30
0
41
1
10
62.8332851249041
20
1.74790598407972
30
0
41
1
10
62.5323208314285
20
1.89334810712074
30
0
41
1
10
62.3322486784255
20
1.98773993450274
30
0
41
1
10
62.0328966809968
20
2.12506409972681
30
0
41
1
10
61.9332378143353
20
2.17012995330182
30
0
41
1
10
61.7341833196327
20
2.2587451869187
30
0
41
1
10
61.6348000977203
20
2.30228661502036
30
0
41
1
10
61.336654439107
20
2.43069117505226
30
0
41
1
10
61.1378320043946
20
2.51336026265992
30
0
41
1
10
60.74014764401
20
2.6723872333742
30
0
41
1
10
60.5412952369148
20
2.74874963044772
30
0
41
1
10
60.1434568321307
20
2.89458090703636
30
0
41
1
10
59.9444685711297
20
2.96406532583185
30
0
41
1
10
59.5463407886004
20
3.09503248783909
30
0
41
1
10
59.3472275590833
20
3.15646607388223
30
0
41
1
10
58.9478727628551
20
3.27187075772193
30
0
41
1
10
58.7476044738832
20
3.3258656640715
30
0
41
1
10
58.4462014604733
20
3.40097732749771
30
0
41
1
10
58.3455680798399
20
3.42503736316883
30
0
41
1
10
58.1439405621604
20
3.471078244484
30
0
41
1
10
58.0432062472329
20
3.49299817840827
30
0
41
1
10
57.7416236854226
20
3.55523353479501
30
0
41
1
10
57.5412339805521
20
3.59206008625685
30
0
41
1
10
57.1418071716087
20
3.65569473838795
30
0
41
1
10
56.9427822635964
20
3.6824851092305
30
0
41
1
10
56.544883053302
20
3.72749944207303
30
0
41
1
10
56.3459964455336
20
3.74573572045332
30
0
41
1
10
55.8521072022028
20
3.77983621221847
30
0
41
1
10
55.5571810311024
20
3.79029202274364
30
0
41
1
10
55.2621013575852
20
3.78990859728262
30
0
0
SPLINE
5
116
100
AcDbEntity
8
1
62
256
6
ByLayer
370
13
48
1
60
0
100
AcDbSpline
70
4
71
3
72
26
73
22
40
0
40
0
40
0
40
0
40
0.04750831738917
40
0.04750831738917
40
0.123153892370509
40
0.123153892370509
40
0.198799467351849
40
0.198799467351849
40
0.350090617314527
40
0.350090617314527
40
0.425736192295867
40
0.425736192295867
40
0.501381767277206
40
0.501381767277206
40
0.652672917239885
40
0.652672917239885
40
0.728318492221224
40
0.728318492221224
40
0.803964067202563
40
0.803964067202563
40
1
40
1
40
1
40
1
41
1
10
50.1005455465487
20
3.77905097803557
30
0
41
1
10
50.1005433518436
20
3.77904202433586
30
0
41
1
10
50.1005411705456
20
3.77857931480443
30
0
41
1
10
50.1005355473973
20
3.77620588136605
30
0
41
1
10
50.1005321238656
20
3.77359828503575
30
0
41
1
10
50.1005253239117
20
3.76607173032789
30
0
41
1
10
50.1005219444561
20
3.76114521117435
30
0
41
1
10
50.1005118973233
20
3.74295439134943
30
0
41
1
10
50.1005053096847
20
3.72628036050665
30
0
41
1
10
50.1004954771003
20
3.69448258754764
30
0
41
1
10
50.1004922075101
20
3.68275065880096
30
0
41
1
10
50.1004856619851
20
3.65700834200206
30
0
41
1
10
50.1004823847419
20
3.64298907471289
30
0
41
1
10
50.1004725537085
20
3.59770687214737
30
0
41
1
10
50.1004659862224
20
3.56317101062274
30
0
41
1
10
50.1004559586522
20
3.50486956333643
30
0
41
1
10
50.10045258657
20
3.48435132439565
30
0
41
1
10
50.1004457548957
20
3.44113207446259
30
0
41
1
10
50.1004422966772
20
3.41843742972699
30
0
41
1
10
50.100429732442
20
3.33344043574073
30
0
41
1
10
50.1004203725794
20
3.2654485223423
30
0
41
1
10
50.1004104544655
20
3.19076103753548
30
0
0
SPLINE
5
117
100
AcDbEntity
8
1
62
256
6
ByLayer
370
18
48
1
60
0
100
AcDbSpline
70
4
71
3
72
50
73
46
40
0
40
0
40
0
40
0
40
0.0019466278259177
40
0.0019466278259177
40
0.0545588213522123
40
0.0545588213522123
40
0.107171014878507
40
0.107171014878507
40
0.159783208404802
40
0.186089305167949
40
0.186089305167949
40
0.199242353549524
40
0.199242353549524
40
0.212395401931099
40
0.212395401931099
40
0.317619788983706
40
0.317619788983706
40
0.422844176036312
40
0.422844176036312
40
0.475456369562617
40
0.475456369562617
40
0.50176246632577
40
0.50176246632577
40
0.528068563088924
40
0.528068563088924
40
0.580680756615229
40
0.606986853378382
40
0.606986853378382
40
0.633292950141536
40
0.633292950141536
40
0.685905143667843
40
0.685905143667843
40
0.73851733719415
40
0.73851733719415
40
0.791129530720457
40
0.791129530720457
40
0.817435627483612
40
0.817435627483612
40
0.843741724246767
40
0.843741724246767
40
0.948966111299384
40
0.948966111299384
40
0.975272208062537
40
0.975272208062537
40
1
40
1
40
1
40
1
41
1
10
56.0987998870743
20
0.298298595936615
30
0
41
1
10
56.1061699653955
20
0.294274611914545
30
0
41
1
10
56.1135401109958
20
0.290249978514083
30
0
41
1
10
56.3201078915535
20
0.177432404726602
30
0
41
1
10
56.5193596961415
20
0.0681744566730629
30
0
41
1
10
56.9184487747698
20
-0.150366128304512
30
0
41
1
10
57.1182893748803
20
-0.259642283591973
30
0
41
1
10
57.5187679209115
20
-0.477854052897527
30
0
41
1
10
57.8197227116092
20
-0.641261776880384
30
0
41
1
10
58.1219757637543
20
-0.803532350502962
30
0
41
1
10
58.2733538896774
20
-0.884412273443331
30
0
41
1
10
58.3238672688586
20
-0.91133604153174
30
0
41
1
10
58.4247521708559
20
-0.964964618618694
30
0
41
1
10
58.4751514566072
20
-0.99168430057432
30
0
41
1
10
58.9283830048768
20
-1.23126686449589
30
0
41
1
10
59.3287267210932
20
-1.43779095862283
30
0
41
1
10
60.1271782739983
20
-1.83341156084671
30
0
41
1
10
60.5252539310335
20
-2.02258242287712
30
0
41
1
10
61.122658310999
20
-2.2903586087312
30
0
41
1
10
61.3218396494194
20
-2.37695237446246
30
0
41
1
10
61.6209270046802
20
-2.50238139245195
30
0
41
1
10
61.7206763403363
20
-2.54344830494907
30
0
41
1
10
61.9203455984942
20
-2.62405923853422
30
0
41
1
10
62.0202641444452
20
-2.66360202561785
30
0
41
1
10
62.320304959515
20
-2.77980791974559
30
0
41
1
10
62.6209196086615
20
-2.8911760269992
30
0
41
1
10
62.9228100612991
20
-2.99468729895497
30
0
41
1
10
63.1243994261934
20
-3.06189244103237
30
0
41
1
10
63.2254227953768
20
-3.09461219204636
30
0
41
1
10
63.5278084089935
20
-3.18959592028475
30
0
41
1
10
63.7288587919746
20
-3.24881366983399
30
0
41
1
10
64.1301543495491
20
-3.35870735219456
30
0
41
1
10
64.3304023392422
20
-3.40938948580629
30
0
41
1
10
64.7304858054978
20
-3.50206695478769
30
0
41
1
10
64.930319553008
20
-3.54405641610273
30
0
41
1
10
65.2300205855845
20
-3.60020471050473
30
0
41
1
10
65.3299155862647
20
-3.61778928652868
30
0
41
1
10
65.5297896782571
20
-3.65080869673432
30
0
41
1
10
65.6297638292642
20
-3.66623221545243
30
0
41
1
10
66.1297529595743
20
-3.73749651666242
30
0
41
1
10
66.5301586089612
20
-3.7759236232732
30
0
41
1
10
67.0330799060136
20
-3.8002297646178
30
0
41
1
10
67.1337859550743
20
-3.80390041099665
30
0
41
1
10
67.3294519472392
20
-3.80866714289007
30
0
41
1
10
67.4242756321592
20
-3.80990148410683
30
0
41
1
10
67.5190185336232
20
-3.81006262366239
30
0
0
SPLINE
5
118
100
AcDbEntity
8
1
62
256
6
ByLayer
370
18
48
1
60
0
100
AcDbSpline
70
4
71
3
72
8
73
4
40
0
40
0
40
0
40
0
40
1
40
1
40
1
40
1
41
1
10
88.5058845580731
20
-0.340491495097382
30
0
41
1
10
88.4894711539953
20
-0.331383141492267
30
0
41
1
10
88.4730614792268
20
-0.322274881215208
30
0
41
1
10
88.4566554433848
20
-0.313166878448669
30
0
0
SPLINE
5
119
100
AcDbEntity
8
1
62
256
6
ByLayer
370
18
48
1
60
0
100
AcDbSpline
70
4
71
3
72
52
73
48
40
0
40
0
40
0
40
0
40
0.0979878803909427
40
0.0979878803909427
40
0.150387797776216
40
0.150387797776216
40
0.202787715161489
40
0.202787715161489
40
0.255187632546763
40
0.255187632546763
40
0.307587549932036
40
0.307587549932036
40
0.359987467317309
40
0.359987467317309
40
0.386187426009947
40
0.386187426009947
40
0.399287405356266
40
0.399287405356266
40
0.412387384702586
40
0.412387384702586
40
0.464787302087859
40
0.464787302087859
40
0.517187219473132
40
0.517187219473132
40
0.569587136858405
40
0.569587136858405
40
0.595787095551043
40
0.595787095551043
40
0.608887074897362
40
0.608887074897362
40
0.621987054243681
40
0.621987054243681
40
0.674386971628962
40
0.674386971628962
40
0.726786889014243
40
0.726786889014243
40
0.779186806399524
40
0.779186806399524
40
0.831586723784805
40
0.831586723784805
40
0.883986641170087
40
0.883986641170087
40
0.936386558555368
40
0.936386558555368
40
0.988786475940649
40
0.988786475940649
40
1
40
1
40
1
40
1
41
1
10
88.4278482946894
20
-0.297172483771476
30
0
41
1
10
88.0538037449489
20
-0.089471888684244
30
0
41
1
10
87.6816241825421
20
0.118044799546851
30
0
41
1
10
87.1116352857327
20
0.433262127218455
30
0
41
1
10
86.9132547572042
20
0.542478629951802
30
0
41
1
10
86.516758587344
20
0.75922599353359
30
0
41
1
10
86.3186521437873
20
0.86676538179637
30
0
41
1
10
85.9222665011238
20
1.07946318172341
30
0
41
1
10
85.7239764184858
20
1.18461093585253
30
0
41
1
10
85.326934361516
20
1.39194480954077
30
0
41
1
10
85.1281923803919
20
1.49413630856435
30
0
41
1
10
84.7298389853616
20
1.69491428993143
30
0
41
1
10
84.5302170865037
20
1.7934925951632
30
0
41
1
10
84.2298765410879
20
1.93819797389514
30
0
41
1
10
84.1296120226783
20
1.98590611928083
30
0
41
1
10
83.9789583200718
20
2.05662003419451
30
0
41
1
10
83.9286816509764
20
2.08005719716385
30
0
41
1
10
83.8282035593344
20
2.12656239018827
30
0
41
1
10
83.7779851523889
20
2.14963849479034
30
0
41
1
10
83.526985033693
20
2.26411741058786
30
0
41
1
10
83.3264739492177
20
2.35282652479941
30
0
41
1
10
82.9258246268782
20
2.52384152674389
30
0
41
1
10
82.7257196882136
20
2.60610972623917
30
0
41
1
10
82.3252333628973
20
2.76403887173518
30
0
41
1
10
82.1248130313694
20
2.83973116997282
30
0
41
1
10
81.8237304712833
20
2.94795566740461
30
0
41
1
10
81.7232958471133
20
2.98314339499007
30
0
41
1
10
81.5725134999891
20
3.03453972330291
30
0
41
1
10
81.5222185308505
20
3.05144488272003
30
0
41
1
10
81.4217515489747
20
3.08472882691584
30
0
41
1
10
81.3715603632204
20
3.10111427112435
30
0
41
1
10
81.1208106091792
20
3.18174475879596
30
0
41
1
10
80.9208716881141
20
3.2421163279077
30
0
41
1
10
80.5221650509218
20
3.35395560544569
30
0
41
1
10
80.3234428322131
20
3.40534155967688
30
0
41
1
10
79.9262709975224
20
3.49983965170921
30
0
41
1
10
79.7277512435243
20
3.5430578690943
30
0
41
1
10
79.3309641579848
20
3.62048596193622
30
0
41
1
10
79.1327514066963
20
3.65459892071928
30
0
41
1
10
78.7361012220956
20
3.71402789540716
30
0
41
1
10
78.5376203401588
20
3.73944517084354
30
0
41
1
10
78.1403312535693
20
3.78057586735977
30
0
41
1
10
77.9415722281817
20
3.7961415307251
30
0
41
1
10
77.5431306280841
20
3.81823777333671
30
0
41
1
10
77.3434000928916
20
3.82492695826454
30
0
41
1
10
77.1002466710071
20
3.82703183741313
30
0
41
1
10
77.0573600582664
20
3.82717048696287
30
0
41
1
10
77.0144467451853
20
3.82707914881095
30
0
0
SPLINE
5
11A
100
AcDbEntity
8
1
62
256
6
ByLayer
370
13
48
1
60
0
100
AcDbSpline
70
4
71
3
72
32
73
28
40
0
40
0
40
0
40
0
40
0.0585496014150515
40
0.0585496014150515
40
0.119794250999418
40
0.119794250999418
40
0.181038900583784
40
0.181038900583784
40
0.303528199752518
40
0.303528199752518
40
0.364772849336884
40
0.364772849336884
40
0.426017498921251
40
0.426017498921251
40
0.548506798089984
40
0.548506798089984
40
0.60975144767435
40
0.60975144767435
40
0.670996097258716
40
0.670996097258716
40
0.79348539642745
40
0.79348539642745
40
0.854730046011816
40
0.854730046011816
40
0.915974695596183
40
0.915974695596183
40
1
40
1
40
1
40
1
41
1
10
50.1007310187556
20
-2.89519935135442
30
0
41
1
10
50.1007278059024
20
-2.92831273311535
30
0
41
1
10
50.1007245077388
20
-2.96060491162911
30
0
41
1
10
50.1007176087444
20
-3.02499990759839
30
0
41
1
10
50.1007140006478
20
-3.05702435645108
30
0
41
1
10
50.1007066454091
20
-3.11926855012382
30
0
41
1
10
50.1007029067593
20
-3.14941534350916
30
0
41
1
10
50.1006915569555
20
-3.23682861710307
30
0
41
1
10
50.1006838067949
20
-3.29112725403189
30
0
41
1
10
50.100672020468
20
-3.36661122358362
30
0
41
1
10
50.1006680634822
20
-3.39078334491606
30
0
41
1
10
50.100660115131
20
-3.43709528379333
30
0
41
1
10
50.1006561364786
20
-3.45916176739314
30
0
41
1
10
50.10064420759
20
-3.52212120446171
30
0
41
1
10
50.1006362655898
20
-3.55977999990512
30
0
41
1
10
50.1006244283119
20
-3.60980332148122
30
0
41
1
10
50.100620494876
20
-3.62539881796653
30
0
41
1
10
50.1006126591301
20
-3.65441514615688
30
0
41
1
10
50.1006087611972
20
-3.66781702879015
30
0
41
1
10
50.1005971793611
20
-3.70456031060866
30
0
41
1
10
50.1005895902756
20
-3.72451460469614
30
0
41
1
10
50.1005784026786
20
-3.74766530154991
30
0
41
1
10
50.1005747058745
20
-3.75425053189048
30
0
41
1
10
50.1005673733343
20
-3.76514418891634
30
0
41
1
10
50.1005637331531
20
-3.76945528706764
30
0
41
1
10
50.100555199281
20
-3.77692471738357
30
0
41
1
10
50.1005503409254
20
-3.77907053705877
30
0
41
1
10
50.1005455465504
20
-3.77905097804248
30
0
0
SPLINE
5
11B
100
AcDbEntity
8
1
62
256
6
ByLayer
370
18
48
1
60
0
100
AcDbSpline
70
4
71
3
72
8
73
4
40
0
40
0
40
0
40
0
40
1
40
1
40
1
40
1
41
1
10
67.427680037475
20
3.80957491315922
30
0
41
1
10
67.458132060907
20
3.80984830311812
30
0
41
1
10
67.4885789665272
20
3.81001084935511
30
0
41
1
10
67.5190175338833
20
3.81006262196198
30
0
0
SPLINE
5
11C
100
AcDbEntity
8
1
62
256
6
ByLayer
370
18
48
1
60
0
100
AcDbSpline
70
4
71
3
72
42
73
38
40
0
40
0
40
0
40
0
40
0.0434929190255144
40
0.0434929190255144
40
0.0997580414357764
40
0.0997580414357764
40
0.156023163846038
40
0.156023163846038
40
0.2122882862563
40
0.2122882862563
40
0.268553408666562
40
0.268553408666562
40
0.296685969871695
40
0.296685969871695
40
0.31075225047426
40
0.31075225047426
40
0.324818531076824
40
0.324818531076824
40
0.437348775897355
40
0.437348775897355
40
0.49361389830762
40
0.49361389830762
40
0.549879020717885
40
0.549879020717885
40
0.662409265538415
40
0.662409265538415
40
0.71867438794868
40
0.71867438794868
40
0.746806949153812
40
0.746806949153812
40
0.774939510358942
40
0.774939510358942
40
0.831204632769208
40
0.831204632769208
40
0.887469755179473
40
0.887469755179473
40
1
40
1
40
1
40
1
41
1
10
77.8941425344136
20
0.276128089820105
30
0
41
1
10
78.0478932855543
20
0.191344979318302
30
0
41
1
10
78.2015115831549
20
0.106415221795544
30
0
41
1
10
78.553708939951
20
-0.0884395819480801
30
0
41
1
10
78.7522521746142
20
-0.198365022202864
30
0
41
1
10
79.1495246353174
20
-0.417545233513465
30
0
41
1
10
79.3482458780142
20
-0.526814862462317
30
0
41
1
10
79.7461569756665
20
-0.744161923494971
30
0
41
1
10
79.9453540316203
20
-0.852226204976148
30
0
41
1
10
80.3446287174377
20
-1.06640235013575
30
0
41
1
10
80.5446986930527
20
-1.172528472826
30
0
41
1
10
80.8456831308186
20
-1.32984986966744
30
0
41
1
10
80.946158881685
20
-1.38197713364738
30
0
41
1
10
81.0971292157405
20
-1.45963306757122
30
0
41
1
10
81.1475247513496
20
-1.48544407255852
30
0
41
1
10
81.2482072556388
20
-1.53677485693956
30
0
41
1
10
81.2985037141113
20
-1.56229961367535
30
0
41
1
10
81.7507946500473
20
-1.79072025192158
30
0
41
1
10
82.1501573509504
20
-1.98449653519418
30
0
41
1
10
82.7472917954607
20
-2.25825398984682
30
0
41
1
10
82.9460214169122
20
-2.34669726410309
30
0
41
1
10
83.3432206618262
20
-2.51753551621769
30
0
41
1
10
83.5416863767783
20
-2.59992490911571
30
0
41
1
10
84.1371576102512
20
-2.83725368948086
30
0
41
1
10
84.5342420701843
20
-2.98237384071661
30
0
41
1
10
85.1320039815105
20
-3.17763502452567
30
0
41
1
10
85.3316218371155
20
-3.23899228748499
30
0
41
1
10
85.631904345333
20
-3.32512052058544
30
0
41
1
10
85.7321390494999
20
-3.35284286098371
30
0
41
1
10
85.9329238232894
20
-3.40623985549868
30
0
41
1
10
86.0335224271143
20
-3.43192535426061
30
0
41
1
10
86.3355259013034
20
-3.50572676918699
30
0
41
1
10
86.5364426435196
20
-3.55043410316145
30
0
41
1
10
86.9379641556501
20
-3.63086038575437
30
0
41
1
10
87.1385542587997
20
-3.66656138615227
30
0
41
1
10
87.740151374841
20
-3.75962883468205
30
0
41
1
10
88.1410123101429
20
-3.80300015209323
30
0
41
1
10
88.5429800490868
20
-3.82689490551869
30
0
0
SPLINE
5
11D
100
AcDbEntity
8
1
62
256
6
ByLayer
370
18
48
1
60
0
100
AcDbSpline
70
4
71
3
72
48
73
44
40
0
40
0
40
0
40
0
40
0.0625000000000015
40
0.0625000000000015
40
0.0937500000000019
40
0.109375000000002
40
0.109375000000002
40
0.125000000000002
40
0.125000000000002
40
0.187500000000001
40
0.250000000000001
40
0.3125
40
0.3125
40
0.34375
40
0.34375
40
0.375
40
0.375
40
0.437499999999999
40
0.437499999999999
40
0.468749999999999
40
0.468749999999999
40
0.499999999999999
40
0.499999999999999
40
0.562499999999998
40
0.562499999999998
40
0.593749999999998
40
0.593749999999998
40
0.624999999999998
40
0.624999999999998
40
0.687499999999998
40
0.687499999999998
40
0.718749999999998
40
0.718749999999998
40
0.749999999999998
40
0.749999999999998
40
0.812499999999999
40
0.812499999999999
40
0.843749999999999
40
0.843749999999999
40
0.874999999999999
40
0.874999999999999
40
0.9375
40
1
40
1
40
1
40
1
41
1
10
88.5058845580969
20
-0.340491495099485
30
0
41
1
10
88.4933277692375
20
-0.450411679445864
30
0
41
1
10
88.4823592453335
20
-0.559682599698988
30
0
41
1
10
88.4679017569609
20
-0.722582744810524
30
0
41
1
10
88.4611728523553
20
-0.80378097248115
30
0
41
1
10
88.4551296193985
20
-0.884592673016272
30
0
41
1
10
88.4512465866244
20
-0.938380074082801
30
0
41
1
10
88.4493771695226
20
-0.965243490946705
30
0
41
1
10
88.440409910339
20
-1.09885252415432
30
0
41
1
10
88.4284275672502
20
-1.30883277672993
30
0
41
1
10
88.4160818648071
20
-1.61267106715505
30
0
41
1
10
88.4108462939912
20
-1.80781838360167
30
0
41
1
10
88.4078307867877
20
-1.95134463885592
30
0
41
1
10
88.4069782011504
20
-1.99871373512263
30
0
41
1
10
88.4055514602778
20
-2.09248893434997
30
0
41
1
10
88.4049772625752
20
-2.13894112918533
30
0
41
1
10
88.4036477956966
20
-2.27585717113024
30
0
41
1
10
88.4032763537551
20
-2.36419137970617
30
0
41
1
10
88.4033780499482
20
-2.4922941982953
30
0
41
1
10
88.4035226342107
20
-2.53426103703868
30
0
41
1
10
88.4040246538433
20
-2.61671689128443
30
0
41
1
10
88.4043821951871
20
-2.65717596368165
30
0
41
1
10
88.4057626857213
20
-2.7757686681413
30
0
41
1
10
88.4070909747446
20
-2.85130919559847
30
0
41
1
10
88.4097221165268
20
-2.95934773350314
30
0
41
1
10
88.4107064798245
20
-2.99448064485807
30
0
41
1
10
88.4129048779467
20
-3.06297332481921
30
0
41
1
10
88.4141158389779
20
-3.09623349168254
30
0
41
1
10
88.4181063116634
20
-3.19297380394272
30
0
41
1
10
88.4212414883711
20
-3.25346544118264
30
0
41
1
10
88.4268194899452
20
-3.3381985998505
30
0
41
1
10
88.4288273695397
20
-3.36546259250534
30
0
41
1
10
88.4331658582692
20
-3.41786991913375
30
0
41
1
10
88.435492524916
20
-3.44297043759724
30
0
41
1
10
88.4430006140608
20
-3.51498711465536
30
0
41
1
10
88.4487069138886
20
-3.55862431715889
30
0
41
1
10
88.4585963766713
20
-3.61750900166558
30
0
41
1
10
88.462121158485
20
-3.63606514419629
30
0
41
1
10
88.4696366464539
20
-3.6708098556152
30
0
41
1
10
88.4736269330135
20
-3.6870051739721
30
0
41
1
10
88.4863687952497
20
-3.73210239305877
30
0
41
1
10
88.5054095300912
20
-3.78294056169102
30
0
41
1
10
88.5294461206496
20
-3.81535197131339
30
0
41
1
10
88.5429800480599
20
-3.82689490552744
30
0
0
SPLINE
5
11E
100
AcDbEntity
8
1
62
256
6
ByLayer
370
18
48
1
60
0
100
AcDbSpline
70
4
71
3
72
18
73
14
40
0
40
0
40
0
40
0
40
0.250000000000003
40
0.250000000000003
40
0.375000000000001
40
0.375000000000001
40
0.5
40
0.5
40
0.624999999999999
40
0.624999999999999
40
0.749999999999998
40
0.749999999999998
40
1
40
1
40
1
40
1
41
1
10
8.94515141732677
20
1.37460127033887
30
0
41
1
10
9.26216765133179
20
1.28907450573621
30
0
41
1
10
9.57515955664724
20
1.19139123264455
30
0
41
1
10
10.0392811650939
20
1.02724165509417
30
0
41
1
10
10.1931477134133
20
0.969572378249893
30
0
41
1
10
10.4986031612317
20
0.848873849533248
30
0
41
1
10
10.6502680700568
20
0.785819833452564
30
0
41
1
10
10.9517000201936
20
0.654676912913033
30
0
41
1
10
11.1015051970331
20
0.586569962322955
30
0
41
1
10
11.399321096642
20
0.445870544653843
30
0
41
1
10
11.5471568120123
20
0.373363051278687
30
0
41
1
10
11.987939746956
20
0.150266482870592
30
0
41
1
10
12.2781521793759
20
-0.0059197029635527
30
0
41
1
10
12.5662129052509
20
-0.166792550197954
30
0
0
SPLINE
5
11F
100
AcDbEntity
8
1
62
256
6
ByLayer
370
18
48
1
60
0
100
AcDbSpline
70
4
71
3
72
14
73
10
40
0
40
0
40
0
40
0
40
0.25
40
0.25
40
0.5
40
0.5
40
0.75
40
0.75
40
1
40
1
40
1
40
1
41
1
10
8.83325799297936
20
1.37478021784224
30
0
41
1
10
8.84117957946211
20
1.37805203875175
30
0
41
1
10
8.84942858366622
20
1.38009252980936
30
0
41
1
10
8.86626950951947
20
1.3828861062984
30
0
41
1
10
8.87488767144609
20
1.38358299243004
30
0
41
1
10
8.89204218108384
20
1.38380694101477
30
0
41
1
10
8.90065852335329
20
1.38333477763538
30
0
41
1
10
8.91767781569646
20
1.38129638315553
30
0
41
1
10
8.92612614294572
20
1.37972121329636
30
0
41
1
10
8.93440425172781
20
1.37749566493889
30
0
0
SPLINE
5
120
100
AcDbEntity
8
1
62
256
6
ByLayer
370
18
48
1
60
0
100
AcDbSpline
70
4
71
5
72
12
73
6
40
0
40
0
40
0
40
0
40
0
40
0
40
1
40
1
40
1
40
1
40
1
40
1
41
1
10
16.2096120146369
20
-2.08483326639114
30
0
41
1
10
14.8568301293937
20
-2.36467596714885
30
0
41
1
10
13.5143232804163
20
-2.6389583177465
30
0
41
1
10
12.1830182116648
20
-2.90386357483004
30
0
41
1
10
10.8637000078365
20
-3.15630260341996
30
0
41
1
10
9.5567541767399
20
-3.39458655974582
30
0
0
SPLINE
5
121
100
AcDbEntity
8
1
62
256
6
ByLayer
370
18
48
1
60
0
100
AcDbSpline
70
4
71
3
72
76
73
72
40
0
40
0
40
0
40
0
40
0.0624999999999963
40
0.0624999999999963
40
0.124999999999993
40
0.124999999999993
40
0.187499999999989
40
0.187499999999989
40
0.249999999999985
40
0.249999999999985
40
0.281249999999982
40
0.281249999999982
40
0.296874999999981
40
0.296874999999981
40
0.31249999999998
40
0.31249999999998
40
0.343749999999976
40
0.343749999999976
40
0.374999999999973
40
0.374999999999973
40
0.390624999999972
40
0.390624999999972
40
0.406249999999972
40
0.406249999999972
40
0.437499999999972
40
0.437499999999972
40
0.468749999999972
40
0.468749999999972
40
0.476562499999972
40
0.476562499999972
40
0.484374999999973
40
0.484374999999973
40
0.499999999999973
40
0.499999999999973
40
0.531249999999973
40
0.531249999999973
40
0.539062499999974
40
0.539062499999974
40
0.546874999999974
40
0.546874999999974
40
0.562499999999975
40
0.562499999999975
40
0.593749999999976
40
0.593749999999976
40
0.609374999999977
40
0.609374999999977
40
0.617187499999977
40
0.617187499999977
40
0.624999999999977
40
0.624999999999977
40
0.656249999999979
40
0.656249999999979
40
0.671874999999979
40
0.671874999999979
40
0.68749999999998
40
0.68749999999998
40
0.718749999999981
40
0.718749999999981
40
0.749999999999982
40
0.749999999999982
40
0.765624999999983
40
0.765624999999983
40
0.781249999999984
40
0.781249999999984
40
0.812499999999987
40
0.812499999999987
40
0.874999999999991
40
0.874999999999991
40
0.937499999999996
40
0.937499999999996
40
1
40
1
40
1
40
1
41
1
10
9.55675417683278
20
-3.39458655977032
30
0
41
1
10
9.41533398419412
20
-3.3568521944656
30
0
41
1
10
9.27541788788554
20
-3.31612160852345
30
0
41
1
10
8.99897671558264
20
-3.22776945571516
30
0
41
1
10
8.86244928771052
20
-3.18015296612205
30
0
41
1
10
8.5933175912009
20
-3.07680779889353
30
0
41
1
10
8.46070887474926
20
-3.02108870262993
30
0
41
1
10
8.2001954242474
20
-2.89978013779404
30
0
41
1
10
8.07228131059364
20
-2.83421082768822
30
0
41
1
10
7.884855114684
20
-2.72642104822683
30
0
41
1
10
7.82312473296997
20
-2.68890946067842
30
0
41
1
10
7.73181893382221
20
-2.6298914623907
30
0
41
1
10
7.70164304417759
20
-2.60978647855086
30
0
41
1
10
7.64200028756352
20
-2.56875801912608
30
0
41
1
10
7.61251047019542
20
-2.54781986487896
30
0
41
1
10
7.52510252518618
20
-2.48364633813907
30
0
41
1
10
7.46824168567193
20
-2.43905728673116
30
0
41
1
10
7.35778449826427
20
-2.34569061924006
30
0
41
1
10
7.30418574714901
20
-2.29691606139377
30
0
41
1
10
7.2266873508209
20
-2.22002874099849
30
0
41
1
10
7.20134045352884
20
-2.19377228568914
30
0
41
1
10
7.15205062119776
20
-2.1402743693734
30
0
41
1
10
7.12806400703153
20
-2.1129909785831
30
0
41
1
10
7.05822519208198
20
-2.02941869908079
30
0
41
1
10
7.01448324364131
20
-1.97141628779619
30
0
41
1
10
6.93362858161876
20
-1.85003103382189
30
0
41
1
10
6.89650871727204
20
-1.78665387140376
30
0
41
1
10
6.85513493143981
20
-1.7033584331551
30
0
41
1
10
6.8471128659186
20
-1.68649454064612
30
0
41
1
10
6.83160268536577
20
-1.65233419681377
30
0
41
1
10
6.82413160674505
20
-1.63507228173879
30
0
41
1
10
6.80271141474759
20
-1.58299225483671
30
0
41
1
10
6.78970772919922
20
-1.54777783604098
30
0
41
1
10
6.75472357099815
20
-1.4405773381869
30
0
41
1
10
6.73675650690339
20
-1.36703892350641
30
0
41
1
10
6.72182444338196
20
-1.27221670921693
30
0
41
1
10
6.71921542082148
20
-1.2531069240722
30
0
41
1
10
6.71477754028879
20
-1.2145872555711
30
0
41
1
10
6.71294600036816
20
-1.1951288548409
30
0
41
1
10
6.70869238121603
20
-1.13676232229702
30
0
41
1
10
6.70749657887581
20
-1.09782316649594
30
0
41
1
10
6.70874378005828
20
-0.980926069239729
30
0
41
1
10
6.71601541618432
20
-0.9028885168035
30
0
41
1
10
6.73635852901967
20
-0.785691483965792
30
0
41
1
10
6.74471371702296
20
-0.746602349589807
30
0
41
1
10
6.75959274727299
20
-0.687935750421332
30
0
41
1
10
6.76492680740574
20
-0.668444925897859
30
0
41
1
10
6.7762715225976
20
-0.629755465156876
30
0
41
1
10
6.78228886819167
20
-0.610530161671164
30
0
41
1
10
6.81403438926881
20
-0.51497832269834
30
0
41
1
10
6.84472114327045
20
-0.440369726627324
30
0
41
1
10
6.89765248955925
20
-0.33085571900375
30
0
41
1
10
6.91645003876889
20
-0.294752084895464
30
0
41
1
10
6.95621619029427
20
-0.223300776805843
30
0
41
1
10
6.97702308754589
20
-0.1882440081813
30
0
41
1
10
7.04182670094778
20
-0.0850569667087768
30
0
41
1
10
7.08824258165035
20
-0.018814228690502
30
0
41
1
10
7.18638770110422
20
0.109458374665877
30
0
41
1
10
7.23812214220195
20
0.171484109319181
30
0
41
1
10
7.31912356151415
20
0.261827890184577
30
0
41
1
10
7.34669268705591
20
0.291491738148693
30
0
41
1
10
7.40288973045512
20
0.349980304080134
30
0
41
1
10
7.43155626185731
20
0.378842344171233
30
0
41
1
10
7.5187726261648
20
0.463989508864216
30
0
41
1
10
7.5782724099823
20
0.518599144814488
30
0
41
1
10
7.76018275806572
20
0.677023882179242
30
0
41
1
10
7.8859716965226
20
0.77548757542192
30
0
41
1
10
8.14433777008387
20
0.961740656877566
30
0
41
1
10
8.27693546945156
20
1.04949677431745
30
0
41
1
10
8.54759487650631
20
1.21648070562176
30
0
41
1
10
8.68566548210237
20
1.29569412643676
30
0
41
1
10
8.82602337555306
20
1.37136494291462
30
0
0
SPLINE
5
122
100
AcDbEntity
8
SK1
62
256
6
ByLayer
370
18
48
1
60
0
100
AcDbSpline
70
4
71
3
72
20
73
16
40
0
40
0
40
0
40
0
40
0.250000000000003
40
0.250000000000003
40
0.375000000000002
40
0.375000000000002
40
0.500000000000002
40
0.500000000000002
40
0.625000000000001
40
0.625000000000001
40
0.750000000000001
40
0.750000000000001
40
0.875
40
0.875
40
1
40
1
40
1
40
1
41
1
10
-35.5
20
3.17397027042949
30
0
41
1
10
-35.4882268337925
20
3.18606792132559
30
0
41
1
10
-35.4768284599212
20
3.19825102652237
30
0
41
1
10
-35.460270247116
20
3.21663447172654
30
0
41
1
10
-35.4548935855135
20
3.22272575570264
30
0
41
1
10
-35.4446281675297
20
3.23460486726981
30
0
41
1
10
-35.4397086452965
20
3.24042651241015
30
0
41
1
10
-35.4303421282015
20
3.2518008113336
30
0
41
1
10
-35.42587821818
20
3.2573741981154
30
0
41
1
10
-35.4176059015987
20
3.26809273754995
30
0
41
1
10
-35.4138878355358
20
3.27311909011505
30
0
41
1
10
-35.4074804765349
20
3.28234392877394
30
0
41
1
10
-35.4047944703442
20
3.28654839556293
30
0
41
1
10
-35.4010706900342
20
3.29340273694049
30
0
41
1
10
-35.4
20
3.29612913995683
30
0
41
1
10
-35.4
20
3.29775477597497
30
0
0
SPLINE
5
123
100
AcDbEntity
8
SK1
62
256
6
ByLayer
370
18
48
1
60
0
100
AcDbSpline
70
4
71
3
72
8
73
4
40
0
40
0
40
0
40
0
40
1
40
1
40
1
40
1
41
1
10
-36
20
2.65756084371586
30
0
41
1
10
-35.8338584717935
20
2.83019825521006
30
0
41
1
10
-35.6671088859836
20
3.00225563320853
30
0
41
1
10
-35.5
20
3.17397027042949
30
0
0
SPLINE
5
124
100
AcDbEntity
8
SK1
62
256
6
ByLayer
370
18
48
1
60
0
100
AcDbSpline
70
4
71
3
72
8
73
4
40
0
40
0
40
0
40
0
40
1
40
1
40
1
40
1
41
1
10
-35.5
20
-3.17112668020678
30
0
41
1
10
-35.6671097509617
20
-2.9994111541678
30
0
41
1
10
-35.8338594930032
20
-2.8273536038499
30
0
41
1
10
-36
20
-2.65471725349315
30
0
0
SPLINE
5
125
100
AcDbEntity
8
SK1
62
256
6
ByLayer
370
18
48
1
60
0
100
AcDbSpline
70
4
71
3
72
25
73
21
40
0
40
0
40
0
40
0
40
0.0625000000000009
40
0.0625000000000009
40
0.125000000000002
40
0.125000000000002
40
0.187500000000003
40
0.187500000000003
40
0.250000000000004
40
0.250000000000004
40
0.375000000000003
40
0.375000000000003
40
0.500000000000002
40
0.500000000000002
40
0.625000000000002
40
0.625000000000002
40
0.750000000000001
40
0.875000000000001
40
0.875000000000001
40
1
40
1
40
1
40
1
41
1
10
-35.4
20
-3.2952903311153
30
0
41
1
10
-35.4
20
-3.29446185187371
30
0
41
1
10
-35.4002659118166
20
-3.29335221353602
30
0
41
1
10
-35.401262611412
20
-3.29070831664436
30
0
41
1
10
-35.4019905620907
20
-3.28916969239978
30
0
41
1
10
-35.4038548487037
20
-3.28570692745598
30
0
41
1
10
-35.404999923672
20
-3.28377043793259
30
0
41
1
10
-35.4075948560789
20
-3.27965399708714
30
0
41
1
10
-35.4090487052227
20
-3.27746510187939
30
0
41
1
10
-35.4138166948615
20
-3.2705597536276
30
0
41
1
10
-35.4175750522888
20
-3.265454507155
30
0
41
1
10
-35.4257705162316
20
-3.25479168770403
30
0
41
1
10
-35.4301951269399
20
-3.24924536669894
30
0
41
1
10
-35.439588120341
20
-3.2378024764586
30
0
41
1
10
-35.4445908101625
20
-3.23186707830661
30
0
41
1
10
-35.454947002233
20
-3.21986038714096
30
0
41
1
10
-35.4655891069011
20
-3.20778913364052
30
0
41
1
10
-35.4767607296261
20
-3.19560810628101
30
0
41
1
10
-35.488201460947
20
-3.1833755263242
30
0
41
1
10
-35.4940802619544
20
-3.17720957439255
30
0
41
1
10
-35.5
20
-3.17112668020678
30
0
0
SPLINE
5
126
100
AcDbEntity
8
1
62
256
6
ByLayer
370
18
48
1
60
0
100
AcDbSpline
70
4
71
3
72
11
73
7
40
0
40
0
40
0
40
0
40
0.0615284816780297
40
0.435545841847495
40
0.84874539867006
40
1
40
1
40
1
40
1
41
1
10
83.3049258498949
20
2.87793091809562
30
0
41
1
10
83.3533133709027
20
2.89625952362726
30
0
41
1
10
83.6958676008748
20
3.0242655118098
30
0
41
1
10
84.3638319732978
20
3.24915007245357
30
0
41
1
10
85.1028808445971
20
3.46449071624744
30
0
41
1
10
85.5478204020048
20
3.55309676138691
30
0
41
1
10
85.6670731290205
20
3.57470796244593
30
0
0
SPLINE
5
127
100
AcDbEntity
8
1
62
256
6
ByLayer
370
18
48
1
60
0
100
AcDbSpline
70
4
71
3
72
15
73
11
40
0
40
0
40
0
40
0
40
0.115464900317591
40
0.242827670393167
40
0.306923352388971
40
0.392092064774588
40
0.505750007917833
40
0.647888129453906
40
0.818493189570211
40
1
40
1
40
1
40
1
41
1
10
88.5379930167149
20
0.889254384193151
30
0
41
1
10
88.3518332266823
20
0.950374277006148
30
0
41
1
10
87.9610135934087
20
1.08119792198161
30
0
41
1
10
87.4691946223737
20
1.25346601554278
30
0
41
1
10
87.026743628035
20
1.41191401350775
30
0
41
1
10
86.6073364772973
20
1.56512105744957
30
0
41
1
10
86.0650910530941
20
1.76816664858006
30
0
41
1
10
85.3896655868149
20
2.02910147292832
30
0
41
1
10
84.6104703365144
20
2.34105938970339
30
0
41
1
10
84.0586650643487
20
2.57128782840493
30
0
41
1
10
83.7750696515878
20
2.69205634254021
30
0
0
SPLINE
5
128
100
AcDbEntity
8
1
62
256
6
ByLayer
370
18
48
1
60
0
100
AcDbSpline
70
4
71
3
72
16
73
12
40
0
40
0
40
0
40
0
40
0.16119643853923
40
0.298039996462302
40
0.410533002792041
40
0.49868044398925
40
0.564288195889868
40
0.650867824850586
40
0.758982740957861
40
0.888620948389912
40
1
40
1
40
1
40
1
41
1
10
47.5491712479396
20
0.116282899949198
30
0
41
1
10
47.1610703145992
20
0.225757989926649
30
0
41
1
10
46.4457657007212
20
0.435692207610515
30
0
41
1
10
45.4661142904806
20
0.744261217921348
30
0
41
1
10
44.6649368840038
20
1.0107460455755
30
0
41
1
10
44.0356436486408
20
1.22893316338454
30
0
41
1
10
43.4695788463261
20
1.43127265960945
30
0
41
1
10
42.8583988763637
20
1.65615707031859
30
0
41
1
10
42.1002395404524
20
1.94549599812945
30
0
41
1
10
41.2881970191984
20
2.26777284308469
30
0
41
1
10
40.7315101791513
20
2.49967100530208
30
0
41
1
10
40.4750078884329
20
2.60870929124411
30
0
0
SPLINE
5
129
100
AcDbEntity
8
1
62
256
6
ByLayer
370
18
48
1
60
0
100
AcDbSpline
70
4
71
3
72
19
73
15
40
0
40
0
40
0
40
0
40
0.0921899108587638
40
0.165063641323658
40
0.218625255183429
40
0.26150895925526
40
0.308011808190383
40
0.358348489771102
40
0.412518571815015
40
0.495846595986139
40
0.597466825907847
40
0.719740526527152
40
0.862655680404475
40
1
40
1
40
1
40
1
41
1
10
69.509890173379
20
0.0552100470970345
30
0
41
1
10
69.2785935836837
20
0.119529838221666
30
0
41
1
10
68.8651743318981
20
0.237368402269112
30
0
41
1
10
68.3192965706158
20
0.399837926621217
30
0
41
1
10
67.8975231558837
20
0.529365308192496
30
0
41
1
10
67.5420477665494
20
0.641088598415081
30
0
41
1
10
67.1952311393246
20
0.752389097482023
30
0
41
1
10
66.8211323080539
20
0.875117115839828
30
0
41
1
10
66.356809572835
20
1.03100083587867
30
0
41
1
10
65.7674019987437
20
1.23478967409733
30
0
41
1
10
65.0131932999089
20
1.5056055412617
30
0
41
1
10
64.1172365194214
20
1.84178343992758
30
0
41
1
10
63.139708335268
20
2.22621336740792
30
0
41
1
10
62.4641767826653
20
2.50657625862533
30
0
41
1
10
62.1342694695052
20
2.6469181349832
30
0
0
SPLINE
5
12A
100
AcDbEntity
8
1
62
256
6
ByLayer
370
18
48
1
60
0
100
AcDbSpline
70
4
71
3
72
18
73
14
40
0
40
0
40
0
40
0
40
0.0847739902370944
40
0.159248921902676
40
0.223425312960428
40
0.277303709928079
40
0.324492928919413
40
0.383892937951628
40
0.474894524484089
40
0.587404191639969
40
0.721411145833573
40
0.876899329739825
40
1
40
1
40
1
40
1
41
1
10
25.9285564403376
20
0.0801570023098748
30
0
41
1
10
25.7234792963072
20
0.137502091466388
30
0
41
1
10
25.3388366468488
20
0.247399712037179
30
0
41
1
10
24.8007319368342
20
0.407355884524122
30
0
41
1
10
24.3382613796435
20
0.549427679779967
30
0
41
1
10
23.9422576898135
20
0.674420884179256
30
0
41
1
10
23.5585305603138
20
0.798296219220532
30
0
41
1
10
23.0870612146571
20
0.954055413665969
30
0
41
1
10
22.4616763185976
20
1.16731281437376
30
0
41
1
10
21.6622288979798
20
1.45124637324886
30
0
41
1
10
20.7152254141195
20
1.80411899216668
30
0
41
1
10
19.7489877447943
20
2.18189280082274
30
0
41
1
10
19.1019294731178
20
2.45027589412706
30
0
41
1
10
18.8169431921876
20
2.57124351507352
30
0
0
SPLINE
5
12B
100
AcDbEntity
8
1
62
256
6
ByLayer
370
18
48
1
60
0
100
AcDbSpline
70
4
71
2
72
6
73
3
40
0
40
0
40
0
40
1
40
1
40
1
41
1
10
78.3721234054657
20
0.0006114701570823
30
0
41
1
10
78.3721004788145
20
0.000624260980004
30
0
41
1
10
78.3720775521605
20
0.000637534623479
30
0
0
SPLINE
5
12C
100
AcDbEntity
8
1
62
256
6
ByLayer
370
18
48
1
60
0
100
AcDbSpline
70
4
71
1
72
4
73
2
40
0
40
0
40
1
40
1
41
1
10
56.6193800080151
20
0.0020307194225779
30
0
41
1
10
56.6193904536957
20
0.0020290103638558
30
0
0
SPLINE
5
12D
100
AcDbEntity
8
1
62
256
6
ByLayer
370
18
48
1
60
0
100
AcDbSpline
70
4
71
3
72
17
73
13
40
0
40
0
40
0
40
0
40
0.0725748105675738
40
0.12492818777741
40
0.15819171164333
40
0.18711239198431
40
0.21631601214981
40
0.245765265787894
40
0.386774405091229
40
0.645739081119871
40
0.972589559490512
40
1
40
1
40
1
40
1
41
1
10
67.4978151854178
20
-3.81002663210327
30
0
41
1
10
67.6823109081891
20
-3.81043330179548
30
0
41
1
10
67.999898395434
20
-3.81108660316315
30
0
41
1
10
68.4020519373508
20
-3.81192075310307
30
0
41
1
10
68.6932294435136
20
-3.8123454008541
30
0
41
1
10
68.9255552662669
20
-3.81265095819691
30
0
41
1
10
69.1481846924812
20
-3.81293849601875
30
0
41
1
10
69.655765536773
20
-3.8136509404803
30
0
41
1
10
70.747438727332
20
-3.81721976248079
30
0
41
1
10
72.5951741033471
20
-3.81910744331856
30
0
41
1
10
74.154113959644
20
-3.82233083167532
30
0
41
1
10
75.0547156338114
20
-3.82356110844765
30
0
41
1
10
75.1243984093694
20
-3.82366843698412
30
0
0
SPLINE
5
12E
100
AcDbEntity
8
1
62
256
6
ByLayer
370
18
48
1
60
0
100
AcDbSpline
70
4
71
3
72
19
73
15
40
0
40
0
40
0
40
0
40
0.10773853065138
40
0.187397089226534
40
0.25629637458939
40
0.330204408335014
40
0.404982828248184
40
0.479768786539629
40
0.605375439975459
40
0.728189763516941
40
0.772890319649065
40
0.830974040455336
40
0.913013637262986
40
1
40
1
40
1
40
1
41
1
10
55.2821069921851
20
3.78993450337276
30
0
41
1
10
55.0960462226371
20
3.78952020173605
30
0
41
1
10
54.7724085175182
20
3.7887590994101
30
0
41
1
10
54.3297105470738
20
3.78687733195625
30
0
41
1
10
53.9455099915151
20
3.78638293035823
30
0
41
1
10
53.5696749668603
20
3.7859953934144
30
0
41
1
10
53.1836886103622
20
3.78535418975713
30
0
41
1
10
52.7084014737553
20
3.7848071801549
30
0
41
1
10
52.1501486411914
20
3.78305853761503
30
0
41
1
10
51.6438581544073
20
3.78215007866504
30
0
41
1
10
51.2541952780456
20
3.78193864931467
30
0
41
1
10
50.9349611636265
20
3.78153520384163
30
0
41
1
10
50.5426895692526
20
3.78070631272931
30
0
41
1
10
50.2507435688146
20
3.77963696316468
30
0
41
1
10
50.1004987296321
20
3.77898008344548
30
0
0
SPLINE
5
12F
100
AcDbEntity
8
1
62
256
6
ByLayer
370
18
48
1
60
0
100
AcDbSpline
70
4
71
3
72
19
73
15
40
0
40
0
40
0
40
0
40
0.0765075183226964
40
0.131347350390046
40
0.172799405488287
40
0.216905669525604
40
0.262289196830613
40
0.307675691284293
40
0.353061831305722
40
0.6026535219748
40
0.920305998605134
40
0.955964083843197
40
0.991622541345508
40
1
40
1
40
1
40
1
41
1
10
77.0369948518847
20
3.82712626387092
30
0
41
1
10
76.8412008087896
20
3.82654747141027
30
0
41
1
10
76.5050416076755
20
3.82573823777938
30
0
41
1
10
76.0625411228056
20
3.8254430775813
30
0
41
1
10
75.7032729585851
20
3.82494791606757
30
0
41
1
10
75.367994017751
20
3.82405242850385
30
0
41
1
10
75.0226858831708
20
3.82351331218084
30
0
41
1
10
74.6740884679895
20
3.82302407219657
30
0
41
1
10
73.8026722361213
20
3.82044207591213
30
0
41
1
10
72.2341781481595
20
3.81917944654478
30
0
41
1
10
70.6905907990115
20
3.81723685475137
30
0
41
1
10
69.6947353651855
20
3.8139221757921
30
0
41
1
10
69.4906985418622
20
3.81347905735808
30
0
41
1
10
69.3779553305089
20
3.81328546245101
30
0
41
1
10
69.3565068892513
20
3.81325014320325
30
0
0
SPLINE
5
130
100
AcDbEntity
8
1
62
256
6
ByLayer
370
18
48
1
60
0
100
AcDbSpline
70
4
71
3
72
15
73
11
40
0
40
0
40
0
40
0
40
0.139494249943591
40
0.263914703816339
40
0.349917450136589
40
0.429613277066019
40
0.507583615794523
40
0.810020640237001
40
0.9238011182724
40
1
40
1
40
1
40
1
41
1
10
50.1005015919398
20
-3.77897533860076
30
0
41
1
10
50.2549998633646
20
-3.77964578470664
30
0
41
1
10
50.5473143434549
20
-3.78070550137514
30
0
41
1
10
50.9350744722132
20
-3.78150117517436
30
0
41
1
10
51.2563729325311
20
-3.78193504878752
30
0
41
1
10
51.5263044390468
20
-3.78210621062172
30
0
41
1
10
52.0360846456235
20
-3.78253371326522
30
0
41
1
10
52.5836109046022
20
-3.78465999440277
30
0
41
1
10
53.1291838126244
20
-3.78528870676871
30
0
41
1
10
53.3396710146671
20
-3.78561829225882
30
0
41
1
10
53.4240954049889
20
-3.78574502478136
30
0
0
LINE
5
82
100
AcDbEntity
8
4
62
256
6
ByLayer
370
18
48
0.05
60
0
100
AcDbLine
10
0
20
0
30
0
11
90
21
0
31
0
39
0
210
0
220
0
230
1
0
LINE
5
84
100
AcDbEntity
8
81
62
256
6
ByLayer
370
18
48
1
60
0
100
AcDbLine
10
90
20
0
30
0
11
93
21
0
31
0
39
0
210
0
220
0
230
1
0
LINE
5
85
100
AcDbEntity
8
80
62
256
6
ByLayer
370
18
48
1
60
0
100
AcDbLine
10
0
20
0
30
0
11
-3
21
0
31
0
39
0
210
0
220
0
230
1
0
LINE
5
86
100
AcDbEntity
8
SK4
62
256
6
ByLayer
370
18
48
0.05
60
0
100
AcDbLine
10
-39
20
0
30
0
11
93
21
0
31
0
39
0
210
0
220
0
230
1
0
LINE
5
88
100
AcDbEntity
8
1
62
256
6
ByLayer
370
18
48
1
60
0
100
AcDbLine
10
0
20
4
30
0
11
0
21
-4
31
0
39
0
210
0
220
0
230
1
0
LINE
5
89
100
AcDbEntity
8
1
62
256
6
ByLayer
370
13
48
1
60
0
100
AcDbLine
10
89.896839
20
0.427396
30
0
11
89.054943
21
1.272476
31
0
39
0
210
0
220
0
230
1
0
LINE
5
8A
100
AcDbEntity
8
1
62
256
6
ByLayer
370
18
48
1
60
0
100
AcDbLine
10
89.317327
20
-0.642049
30
0
11
89.322398
21
-0.647811
31
0
39
0
210
0
220
0
230
1
0
LINE
5
8B
100
AcDbEntity
8
1
62
256
6
ByLayer
370
18
48
1
60
0
100
AcDbLine
10
50.000129
20
3.930615
30
0
11
50.000129
21
3.245405
31
0
39
0
210
0
220
0
230
1
0
LINE
5
8C
100
AcDbEntity
8
1
62
256
6
ByLayer
370
18
48
1
60
0
100
AcDbLine
10
50.000129
20
-3.930615
30
0
11
50.000129
21
-2.955439
31
0
39
0
210
0
220
0
230
1
0
LINE
5
8D
100
AcDbEntity
8
1
62
256
6
ByLayer
370
18
48
1
60
0
100
AcDbLine
10
50.000129
20
2.938617
30
0
11
50.000129
21
2.892369
31
0
39
0
210
0
220
0
230
1
0
LINE
5
8E
100
AcDbEntity
8
1
62
256
6
ByLayer
370
18
48
1
60
0
100
AcDbLine
10
2
20
-3.844215
30
0
11
2
21
3.844215
31
0
39
0
210
0
220
0
230
1
0
LINE
5
8F
100
AcDbEntity
8
SK1
62
256
6
ByLayer
370
18
48
1
60
0
100
AcDbLine
10
-36
20
-2.654656
30
0
11
-36
21
-2.657561
31
0
39
0
210
0
220
0
230
1
0
LINE
5
91
100
AcDbEntity
8
SK1
62
256
6
ByLayer
370
18
48
1
60
0
100
AcDbLine
10
-35.4
20
3.36
30
0
11
-35.4
21
3.297755
31
0
39
0
210
0
220
0
230
1
0
LINE
5
92
100
AcDbEntity
8
SK1
62
256
6
ByLayer
370
18
48
1
60
0
100
AcDbLine
10
-36
20
2.657561
30
0
11
-36
21
-2.654717
31
0
39
0
210
0
220
0
230
1
0
LINE
5
93
100
AcDbEntity
8
SK1
62
256
6
ByLayer
370
18
48
1
60
0
100
AcDbLine
10
-35.4
20
-3.36
30
0
11
-35.4
21
-3.29529
31
0
39
0
210
0
220
0
230
1
0
LINE
5
94
100
AcDbEntity
8
SK1
62
256
6
ByLayer
370
18
48
1
60
0
100
AcDbLine
10
-34.76
20
-4
30
0
11
-34.76
21
4
31
0
39
0
210
0
220
0
230
1
0
LINE
5
95
100
AcDbEntity
8
SK1
62
256
6
ByLayer
370
18
48
1
60
0
100
AcDbLine
10
0
20
4
30
0
11
0
21
-4
31
0
39
0
210
0
220
0
230
1
0
LINE
5
96
100
AcDbEntity
8
1
62
256
6
ByLayer
370
18
48
1
60
0
100
AcDbLine
10
2
20
3.844215
30
0
11
0
21
4
31
0
39
0
210
0
220
0
230
1
0
LINE
5
97
100
AcDbEntity
8
1
62
256
6
ByLayer
370
18
48
1
60
0
100
AcDbLine
10
0
20
-4
30
0
11
2
21
-3.844215
31
0
39
0
210
0
220
0
230
1
0
LINE
5
98
100
AcDbEntity
8
1
62
256
6
ByLayer
370
18
48
1
60
0
100
AcDbLine
10
2
20
-3.844215
30
0
11
12.974713
21
-3.86397
31
0
39
0
210
0
220
0
230
1
0
LINE
5
99
100
AcDbEntity
8
1
62
256
6
ByLayer
370
18
48
1
60
0
100
AcDbLine
10
23.130443
20
-3.88225
30
0
11
34.663182
21
-3.903009
31
0
39
0
210
0
220
0
230
1
0
LINE
5
9A
100
AcDbEntity
8
1
62
256
6
ByLayer
370
18
48
1
60
0
100
AcDbLine
10
44.856096
20
-3.921356
30
0
11
50.000129
21
-3.930615
31
0
39
0
210
0
220
0
230
1
0
LINE
5
9B
100
AcDbEntity
8
1
62
256
6
ByLayer
370
18
48
1
60
0
100
AcDbLine
10
55.283905
20
-3.940126
30
0
11
56.35146
21
-3.942048
31
0
39
0
210
0
220
0
230
1
0
LINE
5
9C
100
AcDbEntity
8
1
62
256
6
ByLayer
370
18
48
1
60
0
100
AcDbLine
10
66.739698
20
-3.960747
30
0
11
67.497884
21
-3.962111
31
0
39
0
210
0
220
0
230
1
0
LINE
5
9D
100
AcDbEntity
8
1
62
256
6
ByLayer
370
18
48
1
60
0
100
AcDbLine
10
77.0375
20
-3.979283
30
0
11
78.039747
21
-3.981087
31
0
39
0
210
0
220
0
230
1
0
LINE
5
9E
100
AcDbEntity
8
1
62
256
6
ByLayer
370
18
48
1
60
0
100
AcDbLine
10
78.039747
20
3.981087
30
0
11
77.0375
21
3.979283
31
0
39
0
210
0
220
0
230
1
0
LINE
5
9F
100
AcDbEntity
8
1
62
256
6
ByLayer
370
18
48
1
60
0
100
AcDbLine
10
67.497884
20
3.962111
30
0
11
66.739698
21
3.960747
31
0
39
0
210
0
220
0
230
1
0
LINE
5
A0
100
AcDbEntity
8
1
62
256
6
ByLayer
370
18
48
1
60
0
100
AcDbLine
10
56.35146
20
3.942048
30
0
11
55.283905
21
3.940126
31
0
39
0
210
0
220
0
230
1
0
LINE
5
A1
100
AcDbEntity
8
1
62
256
6
ByLayer
370
18
48
1
60
0
100
AcDbLine
10
50.000129
20
3.930615
30
0
11
44.856096
21
3.921356
31
0
39
0
210
0
220
0
230
1
0
LINE
5
A2
100
AcDbEntity
8
1
62
256
6
ByLayer
370
18
48
1
60
0
100
AcDbLine
10
34.663182
20
3.903009
30
0
11
23.130443
21
3.88225
31
0
39
0
210
0
220
0
230
1
0
LINE
5
A3
100
AcDbEntity
8
1
62
256
6
ByLayer
370
18
48
1
60
0
100
AcDbLine
10
12.974713
20
3.86397
30
0
11
2
21
3.844215
31
0
39
0
210
0
220
0
230
1
0
LINE
5
A4
100
AcDbEntity
8
SK1
62
256
6
ByLayer
370
18
48
1
60
0
100
AcDbLine
10
-35.4
20
-3.36
30
0
11
-34.76
21
-4
31
0
39
0
210
0
220
0
230
1
0
LINE
5
A5
100
AcDbEntity
8
SK1
62
256
6
ByLayer
370
18
48
1
60
0
100
AcDbLine
10
-34.76
20
4
30
0
11
-35.4
21
3.36
31
0
39
0
210
0
220
0
230
1
0
LINE
5
A6
100
AcDbEntity
8
SK1
62
256
6
ByLayer
370
18
48
1
60
0
100
AcDbLine
10
-34.76
20
-4
30
0
11
0
21
-4
31
0
39
0
210
0
220
0
230
1
0
LINE
5
A7
100
AcDbEntity
8
SK1
62
256
6
ByLayer
370
18
48
1
60
0
100
AcDbLine
10
0
20
4
30
0
11
-34.76
21
4
31
0
39
0
210
0
220
0
230
1
0
LINE
5
A8
100
AcDbEntity
8
2
62
256
6
ByLayer
370
13
48
1
60
0
100
AcDbLine
10
97.5
20
-4
30
0
11
97.5
21
24.841828
31
0
39
0
210
0
220
0
230
1
0
LINE
5
AA
100
AcDbEntity
8
2
62
256
6
ByLayer
370
13
48
1
60
0
100
AcDbLine
10
91.5875
20
4
30
0
11
99.5
21
4
31
0
39
0
210
0
220
0
230
1
0
LINE
5
AB
100
AcDbEntity
8
2
62
256
6
ByLayer
370
13
48
1
60
0
100
AcDbLine
10
91.5875
20
-4
30
0
11
99.5
21
-4
31
0
39
0
210
0
220
0
230
1
0
LINE
5
AC
100
AcDbEntity
8
1
62
256
6
ByLayer
370
18
48
1
60
1
100
AcDbLine
10
97.5
20
4
30
0
11
97.960784
21
0.500002
31
0
39
0
210
0
220
0
230
1
0
LINE
5
AD
100
AcDbEntity
8
1
62
256
6
ByLayer
370
18
48
1
60
1
100
AcDbLine
10
97.960784
20
0.500002
30
0
11
97.039216
21
0.499998
31
0
39
0
210
0
220
0
230
1
0
LINE
5
AE
100
AcDbEntity
8
1
62
256
6
ByLayer
370
18
48
1
60
1
100
AcDbLine
10
97.039216
20
0.499998
30
0
11
97.5
21
4
31
0
39
0
210
0
220
0
230
1
0
LINE
5
AF
100
AcDbEntity
8
1
62
256
6
ByLayer
370
18
48
1
60
1
100
AcDbLine
10
97.5
20
-4
30
0
11
97.039216
21
-0.500002
31
0
39
0
210
0
220
0
230
1
0
LINE
5
B0
100
AcDbEntity
8
1
62
256
6
ByLayer
370
18
48
1
60
1
100
AcDbLine
10
97.039216
20
-0.500002
30
0
11
97.960784
21
-0.499998
31
0
39
0
210
0
220
0
230
1
0
LINE
5
B1
100
AcDbEntity
8
1
62
256
6
ByLayer
370
18
48
1
60
1
100
AcDbLine
10
97.960784
20
-0.499998
30
0
11
97.5
21
-4
31
0
39
0
210
0
220
0
230
1
0
LINE
5
B2
100
AcDbEntity
8
SK2
62
256
6
ByLayer
370
13
48
1
60
0
100
AcDbLine
10
-44.5
20
-4
30
0
11
-44.5
21
13.841828
31
0
39
0
210
0
220
0
230
1
0
LINE
5
B4
100
AcDbEntity
8
SK2
62
256
6
ByLayer
370
13
48
1
60
0
100
AcDbLine
10
-37.5875
20
4
30
0
11
-46.5
21
4
31
0
39
0
210
0
220
0
230
1
0
LINE
5
B5
100
AcDbEntity
8
SK2
62
256
6
ByLayer
370
13
48
1
60
0
100
AcDbLine
10
-37.5875
20
-4
30
0
11
-46.5
21
-4
31
0
39
0
210
0
220
0
230
1
0
LINE
5
B6
100
AcDbEntity
8
1
62
256
6
ByLayer
370
18
48
1
60
1
100
AcDbLine
10
-44.5
20
4
30
0
11
-44.039216
21
0.500002
31
0
39
0
210
0
220
0
230
1
0
LINE
5
B7
100
AcDbEntity
8
1
62
256
6
ByLayer
370
18
48
1
60
1
100
AcDbLine
10
-44.039216
20
0.500002
30
0
11
-44.960784
21
0.499998
31
0
39
0
210
0
220
0
230
1
0
LINE
5
B8
100
AcDbEntity
8
1
62
256
6
ByLayer
370
18
48
1
60
1
100
AcDbLine
10
-44.960784
20
0.499998
30
0
11
-44.5
21
4
31
0
39
0
210
0
220
0
230
1
0
LINE
5
B9
100
AcDbEntity
8
1
62
256
6
ByLayer
370
18
48
1
60
1
100
AcDbLine
10
-44.5
20
-4
30
0
11
-44.960784
21
-0.500002
31
0
39
0
210
0
220
0
230
1
0
LINE
5
BA
100
AcDbEntity
8
1
62
256
6
ByLayer
370
18
48
1
60
1
100
AcDbLine
10
-44.960784
20
-0.500002
30
0
11
-44.039216
21
-0.499998
31
0
39
0
210
0
220
0
230
1
0
LINE
5
BB
100
AcDbEntity
8
1
62
256
6
ByLayer
370
18
48
1
60
1
100
AcDbLine
10
-44.039216
20
-0.499998
30
0
11
-44.5
21
-4
31
0
39
0
210
0
220
0
230
1
0
LINE
5
BC
100
AcDbEntity
8
SK2
62
256
6
ByLayer
370
13
48
1
60
0
100
AcDbLine
10
90.542996
20
1.491748
30
0
11
97.672924
21
21.079461
31
0
39
0
210
0
220
0
230
1
0
LINE
5
BD
100
AcDbEntity
8
SK2
62
256
6
ByLayer
370
13
48
1
60
0
100
AcDbLine
10
90.542996
20
-1.491748
30
0
11
97.672924
21
-21.079461
31
0
39
0
210
0
220
0
230
1
0
LINE
5
BE
100
AcDbEntity
8
1
62
256
6
ByLayer
370
18
48
1
60
1
100
AcDbLine
10
96.988834
20
19.200094
30
0
11
100.399555
21
18.289437
31
0
39
0
210
0
220
0
230
1
0
LINE
5
BF
100
AcDbEntity
8
1
62
256
6
ByLayer
370
18
48
1
60
1
100
AcDbLine
10
100.399555
20
18.289437
30
0
11
100.047645
21
17.437706
31
0
39
0
210
0
220
0
230
1
0
LINE
5
C0
100
AcDbEntity
8
1
62
256
6
ByLayer
370
18
48
1
60
1
100
AcDbLine
10
100.047645
20
17.437706
30
0
11
96.988834
21
19.200094
31
0
39
0
210
0
220
0
230
1
0
LINE
5
C1
100
AcDbEntity
8
1
62
256
6
ByLayer
370
18
48
1
60
1
100
AcDbLine
10
96.988834
20
-19.200094
30
0
11
100.047642
21
-17.437707
31
0
39
0
210
0
220
0
230
1
0
LINE
5
C2
100
AcDbEntity
8
1
62
256
6
ByLayer
370
18
48
1
60
1
100
AcDbLine
10
100.047642
20
-17.437707
30
0
11
100.399558
21
-18.289436
31
0
39
0
210
0
220
0
230
1
0
LINE
5
C3
100
AcDbEntity
8
1
62
256
6
ByLayer
370
18
48
1
60
1
100
AcDbLine
10
100.399558
20
-18.289436
30
0
11
96.988834
21
-19.200094
31
0
39
0
210
0
220
0
230
1
0
LINE
5
131
100
AcDbEntity
8
1
62
256
6
ByLayer
370
13
48
0.05
60
0
100
AcDbLine
10
-42.5
20
0
30
0
11
95.059476
21
0
31
0
39
0
210
0
220
0
230
1
0
LINE
5
136
100
AcDbEntity
8
1
62
256
6
ByLayer
370
18
48
1
60
1
100
AcDbLine
10
97.5
20
4
30
0
11
97.960784
21
0.500002
31
0
39
0
210
0
220
0
230
1
0
LINE
5
137
100
AcDbEntity
8
1
62
256
6
ByLayer
370
18
48
1
60
1
100
AcDbLine
10
97.960784
20
0.500002
30
0
11
97.039216
21
0.499998
31
0
39
0
210
0
220
0
230
1
0
LINE
5
138
100
AcDbEntity
8
1
62
256
6
ByLayer
370
18
48
1
60
1
100
AcDbLine
10
97.039216
20
0.499998
30
0
11
97.5
21
4
31
0
39
0
210
0
220
0
230
1
0
LINE
5
13A
100
AcDbEntity
8
1
62
256
6
ByLayer
370
18
48
1
60
1
100
AcDbLine
10
97.5
20
-4
30
0
11
97.039216
21
-0.500002
31
0
39
0
210
0
220
0
230
1
0
LINE
5
13B
100
AcDbEntity
8
1
62
256
6
ByLayer
370
18
48
1
60
1
100
AcDbLine
10
97.039216
20
-0.500002
30
0
11
97.960784
21
-0.499998
31
0
39
0
210
0
220
0
230
1
0
LINE
5
13C
100
AcDbEntity
8
1
62
256
6
ByLayer
370
18
48
1
60
1
100
AcDbLine
10
97.960784
20
-0.499998
30
0
11
97.5
21
-4
31
0
39
0
210
0
220
0
230
1
0
LINE
5
140
100
AcDbEntity
8
1
62
256
6
ByLayer
370
18
48
1
60
1
100
AcDbLine
10
-44.5
20
4
30
0
11
-44.039216
21
0.500002
31
0
39
0
210
0
220
0
230
1
0
LINE
5
141
100
AcDbEntity
8
1
62
256
6
ByLayer
370
18
48
1
60
1
100
AcDbLine
10
-44.039216
20
0.500002
30
0
11
-44.960784
21
0.499998
31
0
39
0
210
0
220
0
230
1
0
LINE
5
142
100
AcDbEntity
8
1
62
256
6
ByLayer
370
18
48
1
60
1
100
AcDbLine
10
-44.960784
20
0.499998
30
0
11
-44.5
21
4
31
0
39
0
210
0
220
0
230
1
0
LINE
5
144
100
AcDbEntity
8
1
62
256
6
ByLayer
370
18
48
1
60
1
100
AcDbLine
10
-44.5
20
-4
30
0
11
-44.960784
21
-0.500002
31
0
39
0
210
0
220
0
230
1
0
LINE
5
145
100
AcDbEntity
8
1
62
256
6
ByLayer
370
18
48
1
60
1
100
AcDbLine
10
-44.960784
20
-0.500002
30
0
11
-44.039216
21
-0.499998
31
0
39
0
210
0
220
0
230
1
0
LINE
5
146
100
AcDbEntity
8
1
62
256
6
ByLayer
370
18
48
1
60
1
100
AcDbLine
10
-44.039216
20
-0.499998
30
0
11
-44.5
21
-4
31
0
39
0
210
0
220
0
230
1
0
LINE
5
149
100
AcDbEntity
8
1
62
256
6
ByLayer
370
18
48
1
60
1
100
AcDbLine
10
96.988834
20
19.200094
30
0
11
100.399555
21
18.289437
31
0
39
0
210
0
220
0
230
1
0
LINE
5
14A
100
AcDbEntity
8
1
62
256
6
ByLayer
370
18
48
1
60
1
100
AcDbLine
10
100.399555
20
18.289437
30
0
11
100.047645
21
17.437706
31
0
39
0
210
0
220
0
230
1
0
LINE
5
14B
100
AcDbEntity
8
1
62
256
6
ByLayer
370
18
48
1
60
1
100
AcDbLine
10
100.047645
20
17.437706
30
0
11
96.988834
21
19.200094
31
0
39
0
210
0
220
0
230
1
0
LINE
5
14D
100
AcDbEntity
8
1
62
256
6
ByLayer
370
18
48
1
60
1
100
AcDbLine
10
96.988834
20
-19.200094
30
0
11
100.047642
21
-17.437707
31
0
39
0
210
0
220
0
230
1
0
LINE
5
14E
100
AcDbEntity
8
1
62
256
6
ByLayer
370
18
48
1
60
1
100
AcDbLine
10
100.047642
20
-17.437707
30
0
11
100.399558
21
-18.289436
31
0
39
0
210
0
220
0
230
1
0
LINE
5
14F
100
AcDbEntity
8
1
62
256
6
ByLayer
370
18
48
1
60
1
100
AcDbLine
10
100.399558
20
-18.289436
30
0
11
96.988834
21
-19.200094
31
0
39
0
210
0
220
0
230
1
0
MTEXT
5
132
100
AcDbEntity
8
2
62
256
6
ByLayer
370
18
48
1
60
0
100
AcDbMText
10
96.158886
20
17.658438
30
0
210
0
220
0
230
1
1
%%c
40
3
41
0
44
1.084337
50
90
71
7
72
5
7
iso_b_vert
0
MTEXT
5
135
100
AcDbEntity
8
2
62
256
6
ByLayer
370
18
48
1
60
0
100
AcDbMText
10
96.158886
20
23.635
30
0
210
0
220
0
230
1
1
\W0.5404;8
40
3
41
0
44
1.084337
50
90
71
7
72
5
7
iso_b_vert
0
MTEXT
5
13E
100
AcDbEntity
8
SK2
62
256
6
ByLayer
370
18
48
1
60
0
100
AcDbMText
10
-45.841114
20
6.658437
30
0
210
0
220
0
230
1
1
%%c
40
3
41
0
44
1.084337
50
90
71
7
72
5
7
iso_b_vert
0
MTEXT
5
13F
100
AcDbEntity
8
SK2
62
256
6
ByLayer
370
18
48
1
60
0
100
AcDbMText
10
-45.841114
20
12.635
30
0
210
0
220
0
230
1
1
\W0.5404;8
40
3
41
0
44
1.084337
50
90
71
7
72
5
7
iso_b_vert
0
MTEXT
5
148
100
AcDbEntity
8
SK2
62
256
6
ByLayer
370
18
48
1
60
0
100
AcDbMText
10
106.991852
20
-2.114886
30
0
210
0
220
0
230
1
1
\W0.7071;140%%d
40
3
41
0
44
1.084337
50
0
71
7
72
5
7
iso_b_vert
0
MTEXT
5
151
100
AcDbEntity
8
SK6
62
256
6
ByLayer
370
18
48
1
60
0
100
AcDbMText
10
2.925487
20
-51.128728
30
0
210
0
220
0
230
1
1
\W0.7522;860.1-0800-065A1-SD S2BM
40
3
41
0
44
1.084337
50
0
71
7
72
5
7
iso_b_vert
0
HATCH
5
139
100
AcDbEntity
8
2
62
256
6
ByLayer
370
13
48
1
60
0
100
AcDbHatch
10
0
20
0
30
0
210
0
220
0
230
1
2
ANSI31
70
0
71
0
91
1
92
5
93
3
72
1
10
97.5
20
4
11
97.9607837415528
21
0.500001692553184
72
1
10
97.9607837415528
20
0.500001692553184
11
97.0392162584472
21
0.499998307446816
72
1
10
97.0392162584472
20
0.499998307446816
11
97.5
21
4
97
0
75
0
76
1
52
0
41
0.0062
77
0
78
1
53
45
43
0
44
0
45
-0.0139193969876572
46
0.0139193969876572
79
0
47
0
98
1
10
0
20
0
0
HATCH
5
13D
100
AcDbEntity
8
2
62
256
6
ByLayer
370
13
48
1
60
0
100
AcDbHatch
10
0
20
0
30
0
210
0
220
0
230
1
2
ANSI31
70
0
71
0
91
1
92
5
93
3
72
1
10
97.5
20
-4
11
97.0392162584472
21
-0.500001692553184
72
1
10
97.0392162584472
20
-0.500001692553184
11
97.9607837415528
21
-0.499998307446816
72
1
10
97.9607837415528
20
-0.499998307446816
11
97.5
21
-4
97
0
75
0
76
1
52
0
41
0.0062
77
0
78
1
53
45
43
0
44
0
45
-0.0139193969876572
46
0.0139193969876572
79
0
47
0
98
1
10
0
20
0
0
HATCH
5
143
100
AcDbEntity
8
SK2
62
256
6
ByLayer
370
13
48
1
60
0
100
AcDbHatch
10
0
20
0
30
0
210
0
220
0
230
1
2
ANSI31
70
0
71
0
91
1
92
5
93
3
72
1
10
-44.5
20
4
11
-44.0392162584472
21
0.500001692553184
72
1
10
-44.0392162584472
20
0.500001692553184
11
-44.9607837415528
21
0.499998307446816
72
1
10
-44.9607837415528
20
0.499998307446816
11
-44.5
21
4
97
0
75
0
76
1
52
0
41
0.0062
77
0
78
1
53
45
43
0
44
0
45
-0.0139193969876572
46
0.0139193969876572
79
0
47
0
98
1
10
0
20
0
0
HATCH
5
147
100
AcDbEntity
8
SK2
62
256
6
ByLayer
370
13
48
1
60
0
100
AcDbHatch
10
0
20
0
30
0
210
0
220
0
230
1
2
ANSI31
70
0
71
0
91
1
92
5
93
3
72
1
10
-44.5
20
-4
11
-44.9607837415528
21
-0.500001692553184
72
1
10
-44.9607837415528
20
-0.500001692553184
11
-44.0392162584472
21
-0.499998307446816
72
1
10
-44.0392162584472
20
-0.499998307446816
11
-44.5
21
-4
97
0
75
0
76
1
52
0
41
0.0062
77
0
78
1
53
45
43
0
44
0
45
-0.0139193969876572
46
0.0139193969876572
79
0
47
0
98
1
10
0
20
0
0
HATCH
5
14C
100
AcDbEntity
8
SK2
62
256
6
ByLayer
370
13
48
1
60
0
100
AcDbHatch
10
0
20
0
30
0
210
0
220
0
230
1
2
ANSI31
70
0
71
0
91
1
92
5
93
3
72
1
10
96.9888342542774
20
19.2000941051606
11
100.399554715173
21
18.2894373387328
72
1
10
100.399554715173
20
18.2894373387328
11
100.047644827004
21
17.4377061272943
72
1
10
100.047644827004
20
17.4377061272943
11
96.9888342542774
21
19.2000941051606
97
0
75
0
76
1
52
0
41
0.0062
77
0
78
1
53
45
43
0
44
0
45
-0.0139193969876572
46
0.0139193969876572
79
0
47
0
98
1
10
0
20
0
0
HATCH
5
150
100
AcDbEntity
8
SK2
62
256
6
ByLayer
370
13
48
1
60
0
100
AcDbHatch
10
0
20
0
30
0
210
0
220
0
230
1
2
ANSI31
70
0
71
0
91
1
92
5
93
3
72
1
10
96.9888342542774
20
-19.2000941051606
11
100.047641698426
21
-17.437707419943
72
1
10
100.047641698426
20
-17.437707419943
11
100.399557843751
21
-18.2894360460841
72
1
10
100.399557843751
20
-18.2894360460841
11
96.9888342542774
21
-19.2000941051606
97
0
75
0
76
1
52
0
41
0.0062
77
0
78
1
53
45
43
0
44
0
45
-0.0139193969876572
46
0.0139193969876572
79
0
47
0
98
1
10
0
20
0
0
DIMENSION
5
154
100
AcDbEntity
8
SK2
62
256
6
ByLayer
370
18
48
1
60
0
100
AcDbDimension
2
_U0
10
24.6
20
-19.800885
30
0
11
57.3
21
-19.800885
31
0
70
32
71
1
72
1
41
1
210
0
220
0
230
1
3
Standard
100
AcDbAlignedDimension
13
90
23
-4
33
0
14
24.6
24
-4
34
0
50
0
100
AcDbRotatedDimension
1001
ACAD
1000
DSTYLE
1002
{
1070
   371
1070
    13
1070
   372
1070
    13
1070
   170
1070
     0
1070
   144
1040
1.0
1070
   277
1070
     2
1070
   284
1070
     8
1070
   278
1070
    46
1070
   146
1040
1.166667
1070
   345
1005
16
1070
   347
1005
16
1070
   346
1005
16
1070
   344
1005
0
1070
   343
1005
0
1070
   172
1070
     1
1070
    76
1070
     0
1070
    75
1070
     0
1070
   282
1070
     0
1070
   281
1070
     0
1070
     3
1000

1070
    71
1070
     0
1070
    74
1070
     0
1070
   279
1070
     0
1070
   173
1070
     1
1070
   340
1005
133
1070
   271
1070
     2
1070
   272
1070
     2
1070
    77
1070
     1
1070
    73
1070
     1
1070
   171
1070
     3
1070
   274
1070
     4
1070
   177
1070
     2
1070
   176
1070
     2
1070
   178
1070
     2
1070
    78
1070
     8
1070
    48
1040
-0.1
1070
    41
1040
3.5
1070
   147
1040
1.5
1070
    42
1040
1.5875
1070
    44
1040
2.0
1070
   140
1040
3.0
1002
}
1001
ACAD_DSTYLE_DIM_LINETYPE
1070
   380
1005
16
1001
ACAD_DSTYLE_DIM_EXT1_LINETYPE
1070
   381
1005
16
1001
ACAD_DSTYLE_DIM_EXT2_LINETYPE
1070
   382
1005
16
0
DIMENSION
5
16F
100
AcDbEntity
8
SK2
62
256
6
ByLayer
370
18
48
1
60
0
100
AcDbDimension
2
_U1
10
6
20
-29.800885
30
0
11
48
21
-29.800885
31
0
70
32
71
1
72
1
41
1
210
0
220
0
230
1
3
Standard
100
AcDbAlignedDimension
13
90
23
-4
33
0
14
6
24
-4
34
0
50
0
100
AcDbRotatedDimension
1001
ACAD
1000
DSTYLE
1002
{
1070
   371
1070
    13
1070
   372
1070
    13
1070
     3
1000

1070
   170
1070
     0
1070
   144
1040
1.0
1070
   277
1070
     2
1070
   284
1070
     8
1070
   278
1070
    46
1070
   146
1040
1.166667
1070
   345
1005
16
1070
   347
1005
16
1070
   346
1005
16
1070
   344
1005
0
1070
   343
1005
0
1070
   172
1070
     1
1070
    76
1070
     0
1070
    75
1070
     0
1070
   282
1070
     0
1070
   281
1070
     0
1070
    71
1070
     0
1070
    74
1070
     0
1070
   279
1070
     0
1070
   173
1070
     1
1070
   340
1005
133
1070
   271
1070
     2
1070
   272
1070
     2
1070
    77
1070
     1
1070
    73
1070
     1
1070
   171
1070
     3
1070
   274
1070
     4
1070
   177
1070
     2
1070
   176
1070
     2
1070
   178
1070
     2
1070
    78
1070
     8
1070
    48
1040
-0.1
1070
    41
1040
3.5
1070
   147
1040
1.5
1070
    42
1040
1.5875
1070
    44
1040
2.0
1070
   140
1040
3.0
1002
}
1001
ACAD_DSTYLE_DIM_LINETYPE
1070
   380
1005
16
1001
ACAD_DSTYLE_DIM_EXT1_LINETYPE
1070
   381
1005
16
1001
ACAD_DSTYLE_DIM_EXT2_LINETYPE
1070
   382
1005
16
0
DIMENSION
5
187
100
AcDbEntity
8
SK2
62
256
6
ByLayer
370
18
48
1
60
0
100
AcDbDimension
2
_U2
10
0
20
-37.800885
30
0
11
-18
21
-37.800885
31
0
70
32
71
1
72
1
41
1
210
0
220
0
230
1
3
Standard
100
AcDbAlignedDimension
13
-36
23
-4
33
0
14
0
24
-4
34
0
50
0
100
AcDbRotatedDimension
1001
ACAD
1000
DSTYLE
1002
{
1070
   371
1070
    13
1070
   372
1070
    13
1070
     3
1000

1070
   170
1070
     0
1070
   144
1040
1.0
1070
   277
1070
     2
1070
   284
1070
     8
1070
   278
1070
    46
1070
   146
1040
1.166667
1070
   345
1005
16
1070
   347
1005
16
1070
   346
1005
16
1070
   344
1005
0
1070
   343
1005
0
1070
   172
1070
     1
1070
    76
1070
     0
1070
    75
1070
     0
1070
   282
1070
     0
1070
   281
1070
     0
1070
    71
1070
     0
1070
    74
1070
     0
1070
   279
1070
     0
1070
   173
1070
     1
1070
   340
1005
133
1070
   271
1070
     2
1070
   272
1070
     2
1070
    77
1070
     1
1070
    73
1070
     1
1070
   171
1070
     3
1070
   274
1070
     4
1070
   177
1070
     2
1070
   176
1070
     2
1070
   178
1070
     2
1070
    78
1070
     8
1070
    48
1040
-0.1
1070
    41
1040
3.5
1070
   147
1040
1.5
1070
    42
1040
1.5875
1070
    44
1040
2.0
1070
   140
1040
3.0
1002
}
1001
ACAD_DSTYLE_DIM_LINETYPE
1070
   380
1005
16
1001
ACAD_DSTYLE_DIM_EXT1_LINETYPE
1070
   381
1005
16
1001
ACAD_DSTYLE_DIM_EXT2_LINETYPE
1070
   382
1005
16
0
DIMENSION
5
19F
100
AcDbEntity
8
SK2
62
256
6
ByLayer
370
18
48
1
60
0
100
AcDbDimension
2
_U3
10
90
20
-45.800885
30
0
11
27
21
-45.800885
31
0
70
32
71
1
72
1
41
1
210
0
220
0
230
1
3
Standard
100
AcDbAlignedDimension
13
-36
23
-4
33
0
14
90
24
-4
34
0
50
0
100
AcDbRotatedDimension
1001
ACAD
1000
DSTYLE
1002
{
1070
   371
1070
    13
1070
   372
1070
    13
1070
     3
1000

1070
   170
1070
     0
1070
   144
1040
1.0
1070
   277
1070
     2
1070
   284
1070
     8
1070
   278
1070
    46
1070
   146
1040
1.166667
1070
   345
1005
16
1070
   347
1005
16
1070
   346
1005
16
1070
   344
1005
0
1070
   343
1005
0
1070
   172
1070
     1
1070
    76
1070
     0
1070
    75
1070
     0
1070
   282
1070
     0
1070
   281
1070
     0
1070
    71
1070
     0
1070
    74
1070
     0
1070
   279
1070
     0
1070
   173
1070
     1
1070
   340
1005
133
1070
   271
1070
     2
1070
   272
1070
     2
1070
    77
1070
     1
1070
    73
1070
     1
1070
   171
1070
     3
1070
   274
1070
     4
1070
   177
1070
     2
1070
   176
1070
     2
1070
   178
1070
     2
1070
    78
1070
     8
1070
    48
1040
-0.1
1070
    41
1040
3.5
1070
   147
1040
1.5
1070
    42
1040
1.5875
1070
    44
1040
2.0
1070
   140
1040
3.0
1002
}
1001
ACAD_DSTYLE_DIM_LINETYPE
1070
   380
1005
16
1001
ACAD_DSTYLE_DIM_EXT1_LINETYPE
1070
   381
1005
16
1001
ACAD_DSTYLE_DIM_EXT2_LINETYPE
1070
   382
1005
16
0
DIMENSION
5
1B7
100
AcDbEntity
8
2
62
256
6
ByLayer
370
18
48
1
60
0
100
AcDbDimension
2
_U4
10
0
20
-37.800885
30
0
11
45
21
-37.800885
31
0
70
32
71
1
72
1
41
1
210
0
220
0
230
1
3
Standard
100
AcDbAlignedDimension
13
90
23
-4
33
0
14
0
24
-4
34
0
50
0
100
AcDbRotatedDimension
1001
ACAD
1000
DSTYLE
1002
{
1070
   371
1070
    13
1070
   372
1070
    13
1070
     3
1000

1070
   170
1070
     0
1070
   144
1040
1.0
1070
   277
1070
     2
1070
   284
1070
     8
1070
   278
1070
    46
1070
   146
1040
1.166667
1070
   345
1005
16
1070
   347
1005
16
1070
   346
1005
16
1070
   344
1005
0
1070
   343
1005
0
1070
   172
1070
     1
1070
    76
1070
     0
1070
    75
1070
     0
1070
   282
1070
     0
1070
   281
1070
     0
1070
    71
1070
     0
1070
    74
1070
     0
1070
   279
1070
     0
1070
   173
1070
     1
1070
   340
1005
133
1070
   271
1070
     2
1070
   272
1070
     2
1070
    77
1070
     1
1070
    73
1070
     1
1070
   171
1070
     3
1070
   274
1070
     4
1070
   177
1070
     2
1070
   176
1070
     2
1070
   178
1070
     2
1070
    78
1070
     8
1070
    48
1040
-0.1
1070
    41
1040
3.5
1070
   147
1040
1.5
1070
    42
1040
1.5875
1070
    44
1040
2.0
1070
   140
1040
3.0
1002
}
1001
ACAD_DSTYLE_DIM_LINETYPE
1070
   380
1005
16
1001
ACAD_DSTYLE_DIM_EXT1_LINETYPE
1070
   381
1005
16
1001
ACAD_DSTYLE_DIM_EXT2_LINETYPE
1070
   382
1005
16
0
ENDSEC
0
SECTION
2
OBJECTS
0
DICTIONARY
5
23f
330
0
100
AcDbDictionary
280
0
281
1
3
ACAD_GROUP
350
240
3
ACAD_MLINESTYLE
350
241
0
DICTIONARY
5
240
330
0
100
AcDbDictionary
280
0
281
1
0
DICTIONARY
5
241
330
0
100
AcDbDictionary
280
0
281
1
3
Standard
350
18
0
MLINESTYLE
5
18
330
241
100
AcDbMlineStyle
2
Standard
70
0
3

62
256
51
90
52
90
71
2
49
-0.5
62
256
6
ByLayer
49
0.5
62
256
6
ByLayer
0
RASTERVARIABLES
5
22d
330

100
AcDbRasterVariables
90
0
70
1
71
1
72
1
0
ENDSEC
0
EOF
