0
SECTION
2
HEADER
9
$ACADVER
1
AC1015
9
$DWGCODEPAGE
3
ANSI_1252
9
$HANDSEED
5
22d
9
$ANGBASE
50
0
9
$ANGDIR
70
0
9
$ATTMODE
70
1
9
$AUNITS
70
0
9
$AUPREC
70
0
9
$CECOLOR
62
256
9
$CELTSCALE
40
1
9
$CELTYPE
6
ByLayer
9
$CELWEIGHT
370
18
9
$CLAYER
8
0
9
$CMLJUST
70
0
9
$CMLSCALE
40
1
9
$CMLSTYLE
2
Standard
9
$DIMSTYLE
2
Standard
9
$TEXTSIZE
40
0.2
9
$TEXTSTYLE
7
Standard
9
$LUNITS
70
2
9
$LUPREC
70
4
9
$EXTNAMES
290
1
9
$INSUNITS
70
4
9
$LTSCALE
40
1
9
$LWDISPLAY
290
1
9
$PDMODE
70
0
9
$PDSIZE
40
0
9
$PLINEGEN
70
0
0
ENDSEC
0
SECTION
2
CLASSES
0
CLASS
1
RASTERVARIABLES
2
AcDbRasterVariables
3
ISM
90
0
280
0
281
0
0
ENDSEC
0
SECTION
2
TABLES
0
TABLE
2
VPORT
5
223
100
AcDbSymbolTable
0
VPORT
5
1
100
AcDbSymbolTableRecord
100
AcDbViewportTableRecord
2
*Active
70
0
10
0
20
0
11
1
21
1
12
-1
22
1
13
0
23
0
14
0.5
24
0.5
15
10
25
10
16
0
26
0
36
1
17
0
27
0
37
0
0
ENDTAB
0
TABLE
2
LTYPE
5
224
100
AcDbSymbolTable
0
LTYPE
5
14
100
AcDbSymbolTableRecord
100
AcDbLinetypeTableRecord
70
0
2
ByBlock
3

72
65
73
0
40
0
0
LTYPE
5
15
100
AcDbSymbolTableRecord
100
AcDbLinetypeTableRecord
70
0
2
ByLayer
3

72
65
73
0
40
0
0
LTYPE
5
16
100
AcDbSymbolTableRecord
100
AcDbLinetypeTableRecord
70
0
2
Continuous
3
Solid line
72
65
73
0
40
0
0
LTYPE
5
6E
100
AcDbSymbolTableRecord
100
AcDbLinetypeTableRecord
70
0
2
CENTER
3
____ _ ____ _ ____ _ ____
72
65
73
4
40
47.5
49
22
74
0
49
-8.5
74
0
49
8.5
74
0
49
-8.5
74
0
0
LTYPE
5
6F
100
AcDbSymbolTableRecord
100
AcDbLinetypeTableRecord
70
0
2
DASHED
3
__ __ __ __ __ __ __ __ __
72
65
73
2
40
25.72
49
12.86
74
0
49
-12.86
74
0
0
ENDTAB
0
TABLE
2
LAYER
5
225
100
AcDbSymbolTable
0
LAYER
5
10
100
AcDbSymbolTableRecord
100
AcDbLayerTableRecord
2
0
70
0
62
7
6
Continuous
290
1
370
-3
390
0
0
LAYER
5
71
100
AcDbSymbolTableRecord
100
AcDbLayerTableRecord
2
80
70
0
62
-6
6
Continuous
290
1
370
-3
390
0
0
LAYER
5
73
100
AcDbSymbolTableRecord
100
AcDbLayerTableRecord
2
81
70
0
62
-3
6
Continuous
290
1
370
-3
390
0
0
LAYER
5
75
100
AcDbSymbolTableRecord
100
AcDbLayerTableRecord
2
1
70
0
62
4
6
Continuous
290
1
370
-3
390
0
0
LAYER
5
83
100
AcDbSymbolTableRecord
100
AcDbLayerTableRecord
2
4
70
0
62
-2
6
CENTER
290
1
370
-3
390
0
0
LAYER
5
A5
100
AcDbSymbolTableRecord
100
AcDbLayerTableRecord
2
2
70
0
62
7
6
Continuous
290
1
370
-3
390
0
0
LAYER
5
138
100
AcDbSymbolTableRecord
100
AcDbLayerTableRecord
2
Defpoints
70
0
62
7
6
Continuous
290
0
370
-3
390
0
0
LAYER
5
20f
100
AcDbSymbolTableRecord
100
AcDbLayerTableRecord
2
SK4
70
0
62
2
6
CENTER
290
1
370
-3
390
0
0
LAYER
5
210
100
AcDbSymbolTableRecord
100
AcDbLayerTableRecord
2
SK1
70
0
62
4
6
Continuous
290
1
370
-3
390
0
0
LAYER
5
211
100
AcDbSymbolTableRecord
100
AcDbLayerTableRecord
2
SK2
70
0
62
7
6
Continuous
290
1
370
-3
390
0
0
LAYER
5
212
100
AcDbSymbolTableRecord
100
AcDbLayerTableRecord
2
SK6
70
0
62
5
6
Continuous
290
1
370
-3
390
0
0
ENDTAB
0
TABLE
2
STYLE
5
226
100
AcDbSymbolTable
0
STYLE
5
11
100
AcDbSymbolTableRecord
100
AcDbTextStyleTableRecord
2
Standard
3
txt
70
0
71
0
40
0
41
1
42
0
50
0
0
STYLE
5
114
100
AcDbSymbolTableRecord
100
AcDbTextStyleTableRecord
2
iso_b_vert
3
simplex.shx
70
0
71
0
40
0
41
1
42
0
50
0
0
STYLE
5
115
100
AcDbSymbolTableRecord
100
AcDbTextStyleTableRecord
2
DWGDirectTextStyle
3
simplex
70
0
71
0
40
0
41
1
42
0
50
0
0
ENDTAB
0
TABLE
2
DIMSTYLE
5
227
100
AcDbSymbolTable
100
AcDbDimStyleTable
0
DIMSTYLE
105
27
100
AcDbSymbolTableRecord
100
AcDbDimStyleTableRecord
2
Standard
70
0
3
<>
41
0.18
42
0.0625
44
0.18
140
0.18
147
0.09
73
0
74
0
77
1
271
2
275
0
278
52
280
0
340
11
0
ENDTAB
0
TABLE
2
VIEW
5
228
100
AcDbSymbolTable
0
ENDTAB
0
TABLE
2
UCS
5
229
100
AcDbSymbolTable
0
ENDTAB
0
TABLE
2
APPID
5
22a
100
AcDbSymbolTable
0
APPID
5
12
100
AcDbSymbolTableRecord
100
AcDbRegAppTableRecord
2
ACAD
70
0
0
APPID
5
134
100
AcDbSymbolTableRecord
100
AcDbRegAppTableRecord
2
ACAD_DSTYLE_DIMBREAK
70
0
0
APPID
5
1CE
100
AcDbSymbolTableRecord
100
AcDbRegAppTableRecord
2
ACAD_DSTYLE_DIM_LINETYPE
70
0
0
APPID
5
1CF
100
AcDbSymbolTableRecord
100
AcDbRegAppTableRecord
2
ACAD_DSTYLE_DIM_EXT1_LINETYPE
70
0
0
APPID
5
1D0
100
AcDbSymbolTableRecord
100
AcDbRegAppTableRecord
2
ACAD_DSTYLE_DIM_EXT2_LINETYPE
70
0
0
APPID
5
20B
100
AcDbSymbolTableRecord
100
AcDbRegAppTableRecord
2
ACAD_MLEADERVER
70
0
0
ENDTAB
0
TABLE
2
BLOCK_RECORD
5
22b
100
AcDbSymbolTable
0
BLOCK_RECORD
5
1F
100
AcDbSymbolTableRecord
100
AcDbBlockTableRecord
2
*Model_Space
340
0
70
0
0
BLOCK_RECORD
5
1B
100
AcDbSymbolTableRecord
100
AcDbBlockTableRecord
2
*Paper_Space
340
0
70
0
0
BLOCK_RECORD
5
23
100
AcDbSymbolTableRecord
100
AcDbBlockTableRecord
2
*Paper_Space0
340
0
70
0
0
BLOCK_RECORD
5
139
100
AcDbSymbolTableRecord
100
AcDbBlockTableRecord
2
*D1
340
0
70
0
0
BLOCK_RECORD
5
145
100
AcDbSymbolTableRecord
100
AcDbBlockTableRecord
2
_U0
340
0
70
0
0
BLOCK_RECORD
5
153
100
AcDbSymbolTableRecord
100
AcDbBlockTableRecord
2
*D3
340
0
70
0
0
BLOCK_RECORD
5
15F
100
AcDbSymbolTableRecord
100
AcDbBlockTableRecord
2
_U1
340
0
70
0
0
BLOCK_RECORD
5
16B
100
AcDbSymbolTableRecord
100
AcDbBlockTableRecord
2
*D5
340
0
70
0
0
BLOCK_RECORD
5
177
100
AcDbSymbolTableRecord
100
AcDbBlockTableRecord
2
_U2
340
0
70
0
0
BLOCK_RECORD
5
183
100
AcDbSymbolTableRecord
100
AcDbBlockTableRecord
2
*D7
340
0
70
0
0
BLOCK_RECORD
5
18F
100
AcDbSymbolTableRecord
100
AcDbBlockTableRecord
2
_U3
340
0
70
0
0
BLOCK_RECORD
5
19B
100
AcDbSymbolTableRecord
100
AcDbBlockTableRecord
2
*D9
340
0
70
0
0
BLOCK_RECORD
5
1A7
100
AcDbSymbolTableRecord
100
AcDbBlockTableRecord
2
_U4
340
0
70
0
0
ENDTAB
0
ENDSEC
0
SECTION
2
BLOCKS
0
BLOCK
5
20
100
AcDbEntity
8
0
100
AcDbBlockBegin
2
*Model_Space
70
0
10
0
20
0
30
0
3
*Model_Space
0
ENDBLK
5
21
100
AcDbEntity
8
0
100
AcDbBlockEnd
0
BLOCK
5
1C
100
AcDbEntity
8
0
100
AcDbBlockBegin
2
*Paper_Space
70
0
10
0
20
0
30
0
3
*Paper_Space
0
ENDBLK
5
1D
100
AcDbEntity
8
0
100
AcDbBlockEnd
0
BLOCK
5
24
100
AcDbEntity
8
0
100
AcDbBlockBegin
2
*Paper_Space0
70
0
10
0
20
0
30
0
3
*Paper_Space0
0
ENDBLK
5
25
100
AcDbEntity
8
0
100
AcDbBlockEnd
0
BLOCK
5
13A
100
AcDbEntity
8
0
100
AcDbBlockBegin
2
*D1
70
1
10
0
20
0
30
0
3
*D1
0
LINE
5
13C
100
AcDbEntity
8
0
62
256
6
ByLayer
370
-2
48
1
60
0
100
AcDbLine
10
112
20
-5.8375
30
0
11
112
21
-23.613131
31
0
39
0
210
0
220
0
230
1
0
LINE
5
13D
100
AcDbEntity
8
0
62
256
6
ByLayer
370
-2
48
1
60
0
100
AcDbLine
10
42.5
20
-5.8375
30
0
11
42.5
21
-23.613131
31
0
39
0
210
0
220
0
230
1
0
LINE
5
13E
100
AcDbEntity
8
0
62
256
6
ByLayer
370
-2
48
1
60
0
100
AcDbLine
10
108.5
20
-21.613131
30
0
11
46
21
-21.613131
31
0
39
0
210
0
220
0
230
1
0
SOLID
5
13F
100
AcDbEntity
8
0
62
256
6
ByLayer
370
-1
48
1
60
0
100
AcDbTrace
10
108.5
20
-22.196464
30
0
11
108.5
21
-21.029798
31
0
12
112
22
-21.613131
32
0
13
112
23
-21.613131
33
0
39
0
210
0
220
0
230
1
0
SOLID
5
140
100
AcDbEntity
8
0
62
256
6
ByLayer
370
-1
48
1
60
0
100
AcDbTrace
10
46
20
-21.029798
30
0
11
46
21
-22.196464
31
0
12
42.5
22
-21.613131
32
0
13
42.5
23
-21.613131
33
0
39
0
210
0
220
0
230
1
0
MTEXT
5
141
100
AcDbEntity
8
0
62
256
6
ByLayer
370
18
48
1
60
0
100
AcDbMText
10
77.25
20
-15.613131
30
0
210
0
220
0
230
1
1
\A1;69.5
40
3
41
0
44
1
50
0
71
5
72
5
7
iso_b_vert
0
POINT
5
142
100
AcDbEntity
8
Defpoints
62
0
6
ByLayer
370
-1
48
1
60
0
100
AcDbPoint
10
112
20
-4.25
30
0
39
0
210
0
220
0
230
1
50
360
0
POINT
5
143
100
AcDbEntity
8
Defpoints
62
0
6
ByLayer
370
-1
48
1
60
0
100
AcDbPoint
10
42.5
20
-4.25
30
0
39
0
210
0
220
0
230
1
50
360
0
POINT
5
144
100
AcDbEntity
8
Defpoints
62
0
6
ByLayer
370
-1
48
1
60
0
100
AcDbPoint
10
42.5
20
-21.613131
30
0
39
0
210
0
220
0
230
1
50
360
0
ENDBLK
5
13B
100
AcDbEntity
8
0
100
AcDbBlockEnd
0
BLOCK
5
14E
100
AcDbEntity
8
0
100
AcDbBlockBegin
2
_U0
70
0
10
0
20
0
30
0
3
_U0
0
MTEXT
5
146
100
AcDbEntity
8
SK2
62
256
6
ByLayer
370
18
48
1
60
0
100
AcDbMText
10
73.888544
20
-19.415516
30
0
210
0
220
0
230
1
1
\W0.7346;69.5
40
3
41
0
44
1.084337
50
0
71
7
72
5
7
iso_b_vert
0
MTEXT
5
147
100
AcDbEntity
8
SK2
62
256
6
ByLayer
370
18
48
1
60
0
100
AcDbMText
10
71.788544
20
-19.415516
30
0
210
0
220
0
230
1
1
\W1.1313;{\H1.88x;(}
40
3
41
0
44
1.084337
50
0
71
7
72
5
7
iso_b_vert
0
MTEXT
5
148
100
AcDbEntity
8
SK2
62
256
6
ByLayer
370
18
48
1
60
0
100
AcDbMText
10
80.929456
20
-19.415516
30
0
210
0
220
0
230
1
1
\W1.1313;{\H1.88x;)}
40
3
41
0
44
1.084337
50
0
71
7
72
5
7
iso_b_vert
0
LINE
5
149
100
AcDbEntity
8
SK2
62
256
6
ByLayer
370
13
48
1
60
0
100
AcDbLine
10
112
20
-5.8375
30
0
11
112
21
-23.613131
31
0
39
0
210
0
220
0
230
1
0
LINE
5
14A
100
AcDbEntity
8
SK2
62
256
6
ByLayer
370
13
48
1
60
0
100
AcDbLine
10
42.5
20
-5.8375
30
0
11
42.5
21
-23.613131
31
0
39
0
210
0
220
0
230
1
0
LINE
5
14B
100
AcDbEntity
8
SK2
62
256
6
ByLayer
370
13
48
1
60
0
100
AcDbLine
10
112
20
-21.613131
30
0
11
42.5
21
-21.613131
31
0
39
0
210
0
220
0
230
1
0
SOLID
5
14C
100
AcDbEntity
8
SK2
62
256
6
ByLayer
370
18
48
1
60
0
100
AcDbTrace
10
112
20
-21.613131
30
0
11
108.500002
21
-22.073915
31
0
12
108.499998
22
-21.152347
32
0
13
108.499998
23
-21.152347
33
0
39
0
210
0
220
0
230
1
0
SOLID
5
14D
100
AcDbEntity
8
SK2
62
256
6
ByLayer
370
18
48
1
60
0
100
AcDbTrace
10
42.5
20
-21.613131
30
0
11
45.999998
21
-21.152347
31
0
12
46.000002
22
-22.073915
32
0
13
46.000002
23
-22.073915
33
0
39
0
210
0
220
0
230
1
0
ENDBLK
5
14F
100
AcDbEntity
8
0
100
AcDbBlockEnd
0
BLOCK
5
154
100
AcDbEntity
8
0
100
AcDbBlockBegin
2
*D3
70
1
10
0
20
0
30
0
3
*D3
0
LINE
5
156
100
AcDbEntity
8
0
62
256
6
ByLayer
370
-2
48
1
60
0
100
AcDbLine
10
112
20
-5.8375
30
0
11
112
21
-33.613131
31
0
39
0
210
0
220
0
230
1
0
LINE
5
157
100
AcDbEntity
8
0
62
256
6
ByLayer
370
-2
48
1
60
0
100
AcDbLine
10
6
20
-5.8375
30
0
11
6
21
-33.613131
31
0
39
0
210
0
220
0
230
1
0
LINE
5
158
100
AcDbEntity
8
0
62
256
6
ByLayer
370
-2
48
1
60
0
100
AcDbLine
10
108.5
20
-31.613131
30
0
11
9.5
21
-31.613131
31
0
39
0
210
0
220
0
230
1
0
SOLID
5
159
100
AcDbEntity
8
0
62
256
6
ByLayer
370
-1
48
1
60
0
100
AcDbTrace
10
108.5
20
-32.196464
30
0
11
108.5
21
-31.029798
31
0
12
112
22
-31.613131
32
0
13
112
23
-31.613131
33
0
39
0
210
0
220
0
230
1
0
SOLID
5
15A
100
AcDbEntity
8
0
62
256
6
ByLayer
370
-1
48
1
60
0
100
AcDbTrace
10
9.5
20
-31.029798
30
0
11
9.5
21
-32.196464
31
0
12
6
22
-31.613131
32
0
13
6
23
-31.613131
33
0
39
0
210
0
220
0
230
1
0
MTEXT
5
15B
100
AcDbEntity
8
0
62
256
6
ByLayer
370
18
48
1
60
0
100
AcDbMText
10
59
20
-25.613131
30
0
210
0
220
0
230
1
1
\A1;106
40
3
41
0
44
1
50
0
71
5
72
5
7
iso_b_vert
0
POINT
5
15C
100
AcDbEntity
8
Defpoints
62
0
6
ByLayer
370
-1
48
1
60
0
100
AcDbPoint
10
112
20
-4.25
30
0
39
0
210
0
220
0
230
1
50
360
0
POINT
5
15D
100
AcDbEntity
8
Defpoints
62
0
6
ByLayer
370
-1
48
1
60
0
100
AcDbPoint
10
6
20
-4.25
30
0
39
0
210
0
220
0
230
1
50
360
0
POINT
5
15E
100
AcDbEntity
8
Defpoints
62
0
6
ByLayer
370
-1
48
1
60
0
100
AcDbPoint
10
6
20
-31.613131
30
0
39
0
210
0
220
0
230
1
50
360
0
ENDBLK
5
155
100
AcDbEntity
8
0
100
AcDbBlockEnd
0
BLOCK
5
166
100
AcDbEntity
8
0
100
AcDbBlockBegin
2
_U1
70
0
10
0
20
0
30
0
3
_U1
0
MTEXT
5
160
100
AcDbEntity
8
SK2
62
256
6
ByLayer
370
18
48
1
60
0
100
AcDbMText
10
56.621201
20
-30.728016
30
0
210
0
220
0
230
1
1
\W0.6217;106
40
3
41
0
44
1.084337
50
0
71
7
72
5
7
iso_b_vert
0
LINE
5
161
100
AcDbEntity
8
SK2
62
256
6
ByLayer
370
13
48
1
60
0
100
AcDbLine
10
112
20
-5.8375
30
0
11
112
21
-33.613131
31
0
39
0
210
0
220
0
230
1
0
LINE
5
162
100
AcDbEntity
8
SK2
62
256
6
ByLayer
370
13
48
1
60
0
100
AcDbLine
10
6
20
-5.8375
30
0
11
6
21
-33.613131
31
0
39
0
210
0
220
0
230
1
0
LINE
5
163
100
AcDbEntity
8
SK2
62
256
6
ByLayer
370
13
48
1
60
0
100
AcDbLine
10
112
20
-31.613131
30
0
11
6
21
-31.613131
31
0
39
0
210
0
220
0
230
1
0
SOLID
5
164
100
AcDbEntity
8
SK2
62
256
6
ByLayer
370
18
48
1
60
0
100
AcDbTrace
10
112
20
-31.613131
30
0
11
108.500002
21
-32.073915
31
0
12
108.499998
22
-31.152347
32
0
13
108.499998
23
-31.152347
33
0
39
0
210
0
220
0
230
1
0
SOLID
5
165
100
AcDbEntity
8
SK2
62
256
6
ByLayer
370
18
48
1
60
0
100
AcDbTrace
10
6
20
-31.613131
30
0
11
9.499998
21
-31.152347
31
0
12
9.500002
22
-32.073915
32
0
13
9.500002
23
-32.073915
33
0
39
0
210
0
220
0
230
1
0
ENDBLK
5
167
100
AcDbEntity
8
0
100
AcDbBlockEnd
0
BLOCK
5
16C
100
AcDbEntity
8
0
100
AcDbBlockBegin
2
*D5
70
1
10
0
20
0
30
0
3
*D5
0
LINE
5
16E
100
AcDbEntity
8
0
62
256
6
ByLayer
370
-2
48
1
60
0
100
AcDbLine
10
-40
20
-6.5875
30
0
11
-40
21
-41.613131
31
0
39
0
210
0
220
0
230
1
0
LINE
5
16F
100
AcDbEntity
8
0
62
256
6
ByLayer
370
-2
48
1
60
0
100
AcDbLine
10
0
20
-6.5875
30
0
11
0
21
-41.613131
31
0
39
0
210
0
220
0
230
1
0
LINE
5
170
100
AcDbEntity
8
0
62
256
6
ByLayer
370
-2
48
1
60
0
100
AcDbLine
10
-36.5
20
-39.613131
30
0
11
-3.5
21
-39.613131
31
0
39
0
210
0
220
0
230
1
0
SOLID
5
171
100
AcDbEntity
8
0
62
256
6
ByLayer
370
-1
48
1
60
0
100
AcDbTrace
10
-36.5
20
-39.029798
30
0
11
-36.5
21
-40.196464
31
0
12
-40
22
-39.613131
32
0
13
-40
23
-39.613131
33
0
39
0
210
0
220
0
230
1
0
SOLID
5
172
100
AcDbEntity
8
0
62
256
6
ByLayer
370
-1
48
1
60
0
100
AcDbTrace
10
-3.5
20
-40.196464
30
0
11
-3.5
21
-39.029798
31
0
12
0
22
-39.613131
32
0
13
0
23
-39.613131
33
0
39
0
210
0
220
0
230
1
0
MTEXT
5
173
100
AcDbEntity
8
0
62
256
6
ByLayer
370
18
48
1
60
0
100
AcDbMText
10
-20
20
-33.613131
30
0
210
0
220
0
230
1
1
\A1;40
40
3
41
0
44
1
50
0
71
5
72
5
7
iso_b_vert
0
POINT
5
174
100
AcDbEntity
8
Defpoints
62
0
6
ByLayer
370
-1
48
1
60
0
100
AcDbPoint
10
-40
20
-5
30
0
39
0
210
0
220
0
230
1
50
360
0
POINT
5
175
100
AcDbEntity
8
Defpoints
62
0
6
ByLayer
370
-1
48
1
60
0
100
AcDbPoint
10
0
20
-5
30
0
39
0
210
0
220
0
230
1
50
360
0
POINT
5
176
100
AcDbEntity
8
Defpoints
62
0
6
ByLayer
370
-1
48
1
60
0
100
AcDbPoint
10
0
20
-39.613131
30
0
39
0
210
0
220
0
230
1
50
360
0
ENDBLK
5
16D
100
AcDbEntity
8
0
100
AcDbBlockEnd
0
BLOCK
5
17E
100
AcDbEntity
8
0
100
AcDbBlockBegin
2
_U2
70
0
10
0
20
0
30
0
3
_U2
0
MTEXT
5
178
100
AcDbEntity
8
SK2
62
256
6
ByLayer
370
18
48
1
60
0
100
AcDbMText
10
-21.790771
20
-38.728016
30
0
210
0
220
0
230
1
1
\W0.7361;40
40
3
41
0
44
1.084337
50
0
71
7
72
5
7
iso_b_vert
0
LINE
5
179
100
AcDbEntity
8
SK2
62
256
6
ByLayer
370
13
48
1
60
0
100
AcDbLine
10
-40
20
-6.5875
30
0
11
-40
21
-41.613131
31
0
39
0
210
0
220
0
230
1
0
LINE
5
17A
100
AcDbEntity
8
SK2
62
256
6
ByLayer
370
13
48
1
60
0
100
AcDbLine
10
0
20
-6.5875
30
0
11
0
21
-41.613131
31
0
39
0
210
0
220
0
230
1
0
LINE
5
17B
100
AcDbEntity
8
SK2
62
256
6
ByLayer
370
13
48
1
60
0
100
AcDbLine
10
-40
20
-39.613131
30
0
11
0
21
-39.613131
31
0
39
0
210
0
220
0
230
1
0
SOLID
5
17C
100
AcDbEntity
8
SK2
62
256
6
ByLayer
370
18
48
1
60
0
100
AcDbTrace
10
-40
20
-39.613131
30
0
11
-36.500002
21
-39.152347
31
0
12
-36.499998
22
-40.073915
32
0
13
-36.499998
23
-40.073915
33
0
39
0
210
0
220
0
230
1
0
SOLID
5
17D
100
AcDbEntity
8
SK2
62
256
6
ByLayer
370
18
48
1
60
0
100
AcDbTrace
10
0
20
-39.613131
30
0
11
-3.499998
21
-40.073915
31
0
12
-3.500002
22
-39.152347
32
0
13
-3.500002
23
-39.152347
33
0
39
0
210
0
220
0
230
1
0
ENDBLK
5
17F
100
AcDbEntity
8
0
100
AcDbBlockEnd
0
BLOCK
5
184
100
AcDbEntity
8
0
100
AcDbBlockBegin
2
*D7
70
1
10
0
20
0
30
0
3
*D7
0
LINE
5
186
100
AcDbEntity
8
0
62
256
6
ByLayer
370
-2
48
1
60
0
100
AcDbLine
10
-40
20
-6.5875
30
0
11
-40
21
-49.613131
31
0
39
0
210
0
220
0
230
1
0
LINE
5
187
100
AcDbEntity
8
0
62
256
6
ByLayer
370
-2
48
1
60
0
100
AcDbLine
10
112
20
-5.8375
30
0
11
112
21
-49.613131
31
0
39
0
210
0
220
0
230
1
0
LINE
5
188
100
AcDbEntity
8
0
62
256
6
ByLayer
370
-2
48
1
60
0
100
AcDbLine
10
-36.5
20
-47.613131
30
0
11
108.5
21
-47.613131
31
0
39
0
210
0
220
0
230
1
0
SOLID
5
189
100
AcDbEntity
8
0
62
256
6
ByLayer
370
-1
48
1
60
0
100
AcDbTrace
10
-36.5
20
-47.029798
30
0
11
-36.5
21
-48.196464
31
0
12
-40
22
-47.613131
32
0
13
-40
23
-47.613131
33
0
39
0
210
0
220
0
230
1
0
SOLID
5
18A
100
AcDbEntity
8
0
62
256
6
ByLayer
370
-1
48
1
60
0
100
AcDbTrace
10
108.5
20
-48.196464
30
0
11
108.5
21
-47.029798
31
0
12
112
22
-47.613131
32
0
13
112
23
-47.613131
33
0
39
0
210
0
220
0
230
1
0
MTEXT
5
18B
100
AcDbEntity
8
0
62
256
6
ByLayer
370
18
48
1
60
0
100
AcDbMText
10
36
20
-41.613131
30
0
210
0
220
0
230
1
1
\A1;152
40
3
41
0
44
1
50
0
71
5
72
5
7
iso_b_vert
0
POINT
5
18C
100
AcDbEntity
8
Defpoints
62
0
6
ByLayer
370
-1
48
1
60
0
100
AcDbPoint
10
-40
20
-5
30
0
39
0
210
0
220
0
230
1
50
360
0
POINT
5
18D
100
AcDbEntity
8
Defpoints
62
0
6
ByLayer
370
-1
48
1
60
0
100
AcDbPoint
10
112
20
-4.25
30
0
39
0
210
0
220
0
230
1
50
360
0
POINT
5
18E
100
AcDbEntity
8
Defpoints
62
0
6
ByLayer
370
-1
48
1
60
0
100
AcDbPoint
10
112
20
-47.613131
30
0
39
0
210
0
220
0
230
1
50
360
0
ENDBLK
5
185
100
AcDbEntity
8
0
100
AcDbBlockEnd
0
BLOCK
5
196
100
AcDbEntity
8
0
100
AcDbBlockBegin
2
_U3
70
0
10
0
20
0
30
0
3
_U3
0
MTEXT
5
190
100
AcDbEntity
8
SK2
62
256
6
ByLayer
370
18
48
1
60
0
100
AcDbMText
10
33.621201
20
-46.728016
30
0
210
0
220
0
230
1
1
\W0.6217;152
40
3
41
0
44
1.084337
50
0
71
7
72
5
7
iso_b_vert
0
LINE
5
191
100
AcDbEntity
8
SK2
62
256
6
ByLayer
370
13
48
1
60
0
100
AcDbLine
10
-40
20
-6.5875
30
0
11
-40
21
-49.613131
31
0
39
0
210
0
220
0
230
1
0
LINE
5
192
100
AcDbEntity
8
SK2
62
256
6
ByLayer
370
13
48
1
60
0
100
AcDbLine
10
112
20
-5.8375
30
0
11
112
21
-49.613131
31
0
39
0
210
0
220
0
230
1
0
LINE
5
193
100
AcDbEntity
8
SK2
62
256
6
ByLayer
370
13
48
1
60
0
100
AcDbLine
10
-40
20
-47.613131
30
0
11
112
21
-47.613131
31
0
39
0
210
0
220
0
230
1
0
SOLID
5
194
100
AcDbEntity
8
SK2
62
256
6
ByLayer
370
18
48
1
60
0
100
AcDbTrace
10
-40
20
-47.613131
30
0
11
-36.500002
21
-47.152347
31
0
12
-36.499998
22
-48.073915
32
0
13
-36.499998
23
-48.073915
33
0
39
0
210
0
220
0
230
1
0
SOLID
5
195
100
AcDbEntity
8
SK2
62
256
6
ByLayer
370
18
48
1
60
0
100
AcDbTrace
10
112
20
-47.613131
30
0
11
108.500002
21
-48.073915
31
0
12
108.499998
22
-47.152347
32
0
13
108.499998
23
-47.152347
33
0
39
0
210
0
220
0
230
1
0
ENDBLK
5
197
100
AcDbEntity
8
0
100
AcDbBlockEnd
0
BLOCK
5
19C
100
AcDbEntity
8
0
100
AcDbBlockBegin
2
*D9
70
1
10
0
20
0
30
0
3
*D9
0
LINE
5
19E
100
AcDbEntity
8
0
62
256
6
ByLayer
370
-2
48
1
60
0
100
AcDbLine
10
112
20
-5.8375
30
0
11
112
21
-41.613131
31
0
39
0
210
0
220
0
230
1
0
LINE
5
19F
100
AcDbEntity
8
0
62
256
6
ByLayer
370
-2
48
1
60
0
100
AcDbLine
10
0
20
-5.8375
30
0
11
0
21
-41.613131
31
0
39
0
210
0
220
0
230
1
0
LINE
5
1A0
100
AcDbEntity
8
0
62
256
6
ByLayer
370
-2
48
1
60
0
100
AcDbLine
10
108.5
20
-39.613131
30
0
11
3.5
21
-39.613131
31
0
39
0
210
0
220
0
230
1
0
SOLID
5
1A1
100
AcDbEntity
8
0
62
256
6
ByLayer
370
-1
48
1
60
0
100
AcDbTrace
10
108.5
20
-40.196464
30
0
11
108.5
21
-39.029798
31
0
12
112
22
-39.613131
32
0
13
112
23
-39.613131
33
0
39
0
210
0
220
0
230
1
0
SOLID
5
1A2
100
AcDbEntity
8
0
62
256
6
ByLayer
370
-1
48
1
60
0
100
AcDbTrace
10
3.5
20
-39.029798
30
0
11
3.5
21
-40.196464
31
0
12
0
22
-39.613131
32
0
13
0
23
-39.613131
33
0
39
0
210
0
220
0
230
1
0
MTEXT
5
1A3
100
AcDbEntity
8
0
62
256
6
ByLayer
370
18
48
1
60
0
100
AcDbMText
10
56
20
-33.613131
30
0
210
0
220
0
230
1
1
\A1;112
40
3
41
0
44
1
50
0
71
5
72
5
7
iso_b_vert
0
POINT
5
1A4
100
AcDbEntity
8
Defpoints
62
0
6
ByLayer
370
-1
48
1
60
0
100
AcDbPoint
10
112
20
-4.25
30
0
39
0
210
0
220
0
230
1
50
360
0
POINT
5
1A5
100
AcDbEntity
8
Defpoints
62
0
6
ByLayer
370
-1
48
1
60
0
100
AcDbPoint
10
0
20
-4.25
30
0
39
0
210
0
220
0
230
1
50
360
0
POINT
5
1A6
100
AcDbEntity
8
Defpoints
62
0
6
ByLayer
370
-1
48
1
60
0
100
AcDbPoint
10
0
20
-39.613131
30
0
39
0
210
0
220
0
230
1
50
360
0
ENDBLK
5
19D
100
AcDbEntity
8
0
100
AcDbBlockEnd
0
BLOCK
5
1AE
100
AcDbEntity
8
0
100
AcDbBlockBegin
2
_U4
70
0
10
0
20
0
30
0
3
_U4
0
MTEXT
5
1A8
100
AcDbEntity
8
2
62
256
6
ByLayer
370
18
48
1
60
0
100
AcDbMText
10
53.996143
20
-38.728016
30
0
210
0
220
0
230
1
1
\W0.5296;112
40
3
41
0
44
1.084337
50
0
71
7
72
5
7
iso_b_vert
0
LINE
5
1A9
100
AcDbEntity
8
2
62
256
6
ByLayer
370
13
48
1
60
0
100
AcDbLine
10
112
20
-5.8375
30
0
11
112
21
-41.613131
31
0
39
0
210
0
220
0
230
1
0
LINE
5
1AA
100
AcDbEntity
8
2
62
256
6
ByLayer
370
13
48
1
60
0
100
AcDbLine
10
0
20
-5.8375
30
0
11
0
21
-41.613131
31
0
39
0
210
0
220
0
230
1
0
LINE
5
1AB
100
AcDbEntity
8
2
62
256
6
ByLayer
370
13
48
1
60
0
100
AcDbLine
10
112
20
-39.613131
30
0
11
0
21
-39.613131
31
0
39
0
210
0
220
0
230
1
0
SOLID
5
1AC
100
AcDbEntity
8
2
62
256
6
ByLayer
370
18
48
1
60
0
100
AcDbTrace
10
112
20
-39.613131
30
0
11
108.500002
21
-40.073915
31
0
12
108.499998
22
-39.152347
32
0
13
108.499998
23
-39.152347
33
0
39
0
210
0
220
0
230
1
0
SOLID
5
1AD
100
AcDbEntity
8
2
62
256
6
ByLayer
370
18
48
1
60
0
100
AcDbTrace
10
0
20
-39.613131
30
0
11
3.499998
21
-39.152347
31
0
12
3.500002
22
-40.073915
32
0
13
3.500002
23
-40.073915
33
0
39
0
210
0
220
0
230
1
0
ENDBLK
5
1AF
100
AcDbEntity
8
0
100
AcDbBlockEnd
0
ENDSEC
0
SECTION
2
ENTITIES
0
ARC
5
C0
100
AcDbEntity
8
1
62
256
6
ByLayer
370
18
48
1
60
0
100
AcDbCircle
39
0
10
1.46032
20
-4.853809
30
0
40
0.800000000000002
210
0
220
0
230
1
100
AcDbArc
50
89.896868
51
155.881165
0
ARC
5
C1
100
AcDbEntity
8
1
62
256
6
ByLayer
370
18
48
1
60
0
100
AcDbCircle
39
0
10
1.46032
20
4.853809
30
0
40
0.800000000000002
210
0
220
0
230
1
100
AcDbArc
50
204.118835
51
270.103132
0
ARC
5
C2
100
AcDbEntity
8
1
62
256
6
ByLayer
370
18
48
1
60
0
100
AcDbCircle
39
0
10
0
20
-4.2
30
0
40
0.800000000000003
210
0
220
0
230
1
100
AcDbArc
50
270
51
335.881165
0
ARC
5
C3
100
AcDbEntity
8
1
62
256
6
ByLayer
370
18
48
1
60
0
100
AcDbCircle
39
0
10
0
20
4.2
30
0
40
0.800000000000003
210
0
220
0
230
1
100
AcDbArc
50
24.118835
51
90
0
ARC
5
C4
100
AcDbEntity
8
SK2
62
256
6
ByLayer
370
13
48
1
60
0
100
AcDbCircle
39
0
10
112
20
0
30
0
40
20.3845777932968
210
0
220
0
230
1
100
AcDbArc
50
8.462964
51
69.998494
0
ARC
5
C5
100
AcDbEntity
8
SK2
62
256
6
ByLayer
370
13
48
1
60
0
100
AcDbCircle
39
0
10
112
20
0
30
0
40
20.3845777932968
210
0
220
0
230
1
100
AcDbArc
50
290.001506
51
351.537036
0
ELLIPSE
5
C6
100
AcDbEntity
8
1
62
256
6
ByLayer
370
13
48
1
60
0
100
AcDbEllipse
10
69.600901
20
4.016652
30
0
11
-7.9186545226607E-05
21
0.00999968646963769
31
0
210
0
220
0
230
1
40
0.009056
41
-3.07460353182482
42
-1.50400300945372
0
ELLIPSE
5
C7
100
AcDbEntity
8
1
62
256
6
ByLayer
370
13
48
1
60
0
100
AcDbEllipse
10
69.63854
20
4.016382
30
0
11
-0.000243437551543696
21
-0.00999703646879906
31
0
210
0
220
0
230
1
40
0.426197
41
0.0764410619101517
42
1.64165280289123
0
POINT
5
70
100
AcDbEntity
8
80
62
256
6
ByLayer
370
18
48
1
60
0
100
AcDbPoint
10
0
20
0
30
0
39
0
210
0
220
0
230
1
50
360
0
POINT
5
72
100
AcDbEntity
8
81
62
256
6
ByLayer
370
18
48
1
60
0
100
AcDbPoint
10
112
20
0
30
0
39
0
210
0
220
0
230
1
50
360
0
POINT
5
74
100
AcDbEntity
8
1
62
256
6
ByLayer
370
18
48
1
60
0
100
AcDbPoint
10
-181.982711
20
-200
30
0
39
0
210
0
220
0
230
1
50
360
0
POINT
5
76
100
AcDbEntity
8
1
62
256
6
ByLayer
370
13
48
1
60
1
100
AcDbPoint
10
-41.5
20
0
30
0
39
0
210
0
220
0
230
1
50
360
0
POINT
5
77
100
AcDbEntity
8
1
62
256
6
ByLayer
370
13
48
1
60
1
100
AcDbPoint
10
111.945768
20
0
30
0
39
0
210
0
220
0
230
1
50
360
0
POINT
5
78
100
AcDbEntity
8
1
62
256
6
ByLayer
370
18
48
1
60
1
100
AcDbPoint
10
112
20
-4.25
30
0
39
0
210
0
220
0
230
1
50
360
0
POINT
5
79
100
AcDbEntity
8
1
62
256
6
ByLayer
370
18
48
1
60
1
100
AcDbPoint
10
42.5
20
-4.25
30
0
39
0
210
0
220
0
230
1
50
360
0
POINT
5
7A
100
AcDbEntity
8
1
62
256
6
ByLayer
370
18
48
1
60
1
100
AcDbPoint
10
112
20
-4.25
30
0
39
0
210
0
220
0
230
1
50
360
0
POINT
5
7B
100
AcDbEntity
8
1
62
256
6
ByLayer
370
18
48
1
60
1
100
AcDbPoint
10
6
20
-4.25
30
0
39
0
210
0
220
0
230
1
50
360
0
POINT
5
7C
100
AcDbEntity
8
1
62
256
6
ByLayer
370
18
48
1
60
1
100
AcDbPoint
10
-40
20
-5
30
0
39
0
210
0
220
0
230
1
50
360
0
POINT
5
7D
100
AcDbEntity
8
1
62
256
6
ByLayer
370
18
48
1
60
1
100
AcDbPoint
10
0
20
-5
30
0
39
0
210
0
220
0
230
1
50
360
0
POINT
5
7E
100
AcDbEntity
8
1
62
256
6
ByLayer
370
18
48
1
60
1
100
AcDbPoint
10
-40
20
-5
30
0
39
0
210
0
220
0
230
1
50
360
0
POINT
5
7F
100
AcDbEntity
8
1
62
256
6
ByLayer
370
18
48
1
60
1
100
AcDbPoint
10
112
20
-4.25
30
0
39
0
210
0
220
0
230
1
50
360
0
POINT
5
80
100
AcDbEntity
8
1
62
256
6
ByLayer
370
18
48
1
60
1
100
AcDbPoint
10
112
20
-4.25
30
0
39
0
210
0
220
0
230
1
50
360
0
POINT
5
81
100
AcDbEntity
8
1
62
256
6
ByLayer
370
18
48
1
60
1
100
AcDbPoint
10
0
20
-4.25
30
0
39
0
210
0
220
0
230
1
50
360
0
SPLINE
5
C8
100
AcDbEntity
8
1
62
256
6
ByLayer
370
18
48
1
60
0
100
AcDbSpline
70
4
71
3
72
8
73
4
40
0
40
0
40
0
40
0
40
1
40
1
40
1
40
1
41
1
10
111.529824542138
20
1.47562933651309
30
0
41
1
10
111.651121938441
20
1.13551007305773
30
0
41
1
10
111.771319025138
20
0.795005698881567
30
0
41
1
10
111.890391676072
20
0.45410776977829
30
0
0
SPLINE
5
C9
100
AcDbEntity
8
1
62
256
6
ByLayer
370
18
48
1
60
0
100
AcDbSpline
70
4
71
3
72
24
73
20
40
0
40
0
40
0
40
0
40
0.125000000000155
40
0.125000000000155
40
0.187500000000125
40
0.187500000000125
40
0.250000000000094
40
0.250000000000094
40
0.312500000000064
40
0.312500000000064
40
0.375000000000033
40
0.375000000000033
40
0.499999999999966
40
0.499999999999966
40
0.749999999999954
40
0.749999999999954
40
0.874999999999977
40
0.874999999999977
40
1
40
1
40
1
40
1
41
1
10
69.6009855996957
20
4.01732042342621
30
0
41
1
10
69.5931607810607
20
4.01726510000591
30
0
41
1
10
69.5855397975879
20
4.01796403060232
30
0
41
1
10
69.5743904504881
20
4.02005528235026
30
0
41
1
10
69.5707316584207
20
4.02092957158845
30
0
41
1
10
69.5637252195154
20
4.02295594583848
30
0
41
1
10
69.5603473868247
20
4.02411316784401
30
0
41
1
10
69.5538233188533
20
4.02669312845336
30
0
41
1
10
69.5506620418354
20
4.02812512862349
30
0
41
1
10
69.5446938027442
20
4.03117032329666
30
0
41
1
10
69.5418717155962
20
4.03278769979821
30
0
41
1
10
69.5338395802656
20
4.03789291967882
30
0
41
1
10
69.5290286826337
20
4.04166166506758
30
0
41
1
10
69.5163412146184
20
4.05364204271945
30
0
41
1
10
69.5103026739321
20
4.06230723397894
30
0
41
1
10
69.5041602137318
20
4.07606203699407
30
0
41
1
10
69.502653920403
20
4.08068797619083
30
0
41
1
10
69.500640596847
20
4.09001417698587
30
0
41
1
10
69.5001348917473
20
4.09474855809489
30
0
41
1
10
69.5001348917473
20
4.09944148232393
30
0
0
SPLINE
5
CA
100
AcDbEntity
8
1
62
256
6
ByLayer
370
13
48
1
60
0
100
AcDbSpline
70
4
71
3
72
10
73
6
40
0
40
0
40
0
40
0
40
0.5
40
0.5
40
1
40
1
40
1
40
1
41
1
10
69.6428074283633
20
4.0169864356497
30
0
41
1
10
69.6362405108202
20
4.01715105821657
30
0
41
1
10
69.6294604992821
20
4.01725845925404
30
0
41
1
10
69.6154908054079
20
4.01736922387306
30
0
41
1
10
69.6082464712765
20
4.01737175960011
30
0
41
1
10
69.6009855996957
20
4.01732042342621
30
0
0
SPLINE
5
CB
100
AcDbEntity
8
1
62
256
6
ByLayer
370
18
48
1
60
0
100
AcDbSpline
70
4
71
3
72
8
73
4
40
0
40
0
40
0
40
0
40
1
40
1
40
1
40
1
41
1
10
111.890391676072
20
0.45410776977829
30
0
41
1
10
111.925708552861
20
0.352997648644958
30
0
41
1
10
111.961846069985
20
0.252348559132315
30
0
41
1
10
111.998804408182
20
0.152142083361952
30
0
0
SPLINE
5
CC
100
AcDbEntity
8
1
62
256
6
ByLayer
370
18
48
1
60
0
100
AcDbSpline
70
4
71
3
72
22
73
18
40
0
40
0
40
0
40
0
40
0.500000000000164
40
0.500000000000164
40
0.750000000000165
40
0.750000000000165
40
0.875000000000162
40
0.875000000000162
40
0.937500000000165
40
0.937500000000165
40
0.968750000000082
40
0.968750000000082
40
0.984375000000046
40
0.984375000000046
40
0.992187500000023
40
0.992187500000023
40
1
40
1
40
1
40
1
41
1
10
110.385055353353
20
4.24984522110094
30
0
41
1
10
110.403378779016
20
4.22005922276733
30
0
41
1
10
110.421675299523
20
4.19022897268013
30
0
41
1
10
110.449134787134
20
4.14529473493121
30
0
41
1
10
110.458296899221
20
4.1302713370834
30
0
41
1
10
110.472080472219
20
4.10761253518521
30
0
41
1
10
110.476682234345
20
4.10003794338311
30
0
41
1
10
110.483596153256
20
4.08864304948943
30
0
41
1
10
110.485902130084
20
4.08484095430347
30
0
41
1
10
110.489291284919
20
4.07928049539353
30
0
41
1
10
110.490409892002
20
4.07744981017265
30
0
41
1
10
110.492164602917
20
4.07454191718008
30
0
41
1
10
110.492763721924
20
4.07354136426352
30
0
41
1
10
110.493645778196
20
4.07207674369835
30
0
41
1
10
110.493938232619
20
4.07159248169705
30
0
41
1
10
110.494486409653
20
4.07069805928208
30
0
41
1
10
110.494756371342
20
4.07026473059238
30
0
41
1
10
110.49492180682
20
4.07002288892923
30
0
0
SPLINE
5
CD
100
AcDbEntity
8
1
62
256
6
ByLayer
370
18
48
1
60
0
100
AcDbSpline
70
4
71
3
72
8
73
4
40
0
40
0
40
0
40
0
40
1
40
1
40
1
40
1
41
1
10
110.49492180682
20
-4.07002288892906
30
0
41
1
10
110.529796970915
20
-4.00945417707305
30
0
41
1
10
110.564688653967
20
-3.94887427278527
30
0
41
1
10
110.599593659627
20
-3.88829027570082
30
0
0
SPLINE
5
CE
100
AcDbEntity
8
1
62
256
6
ByLayer
370
18
48
1
60
0
100
AcDbSpline
70
4
71
3
72
24
73
20
40
0
40
0
40
0
40
0
40
0.0543738643822603
40
0.0543738643822603
40
0.189463312327619
40
0.189463312327619
40
0.257008036300299
40
0.257008036300299
40
0.324552760272979
40
0.324552760272979
40
0.459642208218383
40
0.459642208218383
40
0.594731656163787
40
0.594731656163787
40
0.729821104109192
40
0.729821104109192
40
0.864910552054596
40
0.864910552054596
40
1
40
1
40
1
40
1
41
1
10
110.033860884532
20
0.891639075398615
30
0
41
1
10
110.042907940343
20
0.9016285417365
30
0
41
1
10
110.052400138266
20
0.911830158968854
30
0
41
1
10
110.086924020922
20
0.94805098497676
30
0
41
1
10
110.1140790591
20
0.975165947865946
30
0
41
1
10
110.158908009542
20
1.01740986247472
30
0
41
1
10
110.174541667986
20
1.03174878148798
30
0
41
1
10
110.207311620108
20
1.0608532064434
30
0
41
1
10
110.224533315226
20
1.0756870554857
30
0
41
1
10
110.277798053872
20
1.11993180838311
30
0
41
1
10
110.31552844446
20
1.14921195433348
30
0
41
1
10
110.39617170751
20
1.20602769581578
30
0
41
1
10
110.439087094271
20
1.23356278046555
30
0
41
1
10
110.531330571495
20
1.2851504404519
30
0
41
1
10
110.579061257758
20
1.30827731996504
30
0
41
1
10
110.67797709879
20
1.34809027266792
30
0
41
1
10
110.729179032852
20
1.36476285308848
30
0
41
1
10
110.83525319776
20
1.39078023947974
30
0
41
1
10
110.888814441655
20
1.39980801541469
30
0
41
1
10
110.942881628063
20
1.40520093614865
30
0
0
SPLINE
5
CF
100
AcDbEntity
8
1
62
256
6
ByLayer
370
18
48
1
60
0
100
AcDbSpline
70
4
71
3
72
8
73
4
40
0
40
0
40
0
40
0
40
1
40
1
40
1
40
1
41
1
10
110.942881628063
20
1.4052009361487
30
0
41
1
10
111.139103466276
20
1.42477304429875
30
0
41
1
10
111.334924594848
20
1.44706960398335
30
0
41
1
10
111.529824542143
20
1.4756293365148
30
0
0
SPLINE
5
D0
100
AcDbEntity
8
1
62
256
6
ByLayer
370
18
48
1
60
0
100
AcDbSpline
70
4
71
3
72
30
73
26
40
0
40
0
40
0
40
0
40
0.124999999999995
40
0.124999999999995
40
0.249999999999991
40
0.249999999999991
40
0.374999999999986
40
0.374999999999986
40
0.437499999999984
40
0.437499999999984
40
0.468749999999983
40
0.468749999999983
40
0.499999999999982
40
0.499999999999982
40
0.624999999999968
40
0.624999999999968
40
0.687499999999955
40
0.687499999999955
40
0.718749999999954
40
0.718749999999954
40
0.749999999999954
40
0.749999999999954
40
0.874999999999977
40
0.874999999999977
40
1
40
1
40
1
40
1
41
1
10
110.599593659628
20
3.88829027570077
30
0
41
1
10
110.634850627018
20
3.78568471397134
30
0
41
1
10
110.670237952672
20
3.68286020169441
30
0
41
1
10
110.741336052939
20
3.47685405463886
30
0
41
1
10
110.777037213947
20
3.37367782105221
30
0
41
1
10
110.848747286601
20
3.16724776135771
30
0
41
1
10
110.884770358057
20
3.06395631035525
30
0
41
1
10
110.939067198074
20
2.90899994559302
30
0
41
1
10
110.957213121407
20
2.85733454443729
30
0
41
1
10
110.984482499585
20
2.77988563515422
30
0
41
1
10
110.993581119938
20
2.75407635803364
30
0
41
1
10
111.011796767361
20
2.70247191223484
30
0
41
1
10
111.020901590698
20
2.67666898319132
30
0
41
1
10
111.066815329713
20
2.54790843912431
30
0
41
1
10
111.104606133379
20
2.44559107396168
30
0
41
1
10
111.163332159083
20
2.29333894255603
30
0
41
1
10
111.183246278733
20
2.24279141748556
30
0
41
1
10
111.213662654119
20
2.16728652804821
30
0
41
1
10
111.223891911908
20
2.14217072539697
30
0
41
1
10
111.244539766063
20
2.09204747279071
30
0
41
1
10
111.254971608337
20
2.06700963167677
30
0
41
1
10
111.307473063427
20
1.94248672637821
30
0
41
1
10
111.350384493387
20
1.84544266368624
30
0
41
1
10
111.438402785981
20
1.65663273689287
30
0
41
1
10
111.483501692647
20
1.56483701184888
30
0
41
1
10
111.529824542138
20
1.47562933651267
30
0
0
SPLINE
5
D1
100
AcDbEntity
8
1
62
256
6
ByLayer
370
18
48
1
60
0
100
AcDbSpline
70
4
71
3
72
8
73
4
40
0
40
0
40
0
40
0
40
1
40
1
40
1
40
1
41
1
10
110.49492180682
20
4.07002288892909
30
0
41
1
10
110.529796970915
20
4.00945417707303
30
0
41
1
10
110.564688653967
20
3.94887427278525
30
0
41
1
10
110.599593659627
20
3.88829027570077
30
0
0
SPLINE
5
D2
100
AcDbEntity
8
1
62
256
6
ByLayer
370
18
48
1
60
0
100
AcDbSpline
70
4
71
3
72
30
73
26
40
0
40
0
40
0
40
0
40
0.10047222195148
40
0.10047222195148
40
0.20094444390296
40
0.20094444390296
40
0.301416665854439
40
0.301416665854439
40
0.351652776830179
40
0.351652776830179
40
0.401888887805919
40
0.401888887805919
40
0.502361109757409
40
0.502361109757409
40
0.6028333317089
40
0.6028333317089
40
0.70330555366039
40
0.70330555366039
40
0.803777775611881
40
0.803777775611881
40
0.854013886587626
40
0.854013886587626
40
0.904249997563371
40
0.904249997563371
40
1
40
1
40
1
40
1
41
1
10
110.49492180682
20
4.07002288892912
30
0
41
1
10
110.281080185077
20
4.07254383852975
30
0
41
1
10
110.067304020295
20
4.07129765704829
30
0
41
1
10
109.639782107307
20
4.06130116085313
30
0
41
1
10
109.426018989387
20
4.05250505997088
30
0
41
1
10
108.998278911092
20
4.02742181249212
30
0
41
1
10
108.784319181415
20
4.01115950886734
30
0
41
1
10
108.463053800898
20
3.98125254180297
30
0
41
1
10
108.355909406186
20
3.97036213851655
30
0
41
1
10
108.141483539638
20
3.94675215640055
30
0
41
1
10
108.034239126811
20
3.93403564358263
30
0
41
1
10
107.712797669889
20
3.89323054879196
30
0
41
1
10
107.498727157192
20
3.86246966134726
30
0
41
1
10
107.070830009243
20
3.79406114706754
30
0
41
1
10
106.8569858803
20
3.75641292789345
30
0
41
1
10
106.429459436713
20
3.67441953888934
30
0
41
1
10
106.215739426713
20
3.63005434901046
30
0
41
1
10
105.788070517823
20
3.53467173853053
30
0
41
1
10
105.574167407872
20
3.48366165526781
30
0
41
1
10
105.253026547476
20
3.40226284238295
30
0
41
1
10
105.145932038716
20
3.37432009587855
30
0
41
1
10
104.931628133028
20
3.3168515499188
30
0
41
1
10
104.824360840488
20
3.28730872114241
30
0
41
1
10
104.512865357648
20
3.1993287451576
30
0
41
1
10
104.309060040554
20
3.13903220679833
30
0
41
1
10
104.105649803386
20
3.07632008388069
30
0
0
SPLINE
5
D3
100
AcDbEntity
8
1
62
256
6
ByLayer
370
18
48
1
60
0
100
AcDbSpline
70
4
71
3
72
12
73
8
40
0
40
0
40
0
40
0
40
0.479030971989826
40
0.479030971989826
40
0.739515485994912
40
0.739515485994912
40
1
40
1
40
1
40
1
41
1
10
71.9598403223878
20
-1.14590516161096
30
0
41
1
10
71.5670240179454
20
-0.968801638789301
30
0
41
1
10
71.174716206643
20
-0.788307273642971
30
0
41
1
10
70.5688029136583
20
-0.506559097742496
30
0
41
1
10
70.3553211146841
20
-0.406725165347836
30
0
41
1
10
69.9280271027637
20
-0.206352170888721
30
0
41
1
10
69.7141986557799
20
-0.105844506412723
30
0
41
1
10
69.5001348917473
20
-0.0051519437372463
30
0
0
SPLINE
5
D4
100
AcDbEntity
8
1
62
256
6
ByLayer
370
18
48
1
60
0
100
AcDbSpline
70
4
71
3
72
22
73
18
40
0
40
0
40
0
40
0
40
0.499999999999914
40
0.499999999999914
40
0.749999999999872
40
0.749999999999872
40
0.87499999999977
40
0.87499999999977
40
0.937499999999723
40
0.937499999999723
40
0.968749999999774
40
0.968749999999774
40
0.984374999999805
40
0.984374999999805
40
0.992187499999902
40
0.992187499999902
40
1
40
1
40
1
40
1
41
1
10
110.385055353353
20
-4.24984522110094
30
0
41
1
10
110.403378779016
20
-4.22005922276725
30
0
41
1
10
110.421675299523
20
-4.19022897268005
30
0
41
1
10
110.449134787134
20
-4.14529473493104
30
0
41
1
10
110.458296899221
20
-4.13027133708317
30
0
41
1
10
110.472080472219
20
-4.10761253518496
30
0
41
1
10
110.476682234345
20
-4.10003794338286
30
0
41
1
10
110.483596153256
20
-4.08864304948918
30
0
41
1
10
110.485902130084
20
-4.08484095430322
30
0
41
1
10
110.48929128492
20
-4.07928049539328
30
0
41
1
10
110.490409892002
20
-4.07744981017234
30
0
41
1
10
110.492164602917
20
-4.07454191717977
30
0
41
1
10
110.492763721925
20
-4.07354136426321
30
0
41
1
10
110.493645778196
20
-4.07207674369803
30
0
41
1
10
110.493938232619
20
-4.07159248169674
30
0
41
1
10
110.494486409653
20
-4.0706980592818
30
0
41
1
10
110.494756371342
20
-4.0702647305921
30
0
41
1
10
110.49492180682
20
-4.07002288892909
30
0
0
SPLINE
5
D5
100
AcDbEntity
8
1
62
256
6
ByLayer
370
18
48
1
60
0
100
AcDbSpline
70
4
71
3
72
78
73
74
40
0
40
0
40
0
40
0
40
0.0357461841707093
40
0.0357461841707093
40
0.0636510848363914
40
0.0636510848363914
40
0.0776035351692309
40
0.0776035351692309
40
0.0915559855020705
40
0.0915559855020705
40
0.11946088616775
40
0.11946088616775
40
0.147365786833429
40
0.147365786833429
40
0.203175588164784
40
0.203175588164784
40
0.231080488830462
40
0.231080488830462
40
0.245032939163299
40
0.245032939163299
40
0.258985389496136
40
0.258985389496136
40
0.286890290161814
40
0.286890290161814
40
0.314795190827492
40
0.314795190827492
40
0.370604992158847
40
0.370604992158847
40
0.398509892824524
40
0.398509892824524
40
0.426414793490202
40
0.426414793490202
40
0.45431969415588
40
0.45431969415588
40
0.482224594821558
40
0.482224594821558
40
0.510129495487235
40
0.510129495487235
40
0.524081945820074
40
0.524081945820074
40
0.538034396152913
40
0.538034396152913
40
0.593844197484262
40
0.593844197484262
40
0.621749098149937
40
0.621749098149937
40
0.649653998815612
40
0.649653998815612
40
0.677558899481287
40
0.677558899481287
40
0.691511349814124
40
0.691511349814124
40
0.705463800146961
40
0.705463800146961
40
0.761273601478314
40
0.761273601478314
40
0.78917850214399
40
0.78917850214399
40
0.817083402809666
40
0.817083402809666
40
0.844988303475342
40
0.844988303475342
40
0.872893204141018
40
0.872893204141018
40
0.928703005472371
40
0.928703005472371
40
0.956607906138047
40
0.956607906138047
40
0.970560356470886
40
0.970560356470886
40
0.984512806803725
40
0.984512806803725
40
1
40
1
40
1
40
1
41
1
10
99.8019331272753
20
-1.43210891002548
30
0
41
1
10
99.5301807577271
20
-1.31246658208926
30
0
41
1
10
99.2580134606899
20
-1.19056691587593
30
0
41
1
10
98.7722596876138
20
-0.970252306088327
30
0
41
1
10
98.5589055771899
20
-0.872576489664539
30
0
41
1
10
98.2382500359996
20
-0.724511739818411
30
0
41
1
10
98.1312544189817
20
-0.674908404031839
30
0
41
1
10
97.9169793753388
20
-0.575311300479314
30
0
41
1
10
97.8096740912718
20
-0.525315510784054
30
0
41
1
10
97.4881593694889
20
-0.37517779800217
30
0
41
1
10
97.2740797496195
20
-0.274742112118417
30
0
41
1
10
96.8461913248826
20
-0.0737309418688596
30
0
41
1
10
96.6323870871615
20
0.0268551543155127
30
0
41
1
10
95.991140886084
20
0.328321992725648
30
0
41
1
10
95.5638012204205
20
0.52876850477449
30
0
41
1
10
94.9216879702428
20
0.825769981254211
30
0
41
1
10
94.7074694195356
20
0.924166167803861
30
0
41
1
10
94.3857270813365
20
1.07054886001671
30
0
41
1
10
94.2785560458713
20
1.11909875805731
30
0
41
1
10
94.0645531488532
20
1.21558168046997
30
0
41
1
10
93.9576836575361
20
1.26351507111181
30
0
41
1
10
93.6374013759075
20
1.40619238146348
30
0
41
1
10
93.4243201826691
20
1.49981625577988
30
0
41
1
10
92.9988761422701
20
1.68392679044015
30
0
41
1
10
92.7864964485644
20
1.77435440009455
30
0
41
1
10
92.1500986949531
20
2.04035470954295
30
0
41
1
10
91.7268538521403
20
2.21073861260061
30
0
41
1
10
91.0921854492742
20
2.4533275425801
30
0
41
1
10
90.8806660932972
20
2.53203719392985
30
0
41
1
10
90.457517857067
20
2.68479271244976
30
0
41
1
10
90.2458779982743
20
2.75880331296759
30
0
41
1
10
89.8224095947808
20
2.90205498474802
30
0
41
1
10
89.6105209923393
20
2.97117963376422
30
0
41
1
10
89.1861665016309
20
3.10396320103209
30
0
41
1
10
88.9737341750391
20
3.16770249937071
30
0
41
1
10
88.5481248983419
20
3.28949976086085
30
0
41
1
10
88.3349550520892
20
3.34757642752226
30
0
41
1
10
88.0145366536518
20
3.4303093974292
30
0
41
1
10
87.9076175848033
20
3.45715114914034
30
0
41
1
10
87.6935173560722
20
3.50929909585344
30
0
41
1
10
87.586270105009
20
3.53462304002289
30
0
41
1
10
87.0502235581375
20
3.65711114338967
30
0
41
1
10
86.6224119741088
20
3.74174228678402
30
0
41
1
10
85.9810661686298
20
3.84758690539331
30
0
41
1
10
85.7674089851683
20
3.87945996293536
30
0
41
1
10
85.3399401329779
20
3.93592880741662
30
0
41
1
10
85.1261260121449
20
3.96051722786294
30
0
41
1
10
84.6982058983465
20
4.00250650534656
30
0
41
1
10
84.4840770930345
20
4.01986328990131
30
0
41
1
10
84.1625045581315
20
4.0404230141618
30
0
41
1
10
84.0552305708409
20
4.04636666552267
30
0
41
1
10
83.8408968898913
20
4.05639571700351
30
0
41
1
10
83.7337938702144
20
4.06048347740975
30
0
41
1
10
83.1985150980058
20
4.07625088615629
30
0
41
1
10
82.7710642282572
20
4.07391948259877
30
0
41
1
10
82.1297871531575
20
4.04777776749563
30
0
41
1
10
81.9160060219587
20
4.03531324337158
30
0
41
1
10
81.488305927206
20
4.00312149835409
30
0
41
1
10
81.2743165428452
20
3.9833267997175
30
0
41
1
10
80.845845763665
20
3.93641606929123
30
0
41
1
10
80.6312456872242
20
3.90929827566168
30
0
41
1
10
80.202756882927
20
3.84807085391296
30
0
41
1
10
79.9887347585474
20
3.81396302389825
30
0
41
1
10
79.3470719449176
20
3.70140598069565
30
0
41
1
10
78.9197776455203
20
3.6126532845812
30
0
41
1
10
78.2782559321755
20
3.45981408748477
30
0
41
1
10
78.0643100277051
20
3.40561133939869
30
0
41
1
10
77.7431158847572
20
3.31963677709933
30
0
41
1
10
77.6360175543203
20
3.29019605443156
30
0
41
1
10
77.4217051270901
20
3.22978410219079
30
0
41
1
10
77.3144648976279
20
3.19880706270419
30
0
41
1
10
77.0881901410237
20
3.13192714491004
30
0
41
1
10
76.9691441532426
20
3.09585046306509
30
0
41
1
10
76.8501116472648
20
3.05891658210305
30
0
0
SPLINE
5
D6
100
AcDbEntity
8
1
62
256
6
ByLayer
370
18
48
1
60
0
100
AcDbSpline
70
4
71
3
72
108
73
104
40
0
40
0
40
0
40
0
40
0.0312500000000108
40
0.0312500000000108
40
0.0625000000000216
40
0.0625000000000216
40
0.0937500000000323
40
0.0937500000000323
40
0.125000000000043
40
0.125000000000043
40
0.156250000000054
40
0.156250000000054
40
0.187500000000065
40
0.187500000000065
40
0.218750000000075
40
0.218750000000075
40
0.234375000000081
40
0.234375000000081
40
0.242187500000084
40
0.242187500000084
40
0.250000000000087
40
0.250000000000087
40
0.281250000000097
40
0.281250000000097
40
0.296875000000102
40
0.296875000000102
40
0.304687500000104
40
0.304687500000104
40
0.312500000000107
40
0.312500000000107
40
0.343750000000118
40
0.343750000000118
40
0.35156250000012
40
0.35156250000012
40
0.359375000000123
40
0.375000000000129
40
0.390625000000134
40
0.390625000000134
40
0.40625000000014
40
0.40625000000014
40
0.437500000000144
40
0.437500000000144
40
0.468750000000149
40
0.468750000000149
40
0.484375000000148
40
0.484375000000148
40
0.500000000000147
40
0.500000000000147
40
0.531250000000144
40
0.531250000000144
40
0.546875000000139
40
0.546875000000139
40
0.562500000000134
40
0.562500000000134
40
0.593750000000131
40
0.593750000000131
40
0.601562500000129
40
0.601562500000129
40
0.609375000000126
40
0.609375000000126
40
0.625000000000121
40
0.625000000000121
40
0.656250000000112
40
0.656250000000112
40
0.671875000000109
40
0.671875000000109
40
0.687500000000107
40
0.687500000000107
40
0.718750000000102
40
0.718750000000102
40
0.7343750000001
40
0.7343750000001
40
0.750000000000098
40
0.750000000000098
40
0.781250000000095
40
0.781250000000095
40
0.789062500000093
40
0.789062500000093
40
0.796875000000091
40
0.812500000000084
40
0.828125000000077
40
0.828125000000077
40
0.835937500000073
40
0.835937500000073
40
0.84375000000007
40
0.84375000000007
40
0.875000000000056
40
0.875000000000056
40
0.882812500000052
40
0.882812500000052
40
0.890625000000049
40
0.906250000000042
40
0.921875000000035
40
0.921875000000035
40
0.937500000000028
40
0.937500000000028
40
0.968750000000014
40
0.968750000000014
40
0.984375000000007
40
0.984375000000007
40
0.992187500000004
40
0.992187500000004
40
1
40
1
40
1
40
1
41
1
10
110.870553914698
20
-1.96189321349514
30
0
41
1
10
110.854832270564
20
-1.98324497208628
30
0
41
1
10
110.839788164775
20
-2.00112319652845
30
0
41
1
10
110.810902471264
20
-2.0303474815293
30
0
41
1
10
110.797061703299
20
-2.04169166920383
30
0
41
1
10
110.770526263568
20
-2.05755852778981
30
0
41
1
10
110.758202120679
20
-2.06185670071756
30
0
41
1
10
110.735281938406
20
-2.06336068916033
30
0
41
1
10
110.724682437974
20
-2.06057120277578
30
0
41
1
10
110.70519393492
20
-2.04736132294738
30
0
41
1
10
110.696592911275
20
-2.03712973778261
30
0
41
1
10
110.681570398297
20
-2.00947614683528
30
0
41
1
10
110.67514161627
20
-1.99205697364675
30
0
41
1
10
110.664579160123
20
-1.94925709948112
30
0
41
1
10
110.660630335126
20
-1.92461902081746
30
0
41
1
10
110.656686680535
20
-1.88279203024672
30
0
41
1
10
110.655704536538
20
-1.86803139335151
30
0
41
1
10
110.654754398289
20
-1.84460263867041
30
0
41
1
10
110.654525071157
20
-1.83657799471229
30
0
41
1
10
110.654248075996
20
-1.82008269332019
30
0
41
1
10
110.654201010501
20
-1.81158980217154
30
0
41
1
10
110.654434658149
20
-1.7685257562338
30
0
41
1
10
110.656091460049
20
-1.73184447935725
30
0
41
1
10
110.660889948155
20
-1.67342343974587
30
0
41
1
10
110.662878360167
20
-1.65337900654228
30
0
41
1
10
110.666493676733
20
-1.62240533948935
30
0
41
1
10
110.667802691035
20
-1.6119511551523
30
0
41
1
10
110.670599139777
20
-1.59103123889466
30
0
41
1
10
110.672090471362
20
-1.58053117947918
30
0
41
1
10
110.680013452498
20
-1.52783413362437
30
0
41
1
10
110.687826969259
20
-1.48505319731757
30
0
41
1
10
110.699618739722
20
-1.43079421661486
30
0
41
1
10
110.702080893103
20
-1.41990032791438
30
0
41
1
10
110.707145398364
20
-1.39833070608071
30
0
41
1
10
110.714977088677
20
-1.36619153217839
30
0
41
1
10
110.729193607115
20
-1.31367769277509
30
0
41
1
10
110.741822972944
20
-1.2727739423118
30
0
41
1
10
110.75510557219
20
-1.23243365511234
30
0
41
1
10
110.761979428659
20
-1.21283560382417
30
0
41
1
10
110.783163832536
20
-1.15599247504136
30
0
41
1
10
110.798093717187
20
-1.12050790212055
30
0
41
1
10
110.829520921873
20
-1.05429588914555
30
0
41
1
10
110.845551662074
20
-1.02454240308015
30
0
41
1
10
110.870039022999
20
-0.984414011307962
30
0
41
1
10
110.878275177738
20
-0.971794615082558
30
0
41
1
10
110.894890658303
20
-0.948048476031204
30
0
41
1
10
110.903214339486
20
-0.937006314496955
30
0
41
1
10
110.927988373785
20
-0.9065493845535
30
0
41
1
10
110.944343762466
20
-0.889638582704748
30
0
41
1
10
110.968596231033
20
-0.869105431458649
30
0
41
1
10
110.976665844252
20
-0.863052472414523
30
0
41
1
10
110.992511631051
20
-0.852704365165096
30
0
41
1
10
111.000282610348
20
-0.848404243312643
30
0
41
1
10
111.02313550332
20
-0.838036083821549
30
0
41
1
10
111.037761946295
20
-0.834478634278611
30
0
41
1
10
111.05520238274
20
-0.834265915953182
30
0
41
1
10
111.058647972797
20
-0.834436819506834
30
0
41
1
10
111.065450546663
20
-0.83521381023192
30
0
41
1
10
111.068809882444
20
-0.835821637082319
30
0
41
1
10
111.078660306298
20
-0.838286268965334
30
0
41
1
10
111.084954714299
20
-0.840784343234105
30
0
41
1
10
111.103004412495
20
-0.850820184115179
30
0
41
1
10
111.113934382929
20
-0.860874486122356
30
0
41
1
10
111.128476897546
20
-0.881334550263517
30
0
41
1
10
111.133021030305
20
-0.889071976938567
30
0
41
1
10
111.141395702295
20
-0.906431347787901
30
0
41
1
10
111.145169081638
20
-0.915930298230734
30
0
41
1
10
111.155229663429
20
-0.946888940248158
30
0
41
1
10
111.16026995098
20
-0.970782891534952
30
0
41
1
10
111.165056821902
20
-1.01197111954886
30
0
41
1
10
111.166188195027
20
-1.02661942202189
30
0
41
1
10
111.167425734627
20
-1.05779986388461
30
0
41
1
10
111.167520755273
20
-1.07402824321679
30
0
41
1
10
111.166250512503
20
-1.12461769904982
30
0
41
1
10
111.163345304499
20
-1.16086065618077
30
0
41
1
10
111.156979838509
20
-1.20958621221624
30
0
41
1
10
111.155563228346
20
-1.21953961331872
30
0
41
1
10
111.152472905433
20
-1.23962824571691
30
0
41
1
10
111.147466500892
20
-1.26994830188596
30
0
41
1
10
111.137328832098
20
-1.32139885472489
30
0
41
1
10
111.127371757304
20
-1.36353309926352
30
0
41
1
10
111.119215145124
20
-1.39550976968366
30
0
41
1
10
111.116371105339
20
-1.40626754385062
30
0
41
1
10
111.110516897723
20
-1.42767489637868
30
0
41
1
10
111.10750529468
20
-1.43833321009512
30
0
41
1
10
111.092044524456
20
-1.4914069627867
30
0
41
1
10
111.078400921902
20
-1.5331762871979
30
0
41
1
10
111.059917191359
20
-1.58459022748951
30
0
41
1
10
111.056157623269
20
-1.59480502544523
30
0
41
1
10
111.048581882111
20
-1.61493283819496
30
0
41
1
10
111.037105128469
20
-1.64474729871438
30
0
41
1
10
111.017449683695
20
-1.69262729581899
30
0
41
1
10
111.001213105967
20
-1.729082136101
30
0
41
1
10
110.984734243653
20
-1.76462298761066
30
0
41
1
10
110.976480969641
20
-1.78170400128468
30
0
41
1
10
110.951767960485
20
-1.83085606470007
30
0
41
1
10
110.935322960369
20
-1.86092705931134
30
0
41
1
10
110.910718208016
20
-1.9021501416095
30
0
41
1
10
110.902537947678
20
-1.91521503383529
30
0
41
1
10
110.890443648642
20
-1.93358520337981
30
0
41
1
10
110.886434789505
20
-1.93951530809198
30
0
41
1
10
110.87846133995
20
-1.95099190786831
30
0
41
1
10
110.874484325732
20
-1.95655527384736
30
0
41
1
10
110.870553914699
20
-1.96189321349514
30
0
0
SPLINE
5
D7
100
AcDbEntity
8
1
62
256
6
ByLayer
370
18
48
1
60
0
100
AcDbSpline
70
4
71
3
72
14
73
10
40
0
40
0
40
0
40
0
40
0.249999999999949
40
0.249999999999949
40
0.374999999999945
40
0.374999999999945
40
0.49999999999994
40
0.49999999999994
40
1
40
1
40
1
40
1
41
1
10
110.599593659628
20
-3.88829027570034
30
0
41
1
10
110.585041430236
20
-3.91008362962711
30
0
41
1
10
110.570996503139
20
-3.93038761430913
30
0
41
1
10
110.550698264087
20
-3.95847251405536
30
0
41
1
10
110.544060360416
20
-3.96743875892628
30
0
41
1
10
110.531042079584
20
-3.98455482258564
30
0
41
1
10
110.524646118187
20
-3.99272354429616
30
0
41
1
10
110.493535323666
20
-4.03118506147126
30
0
41
1
10
110.471453353564
20
-4.05433591421175
30
0
41
1
10
110.451809157668
20
-4.07014540646463
30
0
0
SPLINE
5
D8
100
AcDbEntity
8
1
62
256
6
ByLayer
370
18
48
1
60
0
100
AcDbSpline
70
4
71
3
72
30
73
26
40
0
40
0
40
0
40
0
40
0.124999999999988
40
0.124999999999988
40
0.249999999999976
40
0.249999999999976
40
0.374999999999963
40
0.374999999999963
40
0.437499999999963
40
0.437499999999963
40
0.468749999999963
40
0.468749999999963
40
0.499999999999963
40
0.499999999999963
40
0.624999999999983
40
0.624999999999983
40
0.687499999999994
40
0.687499999999994
40
0.718749999999999
40
0.718749999999999
40
0.750000000000004
40
0.750000000000004
40
0.875000000000002
40
0.875000000000002
40
1
40
1
40
1
40
1
41
1
10
110.599593659627
20
-3.88829027570085
30
0
41
1
10
110.634850627018
20
-3.78568471397139
30
0
41
1
10
110.670237952672
20
-3.68286020169441
30
0
41
1
10
110.741336052939
20
-3.47685405463881
30
0
41
1
10
110.777037213947
20
-3.37367782105216
30
0
41
1
10
110.848747286601
20
-3.1672477613576
30
0
41
1
10
110.884770358057
20
-3.06395631035508
30
0
41
1
10
110.939067198075
20
-2.9089999455928
30
0
41
1
10
110.957213121407
20
-2.85733454443707
30
0
41
1
10
110.984482499585
20
-2.77988563515396
30
0
41
1
10
110.993581119938
20
-2.75407635803336
30
0
41
1
10
111.011796767361
20
-2.70247191223453
30
0
41
1
10
111.020901590698
20
-2.67666898319101
30
0
41
1
10
111.066815329713
20
-2.547908439124
30
0
41
1
10
111.104606133379
20
-2.44559107396142
30
0
41
1
10
111.163332159084
20
-2.29333894255589
30
0
41
1
10
111.183246278733
20
-2.24279141748545
30
0
41
1
10
111.213662654119
20
-2.16728652804818
30
0
41
1
10
111.223891911908
20
-2.14217072539702
30
0
41
1
10
111.244539766063
20
-2.09204747279085
30
0
41
1
10
111.254971608337
20
-2.06700963167697
30
0
41
1
10
111.307473063427
20
-1.94248672637809
30
0
41
1
10
111.350384493387
20
-1.84544266368604
30
0
41
1
10
111.438402785981
20
-1.65663273689262
30
0
41
1
10
111.483501692647
20
-1.56483701184871
30
0
41
1
10
111.529824542138
20
-1.47562933651264
30
0
0
SPLINE
5
D9
100
AcDbEntity
8
1
62
256
6
ByLayer
370
18
48
1
60
0
100
AcDbSpline
70
4
71
3
72
8
73
4
40
0
40
0
40
0
40
0
40
1
40
1
40
1
40
1
41
1
10
111.529824542138
20
-1.47562933651309
30
0
41
1
10
111.651121938441
20
-1.13551007305773
30
0
41
1
10
111.771319025138
20
-0.795005698881539
30
0
41
1
10
111.890391676072
20
-0.454107769778261
30
0
0
SPLINE
5
DA
100
AcDbEntity
8
1
62
256
6
ByLayer
370
18
48
1
60
0
100
AcDbSpline
70
4
71
3
72
8
73
4
40
0
40
0
40
0
40
0
40
1
40
1
40
1
40
1
41
1
10
111.890391676072
20
-0.454107769778261
30
0
41
1
10
111.925708552861
20
-0.352997648643907
30
0
41
1
10
111.961846069986
20
-0.25234855913024
30
0
41
1
10
111.998804408183
20
-0.152142083358854
30
0
0
SPLINE
5
DB
100
AcDbEntity
8
1
62
256
6
ByLayer
370
18
48
1
60
0
100
AcDbSpline
70
4
71
3
72
8
73
4
40
0
40
0
40
0
40
0
40
1
40
1
40
1
40
1
41
1
10
111.998804408183
20
0.152142083360474
30
0
41
1
10
112.000396197238
20
0.0508624911504114
30
0
41
1
10
112.000400870821
20
-0.050565128525875
30
0
41
1
10
111.998804408183
20
-0.152142083358825
30
0
0
SPLINE
5
DC
100
AcDbEntity
8
1
62
256
6
ByLayer
370
18
48
1
60
0
100
AcDbSpline
70
4
71
3
72
55
73
51
40
0
40
0
40
0
40
0
40
0.0624999999999942
40
0.0624999999999942
40
0.0937499999999912
40
0.0937499999999912
40
0.10937499999999
40
0.10937499999999
40
0.124999999999988
40
0.187499999999969
40
0.187499999999969
40
0.24999999999995
40
0.24999999999995
40
0.281249999999948
40
0.281249999999948
40
0.312499999999945
40
0.312499999999945
40
0.374999999999941
40
0.374999999999941
40
0.406249999999938
40
0.406249999999938
40
0.421874999999944
40
0.421874999999944
40
0.43749999999995
40
0.43749999999995
40
0.49999999999996
40
0.49999999999996
40
0.531249999999965
40
0.531249999999965
40
0.56249999999997
40
0.56249999999997
40
0.624999999999968
40
0.624999999999968
40
0.656249999999967
40
0.656249999999967
40
0.687499999999966
40
0.687499999999966
40
0.749999999999973
40
0.749999999999973
40
0.781249999999976
40
0.781249999999976
40
0.81249999999998
40
0.81249999999998
40
0.874999999999986
40
0.874999999999986
40
0.937499999999993
40
0.937499999999993
40
0.968749999999997
40
0.968749999999997
40
1
40
1
40
1
40
1
41
1
10
111.998804408184
20
0.152142083361156
30
0
41
1
10
111.981593237575
20
0.1034163938277
30
0
41
1
10
111.963405151665
20
0.055154781298512
30
0
41
1
10
111.934648180956
20
-0.0165269249153823
30
0
41
1
10
111.924815979053
20
-0.0403020187697791
30
0
41
1
10
111.909688897504
20
-0.075780836812271
30
0
41
1
10
111.904574095946
20
-0.0875970564781596
30
0
41
1
10
111.894291112591
20
-0.110997236120767
30
0
41
1
10
111.868420768986
20
-0.16898583310288
30
0
41
1
10
111.841765186459
20
-0.22444734100381
30
0
41
1
10
111.798172959156
20
-0.309902383534194
30
0
41
1
10
111.775905688378
20
-0.350990104959266
30
0
41
1
10
111.74178394719
20
-0.409968335455062
30
0
41
1
10
111.730237734955
20
-0.429262850346134
30
0
41
1
10
111.707303160297
20
-0.466257257709486
30
0
41
1
10
111.695883700844
20
-0.484016913221978
30
0
41
1
10
111.661770212971
20
-0.535101160475989
30
0
41
1
10
111.639221696201
20
-0.566243359683426
30
0
41
1
10
111.605684408332
20
-0.608441501037447
30
0
41
1
10
111.594552744275
20
-0.621752049992296
30
0
41
1
10
111.577924213421
20
-0.640536432556502
30
0
41
1
10
111.572381266339
20
-0.646612427285817
30
0
41
1
10
111.561419406047
20
-0.658253756372375
30
0
41
1
10
111.555991227598
20
-0.663830352153099
30
0
41
1
10
111.529107045342
20
-0.690509851959263
30
0
41
1
10
111.508418486923
20
-0.708021634891367
30
0
41
1
10
111.478513344829
20
-0.728624173348095
30
0
41
1
10
111.468733446091
20
-0.734543691365474
30
0
41
1
10
111.44953965269
20
-0.744455162989595
30
0
41
1
10
111.440096389281
20
-0.748450301592356
30
0
41
1
10
111.412768321336
20
-0.75733769640027
30
0
41
1
10
111.395738199854
20
-0.759244114983346
30
0
41
1
10
111.371763332246
20
-0.756391181839177
30
0
41
1
10
111.364034577804
20
-0.754484262220018
30
0
41
1
10
111.349079318027
20
-0.748769275754029
30
0
41
1
10
111.341828106555
20
-0.744940236229951
30
0
41
1
10
111.321065648614
20
-0.730783462143137
30
0
41
1
10
111.308487917664
20
-0.717813912437521
30
0
41
1
10
111.291258382669
20
-0.693477525887943
30
0
41
1
10
111.285789462053
20
-0.68454848379281
30
0
41
1
10
111.275371453913
20
-0.66509220865666
30
0
41
1
10
111.270416505569
20
-0.65455057264623
30
0
41
1
10
111.256337757057
20
-0.620645120152346
30
0
41
1
10
111.248118138034
20
-0.595324889109776
30
0
41
1
10
111.233695570159
20
-0.539757639493729
30
0
41
1
10
111.227494304518
20
-0.50950772727586
30
0
41
1
10
111.219576829777
20
-0.460624645925407
30
0
41
1
10
111.217166546248
20
-0.443720483836444
30
0
41
1
10
111.212811794912
20
-0.408867249734982
30
0
41
1
10
111.210869599021
20
-0.390943906682594
30
0
41
1
10
111.209153707932
20
-0.372537977652939
30
0
0
SPLINE
5
DD
100
AcDbEntity
8
1
62
256
6
ByLayer
370
18
48
1
60
0
100
AcDbSpline
70
4
71
3
72
8
73
4
40
0
40
0
40
0
40
0
40
1
40
1
40
1
40
1
41
1
10
111.209153707932
20
-0.372537977652911
30
0
41
1
10
111.180822633883
20
-0.0686377233072619
30
0
41
1
10
111.141327599798
20
0.240302975187831
30
0
41
1
10
111.090873192632
20
0.554191748357795
30
0
0
SPLINE
5
DE
100
AcDbEntity
8
1
62
256
6
ByLayer
370
18
48
1
60
0
100
AcDbSpline
70
4
71
3
72
26
73
22
40
0
40
0
40
0
40
0
40
0.125000000000008
40
0.125000000000008
40
0.187500000000012
40
0.187500000000012
40
0.250000000000015
40
0.250000000000015
40
0.375000000000022
40
0.375000000000022
40
0.50000000000003
40
0.50000000000003
40
0.562500000000033
40
0.562500000000033
40
0.625000000000036
40
0.625000000000036
40
0.750000000000024
40
0.750000000000024
40
0.875000000000012
40
0.875000000000012
40
1
40
1
40
1
40
1
41
1
10
111.090873192632
20
0.554191748357766
30
0
41
1
10
111.06589405199
20
0.560438633663239
30
0
41
1
10
111.040187041756
20
0.56350787239333
30
0
41
1
10
111.000956011812
20
0.564852251395052
30
0
41
1
10
110.987765578252
20
0.56475243500617
30
0
41
1
10
110.961182700198
20
0.563508933168123
30
0
41
1
10
110.947774373848
20
0.562369698371214
30
0
41
1
10
110.907398081195
20
0.557400088239746
30
0
41
1
10
110.880325941765
20
0.552002846875041
30
0
41
1
10
110.825995360805
20
0.537266807793287
30
0
41
1
10
110.798736916468
20
0.527921565592663
30
0
41
1
10
110.757812884174
20
0.511405755939336
30
0
41
1
10
110.744164078628
20
0.505465598964236
30
0
41
1
10
110.716877449278
20
0.492956256966664
30
0
41
1
10
110.703241309715
20
0.486416336390818
30
0
41
1
10
110.662347576254
20
0.465651374258556
30
0
41
1
10
110.635103820857
20
0.450257170940205
30
0
41
1
10
110.580731943905
20
0.416452998551279
30
0
41
1
10
110.553600210412
20
0.397981340058379
30
0
41
1
10
110.499516600615
20
0.357846877977153
30
0
41
1
10
110.472564850421
20
0.336180142198174
30
0
41
1
10
110.445743285012
20
0.313015232019438
30
0
0
SPLINE
5
DF
100
AcDbEntity
8
1
62
256
6
ByLayer
370
18
48
1
60
0
100
AcDbSpline
70
4
71
3
72
24
73
20
40
0
40
0
40
0
40
0
40
0.125000000000054
40
0.125000000000054
40
0.250000000000108
40
0.250000000000108
40
0.500000000000225
40
0.500000000000225
40
0.625000000000227
40
0.625000000000227
40
0.687500000000153
40
0.687500000000153
40
0.750000000000079
40
0.750000000000079
40
0.812500000000005
40
0.812500000000005
40
0.874999999999931
40
0.874999999999931
40
1
40
1
40
1
40
1
41
1
10
69.5001348917473
20
4.09944148232393
30
0
41
1
10
69.5001348917473
20
4.09413542388799
30
0
41
1
10
69.5006403054977
20
4.08878319027997
30
0
41
1
10
69.5026529859878
20
4.07824096583849
30
0
41
1
10
69.5041589251543
20
4.07301244453805
30
0
41
1
10
69.5103009650172
20
4.05746768548897
30
0
41
1
10
69.5163400423406
20
4.04767763273057
30
0
41
1
10
69.5290304932793
20
4.03414635640755
30
0
41
1
10
69.5338426362686
20
4.02989064641591
30
0
41
1
10
69.5418764742657
20
4.02412705702454
30
0
41
1
10
69.5446991107436
20
4.02230132599948
30
0
41
1
10
69.5506683133543
20
4.01886423811163
30
0
41
1
10
69.5538299519306
20
4.01724819470562
30
0
41
1
10
69.560354374148
20
4.01433701552381
30
0
41
1
10
69.5637322386719
20
4.01303140963671
30
0
41
1
10
69.5707383249426
20
4.01074545231168
30
0
41
1
10
69.5743966878235
20
4.00975931863186
30
0
41
1
10
69.5855439969331
20
4.00740074408074
30
0
41
1
10
69.5931631684617
20
4.00661268190402
30
0
41
1
10
69.6009855996957
20
4.00667508234756
30
0
0
SPLINE
5
E0
100
AcDbEntity
8
1
62
256
6
ByLayer
370
13
48
1
60
0
100
AcDbSpline
70
4
71
3
72
10
73
6
40
0
40
0
40
0
40
0
40
0.5
40
0.5
40
1
40
1
40
1
40
1
41
1
10
69.6386228241593
20
4.00640639915744
30
0
41
1
10
69.6327114114574
20
4.00654987999499
30
0
41
1
10
69.6266089572995
20
4.00664131976208
30
0
41
1
10
69.6140370675762
20
4.00673018692137
30
0
41
1
10
69.6075187130722
20
4.00672682824163
30
0
41
1
10
69.6009855996957
20
4.00667508234756
30
0
0
SPLINE
5
E1
100
AcDbEntity
8
1
62
256
6
ByLayer
370
13
48
1
60
0
100
AcDbSpline
70
4
71
3
72
42
73
38
40
0
40
0
40
0
40
0
40
0.0625000000000001
40
0.0625000000000001
40
0.09375
40
0.09375
40
0.125
40
0.125
40
0.1875
40
0.1875
40
0.21875
40
0.21875
40
0.25
40
0.25
40
0.3125
40
0.375
40
0.4375
40
0.4375
40
0.46875
40
0.46875
40
0.5
40
0.5
40
0.53125
40
0.53125
40
0.5625
40
0.5625
40
0.625
40
0.6875
40
0.749999999999999
40
0.749999999999999
40
0.781249999999999
40
0.781249999999999
40
0.8125
40
0.8125
40
0.875
40
0.9375
40
1
40
1
40
1
40
1
41
1
10
69.6009855996957
20
4.00667508234756
30
0
41
1
10
69.600980764849
20
3.99882068963686
30
0
41
1
10
69.6009751338971
20
3.98586392516313
30
0
41
1
10
69.6009655905114
20
3.95880363511605
30
0
41
1
10
69.6009622215637
20
3.94849530912524
30
0
41
1
10
69.6009551549257
20
3.92540280886061
30
0
41
1
10
69.6009514586144
20
3.91262535652078
30
0
41
1
10
69.6009399051544
20
3.87063756220209
30
0
41
1
10
69.6009315849312
20
3.83777864428186
30
0
41
1
10
69.6009182478895
20
3.78121568398839
30
0
41
1
10
69.600913659055
20
3.76114721153371
30
0
41
1
10
69.6009042024384
20
3.71856544436625
30
0
41
1
10
69.600899330647
20
3.69603310305286
30
0
41
1
10
69.6008843291169
20
3.62484381971763
30
0
41
1
10
69.6008634839718
20
3.52123767746934
30
0
41
1
10
69.6008299012669
20
3.34058825490308
30
0
41
1
10
69.6008060250803
20
3.20347946210794
30
0
41
1
10
69.6007875503058
20
3.09431058038499
30
0
41
1
10
69.6007812971224
20
3.05686325755167
30
0
41
1
10
69.6007685952732
20
2.97982066635603
30
0
41
1
10
69.6007621364303
20
2.94016177307208
30
0
41
1
10
69.6007490722853
20
2.85900905721582
30
0
41
1
10
69.6007424693017
20
2.81753148200548
30
0
41
1
10
69.6007291158291
20
2.73277566625731
30
0
41
1
10
69.6007223547279
20
2.68942827348968
30
0
41
1
10
69.6007019379617
20
2.55732112382486
30
0
41
1
10
69.6006743520549
20
2.3756342725197
30
0
41
1
10
69.6006316955348
20
2.08694245214369
30
0
41
1
10
69.6006022280197
20
1.88376954157823
30
0
41
1
10
69.6005796523654
20
1.72730604574511
30
0
41
1
10
69.6005720477158
20
1.67446994429068
30
0
41
1
10
69.6005566614628
20
1.56741124217876
30
0
41
1
10
69.6005488718693
20
1.5131327975065
30
0
41
1
10
69.6005254224566
20
1.34967363143846
30
0
41
1
10
69.6004938098457
20
1.1291477098996
30
0
41
1
10
69.6004449710456
20
0.790766399074101
30
0
41
1
10
69.6004111835062
20
0.560100219680066
30
0
41
1
10
69.6003939021966
20
0.443463915401338
30
0
0
SPLINE
5
E2
100
AcDbEntity
8
1
62
256
6
ByLayer
370
18
48
1
60
0
100
AcDbSpline
70
4
71
3
72
52
73
48
40
0
40
0
40
0
40
0
40
0.0061994101970335
40
0.0061994101970335
40
0.0535232478066981
40
0.0535232478066981
40
0.100847085416363
40
0.100847085416363
40
0.148170923026027
40
0.148170923026027
40
0.17183284183086
40
0.17183284183086
40
0.195494760635692
40
0.195494760635692
40
0.242818598245357
40
0.242818598245357
40
0.290142435855021
40
0.290142435855021
40
0.337466273464686
40
0.337466273464686
40
0.384790111074351
40
0.384790111074351
40
0.408452029879183
40
0.408452029879183
40
0.432113948684015
40
0.432113948684015
40
0.479437786293679
40
0.479437786293679
40
0.526761623903344
40
0.526761623903344
40
0.621409299122673
40
0.621409299122673
40
0.668733136732339
40
0.668733136732339
40
0.716056974342005
40
0.716056974342005
40
0.763380811951671
40
0.763380811951671
40
0.810704649561336
40
0.810704649561336
40
0.905352324780668
40
0.905352324780668
40
0.929014243585502
40
0.929014243585502
40
0.952676162390335
40
0.952676162390335
40
1
40
1
40
1
40
1
41
1
10
83.1416182707534
20
-0.234805573427394
30
0
41
1
10
83.1138886264916
20
-0.221845121782394
30
0
41
1
10
83.0861557482806
20
-0.208879242678876
30
0
41
1
10
82.8466866644192
20
-0.0969077446457618
30
0
41
1
10
82.6346813141828
20
0.0021673416973158
30
0
41
1
10
82.2100662711651
20
0.20047824564557
30
0
41
1
10
81.9974826467916
20
0.299798838582518
30
0
41
1
10
81.5713815699111
20
0.497706540736118
30
0
41
1
10
81.3578421924788
20
0.596224391731596
30
0
41
1
10
81.036730476465
20
0.74324227147082
30
0
41
1
10
80.9294969560265
20
0.79215442924675
30
0
41
1
10
80.7150828557539
20
0.889558642424049
30
0
41
1
10
80.607939029629
20
0.938033542881868
30
0
41
1
10
80.2866950811548
20
1.08273106663879
30
0
41
1
10
80.0727783075035
20
1.17822431715845
30
0
41
1
10
79.6455077071507
20
1.36707137403525
30
0
41
1
10
79.432205476419
20
1.46046634584411
30
0
41
1
10
79.005385042763
20
1.64415694317051
30
0
41
1
10
78.7918065899918
20
1.7344095741133
30
0
41
1
10
78.3642551104771
20
1.91153059457875
30
0
41
1
10
78.1502841643572
20
1.99840980777429
30
0
41
1
10
77.8290955663453
20
2.12601893207002
30
0
41
1
10
77.721996077781
20
2.16810593502646
30
0
41
1
10
77.5077087072819
20
2.25131853134488
30
0
41
1
10
77.4004731674723
20
2.29246065043645
30
0
41
1
10
77.0794845309121
20
2.41401175401097
30
0
41
1
10
76.8662303050666
20
2.49263199936621
30
0
41
1
10
76.4402356694044
20
2.64492849094614
30
0
41
1
10
76.2274542131663
20
2.71860707416025
30
0
41
1
10
75.5898554542692
20
2.93187458529553
30
0
41
1
10
75.1658254957404
20
3.06372006976321
30
0
41
1
10
74.5308605288997
20
3.24373685076563
30
0
41
1
10
74.319396291838
20
3.30077553400724
30
0
41
1
10
73.8964954636991
20
3.4087866572267
30
0
41
1
10
73.6850466748704
20
3.45977217632623
30
0
41
1
10
73.2620582949639
20
3.55526929803773
30
0
41
1
10
73.0505404260828
20
3.59973656304493
30
0
41
1
10
72.626930601866
20
3.68257254994342
30
0
41
1
10
72.4148078117897
20
3.72099575241546
30
0
41
1
10
71.7774957330262
20
3.82654009339643
30
0
41
1
10
71.3514247939765
20
3.88390403428699
30
0
41
1
10
70.8166548537379
20
3.93690132650789
30
0
41
1
10
70.7095921756065
20
3.94656469179682
30
0
41
1
10
70.4952254109274
20
3.9639564294279
30
0
41
1
10
70.3880147290822
20
3.97167647863984
30
0
41
1
10
70.0666368936625
20
3.99181116713194
30
0
41
1
10
69.8525735880113
20
4.00121342138075
30
0
41
1
10
69.6386228241594
20
4.00640639915744
30
0
0
SPLINE
5
E3
100
AcDbEntity
8
1
62
256
6
ByLayer
370
13
48
1
60
0
100
AcDbSpline
70
4
71
3
72
8
73
4
40
0
40
0
40
0
40
0
40
1
40
1
40
1
40
1
41
1
10
69.6441011286832
20
4.16717124223248
30
0
41
1
10
69.643674327272
20
4.11710999584457
30
0
41
1
10
69.6432430898108
20
4.06704839832832
30
0
41
1
10
69.6428074283633
20
4.0169864356497
30
0
0
SPLINE
5
E4
100
AcDbEntity
8
1
62
256
6
ByLayer
370
18
48
1
60
0
100
AcDbSpline
70
4
71
3
72
50
73
46
40
0
40
0
40
0
40
0
40
0.0496080949107813
40
0.0496080949107813
40
0.0744121423661703
40
0.0744121423661703
40
0.0992161898215594
40
0.0992161898215594
40
0.198432379643116
40
0.198432379643116
40
0.248040474553894
40
0.248040474553894
40
0.297648569464673
40
0.297648569464673
40
0.347256664375451
40
0.347256664375451
40
0.39686475928623
40
0.39686475928623
40
0.496080949107789
40
0.496080949107789
40
0.545689044018569
40
0.545689044018569
40
0.595297138929349
40
0.595297138929349
40
0.62010118638474
40
0.62010118638474
40
0.644905233840131
40
0.644905233840131
40
0.69451332875091
40
0.69451332875091
40
0.74412142366169
40
0.74412142366169
40
0.79372951857247
40
0.79372951857247
40
0.843337613483249
40
0.843337613483249
40
0.868141660938637
40
0.868141660938637
40
0.892945708394026
40
0.892945708394026
40
0.942553803304803
40
0.942553803304803
40
0.99216189821558
40
0.99216189821558
40
1
40
1
40
1
40
1
41
1
10
69.6428074283633
20
4.0169864356497
30
0
41
1
10
69.8567294583328
20
4.01200398175459
30
0
41
1
10
70.0707652427987
20
4.0028027143232
30
0
41
1
10
70.3921037017817
20
3.98295461329516
30
0
41
1
10
70.499301650274
20
3.975327634254
30
0
41
1
10
70.7136433373412
20
3.95811682698741
30
0
41
1
10
70.8206930462263
20
3.94854129836207
30
0
41
1
10
71.3553959566645
20
3.89597003337937
30
0
41
1
10
71.7814064252583
20
3.83890527591782
30
0
41
1
10
72.4186163079913
20
3.73374679825244
30
0
41
1
10
72.6307023625053
20
3.69544091164965
30
0
41
1
10
73.0542355881397
20
3.61281929068835
30
0
41
1
10
73.2657154693232
20
3.56845105332553
30
0
41
1
10
73.6886293167581
20
3.47313175992346
30
0
41
1
10
73.9000400088232
20
3.42222318278581
30
0
41
1
10
74.3228643963628
20
3.31434425972753
30
0
41
1
10
74.5342910299611
20
3.25736185448699
30
0
41
1
10
75.1691463114567
20
3.07748095445447
30
0
41
1
10
75.5931048145106
20
2.9456784049938
30
0
41
1
10
76.2305976715322
20
2.73239798473841
30
0
41
1
10
76.4433436611628
20
2.65870119506218
30
0
41
1
10
76.869268649814
20
2.50634419299672
30
0
41
1
10
77.0824906666364
20
2.42768644667353
30
0
41
1
10
77.4034370775493
20
2.30606494046018
30
0
41
1
10
77.5106600282766
20
2.26489549616588
30
0
41
1
10
77.724923455332
20
2.18162104413182
30
0
41
1
10
77.8320106738183
20
2.13949991377268
30
0
41
1
10
78.1531611873171
20
2.01177803513676
30
0
41
1
10
78.3671047556606
20
1.92480930406816
30
0
41
1
10
78.7945970914045
20
1.7474828498454
30
0
41
1
10
79.0081438260707
20
1.6571142367508
30
0
41
1
10
79.4349001467537
20
1.47317335258893
30
0
41
1
10
79.6481723994041
20
1.37964910140178
30
0
41
1
10
80.0753870062495
20
1.19052344942048
30
0
41
1
10
80.2892762058265
20
1.09487768200097
30
0
41
1
10
80.6104789744559
20
0.949932289619483
30
0
41
1
10
80.7176091524491
20
0.901371689517703
30
0
41
1
10
80.9319959917457
20
0.803789736241043
30
0
41
1
10
81.0392183837739
20
0.754784330742524
30
0
41
1
10
81.3602921439612
20
0.607480511152687
30
0
41
1
10
81.5738029049201
20
0.508761699789147
30
0
41
1
10
81.9998422986972
20
0.310436062871304
30
0
41
1
10
82.2123942234601
20
0.210900903215958
30
0
41
1
10
82.458208741854
20
0.095821628240941
30
0
41
1
10
82.4917406744076
20
0.0801216631115267
30
0
41
1
10
82.5252651175177
20
0.064423421227275
30
0
0
SPLINE
5
E5
100
AcDbEntity
8
1
62
256
6
ByLayer
370
18
48
1
60
0
100
AcDbSpline
70
4
71
3
72
49
73
45
40
0
40
0
40
0
40
0
40
0.0217645373404656
40
0.0442485738201152
40
0.0442485738201152
40
0.0667326102997648
40
0.0667326102997648
40
0.156668756218363
40
0.156668756218363
40
0.201636829177662
40
0.201636829177662
40
0.246604902136962
40
0.246604902136962
40
0.33654104805556
40
0.33654104805556
40
0.426477193974159
40
0.426477193974159
40
0.471445266933458
40
0.471445266933458
40
0.516413339892757
40
0.516413339892757
40
0.538897376372406
40
0.538897376372406
40
0.561381412852056
40
0.561381412852056
40
0.606349485811358
40
0.606349485811358
40
0.651317558770659
40
0.651317558770659
40
0.696285631729961
40
0.696285631729961
40
0.741253704689263
40
0.741253704689263
40
0.763737741168912
40
0.763737741168912
40
0.786221777648562
40
0.786221777648562
40
0.876157923567158
40
0.876157923567158
40
0.921125996526456
40
0.921125996526456
40
0.966094069485755
40
0.966094069485755
40
1
40
1
40
1
40
1
41
1
10
69.9328807331852
20
0.290056141140667
30
0
41
1
10
70.0368275285347
20
0.242013888768326
30
0
41
1
10
70.2481479097484
20
0.144209710677131
30
0
41
1
10
70.4594920686598
20
0.04623254694107
30
0
41
1
10
70.6743086773847
20
-0.0533754961423938
30
0
41
1
10
70.7816730041856
20
-0.10316978045006
30
0
41
1
10
71.3176353343337
20
-0.351637339990361
30
0
41
1
10
71.7443265258639
20
-0.549106893563106
30
0
41
1
10
72.3824919962576
20
-0.84067956849043
30
0
41
1
10
72.5949041550003
20
-0.937094566530277
30
0
41
1
10
73.0193659934763
20
-1.12784744925332
30
0
41
1
10
73.2314121046293
20
-1.22219217750072
30
0
41
1
10
73.867224236915
20
-1.50163791662058
30
0
41
1
10
74.2906641821069
20
-1.68311920590986
30
0
41
1
10
75.1382942570355
20
-2.03318436281245
30
0
41
1
10
75.5624835916299
20
-2.20179551276826
30
0
41
1
10
76.2004372413387
20
-2.44280692103638
30
0
41
1
10
76.4133689516055
20
-2.52115662674098
30
0
41
1
10
76.8400728105404
20
-2.67338186600483
30
0
41
1
10
77.0538423392857
20
-2.74726010262054
30
0
41
1
10
77.3752361594895
20
-2.85445970497889
30
0
41
1
10
77.4825337570514
20
-2.88960385424951
30
0
41
1
10
77.6972084323589
20
-2.95858700174131
30
0
41
1
10
77.8044749527436
20
-2.99239112404607
30
0
41
1
10
78.1261038632604
20
-3.09170633110853
30
0
41
1
10
78.340294358112
20
-3.15511678324248
30
0
41
1
10
78.7684048866099
20
-3.27600887159611
30
0
41
1
10
78.9823285473645
20
-3.33349226080497
30
0
41
1
10
79.4102013624576
20
-3.44224202431872
30
0
41
1
10
79.6241594608013
20
-3.4935196158539
30
0
41
1
10
80.0522427826784
20
-3.58963079554485
30
0
41
1
10
80.2663647731667
20
-3.6344633923714
30
0
41
1
10
80.5878170081003
20
-3.69671841548151
30
0
41
1
10
80.695013007884
20
-3.71663811407498
30
0
41
1
10
80.9095250156941
20
-3.75479049961487
30
0
41
1
10
81.016891410845
20
-3.77303054934859
30
0
41
1
10
81.5528026688052
20
-3.85974845583334
30
0
41
1
10
81.9794730197946
20
-3.914930508456
30
0
41
1
10
82.6174649640884
20
-3.97594874608015
30
0
41
1
10
82.8297899892916
20
-3.99266678862006
30
0
41
1
10
83.2540184280157
20
-4.0188495805312
30
0
41
1
10
83.4659424570499
20
-4.02836849597142
30
0
41
1
10
83.8374405765399
20
-4.03870809941438
30
0
41
1
10
83.9970625906214
20
-4.04108279452572
30
0
41
1
10
84.1566530725426
20
-4.04139520662323
30
0
0
SPLINE
5
E6
100
AcDbEntity
8
1
62
256
6
ByLayer
370
18
48
1
60
0
100
AcDbSpline
70
4
71
3
72
48
73
44
40
0
40
0
40
0
40
0
40
0.040511561746764
40
0.040511561746764
40
0.0871838275574009
40
0.0871838275574009
40
0.133856093368038
40
0.133856093368038
40
0.227200624989312
40
0.227200624989312
40
0.25053675789463
40
0.25053675789463
40
0.273872890799947
40
0.273872890799947
40
0.320545156610581
40
0.320545156610581
40
0.367217422421214
40
0.367217422421214
40
0.413889688231847
40
0.413889688231847
40
0.460561954042481
40
0.460561954042481
40
0.483898086947797
40
0.483898086947797
40
0.507234219853114
40
0.507234219853114
40
0.553906485663749
40
0.553906485663749
40
0.600578751474385
40
0.600578751474385
40
0.693923283095656
40
0.693923283095656
40
0.787267814716928
40
0.787267814716928
40
0.833940080527563
40
0.833940080527563
40
0.880612346338199
40
0.880612346338199
40
0.973956877959468
40
0.973956877959468
40
0.997293010864786
40
0.997293010864786
40
1
40
1
40
1
40
1
41
1
10
84.2250194324053
20
-4.05129726470366
30
0
41
1
10
84.041311767083
20
-4.05185059766058
30
0
41
1
10
83.8575710538256
20
-4.04966600270345
30
0
41
1
10
83.4619317500938
20
-4.03904759155415
30
0
41
1
10
83.2500106670638
20
-4.02973060203195
30
0
41
1
10
82.8257862347367
20
-4.00393147008111
30
0
41
1
10
82.6134618929165
20
-3.98739571330421
30
0
41
1
10
81.9754685366756
20
-3.92689335559768
30
0
41
1
10
81.5487926703195
20
-3.87201316007551
30
0
41
1
10
81.012861636299
20
-3.78561187354026
30
0
41
1
10
80.905490333315
20
-3.76743208347335
30
0
41
1
10
80.690969097455
20
-3.72939427155586
30
0
41
1
10
80.5837687110468
20
-3.70952891563681
30
0
41
1
10
80.2623038426138
20
-3.64742832320474
30
0
41
1
10
80.048174165534
20
-3.60268722799043
30
0
41
1
10
79.6200773774999
20
-3.5067351652803
30
0
41
1
10
79.4061141144867
20
-3.45552446314133
30
0
41
1
10
78.9782304165007
20
-3.34688309950627
30
0
41
1
10
78.7643007257466
20
-3.28944177244929
30
0
41
1
10
78.3361759110757
20
-3.16860933686488
30
0
41
1
10
78.1219773001072
20
-3.10521625406139
30
0
41
1
10
77.800335732838
20
-3.00590668458037
30
0
41
1
10
77.6930648784422
20
-2.97210108295849
30
0
41
1
10
77.4783810835469
20
-2.903108504887
30
0
41
1
10
77.3710789576
20
-2.86795645794678
30
0
41
1
10
77.0496739081707
20
-2.76072472082686
30
0
41
1
10
76.8358993686683
20
-2.68681292470728
30
0
41
1
10
76.4091888180949
20
-2.53449711711295
30
0
41
1
10
76.196255138997
20
-2.45609093302582
30
0
41
1
10
75.5582980315033
20
-2.2148774037714
30
0
41
1
10
75.1341104288278
20
-2.04608649571114
30
0
41
1
10
74.2864889259698
20
-1.69557071859197
30
0
41
1
10
73.8630547109759
20
-1.51382068630051
30
0
41
1
10
73.2272499091314
20
-1.23390362269399
30
0
41
1
10
73.0152062876328
20
-1.13938989924244
30
0
41
1
10
72.5907472118824
20
-0.948278497648801
30
0
41
1
10
72.3783351897227
20
-0.851674284189926
30
0
41
1
10
71.7401654449351
20
-0.55950409294428
30
0
41
1
10
71.3134656468079
20
-0.361595281645521
30
0
41
1
10
70.77748379836
20
-0.11252440364899
30
0
41
1
10
70.6701150057639
20
-0.0626066358959463
30
0
41
1
10
70.550242108641
20
-0.0068848355087141
30
0
41
1
10
70.5377824533887
20
-0.0010931919020152
30
0
41
1
10
70.5253230218209
20
0.0046981876433847
30
0
0
SPLINE
5
E7
100
AcDbEntity
8
1
62
256
6
ByLayer
370
18
48
1
60
0
100
AcDbSpline
70
4
71
3
72
43
73
39
40
0
40
0
40
0
40
0
40
0.0624999999999997
40
0.124999999999999
40
0.187499999999999
40
0.187499999999999
40
0.218749999999999
40
0.218749999999999
40
0.249999999999999
40
0.249999999999999
40
0.312499999999999
40
0.374999999999999
40
0.437499999999999
40
0.437499999999999
40
0.468749999999999
40
0.468749999999999
40
0.499999999999999
40
0.499999999999999
40
0.562499999999999
40
0.562499999999999
40
0.593749999999998
40
0.593749999999998
40
0.624999999999998
40
0.624999999999998
40
0.687499999999997
40
0.687499999999997
40
0.718749999999997
40
0.718749999999997
40
0.749999999999997
40
0.749999999999997
40
0.812499999999997
40
0.874999999999997
40
0.937499999999997
40
0.937499999999997
40
0.953124999999998
40
0.953124999999998
40
0.968749999999999
40
1
40
1
40
1
40
1
41
1
10
110.422957037262
20
-0.27342468642064
30
0
41
1
10
110.408530415628
20
-0.392494891998837
30
0
41
1
10
110.383394828428
20
-0.628512394651239
30
0
41
1
10
110.354893176021
20
-0.976194103189869
30
0
41
1
10
110.340947949463
20
-1.20368473630117
30
0
41
1
10
110.332049435261
20
-1.37263347222
30
0
41
1
10
110.329344010335
20
-1.42867116457501
30
0
41
1
10
110.324406575338
20
-1.54017531241408
30
0
41
1
10
110.322171022507
20
-1.59575692429283
30
0
41
1
10
110.316160982979
20
-1.76011604248384
30
0
41
1
10
110.309955640857
20
-1.97364584761965
30
0
41
1
10
110.304867822413
20
-2.277505742139
30
0
41
1
10
110.303743250185
20
-2.46914879009515
30
0
41
1
10
110.303633140071
20
-2.60869922829937
30
0
41
1
10
110.303719556329
20
-2.65451808739314
30
0
41
1
10
110.304130204705
20
-2.74473352593859
30
0
41
1
10
110.304454047984
20
-2.78898690491312
30
0
41
1
10
110.305766511217
20
-2.91873201669142
30
0
41
1
10
110.307092918745
20
-3.00141195233584
30
0
41
1
10
110.309781556204
20
-3.11970688938871
30
0
41
1
10
110.310796134723
20
-3.15821110341818
30
0
41
1
10
110.313072179747
20
-3.23316610027163
30
0
41
1
10
110.314331198604
20
-3.26954367826207
30
0
41
1
10
110.3184986719
20
-3.37540096186785
30
0
41
1
10
110.321793607781
20
-3.44161149786433
30
0
41
1
10
110.327690150918
20
-3.5343684596798
30
0
41
1
10
110.329820185645
20
-3.56424391717192
30
0
41
1
10
110.33441347306
20
-3.62144460867762
30
0
41
1
10
110.336876857591
20
-3.64878798679811
30
0
41
1
10
110.3448230871
20
-3.72711272564783
30
0
41
1
10
110.356895257606
20
-3.82167859831631
30
0
41
1
10
110.380541984484
20
-3.93444921523701
30
0
41
1
10
110.400939778211
20
-3.99016543330572
30
0
41
1
10
110.415506122078
20
-4.01874460945783
30
0
41
1
10
110.418512863922
20
-4.02415094920318
30
0
41
1
10
110.424701252786
20
-4.03430387978773
30
0
41
1
10
110.434250001066
20
-4.04855286635151
30
0
41
1
10
110.444633925534
20
-4.05987059885803
30
0
41
1
10
110.451962812412
20
-4.06611536161449
30
0
0
SPLINE
5
E8
100
AcDbEntity
8
1
62
256
6
ByLayer
370
18
48
1
60
0
100
AcDbSpline
70
4
71
3
72
8
73
4
40
0
40
0
40
0
40
0
40
1
40
1
40
1
40
1
41
1
10
110.358062405618
20
-4.22279566422449
30
0
41
1
10
110.387999631994
20
-4.17438058358488
30
0
41
1
10
110.417966220299
20
-4.12578175255575
30
0
41
1
10
110.44796593205
20
-4.07699995059045
30
0
0
SPLINE
5
E9
100
AcDbEntity
8
1
62
256
6
ByLayer
370
18
48
1
60
0
100
AcDbSpline
70
4
71
3
72
31
73
27
40
0
40
0
40
0
40
0
40
0.0455283241338018
40
0.0455283241338018
40
0.140975491720424
40
0.140975491720424
40
0.236422659307047
40
0.236422659307047
40
0.331869826893669
40
0.331869826893669
40
0.427316994480292
40
0.427316994480292
40
0.475040578273603
40
0.498902370170258
40
0.498902370170258
40
0.522764162066914
40
0.522764162066914
40
0.618211329653531
40
0.618211329653531
40
0.713658497240148
40
0.713658497240148
40
0.809105664826765
40
0.809105664826765
40
0.904552832413383
40
0.904552832413383
40
1
40
1
40
1
40
1
41
1
10
97.1143844200561
20
0.30223425351474
30
0
41
1
10
97.3183814918925
20
0.206756105333341
30
0
41
1
10
97.5219161302327
20
0.111223655827502
30
0
41
1
10
98.1509593184543
20
-0.184175107529342
30
0
41
1
10
98.5751774467089
20
-0.383578388445869
30
0
41
1
10
99.4219440546016
20
-0.777575562191032
30
0
41
1
10
99.8444762602318
20
-0.972229922487855
30
0
41
1
10
100.689455862798
20
-1.35341113665927
30
0
41
1
10
101.111908595442
20
-1.53992142854386
30
0
41
1
10
101.958347562589
20
-1.90139950953898
30
0
41
1
10
102.382316530163
20
-2.07642531421132
30
0
41
1
10
103.020630745246
20
-2.32787031251681
30
0
41
1
10
103.340381907567
20
-2.45080734381381
30
0
41
1
10
103.661261839594
20
-2.56908099263506
30
0
41
1
10
103.87545985144
20
-2.64683767779943
30
0
41
1
10
103.982558198871
20
-2.68511796561597
30
0
41
1
10
104.51709033563
20
-2.87306947798263
30
0
41
1
10
104.942641549258
20
-3.01285639995328
30
0
41
1
10
105.791310100774
20
-3.26928500089338
30
0
41
1
10
106.214432776857
20
-3.38587967279688
30
0
41
1
10
107.059853049441
20
-3.59378176147055
30
0
41
1
10
107.482111149777
20
-3.68521201384803
30
0
41
1
10
108.327458705177
20
-3.84155885372354
30
0
41
1
10
108.750568631054
20
-3.90641255483791
30
0
41
1
10
109.599099755084
20
-4.00785365308664
30
0
41
1
10
110.024521863252
20
-4.04444965549882
30
0
41
1
10
110.451962813031
20
-4.06611536160801
30
0
0
SPLINE
5
EA
100
AcDbEntity
8
1
62
256
6
ByLayer
370
18
48
1
60
0
100
AcDbSpline
70
4
71
3
72
29
73
25
40
0
40
0
40
0
40
0
40
0.100381452473306
40
0.100381452473306
40
0.200762904946612
40
0.200762904946612
40
0.301144357419918
40
0.301144357419918
40
0.401525809893223
40
0.401525809893223
40
0.501907262366529
40
0.501907262366529
40
0.527002625484857
40
0.527002625484857
40
0.552097988603184
40
0.60228871483984
40
0.60228871483984
40
0.702670167313146
40
0.702670167313146
40
0.803051619786452
40
0.803051619786452
40
0.903433072259758
40
0.903433072259758
40
1
40
1
40
1
40
1
41
1
10
110.44796593205
20
-4.07699995059042
30
0
41
1
10
110.02052782262
20
-4.05573848241656
30
0
41
1
10
109.595114382442
20
-4.01949888736021
30
0
41
1
10
108.746604463342
20
-3.91868602272683
30
0
41
1
10
108.323507230891
20
-3.85410410683855
30
0
41
1
10
107.478187026794
20
-3.69821279228307
30
0
41
1
10
107.055945305963
20
-3.60696498941462
30
0
41
1
10
106.210551758094
20
-3.39933195435486
30
0
41
1
10
105.787437932221
20
-3.28282463527575
30
0
41
1
10
104.938775430586
20
-3.02647215076311
30
0
41
1
10
104.513222993071
20
-2.88667193314518
30
0
41
1
10
103.978677437503
20
-2.69863570862981
30
0
41
1
10
103.871575804137
20
-2.66033527798891
30
0
41
1
10
103.657368860307
20
-2.58253129921886
30
0
41
1
10
103.336477142236
20
-2.46417823812752
30
0
41
1
10
103.01671861264
20
-2.34113670480224
30
0
41
1
10
102.378394643666
20
-2.08944958542404
30
0
41
1
10
101.954427253649
20
-1.91421551749744
30
0
41
1
10
101.107997724738
20
-1.55223461265206
30
0
41
1
10
100.6855515784
20
-1.36543213378781
30
0
41
1
10
99.8405856923815
20
-0.983584076788219
30
0
41
1
10
99.4180623983179
20
-0.788551379070896
30
0
41
1
10
98.5873948588299
20
-0.401220290920094
30
0
41
1
10
98.1793276601978
20
-0.209047163644072
30
0
41
1
10
97.7697351975556
20
-0.0162231555237042
30
0
0
SPLINE
5
EB
100
AcDbEntity
8
1
62
256
6
ByLayer
370
18
48
1
60
0
100
AcDbSpline
70
4
71
3
72
10
73
6
40
0
40
0
40
0
40
0
40
0.5
40
0.5
40
1
40
1
40
1
40
1
41
1
10
110.44796593205
20
-4.07699995059042
30
0
41
1
10
110.448641108277
20
-4.07590206294185
30
0
41
1
10
110.449323770839
20
-4.07474847325318
30
0
41
1
10
110.450653230855
20
-4.07238843932501
30
0
41
1
10
110.451289563184
20
-4.07119694479022
30
0
41
1
10
110.451809157663
20
-4.070145406471
30
0
0
SPLINE
5
EC
100
AcDbEntity
8
1
62
256
6
ByLayer
370
18
48
1
60
0
100
AcDbSpline
70
4
71
3
72
10
73
6
40
0
40
0
40
0
40
0
40
0.5
40
0.5
40
1
40
1
40
1
40
1
41
1
10
110.451962812364
20
-4.06611536157476
30
0
41
1
10
110.452146136443
20
-4.06627156747641
30
0
41
1
10
110.452243730479
20
-4.06666459971342
30
0
41
1
10
110.452210641593
20
-4.06800812439661
30
0
41
1
10
110.452073468518
20
-4.06896899504807
30
0
41
1
10
110.451809157664
20
-4.07014540647097
30
0
0
SPLINE
5
ED
100
AcDbEntity
8
1
62
256
6
ByLayer
370
18
48
1
60
0
100
AcDbSpline
70
4
71
3
72
46
73
42
40
0
40
0
40
0
40
0
40
0.0896981636151368
40
0.0896981636151368
40
0.179396327230274
40
0.179396327230274
40
0.224245409037845
40
0.224245409037845
40
0.269094490845415
40
0.269094490845415
40
0.358792654460562
40
0.358792654460562
40
0.403641736268133
40
0.403641736268133
40
0.448490818075704
40
0.448490818075704
40
0.493339899883274
40
0.493339899883274
40
0.538188981690846
40
0.538188981690846
40
0.583038063498416
40
0.583038063498416
40
0.627887145305987
40
0.627887145305987
40
0.717585308921134
40
0.717585308921134
40
0.76243439072871
40
0.76243439072871
40
0.807283472536285
40
0.807283472536285
40
0.896981636151437
40
0.896981636151437
40
0.94183071795901
40
0.94183071795901
40
0.953042988410904
40
0.953042988410904
40
0.964255258862799
40
0.964255258862799
40
0.986679799766588
40
0.986679799766588
40
1
40
1
40
1
40
1
41
1
10
110.422957037261
20
-0.27342468642064
30
0
41
1
10
109.9976424205
20
-0.0707173448551828
30
0
41
1
10
109.573457459949
20
0.130575490186857
30
0
41
1
10
108.726539378668
20
0.528485274496916
30
0
41
1
10
108.303806375253
20
0.725104633880505
30
0
41
1
10
107.67037856927
20
1.01510922764038
30
0
41
1
10
107.459346773927
20
1.11095823461048
30
0
41
1
10
107.03750303147
20
1.30075484771817
30
0
41
1
10
106.82670960015
20
1.39471959076476
30
0
41
1
10
106.193726752912
20
1.67248733543096
30
0
41
1
10
105.770840479492
20
1.85205881890485
30
0
41
1
10
105.13458414746
20
2.11129536372593
30
0
41
1
10
104.922178259618
20
2.196029931173
30
0
41
1
10
104.49663914892
20
2.36167617699701
30
0
41
1
10
104.28352088378
20
2.44258261751776
30
0
41
1
10
103.856146436924
20
2.60014896890715
30
0
41
1
10
103.642783319018
20
2.67647006851121
30
0
41
1
10
103.216939698629
20
2.82378703428464
30
0
41
1
10
103.004414238596
20
2.89480007941103
30
0
41
1
10
102.580117262738
20
3.03125293272373
30
0
41
1
10
102.368345227149
20
3.09670450570533
30
0
41
1
10
101.945534971314
20
3.22152117870664
30
0
41
1
10
101.734522488639
20
3.28085043001704
30
0
41
1
10
101.101694001866
20
3.45005059535143
30
0
41
1
10
100.679959791201
20
3.55127232002033
30
0
41
1
10
100.047259876379
20
3.68354453968126
30
0
41
1
10
99.8363480414278
20
3.72438538721403
30
0
41
1
10
99.4143994975416
20
3.79893722443901
30
0
41
1
10
99.2033853634763
20
3.8325648420186
30
0
41
1
10
98.5693762158077
20
3.92388798642602
30
0
41
1
10
98.145273030231
20
3.97245513774541
30
0
41
1
10
97.506668687909
20
4.02301748814273
30
0
41
1
10
97.2934014411438
20
4.03616551318518
30
0
41
1
10
97.0262147992746
20
4.04734716293791
30
0
41
1
10
96.972724097854
20
4.04931640239752
30
0
41
1
10
96.8658589119647
20
4.0527346330941
30
0
41
1
10
96.812468978952
20
4.05418977420251
30
0
41
1
10
96.6523764971449
20
4.05789451813499
30
0
41
1
10
96.5457317587439
20
4.05952265533574
30
0
41
1
10
96.3758442209094
20
4.06082819984553
30
0
41
1
10
96.3125617380823
20
4.06102540829096
30
0
41
1
10
96.2493052371593
20
4.06092775097326
30
0
0
SPLINE
5
EE
100
AcDbEntity
8
1
62
256
6
ByLayer
370
18
48
1
60
0
100
AcDbSpline
70
4
71
3
72
8
73
4
40
0
40
0
40
0
40
0
40
1
40
1
40
1
40
1
41
1
10
110.420738285959
20
-0.262011084163902
30
0
41
1
10
110.422633388416
20
-0.26257041791149
30
0
41
1
10
110.423652626293
20
-0.267683638303424
30
0
41
1
10
110.422957037262
20
-0.273424686420754
30
0
0
SPLINE
5
EF
100
AcDbEntity
8
1
62
256
6
ByLayer
370
18
48
1
60
0
100
AcDbSpline
70
4
71
3
72
46
73
42
40
0
40
0
40
0
40
0
40
0.0313071463757621
40
0.0313071463757621
40
0.0541590657767236
40
0.0541590657767236
40
0.065585025477202
40
0.065585025477202
40
0.0770109851776805
40
0.0770109851776805
40
0.122714823979599
40
0.122714823979599
40
0.21412250158344
40
0.21412250158344
40
0.259826340385358
40
0.259826340385358
40
0.305530179187276
40
0.305530179187276
40
0.396937856791108
40
0.396937856791108
40
0.442641695593024
40
0.442641695593024
40
0.488345534394939
40
0.488345534394939
40
0.534049373196855
40
0.534049373196855
40
0.579753211998771
40
0.579753211998771
40
0.625457050800687
40
0.625457050800687
40
0.671160889602603
40
0.671160889602603
40
0.762568567206434
40
0.762568567206434
40
0.80827240600835
40
0.80827240600835
40
0.853976244810266
40
0.853976244810266
40
0.945383922414092
40
0.945383922414092
40
1
40
1
40
1
40
1
41
1
10
96.0016276419141
20
4.06868171803998
30
0
41
1
10
96.1473390956042
20
4.0708927474214
30
0
41
1
10
96.2931906022444
20
4.0714925644576
30
0
41
1
10
96.5457399425586
20
4.06986050677088
30
0
41
1
10
96.6523664559507
20
4.06835950952487
30
0
41
1
10
96.8124315681653
20
4.06484729724866
30
0
41
1
10
96.8658123801138
20
4.0634568013397
30
0
41
1
10
96.9726594706047
20
4.06016873989228
30
0
41
1
10
97.0261442215739
20
4.05826521825503
30
0
41
1
10
97.2933068882498
20
4.04740577168454
30
0
41
1
10
97.506551611045
20
4.03450132261077
30
0
41
1
10
98.145081294824
20
3.98463201072903
30
0
41
1
10
98.5691259951626
20
3.93647546407567
30
0
41
1
10
99.203030635798
20
3.84570462714029
30
0
41
1
10
99.4140085888494
20
3.81225810286858
30
0
41
1
10
99.835884373013
20
3.73805133264372
30
0
41
1
10
100.046758514027
20
3.69736941890076
30
0
41
1
10
100.679342979743
20
3.56553565359397
30
0
41
1
10
101.100998156624
20
3.46455595816877
30
0
41
1
10
101.733702505968
20
3.29564722953012
30
0
41
1
10
101.944672741282
20
3.23640869364351
30
0
41
1
10
102.367400021427
20
3.1117530997461
30
0
41
1
10
102.579131043266
20
3.04636684198988
30
0
41
1
10
103.00334748755
20
2.91001579723905
30
0
41
1
10
103.215833651511
20
2.83904039200706
30
0
41
1
10
103.641600479122
20
2.69177082792859
30
0
41
1
10
103.854909856701
20
2.61546473491035
30
0
41
1
10
104.282245546924
20
2.45787741819254
30
0
41
1
10
104.495342383439
20
2.37695240218298
30
0
41
1
10
104.920836615597
20
2.21124710929064
30
0
41
1
10
105.133217553705
20
2.12646739823819
30
0
41
1
10
105.76939229492
20
1.86705407332789
30
0
41
1
10
106.192217497405
20
1.68731539232061
30
0
41
1
10
106.825097783312
20
1.40922406373721
30
0
41
1
10
107.035855435417
20
1.31514199737183
30
0
41
1
10
107.457628527003
20
1.12509042763142
30
0
41
1
10
107.668624744344
20
1.02909979605627
30
0
41
1
10
108.301944534066
20
0.73862999485155
30
0
41
1
10
108.724605558393
20
0.541653080856861
30
0
41
1
10
109.400966443363
20
0.223176027050954
30
0
41
1
10
109.654199679524
20
0.103208328078409
30
0
41
1
10
109.907778527328
20
-0.0174134591922268
30
0
0
SPLINE
5
F0
100
AcDbEntity
8
1
62
256
6
ByLayer
370
18
48
1
60
0
100
AcDbSpline
70
4
71
3
72
8
73
4
40
0
40
0
40
0
40
0
40
1
40
1
40
1
40
1
41
1
10
110.367507460696
20
-0.24535995278714
30
0
41
1
10
110.3852424415
20
-0.251221148175006
30
0
41
1
10
110.402983913874
20
-0.256770935044131
30
0
41
1
10
110.420738285959
20
-0.262011084163902
30
0
0
SPLINE
5
F1
100
AcDbEntity
8
1
62
256
6
ByLayer
370
18
48
1
60
0
100
AcDbSpline
70
4
71
3
72
51
73
47
40
0
40
0
40
0
40
0
40
0.0164554534390681
40
0.0164554534390681
40
0.0353697716421654
40
0.0353697716421654
40
0.0542840898452631
40
0.0542840898452631
40
0.0921127262514536
40
0.0921127262514536
40
0.167769999063833
40
0.167769999063833
40
0.205598635470022
40
0.205598635470022
40
0.224512953673116
40
0.224512953673116
40
0.24342727187621
40
0.24342727187621
40
0.31908454468859
40
0.31908454468859
40
0.394741817500969
40
0.394741817500969
40
0.413656135704064
40
0.413656135704064
40
0.432570453907159
40
0.432570453907159
40
0.470399090313348
40
0.470399090313348
40
0.546056363125725
40
0.546056363125725
40
0.583884999531914
40
0.583884999531914
40
0.621713635938103
40
0.621713635938103
40
0.659542272344292
40
0.659542272344292
40
0.69737090875048
40
0.69737090875048
40
0.773028181562858
40
0.773028181562858
40
0.810856817969047
40
0.810856817969047
40
0.848685454375237
40
0.924342727187619
40
0.924342727187619
40
1
40
1
40
1
40
1
41
1
10
86.4029455336574
20
-4.06321677307903
30
0
41
1
10
86.3103668097136
20
-4.07469643293905
30
0
41
1
10
86.2177514203263
20
-4.08548151268852
30
0
41
1
10
86.0185826361067
20
-4.10715715257828
30
0
41
1
10
85.9120186212099
20
-4.11782569442258
30
0
41
1
10
85.6987896306598
20
-4.13731260931448
30
0
41
1
10
85.5922024979138
20
-4.14611988244599
30
0
41
1
10
85.272680217064
20
-4.16968045986124
30
0
41
1
10
85.0598864693148
20
-4.18158720653958
30
0
41
1
10
84.4218377982151
20
-4.20590054141209
30
0
41
1
10
83.996895534281
20
-4.20689632351343
30
0
41
1
10
83.3588699418473
20
-4.18563399218152
30
0
41
1
10
83.1461146701293
20
-4.17475096277624
30
0
41
1
10
82.8266926163867
20
-4.15273503427184
30
0
41
1
10
82.7201677941792
20
-4.14444860231583
30
0
41
1
10
82.5069824958871
20
-4.1259854999964
30
0
41
1
10
82.4003005883489
20
-4.11580581162005
30
0
41
1
10
81.8673964032131
20
-4.06030622247994
30
0
41
1
10
81.4420328363539
20
-4.00110711674799
30
0
41
1
10
80.5915461035922
20
-3.85436149419039
30
0
41
1
10
80.1663665276984
20
-3.76685434930386
30
0
41
1
10
79.6339034917217
20
-3.64071123211679
30
0
41
1
10
79.5273635923166
20
-3.61464290125855
30
0
41
1
10
79.3141759000233
20
-3.56083405330961
30
0
41
1
10
79.2074815264046
20
-3.53308193854338
30
0
41
1
10
78.8875550348934
20
-3.44746022971577
30
0
41
1
10
78.6745512325766
20
-3.38724879147068
30
0
41
1
10
78.0359301116001
20
-3.19782968940675
30
0
41
1
10
77.6107296243993
20
-3.05981033928813
30
0
41
1
10
76.9725275987349
20
-2.83695838150439
30
0
41
1
10
76.7597282691108
20
-2.76003572293431
30
0
41
1
10
76.3338338247736
20
-2.60114491723556
30
0
41
1
10
76.1207324954573
20
-2.51918409260856
30
0
41
1
10
75.6939136304655
20
-2.35071176476848
30
0
41
1
10
75.4809683580669
20
-2.26449810950817
30
0
41
1
10
75.0559648542121
20
-2.08857870926346
30
0
41
1
10
74.843880859914
20
-1.99886255890363
30
0
41
1
10
74.2085923542449
20
-1.72503159278042
30
0
41
1
10
73.7863384127698
20
-1.53625700033155
30
0
41
1
10
73.1535726378999
20
-1.24638940270262
30
0
41
1
10
72.9427556356827
20
-1.1486450768528
30
0
41
1
10
72.5211578330074
20
-0.951267600250389
30
0
41
1
10
71.8888089338256
20
-0.65237971800957
30
0
41
1
10
71.2554326718317
20
-0.347441075325548
30
0
41
1
10
70.4083552278482
20
0.0610474735634341
30
0
41
1
10
69.9835247640611
20
0.266231903545076
30
0
41
1
10
69.5566708293223
20
0.470836094070052
30
0
0
SPLINE
5
F2
100
AcDbEntity
8
1
62
256
6
ByLayer
370
18
48
1
60
0
100
AcDbSpline
70
4
71
3
72
18
73
14
40
0
40
0
40
0
40
0
40
0.250000000000027
40
0.250000000000027
40
0.37500000000004
40
0.37500000000004
40
0.500000000000054
40
0.500000000000054
40
0.625000000000067
40
0.625000000000067
40
0.75000000000008
40
0.75000000000008
40
1
40
1
40
1
40
1
41
1
10
69.5566708293223
20
0.470836094070052
30
0
41
1
10
69.5481822851776
20
0.474904913781217
30
0
41
1
10
69.5404620193869
20
0.480046348196396
30
0
41
1
10
69.5300063607627
20
0.489326669518476
30
0
41
1
10
69.5267051843725
20
0.492700905577095
30
0
41
1
10
69.5206921479626
20
0.499777474490031
30
0
41
1
10
69.5179516811824
20
0.503501912770219
30
0
41
1
10
69.5129993072131
20
0.511320241547367
30
0
41
1
10
69.5107754849238
20
0.515441491038558
30
0
41
1
10
69.5069411216697
20
0.523942702067217
30
0
41
1
10
69.5053434043255
20
0.528282926433519
30
0
41
1
10
69.5014794986477
20
0.541563878900803
30
0
41
1
10
69.5001348917474
20
0.550861288149463
30
0
41
1
10
69.5001348917473
20
0.560201501902327
30
0
0
SPLINE
5
F3
100
AcDbEntity
8
1
62
256
6
ByLayer
370
18
48
1
60
0
100
AcDbSpline
70
4
71
3
72
28
73
24
40
0
40
0
40
0
40
0
40
0.124999999999906
40
0.124999999999906
40
0.187499999999886
40
0.187499999999886
40
0.249999999999865
40
0.312499999999844
40
0.312499999999844
40
0.374999999999823
40
0.374999999999823
40
0.499999999999781
40
0.499999999999781
40
0.624999999999739
40
0.624999999999739
40
0.687499999999816
40
0.687499999999816
40
0.749999999999893
40
0.81249999999997
40
0.81249999999997
40
0.875000000000048
40
0.875000000000048
40
1
40
1
40
1
40
1
41
1
10
69.5001348917473
20
4.15993690823231
30
0
41
1
10
69.5001348917474
20
4.16069018265711
30
0
41
1
10
69.5012065868307
20
4.16140327938774
30
0
41
1
10
69.5043712298895
20
4.16241812701321
30
0
41
1
10
69.5057014445523
20
4.16274948175897
30
0
41
1
10
69.5088434711604
20
4.16338057410567
30
0
41
1
10
69.5124578542435
20
4.16398064982107
30
0
41
1
10
69.5169947643702
20
4.16452381222732
30
0
41
1
10
69.5220042607264
20
4.16504003198239
30
0
41
1
10
69.5247488542239
20
4.1652843316856
30
0
41
1
10
69.5334619458164
20
4.16595939816693
30
0
41
1
10
69.5399733711743
20
4.16634105948256
30
0
41
1
10
69.5544334106743
20
4.1669816079737
30
0
41
1
10
69.5620768735141
20
4.16722722436546
30
0
41
1
10
69.5741430318647
20
4.16749797004809
30
0
41
1
10
69.5782972196633
20
4.16757199939227
30
0
41
1
10
69.5866320936035
20
4.16768405079804
30
0
41
1
10
69.5949954509075
20
4.16776082962843
30
0
41
1
10
69.6034144527425
20
4.16776977630002
30
0
41
1
10
69.6118619697453
20
4.16774390384833
30
0
41
1
10
69.6160971153819
20
4.16771323657235
30
0
41
1
10
69.6284842857687
20
4.16757037045682
30
0
41
1
10
69.6364459144899
20
4.16740832815444
30
0
41
1
10
69.6441011286832
20
4.16717124223248
30
0
0
SPLINE
5
F4
100
AcDbEntity
8
1
62
256
6
ByLayer
370
18
48
1
60
0
100
AcDbSpline
70
4
71
3
72
99
73
95
40
0
40
0
40
0
40
0
40
0.0478274389724323
40
0.0478274389724323
40
0.0717411584586484
40
0.0717411584586484
40
0.0836980182017571
40
0.0836980182017571
40
0.0956548779448658
40
0.0956548779448658
40
0.119568597431082
40
0.119568597431082
40
0.143482316917298
40
0.143482316917298
40
0.167396036403514
40
0.167396036403514
40
0.19130975588973
40
0.19130975588973
40
0.203266615632838
40
0.203266615632838
40
0.215223475375945
40
0.23913719486216
40
0.23913719486216
40
0.263050914348375
40
0.263050914348375
40
0.28696463383459
40
0.28696463383459
40
0.310878353320805
40
0.310878353320805
40
0.33479207280702
40
0.33479207280702
40
0.358705792293235
40
0.358705792293235
40
0.38261951177945
40
0.38261951177945
40
0.406533231265664
40
0.406533231265664
40
0.430446950751879
40
0.430446950751879
40
0.442403810494986
40
0.442403810494986
40
0.454360670238093
40
0.454360670238093
40
0.478274389724305
40
0.478274389724305
40
0.502188109210518
40
0.502188109210518
40
0.52610182869673
40
0.52610182869673
40
0.550015548182943
40
0.550015548182943
40
0.561972407926049
40
0.561972407926049
40
0.573929267669155
40
0.573929267669155
40
0.597842987155366
40
0.597842987155366
40
0.609799846898472
40
0.609799846898472
40
0.621756706641577
40
0.621756706641577
40
0.645670426127788
40
0.645670426127788
40
0.669584145613999
40
0.669584145613999
40
0.693497865100211
40
0.693497865100211
40
0.705454724843315
40
0.705454724843315
40
0.717411584586419
40
0.717411584586419
40
0.741325304072628
40
0.741325304072628
40
0.765239023558836
40
0.765239023558836
40
0.789152743045045
40
0.789152743045045
40
0.813066462531254
40
0.813066462531254
40
0.825023322274356
40
0.825023322274356
40
0.83698018201746
40
0.83698018201746
40
0.860893901503666
40
0.860893901503666
40
0.884807620989872
40
0.884807620989872
40
0.908721340476078
40
0.908721340476078
40
0.932635059962284
40
0.932635059962284
40
0.95654877944849
40
0.95654877944849
40
1
40
1
40
1
40
1
41
1
10
69.6441011286832
20
4.16717124223248
30
0
41
1
10
70.0686085135061
20
4.15402403012828
30
0
41
1
10
70.4933468174692
20
4.12558571286039
30
0
41
1
10
71.1314045516559
20
4.06106821511227
30
0
41
1
10
71.3442454627788
20
4.03591034510708
30
0
41
1
10
71.6637859641939
20
3.99273695301605
30
0
41
1
10
71.7702886724139
20
3.97744654301809
30
0
41
1
10
71.9831179347236
20
3.94510350032786
30
0
41
1
10
72.0894706719233
20
3.92804792281416
30
0
41
1
10
72.4083583577028
20
3.87424272005097
30
0
41
1
10
72.620708042837
20
3.83484755768518
30
0
41
1
10
73.0449177682943
20
3.74893275349677
30
0
41
1
10
73.256823991241
20
3.70243917595573
30
0
41
1
10
73.6808831677704
20
3.6029810744993
30
0
41
1
10
73.8930026873208
20
3.54999535353227
30
0
41
1
10
74.3174994102529
20
3.43759602935941
30
0
41
1
10
74.5298940853028
20
3.37819601076564
30
0
41
1
10
74.848978442171
20
3.28462669047829
30
0
41
1
10
74.9554641766071
20
3.25267442538907
30
0
41
1
10
75.1682894740641
20
3.18738033492846
30
0
41
1
10
75.4873532148196
20
3.08734375318019
30
0
41
1
10
75.8059435000055
20
2.9811142075124
30
0
41
1
10
76.2304250275712
20
2.83414135959279
30
0
41
1
10
76.442502128307
20
2.75797325267706
30
0
41
1
10
76.8663584887871
20
2.60025949711934
30
0
41
1
10
77.0781855319877
20
2.51877765707977
30
0
41
1
10
77.5024353041057
20
2.35189344190991
30
0
41
1
10
77.7148216171767
20
2.26644150490876
30
0
41
1
10
78.1401657683186
20
2.09164107555586
30
0
41
1
10
78.3532638224655
20
2.00220180895059
30
0
41
1
10
78.7784998619487
20
1.81969547741156
30
0
41
1
10
78.9907674745421
20
1.72658434086736
30
0
41
1
10
79.4147161485209
20
1.53683238617566
30
0
41
1
10
79.6264628558269
20
1.44031146626622
30
0
41
1
10
80.05039062072
20
1.24573302962653
30
0
41
1
10
80.2625161663341
20
1.14757410628755
30
0
41
1
10
80.6869911077912
20
0.949343715927597
30
0
41
1
10
80.8993448371768
20
0.849279774108084
30
0
41
1
10
81.2180910804233
20
0.697833665509052
30
0
41
1
10
81.3243759306515
20
0.647126710119636
30
0
41
1
10
81.5370251001148
20
0.545273238700872
30
0
41
1
10
81.6434196592371
20
0.49410946288512
30
0
41
1
10
81.9622020083152
20
0.340259214913431
30
0
41
1
10
82.1743692265723
20
0.237192186305663
30
0
41
1
10
82.5985537771483
20
0.031222184448751
30
0
41
1
10
82.8105361085671
20
-0.071754599840915
30
0
41
1
10
83.2342587533245
20
-0.277737504612247
30
0
41
1
10
83.446079615765
20
-0.380575727266319
30
0
41
1
10
83.8702114143825
20
-0.584769469846265
30
0
41
1
10
84.0824734063939
20
-0.686227018268596
30
0
41
1
10
84.4010924387119
20
-0.837595311625478
30
0
41
1
10
84.5073377892502
20
-0.887912236463308
30
0
41
1
10
84.7199111515766
20
-0.988257523258227
30
0
41
1
10
84.8262679197842
20
-1.03829922015666
30
0
41
1
10
85.145283937717
20
-1.18787166330404
30
0
41
1
10
85.3575714892184
20
-1.28672129835172
30
0
41
1
10
85.6754778033729
20
-1.43354949265148
30
0
41
1
10
85.7813778949601
20
-1.48221279128205
30
0
41
1
10
85.9932611741802
20
-1.57855682564934
30
0
41
1
10
86.0992294791766
20
-1.62626768972061
30
0
41
1
10
86.4171706658057
20
-1.76811403798169
30
0
41
1
10
86.6291825926406
20
-1.86095932500905
30
0
41
1
10
87.053277803248
20
-2.04328828781036
30
0
41
1
10
87.2653601120521
20
-2.13277298287613
30
0
41
1
10
87.6896370778163
20
-2.30827238633108
30
0
41
1
10
87.9018436677714
20
-2.39426277461124
30
0
41
1
10
88.2205099843818
20
-2.52013449244365
30
0
41
1
10
88.3267674398296
20
-2.56155965184757
30
0
41
1
10
88.5391008127157
20
-2.64310642828076
30
0
41
1
10
88.6452218220856
20
-2.68324518962589
30
0
41
1
10
88.9635411321744
20
-2.80162535175134
30
0
41
1
10
89.175678513029
20
-2.87786435029238
30
0
41
1
10
89.5997372958073
20
-3.02512805702094
30
0
41
1
10
89.8116587025317
20
-3.09615131510515
30
0
41
1
10
90.2352947333337
20
-3.23291692618278
30
0
41
1
10
90.4469922076921
20
-3.29867201499192
30
0
41
1
10
90.8707304621647
20
-3.42410897399912
30
0
41
1
10
91.0827867928105
20
-3.48377503658494
30
0
41
1
10
91.4014385274331
20
-3.56837527330151
30
0
41
1
10
91.5077937234559
20
-3.59577489355249
30
0
41
1
10
91.7203750155856
20
-3.64888908229824
30
0
41
1
10
91.8266109591672
20
-3.67460712268925
30
0
41
1
10
92.1451468821178
20
-3.74926279904716
30
0
41
1
10
92.3572717605405
20
-3.79570799340081
30
0
41
1
10
92.7810757144045
20
-3.88189741781432
30
0
41
1
10
92.992773014131
20
-3.92161517553177
30
0
41
1
10
93.4162390381978
20
-3.99389494771901
30
0
41
1
10
93.6279930573765
20
-4.02647686803641
30
0
41
1
10
94.0516268848604
20
-4.08443901868011
30
0
41
1
10
94.2635223497085
20
-4.10980030324717
30
0
41
1
10
94.6879718682307
20
-4.15302345542614
30
0
41
1
10
94.9006560514849
20
-4.17090455245088
30
0
41
1
10
95.49886294178
20
-4.21058755593796
30
0
41
1
10
95.8840593686646
20
-4.22377352530788
30
0
41
1
10
96.2687588681574
20
-4.22446396356847
30
0
0
SPLINE
5
F5
100
AcDbEntity
8
1
62
256
6
ByLayer
370
18
48
1
60
0
100
AcDbSpline
70
4
71
3
72
126
73
122
40
0
40
0
40
0
40
0
40
0.0040504733304822
40
0.0156897488775242
40
0.0156897488775242
40
0.0389682999716081
40
0.0389682999716081
40
0.0622468510656919
40
0.0622468510656919
40
0.0855254021597758
40
0.0855254021597758
40
0.0971646777068168
40
0.0971646777068168
40
0.108803953253858
40
0.108803953253858
40
0.132082504347942
40
0.132082504347942
40
0.155361055442025
40
0.155361055442025
40
0.178639606536109
40
0.178639606536109
40
0.190278882083151
40
0.190278882083151
40
0.196098519856671
40
0.196098519856671
40
0.201918157630191
40
0.201918157630191
40
0.213557433177229
40
0.213557433177229
40
0.225196708724267
40
0.225196708724267
40
0.236835984271305
40
0.236835984271305
40
0.248475259818343
40
0.248475259818343
40
0.271753810912419
40
0.271753810912419
40
0.295032362006495
40
0.295032362006495
40
0.318310913100571
40
0.318310913100571
40
0.341589464194647
40
0.341589464194647
40
0.353228739741685
40
0.353228739741685
40
0.364868015288723
40
0.364868015288723
40
0.388146566382799
40
0.388146566382799
40
0.393966204156318
40
0.393966204156318
40
0.399785841929836
40
0.411425117476873
40
0.411425117476873
40
0.434703668570947
40
0.434703668570947
40
0.457982219665021
40
0.457982219665021
40
0.469621495212057
40
0.469621495212057
40
0.481260770759093
40
0.481260770759093
40
0.504539321853165
40
0.504539321853165
40
0.527817872947237
40
0.527817872947237
40
0.551096424041308
40
0.551096424041308
40
0.57437497513538
40
0.57437497513538
40
0.586014250682416
40
0.586014250682416
40
0.591833888455935
40
0.591833888455935
40
0.597653526229453
40
0.597653526229453
40
0.620932077323527
40
0.620932077323527
40
0.644210628417601
40
0.644210628417601
40
0.667489179511675
40
0.667489179511675
40
0.690767730605749
40
0.690767730605749
40
0.714046281699824
40
0.714046281699824
40
0.72568555724686
40
0.72568555724686
40
0.737324832793897
40
0.737324832793897
40
0.783881934982048
40
0.783881934982048
40
0.789701572755567
40
0.789701572755567
40
0.795521210529085
40
0.795521210529085
40
0.807160486076122
40
0.807160486076122
40
0.830439037170197
40
0.830439037170197
40
0.842078312717234
40
0.842078312717234
40
0.853717588264271
40
0.853717588264271
40
0.876996139358345
40
0.876996139358345
40
0.900274690452419
40
0.900274690452419
40
0.923553241546493
40
0.923553241546493
40
0.946831792640567
40
0.946831792640567
40
0.958471068187604
40
0.958471068187604
40
0.970110343734641
40
0.970110343734641
40
0.993388894828715
40
0.993388894828715
40
0.999208532602234
40
0.999208532602234
40
1
40
1
40
1
40
1
41
1
10
103.950787609784
20
-3.11545727870788
30
0
41
1
10
103.905184334512
20
-3.13059820716413
30
0
41
1
10
103.728625021632
20
-3.1886950075826
30
0
41
1
10
103.552385452572
20
-3.24463406956463
30
0
41
1
10
103.160628802389
20
-3.3655285861372
30
0
41
1
10
102.900083532966
20
-3.44133173827922
30
0
41
1
10
102.379953839634
20
-3.58314218021169
30
0
41
1
10
102.120382076177
20
-3.64915558340238
30
0
41
1
10
101.601644157891
20
-3.77086900385066
30
0
41
1
10
101.342436209331
20
-3.82654041901077
30
0
41
1
10
100.95378650763
20
-3.90225229221139
30
0
41
1
10
100.824268686733
20
-3.92619235722361
30
0
41
1
10
100.565228124314
20
-3.97141804272735
30
0
41
1
10
100.435753932736
20
-3.99273970515864
30
0
41
1
10
100.047305147857
20
-4.05267966617404
30
0
41
1
10
99.7881853838335
20
-4.08719254330339
30
0
41
1
10
99.2691068457963
20
-4.14501728875882
30
0
41
1
10
99.0091662170348
20
-4.16834600272313
30
0
41
1
10
98.48821524046
20
-4.2036594248145
30
0
41
1
10
98.2272163517093
20
-4.21564195660915
30
0
41
1
10
97.834586562039
20
-4.22490950317066
30
0
41
1
10
97.7035136225592
20
-4.22654688592039
30
0
41
1
10
97.5065533774977
20
-4.22680961855502
30
0
41
1
10
97.4408410459423
20
-4.22653126595398
30
0
41
1
10
97.3095875479656
20
-4.22524615067971
30
0
41
1
10
97.2440103398274
20
-4.22423957742467
30
0
41
1
10
97.0474232747058
20
-4.22013376626268
30
0
41
1
10
96.9165630993841
20
-4.21594830538308
30
0
41
1
10
96.6552166908198
20
-4.20470163094498
30
0
41
1
10
96.5247015937758
20
-4.19764760571425
30
0
41
1
10
96.2640847908062
20
-4.18066118992928
30
0
41
1
10
96.1339716250035
20
-4.17072736846134
30
0
41
1
10
95.8739369923359
20
-4.14805248796443
30
0
41
1
10
95.7440303910351
20
-4.13530781738069
30
0
41
1
10
95.3545294277654
20
-4.09293154747806
30
0
41
1
10
95.0951548133422
20
-4.0591617129931
30
0
41
1
10
94.5767084686765
20
-3.98086377225167
30
0
41
1
10
94.317650543233
20
-3.93632436060867
30
0
41
1
10
93.7995060086617
20
-3.836744714654
30
0
41
1
10
93.540388901297
20
-3.78172445673727
30
0
41
1
10
93.021537940045
20
-3.66172591911058
30
0
41
1
10
92.7618687429693
20
-3.59669197037522
30
0
41
1
10
92.3718153796712
20
-3.49171551070896
30
0
41
1
10
92.2417302847491
20
-3.45545651355297
30
0
41
1
10
91.9813824541972
20
-3.38042020082423
30
0
41
1
10
91.8510792909226
20
-3.34169315552822
30
0
41
1
10
91.4596520875785
20
-3.22203366179218
30
0
41
1
10
91.1979968983962
20
-3.13764424217405
30
0
41
1
10
90.8698264283252
20
-3.02663664757446
30
0
41
1
10
90.8041021895834
20
-3.00414576482703
30
0
41
1
10
90.6727381307833
20
-2.95868245103657
30
0
41
1
10
90.4758478942164
20
-2.88977708204305
30
0
41
1
10
90.2794089268201
20
-2.81877357199949
30
0
41
1
10
89.8870573157665
20
-2.67410847869644
30
0
41
1
10
89.6262112719767
20
-2.57408423911051
30
0
41
1
10
89.105315263315
20
-2.36806176320494
30
0
41
1
10
88.8452732402772
20
-2.2620569524143
30
0
41
1
10
88.4557653708471
20
-2.09868800239315
30
0
41
1
10
88.3259937068461
20
-2.04355607025423
30
0
41
1
10
88.0666497419791
20
-1.93180886892415
30
0
41
1
10
87.93709204078
20
-1.87516455365289
30
0
41
1
10
87.5484219942675
20
-1.70355463576325
30
0
41
1
10
87.289356413645
20
-1.58683237719183
30
0
41
1
10
86.7708651628132
20
-1.34966690662196
30
0
41
1
10
86.5114588855141
20
-1.22918784419167
30
0
41
1
10
85.9920678807432
20
-0.984944267640145
30
0
41
1
10
85.7320930348491
20
-0.861156141233977
30
0
41
1
10
85.2110550907389
20
-0.611315831438731
30
0
41
1
10
84.9499327856577
20
-0.485394135333337
30
0
41
1
10
84.5572167370868
20
-0.295253640689822
30
0
41
1
10
84.4261544688213
20
-0.231629412982585
30
0
41
1
10
84.2292611754245
20
-0.135960925852885
30
0
41
1
10
84.1635808913805
20
-0.10403110791475
30
0
41
1
10
84.0321412358571
20
-0.0400448532571716
30
0
41
1
10
83.9664271308123
20
-0.0080013355324127
30
0
41
1
10
83.638286906929
20
0.152072013803007
30
0
41
1
10
83.3766115337658
20
0.279685894692079
30
0
41
1
10
82.8543041579118
20
0.532716864751364
30
0
41
1
10
82.5936958959149
20
0.65819042632657
30
0
41
1
10
82.0732983187406
20
0.906539547764453
30
0
41
1
10
81.8135227329678
20
1.02944215557363
30
0
41
1
10
81.2943970985002
20
1.27186039448131
30
0
41
1
10
81.0349867496816
20
1.39125355640505
30
0
41
1
10
80.5161033164837
20
1.62570730733245
30
0
41
1
10
80.2566708898445
20
1.74085059972123
30
0
41
1
10
79.867426366981
20
1.91020621598432
30
0
41
1
10
79.7377076369833
20
1.96618274376033
30
0
41
1
10
79.4780968559293
20
2.0767393878763
30
0
41
1
10
79.3482156183606
20
2.1313406026355
30
0
41
1
10
78.6982472717698
20
2.40062036020595
30
0
41
1
10
78.1764437108858
20
2.60408249071045
30
0
41
1
10
77.5860161845698
20
2.8169682600593
30
0
41
1
10
77.5203650226478
20
2.84039810703453
30
0
41
1
10
77.3889560948044
20
2.88679095060741
30
0
41
1
10
77.3231625686071
20
2.90976616104888
30
0
41
1
10
77.1259059744086
20
2.97785831291986
30
0
41
1
10
76.994593680677
20
3.02212302621555
30
0
41
1
10
76.6011653829892
20
3.15147573908018
30
0
41
1
10
76.3395867811808
20
3.23317173880287
30
0
41
1
10
75.9481245816064
20
3.34879711506619
30
0
41
1
10
75.8177906371699
20
3.38618909886108
30
0
41
1
10
75.5574671228848
20
3.45871542405786
30
0
41
1
10
75.4274297991388
20
3.49378787649812
30
0
41
1
10
75.0375204391664
20
3.59524845050518
30
0
41
1
10
74.7778521703158
20
3.65788528432105
30
0
41
1
10
74.2586898256446
20
3.77288885747683
30
0
41
1
10
73.9992146775259
20
3.82527643783726
30
0
41
1
10
73.4801938234251
20
3.91959618035938
30
0
41
1
10
73.2206618879921
20
3.96152935868406
30
0
41
1
10
72.7009293400154
20
4.0344901160131
30
0
41
1
10
72.4407135863391
20
4.0655253187897
30
0
41
1
10
72.0498287821312
20
4.10384126652099
30
0
41
1
10
71.91942415548
20
4.11523159154979
30
0
41
1
10
71.6583982740542
20
4.13522666987606
30
0
41
1
10
71.5278230250678
20
4.14384428206813
30
0
41
1
10
71.1355779876164
20
4.16539981057446
30
0
41
1
10
70.873393547992
20
4.17404858277263
30
0
41
1
10
70.5444936515178
20
4.17758154448171
30
0
41
1
10
70.4786725466768
20
4.17792394268548
30
0
41
1
10
70.4039946052205
20
4.17789987024614
30
0
41
1
10
70.3950552232089
20
4.17789027153921
30
0
41
1
10
70.3861167380096
20
4.17787396132721
30
0
0
SPLINE
5
F6
100
AcDbEntity
8
1
62
256
6
ByLayer
370
18
48
1
60
0
100
AcDbSpline
70
4
71
3
72
126
73
122
40
0
40
0
40
0
40
0
40
0.0021601215492611
40
0.0021601215492611
40
0.0256398119552092
40
0.0256398119552092
40
0.0491195023611572
40
0.0491195023611572
40
0.0725991927671053
40
0.0725991927671053
40
0.0843390379700792
40
0.0843390379700792
40
0.0960788831730527
40
0.0960788831730527
40
0.143038263984949
40
0.143038263984949
40
0.166517954390897
40
0.166517954390897
40
0.178257799593872
40
0.178257799593872
40
0.184127722195358
40
0.184127722195358
40
0.189997644796845
40
0.189997644796845
40
0.20173748999982
40
0.20173748999982
40
0.213477335202795
40
0.213477335202795
40
0.236957025608745
40
0.236957025608745
40
0.260436716014696
40
0.260436716014696
40
0.283916406420646
40
0.283916406420646
40
0.307396096826596
40
0.307396096826596
40
0.319135942029571
40
0.319135942029571
40
0.330875787232545
40
0.330875787232545
40
0.354355477638495
40
0.354355477638495
40
0.377835168044444
40
0.377835168044444
40
0.389575013247418
40
0.389575013247418
40
0.395444935848905
40
0.395444935848905
40
0.401314858450392
40
0.401314858450392
40
0.424794548856337
40
0.424794548856337
40
0.43653439405931
40
0.43653439405931
40
0.448274239262283
40
0.448274239262283
40
0.460014084465256
40
0.460014084465256
40
0.471753929668229
40
0.471753929668229
40
0.495233620074175
40
0.495233620074175
40
0.51871331048012
40
0.51871331048012
40
0.542193000886065
40
0.542193000886065
40
0.56567269129201
40
0.56567269129201
40
0.577412536494983
40
0.577412536494983
40
0.589152381697955
40
0.589152381697955
40
0.595022304299441
40
0.595022304299441
40
0.600892226900927
40
0.600892226900927
40
0.612632072103897
40
0.612632072103897
40
0.636111762509837
40
0.636111762509837
40
0.659591452915777
40
0.659591452915777
40
0.683071143321717
40
0.683071143321717
40
0.694810988524688
40
0.694810988524688
40
0.706550833727659
40
0.706550833727659
40
0.7300305241336
40
0.7300305241336
40
0.753510214539541
40
0.753510214539541
40
0.776989904945482
40
0.776989904945482
40
0.800469595351423
40
0.800469595351423
40
0.80633951795291
40
0.80633951795291
40
0.812209440554396
40
0.812209440554396
40
0.823949285757368
40
0.823949285757368
40
0.847428976163312
40
0.847428976163312
40
0.870908666569256
40
0.870908666569256
40
0.8943883569752
40
0.8943883569752
40
0.917868047381144
40
0.917868047381144
40
0.929607892584116
40
0.929607892584116
40
0.941347737787087
40
0.941347737787087
40
0.953087582990059
40
0.953087582990059
40
0.964827428193031
40
0.964827428193031
40
0.988307118598975
40
0.988307118598975
40
1
40
1
40
1
40
1
41
1
10
49.5366467502361
20
-3.09264492900786
30
0
41
1
10
49.5125001372271
20
-3.10030628806032
30
0
41
1
10
49.4883592695077
20
-3.10792918007419
30
0
41
1
10
49.2018834990462
20
-3.19795265873148
30
0
41
1
10
48.9402222290823
20
-3.27585556241795
30
0
41
1
10
48.4178652193486
20
-3.42218466908361
30
0
41
1
10
48.1571169100142
20
-3.49054141059511
30
0
41
1
10
47.6360406540608
20
-3.61727030506842
30
0
41
1
10
47.375773030382
20
-3.67571640321344
30
0
41
1
10
46.9856300326225
20
-3.75586247790633
30
0
41
1
10
46.8556785302421
20
-3.78136998518048
30
0
41
1
10
46.5957750964907
20
-3.82977964267661
30
0
41
1
10
46.465815499277
20
-3.8526771561273
30
0
41
1
10
45.8157995840529
20
-3.96049741428686
30
0
41
1
10
45.2950023973451
20
-4.02539788623997
30
0
41
1
10
44.5109729903591
20
-4.08956100409259
30
0
41
1
10
44.2491466945861
20
-4.10539456412371
30
0
41
1
10
43.8552094473145
20
-4.12060558524027
30
0
41
1
10
43.7237063481116
20
-4.12425715709642
30
0
41
1
10
43.5261551366977
20
-4.12759091928075
30
0
41
1
10
43.4602557084247
20
-4.12834488533107
30
0
41
1
10
43.3283617068761
20
-4.12913421233333
30
0
41
1
10
43.2623829097033
20
-4.12916885648494
30
0
41
1
10
43.0647064588759
20
-4.12819323189799
30
0
41
1
10
42.9331244361711
20
-4.1261075404706
30
0
41
1
10
42.6704692613155
20
-4.11906192523008
30
0
41
1
10
42.5393536271771
20
-4.11410257271265
30
0
41
1
10
42.1464062403181
20
-4.09498325398667
30
0
41
1
10
41.8849962488227
20
-4.07658386359819
30
0
41
1
10
41.3628860799907
20
-4.02881381084816
30
0
41
1
10
41.1022064941619
20
-3.99943854732749
30
0
41
1
10
40.5813363791426
20
-3.92993556998641
30
0
41
1
10
40.3211595303437
20
-3.88978912171268
30
0
41
1
10
39.8007135875729
20
-3.79918259540551
30
0
41
1
10
39.5404109668727
20
-3.74876567346925
30
0
41
1
10
39.149812222941
20
-3.66550229349824
30
0
41
1
10
39.0195830734803
20
-3.63647777521678
30
0
41
1
10
38.7590301644449
20
-3.5759108165409
30
0
41
1
10
38.6287627410971
20
-3.54430720425091
30
0
41
1
10
38.2377109121932
20
-3.44579194143771
30
0
41
1
10
37.976622379328
20
-3.37524173213294
30
0
41
1
10
37.4531637654007
20
-3.22497817365633
30
0
41
1
10
37.1908138862637
20
-3.14524679839778
30
0
41
1
10
36.7961773582558
20
-3.01891391048369
30
0
41
1
10
36.6644456458906
20
-2.97568061498356
30
0
41
1
10
36.4665312292249
20
-2.90918638767323
30
0
41
1
10
36.4005426691408
20
-2.88675858998732
30
0
41
1
10
36.268726460782
20
-2.84146139257379
30
0
41
1
10
36.2028687784782
20
-2.81858233279013
30
0
41
1
10
35.8738041483268
20
-2.70308624385245
30
0
41
1
10
35.6112212616653
20
-2.60724914532781
30
0
41
1
10
35.2181745111509
20
-2.45870957282429
30
0
41
1
10
35.0873129470664
20
-2.40837001622126
30
0
41
1
10
34.8258481313402
20
-2.30613094541556
30
0
41
1
10
34.6952307251934
20
-2.25425809150371
30
0
41
1
10
34.4343340210781
20
-2.14880448615315
30
0
41
1
10
34.3040100657837
20
-2.09530470620734
30
0
41
1
10
34.0434532516038
20
-1.98705719593187
30
0
41
1
10
33.913231536054
20
-1.9322889654992
30
0
41
1
10
33.522629046515
20
-1.76626593128159
30
0
41
1
10
33.2623190073172
20
-1.65327924555717
30
0
41
1
10
32.7416375900353
20
-1.42320706026172
30
0
41
1
10
32.4812823622079
20
-1.3060876304838
30
0
41
1
10
31.9601663818398
20
-1.06843685683737
30
0
41
1
10
31.6993534439948
20
-0.948012856326386
30
0
41
1
10
31.1767742515364
20
-0.704901726182186
30
0
41
1
10
30.9150718953965
20
-0.582080518836221
30
0
41
1
10
30.5217458010797
20
-0.396236388559828
30
0
41
1
10
30.3905607804238
20
-0.333901377822855
30
0
41
1
10
30.1278475769422
20
-0.208867812940525
30
0
41
1
10
29.9963099477449
20
-0.146191448509995
30
0
41
1
10
29.7986772384098
20
-0.0520575531543273
30
0
41
1
10
29.7327448181426
20
-0.0206608298624644
30
0
41
1
10
29.6007627918084
20
0.0421534797562515
30
0
41
1
10
29.5347507405692
20
0.0735541709910592
30
0
41
1
10
29.3369432033199
20
0.16758091706393
30
0
41
1
10
29.2052587976846
20
0.230086680567382
30
0
41
1
10
28.8107166558331
20
0.416971430767944
30
0
41
1
10
28.5483827799655
20
0.540747313179708
30
0
41
1
10
28.0247774190367
20
0.786006906391123
30
0
41
1
10
27.7635013948159
20
0.90747647172833
30
0
41
1
10
27.241375546206
20
1.14680712042869
30
0
41
1
10
26.9805720330356
20
1.2647733580533
30
0
41
1
10
26.5896814669275
20
1.43903329724921
30
0
41
1
10
26.459415465538
20
1.49662776285223
30
0
41
1
10
26.1990553252153
20
1.6110474307751
30
0
41
1
10
26.0689152423672
20
1.66777881420248
30
0
41
1
10
25.6783772979278
20
1.83606433497602
30
0
41
1
10
25.4178850032943
20
1.94575812237466
30
0
41
1
10
24.8962513049746
20
2.15943425801325
30
0
41
1
10
24.6351314563038
20
2.26345901052247
30
0
41
1
10
24.1120318368555
20
2.46538397173617
30
0
41
1
10
23.8500649264779
20
2.56330247916833
30
0
41
1
10
23.324679194776
20
2.75191616991808
30
0
41
1
10
23.0612293640247
20
2.8425663045208
30
0
41
1
10
22.73094675917
20
2.95122485244531
30
0
41
1
10
22.6648660315552
20
2.9727168623505
30
0
41
1
10
22.532873537158
20
3.01512355709463
30
0
41
1
10
22.4669265916245
20
3.03604528843746
30
0
41
1
10
22.2692600404194
20
3.09800993091864
30
0
41
1
10
22.137750492121
20
3.13830383175349
30
0
41
1
10
21.7437143405455
20
3.25567324821836
30
0
41
1
10
21.4816570766964
20
3.32921013516992
30
0
41
1
10
20.958302689189
20
3.46640694877419
30
0
41
1
10
20.6970257043734
20
3.53010049777959
30
0
41
1
10
20.1750453779147
20
3.64754480869138
30
0
41
1
10
19.914352634707
20
3.70129832979796
30
0
41
1
10
19.3930729649957
20
3.79845074248635
30
0
41
1
10
19.132413338257
20
3.8417958612371
30
0
41
1
10
18.7412520268997
20
3.89890277176073
30
0
41
1
10
18.6108529760397
20
3.91662997813938
30
0
41
1
10
18.3499776145868
20
3.94942194507479
30
0
41
1
10
18.2194901602725
20
3.96448261866521
30
0
41
1
10
17.9585214878799
20
3.99196157287827
30
0
41
1
10
17.8279922169418
20
4.0043519096549
30
0
41
1
10
17.5666891526443
20
4.02635250512404
30
0
41
1
10
17.4359260489863
20
4.03596837335007
30
0
41
1
10
17.0431963541221
20
4.06062065472372
30
0
41
1
10
16.7807986537028
20
4.07146993573554
30
0
41
1
10
16.3866787623818
20
4.0792510965027
30
0
41
1
10
16.2554852302179
20
4.08043480226948
30
0
41
1
10
16.1240986279489
20
4.08020232616624
30
0
0
SPLINE
5
F7
100
AcDbEntity
8
1
62
256
6
ByLayer
370
18
48
1
60
0
100
AcDbSpline
70
4
71
3
72
106
73
102
40
0
40
0
40
0
40
0
40
0.0220312241383816
40
0.0220312241383816
40
0.0356307455953275
40
0.0356307455953275
40
0.0492302670522734
40
0.0492302670522734
40
0.0560300277807469
40
0.0560300277807469
40
0.0628297885092203
40
0.0764293099661662
40
0.0764293099661662
40
0.103628352880059
40
0.103628352880059
40
0.130827395793952
40
0.130827395793952
40
0.158026438707844
40
0.158026438707844
40
0.171625960164791
40
0.171625960164791
40
0.185225481621737
40
0.185225481621737
40
0.212424524535631
40
0.212424524535631
40
0.239623567449525
40
0.239623567449525
40
0.253223088906471
40
0.253223088906471
40
0.260022849634944
40
0.260022849634944
40
0.266822610363417
40
0.266822610363417
40
0.280422131820362
40
0.280422131820362
40
0.294021653277307
40
0.294021653277307
40
0.321220696191198
40
0.321220696191198
40
0.348419739105089
40
0.348419739105089
40
0.37561878201898
40
0.37561878201898
40
0.402817824932871
40
0.402817824932871
40
0.416417346389815
40
0.416417346389815
40
0.430016867846761
40
0.430016867846761
40
0.457215910760651
40
0.457215910760651
40
0.464015671489124
40
0.464015671489124
40
0.470815432217596
40
0.484414953674543
40
0.484414953674543
40
0.511613996588437
40
0.511613996588437
40
0.525213518045383
40
0.525213518045383
40
0.538813039502329
40
0.538813039502329
40
0.566012082416221
40
0.566012082416221
40
0.593211125330113
40
0.593211125330113
40
0.620410168244004
40
0.620410168244004
40
0.647609211157896
40
0.647609211157896
40
0.661208732614842
40
0.661208732614842
40
0.668008493343315
40
0.668008493343315
40
0.674808254071789
40
0.674808254071789
40
0.702007296985681
40
0.702007296985681
40
0.729206339899572
40
0.729206339899572
40
0.756405382813464
40
0.756405382813464
40
0.783604425727356
40
0.783604425727356
40
0.810803468641247
40
0.810803468641247
40
0.838002511555139
40
0.838002511555139
40
0.86520155446903
40
0.86520155446903
40
0.872001315197503
40
0.872001315197503
40
0.878801075925976
40
0.878801075925976
40
0.892400597382923
40
0.892400597382923
40
0.919599640296817
40
0.919599640296817
40
0.973997726124604
40
0.973997726124604
40
1
40
1
40
1
40
1
41
1
10
22.3786916420183
20
3.05591506360082
30
0
41
1
10
22.6247023252611
20
3.13362140380235
30
0
41
1
10
22.8710323307079
20
3.20774723015799
30
0
41
1
10
23.2701895757922
20
3.32142403944317
30
0
41
1
10
23.4227230400693
20
3.36334864959812
30
0
41
1
10
23.7281896714958
20
3.4442013279253
30
0
41
1
10
23.8811399892441
20
3.48310602020843
30
0
41
1
10
24.1110111838756
20
3.53901955778491
30
0
41
1
10
24.1876493188372
20
3.55724173785359
30
0
41
1
10
24.3407141961604
20
3.59280494263135
30
0
41
1
10
24.5701033103555
20
3.6448511963917
30
0
41
1
10
24.7989132658675
20
3.69297296762852
30
0
41
1
10
25.2558707401943
20
3.78392167505916
30
0
41
1
10
25.5596214667045
20
3.83749508664815
30
0
41
1
10
26.1659949998486
20
3.93017402183386
30
0
41
1
10
26.4686553827841
20
3.96925807519938
30
0
41
1
10
27.0734415076383
20
4.03273514130737
30
0
41
1
10
27.3755877194196
20
4.05712121148278
30
0
41
1
10
27.8287672776059
20
4.08253872358063
30
0
41
1
10
27.979823412752
20
4.08914727364385
30
0
41
1
10
28.2821024777165
20
4.09860494686012
30
0
41
1
10
28.4333075317591
20
4.10145941591799
30
0
41
1
10
28.8871450062227
20
4.10438431629137
30
0
41
1
10
29.1900276784098
20
4.09881054342401
30
0
41
1
10
29.7970295082169
20
4.07248482258092
30
0
41
1
10
30.1011478475137
20
4.05172743165983
30
0
41
1
10
30.5587952675952
20
4.00919024172762
30
0
41
1
10
30.7115893043027
20
3.99311302311492
30
0
41
1
10
30.9411863040321
20
3.96613856552744
30
0
41
1
10
31.0178243020157
20
3.95666531709563
30
0
41
1
10
31.1708888473873
20
3.93681414697522
30
0
41
1
10
31.2473498080446
20
3.92643267891978
30
0
41
1
10
31.4765361373793
20
3.89393835283951
30
0
41
1
10
31.6290715603114
20
3.87048126810711
30
0
41
1
10
31.9336436264473
20
3.8200109972743
30
0
41
1
10
32.0856876671504
20
3.79300097215466
30
0
41
1
10
32.5413643671009
20
3.70691734293479
30
0
41
1
10
32.844463605967
20
3.64273184727324
30
0
41
1
10
33.4497078072835
20
3.50131574348404
30
0
41
1
10
33.7518696758427
20
3.42409654285876
30
0
41
1
10
34.3559068758665
20
3.25741725116893
30
0
41
1
10
34.6578084376498
20
3.16799199394575
30
0
41
1
10
35.2619526401089
20
2.9777460624783
30
0
41
1
10
35.5641915860347
20
2.87692231606755
30
0
41
1
10
36.0181788070679
20
2.71763319772242
30
0
41
1
10
36.1695997023899
20
2.66317150056381
30
0
41
1
10
36.4728021332189
20
2.55179530599813
30
0
41
1
10
36.6245893302221
20
2.49489341838068
30
0
41
1
10
37.0804958977124
20
2.32049866381897
30
0
41
1
10
37.3851905890976
20
2.1993658729927
30
0
41
1
10
37.7673813221625
20
2.04241466253032
30
0
41
1
10
37.8439171219441
20
2.01073567970985
30
0
41
1
10
37.9969931802974
20
1.94690219063767
30
0
41
1
10
38.2263891438893
20
1.85053417671873
30
0
41
1
10
38.4551697292617
20
1.75239491008435
30
0
41
1
10
38.912067135622
20
1.55408366616663
30
0
41
1
10
39.2157703121868
20
1.41914565846071
30
0
41
1
10
39.6703660083222
20
1.21345800929058
30
0
41
1
10
39.8217510199374
20
1.1443757981942
30
0
41
1
10
40.1242568165097
20
1.00523565999919
30
0
41
1
10
40.2753665239914
20
0.935154130669133
30
0
41
1
10
40.7285265684689
20
0.723926404256616
30
0
41
1
10
41.0304126702259
20
0.581809148428846
30
0
41
1
10
41.6340639434309
20
0.295665242290625
30
0
41
1
10
41.935855048296
20
0.151692818875489
30
0
41
1
10
42.5400006299432
20
-0.136700067880184
30
0
41
1
10
42.8423655513685
20
-0.281097971284083
30
0
41
1
10
43.4483276688891
20
-0.568899853424455
30
0
41
1
10
43.7518924402661
20
-0.712374638223508
30
0
41
1
10
44.208570160588
20
-0.925966757429421
30
0
41
1
10
44.3609940830116
20
-0.996946937844541
30
0
41
1
10
44.5900458245335
20
-1.10283099009516
30
0
41
1
10
44.6664679761985
20
-1.13802287923704
30
0
41
1
10
44.8194684140607
20
-1.2081724086016
30
0
41
1
10
44.8959785420933
20
-1.24310518000576
30
0
41
1
10
45.2780049381575
20
-1.41681862202671
30
0
41
1
10
45.5825150117973
20
-1.55296602433495
30
0
41
1
10
46.1899104434539
20
-1.818520047031
30
0
41
1
10
46.4927952684359
20
-1.94792526667575
30
0
41
1
10
47.0976269268488
20
-2.19875832776887
30
0
41
1
10
47.3995963802446
20
-2.32014866739206
30
0
41
1
10
48.0031186836528
20
-2.55407379778146
30
0
41
1
10
48.304690838032
20
-2.66657355310971
30
0
41
1
10
48.9079948260873
20
-2.88172745556182
30
0
41
1
10
49.2098673178263
20
-2.9841626957959
30
0
41
1
10
49.8143732377088
20
-3.17822596048637
30
0
41
1
10
50.1170288860085
20
-3.26981458441148
30
0
41
1
10
50.7237743572432
20
-3.44110404462677
30
0
41
1
10
51.0278667933099
20
-3.52079951937128
30
0
41
1
10
51.4093257888426
20
-3.61232839719366
30
0
41
1
10
51.4856828904944
20
-3.63023201222691
30
0
41
1
10
51.6385353128768
20
-3.66522259707125
30
0
41
1
10
51.7150437192279
20
-3.68231185356905
30
0
41
1
10
51.9442133965218
20
-3.73220926569101
30
0
41
1
10
52.0967103715343
20
-3.76368959574214
30
0
41
1
10
52.5534798796098
20
-3.85271258512398
30
0
41
1
10
52.8569418288546
20
-3.90490141257141
30
0
41
1
10
53.7656939242879
20
-4.03917430470756
30
0
41
1
10
54.3688553788634
20
-4.09932890721541
30
0
41
1
10
55.2600202474361
20
-4.14368651069768
30
0
41
1
10
55.5482202809937
20
-4.15115041541571
30
0
41
1
10
55.836636978185
20
-4.15168898638808
30
0
0
SPLINE
5
F8
100
AcDbEntity
8
1
62
256
6
ByLayer
370
18
48
1
60
0
100
AcDbSpline
70
4
71
3
72
70
73
66
40
0
40
0
40
0
40
0
40
0.0299182100975829
40
0.0299182100975829
40
0.0740128369113292
40
0.0740128369113292
40
0.0850364936147656
40
0.0850364936147656
40
0.0960601503182018
40
0.0960601503182018
40
0.118107463725073
40
0.118107463725073
40
0.162202090538817
40
0.162202090538817
40
0.184249403945689
40
0.184249403945689
40
0.195273060649127
40
0.195273060649127
40
0.206296717352564
40
0.206296717352564
40
0.250391344166317
40
0.250391344166317
40
0.29448597098007
40
0.29448597098007
40
0.338580597793823
40
0.338580597793823
40
0.382675224607577
40
0.382675224607577
40
0.42676985142133
40
0.42676985142133
40
0.437793508124769
40
0.437793508124769
40
0.448817164828207
40
0.470864478235081
40
0.470864478235081
40
0.51495910504883
40
0.51495910504883
40
0.559053731862578
40
0.559053731862578
40
0.603148358676327
40
0.603148358676327
40
0.647242985490076
40
0.647242985490076
40
0.658266642193512
40
0.658266642193512
40
0.669290298896949
40
0.669290298896949
40
0.691337612303822
40
0.691337612303822
40
0.735432239117568
40
0.735432239117568
40
0.779526865931315
40
0.779526865931315
40
0.790550522634749
40
0.790550522634749
40
0.801574179338184
40
0.823621492745052
40
0.823621492745052
40
0.867716119558789
40
0.867716119558789
40
0.911810746372526
40
0.911810746372526
40
0.955905373186263
40
0.955905373186263
40
1
40
1
40
1
40
1
41
1
10
81.4642753715783
20
4.11568176103441
30
0
41
1
10
81.7543748570591
20
4.1438532002056
30
0
41
1
10
82.0441963339284
20
4.16509132771247
30
0
41
1
10
82.7611964656558
20
4.2002869615178
30
0
41
1
10
83.1883987452173
20
4.20603510524208
30
0
41
1
10
83.7234695963095
20
4.19400758786821
30
0
41
1
10
83.8305374290067
20
4.19064144493382
30
0
41
1
10
84.0448079802721
20
4.1819837048339
30
0
41
1
10
84.1519190203405
20
4.17669535485646
30
0
41
1
10
84.4729949556546
20
4.15797879141755
30
0
41
1
10
84.6867979004408
20
4.14169476930724
30
0
41
1
10
85.3278099107247
20
4.08158466992239
30
0
41
1
10
85.7546237235937
20
4.02649261945496
30
0
41
1
10
86.395450681046
20
3.92212196491116
30
0
41
1
10
86.6091580390064
20
3.88371064392922
30
0
41
1
10
86.9300177309899
20
3.82075463879011
30
0
41
1
10
87.0370208697202
20
3.79887954265584
30
0
41
1
10
87.2511536489429
20
3.75336654797869
30
0
41
1
10
87.358318772434
20
3.72971942591997
30
0
41
1
10
87.8931339342752
20
3.60745162900753
30
0
41
1
10
88.318795258578
20
3.49651587313917
30
0
41
1
10
89.1675260300377
20
3.25097552810803
30
0
41
1
10
89.5905993066323
20
3.11637596941611
30
0
41
1
10
90.4359208527471
20
2.82620519581272
30
0
41
1
10
90.8581736113008
20
2.6706468298226
30
0
41
1
10
91.7034282904791
20
2.34106329564261
30
0
41
1
10
92.1264267722328
20
2.16702627840388
30
0
41
1
10
92.9749268133207
20
1.80334546378097
30
0
41
1
10
93.4004346077081
20
1.61371108440716
30
0
41
1
10
93.9350527330663
20
1.36895584575143
30
0
41
1
10
94.042189134814
20
1.31958240924331
30
0
41
1
10
94.2560552508442
20
1.22043490189535
30
0
41
1
10
94.5764418615861
20
1.07102374061694
30
0
41
1
10
94.8957069123714
20
0.919788299042295
30
0
41
1
10
95.5330536474007
20
0.615544457677203
30
0
41
1
10
95.9563676112218
20
0.410338884871692
30
0
41
1
10
96.8015747423221
20
-0.0011377174814413
30
0
41
1
10
97.2234725857208
20
-0.207398657193238
30
0
41
1
10
98.0676514126622
20
-0.617193815449752
30
0
41
1
10
98.4899274263807
20
-0.820739157333549
30
0
41
1
10
99.3364363008769
20
-1.22180430236247
30
0
41
1
10
99.7606723340527
20
-1.41931699018653
30
0
41
1
10
100.293305630643
20
-1.66010966642403
30
0
41
1
10
100.399949524029
20
-1.70796266168571
30
0
41
1
10
100.613500581354
20
-1.80299752408868
30
0
41
1
10
100.720463140914
20
-1.85020355472707
30
0
41
1
10
101.041399091214
20
-1.9905541463063
30
0
41
1
10
101.255073051128
20
-2.08227991515889
30
0
41
1
10
101.895586712909
20
-2.35135382909667
30
0
41
1
10
102.321905854788
20
-2.52262028632586
30
0
41
1
10
103.174864810047
20
-2.84607839004968
30
0
41
1
10
103.601508203519
20
-2.99825981898133
30
0
41
1
10
104.136179463987
20
-3.17467572982153
30
0
41
1
10
104.243136076274
20
-3.20925204283426
30
0
41
1
10
104.456653431095
20
-3.27680609322098
30
0
41
1
10
104.776533604281
20
-3.37580556917459
30
0
41
1
10
105.095358507592
20
-3.46768526807651
30
0
41
1
10
105.731939819474
20
-3.64165525041477
30
0
41
1
10
106.154909243177
20
-3.7445782517263
30
0
41
1
10
106.999592081357
20
-3.92304006753412
30
0
41
1
10
107.421304756741
20
-3.99857103516888
30
0
41
1
10
108.265211184491
20
-4.12090432550718
30
0
41
1
10
108.687409839968
20
-4.16770142435414
30
0
41
1
10
109.534092364911
20
-4.2314136636607
30
0
41
1
10
109.958587805748
20
-4.24833480805955
30
0
41
1
10
110.385055353353
20
-4.24984522110094
30
0
0
SPLINE
5
F9
100
AcDbEntity
8
1
62
256
6
ByLayer
370
18
48
1
60
0
100
AcDbSpline
70
4
71
3
72
10
73
6
40
0
40
0
40
0
40
0
40
0.5
40
0.5
40
1
40
1
40
1
40
1
41
1
10
110.358062405605
20
-4.22279566424697
30
0
41
1
10
110.362556182287
20
-4.2315253894028
30
0
41
1
10
110.367065182626
20
-4.23816246975605
30
0
41
1
10
110.376066486299
20
-4.24717468064679
30
0
41
1
10
110.380562696018
20
-4.24956257695351
30
0
41
1
10
110.385055353353
20
-4.24984522110094
30
0
0
SPLINE
5
FA
100
AcDbEntity
8
1
62
256
6
ByLayer
370
18
48
1
60
0
100
AcDbSpline
70
4
71
3
72
80
73
76
40
0
40
0
40
0
40
0
40
0.0486428636540371
40
0.0486428636540371
40
0.0729642954810569
40
0.0729642954810569
40
0.0972857273080767
40
0.0972857273080767
40
0.145928590962116
40
0.145928590962116
40
0.170250022789136
40
0.182410738702645
40
0.182410738702645
40
0.194571454616153
40
0.194571454616153
40
0.243214318270196
40
0.243214318270196
40
0.291857181924238
40
0.291857181924238
40
0.30401789783775
40
0.30401789783775
40
0.316178613751263
40
0.316178613751263
40
0.340500045578288
40
0.340500045578288
40
0.389142909232337
40
0.413464341059361
40
0.425625056972874
40
0.425625056972874
40
0.437785772886387
40
0.437785772886387
40
0.486428636540445
40
0.486428636540445
40
0.535071500194502
40
0.535071500194502
40
0.559392932021531
40
0.559392932021531
40
0.571553647935044
40
0.571553647935044
40
0.583714363848557
40
0.583714363848557
40
0.608035795675586
40
0.608035795675586
40
0.632357227502614
40
0.632357227502614
40
0.656678659329643
40
0.656678659329643
40
0.681000091156672
40
0.681000091156672
40
0.693160807070186
40
0.693160807070186
40
0.705321522983701
40
0.729642954810732
40
0.729642954810732
40
0.753964386637763
40
0.753964386637763
40
0.778285818464795
40
0.778285818464795
40
0.802607250291826
40
0.802607250291826
40
0.814767966205343
40
0.814767966205343
40
0.82692868211886
40
0.82692868211886
40
0.875571545772927
40
0.875571545772927
40
0.924214409426995
40
0.924214409426995
40
0.936375125340513
40
0.936375125340513
40
0.94853584125403
40
0.94853584125403
40
0.972857273081068
40
0.972857273081068
40
1
40
1
40
1
40
1
41
1
10
110.358062405617
20
-4.22279566424689
30
0
41
1
10
109.932975523936
20
-4.19850202124007
30
0
41
1
10
109.508144160409
20
-4.15894138318691
30
0
41
1
10
108.869992972218
20
-4.07729158821468
30
0
41
1
10
108.657021047146
20
-4.04633595160385
30
0
41
1
10
108.231785929358
20
-3.97728556311893
30
0
41
1
10
108.019394243439
20
-3.93917771409585
30
0
41
1
10
107.382600253834
20
-3.81437240851841
30
0
41
1
10
106.958539113992
20
-3.71721376634483
30
0
41
1
10
106.321728238523
20
-3.55193431501465
30
0
41
1
10
106.00315545972
20
-3.46439978944022
30
0
41
1
10
105.684094126597
20
-3.36976549774499
30
0
41
1
10
105.471250386897
20
-3.30512705232783
30
0
41
1
10
105.364779114881
20
-3.27203816238341
30
0
41
1
10
104.83295996592
20
-3.10310621353722
30
0
41
1
10
104.408469217845
20
-2.9565935292257
30
0
41
1
10
103.559580015798
20
-2.64367357983849
30
0
41
1
10
103.135202494298
20
-2.47723770391204
30
0
41
1
10
102.603740158708
20
-2.25843463378132
30
0
41
1
10
102.497397956
20
-2.21413660121758
30
0
41
1
10
102.284584536371
20
-2.12451402109423
30
0
41
1
10
102.178068858346
20
-2.07917015660433
30
0
41
1
10
101.858776296482
20
-1.94188694940866
30
0
41
1
10
101.646167759809
20
-1.84866220093858
30
0
41
1
10
101.008767499331
20
-1.56452650524466
30
0
41
1
10
100.372223194935
20
-1.27145730200021
30
0
41
1
10
99.6288538089939
20
-0.918261714195665
30
0
41
1
10
99.3098394062244
20
-0.765007838327705
30
0
41
1
10
99.0970402854388
20
-0.662475400463279
30
0
41
1
10
98.9905526002153
20
-0.61101459602952
30
0
41
1
10
98.458032860629
20
-0.353081251870179
30
0
41
1
10
98.0330975922975
20
-0.145371699565146
30
0
41
1
10
97.1836680662361
20
0.269228982377115
30
0
41
1
10
96.7591776594681
20
0.476127743829153
30
0
41
1
10
96.121413641592
20
0.783067393524163
30
0
41
1
10
95.908664168174
20
0.884832925537012
30
0
41
1
10
95.5891151547448
20
1.03628510842611
30
0
41
1
10
95.4825759794585
20
1.08654685478547
30
0
41
1
10
95.2696892010524
20
1.18644118766207
30
0
41
1
10
95.163302351744
20
1.23609229628551
30
0
41
1
10
94.8442674854401
20
1.38407439964755
30
0
41
1
10
94.6317474494887
20
1.48143922400303
30
0
41
1
10
94.2068810340451
20
1.67327724542068
30
0
41
1
10
93.9945303678459
20
1.7677410326506
30
0
41
1
10
93.5697176713848
20
1.95324079645823
30
0
41
1
10
93.3572608497436
20
2.04428770597579
30
0
41
1
10
92.9320888976479
20
2.22268027128985
30
0
41
1
10
92.7193687731256
20
2.31001558366953
30
0
41
1
10
92.3998708476617
20
2.43783435566658
30
0
41
1
10
92.29326688946
20
2.47992472988383
30
0
41
1
10
92.0802500380314
20
2.56286240453122
30
0
41
1
10
91.7609050100075
20
2.68544818575756
30
0
41
1
10
91.4419809648358
20
2.80239954413784
30
0
41
1
10
91.0169143947176
20
2.95302868262013
30
0
41
1
10
90.8044655938817
20
3.02569346925216
30
0
41
1
10
90.379561219025
20
3.16546950152019
30
0
41
1
10
90.1671012897562
20
3.2325729524749
30
0
41
1
10
89.741898878761
20
3.36083941367508
30
0
41
1
10
89.5291581664722
20
3.42200548518767
30
0
41
1
10
89.2096685282983
20
3.50907871514991
30
0
41
1
10
89.1030702030438
20
3.5373341271428
30
0
41
1
10
88.8899108106658
20
3.59220663841239
30
0
41
1
10
88.783398076628
20
3.61881198411828
30
0
41
1
10
88.2511082866251
20
3.74763402714308
30
0
41
1
10
87.826161822029
20
3.83723474921158
30
0
41
1
10
86.9761763991489
20
3.9880240424406
30
0
41
1
10
86.5511195434646
20
4.04920089062122
30
0
41
1
10
86.018582636107
20
4.10715715257825
30
0
41
1
10
85.9120186212101
20
4.11782569442255
30
0
41
1
10
85.69878963066
20
4.13731260931448
30
0
41
1
10
85.5922024979139
20
4.14611988244596
30
0
41
1
10
85.2726802170641
20
4.16968045986124
30
0
41
1
10
85.059886469315
20
4.18158720653958
30
0
41
1
10
84.6098493945976
20
4.19873621506864
30
0
41
1
10
84.372627078219
20
4.2030439613977
30
0
41
1
10
84.1353921382515
20
4.20262226374419
30
0
0
SPLINE
5
FB
100
AcDbEntity
8
1
62
256
6
ByLayer
370
18
48
1
60
0
100
AcDbSpline
70
4
71
3
72
55
73
51
40
0
40
0
40
0
40
0
40
0.0288244936798254
40
0.0288244936798254
40
0.0676715139326323
40
0.0676715139326323
40
0.145365554438246
40
0.145365554438246
40
0.164789064564648
40
0.164789064564648
40
0.184212574691049
40
0.184212574691049
40
0.223059594943851
40
0.223059594943851
40
0.242483105070255
40
0.242483105070255
40
0.261906615196658
40
0.261906615196658
40
0.300753635449465
40
0.300753635449465
40
0.339600655702272
40
0.339600655702272
40
0.378447675955079
40
0.417294696207886
40
0.417294696207886
40
0.436718206334289
40
0.436718206334289
40
0.456141716460693
40
0.456141716460693
40
0.4949887367135
40
0.4949887367135
40
0.533835756966306
40
0.533835756966306
40
0.611529797471916
40
0.611529797471916
40
0.65037681772472
40
0.65037681772472
40
0.689223837977525
40
0.689223837977525
40
0.766917878483139
40
0.766917878483139
40
0.805764898735947
40
0.805764898735947
40
0.825188408862352
40
0.825188408862352
40
0.844611918988756
40
0.844611918988756
40
0.922305959494378
40
0.922305959494378
40
1
40
1
40
1
40
1
41
1
10
94.0037761784046
20
4.07716421152043
30
0
41
1
10
94.1609868131026
20
4.09727584007891
30
0
41
1
10
94.3182763121822
20
4.11537608729012
30
0
41
1
10
94.6879718682308
20
4.15302345542614
30
0
41
1
10
94.9006560514849
20
4.17090455245088
30
0
41
1
10
95.5377241656058
20
4.21316547689744
30
0
41
1
10
95.9616433562898
20
4.22630370933371
30
0
41
1
10
96.4908137869389
20
4.22378937193119
30
0
41
1
10
96.5966124776843
20
4.22233618915581
30
0
41
1
10
96.8081444705534
20
4.21751173972626
30
0
41
1
10
96.9138876906783
20
4.2141389114712
30
0
41
1
10
97.2313647366195
20
4.20118919230666
30
0
41
1
10
97.4433088281394
20
4.18878972770665
30
0
41
1
10
97.7616364407533
20
4.16459901773371
30
0
41
1
10
97.8678147001562
20
4.15560261212735
30
0
41
1
10
98.0803015923989
20
4.13573888219128
30
0
41
1
10
98.1866233144688
20
4.1248690989828
30
0
41
1
10
98.5052173026278
20
4.08950202925362
30
0
41
1
10
98.7172994640299
20
4.06223237413496
30
0
41
1
10
99.1408671247979
20
4.00027140113929
30
0
41
1
10
99.3523773405651
20
3.96557879521976
30
0
41
1
10
99.7756038723783
20
3.88931205744831
30
0
41
1
10
100.198994999163
20
3.80616446451643
30
0
41
1
10
100.622822520254
20
3.70945541033098
30
0
41
1
10
100.940897553088
20
3.63185178769982
30
0
41
1
10
101.046956965986
20
3.60513825741626
30
0
41
1
10
101.259156072534
20
3.55001986651291
30
0
41
1
10
101.365340639753
20
3.52160230790514
30
0
41
1
10
101.683683635571
20
3.43391186357894
30
0
41
1
10
101.895547304112
20
3.37223942786048
30
0
41
1
10
102.319198016
20
3.24332075240403
30
0
41
1
10
102.530969058387
20
3.17606503941974
30
0
41
1
10
103.166173750451
20
2.96606359382071
30
0
41
1
10
103.589482534859
20
2.8150785684534
30
0
41
1
10
104.224794640239
20
2.57276366949455
30
0
41
1
10
104.436643940938
20
2.48936872138825
30
0
41
1
10
104.861199916876
20
2.31848521268915
30
0
41
1
10
105.073422328912
20
2.23116832802975
30
0
41
1
10
105.709469042966
20
1.96364656368968
30
0
41
1
10
106.132825549329
20
1.77780057812882
30
0
41
1
10
106.767495953508
20
1.48885847514262
30
0
41
1
10
106.979003977889
20
1.3908618772399
30
0
41
1
10
107.296764800972
20
1.24245083424023
30
0
41
1
10
107.402767687685
20
1.19274508673456
30
0
41
1
10
107.61492954569
20
1.09284829261316
30
0
41
1
10
107.721131944461
20
1.04263625614476
30
0
41
1
10
108.251933912481
20
0.790627657798865
30
0
41
1
10
108.675627144056
20
0.586060674717885
30
0
41
1
10
109.521966364719
20
0.17272747472623
30
0
41
1
10
109.944626556839
20
-0.0360117253456735
30
0
41
1
10
110.367507460695
20
-0.245359952787567
30
0
0
SPLINE
5
FC
100
AcDbEntity
8
1
62
256
6
ByLayer
370
18
48
1
60
0
100
AcDbSpline
70
4
71
3
72
8
73
4
40
0
40
0
40
0
40
0
40
1
40
1
40
1
40
1
41
1
10
110.367507460691
20
-0.245359952787794
30
0
41
1
10
110.389022086208
20
-0.0598296395494913
30
0
41
1
10
110.414706465521
20
0.126330490304525
30
0
41
1
10
110.445743285012
20
0.313015232019438
30
0
0
SPLINE
5
FD
100
AcDbEntity
8
1
62
256
6
ByLayer
370
18
48
1
60
0
100
AcDbSpline
70
4
71
3
72
51
73
47
40
0
40
0
40
0
40
0
40
0.060342745244727
40
0.060342745244727
40
0.120685490489454
40
0.120685490489454
40
0.15085686311182
40
0.15085686311182
40
0.181028235734186
40
0.181028235734186
40
0.241370980978913
40
0.241370980978913
40
0.30171372622364
40
0.30171372622364
40
0.362056471468367
40
0.362056471468367
40
0.422399216713094
40
0.422399216713094
40
0.45257058933546
40
0.45257058933546
40
0.482741961957826
40
0.482741961957826
40
0.497827648269006
40
0.497827648269006
40
0.512913334580187
40
0.543084707202548
40
0.543084707202548
40
0.603427452447264
40
0.603427452447264
40
0.663770197691981
40
0.663770197691981
40
0.724112942936698
40
0.724112942936698
40
0.754284315559059
40
0.754284315559059
40
0.78445568818142
40
0.78445568818142
40
0.844798433426141
40
0.844798433426141
40
0.905141178670863
40
0.905141178670863
40
0.965483923915585
40
0.965483923915585
40
0.995655296537949
40
0.995655296537949
40
1
40
1
40
1
40
1
41
1
10
110.445743285012
20
0.313015232019438
30
0
41
1
10
110.183970255413
20
0.441456674798616
30
0
41
1
10
109.922935125387
20
0.568961699276144
30
0
41
1
10
109.401879529362
20
0.821203497293624
30
0
41
1
10
109.141913336272
20
0.946058659828992
30
0
41
1
10
108.75262856644
20
1.13109962699451
30
0
41
1
10
108.623026055251
20
1.19250398465078
30
0
41
1
10
108.363960911284
20
1.31439540088917
30
0
41
1
10
108.234490628715
20
1.37486780881534
30
0
41
1
10
107.846160266
20
1.55466179043827
30
0
41
1
10
107.587360670502
20
1.67232214324088
30
0
41
1
10
107.069624720397
20
1.90267258392206
30
0
41
1
10
106.810703319346
20
2.01539071848268
30
0
41
1
10
106.292424207178
20
2.23529052315172
30
0
41
1
10
106.033068621236
20
2.34247218675603
30
0
41
1
10
105.513300730819
20
2.55017326856765
30
0
41
1
10
105.252919868599
20
2.65075403687913
30
0
41
1
10
104.861507055732
20
2.79651133445424
30
0
41
1
10
104.730868139054
20
2.84419912658114
30
0
41
1
10
104.469353243085
20
2.93792289031072
30
0
41
1
10
104.33844924944
20
2.98391173627144
30
0
41
1
10
104.141741444844
20
3.05136529582589
30
0
41
1
10
104.076107060255
20
3.07360312381516
30
0
41
1
10
103.945005794201
20
3.1174688680494
30
0
41
1
10
103.748497664685
20
3.18238736045529
30
0
41
1
10
103.552385452572
20
3.24463406956465
30
0
41
1
10
103.160628802389
20
3.3655285861372
30
0
41
1
10
102.900083532966
20
3.44133173827922
30
0
41
1
10
102.379953839634
20
3.58314218021172
30
0
41
1
10
102.120382076177
20
3.64915558340238
30
0
41
1
10
101.601644157891
20
3.77086900385066
30
0
41
1
10
101.342436209331
20
3.82654041901077
30
0
41
1
10
100.95378650763
20
3.90225229221139
30
0
41
1
10
100.824268686733
20
3.92619235722364
30
0
41
1
10
100.565228124314
20
3.97141804272735
30
0
41
1
10
100.435753932736
20
3.99273970515864
30
0
41
1
10
100.047305147857
20
4.05267966617404
30
0
41
1
10
99.7881853838335
20
4.08719254330342
30
0
41
1
10
99.2691068457962
20
4.14501728875882
30
0
41
1
10
99.0091662170349
20
4.16834600272313
30
0
41
1
10
98.4882152404601
20
4.20365942481453
30
0
41
1
10
98.2272163517093
20
4.21564195660912
30
0
41
1
10
97.834586562039
20
4.22490950317066
30
0
41
1
10
97.7035136225592
20
4.22654688592039
30
0
41
1
10
97.5532984966904
20
4.22674726349288
30
0
41
1
10
97.5343853140317
20
4.22674213390505
30
0
41
1
10
97.5154706963793
20
4.22670669345661
30
0
0
SPLINE
5
FE
100
AcDbEntity
8
1
62
256
6
ByLayer
370
18
48
1
60
0
100
AcDbSpline
70
4
71
3
72
124
73
120
40
0
40
0
40
0
40
0
40
0.0228861888567229
40
0.0228861888567229
40
0.0345390274608059
40
0.0345390274608059
40
0.0461918660648891
40
0.0461918660648891
40
0.0694975432730543
40
0.0694975432730543
40
0.0928032204812195
40
0.0928032204812195
40
0.116108897689385
40
0.116108897689385
40
0.13941457489755
40
0.13941457489755
40
0.151067413501633
40
0.151067413501633
40
0.162720252105716
40
0.162720252105716
40
0.186025929313883
40
0.186025929313883
40
0.191852348615924
40
0.191852348615924
40
0.197678767917965
40
0.209331606522048
40
0.209331606522048
40
0.232637283730214
40
0.232637283730214
40
0.25594296093838
40
0.25594296093838
40
0.267595799542463
40
0.267595799542463
40
0.279248638146546
40
0.279248638146546
40
0.302554315354713
40
0.302554315354713
40
0.325859992562879
40
0.325859992562879
40
0.349165669771045
40
0.349165669771045
40
0.372471346979211
40
0.372471346979211
40
0.384124185583294
40
0.384124185583294
40
0.395777024187377
40
0.395777024187377
40
0.407429862791461
40
0.407429862791461
40
0.419082701395544
40
0.419082701395544
40
0.442388378603711
40
0.442388378603711
40
0.465694055811878
40
0.465694055811878
40
0.488999733020045
40
0.488999733020045
40
0.512305410228213
40
0.512305410228213
40
0.523958248832296
40
0.523958248832296
40
0.53561108743638
40
0.53561108743638
40
0.558916764644547
40
0.558916764644547
40
0.582222441852714
40
0.582222441852714
40
0.588048861154756
40
0.588048861154756
40
0.593875280456797
40
0.593875280456797
40
0.60552811906088
40
0.60552811906088
40
0.628833796269046
40
0.628833796269046
40
0.640486634873129
40
0.640486634873129
40
0.652139473477212
40
0.652139473477212
40
0.675445150685378
40
0.675445150685378
40
0.698750827893544
40
0.698750827893544
40
0.722056505101711
40
0.722056505101711
40
0.745362182309877
40
0.745362182309877
40
0.75701502091396
40
0.75701502091396
40
0.768667859518042
40
0.768667859518042
40
0.780320698122125
40
0.780320698122125
40
0.791973536726208
40
0.791973536726208
40
0.797799956028248
40
0.797799956028248
40
0.80362637533029
40
0.815279213934372
40
0.815279213934372
40
0.838584891142538
40
0.838584891142538
40
0.861890568350703
40
0.861890568350703
40
0.885196245558868
40
0.885196245558868
40
0.896849084162951
40
0.896849084162951
40
0.908501922767033
40
0.908501922767033
40
0.955113277183366
40
0.955113277183366
40
0.978418954391532
40
0.978418954391532
40
0.990071792995615
40
0.990071792995615
40
0.995898212297656
40
0.995898212297656
40
1
40
1
40
1
40
1
41
1
10
76.8492886497685
20
-3.06989272903863
30
0
41
1
10
76.5917490595801
20
-3.15441520372823
30
0
41
1
10
76.334889389746
20
-3.23455919754784
30
0
41
1
10
75.9481245816064
20
-3.34879711506619
30
0
41
1
10
75.8177906371699
20
-3.38618909886108
30
0
41
1
10
75.5574671228848
20
-3.45871542405786
30
0
41
1
10
75.4274297991387
20
-3.49378787649815
30
0
41
1
10
75.0375204391664
20
-3.59524845050521
30
0
41
1
10
74.7778521703159
20
-3.65788528432105
30
0
41
1
10
74.2586898256447
20
-3.77288885747683
30
0
41
1
10
73.9992146775259
20
-3.82527643783726
30
0
41
1
10
73.4801938234252
20
-3.91959618035938
30
0
41
1
10
73.2206618879922
20
-3.96152935868406
30
0
41
1
10
72.7009293400155
20
-4.0344901160131
30
0
41
1
10
72.440713586339
20
-4.0655253187897
30
0
41
1
10
72.0498287821311
20
-4.10384126652102
30
0
41
1
10
71.91942415548
20
-4.11523159154979
30
0
41
1
10
71.6583982740543
20
-4.13522666987606
30
0
41
1
10
71.5278230250678
20
-4.14384428206813
30
0
41
1
10
71.1355779876164
20
-4.16539981057446
30
0
41
1
10
70.8733935479921
20
-4.17404858277263
30
0
41
1
10
70.5444936515179
20
-4.17758154448171
30
0
41
1
10
70.4786725466767
20
-4.17792394268548
30
0
41
1
10
70.3471972312227
20
-4.17788156160887
30
0
41
1
10
70.1501305153823
20
-4.17672853347901
30
0
41
1
10
69.953485020461
20
-4.1723261017344
30
0
41
1
10
69.5607049740015
20
-4.15923080032337
30
0
41
1
10
69.2995430499893
20
-4.14477321070456
30
0
41
1
10
68.7780906650655
20
-4.1046813764699
30
0
41
1
10
68.5177341678059
20
-4.07907913133531
30
0
41
1
10
68.1276062168104
20
-4.03251608022458
30
0
41
1
10
67.9976477088048
20
-4.01562497134432
30
0
41
1
10
67.737832579288
20
-3.97914076440441
30
0
41
1
10
67.607976032828
20
-3.95954973390374
30
0
41
1
10
67.2186723316017
20
-3.89663087649311
30
0
41
1
10
66.9592585998596
20
-3.84930265111797
30
0
41
1
10
66.4399654961294
20
-3.74447460141349
30
0
41
1
10
66.1801196460926
20
-3.68695876160359
30
0
41
1
10
65.6597727958385
20
-3.56196967407916
30
0
41
1
10
65.3992864584658
20
-3.49447685260833
30
0
41
1
10
64.8772912322497
20
-3.3498468627667
30
0
41
1
10
64.6157286465623
20
-3.27277538589408
30
0
41
1
10
64.2222163221671
20
-3.15039839910494
30
0
41
1
10
64.0908574099798
20
-3.10846974900045
30
0
41
1
10
63.8277726359609
20
-3.0222978640758
30
0
41
1
10
63.6959435770291
20
-2.97804836637502
30
0
41
1
10
63.4329862714927
20
-2.8876596884127
30
0
41
1
10
63.3017827474131
20
-2.84139980668539
30
0
41
1
10
63.0397158967426
20
-2.74709658028482
30
0
41
1
10
62.9088536228322
20
-2.69905249695697
30
0
41
1
10
62.5166688867176
20
-2.55244898476968
30
0
41
1
10
62.2557302001015
20
-2.45145147160818
30
0
41
1
10
61.7345920840781
20
-2.24353577198221
30
0
41
1
10
61.4744089364286
20
-2.13658779046119
30
0
41
1
10
60.954484931585
20
-1.91734814928156
30
0
41
1
10
60.6947377655354
20
-1.80506464841636
30
0
41
1
10
60.1750615749326
20
-1.57637050729315
30
0
41
1
10
59.9151794988799
20
-1.45987469600965
30
0
41
1
10
59.5251969857142
20
-1.28208359710294
30
0
41
1
10
59.3951568899278
20
-1.22235132743506
30
0
41
1
10
59.1350832640877
20
-1.10173730405927
30
0
41
1
10
59.0050048812055
20
-1.04094635272472
30
0
41
1
10
58.6144177814274
20
-0.857586764952742
30
0
41
1
10
58.3535782168596
20
-0.73398945612314
30
0
41
1
10
57.8306123719868
20
-0.484896387491574
30
0
41
1
10
57.5685065000559
20
-0.359357796780046
30
0
41
1
10
57.2399193006169
20
-0.201544352612871
30
0
41
1
10
57.1741533398404
20
-0.169938830672692
30
0
41
1
10
57.042518225937
20
-0.106654669166744
30
0
41
1
10
56.976613584797
20
-0.0749579804692644
30
0
41
1
10
56.7790704882722
20
0.0200514621049592
30
0
41
1
10
56.6475833764537
20
0.0832920462307811
30
0
41
1
10
56.2536058920658
20
0.272414317645655
30
0
41
1
10
55.9915870370878
20
0.397674010921378
30
0
41
1
10
55.5994637464543
20
0.584288591584397
30
0
41
1
10
55.4688961860441
20
0.646256837347238
30
0
41
1
10
55.2080256806694
20
0.76968880935317
30
0
41
1
10
55.0777752288142
20
0.83126436566954
30
0
41
1
10
54.68727169048
20
1.01491087234825
30
0
41
1
10
54.4272443456999
20
1.1358572928649
30
0
41
1
10
53.907306438001
20
1.37379269590315
30
0
41
1
10
53.647415392007
20
1.49082464071014
30
0
41
1
10
53.1275532637764
20
1.72056175925275
30
0
41
1
10
52.8675923254855
20
1.83328401736151
30
0
41
1
10
52.3471303852543
20
2.05349464308611
30
0
41
1
10
52.086559919343
20
2.16085412845939
30
0
41
1
10
51.6950274944716
20
2.31745633038921
30
0
41
1
10
51.5644189868682
20
2.36894470094805
30
0
41
1
10
51.3029590133018
20
2.47040203043986
30
0
41
1
10
51.1720911270531
20
2.52034260746163
30
0
41
1
10
50.9101838338529
20
2.61881661314155
30
0
41
1
10
50.7791025199959
20
2.66727495676642
30
0
41
1
10
50.5165232843995
20
2.76234534449364
30
0
41
1
10
50.385036778583
20
2.80897749186306
30
0
41
1
10
50.1874574166866
20
2.87747485184124
30
0
41
1
10
50.1215228168033
20
2.90007225431984
30
0
41
1
10
49.9898160472997
20
2.9446828847064
30
0
41
1
10
49.7923999949518
20
3.01075762085674
30
0
41
1
10
49.5953943257437
20
3.07429398612703
30
0
41
1
10
49.2018834990462
20
3.19795265873151
30
0
41
1
10
48.9402222290823
20
3.27585556241795
30
0
41
1
10
48.4178652193486
20
3.42218466908363
30
0
41
1
10
48.1571169100142
20
3.49054141059511
30
0
41
1
10
47.6360406540608
20
3.61727030506845
30
0
41
1
10
47.375773030382
20
3.67571640321347
30
0
41
1
10
46.9856300326225
20
3.75586247790633
30
0
41
1
10
46.8556785302422
20
3.78136998518048
30
0
41
1
10
46.5957750964907
20
3.82977964267661
30
0
41
1
10
46.465815499277
20
3.85267715612733
30
0
41
1
10
45.8157995840529
20
3.96049741428686
30
0
41
1
10
45.2950023973451
20
4.02539788623997
30
0
41
1
10
44.5109729903591
20
4.08956100409259
30
0
41
1
10
44.2491466945861
20
4.10539456412371
30
0
41
1
10
43.8552094473145
20
4.12060558524027
30
0
41
1
10
43.7237063481117
20
4.12425715709642
30
0
41
1
10
43.5261551366977
20
4.12759091928075
30
0
41
1
10
43.4602557084248
20
4.12834488533107
30
0
41
1
10
43.3478821491143
20
4.12901739115895
30
0
41
1
10
43.3014398318625
20
4.1291168031351
30
0
41
1
10
43.2550230820322
20
4.12903784302949
30
0
0
SPLINE
5
FF
100
AcDbEntity
8
1
62
256
6
ByLayer
370
18
48
1
60
0
100
AcDbSpline
70
4
71
3
72
50
73
46
40
0
40
0
40
0
40
0
40
0.0305066878009395
40
0.0305066878009395
40
0.0951395752808796
40
0.0951395752808796
40
0.159772462760819
40
0.159772462760819
40
0.224405350240759
40
0.224405350240759
40
0.289038237720699
40
0.289038237720699
40
0.321354681460667
40
0.321354681460667
40
0.353671125200636
40
0.353671125200636
40
0.385987568940606
40
0.385987568940606
40
0.418304012680574
40
0.418304012680574
40
0.482936900160513
40
0.482936900160513
40
0.515253343900482
40
0.515253343900482
40
0.531411565770466
40
0.531411565770466
40
0.54756978764045
40
0.54756978764045
40
0.612202675120384
40
0.612202675120384
40
0.676835562600318
40
0.676835562600318
40
0.709152006340286
40
0.709152006340286
40
0.741468450080254
40
0.741468450080254
40
0.80610133756019
40
0.80610133756019
40
0.870734225040126
40
0.870734225040126
40
0.903050668780095
40
0.903050668780095
40
0.935367112520064
40
0.935367112520064
40
1
40
1
40
1
40
1
41
1
10
22.3789011628439
20
-3.06363075899242
30
0
41
1
10
22.2545312002603
20
-3.10251926366331
30
0
41
1
10
22.1303950080085
20
-3.14049477000788
30
0
41
1
10
21.7437143405454
20
-3.25567324821836
30
0
41
1
10
21.4816570766963
20
-3.32921013516994
30
0
41
1
10
20.9583026891889
20
-3.46640694877422
30
0
41
1
10
20.6970257043733
20
-3.53010049777956
30
0
41
1
10
20.1750453779147
20
-3.64754480869138
30
0
41
1
10
19.914352634707
20
-3.70129832979796
30
0
41
1
10
19.3930729649956
20
-3.79845074248635
30
0
41
1
10
19.132413338257
20
-3.84179586123713
30
0
41
1
10
18.7412520268996
20
-3.89890277176073
30
0
41
1
10
18.6108529760396
20
-3.91662997813938
30
0
41
1
10
18.3499776145867
20
-3.94942194507479
30
0
41
1
10
18.2194901602725
20
-3.96448261866521
30
0
41
1
10
17.9585214878799
20
-3.99196157287827
30
0
41
1
10
17.8279922169418
20
-4.0043519096549
30
0
41
1
10
17.5666891526443
20
-4.02635250512404
30
0
41
1
10
17.4359260489864
20
-4.03596837335007
30
0
41
1
10
17.0431963541222
20
-4.06062065472372
30
0
41
1
10
16.7807986537029
20
-4.07146993573554
30
0
41
1
10
16.3861525179939
20
-4.07926148621473
30
0
41
1
10
16.2544313645395
20
-4.08044428821066
30
0
41
1
10
16.05655756452
20
-4.08007704056513
30
0
41
1
10
15.9905507392014
20
-4.07959770606854
30
0
41
1
10
15.858433265938
20
-4.07792191952973
30
0
41
1
10
15.7923150660721
20
-4.07672481773321
30
0
41
1
10
15.4620901859519
20
-4.06895866598705
30
0
41
1
10
15.1985270283353
20
-4.05704682311088
30
0
41
1
10
14.6722036291884
20
-4.02213265545169
30
0
41
1
10
14.4094998984729
20
-3.99912161591254
30
0
41
1
10
14.0160186832682
20
-3.95634846819056
30
0
41
1
10
13.8850100731971
20
-3.94068248003947
30
0
41
1
10
13.6230605053576
20
-3.90664809475422
30
0
41
1
10
13.4921237721391
20
-3.88827974582134
30
0
41
1
10
13.0993155385323
20
-3.82920920234554
30
0
41
1
10
12.8374273129907
20
-3.78455879123902
30
0
41
1
10
12.3133526018251
20
-3.68499287169388
30
0
41
1
10
12.0511426789835
20
-3.63010737006647
30
0
41
1
10
11.6576049628253
20
-3.54001090506441
30
0
41
1
10
11.5264062216822
20
-3.50865976426152
30
0
41
1
10
11.2637566061693
20
-3.44353206334878
30
0
41
1
10
11.1322882359368
20
-3.40977693686199
30
0
41
1
10
10.7372769074952
20
-3.3051762280864
30
0
41
1
10
10.4731723458799
20
-3.23094361909159
30
0
41
1
10
10.2081220017485
20
-3.15253354611053
30
0
0
SPLINE
5
100
100
AcDbEntity
8
1
62
256
6
ByLayer
370
18
48
1
60
0
100
AcDbSpline
70
4
71
3
72
57
73
53
40
0
40
0
40
0
40
0
40
0.0523724720447361
40
0.0523724720447361
40
0.104744944089472
40
0.104744944089472
40
0.157117416134208
40
0.157117416134208
40
0.209489888178944
40
0.209489888178944
40
0.26186236022368
40
0.26186236022368
40
0.314234832268416
40
0.314234832268416
40
0.366607304313153
40
0.366607304313153
40
0.392793540335521
40
0.392793540335521
40
0.418979776357889
40
0.418979776357889
40
0.471352248402625
40
0.471352248402625
40
0.497538484424993
40
0.497538484424993
40
0.523724720447362
40
0.523724720447362
40
0.5760971924921
40
0.5760971924921
40
0.628469664536838
40
0.628469664536838
40
0.680842136581576
40
0.680842136581576
40
0.707028372603945
40
0.707028372603945
40
0.733214608626314
40
0.733214608626314
40
0.746307726637499
40
0.746307726637499
40
0.759400844648684
40
0.785587080671053
40
0.785587080671053
40
0.837959552715789
40
0.837959552715789
40
0.890332024760526
40
0.890332024760526
40
0.942704496805262
40
0.942704496805262
40
0.96889073282763
40
0.96889073282763
40
0.995076968849998
40
0.995076968849998
40
1
40
1
40
1
40
1
41
1
10
11.256755830008
20
1.74398893120471
30
0
41
1
10
11.5636607515791
20
1.61373414753976
30
0
41
1
10
11.8694918455743
20
1.48060050509753
30
0
41
1
10
12.4795605512405
20
1.20976437576166
30
0
41
1
10
12.7838080699337
20
1.07208256846459
30
0
41
1
10
13.3913820898867
20
0.793593363337664
30
0
41
1
10
13.6946949680766
20
0.652756689872888
30
0
41
1
10
14.3010705779229
20
0.369405585842344
30
0
41
1
10
14.6040843140871
20
0.226785732276539
30
0
41
1
10
15.2103838756179
20
-0.0590014489674502
30
0
41
1
10
15.5135719089046
20
-0.202382494604251
30
0
41
1
10
16.1210521995958
20
-0.487883689680586
30
0
41
1
10
16.4252310715679
20
-0.630250839850333
30
0
41
1
10
17.0350203235597
20
-0.913015441079949
30
0
41
1
10
17.3406315095553
20
-1.0534114416794
30
0
41
1
10
17.8006270559998
20
-1.2614260896211
30
0
41
1
10
17.9537803464022
20
-1.33011941603249
30
0
41
1
10
18.2595531006736
20
-1.4659409428082
30
0
41
1
10
18.4122095136027
20
-1.53310070763885
30
0
41
1
10
18.8695785623344
20
-1.73216639257663
30
0
41
1
10
19.1737261707695
20
-1.86158823324735
30
0
41
1
10
19.6291405343159
20
-2.05017327357726
30
0
41
1
10
19.7808292549647
20
-2.11207362611779
30
0
41
1
10
20.0841119692058
20
-2.23370898571346
30
0
41
1
10
20.2356795088995
20
-2.29349375943849
30
0
41
1
10
20.6902335851571
20
-2.46962391572697
30
0
41
1
10
20.9930844449065
20
-2.58272033730645
30
0
41
1
10
21.5990092331152
20
-2.79923561880077
30
0
41
1
10
21.9020809828313
20
-2.90265501747663
30
0
41
1
10
22.509166336758
20
-3.09863519352771
30
0
41
1
10
22.8131392871853
20
-3.19125975173068
30
0
41
1
10
23.2701895757933
20
-3.32142403944346
30
0
41
1
10
23.4227230400705
20
-3.36334864959841
30
0
41
1
10
23.7281896714969
20
-3.44420132792561
30
0
41
1
10
23.8811399892452
20
-3.48310602020874
30
0
41
1
10
24.1110111838769
20
-3.53901955778522
30
0
41
1
10
24.1876493188384
20
-3.5572417378539
30
0
41
1
10
24.3407141961616
20
-3.59280494263163
30
0
41
1
10
24.5701033103567
20
-3.64485119639195
30
0
41
1
10
24.7989132658687
20
-3.69297296762878
30
0
41
1
10
25.2558707401955
20
-3.78392167505939
30
0
41
1
10
25.5596214667057
20
-3.83749508664832
30
0
41
1
10
26.1659949998497
20
-3.93017402183401
30
0
41
1
10
26.4686553827852
20
-3.96925807519952
30
0
41
1
10
27.0734415076394
20
-4.03273514130746
30
0
41
1
10
27.3755877194207
20
-4.05712121148287
30
0
41
1
10
27.8287672776071
20
-4.08253872358068
30
0
41
1
10
27.9798234127531
20
-4.0891472736439
30
0
41
1
10
28.2821024777176
20
-4.09860494686015
30
0
41
1
10
28.4333075317603
20
-4.10145941591799
30
0
41
1
10
28.6130272801282
20
-4.102617677165
30
0
41
1
10
28.6414707363719
20
-4.10273449164353
30
0
41
1
10
28.6699173027465
20
-4.10278477183959
30
0
0
SPLINE
5
101
100
AcDbEntity
8
1
62
256
6
ByLayer
370
18
48
1
60
0
100
AcDbSpline
70
4
71
3
72
63
73
59
40
0
40
0
40
0
40
0
40
0.0443251153402383
40
0.0443251153402383
40
0.0898334431811799
40
0.0898334431811799
40
0.101210525141415
40
0.101210525141415
40
0.112587607101649
40
0.112587607101649
40
0.13534177102212
40
0.13534177102212
40
0.180850098863062
40
0.180850098863062
40
0.271866754544945
40
0.271866754544945
40
0.362883410226829
40
0.362883410226829
40
0.3856375741473
40
0.3856375741473
40
0.408391738067771
40
0.408391738067771
40
0.431145901988242
40
0.442522983948477
40
0.442522983948477
40
0.453900065908712
40
0.453900065908712
40
0.499408393749655
40
0.499408393749655
40
0.544916721590598
40
0.544916721590598
40
0.567670885511068
40
0.567670885511068
40
0.590425049431538
40
0.590425049431538
40
0.63593337727248
40
0.63593337727248
40
0.681441705113423
40
0.681441705113423
40
0.726950032954366
40
0.726950032954366
40
0.772458360795308
40
0.772458360795308
40
0.783835442755544
40
0.783835442755544
40
0.79521252471578
40
0.79521252471578
40
0.81796668863625
40
0.81796668863625
40
0.863475016477187
40
0.863475016477187
40
0.908983344318125
40
0.908983344318125
40
0.954491672159063
40
0.954491672159063
40
0.977245836079532
40
0.977245836079532
40
1
40
1
40
1
40
1
41
1
10
49.5356967506556
20
3.08875172258109
30
0
41
1
10
49.830111762658
20
3.18298453469254
30
0
41
1
10
50.1249165503175
20
3.27204133982363
30
0
41
1
10
50.7237743572459
20
3.44110404462748
30
0
41
1
10
51.0278667933126
20
3.52079951937196
30
0
41
1
10
51.4093257888455
20
3.61232839719432
30
0
41
1
10
51.4856828904973
20
3.63023201222757
30
0
41
1
10
51.6385353128797
20
3.6652225970719
30
0
41
1
10
51.7150437192308
20
3.68231185356967
30
0
41
1
10
51.9442133965247
20
3.73220926569161
30
0
41
1
10
52.0967103715371
20
3.7636895957427
30
0
41
1
10
52.5534798796126
20
3.85271258512446
30
0
41
1
10
52.8569418288573
20
3.90490141257186
30
0
41
1
10
53.7656939242907
20
4.03917430470784
30
0
41
1
10
54.3688553788661
20
4.09932890721564
30
0
41
1
10
55.5747619988439
20
4.15935273621952
30
0
41
1
10
56.1776648675055
20
4.15924529810022
30
0
41
1
10
56.9338420875482
20
4.12096337311439
30
0
41
1
10
57.0852236161663
20
4.11140158433116
30
0
41
1
10
57.3884005852085
20
4.08848853175022
30
0
41
1
10
57.5401719695708
20
4.07512996565879
30
0
41
1
10
57.8441385550738
20
4.04459896948879
30
0
41
1
10
58.0724369762505
20
4.01884259739418
30
0
41
1
10
58.3013026953397
20
3.98879492969863
30
0
41
1
10
58.4540161310488
20
3.96780975380719
30
0
41
1
10
58.5304843411368
20
3.95683378339328
30
0
41
1
10
58.9123324761974
20
3.89970756416952
30
0
41
1
10
59.2166549780319
20
3.84675567830544
30
0
41
1
10
59.82373059959
20
3.72719977309461
30
0
41
1
10
60.1264417493827
20
3.66056081592055
30
0
41
1
10
60.5797301970184
20
3.55088087635016
30
0
41
1
10
60.7306941358619
20
3.51269862324867
30
0
41
1
10
61.0324020585529
20
3.43314525527626
30
0
41
1
10
61.1831629508142
20
3.3917926772975
30
0
41
1
10
61.6353884203977
20
3.26330131898268
30
0
41
1
10
61.9366813027842
20
3.1715891738053
30
0
41
1
10
62.5393999455325
20
2.97675444630315
30
0
41
1
10
62.8408310186114
20
2.87363578912104
30
0
41
1
10
63.4444852132295
20
2.6569022989039
30
0
41
1
10
63.7467430832323
20
2.54334685995528
30
0
41
1
10
64.3526577933519
20
2.30664203758158
30
0
41
1
10
64.6563318919013
20
2.18352549590961
30
0
41
1
10
65.0371297131342
20
2.024099852137
30
0
41
1
10
65.1133502444686
20
1.99193933284917
30
0
41
1
10
65.2659339733287
20
1.92710457436817
30
0
41
1
10
65.342346748832
20
1.8944113631589
30
0
41
1
10
65.5713907652919
20
1.79581049395998
30
0
41
1
10
65.7238164402555
20
1.72935229489292
30
0
41
1
10
66.1803240939664
20
1.52789578617208
30
0
41
1
10
66.4836619755648
20
1.39086722134991
30
0
41
1
10
67.0889473047235
20
1.11264398623797
30
0
41
1
10
67.3908942616545
20
0.971447929279748
30
0
41
1
10
67.9941188611087
20
0.686408039366484
30
0
41
1
10
68.2953776052426
20
0.542525071357829
30
0
41
1
10
68.7471432042116
20
0.325518398047933
30
0
41
1
10
68.8977233496065
20
0.253011343999049
30
0
41
1
10
69.1988807764901
20
0.107683099773851
30
0
41
1
10
69.349462933207
20
0.0348720345689912
30
0
41
1
10
69.5001348917615
20
-0.0379022022167987
30
0
0
SPLINE
5
102
100
AcDbEntity
8
1
62
256
6
ByLayer
370
18
48
1
60
0
100
AcDbSpline
70
4
71
3
72
38
73
34
40
0
40
0
40
0
40
0
40
0.0234488581810944
40
0.0234488581810944
40
0.0468977163621888
40
0.0468977163621888
40
0.0937954327243751
40
0.0937954327243751
40
0.187590865448745
40
0.187590865448745
40
0.281386298173116
40
0.281386298173116
40
0.328284014535301
40
0.328284014535301
40
0.375181730897486
40
0.375181730897486
40
0.562772596346229
40
0.562772596346229
40
0.586221454527322
40
0.586221454527322
40
0.609670312708414
40
0.6565680290706
40
0.6565680290706
40
0.750363461794972
40
0.750363461794972
40
0.797261178157156
40
0.797261178157156
40
0.820710036338247
40
0.820710036338247
40
0.844158894519339
40
0.937954327243703
40
0.937954327243703
40
1
40
1
40
1
40
1
41
1
10
69.5001348917474
20
0.0308997484221436
30
0
41
1
10
69.6073659814209
20
-0.0207815481153091
30
0
41
1
10
69.7145945413247
20
-0.0724735759474697
30
0
41
1
10
69.9290764248979
20
-0.175817181532807
30
0
41
1
10
70.0363651373813
20
-0.227485751758962
30
0
41
1
10
70.3580006865974
20
-0.382188318749599
30
0
41
1
10
70.5721092213707
20
-0.48491301827508
30
0
41
1
10
71.2138298625818
20
-0.791163526071244
30
0
41
1
10
71.6408139343986
20
-0.992814870603326
30
0
41
1
10
72.4947202273135
20
-1.3878496419706
30
0
41
1
10
72.9216459536515
20
-1.58122315291007
30
0
41
1
10
73.5633479218991
20
-1.86235088334152
30
0
41
1
10
73.7774701535914
20
-1.95456675729596
30
0
41
1
10
74.2063810147425
20
-2.1355699787506
30
0
41
1
10
74.4205851579142
20
-2.22411250502515
30
0
41
1
10
75.4905841875853
20
-2.65596774887857
30
0
41
1
10
76.3437112933573
20
-2.96670333856525
30
0
41
1
10
77.3080198936993
20
-3.26480311943158
30
0
41
1
10
77.4152476957458
20
-3.29721515867553
30
0
41
1
10
77.6294818279159
20
-3.36045627510171
30
0
41
1
10
77.9506372581408
20
-3.45298691982768
30
0
41
1
10
78.2713373270374
20
-3.53838002725598
30
0
41
1
10
78.9124828097821
20
-3.69928648676307
30
0
41
1
10
79.3395899222115
20
-3.79336976852196
30
0
41
1
10
79.9809871653852
20
-3.91353291687966
30
0
41
1
10
80.1949091233824
20
-3.95009323525468
30
0
41
1
10
80.5161410688396
20
-3.99953821347421
30
0
41
1
10
80.6233210030733
20
-4.01512652120678
30
0
41
1
10
80.8375975107148
20
-4.04444828456127
30
0
41
1
10
81.3729344162022
20
-4.11310270843728
30
0
41
1
10
81.90686214871
20
-4.15834995699575
30
0
41
1
10
82.6166003552288
20
-4.19318912216318
30
0
41
1
10
82.8991867716368
20
-4.20039962762138
30
0
41
1
10
83.182025705731
20
-4.20090661470175
30
0
0
SPLINE
5
103
100
AcDbEntity
8
1
62
256
6
ByLayer
370
18
48
1
60
0
100
AcDbSpline
70
4
71
3
72
21
73
17
40
0
40
0
40
0
40
0
40
0.0119553894147509
40
0.0119553894147509
40
0.0613576199440103
40
0.0613576199440103
40
0.11075985047327
40
0.2095643115318
40
0.2095643115318
40
0.40717323364885
40
0.40717323364885
40
0.604782155765901
40
0.604782155765901
40
0.802391077882951
40
0.802391077882951
40
1
40
1
40
1
40
1
41
1
10
103.951622425545
20
3.11365585945688
30
0
41
1
10
103.977492821978
20
3.12227497525635
30
0
41
1
10
104.003367015467
20
3.13085398212536
30
0
41
1
10
104.136179463987
20
3.17467572982153
30
0
41
1
10
104.243136076274
20
3.20925204283426
30
0
41
1
10
104.456653431095
20
3.27680609322098
30
0
41
1
10
104.776533604281
20
3.37580556917462
30
0
41
1
10
105.095358507592
20
3.46768526807651
30
0
41
1
10
105.731939819474
20
3.6416552504148
30
0
41
1
10
106.154909243177
20
3.7445782517263
30
0
41
1
10
106.999592081357
20
3.92304006753412
30
0
41
1
10
107.421304756741
20
3.99857103516888
30
0
41
1
10
108.265211184491
20
4.12090432550718
30
0
41
1
10
108.687409839968
20
4.16770142435414
30
0
41
1
10
109.534092364911
20
4.2314136636607
30
0
41
1
10
109.958587805748
20
4.24833480805955
30
0
41
1
10
110.385055353353
20
4.24984522110094
30
0
0
SPLINE
5
104
100
AcDbEntity
8
1
62
256
6
ByLayer
370
18
48
1
60
0
100
AcDbSpline
70
4
71
3
72
71
73
67
40
0
40
0
40
0
40
0
40
0.0072220306428856
40
0.0072220306428856
40
0.0271094394125868
40
0.0271094394125868
40
0.046996848182288
40
0.046996848182288
40
0.0668842569519891
40
0.0668842569519891
40
0.0867716657216904
40
0.0867716657216904
40
0.0880146287697967
40
0.0883253695318233
40
0.0883253695318233
40
0.0884807399128364
40
0.0884807399128364
40
0.0886361102938497
40
0.0886361102938497
40
0.0892575918179027
40
0.0892575918179027
40
0.0917435179141147
40
0.0917435179141147
40
0.0967153701065384
40
0.0967153701065384
40
0.106659074491386
40
0.106659074491386
40
0.126546483261081
40
0.126546483261081
40
0.166321300800472
40
0.166321300800472
40
0.245870935879253
40
0.245870935879253
40
0.404970206036816
40
0.404970206036816
40
0.484519841115597
40
0.484519841115597
40
0.524294658654988
40
0.524294658654988
40
0.544182067424683
40
0.544182067424683
40
0.549153919617107
40
0.549153919617107
40
0.551639845713319
40
0.551639845713319
40
0.552882808761425
40
0.552882808761425
40
0.553504290285478
40
0.553504290285478
40
0.553815031047505
40
0.553815031047505
40
0.554125771809531
40
0.554125771809531
40
0.554281142190544
40
0.554281142190544
40
0.554436512571558
40
0.554747253333584
40
0.555368734857638
40
0.556611697905744
40
0.559097624001958
40
0.564069476194385
40
0.723168746352054
40
0.723168746352054
40
0.882268016509723
40
0.882268016509723
40
1
40
1
40
1
40
1
41
1
10
11.2567558300044
20
1.74398893120451
30
0
41
1
10
11.2445919825358
20
1.74331537517278
30
0
41
1
10
11.232201473731
20
1.7421746389679
30
0
41
1
10
11.1849665573168
20
1.73607277671468
30
0
41
1
10
11.1492658372635
20
1.72769843215221
30
0
41
1
10
11.0718784282786
20
1.70484538380228
30
0
41
1
10
11.030449484853
20
1.69019376052842
30
0
41
1
10
10.9443197995228
20
1.65418238030361
30
0
41
1
10
10.8995280387261
20
1.6327847700251
30
0
41
1
10
10.8052727160096
20
1.58385800776429
30
0
41
1
10
10.7560496279426
20
1.55615731439389
30
0
41
1
10
10.702205963775
20
1.52311202866525
30
0
41
1
10
10.6982399125453
20
1.52066575100776
30
0
41
1
10
10.6942653584885
20
1.51819880840631
30
0
41
1
10
10.6930724948225
20
1.51745749083119
30
0
41
1
10
10.6925259525748
20
1.51727083253002
30
0
41
1
10
10.6921424918313
20
1.51660280333903
30
0
41
1
10
10.6927644168265
20
1.5160576646945
30
0
41
1
10
10.6956589159218
20
1.51377492601617
30
0
41
1
10
10.6986924280146
20
1.51208040133699
30
0
41
1
10
10.7131933541423
20
1.50362648619273
30
0
41
1
10
10.7253938184087
20
1.497108569689
30
0
41
1
10
10.7618152650382
20
1.47751451831166
30
0
41
1
10
10.7863413518761
20
1.4645659292855
30
0
41
1
10
10.8599859344932
20
1.42573729636217
30
0
41
1
10
10.9092828056867
20
1.39991902251899
30
0
41
1
10
11.0573030913874
20
1.32242359401778
30
0
41
1
10
11.1562096684124
20
1.27073596181128
30
0
41
1
10
11.453058851796
20
1.11526462162604
30
0
41
1
10
11.6511727226994
20
1.01107995091718
30
0
41
1
10
12.2454125021817
20
0.696547275986859
30
0
41
1
10
12.6415840700063
20
0.484321266114364
30
0
41
1
10
13.8295110968754
20
-0.160584486654727
30
0
41
1
10
14.6207545007592
20
-0.602031449555199
30
0
41
1
10
15.8065447107038
20
-1.2783047149791
30
0
41
1
10
16.2016457132922
20
-1.50607527848928
30
0
41
1
10
16.7937097054165
20
-1.851828794922
30
0
41
1
10
16.9910312791426
20
-1.96766591755102
30
0
41
1
10
17.2864441784727
20
-2.14315787965811
30
0
41
1
10
17.3848577708063
20
-2.20186195413166
30
0
41
1
10
17.5072095110089
20
-2.276563273504
30
0
41
1
10
17.5316456182105
20
-2.29156965678459
30
0
41
1
10
17.5681233135007
20
-2.31439848128502
30
0
41
1
10
17.5802574352929
20
-2.32205240915167
30
0
41
1
10
17.5983083388441
20
-2.33378959644105
30
0
41
1
10
17.6043042522013
20
-2.33774043821191
30
0
41
1
10
17.6131742526891
20
-2.3438572206795
30
0
41
1
10
17.6161128163385
20
-2.3459243077447
30
0
41
1
10
17.6204270945932
20
-2.34917019056303
30
0
41
1
10
17.6218518529401
20
-2.35027437747277
30
0
41
1
10
17.6245935584998
20
-2.35261594949526
30
0
41
1
10
17.6265113076133
20
-2.35368061225574
30
0
41
1
10
17.6268456387997
20
-2.35642808983627
30
0
41
1
10
17.6255041094524
20
-2.35656561096286
30
0
41
1
10
17.6237523853923
20
-2.35679825390844
30
0
41
1
10
17.6211246928532
20
-2.35714634252372
30
0
41
1
10
17.6149935693406
20
-2.35795889037735
30
0
41
1
10
17.6027316852334
20
-2.35958339109129
30
0
41
1
10
17.5782093751386
20
-2.36283001000317
30
0
41
1
10
17.5291705568236
20
-2.36931370889735
30
0
41
1
10
16.5906485548859
20
-2.49306451717121
30
0
41
1
10
15.6711245619377
20
-2.60695372649784
30
0
41
1
10
13.8985055468984
20
-2.81012933171536
30
0
41
1
10
13.0167561596958
20
-2.90293392501258
30
0
41
1
10
11.4935233618486
20
-3.04679505270204
30
0
41
1
10
10.8491176996304
20
-3.10243278609073
30
0
41
1
10
10.2079245642051
20
-3.15232683168836
30
0
0
SPLINE
5
105
100
AcDbEntity
8
1
62
256
6
ByLayer
370
18
48
1
60
0
100
AcDbSpline
70
4
71
3
72
108
73
104
40
0
40
0
40
0
40
0
40
0.0624999999999985
40
0.0624999999999985
40
0.124999999999997
40
0.124999999999997
40
0.187499999999996
40
0.187499999999996
40
0.218749999999995
40
0.218749999999995
40
0.234374999999994
40
0.234374999999994
40
0.249999999999993
40
0.249999999999993
40
0.281249999999989
40
0.281249999999989
40
0.296874999999988
40
0.296874999999988
40
0.304687499999987
40
0.304687499999987
40
0.312499999999986
40
0.312499999999986
40
0.343749999999981
40
0.343749999999981
40
0.374999999999977
40
0.374999999999977
40
0.382812499999976
40
0.382812499999976
40
0.390624999999974
40
0.390624999999974
40
0.406249999999971
40
0.406249999999971
40
0.421874999999967
40
0.421874999999967
40
0.429687499999965
40
0.429687499999965
40
0.437499999999963
40
0.437499999999963
40
0.468749999999956
40
0.468749999999956
40
0.472656249999955
40
0.472656249999955
40
0.476562499999954
40
0.476562499999954
40
0.484374999999952
40
0.484374999999952
40
0.499999999999948
40
0.499999999999948
40
0.507812499999946
40
0.507812499999946
40
0.515624999999944
40
0.515624999999944
40
0.53124999999994
40
0.53124999999994
40
0.562499999999932
40
0.562499999999932
40
0.570312499999929
40
0.570312499999929
40
0.578124999999927
40
0.578124999999927
40
0.593749999999921
40
0.593749999999921
40
0.624999999999908
40
0.624999999999908
40
0.656249999999894
40
0.656249999999894
40
0.671874999999888
40
0.671874999999888
40
0.687499999999881
40
0.687499999999881
40
0.718749999999868
40
0.718749999999868
40
0.73437499999986
40
0.73437499999986
40
0.742187499999857
40
0.746093749999855
40
0.748046874999855
40
0.748046874999855
40
0.749023437499855
40
0.749023437499855
40
0.749999999999856
40
0.749999999999856
40
0.751953124999857
40
0.751953124999857
40
0.753906249999858
40
0.753906249999858
40
0.755859374999859
40
0.755859374999859
40
0.757812499999861
40
0.757812499999861
40
0.759765624999862
40
0.759765624999862
40
0.761718749999863
40
0.765624999999865
40
0.781249999999875
40
0.781249999999875
40
0.812499999999893
40
0.812499999999893
40
0.874999999999929
40
0.874999999999929
40
0.937499999999964
40
0.937499999999964
40
1
40
1
40
1
40
1
41
1
10
10.2075281368929
20
-3.15235604873669
30
0
41
1
10
9.96590845027902
20
-3.08013414484074
30
0
41
1
10
9.72664619936813
20
-3.00209254783019
30
0
41
1
10
9.25351609838401
20
-2.83224010563603
30
0
41
1
10
9.01964097023364
20
-2.74045002478275
30
0
41
1
10
8.55831888483442
20
-2.53995733547507
30
0
41
1
10
8.33085502756265
20
-2.43130284199387
30
0
41
1
10
7.99577567393897
20
-2.251794426435
30
0
41
1
10
7.88510859074131
20
-2.18918491633164
30
0
41
1
10
7.7209082880791
20
-2.09034717061328
30
0
41
1
10
7.66647480497556
20
-2.05657457883723
30
0
41
1
10
7.55870987552731
20
-1.9875144259953
30
0
41
1
10
7.50532444353064
20
-1.95219526305715
30
0
41
1
10
7.34678507706781
20
-1.84366252186774
30
0
41
1
10
7.24323673378791
20
-1.7678920608416
30
0
41
1
10
7.09179939446253
20
-1.64801403785381
30
0
41
1
10
7.04197031231246
20
-1.60701358747781
30
0
41
1
10
6.96831564947826
20
-1.54376463360242
30
0
41
1
10
6.94392664748065
20
-1.52237225072238
30
0
41
1
10
6.89567022702204
20
-1.47909018919148
30
0
41
1
10
6.87179526921588
20
-1.45719484178474
30
0
41
1
10
6.75374935712091
20
-1.34638268463422
30
0
41
1
10
6.66352834641395
20
-1.25349654554208
30
0
41
1
10
6.49364023426443
20
-1.05709416030319
30
0
41
1
10
6.41393941037299
20
-0.95361179997326
30
0
41
1
10
6.32308345813109
20
-0.815414179496969
30
0
41
1
10
6.30532046449517
20
-0.787266363103839
30
0
41
1
10
6.27099074124865
20
-0.730382768607171
30
0
41
1
10
6.25441569464715
20
-0.701640075922086
30
0
41
1
10
6.20655577212452
20
-0.614460411679715
30
0
41
1
10
6.17713098556342
20
-0.555074450856949
30
0
41
1
10
6.12386259384604
20
-0.433455300729122
30
0
41
1
10
6.10001661157364
20
-0.371223314224039
30
0
41
1
10
6.06903798982961
20
-0.275432207262895
30
0
41
1
10
6.05948601917345
20
-0.24298379888856
30
0
41
1
10
6.04229751542732
20
-0.177969489644568
30
0
41
1
10
6.03464261478121
20
-0.145368351765427
30
0
41
1
10
6.00114503282543
20
0.0181153324741956
30
0
41
1
10
5.98957129183631
20
0.150425608929851
30
0
41
1
10
5.99534846336138
20
0.301156921430021
30
0
41
1
10
5.99625252001726
20
0.317931095696736
30
0
41
1
10
5.99859265897118
20
0.351532725648468
30
0
41
1
10
6.00002965019769
20
0.368353447160985
30
0
41
1
10
6.00509968235366
20
0.418483918346198
30
0
41
1
10
6.00949986900727
20
0.451599994720368
30
0
41
1
10
6.02563842793677
20
0.550072980659678
30
0
41
1
10
6.0403108703309
20
0.614555816588592
30
0
41
1
10
6.06778078475747
20
0.709657054615008
30
0
41
1
10
6.0778486716695
20
0.741086654893394
30
0
41
1
10
6.09974993327117
20
0.803421870507606
30
0
41
1
10
6.11160216081944
20
0.834372578480611
30
0
41
1
10
6.14960894554153
20
0.926169753384926
30
0
41
1
10
6.17788956485089
20
0.985239826552515
30
0
41
1
10
6.27030193618134
20
1.15699095044246
30
0
41
1
10
6.34194237475955
20
1.26425816280175
30
0
41
1
10
6.44125844903095
20
1.39134623686911
30
0
41
1
10
6.46161524582809
20
1.41641017141046
30
0
41
1
10
6.50326516027107
20
1.46586826989551
30
0
41
1
10
6.52449348087657
20
1.49018389012966
30
0
41
1
10
6.58909059110897
20
1.56174699742988
30
0
41
1
10
6.63345779204792
20
1.607721182533
30
0
41
1
10
6.76993463393762
20
1.74116905864767
30
0
41
1
10
6.8653930296795
20
1.82420384801432
30
0
41
1
10
7.06330730993
20
1.98108393717737
30
0
41
1
10
7.1657773609077
20
2.05490992367649
30
0
41
1
10
7.32380643889613
20
2.16002609457425
30
0
41
1
10
7.3772559294153
20
2.19415145875877
30
0
41
1
10
7.48523228870258
20
2.2605259992761
30
0
41
1
10
7.5397326524878
20
2.29276177450723
30
0
41
1
10
7.70463450253442
20
2.38688382142249
30
0
41
1
10
7.81647884295643
20
2.44621852673714
30
0
41
1
10
7.98644142134862
20
2.53081001720596
30
0
41
1
10
8.04345568305928
20
2.55826633117971
30
0
41
1
10
8.12946764814106
20
2.59842249006181
30
0
41
1
10
8.17259210184494
20
2.61824130585171
30
0
41
1
10
8.22310410712495
20
2.64092739136916
30
0
41
1
10
8.24479367245948
20
2.65055816786372
30
0
41
1
10
8.25564522228271
20
2.65535835187785
30
0
41
1
10
8.25924283487012
20
2.65698742211583
30
0
41
1
10
8.2666122363523
20
2.65999474309183
30
0
41
1
10
8.2703819668192
20
2.66135500359343
30
0
41
1
10
8.28199524577713
20
2.66492513243372
30
0
41
1
10
8.29005583438365
20
2.66660170983823
30
0
41
1
10
8.30637298350371
20
2.66873803328872
30
0
41
1
10
8.31473974873643
20
2.66923410513678
30
0
41
1
10
8.33131773337169
20
2.66932403860943
30
0
41
1
10
8.33954628922925
20
2.66895305762401
30
0
41
1
10
8.35587479033705
20
2.66732505760001
30
0
41
1
10
8.36397622937972
20
2.6660782544767
30
0
41
1
10
8.38009513783447
20
2.66300375519967
30
0
41
1
10
8.38807070862885
20
2.66119300597975
30
0
41
1
10
8.40405383894719
20
2.65770095061129
30
0
41
1
10
8.42802340780085
20
2.6524454052057
30
0
41
1
10
8.51585310371422
20
2.63298100162686
30
0
41
1
10
8.59552233496245
20
2.61469548441374
30
0
41
1
10
8.78636188814858
20
2.56967041975389
30
0
41
1
10
8.91310872081442
20
2.53813222782219
30
0
41
1
10
9.29197327221024
20
2.43885297978178
30
0
41
1
10
9.54221959690898
20
2.3665595990833
30
0
41
1
10
10.0385372059171
20
2.20958190815151
30
0
41
1
10
10.2846124873241
20
2.12490214717997
30
0
41
1
10
10.7732412656244
20
1.94335915310572
30
0
41
1
10
11.0159084525874
20
1.84643118414763
30
0
41
1
10
11.2567516465052
20
1.74398979551577
30
0
0
SPLINE
5
106
100
AcDbEntity
8
SK1
62
256
6
ByLayer
370
18
48
1
60
0
100
AcDbSpline
70
4
71
3
72
8
73
4
40
0
40
0
40
0
40
0
40
1
40
1
40
1
40
1
41
1
10
-39.35
20
4.04801366901654
30
0
41
1
10
-39.5672381648847
20
3.86177098847304
30
0
41
1
10
-39.7840099457905
20
3.67515410625185
30
0
41
1
10
-40
20
3.4879100081431
30
0
0
SPLINE
5
107
100
AcDbEntity
8
SK1
62
256
6
ByLayer
370
18
48
1
60
0
100
AcDbSpline
70
4
71
3
72
20
73
16
40
0
40
0
40
0
40
0
40
0.125000000000001
40
0.125000000000001
40
0.187500000000003
40
0.187500000000003
40
0.250000000000004
40
0.250000000000004
40
0.375000000000005
40
0.375000000000005
40
0.500000000000005
40
0.500000000000005
40
0.750000000000002
40
0.750000000000002
40
1
40
1
40
1
40
1
41
1
10
-39.25
20
4.09690029748236
30
0
41
1
10
-39.25
20
4.10004997911611
30
0
41
1
10
-39.2510680086886
20
4.10220514740064
30
0
41
1
10
-39.2538495157728
20
4.10403038343932
30
0
41
1
10
-39.2549703876943
20
4.10441495463485
30
0
41
1
10
-39.2575552869368
20
4.10478782897641
30
0
41
1
10
-39.2590298143252
20
4.10477359226149
30
0
41
1
10
-39.2638240044233
20
4.10419945629684
30
0
41
1
10
-39.267515960107
20
4.10312827439418
30
0
41
1
10
-39.275680748839
20
4.09990852567819
30
0
41
1
10
-39.2801886771091
20
4.09773433228111
30
0
41
1
10
-39.2943187548888
20
4.09002184756164
30
0
41
1
10
-39.3046720301746
20
4.08327347350129
30
0
41
1
10
-39.3267894589619
20
4.0671978787918
30
0
41
1
10
-39.3382086330433
20
4.05812264683115
30
0
41
1
10
-39.35
20
4.04801366901657
30
0
0
SPLINE
5
108
100
AcDbEntity
8
SK1
62
256
6
ByLayer
370
18
48
1
60
0
100
AcDbSpline
70
4
71
3
72
20
73
16
40
0
40
0
40
0
40
0
40
0.249999999999998
40
0.249999999999998
40
0.374999999999999
40
0.374999999999999
40
0.499999999999999
40
0.499999999999999
40
0.624999999999999
40
0.624999999999999
40
0.749999999999999
40
0.749999999999999
40
0.875
40
0.875
40
1
40
1
40
1
40
1
41
1
10
-39.35
20
2.94425856564192
30
0
41
1
10
-39.338205186486
20
2.95437049825986
30
0
41
1
10
-39.326788992333
20
2.96567501090692
30
0
41
1
10
-39.3102132143741
20
2.98439551083035
30
0
41
1
10
-39.304833241342
20
2.99088284550746
30
0
41
1
10
-39.2945637817252
20
3.0041308555752
30
0
41
1
10
-39.289643923718
20
3.0109245350663
30
0
41
1
10
-39.2802807943173
20
3.02488861912059
30
0
41
1
10
-39.2758194796066
20
3.03208686969015
30
0
41
1
10
-39.267562331863
20
3.04683096484419
30
0
41
1
10
-39.2638525857023
20
3.0542164659461
30
0
41
1
10
-39.2574621956925
20
3.06901805684822
30
0
41
1
10
-39.2547834319691
20
3.07646962521119
30
0
41
1
10
-39.2510694001166
20
3.09060715262106
30
0
41
1
10
-39.25
20
3.09748047211087
30
0
41
1
10
-39.25
20
3.1035207044452
30
0
0
SPLINE
5
109
100
AcDbEntity
8
SK1
62
256
6
ByLayer
370
18
48
1
60
0
100
AcDbSpline
70
4
71
3
72
8
73
4
40
0
40
0
40
0
40
0
40
1
40
1
40
1
40
1
41
1
10
-40
20
2.38415490476851
30
0
41
1
10
-39.7840102618848
20
2.57139872885168
30
0
41
1
10
-39.5672384334161
20
2.75801565488098
30
0
41
1
10
-39.35
20
2.94425856564192
30
0
0
SPLINE
5
10A
100
AcDbEntity
8
1
62
256
6
ByLayer
370
18
48
1
60
0
100
AcDbSpline
70
4
71
3
72
24
73
20
40
0
40
0
40
0
40
0
40
8.05150203278E-05
40
0.0002566681820125
40
0.0004697490752236
40
0.0007325918404133
40
0.0050472413399171
40
0.0263057143975394
40
0.0542070849548266
40
0.187624874413999
40
0.309262456809072
40
0.425097207314925
40
0.552108516500078
40
0.625768052911285
40
0.685166634646331
40
0.744273053253797
40
0.819334047757937
40
0.917681913951933
40
1
40
1
40
1
40
1
41
1
10
85.8168171393382
20
-0.0048352080947893
30
0
41
1
10
85.8168250887952
20
-0.0048347597808913
30
0
41
1
10
85.8167841522882
20
-0.004815414203506
30
0
41
1
10
85.816349868468
20
-0.0046838551077713
30
0
41
1
10
85.8153550352967
20
-0.0043987013362425
30
0
41
1
10
85.806410816675
20
-0.001883289996556
30
0
41
1
10
85.7432312482599
20
0.0154335613854357
30
0
41
1
10
85.6183160022665
20
0.0499272321719957
30
0
41
1
10
85.1805636202494
20
0.172005067650417
30
0
41
1
10
84.5094038661541
20
0.366206024617611
30
0
41
1
10
83.6300060947427
20
0.634786227228233
30
0
41
1
10
82.7701349508485
20
0.910356095424163
30
0
41
1
10
82.0264849279729
20
1.16003844742824
30
0
41
1
10
81.4176980637104
20
1.3720669049323
30
0
41
1
10
80.9690132850849
20
1.53206270103533
30
0
41
1
10
80.5181244098212
20
1.69614500837471
30
0
41
1
10
79.9779990425707
20
1.8973111732009
30
0
41
1
10
79.385827454676
20
2.12360944281113
30
0
41
1
10
78.9695194226937
20
2.2887615359937
30
0
41
1
10
78.7802104998846
20
2.36499229829656
30
0
0
SPLINE
5
10B
100
AcDbEntity
8
1
62
256
6
ByLayer
370
18
48
1
60
0
100
AcDbSpline
70
4
71
3
72
10
73
6
40
0
40
0
40
0
40
0
40
0.25172653477095
40
0.796453750836123
40
1
40
1
40
1
40
1
41
1
10
104.020113677257
20
3.09493201948246
30
0
41
1
10
104.223225203336
20
3.15917673179285
30
0
41
1
10
104.86601554427
20
3.35386932919195
30
0
41
1
10
105.6736840074
20
3.57327571349381
30
0
41
1
10
106.278478488574
20
3.687253075564
30
0
41
1
10
106.443027364857
20
3.71555890688222
30
0
0
SPLINE
5
10C
100
AcDbEntity
8
1
62
256
6
ByLayer
370
18
48
1
60
0
100
AcDbSpline
70
4
71
3
72
32
73
28
40
0
40
0
40
0
40
0
40
3.69961251815E-05
40
6.57864703641E-05
40
7.81884682308E-05
40
9.00833185027E-05
40
0.0001139940304345
40
0.0002628707693996
40
0.000365793962034
40
0.0005515654012849
40
0.0008896273419227
40
0.0015135037025276
40
0.0026921110041852
40
0.032778579343343
40
0.07857433310387
40
0.136174935474004
40
0.210614351387614
40
0.266092797607098
40
0.332325283993344
40
0.411054610374626
40
0.483518464292089
40
0.612720947337781
40
0.751289481119189
40
0.807179543693926
40
0.873452064012912
40
0.965278710019497
40
1
40
1
40
1
40
1
41
1
10
31.400934531085
20
-0.0005864181057973
30
0
41
1
10
31.4009750238053
20
-0.0005963894819843
30
0
41
1
10
31.4010389332271
20
-0.0006118502473669
30
0
41
1
10
31.401056234222
20
-0.000613986886151
30
0
41
1
10
31.4010242061137
20
-0.0006036124694901
30
0
41
1
10
31.4009721840716
20
-0.0005880707285257
30
0
41
1
10
31.4006575374782
20
-0.0004982433003704
30
0
41
1
10
31.3999893141993
20
-0.0003148237076118
30
0
41
1
10
31.3990436498957
20
-5.25936141003E-05
30
0
41
1
10
31.3976519144331
20
0.0003323130388821
30
0
41
1
10
31.3951223907964
20
0.0010322435415162
30
0
41
1
10
31.3903792104007
20
0.002343683002124
30
0
41
1
10
31.3194869146593
20
0.021928399307626
30
0
41
1
10
31.1430984150832
20
0.0706031292819205
30
0
41
1
10
30.8393766089875
20
0.155966189550554
30
0
41
1
10
30.4341270226603
20
0.272332287950121
30
0
41
1
10
30.0076487818741
20
0.398253520946298
30
0
41
1
10
29.5624487098766
20
0.533208396820839
30
0
41
1
10
29.1084156134975
20
0.67419654092987
30
0
41
1
10
28.6171238861584
20
0.831069833487817
30
0
41
1
10
27.9852037345758
20
1.03862412043566
30
0
41
1
10
27.221127874504
20
1.29884863059229
30
0
41
1
10
26.4978749676461
20
1.5568032588443
30
0
41
1
10
25.9171915725145
20
1.77051853264501
30
0
41
1
10
25.4417758540641
20
1.94923251364662
30
0
41
1
10
25.0142813318802
20
2.11267595392317
30
0
41
1
10
24.7351299368619
20
2.22360750759739
30
0
41
1
10
24.6586148911849
20
2.25424397400562
30
0
0
SPLINE
5
10D
100
AcDbEntity
8
1
62
256
6
ByLayer
370
18
48
1
60
0
100
AcDbSpline
70
4
71
3
72
15
73
11
40
0
40
0
40
0
40
0
40
0.233711656711704
40
0.38488868844329
40
0.546563815942245
40
0.606790833713443
40
0.662093099325807
40
0.741022707673205
40
0.861890535950116
40
1
40
1
40
1
40
1
41
1
10
111.048598121866
20
0.569449082204386
30
0
41
1
10
110.637353551473
20
0.695766109766481
30
0
41
1
10
109.962304855823
20
0.910875066768881
30
0
41
1
10
109.009000930063
20
1.23359861915486
30
0
41
1
10
108.360964036152
20
1.46210135636815
30
0
41
1
10
107.880961604989
20
1.63632342897742
30
0
41
1
10
107.544754089545
20
1.76012733048151
30
0
41
1
10
107.104659070529
20
1.9249344493212
30
0
41
1
10
106.523381902741
20
2.14771308699145
30
0
41
1
10
106.079851186154
20
2.32359756953483
30
0
41
1
10
105.843854150727
20
2.41879414921752
30
0
0
SPLINE
5
10E
100
AcDbEntity
8
1
62
256
6
ByLayer
370
18
48
1
60
0
100
AcDbSpline
70
4
71
3
72
34
73
30
40
0
40
0
40
0
40
0
40
1.79192113349E-05
40
3.90681190748E-05
40
5.70136695681E-05
40
7.33006784121E-05
40
8.9228149281E-05
40
0.0001225258237902
40
0.0003786258447263
40
0.0005686627018531
40
0.0009112534392452
40
0.0015333518891862
40
0.0026772274405943
40
0.0048253032318458
40
0.0089986378027261
40
0.0175327035397748
40
0.0361125822464551
40
0.138861523879555
40
0.253945719648951
40
0.367692750803194
40
0.462879845292557
40
0.579499827143604
40
0.63843840850084
40
0.693131573930166
40
0.746439779343027
40
0.798542732090579
40
0.862500409238174
40
0.950272479205349
40
1
40
1
40
1
40
1
41
1
10
58.5476334712946
20
0.0121496878124105
30
0
41
1
10
58.5476512259923
20
0.0121454772493621
30
0
41
1
10
58.5476856790888
20
0.0121374253711792
30
0
41
1
10
58.5477181671246
20
0.0121303476111905
30
0
41
1
10
58.5477010296009
20
0.0121382036162174
30
0
41
1
10
58.5476607333015
20
0.0121509384833018
30
0
41
1
10
58.5475694886679
20
0.0121777678939168
30
0
41
1
10
58.5469603121632
20
0.0123493240493247
30
0
41
1
10
58.5458200683095
20
0.012658903163441
30
0
41
1
10
58.5440694825677
20
0.013140116860427
30
0
41
1
10
58.5414628654324
20
0.0138546091649516
30
0
41
1
10
58.536723516817
20
0.0151551992598513
30
0
41
1
10
58.527891368082
20
0.017578923770742
30
0
41
1
10
58.5110015837016
20
0.0222176241653642
30
0
41
1
10
58.4772207189939
20
0.0315094101081854
30
0
41
1
10
58.4056397577295
20
0.0512664624827721
30
0
41
1
10
58.1063760097655
20
0.134489379522563
30
0
41
1
10
57.5622707163616
20
0.290017163838172
30
0
41
1
10
56.8013862874538
20
0.517891954273267
30
0
41
1
10
56.0605141744323
20
0.750199949568554
30
0
41
1
10
55.3186042185719
20
0.992312251120808
30
0
41
1
10
54.7037980100238
20
1.20086096840038
30
0
41
1
10
54.1826222246984
20
1.38317881013029
30
0
41
1
10
53.8055262193312
20
1.51767886205803
30
0
41
1
10
53.4446100376178
20
1.64876719243455
30
0
41
1
10
53.0635964153031
20
1.78952459950315
30
0
41
1
10
52.605985068962
20
1.96194888405097
30
0
41
1
10
52.1546054043972
20
2.13527205473846
30
0
41
1
10
51.8478694137354
20
2.25724706702943
30
0
41
1
10
51.7370720252607
20
2.30174530377755
30
0
0
SPLINE
5
10F
100
AcDbEntity
8
1
62
256
6
ByLayer
370
18
48
1
60
0
100
AcDbSpline
70
4
71
3
72
27
73
23
40
0
40
0
40
0
40
0
40
0.0778478593851432
40
0.137809587462416
40
0.180583223940743
40
0.218110362329718
40
0.28042372185683
40
0.334682200225181
40
0.38994032895933
40
0.471201734288803
40
0.544517056274292
40
0.600167485986232
40
0.644827018277004
40
0.673987049413805
40
0.708321539629961
40
0.755757275742665
40
0.808982512607861
40
0.851754911522998
40
0.886659007765481
40
0.925222826401094
40
0.972202767363862
40
1
40
1
40
1
40
1
41
1
10
84.1328374966083
20
-4.04135225643535
30
0
41
1
10
84.3889047229248
20
-4.04177732202342
30
0
41
1
10
84.842242285015
20
-4.04261721883447
30
0
41
1
10
85.4365937960602
20
-4.04344852680291
30
0
41
1
10
85.8979924927148
20
-4.04483989561885
30
0
41
1
10
86.3669698186785
20
-4.04591700904467
30
0
41
1
10
86.8742021772832
20
-4.04655123527132
30
0
41
1
10
87.4396533139542
20
-4.04714542185323
30
0
41
1
10
88.0674923332315
20
-4.04818967714678
30
0
41
1
10
88.7580398308602
20
-4.05019137115517
30
0
41
1
10
89.4498787175969
20
-4.050675250811
30
0
41
1
10
90.0212647872081
20
-4.05126110234934
30
0
41
1
10
90.4473390573157
20
-4.05249390714488
30
0
41
1
10
90.8032571929267
20
-4.05360153564723
30
0
41
1
10
91.1683179025659
20
-4.0544306306287
30
0
41
1
10
91.6125785170734
20
-4.0548346154693
30
0
41
1
10
92.0846057514325
20
-4.05476355907382
30
0
41
1
10
92.5153904974842
20
-4.05499945882931
30
0
41
1
10
92.8979276482309
20
-4.05590978172313
30
0
41
1
10
93.2943088997727
20
-4.05698483002209
30
0
41
1
10
93.6672989467182
20
-4.05768367764568
30
0
41
1
10
93.9133901994242
20
-4.05840584075108
30
0
41
1
10
94.0048666116321
20
-4.05867868422368
30
0
0
SPLINE
5
110
100
AcDbEntity
8
1
62
256
6
ByLayer
370
18
48
1
60
0
100
AcDbSpline
70
4
71
2
72
6
73
3
40
0
40
0
40
0
40
1
40
1
40
1
41
1
10
70.524737007862
20
0.004970669220711
30
0
41
1
10
70.5247262351129
20
0.0049679904348352
30
0
41
1
10
70.524715462356
20
0.0049655774753035
30
0
0
SPLINE
5
111
100
AcDbEntity
8
1
62
256
6
ByLayer
370
18
48
1
60
0
100
AcDbSpline
70
4
71
3
72
28
73
24
40
0
40
0
40
0
40
0
40
0.0547298454740211
40
0.107643630565259
40
0.159232456659671
40
0.203355659458873
40
0.238333864295481
40
0.274633696094342
40
0.323595280905941
40
0.378804717587
40
0.425897525954299
40
0.46700862008546
40
0.503827051047872
40
0.548903533796
40
0.617201486038177
40
0.68656431290449
40
0.743866270947163
40
0.791625486213589
40
0.833457545470822
40
0.88020709405898
40
0.941605407980192
40
0.9915397676795
40
1
40
1
40
1
40
1
41
1
10
96.2689025902385
20
4.06096225089502
30
0
41
1
10
96.0917842218308
20
4.06036634929467
30
0
41
1
10
95.742106398348
20
4.0595897581839
30
0
41
1
10
95.2147008022337
20
4.05922225215733
30
0
41
1
10
94.7305775869408
20
4.06060239378189
30
0
41
1
10
94.3027919365724
20
4.05958132465278
30
0
41
1
10
93.9221928046953
20
4.05832423176898
30
0
41
1
10
93.526816006414
20
4.05741853808448
30
0
41
1
10
93.0640539929245
20
4.05643192434314
30
0
41
1
10
92.5660049426368
20
4.05498601090622
30
0
41
1
10
92.0937320519359
20
4.05478742483825
30
0
41
1
10
91.6820376677899
20
4.05480468010666
30
0
41
1
10
91.2769775404687
20
4.05458966102489
30
0
41
1
10
90.7823963090941
20
4.05365862449972
30
0
41
1
10
90.1806575354815
20
4.05147341962007
30
0
41
1
10
89.5386411585648
20
4.05073029683243
30
0
41
1
10
88.9642706886588
20
4.05035081861882
30
0
41
1
10
88.4805728032227
20
4.0493578261808
30
0
41
1
10
88.0316086704212
20
4.04819175030772
30
0
41
1
10
87.5377175486759
20
4.04727206164458
30
0
41
1
10
87.0172041380043
20
4.04669793397144
30
0
41
1
10
86.6226017552749
20
4.04624384712827
30
0
41
1
10
86.430479386711
20
4.04591004416071
30
0
41
1
10
86.4026459291418
20
4.04585931089815
30
0
0
LINE
5
82
100
AcDbEntity
8
4
62
256
6
ByLayer
370
18
48
0.05
60
0
100
AcDbLine
10
0
20
0
30
0
11
112
21
0
31
0
39
0
210
0
220
0
230
1
0
LINE
5
84
100
AcDbEntity
8
81
62
256
6
ByLayer
370
18
48
1
60
0
100
AcDbLine
10
112
20
0
30
0
11
115
21
0
31
0
39
0
210
0
220
0
230
1
0
LINE
5
85
100
AcDbEntity
8
80
62
256
6
ByLayer
370
18
48
1
60
0
100
AcDbLine
10
0
20
0
30
0
11
-3
21
0
31
0
39
0
210
0
220
0
230
1
0
LINE
5
86
100
AcDbEntity
8
SK4
62
256
6
ByLayer
370
18
48
0.05
60
0
100
AcDbLine
10
-43
20
0
30
0
11
115
21
0
31
0
39
0
210
0
220
0
230
1
0
LINE
5
88
100
AcDbEntity
8
1
62
256
6
ByLayer
370
18
48
1
60
0
100
AcDbLine
10
0
20
5
30
0
11
0
21
-5
31
0
39
0
210
0
220
0
230
1
0
LINE
5
89
100
AcDbEntity
8
1
62
256
6
ByLayer
370
13
48
1
60
0
100
AcDbLine
10
111.890392
20
0.454108
30
0
11
110.942882
21
1.405201
31
0
39
0
210
0
220
0
230
1
0
LINE
5
8A
100
AcDbEntity
8
1
62
256
6
ByLayer
370
13
48
1
60
0
100
AcDbLine
10
0.73016
20
-4.526904
30
0
11
0.73016
21
4.526904
31
0
39
0
210
0
220
0
230
1
0
LINE
5
8B
100
AcDbEntity
8
1
62
256
6
ByLayer
370
18
48
1
60
0
100
AcDbLine
10
69.500135
20
0.560202
30
0
11
69.500135
21
4.159937
31
0
39
0
210
0
220
0
230
1
0
LINE
5
8C
100
AcDbEntity
8
1
62
256
6
ByLayer
370
18
48
1
60
0
100
AcDbLine
10
69.500135
20
0.0309
30
0
11
69.500135
21
-0.037902
31
0
39
0
210
0
220
0
230
1
0
LINE
5
8D
100
AcDbEntity
8
1
62
256
6
ByLayer
370
13
48
1
60
0
100
AcDbLine
10
1.46176
20
-4.05381
30
0
11
1.46176
21
4.05381
31
0
39
0
210
0
220
0
230
1
0
LINE
5
8E
100
AcDbEntity
8
SK1
62
256
6
ByLayer
370
18
48
1
60
0
100
AcDbLine
10
-40
20
3.48791
30
0
11
-40
21
2.384145
31
0
39
0
210
0
220
0
230
1
0
LINE
5
90
100
AcDbEntity
8
SK1
62
256
6
ByLayer
370
13
48
1
60
0
100
AcDbLine
10
-39.35
20
2.944218
30
0
11
-39.35
21
4.048014
31
0
39
0
210
0
220
0
230
1
0
LINE
5
91
100
AcDbEntity
8
SK1
62
256
6
ByLayer
370
18
48
1
60
0
100
AcDbLine
10
-39.25
20
3.103521
30
0
11
-39.25
21
4.0969
31
0
39
0
210
0
220
0
230
1
0
LINE
5
92
100
AcDbEntity
8
SK1
62
256
6
ByLayer
370
18
48
1
60
0
100
AcDbLine
10
-40
20
-3.66
30
0
11
-40
21
2.384155
31
0
39
0
210
0
220
0
230
1
0
LINE
5
93
100
AcDbEntity
8
SK1
62
256
6
ByLayer
370
18
48
1
60
0
100
AcDbLine
10
-40
20
3.48791
30
0
11
-40
21
3.66
31
0
39
0
210
0
220
0
230
1
0
LINE
5
94
100
AcDbEntity
8
SK1
62
256
6
ByLayer
370
18
48
1
60
0
100
AcDbLine
10
0
20
5
30
0
11
0
21
-5
31
0
39
0
210
0
220
0
230
1
0
LINE
5
95
100
AcDbEntity
8
SK1
62
256
6
ByLayer
370
18
48
1
60
0
100
AcDbLine
10
-38.66
20
-5
30
0
11
-38.66
21
5
31
0
39
0
210
0
220
0
230
1
0
LINE
5
96
100
AcDbEntity
8
1
62
256
6
ByLayer
370
18
48
1
60
0
100
AcDbLine
10
1.46176
20
-4.05381
30
0
11
16.122667
21
-4.0802
31
0
39
0
210
0
220
0
230
1
0
LINE
5
97
100
AcDbEntity
8
1
62
256
6
ByLayer
370
18
48
1
60
0
100
AcDbLine
10
28.669614
20
-4.102784
30
0
11
43.253649
21
-4.129036
31
0
39
0
210
0
220
0
230
1
0
LINE
5
98
100
AcDbEntity
8
1
62
256
6
ByLayer
370
18
48
1
60
0
100
AcDbLine
10
55.837263
20
-4.151686
30
0
11
70.38675
21
-4.177875
31
0
39
0
210
0
220
0
230
1
0
LINE
5
99
100
AcDbEntity
8
1
62
256
6
ByLayer
370
18
48
1
60
0
100
AcDbLine
10
83.181632
20
-4.200906
30
0
11
84.134994
21
-4.202622
31
0
39
0
210
0
220
0
230
1
0
LINE
5
9A
100
AcDbEntity
8
1
62
256
6
ByLayer
370
18
48
1
60
0
100
AcDbLine
10
96.26868
20
-4.224463
30
0
11
97.516691
21
-4.226709
31
0
39
0
210
0
220
0
230
1
0
LINE
5
9B
100
AcDbEntity
8
1
62
256
6
ByLayer
370
18
48
1
60
0
100
AcDbLine
10
97.516691
20
4.226709
30
0
11
96.26868
21
4.224463
31
0
39
0
210
0
220
0
230
1
0
LINE
5
9C
100
AcDbEntity
8
1
62
256
6
ByLayer
370
18
48
1
60
0
100
AcDbLine
10
84.134994
20
4.202622
30
0
11
83.181632
21
4.200906
31
0
39
0
210
0
220
0
230
1
0
LINE
5
9D
100
AcDbEntity
8
1
62
256
6
ByLayer
370
18
48
1
60
0
100
AcDbLine
10
70.38675
20
4.177875
30
0
11
55.837263
21
4.151686
31
0
39
0
210
0
220
0
230
1
0
LINE
5
9E
100
AcDbEntity
8
1
62
256
6
ByLayer
370
18
48
1
60
0
100
AcDbLine
10
43.253649
20
4.129036
30
0
11
28.669614
21
4.102784
31
0
39
0
210
0
220
0
230
1
0
LINE
5
9F
100
AcDbEntity
8
1
62
256
6
ByLayer
370
18
48
1
60
0
100
AcDbLine
10
16.122667
20
4.0802
30
0
11
1.46176
21
4.05381
31
0
39
0
210
0
220
0
230
1
0
LINE
5
A0
100
AcDbEntity
8
SK1
62
256
6
ByLayer
370
18
48
1
60
0
100
AcDbLine
10
-40
20
-3.66
30
0
11
-38.66
21
-5
31
0
39
0
210
0
220
0
230
1
0
LINE
5
A1
100
AcDbEntity
8
SK1
62
256
6
ByLayer
370
18
48
1
60
0
100
AcDbLine
10
-38.66
20
5
30
0
11
-40
21
3.66
31
0
39
0
210
0
220
0
230
1
0
LINE
5
A2
100
AcDbEntity
8
SK1
62
256
6
ByLayer
370
18
48
1
60
0
100
AcDbLine
10
-38.66
20
-5
30
0
11
0
21
-5
31
0
39
0
210
0
220
0
230
1
0
LINE
5
A3
100
AcDbEntity
8
SK1
62
256
6
ByLayer
370
18
48
1
60
0
100
AcDbLine
10
0
20
5
30
0
11
-38.66
21
5
31
0
39
0
210
0
220
0
230
1
0
LINE
5
A4
100
AcDbEntity
8
2
62
256
6
ByLayer
370
13
48
1
60
0
100
AcDbLine
10
119.5
20
-4.25
30
0
11
119.5
21
28.549084
31
0
39
0
210
0
220
0
230
1
0
LINE
5
A6
100
AcDbEntity
8
2
62
256
6
ByLayer
370
13
48
1
60
0
100
AcDbLine
10
113.5875
20
4.25
30
0
11
121.5
21
4.25
31
0
39
0
210
0
220
0
230
1
0
LINE
5
A7
100
AcDbEntity
8
2
62
256
6
ByLayer
370
13
48
1
60
0
100
AcDbLine
10
113.5875
20
-4.25
30
0
11
121.5
21
-4.25
31
0
39
0
210
0
220
0
230
1
0
LINE
5
A8
100
AcDbEntity
8
1
62
256
6
ByLayer
370
18
48
1
60
1
100
AcDbLine
10
119.5
20
4.25
30
0
11
119.960784
21
0.750002
31
0
39
0
210
0
220
0
230
1
0
LINE
5
A9
100
AcDbEntity
8
1
62
256
6
ByLayer
370
18
48
1
60
1
100
AcDbLine
10
119.960784
20
0.750002
30
0
11
119.039216
21
0.749998
31
0
39
0
210
0
220
0
230
1
0
LINE
5
AA
100
AcDbEntity
8
1
62
256
6
ByLayer
370
18
48
1
60
1
100
AcDbLine
10
119.039216
20
0.749998
30
0
11
119.5
21
4.25
31
0
39
0
210
0
220
0
230
1
0
LINE
5
AB
100
AcDbEntity
8
1
62
256
6
ByLayer
370
18
48
1
60
1
100
AcDbLine
10
119.5
20
-4.25
30
0
11
119.039216
21
-0.750002
31
0
39
0
210
0
220
0
230
1
0
LINE
5
AC
100
AcDbEntity
8
1
62
256
6
ByLayer
370
18
48
1
60
1
100
AcDbLine
10
119.039216
20
-0.750002
30
0
11
119.960784
21
-0.749998
31
0
39
0
210
0
220
0
230
1
0
LINE
5
AD
100
AcDbEntity
8
1
62
256
6
ByLayer
370
18
48
1
60
1
100
AcDbLine
10
119.960784
20
-0.749998
30
0
11
119.5
21
-4.25
31
0
39
0
210
0
220
0
230
1
0
LINE
5
AE
100
AcDbEntity
8
SK2
62
256
6
ByLayer
370
13
48
1
60
0
100
AcDbLine
10
-48.5
20
-5
30
0
11
-48.5
21
15.333771
31
0
39
0
210
0
220
0
230
1
0
LINE
5
B0
100
AcDbEntity
8
SK2
62
256
6
ByLayer
370
13
48
1
60
0
100
AcDbLine
10
-41.5875
20
5
30
0
11
-50.5
21
5
31
0
39
0
210
0
220
0
230
1
0
LINE
5
B1
100
AcDbEntity
8
SK2
62
256
6
ByLayer
370
13
48
1
60
0
100
AcDbLine
10
-41.5875
20
-5
30
0
11
-50.5
21
-5
31
0
39
0
210
0
220
0
230
1
0
LINE
5
B2
100
AcDbEntity
8
1
62
256
6
ByLayer
370
18
48
1
60
1
100
AcDbLine
10
-48.5
20
5
30
0
11
-48.039216
21
1.500002
31
0
39
0
210
0
220
0
230
1
0
LINE
5
B3
100
AcDbEntity
8
1
62
256
6
ByLayer
370
18
48
1
60
1
100
AcDbLine
10
-48.039216
20
1.500002
30
0
11
-48.960784
21
1.499998
31
0
39
0
210
0
220
0
230
1
0
LINE
5
B4
100
AcDbEntity
8
1
62
256
6
ByLayer
370
18
48
1
60
1
100
AcDbLine
10
-48.960784
20
1.499998
30
0
11
-48.5
21
5
31
0
39
0
210
0
220
0
230
1
0
LINE
5
B5
100
AcDbEntity
8
1
62
256
6
ByLayer
370
18
48
1
60
1
100
AcDbLine
10
-48.5
20
-5
30
0
11
-48.960784
21
-1.500002
31
0
39
0
210
0
220
0
230
1
0
LINE
5
B6
100
AcDbEntity
8
1
62
256
6
ByLayer
370
18
48
1
60
1
100
AcDbLine
10
-48.960784
20
-1.500002
30
0
11
-48.039216
21
-1.499998
31
0
39
0
210
0
220
0
230
1
0
LINE
5
B7
100
AcDbEntity
8
1
62
256
6
ByLayer
370
18
48
1
60
1
100
AcDbLine
10
-48.039216
20
-1.499998
30
0
11
-48.5
21
-5
31
0
39
0
210
0
220
0
230
1
0
LINE
5
B8
100
AcDbEntity
8
SK2
62
256
6
ByLayer
370
13
48
1
60
0
100
AcDbLine
10
112.542996
20
1.491748
30
0
11
119.656529
21
21.034421
31
0
39
0
210
0
220
0
230
1
0
LINE
5
B9
100
AcDbEntity
8
SK2
62
256
6
ByLayer
370
13
48
1
60
0
100
AcDbLine
10
112.542996
20
-1.491748
30
0
11
119.656529
21
-21.034421
31
0
39
0
210
0
220
0
230
1
0
LINE
5
BA
100
AcDbEntity
8
1
62
256
6
ByLayer
370
18
48
1
60
1
100
AcDbLine
10
118.97244
20
19.155054
30
0
11
122.383069
21
18.244056
31
0
39
0
210
0
220
0
230
1
0
LINE
5
BB
100
AcDbEntity
8
1
62
256
6
ByLayer
370
18
48
1
60
1
100
AcDbLine
10
122.383069
20
18.244056
30
0
11
122.031074
21
17.39236
31
0
39
0
210
0
220
0
230
1
0
LINE
5
BC
100
AcDbEntity
8
1
62
256
6
ByLayer
370
18
48
1
60
1
100
AcDbLine
10
122.031074
20
17.39236
30
0
11
118.97244
21
19.155054
31
0
39
0
210
0
220
0
230
1
0
LINE
5
BD
100
AcDbEntity
8
1
62
256
6
ByLayer
370
18
48
1
60
1
100
AcDbLine
10
118.97244
20
-19.155054
30
0
11
122.031071
21
-17.392362
31
0
39
0
210
0
220
0
230
1
0
LINE
5
BE
100
AcDbEntity
8
1
62
256
6
ByLayer
370
18
48
1
60
1
100
AcDbLine
10
122.031071
20
-17.392362
30
0
11
122.383072
21
-18.244055
31
0
39
0
210
0
220
0
230
1
0
LINE
5
BF
100
AcDbEntity
8
1
62
256
6
ByLayer
370
18
48
1
60
1
100
AcDbLine
10
122.383072
20
-18.244055
30
0
11
118.97244
21
-19.155054
31
0
39
0
210
0
220
0
230
1
0
LINE
5
112
100
AcDbEntity
8
1
62
256
6
ByLayer
370
13
48
0.05
60
0
100
AcDbLine
10
-46.5
20
0
30
0
11
116.945768
21
0
31
0
39
0
210
0
220
0
230
1
0
LINE
5
117
100
AcDbEntity
8
1
62
256
6
ByLayer
370
18
48
1
60
1
100
AcDbLine
10
119.5
20
4.25
30
0
11
119.960784
21
0.750002
31
0
39
0
210
0
220
0
230
1
0
LINE
5
118
100
AcDbEntity
8
1
62
256
6
ByLayer
370
18
48
1
60
1
100
AcDbLine
10
119.960784
20
0.750002
30
0
11
119.039216
21
0.749998
31
0
39
0
210
0
220
0
230
1
0
LINE
5
119
100
AcDbEntity
8
1
62
256
6
ByLayer
370
18
48
1
60
1
100
AcDbLine
10
119.039216
20
0.749998
30
0
11
119.5
21
4.25
31
0
39
0
210
0
220
0
230
1
0
LINE
5
11B
100
AcDbEntity
8
1
62
256
6
ByLayer
370
18
48
1
60
1
100
AcDbLine
10
119.5
20
-4.25
30
0
11
119.039216
21
-0.750002
31
0
39
0
210
0
220
0
230
1
0
LINE
5
11C
100
AcDbEntity
8
1
62
256
6
ByLayer
370
18
48
1
60
1
100
AcDbLine
10
119.039216
20
-0.750002
30
0
11
119.960784
21
-0.749998
31
0
39
0
210
0
220
0
230
1
0
LINE
5
11D
100
AcDbEntity
8
1
62
256
6
ByLayer
370
18
48
1
60
1
100
AcDbLine
10
119.960784
20
-0.749998
30
0
11
119.5
21
-4.25
31
0
39
0
210
0
220
0
230
1
0
LINE
5
121
100
AcDbEntity
8
1
62
256
6
ByLayer
370
18
48
1
60
1
100
AcDbLine
10
-48.5
20
5
30
0
11
-48.039216
21
1.500002
31
0
39
0
210
0
220
0
230
1
0
LINE
5
122
100
AcDbEntity
8
1
62
256
6
ByLayer
370
18
48
1
60
1
100
AcDbLine
10
-48.039216
20
1.500002
30
0
11
-48.960784
21
1.499998
31
0
39
0
210
0
220
0
230
1
0
LINE
5
123
100
AcDbEntity
8
1
62
256
6
ByLayer
370
18
48
1
60
1
100
AcDbLine
10
-48.960784
20
1.499998
30
0
11
-48.5
21
5
31
0
39
0
210
0
220
0
230
1
0
LINE
5
125
100
AcDbEntity
8
1
62
256
6
ByLayer
370
18
48
1
60
1
100
AcDbLine
10
-48.5
20
-5
30
0
11
-48.960784
21
-1.500002
31
0
39
0
210
0
220
0
230
1
0
LINE
5
126
100
AcDbEntity
8
1
62
256
6
ByLayer
370
18
48
1
60
1
100
AcDbLine
10
-48.960784
20
-1.500002
30
0
11
-48.039216
21
-1.499998
31
0
39
0
210
0
220
0
230
1
0
LINE
5
127
100
AcDbEntity
8
1
62
256
6
ByLayer
370
18
48
1
60
1
100
AcDbLine
10
-48.039216
20
-1.499998
30
0
11
-48.5
21
-5
31
0
39
0
210
0
220
0
230
1
0
LINE
5
12A
100
AcDbEntity
8
1
62
256
6
ByLayer
370
18
48
1
60
1
100
AcDbLine
10
118.97244
20
19.155054
30
0
11
122.383069
21
18.244056
31
0
39
0
210
0
220
0
230
1
0
LINE
5
12B
100
AcDbEntity
8
1
62
256
6
ByLayer
370
18
48
1
60
1
100
AcDbLine
10
122.383069
20
18.244056
30
0
11
122.031074
21
17.39236
31
0
39
0
210
0
220
0
230
1
0
LINE
5
12C
100
AcDbEntity
8
1
62
256
6
ByLayer
370
18
48
1
60
1
100
AcDbLine
10
122.031074
20
17.39236
30
0
11
118.97244
21
19.155054
31
0
39
0
210
0
220
0
230
1
0
LINE
5
12E
100
AcDbEntity
8
1
62
256
6
ByLayer
370
18
48
1
60
1
100
AcDbLine
10
118.97244
20
-19.155054
30
0
11
122.031071
21
-17.392362
31
0
39
0
210
0
220
0
230
1
0
LINE
5
12F
100
AcDbEntity
8
1
62
256
6
ByLayer
370
18
48
1
60
1
100
AcDbLine
10
122.031071
20
-17.392362
30
0
11
122.383072
21
-18.244055
31
0
39
0
210
0
220
0
230
1
0
LINE
5
130
100
AcDbEntity
8
1
62
256
6
ByLayer
370
18
48
1
60
1
100
AcDbLine
10
122.383072
20
-18.244055
30
0
11
118.97244
21
-19.155054
31
0
39
0
210
0
220
0
230
1
0
MTEXT
5
113
100
AcDbEntity
8
2
62
256
6
ByLayer
370
18
48
1
60
0
100
AcDbMText
10
118.158886
20
17.908438
30
0
210
0
220
0
230
1
1
%%c
40
3
41
0
44
1.084337
50
90
71
7
72
5
7
iso_b_vert
0
MTEXT
5
116
100
AcDbEntity
8
2
62
256
6
ByLayer
370
18
48
1
60
0
100
AcDbMText
10
118.158886
20
23.885
30
0
210
0
220
0
230
1
1
\W0.7121;8.5
40
3
41
0
44
1.084337
50
90
71
7
72
5
7
iso_b_vert
0
MTEXT
5
11F
100
AcDbEntity
8
SK2
62
256
6
ByLayer
370
18
48
1
60
0
100
AcDbMText
10
-49.841114
20
6.658437
30
0
210
0
220
0
230
1
1
%%c
40
3
41
0
44
1.084337
50
90
71
7
72
5
7
iso_b_vert
0
MTEXT
5
120
100
AcDbEntity
8
SK2
62
256
6
ByLayer
370
18
48
1
60
0
100
AcDbMText
10
-49.841114
20
12.635
30
0
210
0
220
0
230
1
1
\W0.5321;10
40
3
41
0
44
1.084337
50
90
71
7
72
5
7
iso_b_vert
0
MTEXT
5
129
100
AcDbEntity
8
SK2
62
256
6
ByLayer
370
18
48
1
60
0
100
AcDbMText
10
128.943921
20
-2.114886
30
0
210
0
220
0
230
1
1
\W0.7071;140%%d
40
3
41
0
44
1.084337
50
0
71
7
72
5
7
iso_b_vert
0
MTEXT
5
132
100
AcDbEntity
8
SK6
62
256
6
ByLayer
370
18
48
1
60
0
100
AcDbMText
10
11.901522
20
-77.114886
30
0
210
0
220
0
230
1
1
\W0.7522;860.1-0850-069A1-SD S2BM
40
3
41
0
44
1.084337
50
0
71
7
72
5
7
iso_b_vert
0
HATCH
5
11A
100
AcDbEntity
8
2
62
256
6
ByLayer
370
13
48
1
60
0
100
AcDbHatch
10
0
20
0
30
0
210
0
220
0
230
1
2
ANSI31
70
0
71
0
91
1
92
5
93
3
72
1
10
119.5
20
4.25
11
119.960783741553
21
0.750001692553184
72
1
10
119.960783741553
20
0.750001692553184
11
119.039216258447
21
0.749998307446816
72
1
10
119.039216258447
20
0.749998307446816
11
119.5
21
4.25
97
0
75
0
76
1
52
0
41
0.0062
77
0
78
1
53
45
43
0
44
0
45
-0.0139193969876572
46
0.0139193969876572
79
0
47
0
98
1
10
0
20
0
0
HATCH
5
11E
100
AcDbEntity
8
2
62
256
6
ByLayer
370
13
48
1
60
0
100
AcDbHatch
10
0
20
0
30
0
210
0
220
0
230
1
2
ANSI31
70
0
71
0
91
1
92
5
93
3
72
1
10
119.5
20
-4.25
11
119.039216258447
21
-0.750001692553184
72
1
10
119.039216258447
20
-0.750001692553184
11
119.960783741553
21
-0.749998307446816
72
1
10
119.960783741553
20
-0.749998307446816
11
119.5
21
-4.25
97
0
75
0
76
1
52
0
41
0.0062
77
0
78
1
53
45
43
0
44
0
45
-0.0139193969876572
46
0.0139193969876572
79
0
47
0
98
1
10
0
20
0
0
HATCH
5
124
100
AcDbEntity
8
SK2
62
256
6
ByLayer
370
13
48
1
60
0
100
AcDbHatch
10
0
20
0
30
0
210
0
220
0
230
1
2
ANSI31
70
0
71
0
91
1
92
5
93
3
72
1
10
-48.5
20
5
11
-48.0392162584472
21
1.50000169255318
72
1
10
-48.0392162584472
20
1.50000169255318
11
-48.9607837415528
21
1.49999830744682
72
1
10
-48.9607837415528
20
1.49999830744682
11
-48.5
21
5
97
0
75
0
76
1
52
0
41
0.0062
77
0
78
1
53
45
43
0
44
0
45
-0.0139193969876572
46
0.0139193969876572
79
0
47
0
98
1
10
0
20
0
0
HATCH
5
128
100
AcDbEntity
8
SK2
62
256
6
ByLayer
370
13
48
1
60
0
100
AcDbHatch
10
0
20
0
30
0
210
0
220
0
230
1
2
ANSI31
70
0
71
0
91
1
92
5
93
3
72
1
10
-48.5
20
-5
11
-48.9607837415528
21
-1.50000169255318
72
1
10
-48.9607837415528
20
-1.50000169255318
11
-48.0392162584472
21
-1.49999830744682
72
1
10
-48.0392162584472
20
-1.49999830744682
11
-48.5
21
-5
97
0
75
0
76
1
52
0
41
0.0062
77
0
78
1
53
45
43
0
44
0
45
-0.0139193969876572
46
0.0139193969876572
79
0
47
0
98
1
10
0
20
0
0
HATCH
5
12D
100
AcDbEntity
8
SK2
62
256
6
ByLayer
370
13
48
1
60
0
100
AcDbHatch
10
0
20
0
30
0
210
0
220
0
230
1
2
ANSI31
70
0
71
0
91
1
92
5
93
3
72
1
10
118.972439683783
20
19.1550540763262
11
122.383069099691
21
18.2440563837106
72
1
10
122.383069099691
20
18.2440563837106
11
122.031074075448
21
17.3923603529362
72
1
10
122.031074075448
20
17.3923603529362
11
118.972439683783
21
19.1550540763262
97
0
75
0
76
1
52
0
41
0.0062
77
0
78
1
53
45
43
0
44
0
45
-0.0139193969876572
46
0.0139193969876572
79
0
47
0
98
1
10
0
20
0
0
HATCH
5
131
100
AcDbEntity
8
SK2
62
256
6
ByLayer
370
13
48
1
60
0
100
AcDbHatch
10
0
20
0
30
0
210
0
220
0
230
1
2
ANSI31
70
0
71
0
91
1
92
5
93
3
72
1
10
118.972439683783
20
-19.1550540763262
11
122.031070946998
21
-17.3923616458976
72
1
10
122.031070946998
20
-17.3923616458976
11
122.383072228141
21
-18.2440550907492
72
1
10
122.383072228141
20
-18.2440550907492
11
118.972439683783
21
-19.1550540763262
97
0
75
0
76
1
52
0
41
0.0062
77
0
78
1
53
45
43
0
44
0
45
-0.0139193969876572
46
0.0139193969876572
79
0
47
0
98
1
10
0
20
0
0
DIMENSION
5
135
100
AcDbEntity
8
SK2
62
256
6
ByLayer
370
18
48
1
60
0
100
AcDbDimension
2
_U0
10
42.5
20
-21.613131
30
0
11
77.25
21
-21.613131
31
0
70
32
71
1
72
1
41
1
210
0
220
0
230
1
3
Standard
100
AcDbAlignedDimension
13
112
23
-4.25
33
0
14
42.5
24
-4.25
34
0
50
0
100
AcDbRotatedDimension
1001
ACAD
1000
DSTYLE
1002
{
1070
   371
1070
    13
1070
   372
1070
    13
1070
   170
1070
     0
1070
   144
1040
1.0
1070
   277
1070
     2
1070
   284
1070
     8
1070
   278
1070
    46
1070
   146
1040
1.166667
1070
   345
1005
16
1070
   347
1005
16
1070
   346
1005
16
1070
   344
1005
0
1070
   343
1005
0
1070
   172
1070
     1
1070
    76
1070
     0
1070
    75
1070
     0
1070
   282
1070
     0
1070
   281
1070
     0
1070
     3
1000

1070
    71
1070
     0
1070
    74
1070
     0
1070
   279
1070
     0
1070
   173
1070
     1
1070
   340
1005
114
1070
   271
1070
     2
1070
   272
1070
     2
1070
    77
1070
     1
1070
    73
1070
     1
1070
   171
1070
     3
1070
   274
1070
     4
1070
   177
1070
     2
1070
   176
1070
     2
1070
   178
1070
     2
1070
    78
1070
     8
1070
    48
1040
-0.1
1070
    41
1040
3.5
1070
   147
1040
1.5
1070
    42
1040
1.5875
1070
    44
1040
2.0
1070
   140
1040
3.0
1002
}
1001
ACAD_DSTYLE_DIM_LINETYPE
1070
   380
1005
16
1001
ACAD_DSTYLE_DIM_EXT1_LINETYPE
1070
   381
1005
16
1001
ACAD_DSTYLE_DIM_EXT2_LINETYPE
1070
   382
1005
16
0
DIMENSION
5
150
100
AcDbEntity
8
SK2
62
256
6
ByLayer
370
18
48
1
60
0
100
AcDbDimension
2
_U1
10
6
20
-31.613131
30
0
11
59
21
-31.613131
31
0
70
32
71
1
72
1
41
1
210
0
220
0
230
1
3
Standard
100
AcDbAlignedDimension
13
112
23
-4.25
33
0
14
6
24
-4.25
34
0
50
0
100
AcDbRotatedDimension
1001
ACAD
1000
DSTYLE
1002
{
1070
   371
1070
    13
1070
   372
1070
    13
1070
     3
1000

1070
   170
1070
     0
1070
   144
1040
1.0
1070
   277
1070
     2
1070
   284
1070
     8
1070
   278
1070
    46
1070
   146
1040
1.166667
1070
   345
1005
16
1070
   347
1005
16
1070
   346
1005
16
1070
   344
1005
0
1070
   343
1005
0
1070
   172
1070
     1
1070
    76
1070
     0
1070
    75
1070
     0
1070
   282
1070
     0
1070
   281
1070
     0
1070
    71
1070
     0
1070
    74
1070
     0
1070
   279
1070
     0
1070
   173
1070
     1
1070
   340
1005
114
1070
   271
1070
     2
1070
   272
1070
     2
1070
    77
1070
     1
1070
    73
1070
     1
1070
   171
1070
     3
1070
   274
1070
     4
1070
   177
1070
     2
1070
   176
1070
     2
1070
   178
1070
     2
1070
    78
1070
     8
1070
    48
1040
-0.1
1070
    41
1040
3.5
1070
   147
1040
1.5
1070
    42
1040
1.5875
1070
    44
1040
2.0
1070
   140
1040
3.0
1002
}
1001
ACAD_DSTYLE_DIM_LINETYPE
1070
   380
1005
16
1001
ACAD_DSTYLE_DIM_EXT1_LINETYPE
1070
   381
1005
16
1001
ACAD_DSTYLE_DIM_EXT2_LINETYPE
1070
   382
1005
16
0
DIMENSION
5
168
100
AcDbEntity
8
SK2
62
256
6
ByLayer
370
18
48
1
60
0
100
AcDbDimension
2
_U2
10
0
20
-39.613131
30
0
11
-20
21
-39.613131
31
0
70
32
71
1
72
1
41
1
210
0
220
0
230
1
3
Standard
100
AcDbAlignedDimension
13
-40
23
-5
33
0
14
0
24
-5
34
0
50
0
100
AcDbRotatedDimension
1001
ACAD
1000
DSTYLE
1002
{
1070
   371
1070
    13
1070
   372
1070
    13
1070
     3
1000

1070
   170
1070
     0
1070
   144
1040
1.0
1070
   277
1070
     2
1070
   284
1070
     8
1070
   278
1070
    46
1070
   146
1040
1.166667
1070
   345
1005
16
1070
   347
1005
16
1070
   346
1005
16
1070
   344
1005
0
1070
   343
1005
0
1070
   172
1070
     1
1070
    76
1070
     0
1070
    75
1070
     0
1070
   282
1070
     0
1070
   281
1070
     0
1070
    71
1070
     0
1070
    74
1070
     0
1070
   279
1070
     0
1070
   173
1070
     1
1070
   340
1005
114
1070
   271
1070
     2
1070
   272
1070
     2
1070
    77
1070
     1
1070
    73
1070
     1
1070
   171
1070
     3
1070
   274
1070
     4
1070
   177
1070
     2
1070
   176
1070
     2
1070
   178
1070
     2
1070
    78
1070
     8
1070
    48
1040
-0.1
1070
    41
1040
3.5
1070
   147
1040
1.5
1070
    42
1040
1.5875
1070
    44
1040
2.0
1070
   140
1040
3.0
1002
}
1001
ACAD_DSTYLE_DIM_LINETYPE
1070
   380
1005
16
1001
ACAD_DSTYLE_DIM_EXT1_LINETYPE
1070
   381
1005
16
1001
ACAD_DSTYLE_DIM_EXT2_LINETYPE
1070
   382
1005
16
0
DIMENSION
5
180
100
AcDbEntity
8
SK2
62
256
6
ByLayer
370
18
48
1
60
0
100
AcDbDimension
2
_U3
10
112
20
-47.613131
30
0
11
36
21
-47.613131
31
0
70
32
71
1
72
1
41
1
210
0
220
0
230
1
3
Standard
100
AcDbAlignedDimension
13
-40
23
-5
33
0
14
112
24
-4.25
34
0
50
0
100
AcDbRotatedDimension
1001
ACAD
1000
DSTYLE
1002
{
1070
   371
1070
    13
1070
   372
1070
    13
1070
     3
1000

1070
   170
1070
     0
1070
   144
1040
1.0
1070
   277
1070
     2
1070
   284
1070
     8
1070
   278
1070
    46
1070
   146
1040
1.166667
1070
   345
1005
16
1070
   347
1005
16
1070
   346
1005
16
1070
   344
1005
0
1070
   343
1005
0
1070
   172
1070
     1
1070
    76
1070
     0
1070
    75
1070
     0
1070
   282
1070
     0
1070
   281
1070
     0
1070
    71
1070
     0
1070
    74
1070
     0
1070
   279
1070
     0
1070
   173
1070
     1
1070
   340
1005
114
1070
   271
1070
     2
1070
   272
1070
     2
1070
    77
1070
     1
1070
    73
1070
     1
1070
   171
1070
     3
1070
   274
1070
     4
1070
   177
1070
     2
1070
   176
1070
     2
1070
   178
1070
     2
1070
    78
1070
     8
1070
    48
1040
-0.1
1070
    41
1040
3.5
1070
   147
1040
1.5
1070
    42
1040
1.5875
1070
    44
1040
2.0
1070
   140
1040
3.0
1002
}
1001
ACAD_DSTYLE_DIM_LINETYPE
1070
   380
1005
16
1001
ACAD_DSTYLE_DIM_EXT1_LINETYPE
1070
   381
1005
16
1001
ACAD_DSTYLE_DIM_EXT2_LINETYPE
1070
   382
1005
16
0
DIMENSION
5
198
100
AcDbEntity
8
2
62
256
6
ByLayer
370
18
48
1
60
0
100
AcDbDimension
2
_U4
10
0
20
-39.613131
30
0
11
56
21
-39.613131
31
0
70
32
71
1
72
1
41
1
210
0
220
0
230
1
3
Standard
100
AcDbAlignedDimension
13
112
23
-4.25
33
0
14
0
24
-4.25
34
0
50
0
100
AcDbRotatedDimension
1001
ACAD
1000
DSTYLE
1002
{
1070
   371
1070
    13
1070
   372
1070
    13
1070
     3
1000

1070
   170
1070
     0
1070
   144
1040
1.0
1070
   277
1070
     2
1070
   284
1070
     8
1070
   278
1070
    46
1070
   146
1040
1.166667
1070
   345
1005
16
1070
   347
1005
16
1070
   346
1005
16
1070
   344
1005
0
1070
   343
1005
0
1070
   172
1070
     1
1070
    76
1070
     0
1070
    75
1070
     0
1070
   282
1070
     0
1070
   281
1070
     0
1070
    71
1070
     0
1070
    74
1070
     0
1070
   279
1070
     0
1070
   173
1070
     1
1070
   340
1005
114
1070
   271
1070
     2
1070
   272
1070
     2
1070
    77
1070
     1
1070
    73
1070
     1
1070
   171
1070
     3
1070
   274
1070
     4
1070
   177
1070
     2
1070
   176
1070
     2
1070
   178
1070
     2
1070
    78
1070
     8
1070
    48
1040
-0.1
1070
    41
1040
3.5
1070
   147
1040
1.5
1070
    42
1040
1.5875
1070
    44
1040
2.0
1070
   140
1040
3.0
1002
}
1001
ACAD_DSTYLE_DIM_LINETYPE
1070
   380
1005
16
1001
ACAD_DSTYLE_DIM_EXT1_LINETYPE
1070
   381
1005
16
1001
ACAD_DSTYLE_DIM_EXT2_LINETYPE
1070
   382
1005
16
0
ENDSEC
0
SECTION
2
OBJECTS
0
DICTIONARY
5
220
330
0
100
AcDbDictionary
280
0
281
1
3
ACAD_GROUP
350
221
3
ACAD_MLINESTYLE
350
222
0
DICTIONARY
5
221
330
0
100
AcDbDictionary
280
0
281
1
0
DICTIONARY
5
222
330
0
100
AcDbDictionary
280
0
281
1
3
Standard
350
18
0
MLINESTYLE
5
18
330
222
100
AcDbMlineStyle
2
Standard
70
0
3

62
256
51
90
52
90
71
2
49
-0.5
62
256
6
ByLayer
49
0.5
62
256
6
ByLayer
0
RASTERVARIABLES
5
20e
330

100
AcDbRasterVariables
90
0
70
1
71
1
72
1
0
ENDSEC
0
EOF
