0
SECTION
2
HEADER
9
$ACADVER
1
AC1015
9
$DWGCODEPAGE
3
ANSI_1252
9
$HANDSEED
5
22a
9
$ANGBASE
50
0
9
$ANGDIR
70
0
9
$ATTMODE
70
1
9
$AUNITS
70
0
9
$AUPREC
70
0
9
$CECOLOR
62
256
9
$CELTSCALE
40
1
9
$CELTYPE
6
ByLayer
9
$CELWEIGHT
370
18
9
$CLAYER
8
0
9
$CMLJUST
70
0
9
$CMLSCALE
40
1
9
$CMLSTYLE
2
Standard
9
$DIMSTYLE
2
Standard
9
$TEXTSIZE
40
0.2
9
$TEXTSTYLE
7
Standard
9
$LUNITS
70
2
9
$LUPREC
70
4
9
$EXTNAMES
290
1
9
$INSUNITS
70
4
9
$LTSCALE
40
1
9
$LWDISPLAY
290
1
9
$PDMODE
70
0
9
$PDSIZE
40
0
9
$PLINEGEN
70
0
0
ENDSEC
0
SECTION
2
CLASSES
0
CLASS
1
RASTERVARIABLES
2
AcDbRasterVariables
3
ISM
90
0
280
0
281
0
0
ENDSEC
0
SECTION
2
TABLES
0
TABLE
2
VPORT
5
220
100
AcDbSymbolTable
0
VPORT
5
1
100
AcDbSymbolTableRecord
100
AcDbViewportTableRecord
2
*Active
70
0
10
0
20
0
11
1
21
1
12
-1
22
1
13
0
23
0
14
0.5
24
0.5
15
10
25
10
16
0
26
0
36
1
17
0
27
0
37
0
0
ENDTAB
0
TABLE
2
LTYPE
5
221
100
AcDbSymbolTable
0
LTYPE
5
14
100
AcDbSymbolTableRecord
100
AcDbLinetypeTableRecord
70
0
2
ByBlock
3

72
65
73
0
40
0
0
LTYPE
5
15
100
AcDbSymbolTableRecord
100
AcDbLinetypeTableRecord
70
0
2
ByLayer
3

72
65
73
0
40
0
0
LTYPE
5
16
100
AcDbSymbolTableRecord
100
AcDbLinetypeTableRecord
70
0
2
Continuous
3
Solid line
72
65
73
0
40
0
0
LTYPE
5
6E
100
AcDbSymbolTableRecord
100
AcDbLinetypeTableRecord
70
0
2
CENTER
3
____ _ ____ _ ____ _ ____
72
65
73
4
40
47.5
49
22
74
0
49
-8.5
74
0
49
8.5
74
0
49
-8.5
74
0
0
LTYPE
5
6F
100
AcDbSymbolTableRecord
100
AcDbLinetypeTableRecord
70
0
2
DASHED
3
__ __ __ __ __ __ __ __ __
72
65
73
2
40
25.72
49
12.86
74
0
49
-12.86
74
0
0
ENDTAB
0
TABLE
2
LAYER
5
222
100
AcDbSymbolTable
0
LAYER
5
10
100
AcDbSymbolTableRecord
100
AcDbLayerTableRecord
2
0
70
0
62
7
6
Continuous
290
1
370
-3
390
0
0
LAYER
5
71
100
AcDbSymbolTableRecord
100
AcDbLayerTableRecord
2
80
70
0
62
-6
6
Continuous
290
1
370
-3
390
0
0
LAYER
5
73
100
AcDbSymbolTableRecord
100
AcDbLayerTableRecord
2
81
70
0
62
-3
6
Continuous
290
1
370
-3
390
0
0
LAYER
5
75
100
AcDbSymbolTableRecord
100
AcDbLayerTableRecord
2
1
70
0
62
4
6
Continuous
290
1
370
-3
390
0
0
LAYER
5
83
100
AcDbSymbolTableRecord
100
AcDbLayerTableRecord
2
4
70
0
62
-2
6
CENTER
290
1
370
-3
390
0
0
LAYER
5
A3
100
AcDbSymbolTableRecord
100
AcDbLayerTableRecord
2
2
70
0
62
7
6
Continuous
290
1
370
-3
390
0
0
LAYER
5
135
100
AcDbSymbolTableRecord
100
AcDbLayerTableRecord
2
Defpoints
70
0
62
7
6
Continuous
290
0
370
-3
390
0
0
LAYER
5
20c
100
AcDbSymbolTableRecord
100
AcDbLayerTableRecord
2
SK4
70
0
62
2
6
CENTER
290
1
370
-3
390
0
0
LAYER
5
20d
100
AcDbSymbolTableRecord
100
AcDbLayerTableRecord
2
SK1
70
0
62
4
6
Continuous
290
1
370
-3
390
0
0
LAYER
5
20e
100
AcDbSymbolTableRecord
100
AcDbLayerTableRecord
2
SK2
70
0
62
7
6
Continuous
290
1
370
-3
390
0
0
LAYER
5
20f
100
AcDbSymbolTableRecord
100
AcDbLayerTableRecord
2
SK6
70
0
62
5
6
Continuous
290
1
370
-3
390
0
0
ENDTAB
0
TABLE
2
STYLE
5
223
100
AcDbSymbolTable
0
STYLE
5
11
100
AcDbSymbolTableRecord
100
AcDbTextStyleTableRecord
2
Standard
3
txt
70
0
71
0
40
0
41
1
42
0
50
0
0
STYLE
5
111
100
AcDbSymbolTableRecord
100
AcDbTextStyleTableRecord
2
iso_b_vert
3
simplex.shx
70
0
71
0
40
0
41
1
42
0
50
0
0
STYLE
5
112
100
AcDbSymbolTableRecord
100
AcDbTextStyleTableRecord
2
DWGDirectTextStyle
3
simplex
70
0
71
0
40
0
41
1
42
0
50
0
0
ENDTAB
0
TABLE
2
DIMSTYLE
5
224
100
AcDbSymbolTable
100
AcDbDimStyleTable
0
DIMSTYLE
105
27
100
AcDbSymbolTableRecord
100
AcDbDimStyleTableRecord
2
Standard
70
0
3
<>
41
0.18
42
0.0625
44
0.18
140
0.18
147
0.09
73
0
74
0
77
1
271
2
275
0
278
52
280
0
340
11
0
ENDTAB
0
TABLE
2
VIEW
5
225
100
AcDbSymbolTable
0
ENDTAB
0
TABLE
2
UCS
5
226
100
AcDbSymbolTable
0
ENDTAB
0
TABLE
2
APPID
5
227
100
AcDbSymbolTable
0
APPID
5
12
100
AcDbSymbolTableRecord
100
AcDbRegAppTableRecord
2
ACAD
70
0
0
APPID
5
131
100
AcDbSymbolTableRecord
100
AcDbRegAppTableRecord
2
ACAD_DSTYLE_DIMBREAK
70
0
0
APPID
5
1CB
100
AcDbSymbolTableRecord
100
AcDbRegAppTableRecord
2
ACAD_DSTYLE_DIM_LINETYPE
70
0
0
APPID
5
1CC
100
AcDbSymbolTableRecord
100
AcDbRegAppTableRecord
2
ACAD_DSTYLE_DIM_EXT1_LINETYPE
70
0
0
APPID
5
1CD
100
AcDbSymbolTableRecord
100
AcDbRegAppTableRecord
2
ACAD_DSTYLE_DIM_EXT2_LINETYPE
70
0
0
APPID
5
208
100
AcDbSymbolTableRecord
100
AcDbRegAppTableRecord
2
ACAD_MLEADERVER
70
0
0
ENDTAB
0
TABLE
2
BLOCK_RECORD
5
228
100
AcDbSymbolTable
0
BLOCK_RECORD
5
1F
100
AcDbSymbolTableRecord
100
AcDbBlockTableRecord
2
*Model_Space
340
0
70
0
0
BLOCK_RECORD
5
1B
100
AcDbSymbolTableRecord
100
AcDbBlockTableRecord
2
*Paper_Space
340
0
70
0
0
BLOCK_RECORD
5
23
100
AcDbSymbolTableRecord
100
AcDbBlockTableRecord
2
*Paper_Space0
340
0
70
0
0
BLOCK_RECORD
5
136
100
AcDbSymbolTableRecord
100
AcDbBlockTableRecord
2
*D1
340
0
70
0
0
BLOCK_RECORD
5
142
100
AcDbSymbolTableRecord
100
AcDbBlockTableRecord
2
_U0
340
0
70
0
0
BLOCK_RECORD
5
150
100
AcDbSymbolTableRecord
100
AcDbBlockTableRecord
2
*D3
340
0
70
0
0
BLOCK_RECORD
5
15C
100
AcDbSymbolTableRecord
100
AcDbBlockTableRecord
2
_U1
340
0
70
0
0
BLOCK_RECORD
5
168
100
AcDbSymbolTableRecord
100
AcDbBlockTableRecord
2
*D5
340
0
70
0
0
BLOCK_RECORD
5
174
100
AcDbSymbolTableRecord
100
AcDbBlockTableRecord
2
_U2
340
0
70
0
0
BLOCK_RECORD
5
180
100
AcDbSymbolTableRecord
100
AcDbBlockTableRecord
2
*D7
340
0
70
0
0
BLOCK_RECORD
5
18C
100
AcDbSymbolTableRecord
100
AcDbBlockTableRecord
2
_U3
340
0
70
0
0
BLOCK_RECORD
5
198
100
AcDbSymbolTableRecord
100
AcDbBlockTableRecord
2
*D9
340
0
70
0
0
BLOCK_RECORD
5
1A4
100
AcDbSymbolTableRecord
100
AcDbBlockTableRecord
2
_U4
340
0
70
0
0
ENDTAB
0
ENDSEC
0
SECTION
2
BLOCKS
0
BLOCK
5
20
100
AcDbEntity
8
0
100
AcDbBlockBegin
2
*Model_Space
70
0
10
0
20
0
30
0
3
*Model_Space
0
ENDBLK
5
21
100
AcDbEntity
8
0
100
AcDbBlockEnd
0
BLOCK
5
1C
100
AcDbEntity
8
0
100
AcDbBlockBegin
2
*Paper_Space
70
0
10
0
20
0
30
0
3
*Paper_Space
0
ENDBLK
5
1D
100
AcDbEntity
8
0
100
AcDbBlockEnd
0
BLOCK
5
24
100
AcDbEntity
8
0
100
AcDbBlockBegin
2
*Paper_Space0
70
0
10
0
20
0
30
0
3
*Paper_Space0
0
ENDBLK
5
25
100
AcDbEntity
8
0
100
AcDbBlockEnd
0
BLOCK
5
137
100
AcDbEntity
8
0
100
AcDbBlockBegin
2
*D1
70
1
10
0
20
0
30
0
3
*D1
0
LINE
5
139
100
AcDbEntity
8
0
62
256
6
ByLayer
370
-2
48
1
60
0
100
AcDbLine
10
63
20
-5.8375
30
0
11
63
21
-26.891688
31
0
39
0
210
0
220
0
230
1
0
LINE
5
13A
100
AcDbEntity
8
0
62
256
6
ByLayer
370
-2
48
1
60
0
100
AcDbLine
10
19
20
-5.8375
30
0
11
19
21
-26.891688
31
0
39
0
210
0
220
0
230
1
0
LINE
5
13B
100
AcDbEntity
8
0
62
256
6
ByLayer
370
-2
48
1
60
0
100
AcDbLine
10
59.5
20
-24.891688
30
0
11
22.5
21
-24.891688
31
0
39
0
210
0
220
0
230
1
0
SOLID
5
13C
100
AcDbEntity
8
0
62
256
6
ByLayer
370
-1
48
1
60
0
100
AcDbTrace
10
59.5
20
-25.475021
30
0
11
59.5
21
-24.308354
31
0
12
63
22
-24.891688
32
0
13
63
23
-24.891688
33
0
39
0
210
0
220
0
230
1
0
SOLID
5
13D
100
AcDbEntity
8
0
62
256
6
ByLayer
370
-1
48
1
60
0
100
AcDbTrace
10
22.5
20
-24.308354
30
0
11
22.5
21
-25.475021
31
0
12
19
22
-24.891688
32
0
13
19
23
-24.891688
33
0
39
0
210
0
220
0
230
1
0
MTEXT
5
13E
100
AcDbEntity
8
0
62
256
6
ByLayer
370
18
48
1
60
0
100
AcDbMText
10
41
20
-18.891688
30
0
210
0
220
0
230
1
1
\A1;44
40
3
41
0
44
1
50
0
71
5
72
5
7
iso_b_vert
0
POINT
5
13F
100
AcDbEntity
8
Defpoints
62
0
6
ByLayer
370
-1
48
1
60
0
100
AcDbPoint
10
63
20
-4.25
30
0
39
0
210
0
220
0
230
1
50
360
0
POINT
5
140
100
AcDbEntity
8
Defpoints
62
0
6
ByLayer
370
-1
48
1
60
0
100
AcDbPoint
10
19
20
-4.25
30
0
39
0
210
0
220
0
230
1
50
360
0
POINT
5
141
100
AcDbEntity
8
Defpoints
62
0
6
ByLayer
370
-1
48
1
60
0
100
AcDbPoint
10
19
20
-24.891688
30
0
39
0
210
0
220
0
230
1
50
360
0
ENDBLK
5
138
100
AcDbEntity
8
0
100
AcDbBlockEnd
0
BLOCK
5
14B
100
AcDbEntity
8
0
100
AcDbBlockBegin
2
_U0
70
0
10
0
20
0
30
0
3
_U0
0
MTEXT
5
143
100
AcDbEntity
8
SK2
62
256
6
ByLayer
370
18
48
1
60
0
100
AcDbMText
10
39.051286
20
-22.694073
30
0
210
0
220
0
230
1
1
\W0.7685;44
40
3
41
0
44
1.084337
50
0
71
7
72
5
7
iso_b_vert
0
MTEXT
5
144
100
AcDbEntity
8
SK2
62
256
6
ByLayer
370
18
48
1
60
0
100
AcDbMText
10
36.951286
20
-22.694073
30
0
210
0
220
0
230
1
1
\W1.1313;{\H1.88x;(}
40
3
41
0
44
1.084337
50
0
71
7
72
5
7
iso_b_vert
0
MTEXT
5
145
100
AcDbEntity
8
SK2
62
256
6
ByLayer
370
18
48
1
60
0
100
AcDbMText
10
43.266714
20
-22.694073
30
0
210
0
220
0
230
1
1
\W1.1313;{\H1.88x;)}
40
3
41
0
44
1.084337
50
0
71
7
72
5
7
iso_b_vert
0
LINE
5
146
100
AcDbEntity
8
SK2
62
256
6
ByLayer
370
13
48
1
60
0
100
AcDbLine
10
63
20
-5.8375
30
0
11
63
21
-26.891688
31
0
39
0
210
0
220
0
230
1
0
LINE
5
147
100
AcDbEntity
8
SK2
62
256
6
ByLayer
370
13
48
1
60
0
100
AcDbLine
10
19
20
-5.8375
30
0
11
19
21
-26.891688
31
0
39
0
210
0
220
0
230
1
0
LINE
5
148
100
AcDbEntity
8
SK2
62
256
6
ByLayer
370
13
48
1
60
0
100
AcDbLine
10
63
20
-24.891688
30
0
11
19
21
-24.891688
31
0
39
0
210
0
220
0
230
1
0
SOLID
5
149
100
AcDbEntity
8
SK2
62
256
6
ByLayer
370
18
48
1
60
0
100
AcDbTrace
10
63
20
-24.891688
30
0
11
59.500002
21
-25.352471
31
0
12
59.499998
22
-24.430904
32
0
13
59.499998
23
-24.430904
33
0
39
0
210
0
220
0
230
1
0
SOLID
5
14A
100
AcDbEntity
8
SK2
62
256
6
ByLayer
370
18
48
1
60
0
100
AcDbTrace
10
19
20
-24.891688
30
0
11
22.499998
21
-24.430904
31
0
12
22.500002
22
-25.352471
32
0
13
22.500002
23
-25.352471
33
0
39
0
210
0
220
0
230
1
0
ENDBLK
5
14C
100
AcDbEntity
8
0
100
AcDbBlockEnd
0
BLOCK
5
151
100
AcDbEntity
8
0
100
AcDbBlockBegin
2
*D3
70
1
10
0
20
0
30
0
3
*D3
0
LINE
5
153
100
AcDbEntity
8
0
62
256
6
ByLayer
370
-2
48
1
60
0
100
AcDbLine
10
63
20
-5.8375
30
0
11
63
21
-36.891688
31
0
39
0
210
0
220
0
230
1
0
LINE
5
154
100
AcDbEntity
8
0
62
256
6
ByLayer
370
-2
48
1
60
0
100
AcDbLine
10
2
20
-5.8375
30
0
11
2
21
-36.891688
31
0
39
0
210
0
220
0
230
1
0
LINE
5
155
100
AcDbEntity
8
0
62
256
6
ByLayer
370
-2
48
1
60
0
100
AcDbLine
10
59.5
20
-34.891688
30
0
11
5.5
21
-34.891688
31
0
39
0
210
0
220
0
230
1
0
SOLID
5
156
100
AcDbEntity
8
0
62
256
6
ByLayer
370
-1
48
1
60
0
100
AcDbTrace
10
59.5
20
-35.475021
30
0
11
59.5
21
-34.308354
31
0
12
63
22
-34.891688
32
0
13
63
23
-34.891688
33
0
39
0
210
0
220
0
230
1
0
SOLID
5
157
100
AcDbEntity
8
0
62
256
6
ByLayer
370
-1
48
1
60
0
100
AcDbTrace
10
5.5
20
-34.308354
30
0
11
5.5
21
-35.475021
31
0
12
2
22
-34.891688
32
0
13
2
23
-34.891688
33
0
39
0
210
0
220
0
230
1
0
MTEXT
5
158
100
AcDbEntity
8
0
62
256
6
ByLayer
370
18
48
1
60
0
100
AcDbMText
10
32.5
20
-28.891688
30
0
210
0
220
0
230
1
1
\A1;61
40
3
41
0
44
1
50
0
71
5
72
5
7
iso_b_vert
0
POINT
5
159
100
AcDbEntity
8
Defpoints
62
0
6
ByLayer
370
-1
48
1
60
0
100
AcDbPoint
10
63
20
-4.25
30
0
39
0
210
0
220
0
230
1
50
360
0
POINT
5
15A
100
AcDbEntity
8
Defpoints
62
0
6
ByLayer
370
-1
48
1
60
0
100
AcDbPoint
10
2
20
-4.25
30
0
39
0
210
0
220
0
230
1
50
360
0
POINT
5
15B
100
AcDbEntity
8
Defpoints
62
0
6
ByLayer
370
-1
48
1
60
0
100
AcDbPoint
10
2
20
-34.891688
30
0
39
0
210
0
220
0
230
1
50
360
0
ENDBLK
5
152
100
AcDbEntity
8
0
100
AcDbBlockEnd
0
BLOCK
5
163
100
AcDbEntity
8
0
100
AcDbBlockBegin
2
_U1
70
0
10
0
20
0
30
0
3
_U1
0
MTEXT
5
15D
100
AcDbEntity
8
SK2
62
256
6
ByLayer
370
18
48
1
60
0
100
AcDbMText
10
31.242115
20
-34.006573
30
0
210
0
220
0
230
1
1
\W0.6351;61
40
3
41
0
44
1.084337
50
0
71
7
72
5
7
iso_b_vert
0
LINE
5
15E
100
AcDbEntity
8
SK2
62
256
6
ByLayer
370
13
48
1
60
0
100
AcDbLine
10
63
20
-5.8375
30
0
11
63
21
-36.891688
31
0
39
0
210
0
220
0
230
1
0
LINE
5
15F
100
AcDbEntity
8
SK2
62
256
6
ByLayer
370
13
48
1
60
0
100
AcDbLine
10
2
20
-5.8375
30
0
11
2
21
-36.891688
31
0
39
0
210
0
220
0
230
1
0
LINE
5
160
100
AcDbEntity
8
SK2
62
256
6
ByLayer
370
13
48
1
60
0
100
AcDbLine
10
63
20
-34.891688
30
0
11
2
21
-34.891688
31
0
39
0
210
0
220
0
230
1
0
SOLID
5
161
100
AcDbEntity
8
SK2
62
256
6
ByLayer
370
18
48
1
60
0
100
AcDbTrace
10
63
20
-34.891688
30
0
11
59.500002
21
-35.352471
31
0
12
59.499998
22
-34.430904
32
0
13
59.499998
23
-34.430904
33
0
39
0
210
0
220
0
230
1
0
SOLID
5
162
100
AcDbEntity
8
SK2
62
256
6
ByLayer
370
18
48
1
60
0
100
AcDbTrace
10
2
20
-34.891688
30
0
11
5.499998
21
-34.430904
31
0
12
5.500002
22
-35.352471
32
0
13
5.500002
23
-35.352471
33
0
39
0
210
0
220
0
230
1
0
ENDBLK
5
164
100
AcDbEntity
8
0
100
AcDbBlockEnd
0
BLOCK
5
169
100
AcDbEntity
8
0
100
AcDbBlockBegin
2
*D5
70
1
10
0
20
0
30
0
3
*D5
0
LINE
5
16B
100
AcDbEntity
8
0
62
256
6
ByLayer
370
-2
48
1
60
0
100
AcDbLine
10
-40
20
-6.5875
30
0
11
-40
21
-44.891688
31
0
39
0
210
0
220
0
230
1
0
LINE
5
16C
100
AcDbEntity
8
0
62
256
6
ByLayer
370
-2
48
1
60
0
100
AcDbLine
10
0
20
-6.5875
30
0
11
0
21
-44.891688
31
0
39
0
210
0
220
0
230
1
0
LINE
5
16D
100
AcDbEntity
8
0
62
256
6
ByLayer
370
-2
48
1
60
0
100
AcDbLine
10
-36.5
20
-42.891688
30
0
11
-3.5
21
-42.891688
31
0
39
0
210
0
220
0
230
1
0
SOLID
5
16E
100
AcDbEntity
8
0
62
256
6
ByLayer
370
-1
48
1
60
0
100
AcDbTrace
10
-36.5
20
-42.308354
30
0
11
-36.5
21
-43.475021
31
0
12
-40
22
-42.891688
32
0
13
-40
23
-42.891688
33
0
39
0
210
0
220
0
230
1
0
SOLID
5
16F
100
AcDbEntity
8
0
62
256
6
ByLayer
370
-1
48
1
60
0
100
AcDbTrace
10
-3.5
20
-43.475021
30
0
11
-3.5
21
-42.308354
31
0
12
0
22
-42.891688
32
0
13
0
23
-42.891688
33
0
39
0
210
0
220
0
230
1
0
MTEXT
5
170
100
AcDbEntity
8
0
62
256
6
ByLayer
370
18
48
1
60
0
100
AcDbMText
10
-20
20
-36.891688
30
0
210
0
220
0
230
1
1
\A1;40
40
3
41
0
44
1
50
0
71
5
72
5
7
iso_b_vert
0
POINT
5
171
100
AcDbEntity
8
Defpoints
62
0
6
ByLayer
370
-1
48
1
60
0
100
AcDbPoint
10
-40
20
-5
30
0
39
0
210
0
220
0
230
1
50
360
0
POINT
5
172
100
AcDbEntity
8
Defpoints
62
0
6
ByLayer
370
-1
48
1
60
0
100
AcDbPoint
10
0
20
-5
30
0
39
0
210
0
220
0
230
1
50
360
0
POINT
5
173
100
AcDbEntity
8
Defpoints
62
0
6
ByLayer
370
-1
48
1
60
0
100
AcDbPoint
10
0
20
-42.891688
30
0
39
0
210
0
220
0
230
1
50
360
0
ENDBLK
5
16A
100
AcDbEntity
8
0
100
AcDbBlockEnd
0
BLOCK
5
17B
100
AcDbEntity
8
0
100
AcDbBlockBegin
2
_U2
70
0
10
0
20
0
30
0
3
_U2
0
MTEXT
5
175
100
AcDbEntity
8
SK2
62
256
6
ByLayer
370
18
48
1
60
0
100
AcDbMText
10
-21.790771
20
-42.006573
30
0
210
0
220
0
230
1
1
\W0.7361;40
40
3
41
0
44
1.084337
50
0
71
7
72
5
7
iso_b_vert
0
LINE
5
176
100
AcDbEntity
8
SK2
62
256
6
ByLayer
370
13
48
1
60
0
100
AcDbLine
10
-40
20
-6.5875
30
0
11
-40
21
-44.891688
31
0
39
0
210
0
220
0
230
1
0
LINE
5
177
100
AcDbEntity
8
SK2
62
256
6
ByLayer
370
13
48
1
60
0
100
AcDbLine
10
0
20
-6.5875
30
0
11
0
21
-44.891688
31
0
39
0
210
0
220
0
230
1
0
LINE
5
178
100
AcDbEntity
8
SK2
62
256
6
ByLayer
370
13
48
1
60
0
100
AcDbLine
10
-40
20
-42.891688
30
0
11
0
21
-42.891688
31
0
39
0
210
0
220
0
230
1
0
SOLID
5
179
100
AcDbEntity
8
SK2
62
256
6
ByLayer
370
18
48
1
60
0
100
AcDbTrace
10
-40
20
-42.891688
30
0
11
-36.500002
21
-42.430904
31
0
12
-36.499998
22
-43.352471
32
0
13
-36.499998
23
-43.352471
33
0
39
0
210
0
220
0
230
1
0
SOLID
5
17A
100
AcDbEntity
8
SK2
62
256
6
ByLayer
370
18
48
1
60
0
100
AcDbTrace
10
0
20
-42.891688
30
0
11
-3.499998
21
-43.352471
31
0
12
-3.500002
22
-42.430904
32
0
13
-3.500002
23
-42.430904
33
0
39
0
210
0
220
0
230
1
0
ENDBLK
5
17C
100
AcDbEntity
8
0
100
AcDbBlockEnd
0
BLOCK
5
181
100
AcDbEntity
8
0
100
AcDbBlockBegin
2
*D7
70
1
10
0
20
0
30
0
3
*D7
0
LINE
5
183
100
AcDbEntity
8
0
62
256
6
ByLayer
370
-2
48
1
60
0
100
AcDbLine
10
-40
20
-6.5875
30
0
11
-40
21
-52.891688
31
0
39
0
210
0
220
0
230
1
0
LINE
5
184
100
AcDbEntity
8
0
62
256
6
ByLayer
370
-2
48
1
60
0
100
AcDbLine
10
63
20
-5.8375
30
0
11
63
21
-52.891688
31
0
39
0
210
0
220
0
230
1
0
LINE
5
185
100
AcDbEntity
8
0
62
256
6
ByLayer
370
-2
48
1
60
0
100
AcDbLine
10
-36.5
20
-50.891688
30
0
11
59.5
21
-50.891688
31
0
39
0
210
0
220
0
230
1
0
SOLID
5
186
100
AcDbEntity
8
0
62
256
6
ByLayer
370
-1
48
1
60
0
100
AcDbTrace
10
-36.5
20
-50.308354
30
0
11
-36.5
21
-51.475021
31
0
12
-40
22
-50.891688
32
0
13
-40
23
-50.891688
33
0
39
0
210
0
220
0
230
1
0
SOLID
5
187
100
AcDbEntity
8
0
62
256
6
ByLayer
370
-1
48
1
60
0
100
AcDbTrace
10
59.5
20
-51.475021
30
0
11
59.5
21
-50.308354
31
0
12
63
22
-50.891688
32
0
13
63
23
-50.891688
33
0
39
0
210
0
220
0
230
1
0
MTEXT
5
188
100
AcDbEntity
8
0
62
256
6
ByLayer
370
18
48
1
60
0
100
AcDbMText
10
11.5
20
-44.891688
30
0
210
0
220
0
230
1
1
\A1;103
40
3
41
0
44
1
50
0
71
5
72
5
7
iso_b_vert
0
POINT
5
189
100
AcDbEntity
8
Defpoints
62
0
6
ByLayer
370
-1
48
1
60
0
100
AcDbPoint
10
-40
20
-5
30
0
39
0
210
0
220
0
230
1
50
360
0
POINT
5
18A
100
AcDbEntity
8
Defpoints
62
0
6
ByLayer
370
-1
48
1
60
0
100
AcDbPoint
10
63
20
-4.25
30
0
39
0
210
0
220
0
230
1
50
360
0
POINT
5
18B
100
AcDbEntity
8
Defpoints
62
0
6
ByLayer
370
-1
48
1
60
0
100
AcDbPoint
10
63
20
-50.891688
30
0
39
0
210
0
220
0
230
1
50
360
0
ENDBLK
5
182
100
AcDbEntity
8
0
100
AcDbBlockEnd
0
BLOCK
5
193
100
AcDbEntity
8
0
100
AcDbBlockBegin
2
_U3
70
0
10
0
20
0
30
0
3
_U3
0
MTEXT
5
18D
100
AcDbEntity
8
SK2
62
256
6
ByLayer
370
18
48
1
60
0
100
AcDbMText
10
9.121201
20
-50.006573
30
0
210
0
220
0
230
1
1
\W0.6217;103
40
3
41
0
44
1.084337
50
0
71
7
72
5
7
iso_b_vert
0
LINE
5
18E
100
AcDbEntity
8
SK2
62
256
6
ByLayer
370
13
48
1
60
0
100
AcDbLine
10
-40
20
-6.5875
30
0
11
-40
21
-52.891688
31
0
39
0
210
0
220
0
230
1
0
LINE
5
18F
100
AcDbEntity
8
SK2
62
256
6
ByLayer
370
13
48
1
60
0
100
AcDbLine
10
63
20
-5.8375
30
0
11
63
21
-52.891688
31
0
39
0
210
0
220
0
230
1
0
LINE
5
190
100
AcDbEntity
8
SK2
62
256
6
ByLayer
370
13
48
1
60
0
100
AcDbLine
10
-40
20
-50.891688
30
0
11
63
21
-50.891688
31
0
39
0
210
0
220
0
230
1
0
SOLID
5
191
100
AcDbEntity
8
SK2
62
256
6
ByLayer
370
18
48
1
60
0
100
AcDbTrace
10
-40
20
-50.891688
30
0
11
-36.500002
21
-50.430904
31
0
12
-36.499998
22
-51.352471
32
0
13
-36.499998
23
-51.352471
33
0
39
0
210
0
220
0
230
1
0
SOLID
5
192
100
AcDbEntity
8
SK2
62
256
6
ByLayer
370
18
48
1
60
0
100
AcDbTrace
10
63
20
-50.891688
30
0
11
59.500002
21
-51.352471
31
0
12
59.499998
22
-50.430904
32
0
13
59.499998
23
-50.430904
33
0
39
0
210
0
220
0
230
1
0
ENDBLK
5
194
100
AcDbEntity
8
0
100
AcDbBlockEnd
0
BLOCK
5
199
100
AcDbEntity
8
0
100
AcDbBlockBegin
2
*D9
70
1
10
0
20
0
30
0
3
*D9
0
LINE
5
19B
100
AcDbEntity
8
0
62
256
6
ByLayer
370
-2
48
1
60
0
100
AcDbLine
10
63
20
-5.8375
30
0
11
63
21
-44.891688
31
0
39
0
210
0
220
0
230
1
0
LINE
5
19C
100
AcDbEntity
8
0
62
256
6
ByLayer
370
-2
48
1
60
0
100
AcDbLine
10
0
20
-5.8375
30
0
11
0
21
-44.891688
31
0
39
0
210
0
220
0
230
1
0
LINE
5
19D
100
AcDbEntity
8
0
62
256
6
ByLayer
370
-2
48
1
60
0
100
AcDbLine
10
59.5
20
-42.891688
30
0
11
3.5
21
-42.891688
31
0
39
0
210
0
220
0
230
1
0
SOLID
5
19E
100
AcDbEntity
8
0
62
256
6
ByLayer
370
-1
48
1
60
0
100
AcDbTrace
10
59.5
20
-43.475021
30
0
11
59.5
21
-42.308354
31
0
12
63
22
-42.891688
32
0
13
63
23
-42.891688
33
0
39
0
210
0
220
0
230
1
0
SOLID
5
19F
100
AcDbEntity
8
0
62
256
6
ByLayer
370
-1
48
1
60
0
100
AcDbTrace
10
3.5
20
-42.308354
30
0
11
3.5
21
-43.475021
31
0
12
0
22
-42.891688
32
0
13
0
23
-42.891688
33
0
39
0
210
0
220
0
230
1
0
MTEXT
5
1A0
100
AcDbEntity
8
0
62
256
6
ByLayer
370
18
48
1
60
0
100
AcDbMText
10
31.5
20
-36.891688
30
0
210
0
220
0
230
1
1
\A1;63
40
3
41
0
44
1
50
0
71
5
72
5
7
iso_b_vert
0
POINT
5
1A1
100
AcDbEntity
8
Defpoints
62
0
6
ByLayer
370
-1
48
1
60
0
100
AcDbPoint
10
63
20
-4.25
30
0
39
0
210
0
220
0
230
1
50
360
0
POINT
5
1A2
100
AcDbEntity
8
Defpoints
62
0
6
ByLayer
370
-1
48
1
60
0
100
AcDbPoint
10
0
20
-4.25
30
0
39
0
210
0
220
0
230
1
50
360
0
POINT
5
1A3
100
AcDbEntity
8
Defpoints
62
0
6
ByLayer
370
-1
48
1
60
0
100
AcDbPoint
10
0
20
-42.891688
30
0
39
0
210
0
220
0
230
1
50
360
0
ENDBLK
5
19A
100
AcDbEntity
8
0
100
AcDbBlockEnd
0
BLOCK
5
1AB
100
AcDbEntity
8
0
100
AcDbBlockBegin
2
_U4
70
0
10
0
20
0
30
0
3
_U4
0
MTEXT
5
1A5
100
AcDbEntity
8
2
62
256
6
ByLayer
370
18
48
1
60
0
100
AcDbMText
10
29.867172
20
-42.006573
30
0
210
0
220
0
230
1
1
\W0.6740;63
40
3
41
0
44
1.084337
50
0
71
7
72
5
7
iso_b_vert
0
LINE
5
1A6
100
AcDbEntity
8
2
62
256
6
ByLayer
370
13
48
1
60
0
100
AcDbLine
10
63
20
-5.8375
30
0
11
63
21
-44.891688
31
0
39
0
210
0
220
0
230
1
0
LINE
5
1A7
100
AcDbEntity
8
2
62
256
6
ByLayer
370
13
48
1
60
0
100
AcDbLine
10
0
20
-5.8375
30
0
11
0
21
-44.891688
31
0
39
0
210
0
220
0
230
1
0
LINE
5
1A8
100
AcDbEntity
8
2
62
256
6
ByLayer
370
13
48
1
60
0
100
AcDbLine
10
63
20
-42.891688
30
0
11
0
21
-42.891688
31
0
39
0
210
0
220
0
230
1
0
SOLID
5
1A9
100
AcDbEntity
8
2
62
256
6
ByLayer
370
18
48
1
60
0
100
AcDbTrace
10
63
20
-42.891688
30
0
11
59.500002
21
-43.352471
31
0
12
59.499998
22
-42.430904
32
0
13
59.499998
23
-42.430904
33
0
39
0
210
0
220
0
230
1
0
SOLID
5
1AA
100
AcDbEntity
8
2
62
256
6
ByLayer
370
18
48
1
60
0
100
AcDbTrace
10
0
20
-42.891688
30
0
11
3.499998
21
-42.430904
31
0
12
3.500002
22
-43.352471
32
0
13
3.500002
23
-43.352471
33
0
39
0
210
0
220
0
230
1
0
ENDBLK
5
1AC
100
AcDbEntity
8
0
100
AcDbBlockEnd
0
ENDSEC
0
SECTION
2
ENTITIES
0
ARC
5
BE
100
AcDbEntity
8
1
62
256
6
ByLayer
370
18
48
1
60
0
100
AcDbCircle
39
0
10
1.417581
20
-4.941932
30
0
40
0.800000000000003
210
0
220
0
230
1
100
AcDbArc
50
89.896868
51
152.373398
0
ARC
5
BF
100
AcDbEntity
8
1
62
256
6
ByLayer
370
18
48
1
60
0
100
AcDbCircle
39
0
10
1.417581
20
4.941932
30
0
40
0.800000000000003
210
0
220
0
230
1
100
AcDbArc
50
207.626602
51
270.103132
0
ARC
5
C0
100
AcDbEntity
8
1
62
256
6
ByLayer
370
18
48
1
60
0
100
AcDbCircle
39
0
10
0
20
-4.2
30
0
40
0.799999999999996
210
0
220
0
230
1
100
AcDbArc
50
270
51
332.373398
0
ARC
5
C1
100
AcDbEntity
8
1
62
256
6
ByLayer
370
18
48
1
60
0
100
AcDbCircle
39
0
10
0
20
4.2
30
0
40
0.799999999999996
210
0
220
0
230
1
100
AcDbArc
50
27.626602
51
90
0
ARC
5
C2
100
AcDbEntity
8
SK2
62
256
6
ByLayer
370
13
48
1
60
0
100
AcDbCircle
39
0
10
63
20
0
30
0
40
20.1139785297935
210
0
220
0
230
1
100
AcDbArc
50
8.577671
51
69.998494
0
ARC
5
C3
100
AcDbEntity
8
SK2
62
256
6
ByLayer
370
13
48
1
60
0
100
AcDbCircle
39
0
10
63
20
0
30
0
40
20.1139785297935
210
0
220
0
230
1
100
AcDbArc
50
290.001506
51
351.422329
0
ELLIPSE
5
C4
100
AcDbEntity
8
1
62
256
6
ByLayer
370
13
48
1
60
0
100
AcDbEllipse
10
20.600901
20
4.016682
30
0
11
-7.91973516013237E-05
21
0.00999968638405722
31
0
210
0
220
0
230
1
40
0.009055
41
-3.07471427649573
42
-1.50411376375564
0
ELLIPSE
5
C5
100
AcDbEntity
8
1
62
256
6
ByLayer
370
13
48
1
60
0
100
AcDbEllipse
10
20.63854
20
4.016413
30
0
11
-0.00024291584260687
21
-0.00999704915929749
31
0
210
0
220
0
230
1
40
0.4262
41
0.0763187014150046
42
1.6415303975008
0
POINT
5
70
100
AcDbEntity
8
80
62
256
6
ByLayer
370
18
48
1
60
0
100
AcDbPoint
10
0
20
0
30
0
39
0
210
0
220
0
230
1
50
360
0
POINT
5
72
100
AcDbEntity
8
81
62
256
6
ByLayer
370
18
48
1
60
0
100
AcDbPoint
10
63
20
0
30
0
39
0
210
0
220
0
230
1
50
360
0
POINT
5
74
100
AcDbEntity
8
1
62
256
6
ByLayer
370
18
48
1
60
0
100
AcDbPoint
10
-206.618011
20
-200
30
0
39
0
210
0
220
0
230
1
50
360
0
POINT
5
76
100
AcDbEntity
8
1
62
256
6
ByLayer
370
13
48
1
60
1
100
AcDbPoint
10
-41.5
20
0
30
0
39
0
210
0
220
0
230
1
50
360
0
POINT
5
77
100
AcDbEntity
8
1
62
256
6
ByLayer
370
13
48
1
60
1
100
AcDbPoint
10
62.94577
20
0
30
0
39
0
210
0
220
0
230
1
50
360
0
POINT
5
78
100
AcDbEntity
8
1
62
256
6
ByLayer
370
18
48
1
60
1
100
AcDbPoint
10
63
20
-4.25
30
0
39
0
210
0
220
0
230
1
50
360
0
POINT
5
79
100
AcDbEntity
8
1
62
256
6
ByLayer
370
18
48
1
60
1
100
AcDbPoint
10
19
20
-4.25
30
0
39
0
210
0
220
0
230
1
50
360
0
POINT
5
7A
100
AcDbEntity
8
1
62
256
6
ByLayer
370
18
48
1
60
1
100
AcDbPoint
10
63
20
-4.25
30
0
39
0
210
0
220
0
230
1
50
360
0
POINT
5
7B
100
AcDbEntity
8
1
62
256
6
ByLayer
370
18
48
1
60
1
100
AcDbPoint
10
2
20
-4.25
30
0
39
0
210
0
220
0
230
1
50
360
0
POINT
5
7C
100
AcDbEntity
8
1
62
256
6
ByLayer
370
18
48
1
60
1
100
AcDbPoint
10
-40
20
-5
30
0
39
0
210
0
220
0
230
1
50
360
0
POINT
5
7D
100
AcDbEntity
8
1
62
256
6
ByLayer
370
18
48
1
60
1
100
AcDbPoint
10
0
20
-5
30
0
39
0
210
0
220
0
230
1
50
360
0
POINT
5
7E
100
AcDbEntity
8
1
62
256
6
ByLayer
370
18
48
1
60
1
100
AcDbPoint
10
-40
20
-5
30
0
39
0
210
0
220
0
230
1
50
360
0
POINT
5
7F
100
AcDbEntity
8
1
62
256
6
ByLayer
370
18
48
1
60
1
100
AcDbPoint
10
63
20
-4.25
30
0
39
0
210
0
220
0
230
1
50
360
0
POINT
5
80
100
AcDbEntity
8
1
62
256
6
ByLayer
370
18
48
1
60
1
100
AcDbPoint
10
63
20
-4.25
30
0
39
0
210
0
220
0
230
1
50
360
0
POINT
5
81
100
AcDbEntity
8
1
62
256
6
ByLayer
370
18
48
1
60
1
100
AcDbPoint
10
0
20
-4.25
30
0
39
0
210
0
220
0
230
1
50
360
0
SPLINE
5
C6
100
AcDbEntity
8
1
62
256
6
ByLayer
370
18
48
1
60
0
100
AcDbSpline
70
4
71
3
72
8
73
4
40
0
40
0
40
0
40
0
40
1
40
1
40
1
40
1
41
1
10
62.5298432178076
20
1.47557696969838
30
0
41
1
10
62.6511342756911
20
1.13547512302498
30
0
41
1
10
62.7713251359362
20
0.794988204029323
30
0
41
1
10
62.8903916760726
20
0.454107769777835
30
0
0
SPLINE
5
C7
100
AcDbEntity
8
1
62
256
6
ByLayer
370
18
48
1
60
0
100
AcDbSpline
70
4
71
3
72
24
73
20
40
0
40
0
40
0
40
0
40
0.125000000000001
40
0.125000000000001
40
0.187500000000002
40
0.187500000000002
40
0.250000000000003
40
0.250000000000003
40
0.312500000000004
40
0.312500000000004
40
0.375000000000005
40
0.375000000000005
40
0.500000000000007
40
0.500000000000007
40
0.750000000000003
40
0.750000000000003
40
0.875000000000002
40
0.875000000000002
40
1
40
1
40
1
40
1
41
1
10
20.6009856080531
20
4.01734912120531
30
0
41
1
10
20.5931607890892
20
4.01729378944049
30
0
41
1
10
20.5855398051604
20
4.01799281806291
30
0
41
1
10
20.5743904572149
20
4.02008436422756
30
0
41
1
10
20.5707316648786
20
4.02095877664593
30
0
41
1
10
20.5637252254127
20
4.02298543664301
30
0
41
1
10
20.5603473924304
20
4.0241428219388
30
0
41
1
10
20.5538233238596
20
4.02672314689059
30
0
41
1
10
20.5506620465487
20
4.02815534941809
30
0
41
1
10
20.5446938069369
20
4.03120097472868
30
0
41
1
10
20.5418717195303
20
4.0328185801136
30
0
41
1
10
20.5338395834351
20
4.03792452306439
30
0
41
1
10
20.5290286852515
20
4.04169380306928
30
0
41
1
10
20.5163412161706
20
4.05367588295297
30
0
41
1
10
20.5103026747342
20
4.06234230967485
30
0
41
1
10
20.5041602140714
20
4.07609908115094
30
0
41
1
10
20.5026539206208
20
4.08072568362493
30
0
41
1
10
20.5006405968953
20
4.09005322424707
30
0
41
1
10
20.5001348917475
20
4.09478828693687
30
0
41
1
10
20.5001348917475
20
4.09948188788755
30
0
0
SPLINE
5
C8
100
AcDbEntity
8
1
62
256
6
ByLayer
370
13
48
1
60
0
100
AcDbSpline
70
4
71
3
72
10
73
6
40
0
40
0
40
0
40
0
40
0.5
40
0.5
40
1
40
1
40
1
40
1
41
1
10
20.6428074826074
20
4.01701619349558
30
0
41
1
10
20.6362405591233
20
4.0171804733873
30
0
41
1
10
20.6294605406863
20
4.01728761593182
30
0
41
1
10
20.6154908311582
20
4.01739802544259
30
0
41
1
10
20.6082464882507
20
4.01740046518108
30
0
41
1
10
20.6009856080531
20
4.01734912120531
30
0
0
SPLINE
5
C9
100
AcDbEntity
8
1
62
256
6
ByLayer
370
18
48
1
60
0
100
AcDbSpline
70
4
71
3
72
8
73
4
40
0
40
0
40
0
40
0
40
1
40
1
40
1
40
1
41
1
10
62.8903916760726
20
0.454107769777835
30
0
41
1
10
62.9257085361983
20
0.35299769634949
30
0
41
1
10
62.9618460532632
20
0.252348604472928
30
0
41
1
10
62.9988044081827
20
0.15214208336144
30
0
0
SPLINE
5
CA
100
AcDbEntity
8
1
62
256
6
ByLayer
370
18
48
1
60
0
100
AcDbSpline
70
4
71
3
72
22
73
18
40
0
40
0
40
0
40
0
40
0.500000000000122
40
0.500000000000122
40
0.750000000000143
40
0.750000000000143
40
0.875000000000118
40
0.875000000000118
40
0.937500000000105
40
0.937500000000105
40
0.968750000000098
40
0.968750000000098
40
0.984375000000095
40
0.984375000000095
40
0.992187500000048
40
0.992187500000048
40
1
40
1
40
1
40
1
41
1
10
61.3850609916361
20
4.24984557471322
30
0
41
1
10
61.4033673319376
20
4.22008786768592
30
0
41
1
10
61.4216469170053
20
4.19028566221363
30
0
41
1
10
61.4490802410484
20
4.14539524534396
30
0
41
1
10
61.4582335031108
20
4.13038674871172
30
0
41
1
10
61.4720036021114
20
4.10775074601514
30
0
41
1
10
61.4766005812936
20
4.10018437819755
30
0
41
1
10
61.4835080928928
20
4.08880020122342
30
0
41
1
10
61.4858127419458
20
4.08499995487051
30
0
41
1
10
61.4892023631536
20
4.07943722369788
30
0
41
1
10
61.4903171885958
20
4.07761388511307
30
0
41
1
10
61.4920640882235
20
4.07472200142101
30
0
41
1
10
61.4926604689572
20
4.07372720604533
30
0
41
1
10
61.4935454932244
20
4.07225575171273
30
0
41
1
10
61.4938396533314
20
4.07176763500473
30
0
41
1
10
61.494401628983
20
4.07084506779424
30
0
41
1
10
61.4946771470462
20
4.0703976718317
30
0
41
1
10
61.4948855781424
20
4.07007764281849
30
0
0
SPLINE
5
CB
100
AcDbEntity
8
1
62
256
6
ByLayer
370
18
48
1
60
0
100
AcDbSpline
70
4
71
3
72
24
73
20
40
0
40
0
40
0
40
0
40
0.054915722355827
40
0.054915722355827
40
0.189927762019297
40
0.189927762019297
40
0.257433781851031
40
0.257433781851031
40
0.324939801682766
40
0.324939801682766
40
0.459951841346213
40
0.459951841346213
40
0.59496388100966
40
0.59496388100966
40
0.729975920673107
40
0.729975920673107
40
0.864987960336553
40
0.864987960336553
40
1
40
1
40
1
40
1
41
1
10
61.0331285950357
20
0.891175101662299
30
0
41
1
10
61.0422286492225
20
0.901279158421829
30
0
41
1
10
61.0517829677913
20
0.911590428600931
30
0
41
1
10
61.086345444059
20
0.947912012411763
30
0
41
1
10
61.1135144353825
20
0.974963427128955
30
0
41
1
10
61.1583490320212
20
1.01713798000719
30
0
41
1
10
61.1739861935306
20
1.03145385344041
30
0
41
1
10
61.2067624629356
20
1.06051700248639
30
0
41
1
10
61.2239849633557
20
1.07533141733626
30
0
41
1
10
61.2772319578734
20
1.1195219462995
30
0
41
1
10
61.3149388868729
20
1.14879197688177
30
0
41
1
10
61.3955521628277
20
1.2055905521666
30
0
41
1
10
61.4384995648318
20
1.23311422358376
30
0
41
1
10
61.5307457410789
20
1.2845981143019
30
0
41
1
10
61.5784477280735
20
1.30776609967396
30
0
41
1
10
61.6772435512975
20
1.3479736977792
30
0
41
1
10
61.7284030653196
20
1.3649451311459
30
0
41
1
10
61.8343604892622
20
1.39145454533198
30
0
41
1
10
61.8878901547355
20
1.4006693948742
30
0
41
1
10
61.9419637780816
20
1.40612225708588
30
0
0
SPLINE
5
CC
100
AcDbEntity
8
1
62
256
6
ByLayer
370
18
48
1
60
0
100
AcDbSpline
70
4
71
3
72
10
73
6
40
0
40
0
40
0
40
0
40
0.5
40
0.5
40
1
40
1
40
1
40
1
41
1
10
61.9419637780816
20
1.40612225708583
30
0
41
1
10
62.0401641227597
20
1.41602492155576
30
0
41
1
10
62.1383153964855
20
1.42630003368913
30
0
41
1
10
62.3343229189385
20
1.4490894924898
30
0
41
1
10
62.432188666396
20
1.46153174396255
30
0
41
1
10
62.5298432178076
20
1.47557696969835
30
0
0
SPLINE
5
CD
100
AcDbEntity
8
1
62
256
6
ByLayer
370
18
48
1
60
0
100
AcDbSpline
70
4
71
3
72
29
73
25
40
0
40
0
40
0
40
0
40
0.125000000000014
40
0.125000000000014
40
0.250000000000028
40
0.250000000000028
40
0.375000000000042
40
0.375000000000042
40
0.437500000000046
40
0.468750000000046
40
0.468750000000046
40
0.500000000000046
40
0.500000000000046
40
0.56250000000004
40
0.56250000000004
40
0.625000000000035
40
0.625000000000035
40
0.750000000000024
40
0.750000000000024
40
0.875000000000012
40
0.875000000000012
40
0.937500000000006
40
0.937500000000006
40
1
40
1
40
1
40
1
41
1
10
61.599519789663
20
3.88840089675153
30
0
41
1
10
61.6348164286375
20
3.78564750457869
30
0
41
1
10
61.6702384069407
20
3.68267630861394
30
0
41
1
10
61.7414259717059
20
3.47636891966425
30
0
41
1
10
61.777189537754
20
3.37302949354469
30
0
41
1
10
61.8490474427409
20
3.16628270764406
30
0
41
1
10
61.8851582334629
20
3.06282667768062
30
0
41
1
10
61.9395758917721
20
2.90766218501884
30
0
41
1
10
61.9668463564439
20
2.83008575576841
30
0
41
1
10
61.994208672564
20
2.75252035785374
30
0
41
1
10
62.0124704694898
20
2.70081274667953
30
0
41
1
10
62.0215986134005
20
2.67495767758481
30
0
41
1
10
62.0492433437245
20
2.59744252923642
30
0
41
1
10
62.0679661651856
20
2.54582209609606
30
0
41
1
10
62.1060992096815
20
2.44272393886254
30
0
41
1
10
62.1254314482487
20
2.39146148930777
30
0
41
1
10
62.1841300439752
20
2.23911301514821
30
0
41
1
10
62.2242894928746
20
2.13925866878185
30
0
41
1
10
62.3070862314817
20
1.94309109522905
30
0
41
1
10
62.3497037148933
20
1.84674469115549
30
0
41
1
10
62.4157843855084
20
1.70498309764972
30
0
41
1
10
62.4381710358648
20
1.65819036469074
30
0
41
1
10
62.483721127767
20
1.5655605193131
30
0
41
1
10
62.5066958697245
20
1.52010972121323
30
0
41
1
10
62.5298432178077
20
1.47557696969841
30
0
0
SPLINE
5
CE
100
AcDbEntity
8
1
62
256
6
ByLayer
370
18
48
1
60
0
100
AcDbSpline
70
4
71
3
72
8
73
4
40
0
40
0
40
0
40
0
40
1
40
1
40
1
40
1
41
1
10
61.4948855081364
20
4.07007775024067
30
0
41
1
10
61.5297486992974
20
4.00952761112436
30
0
41
1
10
61.5646277968387
20
3.94896639733278
30
0
41
1
10
61.5995197896633
20
3.88840089675159
30
0
0
SPLINE
5
CF
100
AcDbEntity
8
1
62
256
6
ByLayer
370
18
48
1
60
0
100
AcDbSpline
70
4
71
3
72
28
73
24
40
0
40
0
40
0
40
0
40
0.0999600137453851
40
0.0999600137453851
40
0.19992002749077
40
0.19992002749077
40
0.299880041236155
40
0.299880041236155
40
0.39984005498154
40
0.39984005498154
40
0.499800068726926
40
0.499800068726926
40
0.599760082472311
40
0.599760082472311
40
0.699720096217696
40
0.699720096217696
40
0.749700103090391
40
0.749700103090391
40
0.799680109963086
40
0.799680109963086
40
0.999600137453862
40
0.999600137453862
40
1
40
1
40
1
40
1
41
1
10
61.4948855081485
20
4.07007775021501
30
0
41
1
10
61.2815549938138
20
4.07241939699037
30
0
41
1
10
61.0685094058644
20
4.07104938079891
30
0
41
1
10
60.6427631942112
20
4.06091290574133
30
0
41
1
10
60.4300518886121
20
4.05213055940007
30
0
41
1
10
60.0048417478774
20
4.02734422391427
30
0
41
1
10
59.7923867967639
20
4.01138803300196
30
0
41
1
10
59.3673337432392
20
3.97219002675803
30
0
41
1
10
59.1547433628556
20
3.94894558512152
30
0
41
1
10
58.7293345628142
20
3.89540433366224
30
0
41
1
10
58.5164972847268
20
3.86508047704098
30
0
41
1
10
58.0903437468591
20
3.79739421252094
30
0
41
1
10
57.8770132979788
20
3.76002814073382
30
0
41
1
10
57.4498306354645
20
3.67836747019979
30
0
41
1
10
57.2359428933735
20
3.63408294012291
30
0
41
1
10
56.9143503117081
20
3.56250092767647
30
0
41
1
10
56.807101265637
20
3.53780281099631
30
0
41
1
10
56.5927881897755
20
3.48684254367527
30
0
41
1
10
56.4856768866309
20
3.46056869839211
30
0
41
1
10
55.9502719124379
20
3.32531396549916
30
0
41
1
10
55.5223733108642
20
3.20472798653711
30
0
41
1
10
55.0934836992385
20
3.07235593870914
30
0
41
1
10
55.0926275823645
20
3.07209166242302
30
0
41
1
10
55.0917714637572
20
3.07182734035794
30
0
0
SPLINE
5
D0
100
AcDbEntity
8
1
62
256
6
ByLayer
370
18
48
1
60
0
100
AcDbSpline
70
4
71
3
72
10
73
6
40
0
40
0
40
0
40
0
40
0.877608172220722
40
0.877608172220722
40
1
40
1
40
1
40
1
41
1
10
24.0806744950631
20
-1.64041407876798
30
0
41
1
10
23.947463445293
20
-1.58302956910026
30
0
41
1
10
23.8142707821628
20
-1.52506856505963
30
0
41
1
10
23.6624690535982
20
-1.45846107678608
30
0
41
1
10
23.6438895602986
20
-1.45029879192381
30
0
41
1
10
23.6253097996526
20
-1.44212657447809
30
0
0
SPLINE
5
D1
100
AcDbEntity
8
1
62
256
6
ByLayer
370
18
48
1
60
0
100
AcDbSpline
70
4
71
3
72
14
73
10
40
0
40
0
40
0
40
0
40
0.234498733756184
40
0.234498733756184
40
0.489665822504123
40
0.489665822504123
40
0.744832911252061
40
0.744832911252061
40
1
40
1
40
1
40
1
41
1
10
22.9961455050229
20
-1.1618850526562
30
0
41
1
10
22.8019624119584
20
-1.07438759482
30
0
41
1
10
22.6076639209187
20
-0.985988039286894
30
0
41
1
10
22.2015408594355
20
-0.799853690649257
30
0
41
1
10
21.9896960996604
20
-0.701955539078142
30
0
41
1
10
21.5654887373115
20
-0.504570849933742
30
0
41
1
10
21.3530515487814
20
-0.405220798711241
30
0
41
1
10
20.9272752281749
20
-0.205668752962907
30
0
41
1
10
20.7139731498618
20
-0.105405849438256
30
0
41
1
10
20.5001348917475
20
-0.0049005537815674
30
0
0
SPLINE
5
D2
100
AcDbEntity
8
1
62
256
6
ByLayer
370
18
48
1
60
0
100
AcDbSpline
70
4
71
3
72
71
73
67
40
0
40
0
40
0
40
0
40
0.0122149683653011
40
0.0122149683653011
40
0.0316970173963575
40
0.0316970173963575
40
0.051179066427414
40
0.051179066427414
40
0.0706611154584704
40
0.0706611154584704
40
0.0901431644895268
40
0.0901431644895268
40
0.0913607925539677
40
0.091665199570078
40
0.091665199570078
40
0.0918174030781332
40
0.0918174030781332
40
0.0919696065861883
40
0.0919696065861883
40
0.0925784206184088
40
0.0925784206184088
40
0.0950136767472913
40
0.0950136767472913
40
0.0998841890050564
40
0.0998841890050564
40
0.109625213520586
40
0.109625213520586
40
0.129107262551646
40
0.129107262551646
40
0.168071360613766
40
0.168071360613766
40
0.245999556738006
40
0.245999556738006
40
0.401855948986486
40
0.401855948986486
40
0.479784145110725
40
0.479784145110725
40
0.518748243172845
40
0.518748243172845
40
0.538230292203905
40
0.538230292203905
40
0.54310080446167
40
0.54310080446167
40
0.545536060590553
40
0.545536060590553
40
0.546753688654994
40
0.546753688654994
40
0.547362502687215
40
0.547362502687215
40
0.547666909703325
40
0.547666909703325
40
0.547971316719435
40
0.547971316719435
40
0.54812352022749
40
0.54812352022749
40
0.548275723735545
40
0.548580130751656
40
0.549188944783876
40
0.550406572848317
40
0.552841828977199
40
0.557712341234963
40
0.713568733483414
40
0.713568733483414
40
0.869425125731865
40
0.869425125731865
40
1
40
1
40
1
40
1
41
1
10
7.46673216443315
20
4.14183791206997
30
0
41
1
10
7.44633011895561
20
4.07976057063738
30
0
41
1
10
7.42517951849408
20
4.01717296843981
30
0
41
1
10
7.36880217854281
20
3.8532176972621
30
0
41
1
10
7.33310145848455
20
3.75072544909429
30
0
41
1
10
7.25571404950765
20
3.5440353975776
30
0
41
1
10
7.21428510607026
20
3.43963554820493
30
0
41
1
10
7.12815542074048
20
3.23062121055204
30
0
41
1
10
7.08336365991903
20
3.12570021143822
30
0
41
1
10
6.98910833720248
20
2.91567990782423
30
0
41
1
10
6.93988524914894
20
2.81033030958292
30
0
41
1
10
6.88604158498177
20
2.69814213799131
30
0
41
1
10
6.88207553376631
20
2.6898921945332
30
0
41
1
10
6.87810097971234
20
2.68164119849254
30
0
41
1
10
6.87690811604617
20
2.67916585639858
30
0
41
1
10
6.87636157379254
20
2.6783884655743
30
0
41
1
10
6.87597811304602
20
2.67659429886666
30
0
41
1
10
6.87660003803941
20
2.67571680209221
30
0
41
1
10
6.87949453713361
20
2.67222416380363
30
0
41
1
10
6.88252804922425
20
2.67018674070255
30
0
41
1
10
6.89702897535318
20
2.65962718963715
30
0
41
1
10
6.9092294396192
20
2.65213269560903
30
0
41
1
10
6.94565088624876
20
2.62946500764139
30
0
41
1
10
6.97017697308667
20
2.6148017924784
30
0
41
1
10
7.0438215557038
20
2.57098352561383
30
0
41
1
10
7.09311842689712
20
2.54217374485748
30
0
41
1
10
7.24113871259783
20
2.45609168918031
30
0
41
1
10
7.34004528962296
20
2.39926533478257
30
0
41
1
10
7.63689447300646
20
2.22941248675471
30
0
41
1
10
7.83500834390992
20
2.11707197579363
30
0
41
1
10
8.42924812339237
20
1.78170744461332
30
0
41
1
10
8.82541969121692
20
1.56055261900565
30
0
41
1
10
10.0133467180861
20
0.903293908190733
30
0
41
1
10
10.8045901219699
20
0.473229126450462
30
0
41
1
10
11.9903803319145
20
-0.15625339559719
30
0
41
1
10
12.3854813345028
20
-0.363580370854265
30
0
41
1
10
12.9775453266271
20
-0.671136243094026
30
0
41
1
10
13.1748669003533
20
-0.773038211258125
30
0
41
1
10
13.4702797996835
20
-0.925319429162982
30
0
41
1
10
13.568693392017
20
-0.975960384915709
30
0
41
1
10
13.6910451322196
20
-1.0394615785693
30
0
41
1
10
13.7154812394213
20
-1.05217152643027
30
0
41
1
10
13.7519589347115
20
-1.07132164434915
30
0
41
1
10
13.7640930565035
20
-1.07771618373727
30
0
41
1
10
13.7821439600547
20
-1.08738454011706
30
0
41
1
10
13.7881398734119
20
-1.09061908625009
30
0
41
1
10
13.7970098738997
20
-1.09552718274998
30
0
41
1
10
13.7999484375495
20
-1.09717156031499
30
0
41
1
10
13.8042627158044
20
-1.09968183022872
30
0
41
1
10
13.8056874741493
20
-1.10052550453963
30
0
41
1
10
13.808429179708
20
-1.10224785040819
30
0
41
1
10
13.8103469288242
20
-1.10319090403863
30
0
41
1
10
13.8106812600232
20
-1.1045244873327
30
0
41
1
10
13.8093397306648
20
-1.1042674677835
30
0
41
1
10
13.8075880066046
20
-1.10395604079602
30
0
41
1
10
13.8049603140641
20
-1.10348842172687
30
0
41
1
10
13.7988291905519
20
-1.10239712939168
30
0
41
1
10
13.7865673064438
20
-1.1002128607837
30
0
41
1
10
13.7620449963502
20
-1.09583758920635
30
0
41
1
10
13.7130061780357
20
-1.08706010494436
30
0
41
1
10
12.7744841760981
20
-0.918003034097751
30
0
41
1
10
11.854960183148
20
-0.729137775390086
30
0
41
1
10
10.0823411681082
20
-0.321724383293713
30
0
41
1
10
9.20059178090725
20
-0.0972383836798372
30
0
41
1
10
7.59174326395012
20
0.351810716872393
30
0
41
1
10
6.86268034588451
20
0.570445700370897
30
0
41
1
10
6.13770323572641
20
0.802608297019532
30
0
0
SPLINE
5
D3
100
AcDbEntity
8
1
62
256
6
ByLayer
370
18
48
1
60
0
100
AcDbSpline
70
4
71
3
72
8
73
4
40
0
40
0
40
0
40
0
40
1
40
1
40
1
40
1
41
1
10
61.494885508007
20
-4.07007775046543
30
0
41
1
10
61.5297486992111
20
-4.00952761127417
30
0
41
1
10
61.5646277967956
20
-3.94896639740767
30
0
41
1
10
61.5995197896633
20
-3.88840089675151
30
0
0
SPLINE
5
D4
100
AcDbEntity
8
1
62
256
6
ByLayer
370
18
48
1
60
0
100
AcDbSpline
70
4
71
3
72
22
73
18
40
0
40
0
40
0
40
0
40
0.500000000000055
40
0.500000000000055
40
0.750000000000118
40
0.750000000000118
40
0.875000000000105
40
0.875000000000105
40
0.937500000000139
40
0.937500000000139
40
0.968750000000152
40
0.968750000000152
40
0.984375000000122
40
0.984375000000122
40
0.992187500000061
40
0.992187500000061
40
1
40
1
40
1
40
1
41
1
10
61.3850609916361
20
-4.24984557471319
30
0
41
1
10
61.403367331924
20
-4.22008786770789
30
0
41
1
10
61.4216469169784
20
-4.19028566225762
30
0
41
1
10
61.4490802410011
20
-4.14539524542152
30
0
41
1
10
61.4582335030566
20
-4.13038674880056
30
0
41
1
10
61.4720036020468
20
-4.10775074612127
30
0
41
1
10
61.4766005812254
20
-4.10018437830971
30
0
41
1
10
61.4835080928196
20
-4.08880020134407
30
0
41
1
10
61.4858127418712
20
-4.08499995499332
30
0
41
1
10
61.4892023630781
20
-4.07943722382151
30
0
41
1
10
61.4903171885187
20
-4.07761388523997
30
0
41
1
10
61.4920640881419
20
-4.07472200155644
30
0
41
1
10
61.4926604688742
20
-4.07372720618363
30
0
41
1
10
61.4935454931423
20
-4.07225575184918
30
0
41
1
10
61.4938396532498
20
-4.07176763513976
30
0
41
1
10
61.4944016289064
20
-4.07084506791904
30
0
41
1
10
61.4946771470464
20
-4.07039767183139
30
0
41
1
10
61.4948855781425
20
-4.07007764281843
30
0
0
SPLINE
5
D5
100
AcDbEntity
8
1
62
256
6
ByLayer
370
18
48
1
60
0
100
AcDbSpline
70
4
71
3
72
88
73
84
40
0
40
0
40
0
40
0
40
0.0243639899785719
40
0.0243639899785719
40
0.0810244235609694
40
0.0810244235609694
40
0.109354640352169
40
0.109354640352169
40
0.137684857143368
40
0.137684857143368
40
0.166015073934567
40
0.166015073934567
40
0.194345290725767
40
0.194345290725767
40
0.208510399121367
40
0.208510399121367
40
0.222675507516966
40
0.222675507516966
40
0.251005724308166
40
0.251005724308166
40
0.279335941099365
40
0.279335941099365
40
0.307666157890565
40
0.307666157890565
40
0.335996374681764
40
0.335996374681764
40
0.364326591472963
40
0.364326591472963
40
0.392656808264163
40
0.392656808264163
40
0.420987025055362
40
0.420987025055362
40
0.435152133450962
40
0.435152133450962
40
0.449317241846562
40
0.449317241846562
40
0.477647458637761
40
0.477647458637761
40
0.50597767542896
40
0.50597767542896
40
0.53430789222016
40
0.53430789222016
40
0.54847300061576
40
0.54847300061576
40
0.562638109011361
40
0.562638109011361
40
0.576803217406961
40
0.576803217406961
40
0.590968325802562
40
0.590968325802562
40
0.619298542593763
40
0.619298542593763
40
0.647628759384964
40
0.647628759384964
40
0.675958976176165
40
0.675958976176165
40
0.704289192967366
40
0.704289192967366
40
0.718454301362966
40
0.718454301362966
40
0.732619409758567
40
0.732619409758567
40
0.760949626549769
40
0.760949626549769
40
0.789279843340972
40
0.789279843340972
40
0.817610060132174
40
0.817610060132174
40
0.845940276923376
40
0.845940276923376
40
0.860105385318978
40
0.860105385318978
40
0.874270493714579
40
0.874270493714579
40
0.902600710505781
40
0.902600710505781
40
0.930930927296984
40
0.930930927296984
40
0.959261144088186
40
0.959261144088186
40
0.987591360879389
40
0.987591360879389
40
1
40
1
40
1
40
1
41
1
10
50.5067817646571
20
-1.30158126266096
30
0
41
1
10
50.3228782636002
20
-1.21960749298737
30
0
41
1
10
50.1390977019043
20
-1.13672684961392
30
0
41
1
10
49.5278484727558
20
-0.858987108612837
30
0
41
1
10
49.1004877572519
20
-0.66099033666967
30
0
41
1
10
48.4582940947163
20
-0.361086038645965
30
0
41
1
10
48.2440036632346
20
-0.260617131944627
30
0
41
1
10
47.8151277013017
20
-0.05893085878958
30
0
41
1
10
47.6006854922104
20
0.0420570453569269
30
0
41
1
10
47.1717392287755
20
0.243590301975786
30
0
41
1
10
46.957306183455
20
0.344215414751659
30
0
41
1
10
46.528553501684
20
0.544540399889826
30
0
41
1
10
46.3141923607341
20
0.644255203551381
30
0
41
1
10
45.9925304716693
20
0.792852392349374
30
0
41
1
10
45.8852490680918
20
0.842252919096438
30
0
41
1
10
45.6709535524318
20
0.94062668532672
30
0
41
1
10
45.563924574703
20
0.989592535628844
30
0
41
1
10
45.2431070782026
20
1.13561793706253
30
0
41
1
10
45.0295685338294
20
1.23172953474986
30
0
41
1
10
44.6030374623876
20
1.42131874625849
30
0
41
1
10
44.3900401870087
20
1.51478258028058
30
0
41
1
10
43.9643570937404
20
1.69859804584925
30
0
41
1
10
43.7516600431051
20
1.78892035017509
30
0
41
1
10
43.3264432774656
20
1.96627216034045
30
0
41
1
10
43.1139682449946
20
2.05341915769446
30
0
41
1
10
42.6888517571964
20
2.22362313188916
30
0
41
1
10
42.4762151290273
20
2.30669529703613
30
0
41
1
10
42.0506766712571
20
2.46871875118319
30
0
41
1
10
41.8377563390818
20
2.54761533778287
30
0
41
1
10
41.4113992359381
20
2.70080294256675
30
0
41
1
10
41.1979480800281
20
2.77507073575396
30
0
41
1
10
40.8773580902666
20
2.88298253017555
30
0
41
1
10
40.7704200778731
20
2.91835896305932
30
0
41
1
10
40.5563306901191
20
2.9877973189744
30
0
41
1
10
40.4491289634713
20
3.02186593909934
30
0
41
1
10
40.1274836359831
20
3.121876280403
30
0
41
1
10
39.9132758983403
20
3.18564111396756
30
0
41
1
10
39.4850902714448
20
3.30704609905467
30
0
41
1
10
39.2711039584842
20
3.36468120899568
30
0
41
1
10
38.8431185167579
20
3.47362134903128
30
0
41
1
10
38.6291443344469
20
3.52498478326476
30
0
41
1
10
38.3080874785032
20
3.59734673860714
30
0
41
1
10
38.2010430326493
20
3.62066384170771
30
0
41
1
10
37.9868465067157
20
3.66556880343384
30
0
41
1
10
37.879695593243
20
3.68715980411491
30
0
41
1
10
37.6652934722875
20
3.72868892490962
30
0
41
1
10
37.5580536540077
20
3.74861704962723
30
0
41
1
10
37.3437709930259
20
3.78671407693773
30
0
41
1
10
37.2366873959018
20
3.80489119346367
30
0
41
1
10
36.9155679305208
20
3.85678540629942
30
0
41
1
10
36.7016565688789
20
3.88785415019061
30
0
41
1
10
36.2740107858382
20
3.94293749150228
30
0
41
1
10
36.0603372776424
20
3.96705772761689
30
0
41
1
10
35.6329254214134
20
4.00794367224302
30
0
41
1
10
35.4191543513556
20
4.02463783043615
30
0
41
1
10
34.9913993231821
20
4.05060585921842
30
0
41
1
10
34.7773995236605
20
4.0598232950413
30
0
41
1
10
34.4560341849882
20
4.06795901694991
30
0
41
1
10
34.348834362618
20
4.06972500119522
30
0
41
1
10
34.1343609184457
20
4.07137351344949
30
0
41
1
10
34.0271926870825
20
4.0712567054569
30
0
41
1
10
33.705902206448
20
4.06818247624432
30
0
41
1
10
33.491984181112
20
4.06249076922148
30
0
41
1
10
33.0642650883935
20
4.04353222115083
30
0
41
1
10
32.850501998133
20
4.0303419754384
30
0
41
1
10
32.4230022428434
20
3.99671317001147
30
0
41
1
10
32.2092540267072
20
3.97625409918294
30
0
41
1
10
31.7815530633623
20
3.92810617932256
30
0
41
1
10
31.5676027569685
20
3.90042278334593
30
0
41
1
10
31.2464830478418
20
3.85359773297
30
0
41
1
10
31.1393995472301
20
3.8371050101818
30
0
41
1
10
30.9250866685129
20
3.80233805251879
30
0
41
1
10
30.8178097679403
20
3.78404911299413
30
0
41
1
10
30.4962446820005
20
3.72662387330678
30
0
41
1
10
30.2821307681
20
3.68492924128947
30
0
41
1
10
29.8541987616607
20
3.59485589472266
30
0
41
1
10
29.6403809224343
20
3.5464627295359
30
0
41
1
10
29.2128296934984
20
3.44327147803997
30
0
41
1
10
28.9991461066621
20
3.38849052349181
30
0
41
1
10
28.5716788268211
20
3.27281974678439
30
0
41
1
10
28.3578381243716
20
3.21191030045858
30
0
41
1
10
28.0500959025794
20
3.12013096195693
30
0
41
1
10
27.9563281963633
20
3.09161600566017
30
0
41
1
10
27.8625181982971
20
3.06255132595137
30
0
0
SPLINE
5
D6
100
AcDbEntity
8
1
62
256
6
ByLayer
370
18
48
1
60
0
100
AcDbSpline
70
2053
71
3
72
108
73
104
40
0
40
0
40
0
40
0
40
0.031249999999998
40
0.031249999999998
40
0.062499999999996
40
0.062499999999996
40
0.093749999999994
40
0.093749999999994
40
0.124999999999992
40
0.124999999999992
40
0.15624999999999
40
0.15624999999999
40
0.187499999999988
40
0.187499999999988
40
0.218749999999986
40
0.218749999999986
40
0.234374999999985
40
0.234374999999985
40
0.242187499999985
40
0.242187499999985
40
0.249999999999985
40
0.249999999999985
40
0.281249999999983
40
0.281249999999983
40
0.296874999999983
40
0.296874999999983
40
0.304687499999983
40
0.304687499999983
40
0.312499999999983
40
0.312499999999983
40
0.34374999999998
40
0.34374999999998
40
0.35156249999998
40
0.35156249999998
40
0.35937499999998
40
0.37499999999998
40
0.390624999999981
40
0.390624999999981
40
0.406249999999981
40
0.406249999999981
40
0.437499999999984
40
0.437499999999984
40
0.468749999999988
40
0.468749999999988
40
0.484374999999991
40
0.484374999999991
40
0.499999999999995
40
0.499999999999995
40
0.531249999999998
40
0.531249999999998
40
0.546875000000002
40
0.546875000000002
40
0.562500000000006
40
0.562500000000006
40
0.593750000000013
40
0.593750000000013
40
0.601562500000013
40
0.601562500000013
40
0.609375000000014
40
0.609375000000014
40
0.625000000000017
40
0.625000000000017
40
0.656250000000021
40
0.656250000000021
40
0.671875000000023
40
0.671875000000023
40
0.687500000000024
40
0.687500000000024
40
0.718750000000027
40
0.718750000000027
40
0.734375000000028
40
0.734375000000028
40
0.750000000000029
40
0.750000000000029
40
0.781250000000032
40
0.781250000000032
40
0.789062500000032
40
0.789062500000032
40
0.796875000000032
40
0.812500000000032
40
0.828125000000032
40
0.828125000000032
40
0.835937500000033
40
0.835937500000033
40
0.843750000000033
40
0.843750000000033
40
0.875000000000031
40
0.875000000000031
40
0.88281250000003
40
0.88281250000003
40
0.890625000000028
40
0.906250000000026
40
0.921875000000023
40
0.921875000000023
40
0.937500000000021
40
0.937500000000021
40
0.968750000000012
40
0.968750000000012
40
0.984375000000006
40
0.984375000000006
40
0.992187500000003
40
0.992187500000003
40
1
40
1
40
1
40
1
41
1
10
61.8705340137725
20
-1.96225193122001
30
0
41
1
10
61.8548121459796
20
-1.98361062150633
30
0
41
1
10
61.8397676812366
20
-2.00149592769907
30
0
41
1
10
61.8108810702966
20
-2.03073456686019
30
0
41
1
10
61.7970397432669
20
-2.04208602911541
30
0
41
1
10
61.7705030153226
20
-2.05796755438036
30
0
41
1
10
61.7581783716795
20
-2.06227283418357
30
0
41
1
10
61.735256900582
20
-2.06379090897244
30
0
41
1
10
61.7246567097977
20
-2.06100834718731
30
0
41
1
10
61.7051667339842
20
-2.04781198366536
30
0
41
1
10
61.6965652339598
20
-2.03758712224698
30
0
41
1
10
61.6815413689249
20
-2.00994615402792
30
0
41
1
10
61.6751118640859
20
-1.99253299128529
30
0
41
1
10
61.6645478847197
20
-1.94974424309174
30
0
41
1
10
61.660598498839
20
-1.92511240131128
30
0
41
1
10
61.6566537179814
20
-1.88329299344315
30
0
41
1
10
61.6556711861871
20
-1.86853473004717
30
0
41
1
10
61.6547204551901
20
-1.84510926078181
30
0
41
1
10
61.6544909286537
20
-1.83708566600092
30
0
41
1
10
61.6542135326628
20
-1.82059236137832
30
0
41
1
10
61.6541662676442
20
-1.81210056930485
30
0
41
1
10
61.6543988944916
20
-1.76904242536341
30
0
41
1
10
61.6560548112019
20
-1.73236504058656
30
0
41
1
10
61.6608519566316
20
-1.67394837995443
30
0
41
1
10
61.6628399185561
20
-1.65390516163112
30
0
41
1
10
61.6664545696958
20
-1.62293290182853
30
0
41
1
10
61.6677633059282
20
-1.61247958843313
30
0
41
1
10
61.6705592166322
20
-1.59156107125995
30
0
41
1
10
61.6720502773829
20
-1.58106164152855
30
0
41
1
10
61.6799718995002
20
-1.5283673963863
30
0
41
1
10
61.6877843137464
20
-1.48558759884602
30
0
41
1
10
61.6995747473614
20
-1.4313285833195
30
0
41
1
10
61.7020365567981
20
-1.42043496584009
30
0
41
1
10
61.7071003703132
20
-1.39886574188134
30
0
41
1
10
61.7149310395695
20
-1.36672689560467
30
0
41
1
10
61.7291458515055
20
-1.31421248743024
30
0
41
1
10
61.7417739103667
20
-1.2733070457563
30
0
41
1
10
61.7550552360163
20
-1.2329644593882
30
0
41
1
10
61.7619281432707
20
-1.21336593453202
30
0
41
1
10
61.7831102662947
20
-1.15651900445025
30
0
41
1
10
61.7980390528721
20
-1.12102999789778
30
0
41
1
10
61.829463231715
20
-1.0548093273616
30
0
41
1
10
61.8454927105917
20
-1.02505029147656
30
0
41
1
10
61.8699785778431
20
-0.984912206706298
30
0
41
1
10
61.8782143015213
20
-0.97228934831395
30
0
41
1
10
61.8948290625808
20
-0.948535878200801
30
0
41
1
10
61.9031523281035
20
-0.937490045522878
30
0
41
1
10
61.9279254905351
20
-0.907021521392153
30
0
41
1
10
61.9442805981668
20
-0.890102462512999
30
0
41
1
10
61.9685330819535
20
-0.869556517750652
30
0
41
1
10
61.9766027811241
20
-0.863499204199258
30
0
41
1
10
61.9924488002711
20
-0.853142456444232
30
0
41
1
10
62.0002199531108
20
-0.848838030942659
30
0
41
1
10
62.0230735248534
20
-0.838457071018041
30
0
41
1
10
62.0377006306974
20
-0.834891233845809
30
0
41
1
10
62.0551421251412
20
-0.834668409186037
30
0
41
1
10
62.0585879383101
20
-0.834837310479429
30
0
41
1
10
62.06539098071
20
-0.835610340288639
30
0
41
1
10
62.0687505522007
20
-0.836216205908755
30
0
41
1
10
62.0786016848795
20
-0.83867506666337
30
0
41
1
10
62.084896585016
20
-0.841169429783974
30
0
41
1
10
62.1029478095198
20
-0.85119455509016
30
0
41
1
10
62.1138788644214
20
-0.861242265709535
30
0
41
1
10
62.1284230697925
20
-0.881693374509723
30
0
41
1
10
62.1329678451646
20
-0.889428110901889
30
0
41
1
10
62.1413435152672
20
-0.906781842256493
30
0
41
1
10
62.1451173981558
20
-0.916278145342261
30
0
41
1
10
62.1551794995614
20
-0.947229354790949
30
0
41
1
10
62.1602208134382
20
-0.971119022864656
30
0
41
1
10
62.1650092101578
20
-1.01230191922943
30
0
41
1
10
62.1661411149717
20
-1.02694929742003
30
0
41
1
10
62.1673795934737
20
-1.05812547759919
30
0
41
1
10
62.1674751148939
20
-1.07435192000426
30
0
41
1
10
62.1662064356237
20
-1.12493616834527
30
0
41
1
10
62.163302353133
20
-1.16117644833039
30
0
41
1
10
62.1569382825788
20
-1.20989984063934
30
0
41
1
10
62.1555219222085
20
-1.21985304057628
30
0
41
1
10
62.1524323293233
20
-1.23993991942908
30
0
41
1
10
62.147427067245
20
-1.27025759924703
30
0
41
1
10
62.1372912693327
20
-1.32170521732408
30
0
41
1
10
62.1273356801519
20
-1.36383833327943
30
0
41
1
10
62.1191801403641
20
-1.39581462559605
30
0
41
1
10
62.116336466737
20
-1.40657228762797
30
0
41
1
10
62.1104831903686
20
-1.42797879840094
30
0
41
1
10
62.1074720443646
20
-1.43863678512486
30
0
41
1
10
62.0920135061829
20
-1.49170935199541
30
0
41
1
10
62.0783715172286
20
-1.53347914875539
30
0
41
1
10
62.0598894588363
20
-1.58489531252667
30
0
41
1
10
62.0561303473579
20
-1.59511025450235
30
0
41
1
10
62.0485554005064
20
-1.61523874309307
30
0
41
1
10
62.0370798727741
20
-1.64505465687944
30
0
41
1
10
62.0174259185038
20
-1.69293777297187
30
0
41
1
10
62.0011902832627
20
-1.7293964004038
30
0
41
1
10
61.9847121964897
20
-1.76494157321514
30
0
41
1
10
61.9764594774256
20
-1.78202445640474
30
0
41
1
10
61.9517475353594
20
-1.83118354007618
30
0
41
1
10
61.9353029320596
20
-1.86126006310821
30
0
41
1
10
61.9106983586562
20
-1.902492433139
30
0
41
1
10
61.9025181666602
20
-1.91556045719381
30
0
41
1
10
61.8904238796385
20
-1.93393549530379
30
0
41
1
10
61.8864150114129
20
-1.9398672500048
30
0
41
1
10
61.878441518816
20
-1.95134720044237
30
0
41
1
10
61.8744644807207
20
-1.95691225864843
30
0
41
1
10
61.8705340137725
20
-1.96225193122001
30
0
0
SPLINE
5
D7
100
AcDbEntity
8
1
62
256
6
ByLayer
370
18
48
1
60
0
100
AcDbSpline
70
4
71
3
72
14
73
10
40
0
40
0
40
0
40
0
40
0.249999999999996
40
0.249999999999996
40
0.374999999999993
40
0.374999999999993
40
0.49999999999999
40
0.49999999999999
40
1
40
1
40
1
40
1
41
1
10
61.5995197896637
20
-3.88840089675099
30
0
41
1
10
61.5849754323473
20
-3.91017998877004
30
0
41
1
10
61.5709379582218
20
-3.9304708275111
30
0
41
1
10
61.5506502573188
20
-3.95853782564399
30
0
41
1
10
61.5440157595059
20
-3.96749840647325
30
0
41
1
10
61.5310040748847
20
-3.98460377611863
30
0
41
1
10
61.5246113065395
20
-3.99276745826037
30
0
41
1
10
61.4935166439449
20
-4.0312046348993
30
0
41
1
10
61.4714450432423
20
-4.05434260229723
30
0
41
1
10
61.4518091576498
20
-4.0701454064808
30
0
0
SPLINE
5
D8
100
AcDbEntity
8
1
62
256
6
ByLayer
370
18
48
1
60
0
100
AcDbSpline
70
4
71
3
72
29
73
25
40
0
40
0
40
0
40
0
40
0.125
40
0.125
40
0.25
40
0.25
40
0.374999999999999
40
0.374999999999999
40
0.437500000000002
40
0.468750000000001
40
0.468750000000001
40
0.499999999999999
40
0.499999999999999
40
0.562500000000002
40
0.562500000000002
40
0.625000000000005
40
0.625000000000005
40
0.750000000000006
40
0.750000000000006
40
0.875000000000006
40
0.875000000000006
40
0.937500000000003
40
0.937500000000003
40
1
40
1
40
1
40
1
41
1
10
61.5995197896631
20
-3.88840089675148
30
0
41
1
10
61.6348164286375
20
-3.78564750457863
30
0
41
1
10
61.6702384069408
20
-3.68267630861391
30
0
41
1
10
61.7414259717059
20
-3.47636891966423
30
0
41
1
10
61.777189537754
20
-3.37302949354469
30
0
41
1
10
61.8490474427409
20
-3.16628270764409
30
0
41
1
10
61.8851582334629
20
-3.06282667768062
30
0
41
1
10
61.939575891772
20
-2.90766218501886
30
0
41
1
10
61.9668463564437
20
-2.83008575576844
30
0
41
1
10
61.994208672564
20
-2.75252035785377
30
0
41
1
10
62.0124704694897
20
-2.70081274667956
30
0
41
1
10
62.0215986134004
20
-2.67495767758487
30
0
41
1
10
62.0492433437244
20
-2.5974425292365
30
0
41
1
10
62.0679661651856
20
-2.54582209609615
30
0
41
1
10
62.1060992096815
20
-2.44272393886266
30
0
41
1
10
62.1254314482486
20
-2.3914614893078
30
0
41
1
10
62.1841300439753
20
-2.23911301514815
30
0
41
1
10
62.2242894928746
20
-2.13925866878176
30
0
41
1
10
62.3070862314817
20
-1.94309109522897
30
0
41
1
10
62.3497037148933
20
-1.84674469115544
30
0
41
1
10
62.4157843855084
20
-1.70498309764975
30
0
41
1
10
62.4381710358649
20
-1.65819036469077
30
0
41
1
10
62.483721127767
20
-1.56556051931318
30
0
41
1
10
62.5066958697245
20
-1.52010972121323
30
0
41
1
10
62.5298432178076
20
-1.47557696969841
30
0
0
SPLINE
5
D9
100
AcDbEntity
8
1
62
256
6
ByLayer
370
18
48
1
60
0
100
AcDbSpline
70
4
71
3
72
8
73
4
40
0
40
0
40
0
40
0
40
1
40
1
40
1
40
1
41
1
10
62.5298432178076
20
-1.47557696969835
30
0
41
1
10
62.6511342756911
20
-1.13547512302495
30
0
41
1
10
62.7713251359362
20
-0.794988204029323
30
0
41
1
10
62.8903916760726
20
-0.454107769777806
30
0
0
SPLINE
5
DA
100
AcDbEntity
8
1
62
256
6
ByLayer
370
18
48
1
60
0
100
AcDbSpline
70
4
71
3
72
8
73
4
40
0
40
0
40
0
40
0
40
1
40
1
40
1
40
1
41
1
10
62.8903916760726
20
-0.454107769777806
30
0
41
1
10
62.9257085361987
20
-0.352997696348439
30
0
41
1
10
62.961846053264
20
-0.252348604470825
30
0
41
1
10
62.9988044081838
20
-0.152142083358314
30
0
0
SPLINE
5
DB
100
AcDbEntity
8
1
62
256
6
ByLayer
370
18
48
1
60
0
100
AcDbSpline
70
4
71
3
72
8
73
4
40
0
40
0
40
0
40
0
40
1
40
1
40
1
40
1
41
1
10
62.9988044081839
20
0.152142083359962
30
0
41
1
10
63.0003961972388
20
0.0508624911502693
30
0
41
1
10
63.0004008708218
20
-0.0505651285256761
30
0
41
1
10
62.998804408184
20
-0.152142083358285
30
0
0
SPLINE
5
DC
100
AcDbEntity
8
1
62
256
6
ByLayer
370
18
48
1
60
0
100
AcDbSpline
70
4
71
3
72
55
73
51
40
0
40
0
40
0
40
0
40
0.0625000000000034
40
0.0625000000000034
40
0.0937500000000081
40
0.0937500000000081
40
0.109375000000011
40
0.109375000000011
40
0.125000000000013
40
0.187500000000022
40
0.187500000000022
40
0.250000000000032
40
0.250000000000032
40
0.281250000000037
40
0.281250000000037
40
0.312500000000041
40
0.312500000000041
40
0.375000000000051
40
0.375000000000051
40
0.406250000000055
40
0.406250000000055
40
0.421875000000054
40
0.421875000000054
40
0.437500000000053
40
0.437500000000053
40
0.500000000000048
40
0.500000000000048
40
0.531250000000042
40
0.531250000000042
40
0.562500000000036
40
0.562500000000036
40
0.625000000000025
40
0.625000000000025
40
0.656250000000022
40
0.656250000000022
40
0.687500000000019
40
0.687500000000019
40
0.750000000000013
40
0.750000000000013
40
0.78125000000001
40
0.78125000000001
40
0.812500000000007
40
0.812500000000007
40
0.875000000000004
40
0.875000000000004
40
0.937500000000001
40
0.937500000000001
40
0.968750000000001
40
0.968750000000001
40
1
40
1
40
1
40
1
41
1
10
62.9988044081849
20
0.152142083360616
30
0
41
1
10
62.981593237575
20
0.10341639382716
30
0
41
1
10
62.9634051516656
20
0.0551547812980004
30
0
41
1
10
62.9346481809565
20
-0.0165269249158655
30
0
41
1
10
62.9248159790532
20
-0.0403020187702907
30
0
41
1
10
62.9096888975046
20
-0.0757808368127542
30
0
41
1
10
62.9045740959468
20
-0.0875970564786712
30
0
41
1
10
62.8942911125919
20
-0.110997236121278
30
0
41
1
10
62.8684207689871
20
-0.168985833103363
30
0
41
1
10
62.8417651864599
20
-0.224447341004293
30
0
41
1
10
62.7981729591571
20
-0.309902383534677
30
0
41
1
10
62.775905688379
20
-0.350990104959777
30
0
41
1
10
62.7417839471911
20
-0.409968335455574
30
0
41
1
10
62.7302377349561
20
-0.429262850346589
30
0
41
1
10
62.7073031602983
20
-0.466257257709941
30
0
41
1
10
62.6958837008445
20
-0.484016913222519
30
0
41
1
10
62.6617702129719
20
-0.535101160476557
30
0
41
1
10
62.639221696202
20
-0.566243359683938
30
0
41
1
10
62.6056844083325
20
-0.608441501038016
30
0
41
1
10
62.5945527442755
20
-0.621752049992864
30
0
41
1
10
62.5779242134219
20
-0.64053643255707
30
0
41
1
10
62.5723812663397
20
-0.646612427286385
30
0
41
1
10
62.561419406048
20
-0.658253756372972
30
0
41
1
10
62.5559912275985
20
-0.663830352153724
30
0
41
1
10
62.5291070453433
20
-0.690509851959945
30
0
41
1
10
62.5084184869238
20
-0.708021634892049
30
0
41
1
10
62.47851334483
20
-0.728624173348862
30
0
41
1
10
62.4687334460922
20
-0.734543691366298
30
0
41
1
10
62.4495396526912
20
-0.744455162990448
30
0
41
1
10
62.4400963892824
20
-0.748450301593181
30
0
41
1
10
62.4127683213375
20
-0.75733769640118
30
0
41
1
10
62.3957381998549
20
-0.759244114984398
30
0
41
1
10
62.3717633322473
20
-0.756391181840286
30
0
41
1
10
62.3640345778049
20
-0.754484262221155
30
0
41
1
10
62.3490793180285
20
-0.748769275755222
30
0
41
1
10
62.3418281065569
20
-0.744940236231116
30
0
41
1
10
62.3210656486152
20
-0.730783462144387
30
0
41
1
10
62.3084879176656
20
-0.717813912438913
30
0
41
1
10
62.2912583826707
20
-0.693477525889421
30
0
41
1
10
62.2857894620548
20
-0.684548483794288
30
0
41
1
10
62.2753714539147
20
-0.665092208658194
30
0
41
1
10
62.2704165055701
20
-0.654550572647793
30
0
41
1
10
62.2563377570585
20
-0.620645120153995
30
0
41
1
10
62.2481181380359
20
-0.595324889111453
30
0
41
1
10
62.2336955701606
20
-0.539757639495519
30
0
41
1
10
62.2274943045198
20
-0.509507727277708
30
0
41
1
10
62.219576829779
20
-0.460624645927339
30
0
41
1
10
62.2171665462502
20
-0.443720483838376
30
0
41
1
10
62.2128117949143
20
-0.408867249736971
30
0
41
1
10
62.2108695990227
20
-0.390943906684612
30
0
41
1
10
62.209153707934
20
-0.372537977654957
30
0
0
SPLINE
5
DD
100
AcDbEntity
8
1
62
256
6
ByLayer
370
18
48
1
60
0
100
AcDbSpline
70
4
71
3
72
8
73
4
40
0
40
0
40
0
40
0
40
1
40
1
40
1
40
1
41
1
10
62.209153707934
20
-0.372537977654957
30
0
41
1
10
62.180807229201
20
-0.0684724811577553
30
0
41
1
10
62.1412846364897
20
0.240639010324429
30
0
41
1
10
62.0907908481834
20
0.554703976516919
30
0
0
SPLINE
5
DE
100
AcDbEntity
8
1
62
256
6
ByLayer
370
18
48
1
60
0
100
AcDbSpline
70
4
71
3
72
26
73
22
40
0
40
0
40
0
40
0
40
0.0624999999999977
40
0.0624999999999977
40
0.124999999999995
40
0.124999999999995
40
0.187499999999993
40
0.187499999999993
40
0.249999999999991
40
0.249999999999991
40
0.374999999999986
40
0.374999999999986
40
0.49999999999998
40
0.49999999999998
40
0.624999999999975
40
0.624999999999975
40
0.687499999999978
40
0.687499999999978
40
0.74999999999998
40
0.74999999999998
40
1
40
1
40
1
40
1
41
1
10
62.0907908481834
20
0.55470397651689
30
0
41
1
10
62.0783084240752
20
0.557855539424452
30
0
41
1
10
62.0656451371465
20
0.56021808217875
30
0
41
1
10
62.0399596134233
20
0.563273809713422
30
0
41
1
10
62.026943855878
20
0.563996491940003
30
0
41
1
10
62.0006710395278
20
0.564251405005422
30
0
41
1
10
61.9874054331386
20
0.563741094444225
30
0
41
1
10
61.9607291751911
20
0.561942722162257
30
0
41
1
10
61.9473297834296
20
0.560781530587946
30
0
41
1
10
61.9070135618433
20
0.55606896233337
30
0
41
1
10
61.8799961441074
20
0.551035970526897
30
0
41
1
10
61.8257908181723
20
0.537358790169009
30
0
41
1
10
61.7985937118926
20
0.528606413063329
30
0
41
1
10
61.7440931616368
20
0.507071128173777
30
0
41
1
10
61.7167947283052
20
0.494339056085579
30
0
41
1
10
61.6758806437945
20
0.472908711497155
30
0
41
1
10
61.6622470500068
20
0.465361200306688
30
0
41
1
10
61.6350079352192
20
0.449628541018342
30
0
41
1
10
61.6214035978595
20
0.441465896837997
30
0
41
1
10
61.5534651340795
20
0.398969572292543
30
0
41
1
10
61.4993538128849
20
0.359112662204012
30
0
41
1
10
61.4457449665994
20
0.313025346601108
30
0
0
SPLINE
5
DF
100
AcDbEntity
8
1
62
256
6
ByLayer
370
18
48
1
60
0
100
AcDbSpline
70
4
71
3
72
24
73
20
40
0
40
0
40
0
40
0
40
0.124999999999987
40
0.124999999999987
40
0.249999999999973
40
0.249999999999973
40
0.499999999999947
40
0.499999999999947
40
0.624999999999933
40
0.624999999999933
40
0.687499999999962
40
0.687499999999962
40
0.749999999999991
40
0.749999999999991
40
0.81250000000002
40
0.81250000000002
40
0.875000000000049
40
0.875000000000049
40
1
40
1
40
1
40
1
41
1
10
20.5001348917475
20
4.09948188788755
30
0
41
1
10
20.5001348917475
20
4.0941752110937
30
0
41
1
10
20.5006403055459
20
4.08882235485731
30
0
41
1
10
20.5026529862057
20
4.07827890684652
30
0
41
1
10
20.504158925494
20
4.0730497800007
30
0
41
1
10
20.5103009658196
20
4.05750322434989
30
0
41
1
10
20.5163400438936
20
4.0477120446518
30
0
41
1
10
20.5290304958984
20
4.03417921670189
30
0
41
1
10
20.5338426394397
20
4.02992301956027
30
0
41
1
10
20.5418764782018
20
4.02415877156454
30
0
41
1
10
20.5446991149383
20
4.02233283210677
30
0
41
1
10
20.5506683180695
20
4.0188953521361
30
0
41
1
10
20.5538299569388
20
4.0172791245316
30
0
41
1
10
20.5603543797553
20
4.01436761377073
30
0
41
1
10
20.5637322445708
20
4.01306185931389
30
0
41
1
10
20.5707383314017
20
4.01077564205636
30
0
41
1
10
20.5743966945514
20
4.00978939635723
30
0
41
1
10
20.5855440045059
20
4.00743055412829
30
0
41
1
10
20.5931631764902
20
4.00664240292235
30
0
41
1
10
20.6009856080531
20
4.00670481107531
30
0
0
SPLINE
5
E0
100
AcDbEntity
8
1
62
256
6
ByLayer
370
18
48
1
60
0
100
AcDbSpline
70
2053
71
3
72
103
73
99
40
0
40
0
40
0
40
0
40
0.062500000000004
40
0.062500000000004
40
0.125000000000008
40
0.125000000000008
40
0.156250000000009
40
0.156250000000009
40
0.187500000000011
40
0.187500000000011
40
0.218750000000012
40
0.218750000000012
40
0.234375000000011
40
0.234375000000011
40
0.250000000000011
40
0.250000000000011
40
0.26562500000001
40
0.26562500000001
40
0.27343750000001
40
0.27343750000001
40
0.28125000000001
40
0.28125000000001
40
0.28906250000001
40
0.28906250000001
40
0.29687500000001
40
0.29687500000001
40
0.304687500000009
40
0.304687500000009
40
0.312500000000009
40
0.312500000000009
40
0.320312500000009
40
0.320312500000009
40
0.328125000000009
40
0.328125000000009
40
0.343750000000009
40
0.343750000000009
40
0.359375000000009
40
0.359375000000009
40
0.375000000000008
40
0.375000000000008
40
0.406250000000008
40
0.406250000000008
40
0.437500000000007
40
0.437500000000007
40
0.468750000000006
40
0.468750000000006
40
0.500000000000006
40
0.500000000000006
40
0.531250000000005
40
0.531250000000005
40
0.562500000000004
40
0.562500000000004
40
0.625000000000002
40
0.625000000000002
40
0.656250000000002
40
0.656250000000002
40
0.687500000000001
40
0.687500000000001
40
0.71875
40
0.71875
40
0.749999999999999
40
0.749999999999999
40
0.765624999999997
40
0.765624999999997
40
0.781249999999995
40
0.781249999999995
40
0.789062499999994
40
0.789062499999994
40
0.796874999999993
40
0.796874999999993
40
0.804687499999993
40
0.804687499999993
40
0.812499999999992
40
0.812499999999992
40
0.816406249999996
40
0.816406249999996
40
0.8203125
40
0.8203125
40
0.828124999999999
40
0.828124999999999
40
0.843749999999997
40
0.843749999999997
40
0.859374999999996
40
0.859374999999996
40
0.874999999999994
40
0.874999999999994
40
0.906249999999995
40
0.906249999999995
40
0.921874999999995
40
0.921874999999995
40
0.937499999999995
40
0.937499999999995
40
0.968749999999997
40
0.968749999999997
40
0.984374999999998
40
0.992187499999999
40
0.992187499999999
40
1
40
1
40
1
40
1
41
1
10
0.505791483431081
20
4.2936865359354
30
0
41
1
10
0.510359858613953
20
4.31231237064463
30
0
41
1
10
0.512403068311414
20
4.3320297917582
30
0
41
1
10
0.512216368908867
20
4.3733227949962
30
0
41
1
10
0.509982354599572
20
4.39490023949614
30
0
41
1
10
0.502968771492789
20
4.42883335820312
30
0
41
1
10
0.500011331716195
20
4.44040920677202
30
0
41
1
10
0.492601454753696
20
4.46419066028497
30
0
41
1
10
0.488130429609157
20
4.47644522271185
30
0
41
1
10
0.477351110717052
20
4.50143928068414
30
0
41
1
10
0.471058337108843
20
4.51418335793255
30
0
41
1
10
0.459667066539737
20
4.53381939460189
30
0
41
1
10
0.455540956023356
20
4.54045232265383
30
0
41
1
10
0.446436623875172
20
4.55394220323436
30
0
41
1
10
0.441431651824928
20
4.56083406302511
30
0
41
1
10
0.430434186576122
20
4.5746834494864
30
0
41
1
10
0.424445588081227
20
4.58164774681643
30
0
41
1
10
0.41441930292757
20
4.5921757565043
30
0
41
1
10
0.410901605265565
20
4.59569881300703
30
0
41
1
10
0.403425387407594
20
4.60277889601826
30
0
41
1
10
0.399441614296847
20
4.60635677785265
30
0
41
1
10
0.391073718236214
20
4.61340938788899
30
0
41
1
10
0.386685742879194
20
4.61689079085519
30
0
41
1
10
0.37740083926559
20
4.62374120853662
30
0
41
1
10
0.372462491897863
20
4.62713341180765
30
0
41
1
10
0.362315595393227
20
4.63353408612719
30
0
41
1
10
0.35707927134132
20
4.63656683104341
30
0
41
1
10
0.346231434269896
20
4.64224622669264
30
0
41
1
10
0.340575086629997
20
4.64490322186481
30
0
41
1
10
0.329485105216804
20
4.64951189848315
30
0
41
1
10
0.323979941196711
20
4.65150574400695
30
0
41
1
10
0.313045394260087
20
4.65490491122242
30
0
41
1
10
0.307720338367943
20
4.65627471740822
30
0
41
1
10
0.292450592174987
20
4.65948285635938
30
0
41
1
10
0.282949082356851
20
4.66047476673137
30
0
41
1
10
0.265839125643708
20
4.66086317537963
30
0
41
1
10
0.25809980340739
20
4.66029029248455
30
0
41
1
10
0.243737829489618
20
4.65809984534638
30
0
41
1
10
0.237252273210544
20
4.65649704967626
30
0
41
1
10
0.219339717294531
20
4.65065868579291
30
0
41
1
10
0.209375676465214
20
4.64540173386385
30
0
41
1
10
0.191947912426229
20
4.63318275685216
30
0
41
1
10
0.184674764799524
20
4.62631860856928
30
0
41
1
10
0.172158599773638
20
4.6115399560731
30
0
41
1
10
0.166930246030063
20
4.60361736893717
30
0
41
1
10
0.15814496025456
20
4.58691432892383
30
0
41
1
10
0.154592523410372
20
4.57813145884006
30
0
41
1
10
0.148981762965434
20
4.55980320699476
30
0
41
1
10
0.146935485156064
20
4.55027224852759
30
0
41
1
10
0.144273376051416
20
4.53075105653548
30
0
41
1
10
0.143648545736113
20
4.52073086056362
30
0
41
1
10
0.143802942473087
20
4.48992379657028
30
0
41
1
10
0.146568727361284
20
4.46840723587181
30
0
41
1
10
0.155091989862512
20
4.43450232652077
30
0
41
1
10
0.15867115322618
20
4.42292546384834
30
0
41
1
10
0.167541135394799
20
4.39912585601124
30
0
41
1
10
0.172860207286647
20
4.38684755336485
30
0
41
1
10
0.185428069590216
20
4.36190762484034
30
0
41
1
10
0.192670620371757
20
4.34922282743875
30
0
41
1
10
0.209704729372362
20
4.32326685772054
30
0
41
1
10
0.21945606225924
20
4.31000542629437
30
0
41
1
10
0.237149785676536
20
4.28939088784855
30
0
41
1
10
0.243508243477748
20
4.28247239168937
30
0
41
1
10
0.257348049267279
20
4.26862547524613
30
0
41
1
10
0.26483255501924
20
4.26168205355046
30
0
41
1
10
0.277346264719029
20
4.25121862211083
30
0
41
1
10
0.281730469601314
20
4.24772956234543
30
0
41
1
10
0.290837701346277
20
4.24089549649889
30
0
41
1
10
0.295580546365755
20
4.2375327402695
30
0
41
1
10
0.305543641858321
20
4.23094385942682
30
0
41
1
10
0.310745670952542
20
4.227735522904
30
0
41
1
10
0.321312489605987
20
4.22173817637932
30
0
41
1
10
0.326719395317866
20
4.21892005731482
30
0
41
1
10
0.335046039316808
20
4.21500909704656
30
0
41
1
10
0.337876136460864
20
4.21375134724596
30
0
41
1
10
0.343460953512079
20
4.21141407237573
30
0
41
1
10
0.346228444821435
20
4.21032761832552
30
0
41
1
10
0.354458677819707
20
4.20730671408319
30
0
41
1
10
0.359853570540054
20
4.20560908771637
30
0
41
1
10
0.375737844328455
20
4.20143202896122
30
0
41
1
10
0.385250263329908
20
4.20002435811514
30
0
41
1
10
0.402670559886815
20
4.19905346840889
30
0
41
1
10
0.410281818475625
20
4.19950034530058
30
0
41
1
10
0.424141993139898
20
4.20155578173981
30
0
41
1
10
0.430391348901452
20
4.20319029093628
30
0
41
1
10
0.447251723379395
20
4.20921189205009
30
0
41
1
10
0.456231821018122
20
4.21470344796123
30
0
41
1
10
0.467805612036898
20
4.2241968979616
30
0
41
1
10
0.471335599304353
20
4.22759011511809
30
0
41
1
10
0.477794925203199
20
4.23468483688217
30
0
41
1
10
0.480730349384913
20
4.23839032660848
30
0
41
1
10
0.488804094021589
20
4.24990310483059
30
0
41
1
10
0.493218236247515
20
4.25810236274097
30
0
41
1
10
0.498729448820512
20
4.27100927099025
30
0
41
1
10
0.501203774267367
20
4.27761669553499
30
0
41
1
10
0.503293048608413
20
4.28443590084555
30
0
41
1
10
0.504603445865968
20
4.28902747987152
30
0
41
1
10
0.505220436533222
20
4.29135830659675
30
0
41
1
10
0.505791483431081
20
4.2936865359354
30
0
0
SPLINE
5
E1
100
AcDbEntity
8
1
62
256
6
ByLayer
370
13
48
1
60
0
100
AcDbSpline
70
4
71
3
72
10
73
6
40
0
40
0
40
0
40
0
40
0.5
40
0.5
40
1
40
1
40
1
40
1
41
1
10
20.6386228737589
20
4.00643708012038
30
0
41
1
10
20.6327114557148
20
4.00658025315801
30
0
41
1
10
20.6266089953548
20
4.0066714607743
30
0
41
1
10
20.6140370915629
20
4.00676000898699
30
0
41
1
10
20.6075187291734
20
4.0067565640729
30
0
41
1
10
20.6009856080531
20
4.00670481107531
30
0
0
SPLINE
5
E2
100
AcDbEntity
8
1
62
256
6
ByLayer
370
13
48
1
60
0
100
AcDbSpline
70
4
71
3
72
42
73
38
40
0
40
0
40
0
40
0
40
0.0625000000000001
40
0.0625000000000001
40
0.0937500000000002
40
0.0937500000000002
40
0.125
40
0.125
40
0.1875
40
0.1875
40
0.21875
40
0.21875
40
0.25
40
0.25
40
0.3125
40
0.375
40
0.4375
40
0.4375
40
0.46875
40
0.46875
40
0.5
40
0.5
40
0.53125
40
0.53125
40
0.5625
40
0.5625
40
0.625
40
0.6875
40
0.75
40
0.75
40
0.78125
40
0.78125
40
0.8125
40
0.8125
40
0.875
40
0.9375
40
1
40
1
40
1
40
1
41
1
10
20.6009856080531
20
4.00670481107531
30
0
41
1
10
20.6009807746114
20
3.99886275980114
30
0
41
1
10
20.6009751448804
20
3.98591747209557
30
0
41
1
10
20.6009656031008
20
3.95887319626621
30
0
41
1
10
20.6009622346567
20
3.94857003704769
30
0
41
1
10
20.6009551688372
20
3.92548703746434
30
0
41
1
10
20.6009514728976
20
3.9127140959757
30
0
41
1
10
20.6009399204549
20
3.87073915702319
30
0
41
1
10
20.6009316007795
20
3.83788790877267
30
0
41
1
10
20.6009182644089
20
3.78133521917178
30
0
41
1
10
20.6009136757728
20
3.76126996403022
30
0
41
1
10
20.6009042195084
20
3.71869423170884
30
0
41
1
10
20.6008993479018
20
3.69616485714101
30
0
41
1
10
20.6008843466552
20
3.62498287172991
30
0
41
1
10
20.6008635017127
20
3.52138464423064
30
0
41
1
10
20.6008299188981
20
3.34074197647112
30
0
41
1
10
20.6008060424049
20
3.20363454286726
30
0
41
1
10
20.6007875673181
20
3.0944654033068
30
0
41
1
10
20.6007813140167
20
3.05701778942779
30
0
41
1
10
20.6007686119032
20
2.97997419831296
30
0
41
1
10
20.6007621529131
20
2.94031459009727
30
0
41
1
10
20.6007490884486
20
2.85916004309496
30
0
41
1
10
20.6007424852934
20
2.81768135732949
30
0
41
1
10
20.600729131453
20
2.73292293024392
30
0
41
1
10
20.6007223701552
20
2.68957403296591
30
0
41
1
10
20.6007019528031
20
2.55746207340647
30
0
41
1
10
20.6006743660374
20
2.37576745274558
30
0
41
1
10
20.6006317077947
20
2.08705989877331
30
0
41
1
10
20.6006022391254
20
1.88387399669085
30
0
41
1
10
20.6005796623705
20
1.72739962026094
30
0
41
1
10
20.600572057333
20
1.67455971548412
30
0
41
1
10
20.6005566702555
20
1.56749303991683
30
0
41
1
10
20.600548880289
20
1.51321086679809
30
0
41
1
10
20.6005254297899
20
1.34974079114335
30
0
41
1
10
20.6004938156205
20
1.12919965818327
30
0
41
1
10
20.6004449740348
20
0.790793559895832
30
0
41
1
10
20.60041118425
20
0.560109511967681
30
0
41
1
10
20.6003939016935
20
0.443463917408138
30
0
0
SPLINE
5
E3
100
AcDbEntity
8
1
62
256
6
ByLayer
370
13
48
1
60
0
100
AcDbSpline
70
4
71
3
72
8
73
4
40
0
40
0
40
0
40
0
40
1
40
1
40
1
40
1
41
1
10
20.6441011813985
20
4.16720217071938
30
0
41
1
10
20.6436743804933
20
4.11714053350499
30
0
41
1
10
20.6432431435417
20
4.06707854576626
30
0
41
1
10
20.6428074826074
20
4.01701619349558
30
0
0
SPLINE
5
E4
100
AcDbEntity
8
1
62
256
6
ByLayer
370
18
48
1
60
0
100
AcDbSpline
70
4
71
3
72
50
73
46
40
0
40
0
40
0
40
0
40
0.0490821636966899
40
0.0490821636966899
40
0.0736232455450352
40
0.0736232455450352
40
0.0981643273933801
40
0.0981643273933801
40
0.196328654786758
40
0.196328654786758
40
0.245410818483447
40
0.245410818483447
40
0.294492982180135
40
0.294492982180135
40
0.343575145876824
40
0.343575145876824
40
0.392657309573513
40
0.392657309573513
40
0.490821636966891
40
0.490821636966891
40
0.53990380066358
40
0.53990380066358
40
0.588985964360269
40
0.588985964360269
40
0.613527046208612
40
0.613527046208612
40
0.638068128056955
40
0.638068128056955
40
0.687150291753641
40
0.687150291753641
40
0.736232455450327
40
0.736232455450327
40
0.785314619147013
40
0.785314619147013
40
0.834396782843699
40
0.834396782843699
40
0.858937864692042
40
0.858937864692042
40
0.883478946540385
40
0.883478946540385
40
0.932561110237074
40
0.932561110237074
40
0.981643273933763
40
0.981643273933763
40
1
40
1
40
1
40
1
41
1
10
20.6428074826074
20
4.01701619349558
30
0
41
1
10
20.8567297250206
20
4.01204490665688
30
0
41
1
10
21.0707657421072
20
4.00285471300239
30
0
41
1
10
21.3921045752644
20
3.98302306772803
30
0
41
1
10
21.499302654551
20
3.97540154986922
30
0
41
1
10
21.7136446011234
20
3.95820160302299
30
0
41
1
10
21.8206944425261
20
3.94863146855337
30
0
41
1
10
22.3553980272597
20
3.89608699104508
30
0
41
1
10
22.7814090720322
20
3.83904307703546
30
0
41
1
10
23.4186197992298
20
3.73391496937413
30
0
41
1
10
23.6307061293253
20
3.69561906086298
30
0
41
1
10
24.0542398697796
20
3.61301711928161
30
0
41
1
10
24.2657199960926
20
3.56865857067373
30
0
41
1
10
24.6886343553193
20
3.47335819444018
30
0
41
1
10
24.9000453096278
20
3.42245885584731
30
0
41
1
10
25.3228702224576
20
3.31459796556871
30
0
41
1
10
25.5342971216319
20
3.25762435041227
30
0
41
1
10
26.1691532339615
20
3.07776903102925
30
0
41
1
10
26.5931123282806
20
2.94598249551404
30
0
41
1
10
27.2306060452219
20
2.73272448541167
30
0
41
1
10
27.4433523138948
20
2.6590348971865
30
0
41
1
10
27.8692778277648
20
2.50669175591116
30
0
41
1
10
28.0825001011986
20
2.42804066245401
30
0
41
1
10
28.4034469405679
20
2.30642859605396
30
0
41
1
10
28.5106700335036
20
2.26526221441563
30
0
41
1
10
28.7249337315192
20
2.18199370669484
30
0
41
1
10
28.8320210891971
20
2.13987545566897
30
0
41
1
10
29.1531720262942
20
2.01216194041544
30
0
41
1
10
29.3671158833164
20
1.92519841902504
30
0
41
1
10
29.7946087680452
20
1.74788169605378
30
0
41
1
10
30.0081557617282
20
1.65751760027086
30
0
41
1
10
30.4349125662717
20
1.47358505002234
30
0
41
1
10
30.6481850595195
20
1.38006461121284
30
0
41
1
10
31.0754002146715
20
1.19094575308404
30
0
41
1
10
31.2892897100317
20
1.09530297037884
30
0
41
1
10
31.6104929292192
20
0.9503614603681
30
0
41
1
10
31.7176232588168
20
0.901802055106401
30
0
41
1
10
31.9320104011614
20
0.804222294479558
30
0
41
1
10
32.0392329211383
20
0.755217897253885
30
0
41
1
10
32.360307073717
20
0.607916795671457
30
0
41
1
10
32.5738180887451
20
0.509199393797132
30
0
41
1
10
32.9998579663273
20
0.310875792326129
30
0
41
1
10
33.2124101281048
20
0.211341267447523
30
0
41
1
10
33.5040762701364
20
0.0747968032404174
30
0
41
1
10
33.5834245449196
20
0.0376393572440179
30
0
41
1
10
33.6627317866462
20
0.0004914043358326
30
0
0
SPLINE
5
E5
100
AcDbEntity
8
1
62
256
6
ByLayer
370
18
48
1
60
0
100
AcDbSpline
70
4
71
3
72
52
73
48
40
0
40
0
40
0
40
0
40
0.0062934821120051
40
0.0062934821120051
40
0.0536128401066748
40
0.0536128401066748
40
0.100932198101344
40
0.100932198101344
40
0.148251556096014
40
0.148251556096014
40
0.171911235093347
40
0.171911235093347
40
0.195570914090681
40
0.195570914090681
40
0.242890272085348
40
0.242890272085348
40
0.290209630080015
40
0.290209630080015
40
0.337528988074682
40
0.337528988074682
40
0.384848346069348
40
0.384848346069348
40
0.408508025066682
40
0.408508025066682
40
0.432167704064015
40
0.432167704064015
40
0.479487062058683
40
0.479487062058683
40
0.52680642005335
40
0.52680642005335
40
0.621445136042681
40
0.621445136042681
40
0.668764494037345
40
0.668764494037345
40
0.71608385203201
40
0.71608385203201
40
0.763403210026674
40
0.763403210026674
40
0.810722568021339
40
0.810722568021339
40
0.905361284010667
40
0.905361284010667
40
0.929020963008
40
0.929020963008
40
0.952680642005334
40
0.952680642005334
40
1
40
1
40
1
40
1
41
1
10
34.1429054834921
20
-0.234960593694694
30
0
41
1
10
34.1147524629282
20
-0.221802306052865
30
0
41
1
10
34.0865961209437
20
-0.208638398430907
30
0
41
1
10
33.8467032082574
20
-0.0964681737922888
30
0
41
1
10
33.6346976106606
20
0.0026071265533005
30
0
41
1
10
33.2100820751235
20
0.200917625361171
30
0
41
1
10
32.9974982151944
20
0.300237610952166
30
0
41
1
10
32.5713966573039
20
0.498143333480783
30
0
41
1
10
32.3578570271255
20
0.596659803438399
30
0
41
1
10
32.0367449207748
20
0.743675009192685
30
0
41
1
10
31.9295112733282
20
0.792586173448569
30
0
41
1
10
31.7150968717683
20
0.889988223836184
30
0
41
1
10
31.6079528949184
20
0.938461944560515
30
0
41
1
10
31.286708498502
20
1.08315563174932
30
0
41
1
10
31.0727914307615
20
1.17864592867372
30
0
41
1
10
30.6455202853861
20
1.36748625529134
30
0
41
1
10
30.4322178157664
20
1.46087744758199
30
0
41
1
10
30.0053969015467
20
1.64455977741136
30
0
41
1
10
29.7918181912628
20
1.73480792425525
30
0
41
1
10
29.3642661659168
20
1.91191928078405
30
0
41
1
10
29.1502949326708
20
1.99879331813841
30
0
41
1
10
28.8291059134102
20
2.1263941304361
30
0
41
1
10
28.7220062864409
20
2.16847827130249
30
0
41
1
10
28.5077186465436
20
2.25168495800685
30
0
41
1
10
28.4004829655819
20
2.29282403176788
30
0
41
1
10
28.0794939033105
20
2.41436574763424
30
0
41
1
10
27.8662394226885
20
2.4929793754028
30
0
41
1
10
27.4402442653073
20
2.64526207681118
30
0
41
1
10
27.2274625317019
20
2.71893349362159
30
0
41
1
10
26.5898629180011
20
2.93217869938735
30
0
41
1
10
26.1658323716113
20
3.06400823917875
30
0
41
1
10
25.5308665789022
20
3.24399954213803
30
0
41
1
10
25.3194020779092
20
3.30102946943174
30
0
41
1
10
24.896500727696
20
3.40902262785514
30
0
41
1
10
24.6850516781984
20
3.45999894211451
30
0
41
1
10
24.2620627896632
20
3.55547721335702
30
0
41
1
10
24.0505446772369
20
3.5999348229214
30
0
41
1
10
23.6269343413332
20
3.68275119697603
30
0
41
1
10
23.4148112772496
20
3.72116445421563
30
0
41
1
10
22.7774983588947
20
3.82667852181669
30
0
41
1
10
22.3514268470601
20
3.88402168164316
30
0
41
1
10
21.8166562366136
20
3.93699226178256
30
0
41
1
10
21.7095934267733
20
3.94665024786286
30
0
41
1
10
21.4952264041931
20
3.96403115471824
30
0
41
1
10
21.3880155923873
20
3.97174575739803
30
0
41
1
10
21.0666373852154
20
3.99186403347784
30
0
41
1
10
20.8525738485211
20
4.00125524206842
30
0
41
1
10
20.6386228737589
20
4.00643708012038
30
0
0
SPLINE
5
E6
100
AcDbEntity
8
1
62
256
6
ByLayer
370
18
48
1
60
0
100
AcDbSpline
70
4
71
3
72
49
73
45
40
0
40
0
40
0
40
0
40
0.0217645376741587
40
0.0442485742122822
40
0.0442485742122822
40
0.0667326107504057
40
0.0667326107504057
40
0.1566687569029
40
0.1566687569029
40
0.201636829979147
40
0.201636829979147
40
0.246604903055395
40
0.246604903055395
40
0.336541049207887
40
0.336541049207887
40
0.426477195360379
40
0.426477195360379
40
0.471445268436624
40
0.471445268436624
40
0.516413341512871
40
0.516413341512871
40
0.538897378050992
40
0.538897378050992
40
0.561381414589114
40
0.561381414589114
40
0.606349487665358
40
0.606349487665358
40
0.651317560741601
40
0.651317560741601
40
0.696285633817845
40
0.696285633817845
40
0.741253706894088
40
0.741253706894088
40
0.76373774343221
40
0.76373774343221
40
0.786221779970332
40
0.786221779970332
40
0.876157926122812
40
0.876157926122812
40
0.921125999199051
40
0.921125999199051
40
0.966094072275289
40
0.966094072275289
40
1
40
1
40
1
40
1
41
1
10
20.9328807326794
20
0.290056149229145
30
0
41
1
10
21.036827530562
20
0.242013897501067
30
0
41
1
10
21.2481479154844
20
0.144209721166391
30
0
41
1
10
21.4594920778702
20
0.0462325585756673
30
0
41
1
10
21.6743086886137
20
-0.0533754831666329
30
0
41
1
10
21.7816730156664
20
-0.103169766717997
30
0
41
1
10
22.3176353472685
20
-0.35163732422231
30
0
41
1
10
22.7443265374275
20
-0.549106880284256
30
0
41
1
10
23.3824920027341
20
-0.840679569535297
30
0
41
1
10
23.5949041595363
20
-0.93709457353421
30
0
41
1
10
24.0193659993231
20
-1.12784745764509
30
0
41
1
10
24.231412113308
20
-1.22219218208616
30
0
41
1
10
24.867224250778
20
-1.50163791306886
30
0
41
1
10
25.2906641972322
20
-1.68311920358158
30
0
41
1
10
26.1382942783821
20
-2.03318436025145
30
0
41
1
10
26.5624836169035
20
-2.20179550621222
30
0
41
1
10
27.2004372642199
20
-2.44280692523586
30
0
41
1
10
27.4133689724904
20
-2.52115663701855
30
0
41
1
10
27.8400728341451
20
-2.67338187737758
30
0
41
1
10
28.0538423672906
20
-2.74726010954478
30
0
41
1
10
28.3752361918608
20
-2.85445971025794
30
0
41
1
10
28.4825337908242
20
-2.8896038597716
30
0
41
1
10
28.6972084672802
20
-2.95858700752422
30
0
41
1
10
28.8044749879745
20
-2.99239113001312
30
0
41
1
10
29.126103898649
20
-3.0917063359604
30
0
41
1
10
29.3402943925648
20
-3.1551167856712
30
0
41
1
10
29.7684049167129
20
-3.27600887637431
30
0
41
1
10
29.9823285744034
20
-3.33349226975184
30
0
41
1
10
30.4102013907601
20
-3.44224203605012
30
0
41
1
10
30.6241594929164
20
-3.49351962444592
30
0
41
1
10
31.0522428196467
20
-3.58963079737992
30
0
41
1
10
31.2663648114664
20
-3.63446339143886
30
0
41
1
10
31.587817047378
20
-3.69671841412526
30
0
41
1
10
31.695013047313
20
-3.71663811309659
30
0
41
1
10
31.9095250551494
20
-3.75479049966094
30
0
41
1
10
32.0168914500383
20
-3.77303055000195
30
0
41
1
10
32.5528027052482
20
-3.85974845829992
30
0
41
1
10
32.9794730584067
20
-3.91493050985076
30
0
41
1
10
33.6174649998817
20
-3.97594874513928
30
0
41
1
10
33.8297900227804
20
-3.99266678750323
30
0
41
1
10
34.2540184619769
20
-4.01884958515146
30
0
41
1
10
34.4659424927313
20
-4.02836849971663
30
0
41
1
10
34.8374406004242
20
-4.03870809945167
30
0
41
1
10
34.9970626015306
20
-4.04108279426072
30
0
41
1
10
35.1566530701831
20
-4.04139520649957
30
0
0
SPLINE
5
E7
100
AcDbEntity
8
1
62
256
6
ByLayer
370
18
48
1
60
0
100
AcDbSpline
70
4
71
3
72
48
73
44
40
0
40
0
40
0
40
0
40
0.0405115590308054
40
0.0405115590308054
40
0.0871838249552054
40
0.0871838249552054
40
0.133856090879605
40
0.133856090879605
40
0.227200622728408
40
0.227200622728408
40
0.250536755690609
40
0.250536755690609
40
0.273872888652809
40
0.273872888652809
40
0.32054515457721
40
0.32054515457721
40
0.367217420501612
40
0.367217420501612
40
0.413889686426013
40
0.413889686426013
40
0.460561952350414
40
0.460561952350414
40
0.483898085312614
40
0.483898085312614
40
0.507234218274815
40
0.507234218274815
40
0.553906484199214
40
0.553906484199214
40
0.600578750123613
40
0.600578750123613
40
0.69392328197241
40
0.69392328197241
40
0.787267813821208
40
0.787267813821208
40
0.833940079745606
40
0.833940079745606
40
0.880612345670005
40
0.880612345670005
40
0.9739568775188
40
0.9739568775188
40
0.997293010480999
40
0.997293010480999
40
1
40
1
40
1
40
1
41
1
10
35.2250194322988
20
-4.05129726457315
30
0
41
1
10
35.0413117795328
20
-4.05185059732023
30
0
41
1
10
34.8575710784216
20
-4.04966600245484
30
0
41
1
10
34.46193178562
20
-4.03904759523584
30
0
41
1
10
34.2500107008289
20
-4.02973060664806
30
0
41
1
10
33.82578626805
20
-4.00393146896437
30
0
41
1
10
33.6134619285727
20
-3.98739571229896
30
0
41
1
10
32.9754685751833
20
-3.926893356872
30
0
41
1
10
32.5487927066754
20
-3.87201316247206
30
0
41
1
10
32.0128616754003
20
-3.78561187408968
30
0
41
1
10
31.9054903726762
20
-3.76743208341284
30
0
41
1
10
31.6909691367884
20
-3.72939427046524
30
0
41
1
10
31.5837687502301
20
-3.70952891416619
30
0
41
1
10
31.2623038808322
20
-3.6474283221502
30
0
41
1
10
31.0481742024331
20
-3.60268722970594
30
0
41
1
10
30.6200774095412
20
-3.5067351738262
30
0
41
1
10
30.4061141426819
20
-3.45552447492344
30
0
41
1
10
29.9782304434437
20
-3.34688310850063
30
0
41
1
10
29.7643007557827
20
-3.28944177718623
30
0
41
1
10
29.336175945505
20
-3.16860933912918
30
0
41
1
10
29.1219773354787
20
-3.10521625873361
30
0
41
1
10
28.8003357680261
20
-3.00590669041472
30
0
41
1
10
28.6930649133113
20
-2.97210108862782
30
0
41
1
10
28.4783811172601
20
-2.90310851032231
30
0
41
1
10
28.3710789899091
20
-2.86795646314843
30
0
41
1
10
28.0496739361138
20
-2.76072472769343
30
0
41
1
10
27.8358993922029
20
-2.68681293605684
30
0
41
1
10
27.4091888389285
20
-2.53449712735383
30
0
41
1
10
27.1962551618598
20
-2.45609093712767
30
0
41
1
10
26.5582980568291
20
-2.21487739700265
30
0
41
1
10
26.1341104502297
20
-2.04608649296719
30
0
41
1
10
25.2864889410876
20
-1.69557071626093
30
0
41
1
10
24.8630547249198
20
-1.51382068259781
30
0
41
1
10
24.2272499178804
20
-1.23390362723595
30
0
41
1
10
24.0152062935387
20
-1.13938990764217
30
0
41
1
10
23.5907472164965
20
-0.948278504656088
30
0
41
1
10
23.3783351962994
20
-0.851674285198897
30
0
41
1
10
22.7401654566614
20
-0.559504079535401
30
0
41
1
10
22.3134656599326
20
-0.361595265747013
30
0
41
1
10
21.7774838100316
20
-0.112524389865172
30
0
41
1
10
21.6701150171837
20
-0.0626066228876141
30
0
41
1
10
21.5502421171967
20
-0.0068848224572946
30
0
41
1
10
21.5377824600899
20
-0.0010931781260126
30
0
41
1
10
21.5253230266667
20
0.0046982021410429
30
0
0
SPLINE
5
E8
100
AcDbEntity
8
1
62
256
6
ByLayer
370
18
48
1
60
0
100
AcDbSpline
70
4
71
3
72
43
73
39
40
0
40
0
40
0
40
0
40
0.0624999999999994
40
0.124999999999999
40
0.187499999999998
40
0.187499999999998
40
0.218749999999998
40
0.218749999999998
40
0.249999999999998
40
0.249999999999998
40
0.312499999999998
40
0.374999999999997
40
0.437499999999997
40
0.437499999999997
40
0.468749999999997
40
0.468749999999997
40
0.499999999999997
40
0.499999999999997
40
0.562499999999997
40
0.562499999999997
40
0.593749999999997
40
0.593749999999997
40
0.624999999999997
40
0.624999999999997
40
0.687499999999998
40
0.687499999999998
40
0.718749999999998
40
0.718749999999998
40
0.749999999999998
40
0.749999999999998
40
0.812499999999999
40
0.874999999999999
40
0.937499999999999
40
0.937499999999999
40
0.953125
40
0.953125
40
0.96875
40
1
40
1
40
1
40
1
41
1
10
61.4230087980015
20
-0.272997554773724
30
0
41
1
10
61.4085769042748
20
-0.392077013599447
30
0
41
1
10
61.3834319027823
20
-0.628113960501281
30
0
41
1
10
61.3549190408704
20
-0.975827483827516
30
0
41
1
10
61.3409679975474
20
-1.20334101188519
30
0
41
1
10
61.3320656438611
20
-1.37230752992298
30
0
41
1
10
61.329359026371
20
-1.42835125155966
30
0
41
1
10
61.324419365352
20
-1.53986765929085
30
0
41
1
10
61.3221827862684
20
-1.59545531838975
30
0
41
1
10
61.3161699350887
20
-1.75983170297047
30
0
41
1
10
61.3099614436256
20
-1.97338476880998
30
0
41
1
10
61.304870249284
20
-2.27728011214367
30
0
41
1
10
61.3037440842386
20
-2.46894704072503
30
0
41
1
10
61.3036329568545
20
-2.6085154237048
30
0
41
1
10
61.303719063798
20
-2.6543402699586
30
0
41
1
10
61.3041291443963
20
-2.74456768179135
30
0
41
1
10
61.3044527230818
20
-2.78882602805641
30
0
41
1
10
61.3057644563244
20
-2.91858709620806
30
0
41
1
10
61.307090454182
20
-3.00127752985875
30
0
41
1
10
61.309778563649
20
-3.11958791273523
30
0
41
1
10
61.3107929890406
20
-3.15809748625543
30
0
41
1
10
61.313068714159
20
-3.23306171617079
30
0
41
1
10
61.3143275848208
20
-3.26944384627277
30
0
41
1
10
61.3184946492259
20
-3.3753145659538
30
0
41
1
10
61.3217893585481
20
-3.44153376721255
30
0
41
1
10
61.3276856583493
20
-3.53430315728471
30
0
41
1
10
61.3298156256924
20
-3.56418258495441
30
0
41
1
10
61.3344087267631
20
-3.62138997901744
30
0
41
1
10
61.3368720315015
20
-3.64873661773254
30
0
41
1
10
61.3448180737436
20
-3.72707083409298
30
0
41
1
10
61.3568901310039
20
-3.821648533905
30
0
41
1
10
61.38053738487
20
-3.9344338757293
30
0
41
1
10
61.4009362915623
20
-3.99015740701725
30
0
41
1
10
61.4155037074423
20
-4.01874016667313
30
0
41
1
10
61.418510660175
20
-4.02414712673911
30
0
41
1
10
61.4246994095606
20
-4.03430106089445
30
0
41
1
10
61.434248739543
20
-4.04855142291507
30
0
41
1
10
61.4446333790047
20
-4.05987013300003
30
0
41
1
10
61.4519628124047
20
-4.0661153615477
30
0
0
SPLINE
5
E9
100
AcDbEntity
8
1
62
256
6
ByLayer
370
18
48
1
60
0
100
AcDbSpline
70
4
71
3
72
8
73
4
40
0
40
0
40
0
40
0
40
1
40
1
40
1
40
1
41
1
10
35.0982334593004
20
4.04118872355076
30
0
41
1
10
35.1187652406321
20
4.04129367230044
30
0
41
1
10
35.1392964111371
20
4.04136447493735
30
0
41
1
10
35.1598270646189
20
4.04140114796965
30
0
0
SPLINE
5
EA
100
AcDbEntity
8
1
62
256
6
ByLayer
370
18
48
1
60
0
100
AcDbSpline
70
4
71
3
72
31
73
27
40
0
40
0
40
0
40
0
40
0.0436570573742053
40
0.0436570573742053
40
0.139291351636782
40
0.139291351636782
40
0.234925645899359
40
0.234925645899359
40
0.330559940161936
40
0.330559940161936
40
0.426194234424513
40
0.426194234424513
40
0.474011381555802
40
0.497919955121446
40
0.497919955121446
40
0.52182852868709
40
0.52182852868709
40
0.617462822949672
40
0.617462822949672
40
0.713097117212254
40
0.713097117212254
40
0.808731411474836
40
0.808731411474836
40
0.904365705737418
40
0.904365705737418
40
1
40
1
40
1
40
1
41
1
10
48.1406837732223
20
0.289923723588629
30
0
41
1
10
48.3358756717717
20
0.198544845761233
30
0
41
1
10
48.5306471227125
20
0.107123595611654
30
0
41
1
10
49.1509594005868
20
-0.184175138308689
30
0
41
1
10
49.5751775234399
20
-0.383578415486085
30
0
41
1
10
50.4219441274421
20
-0.777575572632173
30
0
41
1
10
50.8444763284065
20
-0.972229934789311
30
0
41
1
10
51.6894559230365
20
-1.35341115574712
30
0
41
1
10
52.1119086553462
20
-1.53992144561676
30
0
41
1
10
52.9583476279755
20
-1.9013995164305
30
0
41
1
10
53.3823165960305
20
-2.07642532427357
30
0
41
1
10
54.0206308126182
20
-2.32787032935804
30
0
41
1
10
54.3403819769526
20
-2.45080736229153
30
0
41
1
10
54.6612619130173
20
-2.56908101034509
30
0
41
1
10
54.8754599280203
20
-2.64683769448715
30
0
41
1
10
54.9825582721569
20
-2.68511797967884
30
0
41
1
10
55.5170904027866
20
-2.87306948165298
30
0
41
1
10
55.9426416083132
20
-3.01285640448808
30
0
41
1
10
56.791310142489
20
-3.26928500841851
30
0
41
1
10
57.2144328127333
20
-3.38587967669594
30
0
41
1
10
58.0598530825933
20
-3.59378175257268
30
0
41
1
10
58.4821111781242
20
-3.68521200722265
30
0
41
1
10
59.3274587208659
20
-3.8415588485779
30
0
41
1
10
59.7505686434563
20
-3.90641254260041
30
0
41
1
10
60.599099762024
20
-4.00785364117763
30
0
41
1
10
61.0245218680168
20
-4.04444965015512
30
0
41
1
10
61.451962813024
20
-4.06611536154122
30
0
0
SPLINE
5
EB
100
AcDbEntity
8
1
62
256
6
ByLayer
370
18
48
1
60
0
100
AcDbSpline
70
4
71
3
72
10
73
6
40
0
40
0
40
0
40
0
40
0.5
40
0.5
40
1
40
1
40
1
40
1
41
1
10
61.4479659320689
20
-4.07699995053349
30
0
41
1
10
61.4486411082886
20
-4.07590206289888
30
0
41
1
10
61.4493237708438
20
-4.0747484732222
30
0
41
1
10
61.4506532308495
20
-4.07238843931756
30
0
41
1
10
61.4512895631737
20
-4.07119694479294
30
0
41
1
10
61.4518091576499
20
-4.07014540648066
30
0
0
SPLINE
5
EC
100
AcDbEntity
8
1
62
256
6
ByLayer
370
18
48
1
60
0
100
AcDbSpline
70
4
71
3
72
10
73
6
40
0
40
0
40
0
40
0
40
0.5
40
0.5
40
1
40
1
40
1
40
1
41
1
10
61.4519628123567
20
-4.06611536150797
30
0
41
1
10
61.4521461364381
20
-4.06627156741442
30
0
41
1
10
61.4522437304752
20
-4.06666459965871
30
0
41
1
10
61.4522106415885
20
-4.06800812436612
30
0
41
1
10
61.4520734685102
20
-4.06896899503474
30
0
41
1
10
61.4518091576499
20
-4.07014540648066
30
0
0
SPLINE
5
ED
100
AcDbEntity
8
1
62
256
6
ByLayer
370
18
48
1
60
0
100
AcDbSpline
70
4
71
3
72
8
73
4
40
0
40
0
40
0
40
0
40
1
40
1
40
1
40
1
41
1
10
61.35806240554
20
-4.22279566407403
30
0
41
1
10
61.3879996319562
20
-4.17438058343501
30
0
41
1
10
61.4179662202944
20
-4.12578175243476
30
0
41
1
10
61.4479659320689
20
-4.07699995053349
30
0
0
SPLINE
5
EE
100
AcDbEntity
8
1
62
256
6
ByLayer
370
18
48
1
60
0
100
AcDbSpline
70
4
71
3
72
29
73
25
40
0
40
0
40
0
40
0
40
0.10035122721318
40
0.10035122721318
40
0.200702454426361
40
0.200702454426361
40
0.301053681639541
40
0.301053681639541
40
0.401404908852723
40
0.401404908852723
40
0.501756136065903
40
0.501756136065903
40
0.526843942869198
40
0.526843942869198
40
0.551931749672492
40
0.602107363279078
40
0.602107363279078
40
0.702458590492254
40
0.702458590492254
40
0.80280981770543
40
0.80280981770543
40
0.903161044918605
40
0.903161044918605
40
1
40
1
40
1
40
1
41
1
10
61.4479659320689
20
-4.07699995053349
30
0
41
1
10
61.0205278274249
20
-4.05573847702209
30
0
41
1
10
60.5951143893862
20
-4.01949887541809
30
0
41
1
10
59.746604475772
20
-3.9186860104
30
0
41
1
10
59.3235072466273
20
-3.85410410155387
30
0
41
1
10
58.478187055117
20
-3.69821278545996
30
0
41
1
10
58.0559453390799
20
-3.60696498030578
30
0
41
1
10
57.2105517939349
20
-3.39933195814424
30
0
41
1
10
56.787437973903
20
-3.28282464267653
30
0
41
1
10
55.9387754895651
20
-3.02647215514236
30
0
41
1
10
55.5132230601422
20
-2.88667193664654
30
0
41
1
10
54.9786775107287
20
-2.69863572256296
30
0
41
1
10
54.8715758806815
20
-2.6603352945601
30
0
41
1
10
54.657368933674
20
-2.58253131680993
30
0
41
1
10
54.3364772115396
20
-2.46417825648004
30
0
41
1
10
54.0167186799038
20
-2.34113672151364
30
0
41
1
10
53.3783947093631
20
-2.08944959536984
30
0
41
1
10
52.9544273188453
20
-1.91421552424919
30
0
41
1
10
52.107997784417
20
-1.55223462957034
30
0
41
1
10
51.6855516383987
20
-1.36543215271857
30
0
41
1
10
50.8405857602577
20
-0.983584088998185
30
0
41
1
10
50.4180624708649
20
-0.788551389391245
30
0
41
1
10
49.5861245887372
20
-0.400627969044848
30
0
41
1
10
49.1767821899992
20
-0.20784838626679
30
0
41
1
10
48.7659026545697
20
-0.0144188974840915
30
0
0
SPLINE
5
EF
100
AcDbEntity
8
1
62
256
6
ByLayer
370
18
48
1
60
0
100
AcDbSpline
70
4
71
3
72
46
73
42
40
0
40
0
40
0
40
0
40
0.0897021884950862
40
0.0897021884950862
40
0.179404376990173
40
0.179404376990173
40
0.224255471237716
40
0.224255471237716
40
0.26910656548526
40
0.26910656548526
40
0.358808753980347
40
0.358808753980347
40
0.403659848227888
40
0.403659848227888
40
0.44851094247543
40
0.44851094247543
40
0.493362036722972
40
0.493362036722972
40
0.538213130970514
40
0.538213130970514
40
0.583064225218056
40
0.583064225218056
40
0.627915319465599
40
0.627915319465599
40
0.717617507960685
40
0.717617507960685
40
0.762468602208229
40
0.762468602208229
40
0.807319696455772
40
0.807319696455772
40
0.897021884950859
40
0.897021884950859
40
0.941872979198403
40
0.941872979198403
40
0.953085752760288
40
0.953085752760288
40
0.964298526322173
40
0.964298526322173
40
0.986724073445945
40
0.986724073445945
40
1
40
1
40
1
40
1
41
1
10
61.4230087980012
20
-0.272997554773696
30
0
41
1
10
60.9976936782247
20
-0.0702884847945882
30
0
41
1
10
60.5735081517398
20
0.131004461346777
30
0
41
1
10
59.726588874371
20
0.528911378374033
30
0
41
1
10
59.3038552349573
20
0.725527759955099
30
0
41
1
10
58.6704265101184
20
1.01552558348658
30
0
41
1
10
58.4593944116253
20
1.11137195120159
30
0
41
1
10
58.0375501004148
20
1.30116248516461
30
0
41
1
10
57.8267564255995
20
1.39512380265381
30
0
41
1
10
57.1937728936735
20
1.67288028156469
30
0
41
1
10
56.7708861262375
20
1.85244285680133
30
0
41
1
10
56.1346290521441
20
2.11166392823537
30
0
41
1
10
55.9222229176584
20
2.19639299403625
30
0
41
1
10
55.4966833449577
20
2.36202750498703
30
0
41
1
10
55.2835648761762
20
2.4429277017932
30
0
41
1
10
54.8561900376035
20
2.60048093811031
30
0
41
1
10
54.6428265072317
20
2.67679527610684
30
0
41
1
10
54.2169822480904
20
2.82409810800883
30
0
41
1
10
54.0044564636627
20
2.89510381606351
30
0
41
1
10
53.5801588445711
20
3.03154147127287
30
0
41
1
10
53.3683864893414
20
3.09698519012312
30
0
41
1
10
52.9455756199639
20
3.22178564033163
30
0
41
1
10
52.7345628600071
20
3.28110649711803
30
0
41
1
10
52.1017335824727
20
3.45028081475323
30
0
41
1
10
51.6799988079041
20
3.55148453545996
30
0
41
1
10
51.0472980563737
20
3.68372867187827
30
0
41
1
10
50.8363859469852
20
3.72455998168215
30
0
41
1
10
50.41443688342
20
3.7990923877239
30
0
41
1
10
50.2034225156366
20
3.83271007317947
30
0
41
1
10
49.5694126834551
20
3.92400297507686
30
0
41
1
10
49.1453089792962
20
3.97254960799342
30
0
41
1
10
48.5067038808339
20
4.02308063119557
30
0
41
1
10
48.2934363900579
20
4.03621812111589
30
0
41
1
10
48.0262494706311
20
4.04738647150947
30
0
41
1
10
47.9727587064983
20
4.04935304546129
30
0
41
1
10
47.8658933684476
20
4.0527659231731
30
0
41
1
10
47.8125033639428
20
4.05421837797624
30
0
41
1
10
47.6524106767869
20
4.05791504497103
30
0
41
1
10
47.5457658091505
20
4.05953778272149
30
0
41
1
10
47.3760913043272
20
4.06083313072477
30
0
41
1
10
47.3130218192239
20
4.06102746889709
30
0
41
1
10
47.2499781391504
20
4.06092894815717
30
0
0
SPLINE
5
F0
100
AcDbEntity
8
1
62
256
6
ByLayer
370
18
48
1
60
0
100
AcDbSpline
70
4
71
3
72
8
73
4
40
0
40
0
40
0
40
0
40
1
40
1
40
1
40
1
41
1
10
61.4207903632418
20
-0.261582978804768
30
0
41
1
10
61.4226854669389
20
-0.262142888628091
30
0
41
1
10
61.4237045835159
20
-0.26725653671474
30
0
41
1
10
61.4230087980015
20
-0.272997554773838
30
0
0
SPLINE
5
F1
100
AcDbEntity
8
1
62
256
6
ByLayer
370
18
48
1
60
0
100
AcDbSpline
70
4
71
3
72
46
73
42
40
0
40
0
40
0
40
0
40
0.0312600035142631
40
0.0312600035142631
40
0.0541108784790563
40
0.0541108784790563
40
0.0655363159614528
40
0.0655363159614528
40
0.0769617534438491
40
0.0769617534438491
40
0.122663503373433
40
0.122663503373433
40
0.214067003232603
40
0.214067003232603
40
0.259768753162186
40
0.259768753162186
40
0.30547050309177
40
0.30547050309177
40
0.396874002950935
40
0.396874002950935
40
0.442575752880518
40
0.442575752880518
40
0.4882775028101
40
0.4882775028101
40
0.533979252739683
40
0.533979252739683
40
0.579681002669266
40
0.579681002669266
40
0.625382752598848
40
0.625382752598848
40
0.67108450252843
40
0.67108450252843
40
0.762488002387593
40
0.762488002387593
40
0.808189752317173
40
0.808189752317173
40
0.853891502246753
40
0.853891502246753
40
0.945295002105913
40
0.945295002105913
40
1
40
1
40
1
40
1
41
1
10
47.0022994572981
20
4.06867796278854
30
0
41
1
10
47.1477987600615
20
4.07088837973328
30
0
41
1
10
47.2934376976919
20
4.07149241271296
30
0
41
1
10
47.5457742011093
20
4.06987448922325
30
0
41
1
10
47.652400844758
20
4.06837890326762
30
0
41
1
10
47.8124661637548
20
4.0648747873646
30
0
41
1
10
47.865847047679
20
4.06348698424816
30
0
41
1
10
47.9726942913149
20
4.06020428877602
30
0
41
1
10
48.0261791074591
20
4.05830343891435
30
0
41
1
10
48.2933420527185
20
4.04745732287077
30
0
41
1
10
48.5065870203911
20
4.0345634346325
30
0
41
1
10
49.1451174636592
20
3.98472553003819
30
0
41
1
10
49.569162684999
20
3.93658955670284
30
0
41
1
10
50.2030680143006
20
3.84584905369371
30
0
41
1
10
50.4140462025735
20
3.81241249323031
30
0
41
1
10
50.8359225090201
20
3.73822521502621
30
0
41
1
10
51.046796925804
20
3.6975528698577
30
0
41
1
10
51.6793822327733
20
3.56574728267339
30
0
41
1
10
52.1010379769303
20
3.46478565538394
30
0
41
1
10
52.7337431220901
20
3.29590287720453
30
0
41
1
10
52.9447136364194
20
3.23667277132199
30
0
41
1
10
53.3674415337125
20
3.11203346854296
30
0
41
1
10
53.5791728770461
20
3.04665509915799
30
0
41
1
10
54.0033899685989
20
2.91031932235955
30
0
41
1
10
54.2158764590499
20
2.83935128941053
30
0
41
1
10
54.6416439297334
20
2.6920959300742
30
0
41
1
10
54.8549537260009
20
2.61579663188345
30
0
41
1
10
55.2822898099911
20
2.45822250513129
30
0
41
1
10
55.4953868513363
20
2.37730377119758
30
0
41
1
10
55.920881547203
20
2.21161028632454
30
0
41
1
10
56.1332627328338
20
2.12683611271041
30
0
41
1
10
56.7694382196325
20
1.86743836927951
30
0
41
1
10
57.1922639188445
20
1.68770866666958
30
0
41
1
10
57.8251448936039
20
1.40962870918693
30
0
41
1
10
58.0359027906816
20
1.31555010429918
30
0
41
1
10
58.4576764538469
20
1.12550468252309
30
0
41
1
10
58.6686729758018
20
1.02951672356409
30
0
41
1
10
59.3019936894505
20
0.739053791994507
30
0
41
1
10
59.7246553534275
20
0.542079919569119
30
0
41
1
10
60.4014406483752
20
0.223405867908213
30
0
41
1
10
60.6550985503067
20
0.103236272685507
30
0
41
1
10
60.9091033484994
20
-0.017589842759719
30
0
0
SPLINE
5
F2
100
AcDbEntity
8
1
62
256
6
ByLayer
370
18
48
1
60
0
100
AcDbSpline
70
4
71
3
72
8
73
4
40
0
40
0
40
0
40
0
40
1
40
1
40
1
40
1
41
1
10
61.367559008986
20
-0.244915496631933
30
0
41
1
10
61.3852941921272
20
-0.250782154852146
30
0
41
1
10
61.4030358409149
20
-0.256337391729488
30
0
41
1
10
61.4207903632418
20
-0.261582978804768
30
0
0
SPLINE
5
F3
100
AcDbEntity
8
1
62
256
6
ByLayer
370
18
48
1
60
0
100
AcDbSpline
70
4
71
3
72
50
73
46
40
0
40
0
40
0
40
0
40
0.0161204950954883
40
0.0161204950954883
40
0.0350412548051892
40
0.0350412548051892
40
0.05396201451489
40
0.05396201451489
40
0.0918035339342919
40
0.0918035339342919
40
0.167486572773096
40
0.167486572773096
40
0.205328092192499
40
0.205328092192499
40
0.2242488519022
40
0.2242488519022
40
0.243169611611901
40
0.243169611611901
40
0.318852650450709
40
0.318852650450709
40
0.394535689289517
40
0.394535689289517
40
0.432377208708922
40
0.432377208708922
40
0.470218728128326
40
0.470218728128326
40
0.545901766967138
40
0.545901766967138
40
0.583743286386545
40
0.583743286386545
40
0.621584805805952
40
0.621584805805952
40
0.640505565515655
40
0.640505565515655
40
0.659426325225359
40
0.697267844644763
40
0.697267844644763
40
0.772950883483571
40
0.772950883483571
40
0.810792402902976
40
0.810792402902976
40
0.848633922322381
40
0.92431696116119
40
0.92431696116119
40
1
40
1
40
1
40
1
41
1
10
37.3981045910938
20
-4.06381642544881
30
0
41
1
10
37.3074596436083
20
-4.07503243512539
30
0
41
1
10
37.216781586862
20
-4.08558221884894
30
0
41
1
10
37.0195828873586
20
-4.10705392367856
30
0
41
1
10
36.9130504991768
20
-4.11772514443914
30
0
41
1
10
36.6998910280748
20
-4.13721813813126
30
0
41
1
10
36.5932576062785
20
-4.14603593723163
30
0
41
1
10
36.2736674656769
20
-4.16961986278434
30
0
41
1
10
36.0608409082687
20
-4.18153969355251
30
0
41
1
10
35.4227308341238
20
-4.20588872665937
30
0
41
1
10
34.9977969779407
20
-4.20690355705113
30
0
41
1
10
34.3598576382715
20
-4.18567827215861
30
0
41
1
10
34.1471433207228
20
-4.17480903770183
30
0
41
1
10
33.8278015434682
20
-4.15281783009169
30
0
41
1
10
33.7213066017063
20
-4.14454031112101
30
0
41
1
10
33.5081873398013
20
-4.12609668918788
30
0
41
1
10
33.4015159248298
20
-4.11592541685164
30
0
41
1
10
32.8684891095912
20
-4.06044769164166
30
0
41
1
10
32.443076947979
20
-4.00126404314827
30
0
41
1
10
31.5925917141027
20
-3.85456507310752
30
0
41
1
10
31.1674622120759
20
-3.76708909609999
30
0
41
1
10
30.5286557530611
20
-3.61578988488662
30
0
41
1
10
30.3155274576947
20
-3.56198462897982
30
0
41
1
10
29.8888526250792
20
-3.44782099726834
30
0
41
1
10
29.6758083166548
20
-3.38761018158141
30
0
41
1
10
29.0371030124561
20
-3.19820041069249
30
0
41
1
10
28.6118957824027
20
-3.06019770460648
30
0
41
1
10
27.9737574887249
20
-2.8373977203388
30
0
41
1
10
27.7609916553353
20
-2.76049696575515
30
0
41
1
10
27.335189048556
20
-2.60166056460528
30
0
41
1
10
27.1221461899459
20
-2.51973204472159
30
0
41
1
10
26.8021386560745
20
-2.39343490568723
30
0
41
1
10
26.6954305136046
20
-2.350779779335
30
0
41
1
10
26.4823800373038
20
-2.26459216099306
30
0
41
1
10
26.1631595959973
20
-2.13391866364449
30
0
41
1
10
25.8448939593166
20
-1.99929426973534
30
0
41
1
10
25.2093453409483
20
-1.72536604312694
30
0
41
1
10
24.7869436073116
20
-1.53653066770539
30
0
41
1
10
24.1539923702997
20
-1.24658346180044
30
0
41
1
10
23.9431195810449
20
-1.14881452681954
30
0
41
1
10
23.5214220729738
20
-0.951392254596044
30
0
41
1
10
22.8889415055439
20
-0.65244365315337
30
0
41
1
10
22.2554858225714
20
-0.347466674764803
30
0
41
1
10
21.4083478024961
20
0.0610510569081839
30
0
41
1
10
20.9835096898038
20
0.26623913734187
30
0
41
1
10
20.5566708305752
20
0.470836094438056
30
0
0
SPLINE
5
F4
100
AcDbEntity
8
1
62
256
6
ByLayer
370
18
48
1
60
0
100
AcDbSpline
70
4
71
3
72
18
73
14
40
0
40
0
40
0
40
0
40
0.249999999999999
40
0.249999999999999
40
0.374999999999999
40
0.374999999999999
40
0.499999999999999
40
0.499999999999999
40
0.625
40
0.625
40
0.75
40
0.75
40
1
40
1
40
1
40
1
41
1
10
20.5566708305751
20
0.470836094438084
30
0
41
1
10
20.5481822862687
20
0.474904914082117
30
0
41
1
10
20.5404620203198
20
0.480046348466772
30
0
41
1
10
20.5300063614649
20
0.489326669798487
30
0
41
1
10
20.5267051850024
20
0.492700905866599
30
0
41
1
10
20.5206921484588
20
0.499777474811594
30
0
41
1
10
20.5179516816152
20
0.503501913115798
30
0
41
1
10
20.5129993075277
20
0.511320241957833
30
0
41
1
10
20.5107754851808
20
0.515441491496148
30
0
41
1
10
20.5069411218395
20
0.523942702599157
30
0
41
1
10
20.5053434044571
20
0.528282927008888
30
0
41
1
10
20.5014794986837
20
0.541563879625727
30
0
41
1
10
20.5001348917475
20
0.550861289001716
30
0
41
1
10
20.5001348917475
20
0.560201502869603
30
0
0
SPLINE
5
F5
100
AcDbEntity
8
1
62
256
6
ByLayer
370
18
48
1
60
0
100
AcDbSpline
70
4
71
3
72
28
73
24
40
0
40
0
40
0
40
0
40
0.124999999999942
40
0.124999999999942
40
0.187499999999913
40
0.187499999999913
40
0.249999999999885
40
0.312499999999856
40
0.312499999999856
40
0.374999999999828
40
0.374999999999828
40
0.499999999999842
40
0.499999999999842
40
0.624999999999856
40
0.624999999999856
40
0.687499999999864
40
0.687499999999864
40
0.749999999999871
40
0.812499999999878
40
0.812499999999878
40
0.874999999999885
40
0.874999999999885
40
1
40
1
40
1
40
1
41
1
10
20.5001348917475
20
4.15997775219472
30
0
41
1
10
20.5001348917476
20
4.16073008677412
30
0
41
1
10
20.5012065874531
20
4.16144226353288
30
0
41
1
10
20.5043712323794
20
4.16245576011221
30
0
41
1
10
20.5057014478408
20
4.1627866662563
30
0
41
1
10
20.5088434762159
20
4.16341689068025
30
0
41
1
10
20.5124578604161
20
4.16401612184757
30
0
41
1
10
20.516994774019
20
4.1645585067719
30
0
41
1
10
20.5220042732549
20
4.16507397247031
30
0
41
1
10
20.5247488681671
20
4.16531790996319
30
0
41
1
10
20.5334619642237
20
4.16599196416502
30
0
41
1
10
20.5399733936596
20
4.16637303720864
30
0
41
1
10
20.5544334394169
20
4.16701258912494
30
0
41
1
10
20.5620769055633
20
4.1672578182249
30
0
41
1
10
20.5741430692821
20
4.16752814437132
30
0
41
1
10
20.5782972589486
20
4.16760206063026
30
0
41
1
10
20.5866321355373
20
4.16771394661168
30
0
41
1
10
20.5949954955022
20
4.16779061956959
30
0
41
1
10
20.6034145000307
20
4.16779957670619
30
0
41
1
10
20.6118620197491
20
4.16777377432754
30
0
41
1
10
20.6160971659961
20
4.16774317243235
30
0
41
1
10
20.628484337859
20
4.16760058673844
30
0
41
1
10
20.6364459671427
20
4.16743884293112
30
0
41
1
10
20.6441011813985
20
4.16720217071938
30
0
0
SPLINE
5
F6
100
AcDbEntity
8
1
62
256
6
ByLayer
370
18
48
1
60
0
100
AcDbSpline
70
4
71
3
72
99
73
95
40
0
40
0
40
0
40
0
40
0.0478251517916831
40
0.0478251517916831
40
0.0717377276875243
40
0.0717377276875243
40
0.0836940156354446
40
0.0836940156354446
40
0.0956503035833648
40
0.0956503035833648
40
0.119562879479206
40
0.119562879479206
40
0.143475455375046
40
0.143475455375046
40
0.167388031270887
40
0.167388031270887
40
0.191300607166727
40
0.191300607166727
40
0.203256895114647
40
0.203256895114647
40
0.215213183062567
40
0.239125758958406
40
0.239125758958406
40
0.263038334854245
40
0.263038334854245
40
0.286950910750085
40
0.286950910750085
40
0.310863486645924
40
0.310863486645924
40
0.334776062541763
40
0.334776062541763
40
0.358688638437603
40
0.358688638437603
40
0.382601214333442
40
0.382601214333442
40
0.406513790229281
40
0.406513790229281
40
0.430426366125121
40
0.430426366125121
40
0.442382654073041
40
0.442382654073041
40
0.454338942020961
40
0.454338942020961
40
0.478251517916801
40
0.478251517916801
40
0.50216409381264
40
0.50216409381264
40
0.526076669708479
40
0.526076669708479
40
0.549989245604319
40
0.549989245604319
40
0.561945533552238
40
0.561945533552238
40
0.573901821500158
40
0.573901821500158
40
0.597814397395996
40
0.597814397395996
40
0.609770685343914
40
0.609770685343914
40
0.621726973291833
40
0.621726973291833
40
0.645639549187671
40
0.645639549187671
40
0.669552125083509
40
0.669552125083509
40
0.693464700979347
40
0.693464700979347
40
0.705420988927266
40
0.705420988927266
40
0.717377276875185
40
0.717377276875185
40
0.741289852771022
40
0.741289852771022
40
0.765202428666859
40
0.765202428666859
40
0.789115004562695
40
0.789115004562695
40
0.813027580458532
40
0.813027580458532
40
0.82498386840645
40
0.82498386840645
40
0.836940156354369
40
0.836940156354369
40
0.860852732250207
40
0.860852732250207
40
0.884765308146045
40
0.884765308146045
40
0.908677884041883
40
0.908677884041883
40
0.932590459937721
40
0.932590459937721
40
0.956503035833559
40
0.956503035833559
40
1
40
1
40
1
40
1
41
1
10
20.6441011813985
20
4.16720217071938
30
0
41
1
10
21.0686056646836
20
4.15407799005061
30
0
41
1
10
21.4933411435688
20
4.12566254084481
30
0
41
1
10
22.1313946954909
20
4.06117903443001
30
0
41
1
10
22.3442342216637
20
4.03603244337035
30
0
41
1
10
22.6637726465335
20
3.9928758815015
30
0
41
1
10
22.7702746780131
20
3.97759106155863
30
0
41
1
10
22.983102577994
20
3.94525915176189
30
0
41
1
10
23.0894546344566
20
3.9282091174895
30
0
41
1
10
23.4083402777611
20
3.8744204705857
30
0
41
1
10
23.6206886026059
20
3.83503625265178
30
0
41
1
10
24.0448955631356
20
3.74914310403256
30
0
41
1
10
24.2568003766341
20
3.70266022043069
30
0
41
1
10
24.6808567365878
20
3.60322314998518
30
0
41
1
10
24.8929748539605
20
3.55024778056185
30
0
41
1
10
25.3174687585606
20
3.43786879286688
30
0
41
1
10
25.529862013184
20
3.37847874939877
30
0
41
1
10
25.8489442375701
20
3.28492406907202
30
0
41
1
10
25.9554292666571
20
3.25297663289828
30
0
41
1
10
26.1682532087034
20
3.18769206211667
30
0
41
1
10
26.4873149208066
20
3.08766957907866
30
0
41
1
10
26.8059031777591
20
2.98145356880414
30
0
41
1
10
27.230381987682
20
2.83449822964909
30
0
41
1
10
27.4424577306822
20
2.75833862235055
30
0
41
1
10
27.8663113147341
20
2.60064124285816
30
0
41
1
10
28.078136918198
20
2.51916723390622
30
0
41
1
10
28.5023838102222
20
2.35229801075712
30
0
41
1
10
28.7147686955964
20
2.26685326483533
30
0
41
1
10
29.1401100018042
20
2.09206659452766
30
0
41
1
10
29.3532066882952
20
2.00263389973208
30
0
41
1
10
29.7784400982958
20
1.8201399328606
30
0
41
1
10
29.9907063926835
20
1.72703462678837
30
0
41
1
10
30.4146523458185
20
1.53729345696456
30
0
41
1
10
30.6263976171048
20
1.44077741719835
30
0
41
1
10
31.0503225193488
20
1.24620795291935
30
0
41
1
10
31.2624466624349
20
1.1480531778864
30
0
41
1
10
31.6869188070746
20
0.949830334423552
30
0
41
1
10
31.8992711394437
20
0.849769784856534
30
0
41
1
10
32.2180152672385
20
0.698328144651498
30
0
41
1
10
32.3242994094715
20
0.647622576264723
30
0
41
1
10
32.5369471537123
20
0.545771664903185
30
0
41
1
10
32.6433410393301
20
0.494609046918526
30
0
41
1
10
32.9621214305783
20
0.340761852334396
30
0
41
1
10
33.1742872888591
20
0.237696324064586
30
0
41
1
10
33.5984690995917
20
0.0317284357197423
30
0
41
1
10
33.8104500840508
20
-0.0712476653435203
30
0
41
1
10
34.2341699723961
20
-0.277230177126143
30
0
41
1
10
34.4459893803925
20
-0.380068783587063
30
0
41
1
10
34.870118299493
20
-0.584264058422036
30
0
41
1
10
35.0823788761674
20
-0.685722735089058
30
0
41
1
10
35.4009957825312
20
-0.837093347989452
30
0
41
1
10
35.507240423156
20
-0.887411152219613
30
0
41
1
10
35.7198123584752
20
-0.987758420863628
30
0
41
1
10
35.8261683516751
20
-1.03780119419659
30
0
41
1
10
36.1451824773137
20
-1.18737742149426
30
0
41
1
10
36.3574687762681
20
-1.28622999429976
30
0
41
1
10
36.6753731091878
20
-1.43306344806325
30
0
41
1
10
36.7812724871372
20
-1.48172871081562
30
0
41
1
10
36.9931543240193
20
-1.57807689086269
30
0
41
1
10
37.0991219208489
20
-1.62578989849095
30
0
41
1
10
37.4170610005896
20
-1.7676429361247
30
0
41
1
10
37.6290715413205
20
-1.86049303662094
30
0
41
1
10
38.0531639789607
20
-2.04283241636685
30
0
41
1
10
38.265244903409
20
-2.13232271080034
30
0
41
1
10
38.6895190475114
20
-2.30783420605815
30
0
41
1
10
38.901724183728
20
-2.39383111440597
30
0
41
1
10
39.2203882555923
20
-2.51971329127062
30
0
41
1
10
39.3266450850404
20
-2.56114211154508
30
0
41
1
10
39.5389771319815
20
-2.64269639338247
30
0
41
1
10
39.6450974648199
20
-2.68283901542074
30
0
41
1
10
39.9634147389128
20
-2.80123100957996
30
0
41
1
10
40.1755507880075
20
-2.87747817930091
30
0
41
1
10
40.5996069102447
20
-3.02475890101263
30
0
41
1
10
40.8115269917044
20
-3.09579099803349
30
0
41
1
10
41.2351603212084
20
-3.23257505173137
30
0
41
1
10
41.4468563953889
20
-3.29833978192426
30
0
41
1
10
41.8705916789191
20
-3.42379682078101
30
0
41
1
10
42.0826464784374
20
-3.48347326629229
30
0
41
1
10
42.4012958852502
20
-3.56808948322745
30
0
41
1
10
42.5076503240825
20
-3.59549449347162
30
0
41
1
10
42.720230340756
20
-3.64861962802962
30
0
41
1
10
42.8264656507057
20
-3.674343195364
30
0
41
1
10
43.1449996765206
20
-3.7490156310314
30
0
41
1
10
43.3571233000924
20
-3.79547223349294
30
0
41
1
10
43.7809246850489
20
-3.88168503121398
30
0
41
1
10
43.9926206221104
20
-3.92141478822702
30
0
41
1
10
44.4160838368569
20
-3.99371898667104
30
0
41
1
10
44.6278364506309
20
-4.02631331079621
30
0
41
1
10
45.0514674073237
20
-4.08430068509139
30
0
41
1
10
45.2633613577329
20
-4.10967481097077
30
0
41
1
10
45.6878077627279
20
-4.15292391793821
30
0
41
1
10
45.9004905260626
20
-4.17081814233089
30
0
41
1
10
46.4991185047982
20
-4.21056655213695
30
0
41
1
10
46.884735879275
20
-4.22377765430502
30
0
41
1
10
47.2698553189877
20
-4.22446591451563
30
0
0
SPLINE
5
F7
100
AcDbEntity
8
1
62
256
6
ByLayer
370
18
48
1
60
0
100
AcDbSpline
70
4
71
3
72
147
73
143
40
0
40
0
40
0
40
0
40
0.0118649429537528
40
0.0118649429537528
40
0.0376023185695636
40
0.0376023185695636
40
0.050471006377469
40
0.050471006377469
40
0.0633396941853745
40
0.0633396941853745
40
0.0762083819932798
40
0.0762083819932798
40
0.0890770698011853
40
0.0890770698011853
40
0.101945757609091
40
0.101945757609091
40
0.114814445416996
40
0.114814445416996
40
0.127683133224901
40
0.127683133224901
40
0.140551821032807
40
0.140551821032807
40
0.153420508840712
40
0.153420508840712
40
0.166289196648618
40
0.166289196648618
40
0.179157884456523
40
0.179157884456523
40
0.185592228360476
40
0.185592228360476
40
0.192026572264429
40
0.192026572264429
40
0.204895260072335
40
0.204895260072335
40
0.217763947880241
40
0.217763947880241
40
0.243501323496054
40
0.243501323496054
40
0.269238699111867
40
0.269238699111867
40
0.29497607472768
40
0.29497607472768
40
0.320713450343493
40
0.320713450343493
40
0.333582138151399
40
0.333582138151399
40
0.346450825959305
40
0.346450825959305
40
0.359319513767212
40
0.359319513767212
40
0.372188201575118
40
0.372188201575118
40
0.385056889383025
40
0.385056889383025
40
0.397925577190931
40
0.397925577190931
40
0.410794264998837
40
0.410794264998837
40
0.423662952806744
40
0.423662952806744
40
0.43653164061465
40
0.43653164061465
40
0.449400328422556
40
0.449400328422556
40
0.462269016230463
40
0.462269016230463
40
0.475137704038369
40
0.475137704038369
40
0.488006391846275
40
0.488006391846275
40
0.500875079654182
40
0.500875079654182
40
0.526612455269995
40
0.526612455269995
40
0.552349830885807
40
0.552349830885807
40
0.57808720650162
40
0.57808720650162
40
0.584521550405573
40
0.584521550405573
40
0.590955894309527
40
0.590955894309527
40
0.603824582117433
40
0.603824582117433
40
0.616693269925339
40
0.616693269925339
40
0.629561957733246
40
0.629561957733246
40
0.642430645541152
40
0.642430645541152
40
0.655299333349059
40
0.655299333349059
40
0.668168021156965
40
0.668168021156965
40
0.681036708964872
40
0.681036708964872
40
0.693905396772778
40
0.693905396772778
40
0.706774084580684
40
0.706774084580684
40
0.719642772388591
40
0.719642772388591
40
0.732511460196497
40
0.732511460196497
40
0.745380148004404
40
0.745380148004404
40
0.75824883581231
40
0.75824883581231
40
0.771117523620217
40
0.771117523620217
40
0.783986211428123
40
0.783986211428123
40
0.790420555332076
40
0.790420555332076
40
0.796854899236029
40
0.809723587043935
40
0.809723587043935
40
0.82259227485184
40
0.82259227485184
40
0.835460962659746
40
0.835460962659746
40
0.861198338275556
40
0.861198338275556
40
0.886935713891367
40
0.886935713891367
40
0.899804401699272
40
0.899804401699272
40
0.912673089507178
40
0.912673089507178
40
0.925541777315083
40
0.925541777315083
40
0.938410465122989
40
0.938410465122989
40
0.964147840738799
40
0.964147840738799
40
0.977016528546705
40
0.977016528546705
40
0.983450872450657
40
0.983450872450657
40
0.98988521635461
40
0.98988521635461
40
1
40
1
40
1
40
1
41
1
10
54.9427054836709
20
-3.11823388909821
30
0
41
1
10
54.8093049175111
20
-3.16248831360642
30
0
41
1
10
54.6760722753841
20
-3.20550538774654
30
0
41
1
10
54.2542362197322
20
-3.33780009398242
30
0
41
1
10
53.9661579904757
20
-3.42245243883872
30
0
41
1
10
53.5349744365959
20
-3.54068650542004
30
0
41
1
10
53.3913636205855
20
-3.57859289101802
30
0
41
1
10
53.1044729922267
20
-3.65150718713844
30
0
41
1
10
52.9612102742605
20
-3.68652750777585
30
0
41
1
10
52.6747531364499
20
-3.75337675750524
30
0
41
1
10
52.5315751684649
20
-3.78522480956559
30
0
41
1
10
52.2451816794552
20
-3.8456593680925
30
0
41
1
10
52.1019582386022
20
-3.87424084878785
30
0
41
1
10
51.8154552717605
20
-3.92815484945018
30
0
41
1
10
51.6721776149632
20
-3.95348897929819
30
0
41
1
10
51.3855735704092
20
-4.00091421870764
30
0
41
1
10
51.2422531377075
20
-4.02300790762786
30
0
41
1
10
50.9554727650316
20
-4.06387564053367
30
0
41
1
10
50.8120560559797
20
-4.08267766220553
30
0
41
1
10
50.5251354913455
20
-4.11695541922265
30
0
41
1
10
50.3815803387745
20
-4.13240225666058
30
0
41
1
10
50.0941230829163
20
-4.15982735337141
30
0
41
1
10
49.9502185766921
20
-4.17180552931714
30
0
41
1
10
49.6619592964039
20
-4.19226123453913
30
0
41
1
10
49.5176149152425
20
-4.20074393180528
30
0
41
1
10
49.2285026403353
20
-4.21420795241289
30
0
41
1
10
49.0837387997231
20
-4.21918955789889
30
0
41
1
10
48.8662566832403
20
-4.22400347438236
30
0
41
1
10
48.7936731818571
20
-4.22516472852334
30
0
41
1
10
48.6485138157939
20
-4.22659306880846
30
0
41
1
10
48.5760039321625
20
-4.22686038149078
30
0
41
1
10
48.3587192024891
20
-4.22632352980696
30
0
41
1
10
48.2141898682448
20
-4.22417511576586
30
0
41
1
10
47.9254929929165
20
-4.21633052269269
30
0
41
1
10
47.7813419847203
20
-4.21063536195305
30
0
41
1
10
47.3492680859002
20
-4.188338657065
30
0
41
1
10
47.0616930245084
20
-4.16655655393933
30
0
41
1
10
46.4875074379404
20
-4.10941479832871
30
0
41
1
10
46.2008452765732
20
-4.07407415981652
30
0
41
1
10
45.6283472413836
20
-3.98980079231646
30
0
41
1
10
45.3422632443455
20
-3.94099036585928
30
0
41
1
10
44.7694021857061
20
-3.83090207929516
30
0
41
1
10
44.4827143101317
20
-3.76958336888563
30
0
41
1
10
44.0522699387359
20
-3.66818981752789
30
0
41
1
10
43.9086798784413
20
-3.63286210907174
30
0
41
1
10
43.6213848070963
20
-3.55900606083227
30
0
41
1
10
43.477693325743
20
-3.52045586840802
30
0
41
1
10
43.189922826666
20
-3.44042344535177
30
0
41
1
10
43.0458609077778
20
-3.39892308256549
30
0
41
1
10
42.7572445105779
20
-3.31312506639333
30
0
41
1
10
42.6126832037449
20
-3.26883889104582
30
0
41
1
10
42.3230536142116
20
-3.17748808159689
30
0
41
1
10
42.1779509336844
20
-3.13040914619873
30
0
41
1
10
41.8873902316884
20
-3.03348373175805
30
0
41
1
10
41.7423905776154
20
-2.98378411131793
30
0
41
1
10
41.4528562578429
20
-2.88207617189082
30
0
41
1
10
41.3083728038917
20
-2.82998590323146
30
0
41
1
10
41.0198977033858
20
-2.72345409964873
30
0
41
1
10
40.8758601595073
20
-2.66908784981439
30
0
41
1
10
40.5880379769862
20
-2.55841654831355
30
0
41
1
10
40.444247220446
20
-2.50212235897956
30
0
41
1
10
40.1568179554476
20
-2.38779038787513
30
0
41
1
10
40.0131893133969
20
-2.32973609692883
30
0
41
1
10
39.7261119684333
20
-2.21184910865836
30
0
41
1
10
39.5826682658808
20
-2.15200711948992
30
0
41
1
10
39.2959344349915
20
-2.03059380367571
30
0
41
1
10
39.1526101085582
20
-1.96908633381867
30
0
41
1
10
38.8661695789348
20
-1.84423602879835
30
0
41
1
10
38.7230542021628
20
-1.78088863737941
30
0
41
1
10
38.4367422253076
20
-1.65289635943992
30
0
41
1
10
38.2935632038571
20
-1.58821880386728
30
0
41
1
10
37.8637466622388
20
-1.3925613758463
30
0
41
1
10
37.5768052752456
20
-1.26001483209606
30
0
41
1
10
37.0021792348788
20
-0.990612089816011
30
0
41
1
10
36.7144436729381
20
-0.853859201487637
30
0
41
1
10
36.1380579881772
20
-0.576254737847336
30
0
41
1
10
35.8491510386189
20
-0.435938648795229
30
0
41
1
10
35.4864983861174
20
-0.259999209487916
30
0
41
1
10
35.413896766877
20
-0.22477376872979
30
0
41
1
10
35.2685519656141
20
-0.154245441007106
30
0
41
1
10
35.1958824057883
20
-0.118978157290286
30
0
41
1
10
34.9781390749472
20
-0.0132858075244258
30
0
41
1
10
34.8332299769986
20
0.0570927345646055
30
0
41
1
10
34.5438750982952
20
0.197597216547536
30
0
41
1
10
34.3993961375109
20
0.267650472457177
30
0
41
1
10
34.110965365948
20
0.407648532198436
30
0
41
1
10
33.967003650997
20
0.477569009934967
30
0
41
1
10
33.6793075429948
20
0.616650496060629
30
0
41
1
10
33.5355905100152
20
0.685849666090149
30
0
41
1
10
33.2482746030563
20
0.823273411192332
30
0
41
1
10
33.104672945854
20
0.891493036250097
30
0
41
1
10
32.817586190533
20
1.02696948165081
30
0
41
1
10
32.6741022853663
20
1.09422876586064
30
0
41
1
10
32.3872590711636
20
1.22780446950401
30
0
41
1
10
32.2438987913692
20
1.29411836599138
30
0
41
1
10
31.9572166677917
20
1.42562745129442
30
0
41
1
10
31.8139531951706
20
1.49093913663197
30
0
41
1
10
31.5274733917389
20
1.62045075574952
30
0
41
1
10
31.3842143432869
20
1.68456668215279
30
0
41
1
10
31.0975172979779
20
1.81124716009333
30
0
41
1
10
30.9540714779227
20
1.87379701879695
30
0
41
1
10
30.6669064663997
20
1.99717233936158
30
0
41
1
10
30.5231971199444
20
2.05801695080652
30
0
41
1
10
30.2355355956451
20
2.1780396056516
30
0
41
1
10
30.0915889879059
20
2.23722764474667
30
0
41
1
10
29.80342146764
20
2.35386952374782
30
0
41
1
10
29.6591673663594
20
2.4112643094478
30
0
41
1
10
29.3704493853054
20
2.52441956522114
30
0
41
1
10
29.2259734619685
20
2.58015593144617
30
0
41
1
10
28.9365045598535
20
2.68943357087116
30
0
41
1
10
28.7915292721891
20
2.74300643133407
30
0
41
1
10
28.5735978672942
20
2.82157976579703
30
0
41
1
10
28.5008634096567
20
2.84747683501354
30
0
41
1
10
28.3555892124074
20
2.8985534208621
30
0
41
1
10
28.1378399668577
20
2.97413835598289
30
0
41
1
10
27.9205805220288
20
3.04667248759841
30
0
41
1
10
27.6313394359357
20
3.14070800240634
30
0
41
1
10
27.4869332152488
20
3.18637892758741
30
0
41
1
10
27.1984770181133
20
3.27494043271418
30
0
41
1
10
27.0544892010671
20
3.31791641523193
30
0
41
1
10
26.6230311620771
20
3.4426228804823
30
0
41
1
10
26.3358996448638
20
3.51990779144865
30
0
41
1
10
25.76170768624
20
3.66190792633077
30
0
41
1
10
25.474751330186
20
3.72676461460378
30
0
41
1
10
25.0444699077425
20
3.81481657880408
30
0
41
1
10
24.9010284043746
20
3.84259234473831
30
0
41
1
10
24.6142628058006
20
3.89509531948147
30
0
41
1
10
24.4709145644687
20
3.91979632525931
30
0
41
1
10
24.1840155007194
20
3.96587500069541
30
0
41
1
10
24.0404821068431
20
3.987267119992
30
0
41
1
10
23.75310430938
20
4.02667246107708
30
0
41
1
10
23.60926022026
20
4.04468833453461
30
0
41
1
10
23.1772742044503
20
4.09369242386282
30
0
41
1
10
22.8887271343947
20
4.11966354454799
30
0
41
1
10
22.4548227388777
20
4.1483114654439
30
0
41
1
10
22.3100624585171
20
4.15615673089303
30
0
41
1
10
22.0926133890101
20
4.16528908524688
30
0
41
1
10
22.0200706723109
20
4.16789257336947
30
0
41
1
10
21.8748482742687
20
4.17221174511971
30
0
41
1
10
21.8021248968574
20
4.17392808598782
30
0
41
1
10
21.6152064797689
20
4.17719028438157
30
0
41
1
10
21.5010868658243
20
4.17807987907176
30
0
41
1
10
21.3870874974276
20
4.17787833287281
30
0
0
SPLINE
5
F8
100
AcDbEntity
8
1
62
256
6
ByLayer
370
18
48
1
60
0
100
AcDbSpline
70
4
71
3
72
46
73
42
40
0
40
0
40
0
40
0
40
0.0063267566205682
40
0.0063267566205682
40
0.103659838162081
40
0.103659838162081
40
0.152326378932838
40
0.152326378932838
40
0.200992919703594
40
0.200992919703594
40
0.298326001245111
40
0.298326001245111
40
0.346992542015867
40
0.346992542015867
40
0.359159177208556
40
0.359159177208556
40
0.362200836006726
40
0.362200836006726
40
0.365242494804896
40
0.365242494804896
40
0.371325812401232
40
0.371325812401232
40
0.377409129997568
40
0.377409129997568
40
0.383492447593904
40
0.383492447593904
40
0.38957576519024
40
0.38957576519024
40
0.395659082786576
40
0.395659082786576
40
0.492992164327886
40
0.492992164327886
40
0.590325245869195
40
0.590325245869195
40
0.784991408951809
40
0.784991408951809
40
0.882324490493118
40
0.882324490493118
40
0.979657572034428
40
0.979657572034428
40
1
40
1
40
1
40
1
41
1
10
3.06722205007702
20
-4.14489945978821
30
0
41
1
10
3.07388088883337
20
-4.14490756987848
30
0
41
1
10
3.08055301226452
20
-4.14490389231068
30
0
41
1
10
3.19008534860166
20
-4.14465438869479
30
0
41
1
10
3.29603388712218
20
-4.14167444591499
30
0
41
1
10
3.45878747035954
20
-4.13393724338673
30
0
41
1
10
3.51368057183461
20
-4.13081013417053
30
0
41
1
10
3.62464708144714
20
-4.12356784974551
30
0
41
1
10
3.68076551217473
20
-4.11944871981339
30
0
41
1
10
3.85035996292297
20
-4.10578013038528
30
0
41
1
10
3.96506756348998
20
-4.09492974486315
30
0
41
1
10
4.1392335153611
20
-4.07653320260658
30
0
41
1
10
4.19764650663899
20
-4.07004522222854
30
0
41
1
10
4.27105709374834
20
-4.06153335500946
30
0
41
1
10
4.28575813333282
20
-4.05981095885272
30
0
41
1
10
4.30415743893468
20
-4.05763355034367
30
0
41
1
10
4.30782973532445
20
-4.05719368812606
30
0
41
1
10
4.31521899453611
20
-4.05632689472861
30
0
41
1
10
4.31898291238244
20
-4.05591111128362
30
0
41
1
10
4.33057806425594
20
-4.0548409055005
30
0
41
1
10
4.33859406518832
20
-4.05430723163954
30
0
41
1
10
4.35519562183623
20
-4.05360770633263
30
0
41
1
10
4.3636370877943
20
-4.05343581159082
30
0
41
1
10
4.38041039397768
20
-4.0533610420635
30
0
41
1
10
4.38880119140913
20
-4.05344785573112
30
0
41
1
10
4.40559124109438
20
-4.05387393931773
30
0
41
1
10
4.41395235671166
20
-4.05422387016586
30
0
41
1
10
4.43037480160729
20
-4.05508772927055
30
0
41
1
10
4.43847732341706
20
-4.05560937874867
30
0
41
1
10
4.57653864619951
20
-4.06417421357907
30
0
41
1
10
4.70601304586933
20
-4.07207317060406
30
0
41
1
10
4.9639662286213
20
-4.08725235594051
30
0
41
1
10
5.09247507065538
20
-4.09453422058897
30
0
41
1
10
5.47618545674183
20
-4.11498680101261
30
0
41
1
10
5.72970111939367
20
-4.12677383133146
30
0
41
1
10
6.1069308994357
20
-4.13986897192618
30
0
41
1
10
6.23216881312908
20
-4.14346932881946
30
0
41
1
10
6.4817140197479
20
-4.1488416117472
30
0
41
1
10
6.6060611152912
20
-4.15061346183191
30
0
41
1
10
6.75575073713088
20
-4.15147376765438
30
0
41
1
10
6.7816037266366
20
-4.15157607659023
30
0
41
1
10
6.80743358609442
20
-4.15163082601069
30
0
0
SPLINE
5
F9
100
AcDbEntity
8
1
62
256
6
ByLayer
370
18
48
1
60
0
100
AcDbSpline
70
4
71
3
72
69
73
65
40
0
40
0
40
0
40
0
40
0.025168396550888
40
0.025168396550888
40
0.0362460284082648
40
0.0362460284082648
40
0.0473236602656418
40
0.0694789239803946
40
0.0694789239803946
40
0.1137894514099
40
0.1137894514099
40
0.135944715124653
40
0.135944715124653
40
0.14702234698203
40
0.14702234698203
40
0.158099978839407
40
0.202410506268915
40
0.202410506268915
40
0.246721033698423
40
0.246721033698423
40
0.257798665555799
40
0.257798665555799
40
0.268876297413175
40
0.291031561127927
40
0.291031561127927
40
0.335342088557433
40
0.335342088557433
40
0.379652615986938
40
0.379652615986938
40
0.46827367084595
40
0.46827367084595
40
0.490428934560702
40
0.490428934560702
40
0.512584198275455
40
0.512584198275455
40
0.556894725704959
40
0.556894725704959
40
0.601205253134464
40
0.601205253134464
40
0.61228288499184
40
0.61228288499184
40
0.623360516849216
40
0.645515780563968
40
0.645515780563968
40
0.689826307993471
40
0.689826307993471
40
0.711981571708223
40
0.711981571708223
40
0.723059203565599
40
0.723059203565599
40
0.734136835422976
40
0.778447362852481
40
0.778447362852481
40
0.822757890281986
40
0.822757890281986
40
0.833835522139363
40
0.833835522139363
40
0.84491315399674
40
0.84491315399674
40
0.867068417711492
40
0.867068417711492
40
0.911378945140995
40
0.911378945140995
40
1
40
1
40
1
40
1
41
1
10
32.5830519163195
20
4.12674185033774
30
0
41
1
10
32.8258326760296
20
4.14875193508354
30
0
41
1
10
33.0686041994769
20
4.16591609464029
30
0
41
1
10
33.4184568784687
20
4.18355257908354
30
0
41
1
10
33.5253736871938
20
4.18798794803288
30
0
41
1
10
33.7390261907216
20
4.19494020857002
30
0
41
1
10
34.0593207143962
20
4.20249580656218
30
0
41
1
10
34.3791974427883
20
4.20144301492667
30
0
41
1
10
35.0187492550744
20
4.18791482572649
30
0
41
1
10
35.4448735344543
20
4.16367371297733
30
0
41
1
10
36.0848839743599
20
4.10475417268705
30
0
41
1
10
36.29835594702
20
4.08135319674727
30
0
41
1
10
36.6189237406961
20
4.04064511216933
30
0
41
1
10
36.7258813643377
20
4.0261348886267
30
0
41
1
10
36.9396028059546
20
3.9953041534861
30
0
41
1
10
37.4735620342551
20
3.91369029346487
30
0
41
1
10
38.0061444612311
20
3.80964734657118
30
0
41
1
10
38.8583624555409
20
3.61610402932249
30
0
41
1
10
39.2845190070134
20
3.50580045571192
30
0
41
1
10
39.8184173336238
20
3.35216162559291
30
0
41
1
10
39.9252946086172
20
3.32063488973944
30
0
41
1
10
40.1390313924663
20
3.25608413151852
30
0
41
1
10
40.4592163257608
20
3.15713165187387
30
0
41
1
10
40.7782519492425
20
3.05199372159339
30
0
41
1
10
41.4151009621282
20
2.83400598503974
30
0
41
1
10
41.8380350307954
20
2.67839093107043
30
0
41
1
10
42.6823783098054
20
2.34961930034007
30
0
41
1
10
43.1037934960087
20
2.17647233981927
30
0
41
1
10
44.3683903591644
20
1.63549806569941
30
0
41
1
10
45.2118553719386
20
1.24598058800771
30
0
41
1
10
46.2751548510425
20
0.738940048964906
30
0
41
1
10
46.4882623861538
20
0.636525667116416
30
0
41
1
10
46.9155895771324
20
0.430102598914914
30
0
41
1
10
47.1289757740027
20
0.326497909036306
30
0
41
1
10
47.7685339797899
20
0.015257255363025
30
0
41
1
10
48.1941577965157
20
-0.192818198860635
30
0
41
1
10
49.0456978438388
20
-0.606443052540897
30
0
41
1
10
49.4716088170919
20
-0.812003133333519
30
0
41
1
10
50.0053198563861
20
-1.06503211549259
30
0
41
1
10
50.1121574239881
20
-1.11545516036867
30
0
41
1
10
50.3256226401317
20
-1.21567647469521
30
0
41
1
10
50.6456299944695
20
-1.3651300263007
30
0
41
1
10
50.9651913707342
20
-1.5117114397475
30
0
41
1
10
51.6040228133048
20
-1.80047443231561
30
0
41
1
10
52.0295177859793
20
-1.98712209362597
30
0
41
1
10
52.6684881351675
20
-2.25584033677026
30
0
41
1
10
52.8816008122682
20
-2.34353570674659
30
0
41
1
10
53.2016250715335
20
-2.471948121476
30
0
41
1
10
53.3084021467768
20
-2.51424742314961
30
0
41
1
10
53.5218844306323
20
-2.59766712614973
30
0
41
1
10
54.0552384370557
20
-2.80320598469433
30
0
41
1
10
54.5871877560466
20
-2.99315108177137
30
0
41
1
10
55.4383352873258
20
-3.27448528094104
30
0
41
1
10
55.8639217373437
20
-3.40387000734137
30
0
41
1
10
56.3969900670216
20
-3.55002782732939
30
0
41
1
10
56.5036584771465
20
-3.57848028547266
30
0
41
1
10
56.7171333756894
20
-3.63378889199947
30
0
41
1
10
56.8238065363122
20
-3.66061008614037
30
0
41
1
10
57.14346009392
20
-3.7384865630458
30
0
41
1
10
57.35616719364
20
-3.78697821117669
30
0
41
1
10
57.9934485381165
20
-3.92193986286395
30
0
41
1
10
58.4171920500503
20
-3.99788939738437
30
0
41
1
10
59.6875689864132
20
-4.18217423234461
30
0
41
1
10
60.5333378317874
20
-4.24683779486958
30
0
41
1
10
61.3850609916361
20
-4.24984557471322
30
0
0
SPLINE
5
FA
100
AcDbEntity
8
1
62
256
6
ByLayer
370
18
48
1
60
0
100
AcDbSpline
70
4
71
3
72
10
73
6
40
0
40
0
40
0
40
0
40
0.5
40
0.5
40
1
40
1
40
1
40
1
41
1
10
61.3580624055274
20
-4.22279566409591
30
0
41
1
10
61.3625571221701
20
-4.23152721526856
30
0
41
1
10
61.3670670673371
20
-4.2381652414339
30
0
41
1
10
61.3760702498271
20
-4.24717756349665
30
0
41
1
10
61.3805673978097
20
-4.24956463452892
30
0
41
1
10
61.3850609916361
20
-4.24984557471322
30
0
0
SPLINE
5
FB
100
AcDbEntity
8
1
62
256
6
ByLayer
370
18
48
1
60
0
100
AcDbSpline
70
4
71
3
72
81
73
77
40
0
40
0
40
0
40
0
40
0.048640497553766
40
0.048640497553766
40
0.0608006219422068
40
0.0608006219422068
40
0.0729607463306477
40
0.0729607463306477
40
0.0972809951075294
40
0.0972809951075294
40
0.145921492661293
40
0.145921492661293
40
0.170241741438174
40
0.182401865826614
40
0.182401865826614
40
0.194561990215055
40
0.194561990215055
40
0.243202487768821
40
0.243202487768821
40
0.291842985322587
40
0.291842985322587
40
0.304003109711029
40
0.304003109711029
40
0.31616323409947
40
0.31616323409947
40
0.340483482876354
40
0.340483482876354
40
0.389123980430121
40
0.389123980430121
40
0.437764477983888
40
0.437764477983888
40
0.44992460237233
40
0.44992460237233
40
0.462084726760771
40
0.486404975537654
40
0.486404975537654
40
0.535045473091419
40
0.535045473091419
40
0.559365721868302
40
0.559365721868302
40
0.571525846256744
40
0.571525846256744
40
0.583685970645186
40
0.583685970645186
40
0.608006219422072
40
0.608006219422072
40
0.632326468198957
40
0.632326468198957
40
0.656646716975843
40
0.656646716975843
40
0.680966965752728
40
0.680966965752728
40
0.693127090141171
40
0.693127090141171
40
0.705287214529614
40
0.729607463306498
40
0.729607463306498
40
0.753927712083383
40
0.753927712083383
40
0.778247960860267
40
0.778247960860267
40
0.802568209637151
40
0.802568209637151
40
0.826888458414035
40
0.826888458414035
40
0.875528955967804
40
0.875528955967804
40
0.924169453521572
40
0.924169453521572
40
0.936329577910014
40
0.936329577910014
40
0.948489702298456
40
0.948489702298456
40
0.972809951075339
40
0.972809951075339
40
1
40
1
40
1
40
1
41
1
10
61.3580624055394
20
-4.2227956640958
30
0
41
1
10
60.9329493498647
20
-4.19850052460973
30
0
41
1
10
60.5081411808724
20
-4.15893938803382
30
0
41
1
10
59.9764392248059
20
-4.09091151260611
30
0
41
1
10
59.870064401459
20
-4.07637722618523
30
0
41
1
10
59.6572224613912
20
-4.04546213994172
30
0
41
1
10
59.5508028544476
20
-4.02908766929841
30
0
41
1
10
59.2318121779858
20
-3.97729060683781
30
0
41
1
10
59.0193899041256
20
-3.93917711026111
30
0
41
1
10
58.3825408238314
20
-3.81436025022319
30
0
41
1
10
57.9584918179251
20
-3.71720120328124
30
0
41
1
10
57.3217725033579
20
-3.55194593952481
30
0
41
1
10
57.0032638644724
20
-3.46442967432958
30
0
41
1
10
56.6842944354497
20
-3.36982521953752
30
0
41
1
10
56.4715181758231
20
-3.30520947556687
30
0
41
1
10
56.3650300460289
20
-3.27211682124047
30
0
41
1
10
55.8330935973661
20
-3.10315281635968
30
0
41
1
10
55.4085583912354
20
-2.95662492001458
30
0
41
1
10
54.5596779501819
20
-2.64371114394197
30
0
41
1
10
54.1353536396427
20
-2.47729663543012
30
0
41
1
10
53.6040194596466
20
-2.25855043215529
30
0
41
1
10
53.4977059759539
20
-2.21426526977382
30
0
41
1
10
53.2849562043576
20
-2.12467156080743
30
0
41
1
10
53.1784801866204
20
-2.07934589846855
30
0
41
1
10
52.8591114644014
20
-1.94203323233586
30
0
41
1
10
52.6464645433493
20
-1.84879316747603
30
0
41
1
10
52.0089859725673
20
-1.56462652319229
30
0
41
1
10
51.5846199469322
20
-1.369246570793
30
0
41
1
10
50.7354263789163
20
-0.969938572464287
30
0
41
1
10
50.3105893078391
20
-0.766027210794022
30
0
41
1
10
49.7780896946092
20
-0.508105619696266
30
0
41
1
10
49.6716029411398
20
-0.456409571100522
30
0
41
1
10
49.4587961568057
20
-0.352930654029677
30
0
41
1
10
49.1397575947453
20
-0.197543931114666
30
0
41
1
10
48.821112114509
20
-0.0419031286782285
30
0
41
1
10
48.1840239193078
20
0.269055481651236
30
0
41
1
10
47.7595717952708
20
0.475936177575562
30
0
41
1
10
47.1219390373007
20
0.782815484910117
30
0
41
1
10
46.909245660817
20
0.884555434569137
30
0
41
1
10
46.5897995031692
20
1.03596171030205
30
0
41
1
10
46.4832288996979
20
1.08623942408437
30
0
41
1
10
46.270296040648
20
1.18615750607242
30
0
41
1
10
46.1638892531379
20
1.23581899019649
30
0
41
1
10
45.8448038207811
20
1.38382780159441
30
0
41
1
10
45.6322623713396
20
1.48120448782265
30
0
41
1
10
45.2073776317161
20
1.67305527079657
30
0
41
1
10
44.9950301044585
20
1.76752002631048
30
0
41
1
10
44.5702482532351
20
1.95301191170552
30
0
41
1
10
44.3578190845742
20
2.04404989802668
30
0
41
1
10
43.9327270868398
20
2.22241609799983
30
0
41
1
10
43.720059322667
20
2.30973405660399
30
0
41
1
10
43.4006586567654
20
2.43752181708351
30
0
41
1
10
43.2940798998412
20
2.47960530594034
30
0
41
1
10
43.0810131232566
20
2.56256817675535
30
0
41
1
10
42.7616025223614
20
2.68518749376457
30
0
41
1
10
42.4426406972792
20
2.80216043919006
30
0
41
1
10
42.0175482871996
20
2.95280937127652
30
0
41
1
10
41.805098810661
20
3.02547953383578
30
0
41
1
10
41.3802176107616
20
3.16525920368434
30
0
41
1
10
41.1677815796849
20
3.23236096918282
30
0
41
1
10
40.7426516652255
20
3.36061907867602
30
0
41
1
10
40.5299595385573
20
3.42177847262295
30
0
41
1
10
40.1040953928094
20
3.53786003849766
30
0
41
1
10
39.8907738875996
20
3.59281633644122
30
0
41
1
10
39.2519019500144
20
3.74746011392691
30
0
41
1
10
38.8269221479463
20
3.8370825500013
30
0
41
1
10
37.9769684354498
20
3.98790082584691
30
0
41
1
10
37.5519766656507
20
4.04908497109716
30
0
41
1
10
37.0195828873583
20
4.10705392367859
30
0
41
1
10
36.9130504991765
20
4.11772514443916
30
0
41
1
10
36.6998910280745
20
4.13721813813129
30
0
41
1
10
36.5932576062782
20
4.14603593723166
30
0
41
1
10
36.2736674656767
20
4.16961986278437
30
0
41
1
10
36.0608409082684
20
4.18153969355254
30
0
41
1
10
35.610335101535
20
4.19873011452759
30
0
41
1
10
35.3726804127059
20
4.20304889576499
30
0
41
1
10
35.1350281704154
20
4.20262161122611
30
0
0
SPLINE
5
FC
100
AcDbEntity
8
1
62
256
6
ByLayer
370
18
48
1
60
0
100
AcDbSpline
70
4
71
3
72
55
73
51
40
0
40
0
40
0
40
0
40
0.0287490400534284
40
0.0287490400534284
40
0.0675990784512885
40
0.0675990784512885
40
0.145299155247007
40
0.145299155247007
40
0.164724174445937
40
0.164724174445937
40
0.184149193644866
40
0.184149193644866
40
0.222999232042727
40
0.222999232042727
40
0.242424251241657
40
0.242424251241657
40
0.261849270440586
40
0.261849270440586
40
0.300699308838448
40
0.300699308838448
40
0.339549347236311
40
0.339549347236311
40
0.378399385634173
40
0.417249424032035
40
0.417249424032035
40
0.436674443230966
40
0.436674443230966
40
0.456099462429897
40
0.456099462429897
40
0.494949500827761
40
0.494949500827761
40
0.533799539225626
40
0.533799539225626
40
0.611499616021354
40
0.611499616021354
40
0.650349654419219
40
0.650349654419219
40
0.689199692817084
40
0.689199692817084
40
0.766899769612817
40
0.766899769612817
40
0.805749808010682
40
0.805749808010682
40
0.825174827209614
40
0.825174827209614
40
0.844599846408547
40
0.844599846408547
40
0.922299923204274
40
0.922299923204274
40
1
40
1
40
1
40
1
41
1
10
45.0048881335075
20
4.07718571745917
30
0
41
1
10
45.1616743919645
20
4.09724174483532
30
0
41
1
10
45.3185393268027
20
4.11529718839807
30
0
41
1
10
45.6878077627278
20
4.15292391793821
30
0
41
1
10
45.9004905260625
20
4.17081814233089
30
0
41
1
10
46.5375548182233
20
4.21311869201634
30
0
41
1
10
46.9614714929953
20
4.22628366495661
30
0
41
1
10
47.4906386308282
20
4.22380321890773
30
0
41
1
10
47.5964366682177
20
4.22235683770458
30
0
41
1
10
47.8079673041143
20
4.21754603245404
30
0
41
1
10
47.9137097693634
20
4.21418003687509
30
0
41
1
10
48.2311844533876
20
4.20125075029637
30
0
41
1
10
48.4431270026978
20
4.18886486530809
30
0
41
1
10
48.7614523093989
20
4.16469449906901
30
0
41
1
10
48.8676298043187
20
4.15570487102903
30
0
41
1
10
49.0801151695724
20
4.13585469487572
30
0
41
1
10
49.1864362713967
20
4.12499167475212
30
0
41
1
10
49.505028476255
20
4.08964484093127
30
0
41
1
10
49.7171094563395
20
4.06238863797094
30
0
41
1
10
50.1406746678279
20
4.00045444146963
30
0
41
1
10
50.3521835095335
20
3.96577508022776
30
0
41
1
10
50.7754071463074
20
3.8895343977043
30
0
41
1
10
51.1987953991926
20
3.8064125759222
30
0
41
1
10
51.6226200128256
20
3.70972871084274
30
0
41
1
10
51.9406928415659
20
3.63214376050837
30
0
41
1
10
52.0467515148052
20
3.6054364165837
30
0
41
1
10
52.2589491274513
20
3.55033031723059
30
0
41
1
10
52.3651328983512
20
3.52191888212292
30
0
41
1
10
52.683474164692
20
3.4342464392447
30
0
41
1
10
52.8953365478635
20
3.37258565196811
30
0
41
1
10
53.3189845459166
20
3.24368953983952
30
0
41
1
10
53.5307542460004
20
3.17644486087858
30
0
41
1
10
54.1659548829528
20
2.96647572075855
30
0
41
1
10
54.5892609434286
20
2.81551120543207
30
0
41
1
10
55.2245687005552
20
2.57322513777984
30
0
41
1
10
55.4364163938229
20
2.48983928308675
30
0
41
1
10
55.8609689766294
20
2.31897298473336
30
0
41
1
10
56.0731930234322
20
2.23166309265329
30
0
41
1
10
56.7092530052885
20
1.96415745630142
30
0
41
1
10
57.1326299733581
20
1.77831543064315
30
0
41
1
10
57.7673486392508
20
1.48936692690745
30
0
41
1
10
57.9788756102471
20
1.39136595244341
30
0
41
1
10
58.2966693872868
20
1.24294521099552
30
0
41
1
10
58.4026840257336
20
1.1932357396482
30
0
41
1
10
58.6148709213435
20
1.09333050110675
30
0
41
1
10
58.721086133943
20
1.04311392802723
30
0
41
1
10
59.2518193840492
20
0.791145278684894
30
0
41
1
10
59.6754944763635
20
0.586591929750767
30
0
41
1
10
60.5218704485128
20
0.173245911096075
30
0
41
1
10
60.9445855616147
20
-0.0355198542705182
30
0
41
1
10
61.3675590089853
20
-0.244915496632416
30
0
0
SPLINE
5
FD
100
AcDbEntity
8
1
62
256
6
ByLayer
370
18
48
1
60
0
100
AcDbSpline
70
4
71
3
72
8
73
4
40
0
40
0
40
0
40
0
40
1
40
1
40
1
40
1
41
1
10
61.3675590089808
20
-0.244915496632643
30
0
41
1
10
61.3890635321658
20
-0.0595289762431719
30
0
41
1
10
61.4147321764148
20
0.126486287853396
30
0
41
1
10
61.4457449665993
20
0.313025346601108
30
0
0
SPLINE
5
FE
100
AcDbEntity
8
1
62
256
6
ByLayer
370
18
48
1
60
0
100
AcDbSpline
70
4
71
3
72
66
73
62
40
0
40
0
40
0
40
0
40
0.0333644725916083
40
0.0333644725916083
40
0.0667289451832165
40
0.0667289451832165
40
0.100093417774825
40
0.100093417774825
40
0.133457890366433
40
0.133457890366433
40
0.166822362958041
40
0.166822362958041
40
0.20018683554965
40
0.20018683554965
40
0.233551308141258
40
0.233551308141258
40
0.266915780732866
40
0.266915780732866
40
0.300280253324474
40
0.300280253324474
40
0.333644725916083
40
0.333644725916083
40
0.400373671099297
40
0.400373671099297
40
0.433738143690904
40
0.433738143690904
40
0.46710261628251
40
0.46710261628251
40
0.483784852578314
40
0.483784852578314
40
0.500467088874117
40
0.500467088874117
40
0.533831561465722
40
0.533831561465722
40
0.600560506648928
40
0.600560506648928
40
0.63392497924053
40
0.63392497924053
40
0.667289451832131
40
0.667289451832131
40
0.700653924423733
40
0.700653924423733
40
0.734018397015335
40
0.734018397015335
40
0.767382869606937
40
0.767382869606937
40
0.800747342198538
40
0.800747342198538
40
0.83411181479014
40
0.83411181479014
40
0.867476287381742
40
0.867476287381742
40
0.900840759973344
40
0.900840759973344
40
0.934205232564945
40
0.934205232564945
40
0.967569705156547
40
0.967569705156547
40
0.984251941452348
40
0.984251941452348
40
1
40
1
40
1
40
1
41
1
10
61.4457449665993
20
0.313025346601108
30
0
41
1
10
61.3010285974796
20
0.383899925801444
30
0
41
1
10
61.1565236363738
20
0.454473521205273
30
0
41
1
10
60.8679345646702
20
0.59502949409827
30
0
41
1
10
60.7238567381685
20
0.665024653347928
30
0
41
1
10
60.4360310976024
20
0.804236813615205
30
0
41
1
10
60.2923244611437
20
0.873541459204944
30
0
41
1
10
60.0052940897061
20
1.01148147250669
30
0
41
1
10
59.8619199749402
20
1.08001158798228
30
0
41
1
10
59.5752969095929
20
1.21588010722573
30
0
41
1
10
59.4320458078727
20
1.28321455771297
30
0
41
1
10
59.1455632111566
20
1.41649652300927
30
0
41
1
10
59.002341877895
20
1.48246495297539
30
0
41
1
10
58.715944847962
20
1.61307639074263
30
0
41
1
10
58.5727728211326
20
1.67772630227319
30
0
41
1
10
58.2864559761027
20
1.80566329017969
30
0
41
1
10
58.1432784348472
20
1.86888892952706
30
0
41
1
10
57.8569685360683
20
1.99400375184641
30
0
41
1
10
57.7138616621924
20
2.05593761972335
30
0
41
1
10
57.4274445446099
20
2.17799675133381
30
0
41
1
10
57.2841495054471
20
2.2381507714083
30
0
41
1
10
56.853799743186
20
2.41562104571173
30
0
41
1
10
56.5662386226654
20
2.52988095551558
30
0
41
1
10
56.1339105593238
20
2.69518460723702
30
0
41
1
10
55.989643858419
20
2.74928115650832
30
0
41
1
10
55.7006899848506
20
2.85527431500535
30
0
41
1
10
55.5560427172322
20
2.907236987772
30
0
41
1
10
55.338792744094
20
2.98357015215583
30
0
41
1
10
55.2662761666423
20
3.00874312135576
30
0
41
1
10
55.1213342441993
20
3.05839038456955
30
0
41
1
10
55.0489237149507
20
3.08286338664809
30
0
41
1
10
54.8318481348077
20
3.15520092581082
30
0
41
1
10
54.6873326387412
20
3.20197395309921
30
0
41
1
10
54.2542362197325
20
3.33780009398237
30
0
41
1
10
53.9661579904759
20
3.42245243883869
30
0
41
1
10
53.5349744365961
20
3.54068650541998
30
0
41
1
10
53.3913636205857
20
3.57859289101796
30
0
41
1
10
53.1044729922269
20
3.65150718713838
30
0
41
1
10
52.9612102742606
20
3.68652750777579
30
0
41
1
10
52.6747531364501
20
3.75337675750518
30
0
41
1
10
52.5315751684651
20
3.78522480956556
30
0
41
1
10
52.2451816794554
20
3.84565936809247
30
0
41
1
10
52.1019582386024
20
3.87424084878782
30
0
41
1
10
51.8154552717607
20
3.92815484945012
30
0
41
1
10
51.6721776149635
20
3.95348897929816
30
0
41
1
10
51.3855735704094
20
4.00091421870758
30
0
41
1
10
51.2422531377076
20
4.02300790762783
30
0
41
1
10
50.9554727650319
20
4.06387564053364
30
0
41
1
10
50.81205605598
20
4.0826776622055
30
0
41
1
10
50.5251354913458
20
4.11695541922262
30
0
41
1
10
50.3815803387748
20
4.13240225666055
30
0
41
1
10
50.0941230829166
20
4.15982735337138
30
0
41
1
10
49.9502185766924
20
4.17180552931711
30
0
41
1
10
49.6619592964041
20
4.19226123453913
30
0
41
1
10
49.5176149152428
20
4.20074393180528
30
0
41
1
10
49.2285026403356
20
4.21420795241289
30
0
41
1
10
49.0837387997234
20
4.21918955789889
30
0
41
1
10
48.8662566832407
20
4.22400347438233
30
0
41
1
10
48.7936731818575
20
4.22516472852334
30
0
41
1
10
48.6525781584671
20
4.22655307645709
30
0
41
1
10
48.5841250190838
20
4.22682904208864
30
0
41
1
10
48.5157440417664
20
4.22670729543742
30
0
0
SPLINE
5
FF
100
AcDbEntity
8
1
62
256
6
ByLayer
370
18
48
1
60
0
100
AcDbSpline
70
4
71
3
72
91
73
87
40
0
40
0
40
0
40
0
40
0.0087848852774628
40
0.0282204757622183
40
0.0282204757622183
40
0.0476560662469737
40
0.0476560662469737
40
0.0670916567317292
40
0.0670916567317292
40
0.10596283770124
40
0.10596283770124
40
0.144834018670751
40
0.144834018670751
40
0.164269609155506
40
0.164269609155506
40
0.18370519964026
40
0.18370519964026
40
0.203140790125015
40
0.203140790125015
40
0.22257638060977
40
0.22257638060977
40
0.26144756157928
40
0.26144756157928
40
0.280883152064036
40
0.280883152064036
40
0.290600947306414
40
0.290600947306414
40
0.300318742548792
40
0.300318742548792
40
0.339189923518303
40
0.339189923518303
40
0.358625514003058
40
0.358625514003058
40
0.378061104487813
40
0.378061104487813
40
0.397496694972569
40
0.397496694972569
40
0.416932285457324
40
0.416932285457324
40
0.455803466426835
40
0.455803466426835
40
0.475239056911591
40
0.475239056911591
40
0.494674647396346
40
0.494674647396346
40
0.533545828365858
40
0.533545828365858
40
0.572417009335369
40
0.572417009335369
40
0.591852599820125
40
0.591852599820125
40
0.611288190304882
40
0.611288190304882
40
0.630723780789638
40
0.630723780789638
40
0.650159371274394
40
0.650159371274394
40
0.689030552243906
40
0.689030552243906
40
0.708466142728663
40
0.708466142728663
40
0.727901733213419
40
0.727901733213419
40
0.76677291418293
40
0.76677291418293
40
0.786208504667686
40
0.786208504667686
40
0.805644095152442
40
0.805644095152442
40
0.825079685637198
40
0.825079685637198
40
0.844515276121954
40
0.844515276121954
40
0.883386457091466
40
0.883386457091466
40
0.902822047576222
40
0.902822047576222
40
0.9125398428186
40
0.9125398428186
40
0.922257638060978
40
0.922257638060978
40
0.941693228545733
40
0.941693228545733
40
0.961128819030489
40
0.961128819030489
40
1
40
1
40
1
40
1
41
1
10
28.407308284085
20
-2.88036068092768
30
0
41
1
10
28.3416537380262
20
-2.90338774108469
30
0
41
1
10
28.1308876525389
20
-2.97645945222899
30
0
41
1
10
27.9205805220295
20
-3.04667248759819
30
0
41
1
10
27.6313394359364
20
-3.14070800240611
30
0
41
1
10
27.4869332152495
20
-3.18637892758721
30
0
41
1
10
27.198477018114
20
-3.27494043271395
30
0
41
1
10
27.0544892010678
20
-3.31791641523171
30
0
41
1
10
26.6230311620778
20
-3.44262288048211
30
0
41
1
10
26.3358996448645
20
-3.51990779144848
30
0
41
1
10
25.7617076862408
20
-3.6619079263306
30
0
41
1
10
25.4747513301867
20
-3.72676461460364
30
0
41
1
10
25.0444699077432
20
-3.81481657880394
30
0
41
1
10
24.9010284043753
20
-3.84259234473816
30
0
41
1
10
24.6142628058014
20
-3.89509531948133
30
0
41
1
10
24.4709145644694
20
-3.9197963252592
30
0
41
1
10
24.1840155007202
20
-3.96587500069529
30
0
41
1
10
24.0404821068439
20
-3.98726711999191
30
0
41
1
10
23.7531043093808
20
-4.026672461077
30
0
41
1
10
23.6092602202608
20
-4.04468833453453
30
0
41
1
10
23.1772742044511
20
-4.09369242386273
30
0
41
1
10
22.8887271343955
20
-4.11966354454793
30
0
41
1
10
22.4548227388786
20
-4.14831146544387
30
0
41
1
10
22.310062458518
20
-4.156156730893
30
0
41
1
10
22.0926133890109
20
-4.16528908524685
30
0
41
1
10
22.0200706723117
20
-4.16789257336944
30
0
41
1
10
21.8748482742695
20
-4.17221174511968
30
0
41
1
10
21.8021248968583
20
-4.1739280859878
30
0
41
1
10
21.4387530592965
20
-4.1802698421576
30
0
41
1
10
21.1488612646082
20
-4.17819361481946
30
0
41
1
10
20.715128538756
20
-4.16467884351667
30
0
41
1
10
20.5707499676957
20
-4.15843483998813
30
0
41
1
10
20.2823299762245
20
-4.14249686099822
30
0
41
1
10
20.1382641191778
20
-4.13281233057737
30
0
41
1
10
19.850566074486
20
-4.10996288062731
30
0
41
1
10
19.7068967953993
20
-4.09680390049257
30
0
41
1
10
19.4196643668048
20
-4.06712594730266
30
0
41
1
10
19.2761169921137
20
-4.05060182046543
30
0
41
1
10
18.8454655081446
20
-3.99613211365946
30
0
41
1
10
18.5583669027332
20
-3.95330537846448
30
0
41
1
10
18.1277821407121
20
-3.87933435389951
30
0
41
1
10
17.9842521034437
20
-3.85306024912069
30
0
41
1
10
17.6971399411434
20
-3.79730499308306
30
0
41
1
10
17.5536239567213
20
-3.76776546843308
30
0
41
1
10
17.1229108290105
20
-3.67435718056666
30
0
41
1
10
16.8354132064825
20
-3.6058215829396
30
0
41
1
10
16.2588153002551
20
-3.45720591055053
30
0
41
1
10
15.9698301497889
20
-3.37702048290794
30
0
41
1
10
15.535230091916
20
-3.24790193020169
30
0
41
1
10
15.3901437330633
20
-3.20343396966408
30
0
41
1
10
15.0996655369994
20
-3.11138839782134
30
0
41
1
10
14.9540923861668
20
-3.06381769045132
30
0
41
1
10
14.6636215631857
20
-2.96646067300239
30
0
41
1
10
14.5186124109101
20
-2.91661615252383
30
0
41
1
10
14.2289016092309
20
-2.81485498125519
30
0
41
1
10
14.0842058881106
20
-2.76292992019498
30
0
41
1
10
13.6506056899503
20
-2.60404187728619
30
0
41
1
10
13.362224459803
20
-2.49390604870777
30
0
41
1
10
12.9304653777504
20
-2.32279645777717
30
0
41
1
10
12.786748694106
20
-2.26465370006147
30
0
41
1
10
12.4994853089547
20
-2.14657180846882
30
0
41
1
10
12.3559245695717
20
-2.08665901669477
30
0
41
1
10
11.9252536540868
20
-1.90469181167794
30
0
41
1
10
11.6380689636937
20
-1.78057772063821
30
0
41
1
10
11.207165407749
20
-1.59029576847829
30
0
41
1
10
11.0635237159246
20
-1.52615430150138
30
0
41
1
10
10.7761519709285
20
-1.39658384456843
30
0
41
1
10
10.6324086697035
20
-1.33118293539027
30
0
41
1
10
10.3449407494463
20
-1.19886248084347
30
0
41
1
10
10.2011661901713
20
-1.13204226374165
30
0
41
1
10
9.91330088118744
20
-0.997560024966646
30
0
41
1
10
9.7692232912103
20
-0.929871199319365
30
0
41
1
10
9.3363484055119
20
-0.725904874700802
30
0
41
1
10
9.04694147286529
20
-0.588669543469678
30
0
41
1
10
8.61164571653552
20
-0.380773142743664
30
0
41
1
10
8.46632660296081
20
-0.311183304388322
30
0
41
1
10
8.24800915991585
20
-0.206364593110692
30
0
41
1
10
8.17518030597631
20
-0.171328371696461
30
0
41
1
10
8.02966473246471
20
-0.101173850815854
30
0
41
1
10
7.95694630615935
20
-0.0660484057178223
30
0
41
1
10
7.7388778275112
20
0.0394064180021303
30
0
41
1
10
7.5936151944984
20
0.109815298015008
30
0
41
1
10
7.30302402920904
20
0.2502208612446
30
0
41
1
10
7.15767095543529
20
0.320166626602543
30
0
41
1
10
6.72126622246094
20
0.528879379388798
30
0
41
1
10
6.42990784509001
20
0.66660279466862
30
0
41
1
10
6.13790219421756
20
0.80245589803917
30
0
0
SPLINE
5
100
100
AcDbEntity
8
1
62
256
6
ByLayer
370
18
48
1
60
0
100
AcDbSpline
70
4
71
3
72
110
73
106
40
0
40
0
40
0
40
0
40
0.0625000000000097
40
0.0625000000000097
40
0.12500000000002
40
0.12500000000002
40
0.156250000000025
40
0.156250000000025
40
0.187500000000031
40
0.187500000000031
40
0.203125000000033
40
0.203125000000033
40
0.218750000000036
40
0.218750000000036
40
0.250000000000042
40
0.250000000000042
40
0.281250000000047
40
0.281250000000047
40
0.289062500000049
40
0.289062500000049
40
0.29687500000005
40
0.29687500000005
40
0.312500000000052
40
0.312500000000052
40
0.343750000000055
40
0.343750000000055
40
0.359375000000056
40
0.359375000000056
40
0.375000000000058
40
0.375000000000058
40
0.382812500000059
40
0.382812500000059
40
0.39062500000006
40
0.39062500000006
40
0.406250000000062
40
0.406250000000062
40
0.421875000000063
40
0.421875000000063
40
0.425781250000064
40
0.425781250000064
40
0.429687500000064
40
0.429687500000064
40
0.437500000000064
40
0.437500000000064
40
0.468750000000066
40
0.468750000000066
40
0.476562500000067
40
0.476562500000067
40
0.484375000000068
40
0.484375000000068
40
0.500000000000069
40
0.500000000000069
40
0.507812500000069
40
0.507812500000069
40
0.515625000000069
40
0.515625000000069
40
0.53125000000007
40
0.53125000000007
40
0.562500000000072
40
0.562500000000072
40
0.570312500000072
40
0.570312500000072
40
0.578125000000072
40
0.578125000000072
40
0.593750000000072
40
0.593750000000072
40
0.625000000000072
40
0.625000000000072
40
0.656250000000072
40
0.656250000000072
40
0.671875000000072
40
0.671875000000072
40
0.687500000000073
40
0.687500000000073
40
0.718750000000073
40
0.718750000000073
40
0.734375000000072
40
0.734375000000072
40
0.738281250000072
40
0.738281250000072
40
0.739257812500071
40
0.739257812500071
40
0.740234375000071
40
0.740234375000071
40
0.74218750000007
40
0.74218750000007
40
0.744140625000069
40
0.744140625000069
40
0.746093750000069
40
0.746093750000069
40
0.748046875000068
40
0.748046875000068
40
0.750000000000067
40
0.750000000000067
40
0.781250000000059
40
0.781250000000059
40
0.81250000000005
40
0.81250000000005
40
0.875000000000033
40
0.875000000000033
40
0.906250000000025
40
0.906250000000025
40
0.937500000000017
40
0.937500000000017
40
1
40
1
40
1
40
1
41
1
10
6.13729199625413
20
0.802742910112158
30
0
41
1
10
5.89255010332079
20
0.917862588644482
30
0
41
1
10
5.65030140425526
20
1.03557069791188
30
0
41
1
10
5.17154253215182
20
1.27668843181632
30
0
41
1
10
4.93502375443032
20
1.40009081505249
30
0
41
1
10
4.58541833698689
20
1.59011931167936
30
0
41
1
10
4.46974924710904
20
1.65428625333996
30
0
41
1
10
4.24035897761098
20
1.78443613394302
30
0
41
1
10
4.12663677739982
20
1.85041820896333
30
0
41
1
10
3.95773067716914
20
1.95092496347951
30
0
41
1
10
3.90170884437308
20
1.98468338419639
30
0
41
1
10
3.79027192972873
20
2.05274986636917
30
0
41
1
10
3.73484347880043
20
2.08706739628622
30
0
41
1
10
3.57021096831295
20
2.19049014883467
30
0
41
1
10
3.46243987123677
20
2.26019060188554
30
0
41
1
10
3.25157649880612
20
2.40130500899241
30
0
41
1
10
3.1484782486655
20
2.47271693604392
30
0
41
1
10
3.02317577493946
20
2.56325145798965
30
0
41
1
10
2.99829489640953
20
2.58142221314392
30
0
41
1
10
2.94891373079275
20
2.61789814807895
30
0
41
1
10
2.92439118147001
20
2.63622022402026
30
0
41
1
10
2.85160096160723
20
2.69127010218918
30
0
41
1
10
2.80417268074166
20
2.72803177051216
30
0
41
1
10
2.66551440735051
20
2.83850906030915
30
0
41
1
10
2.57787297193585
20
2.91241492201468
30
0
41
1
10
2.45546499021484
20
3.02371177305099
30
0
41
1
10
2.41617947365589
20
3.06088416486219
30
0
41
1
10
2.34109400542022
20
3.13539297975973
30
0
41
1
10
2.30529199275463
20
3.17272928132465
30
0
41
1
10
2.25465289402922
20
3.22887583701714
30
0
41
1
10
2.23827528793501
20
3.24762691448842
30
0
41
1
10
2.20668104851478
20
3.28513220354563
30
0
41
1
10
2.1915710113262
20
3.30375952299778
30
0
41
1
10
2.14839985937567
20
3.35924790785245
30
0
41
1
10
2.1224927230358
20
3.39571614751938
30
0
41
1
10
2.07705153390671
20
3.46749501132072
30
0
41
1
10
2.05751537354874
20
3.50280594767915
30
0
41
1
10
2.03758260066462
20
3.54613566675982
30
0
41
1
10
2.03382096469949
20
3.55476108119959
30
0
41
1
10
2.02676257189756
20
3.57192835170633
30
0
41
1
10
2.02346786898789
20
3.58046773915629
30
0
41
1
10
2.01436473658197
20
3.60577188131552
30
0
41
1
10
2.00931051893244
20
3.62228518788143
30
0
41
1
10
1.98913272182048
20
3.70306955344046
30
0
41
1
10
1.98923879078052
20
3.76200729247091
30
0
41
1
10
2.01049846825202
20
3.8284126405037
30
0
41
1
10
2.01582801385362
20
3.8413459611655
30
0
41
1
10
2.02841808875121
20
3.86611833109305
30
0
41
1
10
2.03569001355717
20
3.87800731759387
30
0
41
1
10
2.06029671922877
20
3.91226036728034
30
0
41
1
10
2.08041797909633
20
3.93321282507699
30
0
41
1
10
2.11570947954084
20
3.96207954470276
30
0
41
1
10
2.12832610115089
20
3.97127417582817
30
0
41
1
10
2.15519987776332
20
3.98884545967616
30
0
41
1
10
2.16949699872311
20
3.99724087759171
30
0
41
1
10
2.21432094061569
20
4.02103096859395
30
0
41
1
10
2.24683173361285
20
4.03509356955854
30
0
41
1
10
2.35112187621206
20
4.07271329409588
30
0
41
1
10
2.42960381923297
20
4.09174209314108
30
0
41
1
10
2.5364056377413
20
4.10980440106951
30
0
41
1
10
2.55820569997368
20
4.11312727199774
30
0
41
1
10
2.60263937982978
20
4.11922793007889
30
0
41
1
10
2.62528287911246
20
4.12200568500757
30
0
41
1
10
2.69396359888251
20
4.12952579202937
30
0
41
1
10
2.74089039343963
20
4.13347873919165
30
0
41
1
10
2.88463352649308
20
4.14262343884815
30
0
41
1
10
2.98439103124235
20
4.14512293960553
30
0
41
1
10
3.19008534860106
20
4.14465438869482
30
0
41
1
10
3.29603388712155
20
4.14167444591499
30
0
41
1
10
3.45878747035891
20
4.13393724338675
30
0
41
1
10
3.51368057183393
20
4.13081013417059
30
0
41
1
10
3.62464708144643
20
4.12356784974557
30
0
41
1
10
3.68076551217405
20
4.11944871981345
30
0
41
1
10
3.85035996292228
20
4.10578013038534
30
0
41
1
10
3.96506756348927
20
4.09492974486321
30
0
41
1
10
4.13923351536039
20
4.07653320260664
30
0
41
1
10
4.19764650663819
20
4.07004522222863
30
0
41
1
10
4.27105709374757
20
4.06153335500954
30
0
41
1
10
4.28575813333205
20
4.05981095885281
30
0
41
1
10
4.30415743893388
20
4.05763355034375
30
0
41
1
10
4.30782973532365
20
4.05719368812615
30
0
41
1
10
4.31521899453531
20
4.0563268947287
30
0
41
1
10
4.31898291238161
20
4.05591111128371
30
0
41
1
10
4.33057806425512
20
4.05484090550058
30
0
41
1
10
4.33859406518746
20
4.05430723163957
30
0
41
1
10
4.35519562183529
20
4.05360770633266
30
0
41
1
10
4.36363708779342
20
4.05343581159082
30
0
41
1
10
4.38041039397683
20
4.0533610420635
30
0
41
1
10
4.38880119140825
20
4.05344785573112
30
0
41
1
10
4.40559124109353
20
4.0538739393177
30
0
41
1
10
4.41395235671081
20
4.0542238701658
30
0
41
1
10
4.43037480160643
20
4.0550877292705
30
0
41
1
10
4.43847732341624
20
4.05560937874861
30
0
41
1
10
4.5765386461988
20
4.06417421357895
30
0
41
1
10
4.70601304586862
20
4.072073170604
30
0
41
1
10
4.96396622862068
20
4.08725235594048
30
0
41
1
10
5.09247507065476
20
4.09453422058891
30
0
41
1
10
5.47618545674138
20
4.11498680101258
30
0
41
1
10
5.72970111939327
20
4.12677383133143
30
0
41
1
10
6.10693089943544
20
4.13986897192618
30
0
41
1
10
6.23216881312891
20
4.14346932881946
30
0
41
1
10
6.48171401974778
20
4.14884161174717
30
0
41
1
10
6.60606111529111
20
4.15061346183191
30
0
41
1
10
6.97749997022714
20
4.15274821910941
30
0
41
1
10
7.22295732225714
20
4.14992130692929
30
0
41
1
10
7.46672866089813
20
4.14183795500037
30
0
0
SPLINE
5
101
100
AcDbEntity
8
1
62
256
6
ByLayer
370
18
48
1
60
0
100
AcDbSpline
70
4
71
3
72
53
73
49
40
0
40
0
40
0
40
0
40
0.0624999999999985
40
0.0624999999999985
40
0.124999999999997
40
0.124999999999997
40
0.156249999999996
40
0.156249999999996
40
0.187499999999995
40
0.187499999999995
40
0.249999999999995
40
0.249999999999995
40
0.312499999999995
40
0.312499999999995
40
0.343749999999995
40
0.343749999999995
40
0.374999999999995
40
0.374999999999995
40
0.437499999999996
40
0.437499999999996
40
0.468749999999996
40
0.484374999999996
40
0.484374999999996
40
0.499999999999997
40
0.499999999999997
40
0.531249999999997
40
0.531249999999997
40
0.562499999999997
40
0.562499999999997
40
0.624999999999997
40
0.624999999999997
40
0.687499999999997
40
0.687499999999997
40
0.718749999999997
40
0.718749999999997
40
0.749999999999997
40
0.749999999999997
40
0.812499999999998
40
0.812499999999998
40
0.874999999999999
40
0.874999999999999
40
0.9375
40
0.9375
40
0.968750000000001
40
0.968750000000001
40
0.984375
40
0.984375
40
1
40
1
40
1
40
1
41
1
10
7.46673216442508
20
4.14183791204547
30
0
41
1
10
7.74067120230279
20
4.13277444362819
30
0
41
1
10
8.01373888079291
20
4.11751340564149
30
0
41
1
10
8.55850140798344
20
4.07487373725749
30
0
41
1
10
8.83019992755439
20
4.04749139524628
30
0
41
1
10
9.23711240181885
20
3.99759242140104
30
0
41
1
10
9.37265276391673
20
3.97949501453067
30
0
41
1
10
9.64354228844337
20
3.94038241325944
30
0
41
1
10
9.77888229802807
20
3.91935946164006
30
0
41
1
10
10.1847655333677
20
3.85201815489242
30
0
41
1
10
10.4552436531355
20
3.801491573703
30
0
41
1
10
10.9961631937555
20
3.68938252511975
30
0
41
1
10
11.2666105399019
20
3.62779679286817
30
0
41
1
10
11.6726193728458
20
3.52744476035664
30
0
41
1
10
11.8080192126779
20
3.49267458644275
30
0
41
1
10
12.0789426776717
20
3.4204768394269
30
0
41
1
10
12.2144676591014
20
3.38304893796121
30
0
41
1
10
12.6214175322006
20
3.2669846495416
30
0
41
1
10
12.8932709208403
20
3.18464933890263
30
0
41
1
10
13.3020037529848
20
3.05379084983005
30
0
41
1
10
13.5066165785894
20
2.98653174495081
30
0
41
1
10
13.711665786451
20
2.91659954558634
30
0
41
1
10
13.8484704316941
20
2.86939358990961
30
0
41
1
10
13.9169385110074
20
2.84549337430119
30
0
41
1
10
14.1220786859455
20
2.77308756554382
30
0
41
1
10
14.2586280537607
20
2.72383044525699
30
0
41
1
10
14.5313084082155
20
2.6233558533169
30
0
41
1
10
14.6674482017815
20
2.57215255338858
30
0
41
1
10
15.0754545406206
20
2.41598308096314
30
0
41
1
10
15.3469325773561
20
2.30850571141815
30
0
41
1
10
15.8889951643196
20
2.08716835071502
30
0
41
1
10
16.1596052801546
20
1.97335054696171
30
0
41
1
10
16.565260551462
20
1.79861077801283
30
0
41
1
10
16.7004284706175
20
1.73968210620387
30
0
41
1
10
16.9706875253596
20
1.62050517721008
30
0
41
1
10
17.1057882894162
20
1.56027498122819
30
0
41
1
10
17.5111937694874
20
1.37803254242394
30
0
41
1
10
17.781592546139
20
1.25445530662447
30
0
41
1
10
18.3228146577224
20
1.00346330673227
30
0
41
1
10
18.5936682998714
20
0.876106820756917
30
0
41
1
10
19.1363518903769
20
0.61865524504671
30
0
41
1
10
19.4080810208999
20
0.488340508534122
30
0
41
1
10
19.8168668333396
20
0.291760721439857
30
0
41
1
10
19.9533316067513
20
0.226060508572715
30
0
41
1
10
20.1583265630572
20
0.127228543079298
30
0
41
1
10
20.2267406421118
20
0.0942252006949218
30
0
41
1
10
20.363524752137
20
0.0282172303259927
30
0
41
1
10
20.4318576176911
20
-0.0047694354596217
30
0
41
1
10
20.5001348917476
20
-0.0377312387284121
30
0
0
SPLINE
5
102
100
AcDbEntity
8
1
62
256
6
ByLayer
370
18
48
1
60
0
100
AcDbSpline
70
4
71
3
72
40
73
36
40
0
40
0
40
0
40
0
40
0.0468186698349939
40
0.0468186698349939
40
0.0936373396699877
40
0.0936373396699877
40
0.187274679339975
40
0.187274679339975
40
0.280912019009963
40
0.280912019009963
40
0.327730688844957
40
0.327730688844957
40
0.351140023762454
40
0.351140023762454
40
0.374549358679951
40
0.374549358679951
40
0.561824038019926
40
0.561824038019926
40
0.585233372937424
40
0.585233372937424
40
0.608642707854921
40
0.655461377689919
40
0.655461377689919
40
0.749098717359914
40
0.749098717359914
40
0.795917387194912
40
0.795917387194912
40
0.842736057029909
40
0.842736057029909
40
0.936373396699902
40
0.936373396699902
40
0.9597827316174
40
0.9597827316174
40
0.983192066534898
40
1
40
1
40
1
40
1
41
1
10
20.5001348917476
20
0.0310948750467048
30
0
41
1
10
20.7142235114876
20
-0.0719608249967791
30
0
41
1
10
20.9283377988694
20
-0.175070272698292
30
0
41
1
10
21.3565425478018
20
-0.380847177853298
30
0
41
1
10
21.5703042118483
20
-0.483356265393752
30
0
41
1
10
22.2108815434084
20
-0.789100944056031
30
0
41
1
10
22.6369862172934
20
-0.990558858507001
30
0
41
1
10
23.4890623532983
20
-1.38514978366908
30
0
41
1
10
23.915035795853
20
-1.57827773761085
30
0
41
1
10
24.5552788259677
20
-1.85896548242224
30
0
41
1
10
24.7689074226096
20
-1.95102714332677
30
0
41
1
10
25.08984532658
20
-2.08652766415059
30
0
41
1
10
25.196883014478
20
-2.13125220218748
30
0
41
1
10
25.4107366569702
20
-2.2196220974626
30
0
41
1
10
25.5176023384013
20
-2.26328853268458
30
0
41
1
10
26.4789582022539
20
-2.65143213374662
30
0
41
1
10
27.3303635991585
20
-2.96193609447312
30
0
41
1
10
28.292454943003
20
-3.26001654391425
30
0
41
1
10
28.3994614048418
20
-3.2924387928982
30
0
41
1
10
28.6133320672795
20
-3.35573078242308
30
0
41
1
10
28.9339325709577
20
-3.44834523954231
30
0
41
1
10
29.2540490791897
20
-3.53384473729926
30
0
41
1
10
29.8939925978547
20
-3.69499426837316
30
0
41
1
10
30.3202589709246
20
-3.78927209465979
30
0
41
1
10
30.9603373703626
20
-3.90980914783248
30
0
41
1
10
31.173808306715
20
-3.9465095590659
30
0
41
1
10
31.6011827327574
20
-4.01275830750689
30
0
41
1
10
31.8151998586052
20
-4.04231666726699
30
0
41
1
10
32.456638396081
20
-4.11979839035195
30
0
41
1
10
32.8838411767792
20
-4.15660197366549
30
0
41
1
10
33.4184568784686
20
-4.18355257908354
30
0
41
1
10
33.5253736871938
20
-4.18798794803288
30
0
41
1
10
33.7390261907216
20
-4.19494020857002
30
0
41
1
10
33.9224483293044
20
-4.19926705102142
30
0
41
1
10
34.1057334529199
20
-4.20077079261179
30
0
41
1
10
34.1823150377856
20
-4.20090700659776
30
0
0
SPLINE
5
103
100
AcDbEntity
8
1
62
256
6
ByLayer
370
18
48
1
60
0
100
AcDbSpline
70
4
71
3
72
20
73
16
40
0
40
0
40
0
40
0
40
0.0109782123196628
40
0.0109782123196628
40
0.208782569855736
40
0.208782569855736
40
0.258233659239755
40
0.258233659239755
40
0.307684748623774
40
0.307684748623774
40
0.406586927391808
40
0.406586927391808
40
0.60439128492787
40
0.60439128492787
40
1
40
1
40
1
40
1
41
1
10
54.9419030109236
20
3.11029286273336
30
0
41
1
10
54.9655225745221
20
3.11816925974352
30
0
41
1
10
54.9891420260639
20
3.12601110721045
30
0
41
1
10
55.4383352873257
20
3.27448528094101
30
0
41
1
10
55.8639217373437
20
3.40387000734137
30
0
41
1
10
56.3969900670216
20
3.55002782732936
30
0
41
1
10
56.5036584771465
20
3.57848028547266
30
0
41
1
10
56.7171333756894
20
3.63378889199947
30
0
41
1
10
56.8238065363121
20
3.66061008614034
30
0
41
1
10
57.1434600939199
20
3.7384865630458
30
0
41
1
10
57.3561671936399
20
3.78697821117669
30
0
41
1
10
57.9934485381165
20
3.92193986286395
30
0
41
1
10
58.4171920500503
20
3.99788939738437
30
0
41
1
10
59.6875689864132
20
4.18217423234461
30
0
41
1
10
60.5333378317874
20
4.24683779486958
30
0
41
1
10
61.3850609916361
20
4.24984557471322
30
0
0
SPLINE
5
104
100
AcDbEntity
8
SK1
62
256
6
ByLayer
370
18
48
1
60
0
100
AcDbSpline
70
4
71
3
72
20
73
16
40
0
40
0
40
0
40
0
40
0.249999999999992
40
0.249999999999992
40
0.374999999999994
40
0.374999999999994
40
0.499999999999995
40
0.499999999999995
40
0.624999999999996
40
0.624999999999996
40
0.749999999999997
40
0.749999999999997
40
0.874999999999999
40
0.874999999999999
40
1
40
1
40
1
40
1
41
1
10
-39.35
20
4.22808512525711
30
0
41
1
10
-39.3382052350822
20
4.24020162068101
30
0
41
1
10
-39.3267890235077
20
4.25233117502424
30
0
41
1
10
-39.310213139012
20
4.27053059407118
30
0
41
1
10
-39.3048332480534
20
4.27654206768207
30
0
41
1
10
-39.2945638173439
20
4.28823164231289
30
0
41
1
10
-39.2896439542629
20
4.29394274936757
30
0
41
1
10
-39.2802807817757
20
4.3050622858253
30
0
41
1
10
-39.2758193520255
20
4.31049250770448
30
0
41
1
10
-39.2675623009897
20
4.32087978525016
30
0
41
1
10
-39.2638525690604
20
4.32572716675301
30
0
41
1
10
-39.2574621650662
20
4.33456436290163
30
0
41
1
10
-39.2547834252518
20
4.33856074833471
30
0
41
1
10
-39.2510693984638
20
4.3449896465701
30
0
41
1
10
-39.25
20
4.34749446710251
30
0
41
1
10
-39.25
20
4.34890475745462
30
0
0
SPLINE
5
105
100
AcDbEntity
8
SK1
62
256
6
ByLayer
370
18
48
1
60
0
100
AcDbSpline
70
4
71
3
72
8
73
4
40
0
40
0
40
0
40
0
40
1
40
1
40
1
40
1
41
1
10
-40
20
3.55694522928812
30
0
41
1
10
-39.7840036232621
20
3.78131559475369
30
0
41
1
10
-39.5672327940151
20
4.00492678569316
30
0
41
1
10
-39.35
20
4.22808512525711
30
0
0
SPLINE
5
106
100
AcDbEntity
8
SK1
62
256
6
ByLayer
370
18
48
1
60
0
100
AcDbSpline
70
4
71
3
72
8
73
4
40
0
40
0
40
0
40
0
40
1
40
1
40
1
40
1
41
1
10
-39.35
20
-4.15035120354244
30
0
41
1
10
-39.5672424938097
20
-3.92718289959882
30
0
41
1
10
-39.7840150412564
20
-3.70356981237919
30
0
41
1
10
-40
20
-3.47921130757345
30
0
0
SPLINE
5
107
100
AcDbEntity
8
SK1
62
256
6
ByLayer
370
18
48
1
60
0
100
AcDbSpline
70
4
71
3
72
20
73
16
40
0
40
0
40
0
40
0
40
0.124999999999992
40
0.124999999999992
40
0.187499999999991
40
0.187499999999991
40
0.24999999999999
40
0.24999999999999
40
0.374999999999989
40
0.374999999999989
40
0.499999999999989
40
0.499999999999989
40
0.749999999999994
40
0.749999999999994
40
1
40
1
40
1
40
1
41
1
10
-39.25
20
-4.27894422791144
30
0
41
1
10
-39.25
20
-4.27688477906523
30
0
41
1
10
-39.2510680121064
20
-4.27375002637098
30
0
41
1
10
-39.2538495208932
20
-4.26805928186965
30
0
41
1
10
-39.2549703953799
20
-4.26599534759902
30
0
41
1
10
-39.2575553074514
20
-4.26157183548583
30
0
41
1
10
-39.2590298426792
20
-4.25919695488167
30
0
41
1
10
-39.2638240258073
20
-4.25182207992958
30
0
41
1
10
-39.2675159851081
20
-4.24655582303637
30
0
41
1
10
-39.2756808081481
20
-4.23547750400283
30
0
41
1
10
-39.280188745776
20
-4.22962575974228
30
0
41
1
10
-39.2943188108206
20
-4.21189948176294
30
0
41
1
10
-39.3046722192184
20
-4.19966476035788
30
0
41
1
10
-39.3267895693349
20
-4.17475358097025
30
0
41
1
10
-39.3382086939583
20
-4.16246414574115
30
0
41
1
10
-39.35
20
-4.15035120354244
30
0
0
SPLINE
5
108
100
AcDbEntity
8
SK1
62
256
6
ByLayer
370
18
48
1
60
0
100
AcDbSpline
70
4
71
3
72
20
73
16
40
0
40
0
40
0
40
0
40
0.249999999999994
40
0.249999999999994
40
0.374999999999995
40
0.374999999999995
40
0.499999999999996
40
0.499999999999996
40
0.624999999999997
40
0.624999999999997
40
0.749999999999998
40
0.749999999999998
40
0.874999999999999
40
0.874999999999999
40
1
40
1
40
1
40
1
41
1
10
-39.35
20
-4.22808512525711
30
0
41
1
10
-39.3382052350822
20
-4.24020162068101
30
0
41
1
10
-39.3267890235077
20
-4.25233117502424
30
0
41
1
10
-39.310213139012
20
-4.27053059407115
30
0
41
1
10
-39.3048332480534
20
-4.27654206768207
30
0
41
1
10
-39.2945638173439
20
-4.28823164231289
30
0
41
1
10
-39.2896439542629
20
-4.29394274936757
30
0
41
1
10
-39.2802807817757
20
-4.3050622858253
30
0
41
1
10
-39.2758193520255
20
-4.31049250770448
30
0
41
1
10
-39.2675623009897
20
-4.32087978525013
30
0
41
1
10
-39.2638525690604
20
-4.32572716675301
30
0
41
1
10
-39.2574621650662
20
-4.33456436290163
30
0
41
1
10
-39.2547834252518
20
-4.33856074833471
30
0
41
1
10
-39.2510693984638
20
-4.3449896465701
30
0
41
1
10
-39.25
20
-4.34749446710251
30
0
41
1
10
-39.25
20
-4.34890475745462
30
0
0
SPLINE
5
109
100
AcDbEntity
8
1
62
256
6
ByLayer
370
18
48
1
60
0
100
AcDbSpline
70
4
71
3
72
10
73
6
40
0
40
0
40
0
40
0
40
0.180097093251813
40
0.629933290004434
40
1
40
1
40
1
40
1
41
1
10
55.0153228205081
20
3.09352680342789
30
0
41
1
10
55.1932833393627
20
3.14990895887658
30
0
41
1
10
55.8158618332888
20
3.3397538107144
30
0
41
1
10
56.8048635700009
20
3.60329649064911
30
0
41
1
10
57.6163454296699
20
3.75952273051854
30
0
41
1
10
57.9827418890337
20
3.8192488731836
30
0
0
SPLINE
5
10A
100
AcDbEntity
8
1
62
256
6
ByLayer
370
18
48
1
60
0
100
AcDbSpline
70
4
71
3
72
17
73
13
40
0
40
0
40
0
40
0
40
0.13424894980552
40
0.277445642889267
40
0.347363726565113
40
0.409176649736241
40
0.472491315577525
40
0.542651179907347
40
0.619976650514436
40
0.721147602272741
40
0.855488367289699
40
1
40
1
40
1
40
1
41
1
10
62.049513941133
20
0.56856081175971
30
0
41
1
10
61.8128119336262
20
0.64143263693461
30
0
41
1
10
61.3245308095432
20
0.794978102217016
30
0
41
1
10
60.7156317922756
20
0.995237042355228
30
0
41
1
10
60.234997103045
20
1.15789797186309
30
0
41
1
10
59.8946048598837
20
1.27520489124035
30
0
41
1
10
59.5543718594774
20
1.39442683069154
30
0
41
1
10
59.1878043404205
20
1.52514814810502
30
0
41
1
10
58.7562878207569
20
1.68196584424575
30
0
41
1
10
58.2148739993538
20
1.8832137031076
30
0
41
1
10
57.5594136381532
20
2.13370403879526
30
0
41
1
10
57.0807104665799
20
2.32340378863452
30
0
41
1
10
56.8332072840033
20
2.42323864642904
30
0
0
SPLINE
5
10B
100
AcDbEntity
8
1
62
256
6
ByLayer
370
18
48
1
60
0
100
AcDbSpline
70
4
71
3
72
33
73
29
40
0
40
0
40
0
40
0
40
4.66100542822E-05
40
6.80582372012E-05
40
8.79795845506E-05
40
0.0001076090926129
40
0.0001278638968094
40
0.0001719228538162
40
0.001269312345291
40
0.0021350296456
40
0.003718567172984
40
0.0066528987565688
40
0.0120036646578462
40
0.0218147358948695
40
0.0401510790627947
40
0.07549811566057
40
0.140578287031159
40
0.244163842071252
40
0.308060911023996
40
0.380738165692758
40
0.456530692057369
40
0.518888400650882
40
0.568020021083706
40
0.616957462593465
40
0.677660650940061
40
0.768650377980404
40
0.890169427054185
40
1
40
1
40
1
40
1
41
1
10
36.7682619415299
20
0.008157336295028
30
0
41
1
10
36.7682937060123
20
0.0081505486767242
30
0
41
1
10
36.7683230620804
20
0.0081453254358905
30
0
41
1
10
36.7683113871239
20
0.0081521464839795
30
0
41
1
10
36.7682641392408
20
0.0081673987620832
30
0
41
1
10
36.7681861561871
20
0.0081906871725153
30
0
41
1
10
36.7680436279087
20
0.0082319106866748
30
0
41
1
10
36.7655777160869
20
0.0089253848624082
30
0
41
1
10
36.760510326226
20
0.0102984293638713
30
0
41
1
10
36.7522394500797
20
0.012576368120051
30
0
41
1
10
36.7394378229055
20
0.0160903934430792
30
0
41
1
10
36.7161146733272
20
0.0225081777146556
30
0
41
1
10
36.673259733172
20
0.0343172040899162
30
0
41
1
10
36.5940178385249
20
0.0562320852252753
30
0
41
1
10
36.4438716793546
20
0.0980200437572023
30
0
41
1
10
36.1633901711953
20
0.177034424998737
30
0
41
1
10
35.6825148996674
20
0.315551774406998
30
0
41
1
10
35.1360165068184
20
0.4787909951107
30
0
41
1
10
34.5738369228431
20
0.652633106141082
30
0
41
1
10
34.0782847663953
20
0.810115731131049
30
0
41
1
10
33.5880199191554
20
0.970475618720798
30
0
41
1
10
33.1534919699957
20
1.11637254359542
30
0
41
1
10
32.781720961034
20
1.24380244822507
30
0
41
1
10
32.4144542885837
20
1.37194451351112
30
0
41
1
10
31.9511154011142
20
1.5367580711908
30
0
41
1
10
31.3218507272287
20
1.76666865686445
30
0
41
1
10
30.5821933307006
20
2.04584840193579
30
0
41
1
10
30.0544213085962
20
2.25437823926367
30
0
41
1
10
29.8044922491512
20
2.3550614294615
30
0
0
SPLINE
5
10C
100
AcDbEntity
8
1
62
256
6
ByLayer
370
18
48
1
60
0
100
AcDbSpline
70
4
71
3
72
27
73
23
40
0
40
0
40
0
40
0
40
0.0778415870832571
40
0.1378008811625
40
0.180575670341026
40
0.218101719877284
40
0.280402892239539
40
0.334650040923476
40
0.389907194515523
40
0.471179632877652
40
0.544493790668183
40
0.600124612651556
40
0.64476685584596
40
0.673921072071804
40
0.708252018342188
40
0.755682677254459
40
0.808902316473855
40
0.851670354472548
40
0.886573612990575
40
0.925151740517385
40
0.972157760060608
40
1
40
1
40
1
40
1
41
1
10
35.1328374876631
20
-4.04135225538391
30
0
41
1
10
35.3889091380083
20
-4.04177730410524
30
0
41
1
10
35.8422624615327
20
-4.04261721753406
30
0
41
1
10
36.4366475929313
20
-4.04344849766338
30
0
41
1
10
36.8980837240015
20
-4.04484016339981
30
0
41
1
10
37.3670670601716
20
-4.04591714497309
30
0
41
1
10
37.8742683264059
20
-4.04655128701688
30
0
41
1
10
38.4396944315488
20
-4.04714545543476
30
0
41
1
10
39.0675909790336
20
-4.04818985037832
30
0
41
1
10
39.7582356305113
20
-4.05019182218354
30
0
41
1
10
40.450110467238
20
-4.05067532825655
30
0
41
1
10
41.0214274377569
20
-4.05126148562348
30
0
41
1
10
41.447403008694
20
-4.05249413192351
30
0
41
1
10
41.8032684877963
20
-4.05360156362997
30
0
41
1
10
42.1683175787066
20
-4.05443061466363
30
0
41
1
10
42.6125750585313
20
-4.05483456055052
30
0
41
1
10
43.0845992259836
20
-4.05476349407959
30
0
41
1
10
43.5153908008321
20
-4.05499939358234
30
0
41
1
10
43.8979955462895
20
-4.05590996296959
30
0
41
1
10
44.2945459101602
20
-4.05698541480479
30
0
41
1
10
44.6678537103206
20
-4.05768479755119
30
0
41
1
10
44.9142030459628
20
-4.05840816992446
30
0
41
1
10
45.0058365983094
20
-4.05868154579488
30
0
0
SPLINE
5
10D
100
AcDbEntity
8
1
62
256
6
ByLayer
370
18
48
1
60
0
100
AcDbSpline
70
4
71
2
72
6
73
3
40
0
40
0
40
0
40
1
40
1
40
1
41
1
10
21.5247368933318
20
0.0049707391925153
30
0
41
1
10
21.5247261206968
20
0.0049680609778591
30
0
41
1
10
21.5247153480539
20
0.0049656485576008
30
0
0
SPLINE
5
10E
100
AcDbEntity
8
1
62
256
6
ByLayer
370
18
48
1
60
0
100
AcDbSpline
70
4
71
3
72
28
73
24
40
0
40
0
40
0
40
0
40
0.0547557002038728
40
0.107670749370658
40
0.15923448836425
40
0.20333155831515
40
0.238289505786173
40
0.274559422191784
40
0.32346597365868
40
0.378627947044682
40
0.425715394836598
40
0.466818321241707
40
0.503600059984413
40
0.548640473474103
40
0.616914660706746
40
0.686257378216523
40
0.743532444298021
40
0.791258940819941
40
0.833053819747944
40
0.87977518698765
40
0.941149343649675
40
0.991062434350432
40
1
40
1
40
1
40
1
41
1
10
47.2698630776916
20
4.06096399182996
30
0
41
1
10
47.0925444019855
20
4.06036821685279
30
0
41
1
10
46.7425551242852
20
4.05959195106752
30
0
41
1
10
46.2148513956949
20
4.05922552303826
30
0
41
1
10
45.7305962278895
20
4.06060201786778
30
0
41
1
10
45.3027927771817
20
4.0595814615175
30
0
41
1
10
44.9222276595611
20
4.05832447151732
30
0
41
1
10
44.5269683891315
20
4.0574187927113
30
0
41
1
10
44.0643769850763
20
4.05643291076197
30
0
41
1
10
43.5663965616481
20
4.05498661798708
30
0
41
1
10
43.0940529074156
20
4.0547872807752
30
0
41
1
10
42.6822871007248
20
4.05480465935477
30
0
41
1
10
42.2772605589226
20
4.05458988507408
30
0
41
1
10
41.7827127672371
20
4.05365961475135
30
0
41
1
10
41.1808909775963
20
4.05147399002942
30
0
41
1
10
40.5387383941481
20
4.05073041930277
30
0
41
1
10
39.9643000156368
20
4.05035087192962
30
0
41
1
10
39.4806424452899
20
4.04935796722572
30
0
41
1
10
39.0317431614025
20
4.04819204760742
30
0
41
1
10
38.537862813434
20
4.0472722306383
30
0
41
1
10
38.0172923970201
20
4.04669800581911
30
0
41
1
10
37.6210394464227
20
4.04624204738076
30
0
41
1
10
37.4273070458381
20
4.04590451579566
30
0
41
1
10
37.3978864179852
20
4.04585060485041
30
0
0
LINE
5
82
100
AcDbEntity
8
4
62
256
6
ByLayer
370
18
48
0.05
60
0
100
AcDbLine
10
0
20
0
30
0
11
63
21
0
31
0
39
0
210
0
220
0
230
1
0
LINE
5
84
100
AcDbEntity
8
81
62
256
6
ByLayer
370
18
48
1
60
0
100
AcDbLine
10
63
20
0
30
0
11
66
21
0
31
0
39
0
210
0
220
0
230
1
0
LINE
5
85
100
AcDbEntity
8
80
62
256
6
ByLayer
370
18
48
1
60
0
100
AcDbLine
10
0
20
0
30
0
11
-3
21
0
31
0
39
0
210
0
220
0
230
1
0
LINE
5
86
100
AcDbEntity
8
SK4
62
256
6
ByLayer
370
18
48
0.05
60
0
100
AcDbLine
10
-43
20
0
30
0
11
66
21
0
31
0
39
0
210
0
220
0
230
1
0
LINE
5
88
100
AcDbEntity
8
1
62
256
6
ByLayer
370
18
48
1
60
0
100
AcDbLine
10
0
20
5
30
0
11
0
21
-5
31
0
39
0
210
0
220
0
230
1
0
LINE
5
89
100
AcDbEntity
8
1
62
256
6
ByLayer
370
13
48
1
60
0
100
AcDbLine
10
62.890392
20
0.454108
30
0
11
61.941964
21
1.406122
31
0
39
0
210
0
220
0
230
1
0
LINE
5
8A
100
AcDbEntity
8
1
62
256
6
ByLayer
370
13
48
1
60
0
100
AcDbLine
10
0.708791
20
-4.570966
30
0
11
0.708791
21
4.570966
31
0
39
0
210
0
220
0
230
1
0
LINE
5
8B
100
AcDbEntity
8
1
62
256
6
ByLayer
370
18
48
1
60
0
100
AcDbLine
10
20.500135
20
0.560202
30
0
11
20.500135
21
4.159978
31
0
39
0
210
0
220
0
230
1
0
LINE
5
8C
100
AcDbEntity
8
1
62
256
6
ByLayer
370
18
48
1
60
0
100
AcDbLine
10
20.500135
20
0.031095
30
0
11
20.500135
21
-0.037731
31
0
39
0
210
0
220
0
230
1
0
LINE
5
8D
100
AcDbEntity
8
1
62
256
6
ByLayer
370
13
48
1
60
0
100
AcDbLine
10
1.419021
20
-4.141933
30
0
11
1.419021
21
4.141933
31
0
39
0
210
0
220
0
230
1
0
LINE
5
8E
100
AcDbEntity
8
SK1
62
256
6
ByLayer
370
18
48
1
60
0
100
AcDbLine
10
-40
20
-3.479108
30
0
11
-40
21
-3.556945
31
0
39
0
210
0
220
0
230
1
0
LINE
5
90
100
AcDbEntity
8
SK1
62
256
6
ByLayer
370
13
48
1
60
0
100
AcDbLine
10
-39.35
20
-4.228085
30
0
11
-39.35
21
-4.150323
31
0
39
0
210
0
220
0
230
1
0
LINE
5
91
100
AcDbEntity
8
SK1
62
256
6
ByLayer
370
18
48
1
60
0
100
AcDbLine
10
-39.25
20
4.41
30
0
11
-39.25
21
4.348905
31
0
39
0
210
0
220
0
230
1
0
LINE
5
92
100
AcDbEntity
8
SK1
62
256
6
ByLayer
370
18
48
1
60
0
100
AcDbLine
10
-40
20
3.556945
30
0
11
-40
21
-3.479211
31
0
39
0
210
0
220
0
230
1
0
LINE
5
93
100
AcDbEntity
8
SK1
62
256
6
ByLayer
370
18
48
1
60
0
100
AcDbLine
10
-39.25
20
-4.41
30
0
11
-39.25
21
-4.278944
31
0
39
0
210
0
220
0
230
1
0
LINE
5
94
100
AcDbEntity
8
SK1
62
256
6
ByLayer
370
18
48
1
60
0
100
AcDbLine
10
-38.66
20
-5
30
0
11
-38.66
21
5
31
0
39
0
210
0
220
0
230
1
0
LINE
5
95
100
AcDbEntity
8
SK1
62
256
6
ByLayer
370
18
48
1
60
0
100
AcDbLine
10
0
20
5
30
0
11
0
21
-5
31
0
39
0
210
0
220
0
230
1
0
LINE
5
96
100
AcDbEntity
8
1
62
256
6
ByLayer
370
18
48
1
60
0
100
AcDbLine
10
1.419021
20
-4.141933
30
0
11
3.069651
21
-4.144904
31
0
39
0
210
0
220
0
230
1
0
LINE
5
97
100
AcDbEntity
8
1
62
256
6
ByLayer
370
18
48
1
60
0
100
AcDbLine
10
6.806127
20
-4.15163
30
0
11
21.386076
21
-4.177874
31
0
39
0
210
0
220
0
230
1
0
LINE
5
98
100
AcDbEntity
8
1
62
256
6
ByLayer
370
18
48
1
60
0
100
AcDbLine
10
34.181809
20
-4.200906
30
0
11
35.134721
21
-4.202621
31
0
39
0
210
0
220
0
230
1
0
LINE
5
99
100
AcDbEntity
8
1
62
256
6
ByLayer
370
18
48
1
60
0
100
AcDbLine
10
47.269641
20
-4.224464
30
0
11
48.515993
21
-4.226708
31
0
39
0
210
0
220
0
230
1
0
LINE
5
9A
100
AcDbEntity
8
1
62
256
6
ByLayer
370
18
48
1
60
0
100
AcDbLine
10
48.515993
20
4.226708
30
0
11
47.269641
21
4.224464
31
0
39
0
210
0
220
0
230
1
0
LINE
5
9B
100
AcDbEntity
8
1
62
256
6
ByLayer
370
18
48
1
60
0
100
AcDbLine
10
35.134721
20
4.202621
30
0
11
34.181809
21
4.200906
31
0
39
0
210
0
220
0
230
1
0
LINE
5
9C
100
AcDbEntity
8
1
62
256
6
ByLayer
370
18
48
1
60
0
100
AcDbLine
10
21.386076
20
4.177874
30
0
11
6.806127
21
4.15163
31
0
39
0
210
0
220
0
230
1
0
LINE
5
9D
100
AcDbEntity
8
1
62
256
6
ByLayer
370
18
48
1
60
0
100
AcDbLine
10
3.069651
20
4.144904
30
0
11
1.419021
21
4.141933
31
0
39
0
210
0
220
0
230
1
0
LINE
5
9E
100
AcDbEntity
8
SK1
62
256
6
ByLayer
370
18
48
1
60
0
100
AcDbLine
10
-39.25
20
-4.41
30
0
11
-38.66
21
-5
31
0
39
0
210
0
220
0
230
1
0
LINE
5
9F
100
AcDbEntity
8
SK1
62
256
6
ByLayer
370
18
48
1
60
0
100
AcDbLine
10
-38.66
20
5
30
0
11
-39.25
21
4.41
31
0
39
0
210
0
220
0
230
1
0
LINE
5
A0
100
AcDbEntity
8
SK1
62
256
6
ByLayer
370
18
48
1
60
0
100
AcDbLine
10
-38.66
20
-5
30
0
11
0
21
-5
31
0
39
0
210
0
220
0
230
1
0
LINE
5
A1
100
AcDbEntity
8
SK1
62
256
6
ByLayer
370
18
48
1
60
0
100
AcDbLine
10
0
20
5
30
0
11
-38.66
21
5
31
0
39
0
210
0
220
0
230
1
0
LINE
5
A2
100
AcDbEntity
8
2
62
256
6
ByLayer
370
13
48
1
60
0
100
AcDbLine
10
70.5
20
-4.25
30
0
11
70.5
21
28.549084
31
0
39
0
210
0
220
0
230
1
0
LINE
5
A4
100
AcDbEntity
8
2
62
256
6
ByLayer
370
13
48
1
60
0
100
AcDbLine
10
64.5875
20
4.25
30
0
11
72.5
21
4.25
31
0
39
0
210
0
220
0
230
1
0
LINE
5
A5
100
AcDbEntity
8
2
62
256
6
ByLayer
370
13
48
1
60
0
100
AcDbLine
10
64.5875
20
-4.25
30
0
11
72.5
21
-4.25
31
0
39
0
210
0
220
0
230
1
0
LINE
5
A6
100
AcDbEntity
8
1
62
256
6
ByLayer
370
18
48
1
60
1
100
AcDbLine
10
70.5
20
4.25
30
0
11
70.960784
21
0.750002
31
0
39
0
210
0
220
0
230
1
0
LINE
5
A7
100
AcDbEntity
8
1
62
256
6
ByLayer
370
18
48
1
60
1
100
AcDbLine
10
70.960784
20
0.750002
30
0
11
70.039216
21
0.749998
31
0
39
0
210
0
220
0
230
1
0
LINE
5
A8
100
AcDbEntity
8
1
62
256
6
ByLayer
370
18
48
1
60
1
100
AcDbLine
10
70.039216
20
0.749998
30
0
11
70.5
21
4.25
31
0
39
0
210
0
220
0
230
1
0
LINE
5
A9
100
AcDbEntity
8
1
62
256
6
ByLayer
370
18
48
1
60
1
100
AcDbLine
10
70.5
20
-4.25
30
0
11
70.039216
21
-0.750002
31
0
39
0
210
0
220
0
230
1
0
LINE
5
AA
100
AcDbEntity
8
1
62
256
6
ByLayer
370
18
48
1
60
1
100
AcDbLine
10
70.039216
20
-0.750002
30
0
11
70.960784
21
-0.749998
31
0
39
0
210
0
220
0
230
1
0
LINE
5
AB
100
AcDbEntity
8
1
62
256
6
ByLayer
370
18
48
1
60
1
100
AcDbLine
10
70.960784
20
-0.749998
30
0
11
70.5
21
-4.25
31
0
39
0
210
0
220
0
230
1
0
LINE
5
AC
100
AcDbEntity
8
SK2
62
256
6
ByLayer
370
13
48
1
60
0
100
AcDbLine
10
-48.5
20
-5
30
0
11
-48.5
21
15.333771
31
0
39
0
210
0
220
0
230
1
0
LINE
5
AE
100
AcDbEntity
8
SK2
62
256
6
ByLayer
370
13
48
1
60
0
100
AcDbLine
10
-41.5875
20
5
30
0
11
-50.5
21
5
31
0
39
0
210
0
220
0
230
1
0
LINE
5
AF
100
AcDbEntity
8
SK2
62
256
6
ByLayer
370
13
48
1
60
0
100
AcDbLine
10
-41.5875
20
-5
30
0
11
-50.5
21
-5
31
0
39
0
210
0
220
0
230
1
0
LINE
5
B0
100
AcDbEntity
8
1
62
256
6
ByLayer
370
18
48
1
60
1
100
AcDbLine
10
-48.5
20
5
30
0
11
-48.039216
21
1.500002
31
0
39
0
210
0
220
0
230
1
0
LINE
5
B1
100
AcDbEntity
8
1
62
256
6
ByLayer
370
18
48
1
60
1
100
AcDbLine
10
-48.039216
20
1.500002
30
0
11
-48.960784
21
1.499998
31
0
39
0
210
0
220
0
230
1
0
LINE
5
B2
100
AcDbEntity
8
1
62
256
6
ByLayer
370
18
48
1
60
1
100
AcDbLine
10
-48.960784
20
1.499998
30
0
11
-48.5
21
5
31
0
39
0
210
0
220
0
230
1
0
LINE
5
B3
100
AcDbEntity
8
1
62
256
6
ByLayer
370
18
48
1
60
1
100
AcDbLine
10
-48.5
20
-5
30
0
11
-48.960784
21
-1.500002
31
0
39
0
210
0
220
0
230
1
0
LINE
5
B4
100
AcDbEntity
8
1
62
256
6
ByLayer
370
18
48
1
60
1
100
AcDbLine
10
-48.960784
20
-1.500002
30
0
11
-48.039216
21
-1.499998
31
0
39
0
210
0
220
0
230
1
0
LINE
5
B5
100
AcDbEntity
8
1
62
256
6
ByLayer
370
18
48
1
60
1
100
AcDbLine
10
-48.039216
20
-1.499998
30
0
11
-48.5
21
-5
31
0
39
0
210
0
220
0
230
1
0
LINE
5
B6
100
AcDbEntity
8
SK2
62
256
6
ByLayer
370
13
48
1
60
0
100
AcDbLine
10
63.542996
20
1.491748
30
0
11
70.563972
21
20.780144
31
0
39
0
210
0
220
0
230
1
0
LINE
5
B7
100
AcDbEntity
8
SK2
62
256
6
ByLayer
370
13
48
1
60
0
100
AcDbLine
10
63.542996
20
-1.491748
30
0
11
70.563972
21
-20.780144
31
0
39
0
210
0
220
0
230
1
0
LINE
5
B8
100
AcDbEntity
8
1
62
256
6
ByLayer
370
18
48
1
60
1
100
AcDbLine
10
69.879883
20
18.900776
30
0
11
73.289989
21
17.987824
31
0
39
0
210
0
220
0
230
1
0
LINE
5
B9
100
AcDbEntity
8
1
62
256
6
ByLayer
370
18
48
1
60
1
100
AcDbLine
10
73.289989
20
17.987824
30
0
11
72.937506
21
17.13633
31
0
39
0
210
0
220
0
230
1
0
LINE
5
BA
100
AcDbEntity
8
1
62
256
6
ByLayer
370
18
48
1
60
1
100
AcDbLine
10
72.937506
20
17.13633
30
0
11
69.879883
21
18.900776
31
0
39
0
210
0
220
0
230
1
0
LINE
5
BB
100
AcDbEntity
8
1
62
256
6
ByLayer
370
18
48
1
60
1
100
AcDbLine
10
69.879883
20
-18.900776
30
0
11
72.937503
21
-17.136331
31
0
39
0
210
0
220
0
230
1
0
LINE
5
BC
100
AcDbEntity
8
1
62
256
6
ByLayer
370
18
48
1
60
1
100
AcDbLine
10
72.937503
20
-17.136331
30
0
11
73.289992
21
-17.987823
31
0
39
0
210
0
220
0
230
1
0
LINE
5
BD
100
AcDbEntity
8
1
62
256
6
ByLayer
370
18
48
1
60
1
100
AcDbLine
10
73.289992
20
-17.987823
30
0
11
69.879883
21
-18.900776
31
0
39
0
210
0
220
0
230
1
0
LINE
5
10F
100
AcDbEntity
8
1
62
256
6
ByLayer
370
13
48
0.05
60
0
100
AcDbLine
10
-46.5
20
0
30
0
11
67.94577
21
0
31
0
39
0
210
0
220
0
230
1
0
LINE
5
114
100
AcDbEntity
8
1
62
256
6
ByLayer
370
18
48
1
60
1
100
AcDbLine
10
70.5
20
4.25
30
0
11
70.960784
21
0.750002
31
0
39
0
210
0
220
0
230
1
0
LINE
5
115
100
AcDbEntity
8
1
62
256
6
ByLayer
370
18
48
1
60
1
100
AcDbLine
10
70.960784
20
0.750002
30
0
11
70.039216
21
0.749998
31
0
39
0
210
0
220
0
230
1
0
LINE
5
116
100
AcDbEntity
8
1
62
256
6
ByLayer
370
18
48
1
60
1
100
AcDbLine
10
70.039216
20
0.749998
30
0
11
70.5
21
4.25
31
0
39
0
210
0
220
0
230
1
0
LINE
5
118
100
AcDbEntity
8
1
62
256
6
ByLayer
370
18
48
1
60
1
100
AcDbLine
10
70.5
20
-4.25
30
0
11
70.039216
21
-0.750002
31
0
39
0
210
0
220
0
230
1
0
LINE
5
119
100
AcDbEntity
8
1
62
256
6
ByLayer
370
18
48
1
60
1
100
AcDbLine
10
70.039216
20
-0.750002
30
0
11
70.960784
21
-0.749998
31
0
39
0
210
0
220
0
230
1
0
LINE
5
11A
100
AcDbEntity
8
1
62
256
6
ByLayer
370
18
48
1
60
1
100
AcDbLine
10
70.960784
20
-0.749998
30
0
11
70.5
21
-4.25
31
0
39
0
210
0
220
0
230
1
0
LINE
5
11E
100
AcDbEntity
8
1
62
256
6
ByLayer
370
18
48
1
60
1
100
AcDbLine
10
-48.5
20
5
30
0
11
-48.039216
21
1.500002
31
0
39
0
210
0
220
0
230
1
0
LINE
5
11F
100
AcDbEntity
8
1
62
256
6
ByLayer
370
18
48
1
60
1
100
AcDbLine
10
-48.039216
20
1.500002
30
0
11
-48.960784
21
1.499998
31
0
39
0
210
0
220
0
230
1
0
LINE
5
120
100
AcDbEntity
8
1
62
256
6
ByLayer
370
18
48
1
60
1
100
AcDbLine
10
-48.960784
20
1.499998
30
0
11
-48.5
21
5
31
0
39
0
210
0
220
0
230
1
0
LINE
5
122
100
AcDbEntity
8
1
62
256
6
ByLayer
370
18
48
1
60
1
100
AcDbLine
10
-48.5
20
-5
30
0
11
-48.960784
21
-1.500002
31
0
39
0
210
0
220
0
230
1
0
LINE
5
123
100
AcDbEntity
8
1
62
256
6
ByLayer
370
18
48
1
60
1
100
AcDbLine
10
-48.960784
20
-1.500002
30
0
11
-48.039216
21
-1.499998
31
0
39
0
210
0
220
0
230
1
0
LINE
5
124
100
AcDbEntity
8
1
62
256
6
ByLayer
370
18
48
1
60
1
100
AcDbLine
10
-48.039216
20
-1.499998
30
0
11
-48.5
21
-5
31
0
39
0
210
0
220
0
230
1
0
LINE
5
127
100
AcDbEntity
8
1
62
256
6
ByLayer
370
18
48
1
60
1
100
AcDbLine
10
69.879883
20
18.900776
30
0
11
73.289989
21
17.987824
31
0
39
0
210
0
220
0
230
1
0
LINE
5
128
100
AcDbEntity
8
1
62
256
6
ByLayer
370
18
48
1
60
1
100
AcDbLine
10
73.289989
20
17.987824
30
0
11
72.937506
21
17.13633
31
0
39
0
210
0
220
0
230
1
0
LINE
5
129
100
AcDbEntity
8
1
62
256
6
ByLayer
370
18
48
1
60
1
100
AcDbLine
10
72.937506
20
17.13633
30
0
11
69.879883
21
18.900776
31
0
39
0
210
0
220
0
230
1
0
LINE
5
12B
100
AcDbEntity
8
1
62
256
6
ByLayer
370
18
48
1
60
1
100
AcDbLine
10
69.879883
20
-18.900776
30
0
11
72.937503
21
-17.136331
31
0
39
0
210
0
220
0
230
1
0
LINE
5
12C
100
AcDbEntity
8
1
62
256
6
ByLayer
370
18
48
1
60
1
100
AcDbLine
10
72.937503
20
-17.136331
30
0
11
73.289992
21
-17.987823
31
0
39
0
210
0
220
0
230
1
0
LINE
5
12D
100
AcDbEntity
8
1
62
256
6
ByLayer
370
18
48
1
60
1
100
AcDbLine
10
73.289992
20
-17.987823
30
0
11
69.879883
21
-18.900776
31
0
39
0
210
0
220
0
230
1
0
MTEXT
5
110
100
AcDbEntity
8
2
62
256
6
ByLayer
370
18
48
1
60
0
100
AcDbMText
10
69.158886
20
17.908438
30
0
210
0
220
0
230
1
1
%%c
40
3
41
0
44
1.084337
50
90
71
7
72
5
7
iso_b_vert
0
MTEXT
5
113
100
AcDbEntity
8
2
62
256
6
ByLayer
370
18
48
1
60
0
100
AcDbMText
10
69.158886
20
23.885
30
0
210
0
220
0
230
1
1
\W0.7121;8.5
40
3
41
0
44
1.084337
50
90
71
7
72
5
7
iso_b_vert
0
MTEXT
5
11C
100
AcDbEntity
8
SK2
62
256
6
ByLayer
370
18
48
1
60
0
100
AcDbMText
10
-49.841114
20
6.658437
30
0
210
0
220
0
230
1
1
%%c
40
3
41
0
44
1.084337
50
90
71
7
72
5
7
iso_b_vert
0
MTEXT
5
11D
100
AcDbEntity
8
SK2
62
256
6
ByLayer
370
18
48
1
60
0
100
AcDbMText
10
-49.841114
20
12.635
30
0
210
0
220
0
230
1
1
\W0.5321;10
40
3
41
0
44
1.084337
50
90
71
7
72
5
7
iso_b_vert
0
MTEXT
5
126
100
AcDbEntity
8
SK2
62
256
6
ByLayer
370
18
48
1
60
0
100
AcDbMText
10
79.673322
20
-2.114886
30
0
210
0
220
0
230
1
1
\W0.7071;140%%d
40
3
41
0
44
1.084337
50
0
71
7
72
5
7
iso_b_vert
0
MTEXT
5
12F
100
AcDbEntity
8
SK6
62
256
6
ByLayer
370
18
48
1
60
0
100
AcDbMText
10
-13.049664
20
-77.114886
30
0
210
0
220
0
230
1
1
\W0.7609;860.1-0850-044A1-SD S2BM
40
3
41
0
44
1.084337
50
0
71
7
72
5
7
iso_b_vert
0
HATCH
5
117
100
AcDbEntity
8
2
62
256
6
ByLayer
370
13
48
1
60
0
100
AcDbHatch
10
0
20
0
30
0
210
0
220
0
230
1
2
ANSI31
70
0
71
0
91
1
92
5
93
3
72
1
10
70.5
20
4.25
11
70.9607837415528
21
0.750001692553184
72
1
10
70.9607837415528
20
0.750001692553184
11
70.0392162584472
21
0.749998307446816
72
1
10
70.0392162584472
20
0.749998307446816
11
70.5
21
4.25
97
0
75
0
76
1
52
0
41
0.0062
77
0
78
1
53
45
43
0
44
0
45
-0.0139193969876572
46
0.0139193969876572
79
0
47
0
98
1
10
0
20
0
0
HATCH
5
11B
100
AcDbEntity
8
2
62
256
6
ByLayer
370
13
48
1
60
0
100
AcDbHatch
10
0
20
0
30
0
210
0
220
0
230
1
2
ANSI31
70
0
71
0
91
1
92
5
93
3
72
1
10
70.5
20
-4.25
11
70.0392162584472
21
-0.750001692553184
72
1
10
70.0392162584472
20
-0.750001692553184
11
70.9607837415528
21
-0.749998307446816
72
1
10
70.9607837415528
20
-0.749998307446816
11
70.5
21
-4.25
97
0
75
0
76
1
52
0
41
0.0062
77
0
78
1
53
45
43
0
44
0
45
-0.0139193969876572
46
0.0139193969876572
79
0
47
0
98
1
10
0
20
0
0
HATCH
5
121
100
AcDbEntity
8
SK2
62
256
6
ByLayer
370
13
48
1
60
0
100
AcDbHatch
10
0
20
0
30
0
210
0
220
0
230
1
2
ANSI31
70
0
71
0
91
1
92
5
93
3
72
1
10
-48.5
20
5
11
-48.0392162584472
21
1.50000169255318
72
1
10
-48.0392162584472
20
1.50000169255318
11
-48.9607837415528
21
1.49999830744682
72
1
10
-48.9607837415528
20
1.49999830744682
11
-48.5
21
5
97
0
75
0
76
1
52
0
41
0.0062
77
0
78
1
53
45
43
0
44
0
45
-0.0139193969876572
46
0.0139193969876572
79
0
47
0
98
1
10
0
20
0
0
HATCH
5
125
100
AcDbEntity
8
SK2
62
256
6
ByLayer
370
13
48
1
60
0
100
AcDbHatch
10
0
20
0
30
0
210
0
220
0
230
1
2
ANSI31
70
0
71
0
91
1
92
5
93
3
72
1
10
-48.5
20
-5
11
-48.9607837415528
21
-1.50000169255318
72
1
10
-48.9607837415528
20
-1.50000169255318
11
-48.0392162584472
21
-1.49999830744682
72
1
10
-48.0392162584472
20
-1.49999830744682
11
-48.5
21
-5
97
0
75
0
76
1
52
0
41
0.0062
77
0
78
1
53
45
43
0
44
0
45
-0.0139193969876572
46
0.0139193969876572
79
0
47
0
98
1
10
0
20
0
0
HATCH
5
12A
100
AcDbEntity
8
SK2
62
256
6
ByLayer
370
13
48
1
60
0
100
AcDbHatch
10
0
20
0
30
0
210
0
220
0
230
1
2
ANSI31
70
0
71
0
91
1
92
5
93
3
72
1
10
69.8798826015421
20
18.9007763778633
11
73.2899892771703
21
17.9878238766641
72
1
10
73.2899892771703
20
17.9878238766641
11
72.9375061222181
21
17.1363297478506
72
1
10
72.9375061222181
20
17.1363297478506
11
69.8798826015421
21
18.9007763778633
97
0
75
0
76
1
52
0
41
0.0062
77
0
78
1
53
45
43
0
44
0
45
-0.0139193969876572
46
0.0139193969876572
79
0
47
0
98
1
10
0
20
0
0
HATCH
5
12E
100
AcDbEntity
8
SK2
62
256
6
ByLayer
370
13
48
1
60
0
100
AcDbHatch
10
0
20
0
30
0
210
0
220
0
230
1
2
ANSI31
70
0
71
0
91
1
92
5
93
3
72
1
10
69.8798826015422
20
-18.9007763778632
11
72.9375029945105
21
-17.1363310426049
72
1
10
72.9375029945105
20
-17.1363310426049
11
73.2899924048783
21
-17.9878225819096
72
1
10
73.2899924048783
20
-17.9878225819096
11
69.8798826015422
21
-18.9007763778632
97
0
75
0
76
1
52
0
41
0.0062
77
0
78
1
53
45
43
0
44
0
45
-0.0139193969876572
46
0.0139193969876572
79
0
47
0
98
1
10
0
20
0
0
DIMENSION
5
132
100
AcDbEntity
8
SK2
62
256
6
ByLayer
370
18
48
1
60
0
100
AcDbDimension
2
_U0
10
19
20
-24.891688
30
0
11
41
21
-24.891688
31
0
70
32
71
1
72
1
41
1
210
0
220
0
230
1
3
Standard
100
AcDbAlignedDimension
13
63
23
-4.25
33
0
14
19
24
-4.25
34
0
50
0
100
AcDbRotatedDimension
1001
ACAD
1000
DSTYLE
1002
{
1070
   371
1070
    13
1070
   372
1070
    13
1070
   170
1070
     0
1070
   144
1040
1.0
1070
   277
1070
     2
1070
   284
1070
     8
1070
   278
1070
    46
1070
   146
1040
1.166667
1070
   345
1005
16
1070
   347
1005
16
1070
   346
1005
16
1070
   344
1005
0
1070
   343
1005
0
1070
   172
1070
     1
1070
    76
1070
     0
1070
    75
1070
     0
1070
   282
1070
     0
1070
   281
1070
     0
1070
     3
1000

1070
    71
1070
     0
1070
    74
1070
     0
1070
   279
1070
     0
1070
   173
1070
     1
1070
   340
1005
111
1070
   271
1070
     2
1070
   272
1070
     2
1070
    77
1070
     1
1070
    73
1070
     1
1070
   171
1070
     3
1070
   274
1070
     4
1070
   177
1070
     2
1070
   176
1070
     2
1070
   178
1070
     2
1070
    78
1070
     8
1070
    48
1040
-0.1
1070
    41
1040
3.5
1070
   147
1040
1.5
1070
    42
1040
1.5875
1070
    44
1040
2.0
1070
   140
1040
3.0
1002
}
1001
ACAD_DSTYLE_DIM_LINETYPE
1070
   380
1005
16
1001
ACAD_DSTYLE_DIM_EXT1_LINETYPE
1070
   381
1005
16
1001
ACAD_DSTYLE_DIM_EXT2_LINETYPE
1070
   382
1005
16
0
DIMENSION
5
14D
100
AcDbEntity
8
SK2
62
256
6
ByLayer
370
18
48
1
60
0
100
AcDbDimension
2
_U1
10
2
20
-34.891688
30
0
11
32.5
21
-34.891688
31
0
70
32
71
1
72
1
41
1
210
0
220
0
230
1
3
Standard
100
AcDbAlignedDimension
13
63
23
-4.25
33
0
14
2
24
-4.25
34
0
50
0
100
AcDbRotatedDimension
1001
ACAD
1000
DSTYLE
1002
{
1070
   371
1070
    13
1070
   372
1070
    13
1070
     3
1000

1070
   170
1070
     0
1070
   144
1040
1.0
1070
   277
1070
     2
1070
   284
1070
     8
1070
   278
1070
    46
1070
   146
1040
1.166667
1070
   345
1005
16
1070
   347
1005
16
1070
   346
1005
16
1070
   344
1005
0
1070
   343
1005
0
1070
   172
1070
     1
1070
    76
1070
     0
1070
    75
1070
     0
1070
   282
1070
     0
1070
   281
1070
     0
1070
    71
1070
     0
1070
    74
1070
     0
1070
   279
1070
     0
1070
   173
1070
     1
1070
   340
1005
111
1070
   271
1070
     2
1070
   272
1070
     2
1070
    77
1070
     1
1070
    73
1070
     1
1070
   171
1070
     3
1070
   274
1070
     4
1070
   177
1070
     2
1070
   176
1070
     2
1070
   178
1070
     2
1070
    78
1070
     8
1070
    48
1040
-0.1
1070
    41
1040
3.5
1070
   147
1040
1.5
1070
    42
1040
1.5875
1070
    44
1040
2.0
1070
   140
1040
3.0
1002
}
1001
ACAD_DSTYLE_DIM_LINETYPE
1070
   380
1005
16
1001
ACAD_DSTYLE_DIM_EXT1_LINETYPE
1070
   381
1005
16
1001
ACAD_DSTYLE_DIM_EXT2_LINETYPE
1070
   382
1005
16
0
DIMENSION
5
165
100
AcDbEntity
8
SK2
62
256
6
ByLayer
370
18
48
1
60
0
100
AcDbDimension
2
_U2
10
0
20
-42.891688
30
0
11
-20
21
-42.891688
31
0
70
32
71
1
72
1
41
1
210
0
220
0
230
1
3
Standard
100
AcDbAlignedDimension
13
-40
23
-5
33
0
14
0
24
-5
34
0
50
0
100
AcDbRotatedDimension
1001
ACAD
1000
DSTYLE
1002
{
1070
   371
1070
    13
1070
   372
1070
    13
1070
     3
1000

1070
   170
1070
     0
1070
   144
1040
1.0
1070
   277
1070
     2
1070
   284
1070
     8
1070
   278
1070
    46
1070
   146
1040
1.166667
1070
   345
1005
16
1070
   347
1005
16
1070
   346
1005
16
1070
   344
1005
0
1070
   343
1005
0
1070
   172
1070
     1
1070
    76
1070
     0
1070
    75
1070
     0
1070
   282
1070
     0
1070
   281
1070
     0
1070
    71
1070
     0
1070
    74
1070
     0
1070
   279
1070
     0
1070
   173
1070
     1
1070
   340
1005
111
1070
   271
1070
     2
1070
   272
1070
     2
1070
    77
1070
     1
1070
    73
1070
     1
1070
   171
1070
     3
1070
   274
1070
     4
1070
   177
1070
     2
1070
   176
1070
     2
1070
   178
1070
     2
1070
    78
1070
     8
1070
    48
1040
-0.1
1070
    41
1040
3.5
1070
   147
1040
1.5
1070
    42
1040
1.5875
1070
    44
1040
2.0
1070
   140
1040
3.0
1002
}
1001
ACAD_DSTYLE_DIM_LINETYPE
1070
   380
1005
16
1001
ACAD_DSTYLE_DIM_EXT1_LINETYPE
1070
   381
1005
16
1001
ACAD_DSTYLE_DIM_EXT2_LINETYPE
1070
   382
1005
16
0
DIMENSION
5
17D
100
AcDbEntity
8
SK2
62
256
6
ByLayer
370
18
48
1
60
0
100
AcDbDimension
2
_U3
10
63
20
-50.891688
30
0
11
11.5
21
-50.891688
31
0
70
32
71
1
72
1
41
1
210
0
220
0
230
1
3
Standard
100
AcDbAlignedDimension
13
-40
23
-5
33
0
14
63
24
-4.25
34
0
50
0
100
AcDbRotatedDimension
1001
ACAD
1000
DSTYLE
1002
{
1070
   371
1070
    13
1070
   372
1070
    13
1070
     3
1000

1070
   170
1070
     0
1070
   144
1040
1.0
1070
   277
1070
     2
1070
   284
1070
     8
1070
   278
1070
    46
1070
   146
1040
1.166667
1070
   345
1005
16
1070
   347
1005
16
1070
   346
1005
16
1070
   344
1005
0
1070
   343
1005
0
1070
   172
1070
     1
1070
    76
1070
     0
1070
    75
1070
     0
1070
   282
1070
     0
1070
   281
1070
     0
1070
    71
1070
     0
1070
    74
1070
     0
1070
   279
1070
     0
1070
   173
1070
     1
1070
   340
1005
111
1070
   271
1070
     2
1070
   272
1070
     2
1070
    77
1070
     1
1070
    73
1070
     1
1070
   171
1070
     3
1070
   274
1070
     4
1070
   177
1070
     2
1070
   176
1070
     2
1070
   178
1070
     2
1070
    78
1070
     8
1070
    48
1040
-0.1
1070
    41
1040
3.5
1070
   147
1040
1.5
1070
    42
1040
1.5875
1070
    44
1040
2.0
1070
   140
1040
3.0
1002
}
1001
ACAD_DSTYLE_DIM_LINETYPE
1070
   380
1005
16
1001
ACAD_DSTYLE_DIM_EXT1_LINETYPE
1070
   381
1005
16
1001
ACAD_DSTYLE_DIM_EXT2_LINETYPE
1070
   382
1005
16
0
DIMENSION
5
195
100
AcDbEntity
8
2
62
256
6
ByLayer
370
18
48
1
60
0
100
AcDbDimension
2
_U4
10
0
20
-42.891688
30
0
11
31.5
21
-42.891688
31
0
70
32
71
1
72
1
41
1
210
0
220
0
230
1
3
Standard
100
AcDbAlignedDimension
13
63
23
-4.25
33
0
14
0
24
-4.25
34
0
50
0
100
AcDbRotatedDimension
1001
ACAD
1000
DSTYLE
1002
{
1070
   371
1070
    13
1070
   372
1070
    13
1070
     3
1000

1070
   170
1070
     0
1070
   144
1040
1.0
1070
   277
1070
     2
1070
   284
1070
     8
1070
   278
1070
    46
1070
   146
1040
1.166667
1070
   345
1005
16
1070
   347
1005
16
1070
   346
1005
16
1070
   344
1005
0
1070
   343
1005
0
1070
   172
1070
     1
1070
    76
1070
     0
1070
    75
1070
     0
1070
   282
1070
     0
1070
   281
1070
     0
1070
    71
1070
     0
1070
    74
1070
     0
1070
   279
1070
     0
1070
   173
1070
     1
1070
   340
1005
111
1070
   271
1070
     2
1070
   272
1070
     2
1070
    77
1070
     1
1070
    73
1070
     1
1070
   171
1070
     3
1070
   274
1070
     4
1070
   177
1070
     2
1070
   176
1070
     2
1070
   178
1070
     2
1070
    78
1070
     8
1070
    48
1040
-0.1
1070
    41
1040
3.5
1070
   147
1040
1.5
1070
    42
1040
1.5875
1070
    44
1040
2.0
1070
   140
1040
3.0
1002
}
1001
ACAD_DSTYLE_DIM_LINETYPE
1070
   380
1005
16
1001
ACAD_DSTYLE_DIM_EXT1_LINETYPE
1070
   381
1005
16
1001
ACAD_DSTYLE_DIM_EXT2_LINETYPE
1070
   382
1005
16
0
ENDSEC
0
SECTION
2
OBJECTS
0
DICTIONARY
5
21d
330
0
100
AcDbDictionary
280
0
281
1
3
ACAD_GROUP
350
21e
3
ACAD_MLINESTYLE
350
21f
0
DICTIONARY
5
21e
330
0
100
AcDbDictionary
280
0
281
1
0
DICTIONARY
5
21f
330
0
100
AcDbDictionary
280
0
281
1
3
Standard
350
18
0
MLINESTYLE
5
18
330
21f
100
AcDbMlineStyle
2
Standard
70
0
3

62
256
51
90
52
90
71
2
49
-0.5
62
256
6
ByLayer
49
0.5
62
256
6
ByLayer
0
RASTERVARIABLES
5
20b
330

100
AcDbRasterVariables
90
0
70
1
71
1
72
1
0
ENDSEC
0
EOF
