0
SECTION
2
HEADER
9
$ACADVER
1
AC1015
9
$DWGCODEPAGE
3
ANSI_1252
9
$HANDSEED
5
226
9
$ANGBASE
50
0
9
$ANGDIR
70
0
9
$ATTMODE
70
1
9
$AUNITS
70
0
9
$AUPREC
70
0
9
$CECOLOR
62
256
9
$CELTSCALE
40
1
9
$CELTYPE
6
ByLayer
9
$CELWEIGHT
370
18
9
$CLAYER
8
0
9
$CMLJUST
70
0
9
$CMLSCALE
40
1
9
$CMLSTYLE
2
Standard
9
$DIMSTYLE
2
Standard
9
$TEXTSIZE
40
0.2
9
$TEXTSTYLE
7
Standard
9
$LUNITS
70
2
9
$LUPREC
70
4
9
$EXTNAMES
290
1
9
$INSUNITS
70
4
9
$LTSCALE
40
1
9
$LWDISPLAY
290
1
9
$PDMODE
70
0
9
$PDSIZE
40
0
9
$PLINEGEN
70
0
0
ENDSEC
0
SECTION
2
CLASSES
0
CLASS
1
RASTERVARIABLES
2
AcDbRasterVariables
3
ISM
90
0
280
0
281
0
0
ENDSEC
0
SECTION
2
TABLES
0
TABLE
2
VPORT
5
21c
100
AcDbSymbolTable
0
VPORT
5
1
100
AcDbSymbolTableRecord
100
AcDbViewportTableRecord
2
*Active
70
0
10
0
20
0
11
1
21
1
12
-1
22
1
13
0
23
0
14
0.5
24
0.5
15
10
25
10
16
0
26
0
36
1
17
0
27
0
37
0
0
ENDTAB
0
TABLE
2
LTYPE
5
21d
100
AcDbSymbolTable
0
LTYPE
5
14
100
AcDbSymbolTableRecord
100
AcDbLinetypeTableRecord
70
0
2
ByBlock
3

72
65
73
0
40
0
0
LTYPE
5
15
100
AcDbSymbolTableRecord
100
AcDbLinetypeTableRecord
70
0
2
ByLayer
3

72
65
73
0
40
0
0
LTYPE
5
16
100
AcDbSymbolTableRecord
100
AcDbLinetypeTableRecord
70
0
2
Continuous
3
Solid line
72
65
73
0
40
0
0
LTYPE
5
6E
100
AcDbSymbolTableRecord
100
AcDbLinetypeTableRecord
70
0
2
CENTER
3
____ _ ____ _ ____ _ ____
72
65
73
4
40
47.5
49
22
74
0
49
-8.5
74
0
49
8.5
74
0
49
-8.5
74
0
0
LTYPE
5
6F
100
AcDbSymbolTableRecord
100
AcDbLinetypeTableRecord
70
0
2
DASHED
3
__ __ __ __ __ __ __ __ __
72
65
73
2
40
25.72
49
12.86
74
0
49
-12.86
74
0
0
ENDTAB
0
TABLE
2
LAYER
5
21e
100
AcDbSymbolTable
0
LAYER
5
10
100
AcDbSymbolTableRecord
100
AcDbLayerTableRecord
2
0
70
0
62
7
6
Continuous
290
1
370
-3
390
0
0
LAYER
5
71
100
AcDbSymbolTableRecord
100
AcDbLayerTableRecord
2
80
70
0
62
-6
6
Continuous
290
1
370
-3
390
0
0
LAYER
5
73
100
AcDbSymbolTableRecord
100
AcDbLayerTableRecord
2
81
70
0
62
-3
6
Continuous
290
1
370
-3
390
0
0
LAYER
5
75
100
AcDbSymbolTableRecord
100
AcDbLayerTableRecord
2
1
70
0
62
4
6
Continuous
290
1
370
-3
390
0
0
LAYER
5
83
100
AcDbSymbolTableRecord
100
AcDbLayerTableRecord
2
4
70
0
62
-2
6
CENTER
290
1
370
-3
390
0
0
LAYER
5
A4
100
AcDbSymbolTableRecord
100
AcDbLayerTableRecord
2
2
70
0
62
7
6
Continuous
290
1
370
-3
390
0
0
LAYER
5
131
100
AcDbSymbolTableRecord
100
AcDbLayerTableRecord
2
Defpoints
70
0
62
7
6
Continuous
290
0
370
-3
390
0
0
LAYER
5
208
100
AcDbSymbolTableRecord
100
AcDbLayerTableRecord
2
SK4
70
0
62
2
6
CENTER
290
1
370
-3
390
0
0
LAYER
5
209
100
AcDbSymbolTableRecord
100
AcDbLayerTableRecord
2
SK1
70
0
62
4
6
Continuous
290
1
370
-3
390
0
0
LAYER
5
20a
100
AcDbSymbolTableRecord
100
AcDbLayerTableRecord
2
SK2
70
0
62
7
6
Continuous
290
1
370
-3
390
0
0
LAYER
5
20b
100
AcDbSymbolTableRecord
100
AcDbLayerTableRecord
2
SK6
70
0
62
5
6
Continuous
290
1
370
-3
390
0
0
ENDTAB
0
TABLE
2
STYLE
5
21f
100
AcDbSymbolTable
0
STYLE
5
11
100
AcDbSymbolTableRecord
100
AcDbTextStyleTableRecord
2
Standard
3
txt
70
0
71
0
40
0
41
1
42
0
50
0
0
STYLE
5
10D
100
AcDbSymbolTableRecord
100
AcDbTextStyleTableRecord
2
iso_b_vert
3
simplex.shx
70
0
71
0
40
0
41
1
42
0
50
0
0
STYLE
5
10E
100
AcDbSymbolTableRecord
100
AcDbTextStyleTableRecord
2
DWGDirectTextStyle
3
simplex
70
0
71
0
40
0
41
1
42
0
50
0
0
ENDTAB
0
TABLE
2
DIMSTYLE
5
220
100
AcDbSymbolTable
100
AcDbDimStyleTable
0
DIMSTYLE
105
27
100
AcDbSymbolTableRecord
100
AcDbDimStyleTableRecord
2
Standard
70
0
3
<>
41
0.18
42
0.0625
44
0.18
140
0.18
147
0.09
73
0
74
0
77
1
271
2
275
0
278
52
280
0
340
11
0
ENDTAB
0
TABLE
2
VIEW
5
221
100
AcDbSymbolTable
0
ENDTAB
0
TABLE
2
UCS
5
222
100
AcDbSymbolTable
0
ENDTAB
0
TABLE
2
APPID
5
223
100
AcDbSymbolTable
0
APPID
5
12
100
AcDbSymbolTableRecord
100
AcDbRegAppTableRecord
2
ACAD
70
0
0
APPID
5
12D
100
AcDbSymbolTableRecord
100
AcDbRegAppTableRecord
2
ACAD_DSTYLE_DIMBREAK
70
0
0
APPID
5
1C7
100
AcDbSymbolTableRecord
100
AcDbRegAppTableRecord
2
ACAD_DSTYLE_DIM_LINETYPE
70
0
0
APPID
5
1C8
100
AcDbSymbolTableRecord
100
AcDbRegAppTableRecord
2
ACAD_DSTYLE_DIM_EXT1_LINETYPE
70
0
0
APPID
5
1C9
100
AcDbSymbolTableRecord
100
AcDbRegAppTableRecord
2
ACAD_DSTYLE_DIM_EXT2_LINETYPE
70
0
0
APPID
5
204
100
AcDbSymbolTableRecord
100
AcDbRegAppTableRecord
2
ACAD_MLEADERVER
70
0
0
ENDTAB
0
TABLE
2
BLOCK_RECORD
5
224
100
AcDbSymbolTable
0
BLOCK_RECORD
5
1F
100
AcDbSymbolTableRecord
100
AcDbBlockTableRecord
2
*Model_Space
340
0
70
0
0
BLOCK_RECORD
5
1B
100
AcDbSymbolTableRecord
100
AcDbBlockTableRecord
2
*Paper_Space
340
0
70
0
0
BLOCK_RECORD
5
23
100
AcDbSymbolTableRecord
100
AcDbBlockTableRecord
2
*Paper_Space0
340
0
70
0
0
BLOCK_RECORD
5
132
100
AcDbSymbolTableRecord
100
AcDbBlockTableRecord
2
*D1
340
0
70
0
0
BLOCK_RECORD
5
13E
100
AcDbSymbolTableRecord
100
AcDbBlockTableRecord
2
_U0
340
0
70
0
0
BLOCK_RECORD
5
14C
100
AcDbSymbolTableRecord
100
AcDbBlockTableRecord
2
*D3
340
0
70
0
0
BLOCK_RECORD
5
158
100
AcDbSymbolTableRecord
100
AcDbBlockTableRecord
2
_U1
340
0
70
0
0
BLOCK_RECORD
5
164
100
AcDbSymbolTableRecord
100
AcDbBlockTableRecord
2
*D5
340
0
70
0
0
BLOCK_RECORD
5
170
100
AcDbSymbolTableRecord
100
AcDbBlockTableRecord
2
_U2
340
0
70
0
0
BLOCK_RECORD
5
17C
100
AcDbSymbolTableRecord
100
AcDbBlockTableRecord
2
*D7
340
0
70
0
0
BLOCK_RECORD
5
188
100
AcDbSymbolTableRecord
100
AcDbBlockTableRecord
2
_U3
340
0
70
0
0
BLOCK_RECORD
5
194
100
AcDbSymbolTableRecord
100
AcDbBlockTableRecord
2
*D9
340
0
70
0
0
BLOCK_RECORD
5
1A0
100
AcDbSymbolTableRecord
100
AcDbBlockTableRecord
2
_U4
340
0
70
0
0
ENDTAB
0
ENDSEC
0
SECTION
2
BLOCKS
0
BLOCK
5
20
100
AcDbEntity
8
0
100
AcDbBlockBegin
2
*Model_Space
70
0
10
0
20
0
30
0
3
*Model_Space
0
ENDBLK
5
21
100
AcDbEntity
8
0
100
AcDbBlockEnd
0
BLOCK
5
1C
100
AcDbEntity
8
0
100
AcDbBlockBegin
2
*Paper_Space
70
0
10
0
20
0
30
0
3
*Paper_Space
0
ENDBLK
5
1D
100
AcDbEntity
8
0
100
AcDbBlockEnd
0
BLOCK
5
24
100
AcDbEntity
8
0
100
AcDbBlockBegin
2
*Paper_Space0
70
0
10
0
20
0
30
0
3
*Paper_Space0
0
ENDBLK
5
25
100
AcDbEntity
8
0
100
AcDbBlockEnd
0
BLOCK
5
133
100
AcDbEntity
8
0
100
AcDbBlockBegin
2
*D1
70
1
10
0
20
0
30
0
3
*D1
0
LINE
5
135
100
AcDbEntity
8
0
62
256
6
ByLayer
370
-2
48
1
60
0
100
AcDbLine
10
49
20
-5.9375
30
0
11
49
21
-22.410048
31
0
39
0
210
0
220
0
230
1
0
LINE
5
136
100
AcDbEntity
8
0
62
256
6
ByLayer
370
-2
48
1
60
0
100
AcDbLine
10
21.4
20
-5.9375
30
0
11
21.4
21
-22.410048
31
0
39
0
210
0
220
0
230
1
0
LINE
5
137
100
AcDbEntity
8
0
62
256
6
ByLayer
370
-2
48
1
60
0
100
AcDbLine
10
45.5
20
-20.410048
30
0
11
24.9
21
-20.410048
31
0
39
0
210
0
220
0
230
1
0
SOLID
5
138
100
AcDbEntity
8
0
62
256
6
ByLayer
370
-1
48
1
60
0
100
AcDbTrace
10
45.5
20
-20.993381
30
0
11
45.5
21
-19.826715
31
0
12
49
22
-20.410048
32
0
13
49
23
-20.410048
33
0
39
0
210
0
220
0
230
1
0
SOLID
5
139
100
AcDbEntity
8
0
62
256
6
ByLayer
370
-1
48
1
60
0
100
AcDbTrace
10
24.9
20
-19.826715
30
0
11
24.9
21
-20.993381
31
0
12
21.4
22
-20.410048
32
0
13
21.4
23
-20.410048
33
0
39
0
210
0
220
0
230
1
0
MTEXT
5
13A
100
AcDbEntity
8
0
62
256
6
ByLayer
370
18
48
1
60
0
100
AcDbMText
10
35.2
20
-14.410048
30
0
210
0
220
0
230
1
1
\A1;27.6
40
3
41
0
44
1
50
0
71
5
72
5
7
iso_b_vert
0
POINT
5
13B
100
AcDbEntity
8
Defpoints
62
0
6
ByLayer
370
-1
48
1
60
0
100
AcDbPoint
10
49
20
-4.35
30
0
39
0
210
0
220
0
230
1
50
360
0
POINT
5
13C
100
AcDbEntity
8
Defpoints
62
0
6
ByLayer
370
-1
48
1
60
0
100
AcDbPoint
10
21.4
20
-4.35
30
0
39
0
210
0
220
0
230
1
50
360
0
POINT
5
13D
100
AcDbEntity
8
Defpoints
62
0
6
ByLayer
370
-1
48
1
60
0
100
AcDbPoint
10
21.4
20
-20.410048
30
0
39
0
210
0
220
0
230
1
50
360
0
ENDBLK
5
134
100
AcDbEntity
8
0
100
AcDbBlockEnd
0
BLOCK
5
147
100
AcDbEntity
8
0
100
AcDbBlockBegin
2
_U0
70
0
10
0
20
0
30
0
3
_U0
0
MTEXT
5
13F
100
AcDbEntity
8
SK2
62
256
6
ByLayer
370
18
48
1
60
0
100
AcDbMText
10
31.838544
20
-18.212434
30
0
210
0
220
0
230
1
1
\W0.7346;27.6
40
3
41
0
44
1.084337
50
0
71
7
72
5
7
iso_b_vert
0
MTEXT
5
140
100
AcDbEntity
8
SK2
62
256
6
ByLayer
370
18
48
1
60
0
100
AcDbMText
10
29.738544
20
-18.212434
30
0
210
0
220
0
230
1
1
\W1.1313;{\H1.88x;(}
40
3
41
0
44
1.084337
50
0
71
7
72
5
7
iso_b_vert
0
MTEXT
5
141
100
AcDbEntity
8
SK2
62
256
6
ByLayer
370
18
48
1
60
0
100
AcDbMText
10
38.879456
20
-18.212434
30
0
210
0
220
0
230
1
1
\W1.1313;{\H1.88x;)}
40
3
41
0
44
1.084337
50
0
71
7
72
5
7
iso_b_vert
0
LINE
5
142
100
AcDbEntity
8
SK2
62
256
6
ByLayer
370
13
48
1
60
0
100
AcDbLine
10
49
20
-5.9375
30
0
11
49
21
-22.410048
31
0
39
0
210
0
220
0
230
1
0
LINE
5
143
100
AcDbEntity
8
SK2
62
256
6
ByLayer
370
13
48
1
60
0
100
AcDbLine
10
21.4
20
-5.9375
30
0
11
21.4
21
-22.410048
31
0
39
0
210
0
220
0
230
1
0
LINE
5
144
100
AcDbEntity
8
SK2
62
256
6
ByLayer
370
13
48
1
60
0
100
AcDbLine
10
49
20
-20.410048
30
0
11
21.4
21
-20.410048
31
0
39
0
210
0
220
0
230
1
0
SOLID
5
145
100
AcDbEntity
8
SK2
62
256
6
ByLayer
370
18
48
1
60
0
100
AcDbTrace
10
49
20
-20.410048
30
0
11
45.500002
21
-20.870832
31
0
12
45.499998
22
-19.949264
32
0
13
45.499998
23
-19.949264
33
0
39
0
210
0
220
0
230
1
0
SOLID
5
146
100
AcDbEntity
8
SK2
62
256
6
ByLayer
370
18
48
1
60
0
100
AcDbTrace
10
21.4
20
-20.410048
30
0
11
24.899998
21
-19.949264
31
0
12
24.900002
22
-20.870832
32
0
13
24.900002
23
-20.870832
33
0
39
0
210
0
220
0
230
1
0
ENDBLK
5
148
100
AcDbEntity
8
0
100
AcDbBlockEnd
0
BLOCK
5
14D
100
AcDbEntity
8
0
100
AcDbBlockBegin
2
*D3
70
1
10
0
20
0
30
0
3
*D3
0
LINE
5
14F
100
AcDbEntity
8
0
62
256
6
ByLayer
370
-2
48
1
60
0
100
AcDbLine
10
49
20
-5.9375
30
0
11
49
21
-32.410048
31
0
39
0
210
0
220
0
230
1
0
LINE
5
150
100
AcDbEntity
8
0
62
256
6
ByLayer
370
-2
48
1
60
0
100
AcDbLine
10
2
20
-5.9375
30
0
11
2
21
-32.410048
31
0
39
0
210
0
220
0
230
1
0
LINE
5
151
100
AcDbEntity
8
0
62
256
6
ByLayer
370
-2
48
1
60
0
100
AcDbLine
10
45.5
20
-30.410048
30
0
11
5.5
21
-30.410048
31
0
39
0
210
0
220
0
230
1
0
SOLID
5
152
100
AcDbEntity
8
0
62
256
6
ByLayer
370
-1
48
1
60
0
100
AcDbTrace
10
45.5
20
-30.993381
30
0
11
45.5
21
-29.826715
31
0
12
49
22
-30.410048
32
0
13
49
23
-30.410048
33
0
39
0
210
0
220
0
230
1
0
SOLID
5
153
100
AcDbEntity
8
0
62
256
6
ByLayer
370
-1
48
1
60
0
100
AcDbTrace
10
5.5
20
-29.826715
30
0
11
5.5
21
-30.993381
31
0
12
2
22
-30.410048
32
0
13
2
23
-30.410048
33
0
39
0
210
0
220
0
230
1
0
MTEXT
5
154
100
AcDbEntity
8
0
62
256
6
ByLayer
370
18
48
1
60
0
100
AcDbMText
10
25.5
20
-24.410048
30
0
210
0
220
0
230
1
1
\A1;47
40
3
41
0
44
1
50
0
71
5
72
5
7
iso_b_vert
0
POINT
5
155
100
AcDbEntity
8
Defpoints
62
0
6
ByLayer
370
-1
48
1
60
0
100
AcDbPoint
10
49
20
-4.35
30
0
39
0
210
0
220
0
230
1
50
360
0
POINT
5
156
100
AcDbEntity
8
Defpoints
62
0
6
ByLayer
370
-1
48
1
60
0
100
AcDbPoint
10
2
20
-4.35
30
0
39
0
210
0
220
0
230
1
50
360
0
POINT
5
157
100
AcDbEntity
8
Defpoints
62
0
6
ByLayer
370
-1
48
1
60
0
100
AcDbPoint
10
2
20
-30.410048
30
0
39
0
210
0
220
0
230
1
50
360
0
ENDBLK
5
14E
100
AcDbEntity
8
0
100
AcDbBlockEnd
0
BLOCK
5
15F
100
AcDbEntity
8
0
100
AcDbBlockBegin
2
_U1
70
0
10
0
20
0
30
0
3
_U1
0
MTEXT
5
159
100
AcDbEntity
8
SK2
62
256
6
ByLayer
370
18
48
1
60
0
100
AcDbMText
10
23.709229
20
-29.524934
30
0
210
0
220
0
230
1
1
\W0.7361;47
40
3
41
0
44
1.084337
50
0
71
7
72
5
7
iso_b_vert
0
LINE
5
15A
100
AcDbEntity
8
SK2
62
256
6
ByLayer
370
13
48
1
60
0
100
AcDbLine
10
49
20
-5.9375
30
0
11
49
21
-32.410048
31
0
39
0
210
0
220
0
230
1
0
LINE
5
15B
100
AcDbEntity
8
SK2
62
256
6
ByLayer
370
13
48
1
60
0
100
AcDbLine
10
2
20
-5.9375
30
0
11
2
21
-32.410048
31
0
39
0
210
0
220
0
230
1
0
LINE
5
15C
100
AcDbEntity
8
SK2
62
256
6
ByLayer
370
13
48
1
60
0
100
AcDbLine
10
49
20
-30.410048
30
0
11
2
21
-30.410048
31
0
39
0
210
0
220
0
230
1
0
SOLID
5
15D
100
AcDbEntity
8
SK2
62
256
6
ByLayer
370
18
48
1
60
0
100
AcDbTrace
10
49
20
-30.410048
30
0
11
45.500002
21
-30.870832
31
0
12
45.499998
22
-29.949264
32
0
13
45.499998
23
-29.949264
33
0
39
0
210
0
220
0
230
1
0
SOLID
5
15E
100
AcDbEntity
8
SK2
62
256
6
ByLayer
370
18
48
1
60
0
100
AcDbTrace
10
2
20
-30.410048
30
0
11
5.499998
21
-29.949264
31
0
12
5.500002
22
-30.870832
32
0
13
5.500002
23
-30.870832
33
0
39
0
210
0
220
0
230
1
0
ENDBLK
5
160
100
AcDbEntity
8
0
100
AcDbBlockEnd
0
BLOCK
5
165
100
AcDbEntity
8
0
100
AcDbBlockBegin
2
*D5
70
1
10
0
20
0
30
0
3
*D5
0
LINE
5
167
100
AcDbEntity
8
0
62
256
6
ByLayer
370
-2
48
1
60
0
100
AcDbLine
10
-40
20
-6.5875
30
0
11
-40
21
-40.410048
31
0
39
0
210
0
220
0
230
1
0
LINE
5
168
100
AcDbEntity
8
0
62
256
6
ByLayer
370
-2
48
1
60
0
100
AcDbLine
10
0
20
-6.5875
30
0
11
0
21
-40.410048
31
0
39
0
210
0
220
0
230
1
0
LINE
5
169
100
AcDbEntity
8
0
62
256
6
ByLayer
370
-2
48
1
60
0
100
AcDbLine
10
-36.5
20
-38.410048
30
0
11
-3.5
21
-38.410048
31
0
39
0
210
0
220
0
230
1
0
SOLID
5
16A
100
AcDbEntity
8
0
62
256
6
ByLayer
370
-1
48
1
60
0
100
AcDbTrace
10
-36.5
20
-37.826715
30
0
11
-36.5
21
-38.993381
31
0
12
-40
22
-38.410048
32
0
13
-40
23
-38.410048
33
0
39
0
210
0
220
0
230
1
0
SOLID
5
16B
100
AcDbEntity
8
0
62
256
6
ByLayer
370
-1
48
1
60
0
100
AcDbTrace
10
-3.5
20
-38.993381
30
0
11
-3.5
21
-37.826715
31
0
12
0
22
-38.410048
32
0
13
0
23
-38.410048
33
0
39
0
210
0
220
0
230
1
0
MTEXT
5
16C
100
AcDbEntity
8
0
62
256
6
ByLayer
370
18
48
1
60
0
100
AcDbMText
10
-20
20
-32.410048
30
0
210
0
220
0
230
1
1
\A1;40
40
3
41
0
44
1
50
0
71
5
72
5
7
iso_b_vert
0
POINT
5
16D
100
AcDbEntity
8
Defpoints
62
0
6
ByLayer
370
-1
48
1
60
0
100
AcDbPoint
10
-40
20
-5
30
0
39
0
210
0
220
0
230
1
50
360
0
POINT
5
16E
100
AcDbEntity
8
Defpoints
62
0
6
ByLayer
370
-1
48
1
60
0
100
AcDbPoint
10
0
20
-5
30
0
39
0
210
0
220
0
230
1
50
360
0
POINT
5
16F
100
AcDbEntity
8
Defpoints
62
0
6
ByLayer
370
-1
48
1
60
0
100
AcDbPoint
10
0
20
-38.410048
30
0
39
0
210
0
220
0
230
1
50
360
0
ENDBLK
5
166
100
AcDbEntity
8
0
100
AcDbBlockEnd
0
BLOCK
5
177
100
AcDbEntity
8
0
100
AcDbBlockBegin
2
_U2
70
0
10
0
20
0
30
0
3
_U2
0
MTEXT
5
171
100
AcDbEntity
8
SK2
62
256
6
ByLayer
370
18
48
1
60
0
100
AcDbMText
10
-21.790771
20
-37.524934
30
0
210
0
220
0
230
1
1
\W0.7361;40
40
3
41
0
44
1.084337
50
0
71
7
72
5
7
iso_b_vert
0
LINE
5
172
100
AcDbEntity
8
SK2
62
256
6
ByLayer
370
13
48
1
60
0
100
AcDbLine
10
-40
20
-6.5875
30
0
11
-40
21
-40.410048
31
0
39
0
210
0
220
0
230
1
0
LINE
5
173
100
AcDbEntity
8
SK2
62
256
6
ByLayer
370
13
48
1
60
0
100
AcDbLine
10
0
20
-6.5875
30
0
11
0
21
-40.410048
31
0
39
0
210
0
220
0
230
1
0
LINE
5
174
100
AcDbEntity
8
SK2
62
256
6
ByLayer
370
13
48
1
60
0
100
AcDbLine
10
-40
20
-38.410048
30
0
11
0
21
-38.410048
31
0
39
0
210
0
220
0
230
1
0
SOLID
5
175
100
AcDbEntity
8
SK2
62
256
6
ByLayer
370
18
48
1
60
0
100
AcDbTrace
10
-40
20
-38.410048
30
0
11
-36.500002
21
-37.949264
31
0
12
-36.499998
22
-38.870832
32
0
13
-36.499998
23
-38.870832
33
0
39
0
210
0
220
0
230
1
0
SOLID
5
176
100
AcDbEntity
8
SK2
62
256
6
ByLayer
370
18
48
1
60
0
100
AcDbTrace
10
0
20
-38.410048
30
0
11
-3.499998
21
-38.870832
31
0
12
-3.500002
22
-37.949264
32
0
13
-3.500002
23
-37.949264
33
0
39
0
210
0
220
0
230
1
0
ENDBLK
5
178
100
AcDbEntity
8
0
100
AcDbBlockEnd
0
BLOCK
5
17D
100
AcDbEntity
8
0
100
AcDbBlockBegin
2
*D7
70
1
10
0
20
0
30
0
3
*D7
0
LINE
5
17F
100
AcDbEntity
8
0
62
256
6
ByLayer
370
-2
48
1
60
0
100
AcDbLine
10
-40
20
-6.5875
30
0
11
-40
21
-48.410048
31
0
39
0
210
0
220
0
230
1
0
LINE
5
180
100
AcDbEntity
8
0
62
256
6
ByLayer
370
-2
48
1
60
0
100
AcDbLine
10
49
20
-5.9375
30
0
11
49
21
-48.410048
31
0
39
0
210
0
220
0
230
1
0
LINE
5
181
100
AcDbEntity
8
0
62
256
6
ByLayer
370
-2
48
1
60
0
100
AcDbLine
10
-36.5
20
-46.410048
30
0
11
45.5
21
-46.410048
31
0
39
0
210
0
220
0
230
1
0
SOLID
5
182
100
AcDbEntity
8
0
62
256
6
ByLayer
370
-1
48
1
60
0
100
AcDbTrace
10
-36.5
20
-45.826715
30
0
11
-36.5
21
-46.993381
31
0
12
-40
22
-46.410048
32
0
13
-40
23
-46.410048
33
0
39
0
210
0
220
0
230
1
0
SOLID
5
183
100
AcDbEntity
8
0
62
256
6
ByLayer
370
-1
48
1
60
0
100
AcDbTrace
10
45.5
20
-46.993381
30
0
11
45.5
21
-45.826715
31
0
12
49
22
-46.410048
32
0
13
49
23
-46.410048
33
0
39
0
210
0
220
0
230
1
0
MTEXT
5
184
100
AcDbEntity
8
0
62
256
6
ByLayer
370
18
48
1
60
0
100
AcDbMText
10
4.5
20
-40.410048
30
0
210
0
220
0
230
1
1
\A1;89
40
3
41
0
44
1
50
0
71
5
72
5
7
iso_b_vert
0
POINT
5
185
100
AcDbEntity
8
Defpoints
62
0
6
ByLayer
370
-1
48
1
60
0
100
AcDbPoint
10
-40
20
-5
30
0
39
0
210
0
220
0
230
1
50
360
0
POINT
5
186
100
AcDbEntity
8
Defpoints
62
0
6
ByLayer
370
-1
48
1
60
0
100
AcDbPoint
10
49
20
-4.35
30
0
39
0
210
0
220
0
230
1
50
360
0
POINT
5
187
100
AcDbEntity
8
Defpoints
62
0
6
ByLayer
370
-1
48
1
60
0
100
AcDbPoint
10
49
20
-46.410048
30
0
39
0
210
0
220
0
230
1
50
360
0
ENDBLK
5
17E
100
AcDbEntity
8
0
100
AcDbBlockEnd
0
BLOCK
5
18F
100
AcDbEntity
8
0
100
AcDbBlockBegin
2
_U3
70
0
10
0
20
0
30
0
3
_U3
0
MTEXT
5
189
100
AcDbEntity
8
SK2
62
256
6
ByLayer
370
18
48
1
60
0
100
AcDbMText
10
2.867172
20
-45.524934
30
0
210
0
220
0
230
1
1
\W0.6927;89
40
3
41
0
44
1.084337
50
0
71
7
72
5
7
iso_b_vert
0
LINE
5
18A
100
AcDbEntity
8
SK2
62
256
6
ByLayer
370
13
48
1
60
0
100
AcDbLine
10
-40
20
-6.5875
30
0
11
-40
21
-48.410048
31
0
39
0
210
0
220
0
230
1
0
LINE
5
18B
100
AcDbEntity
8
SK2
62
256
6
ByLayer
370
13
48
1
60
0
100
AcDbLine
10
49
20
-5.9375
30
0
11
49
21
-48.410048
31
0
39
0
210
0
220
0
230
1
0
LINE
5
18C
100
AcDbEntity
8
SK2
62
256
6
ByLayer
370
13
48
1
60
0
100
AcDbLine
10
-40
20
-46.410048
30
0
11
49
21
-46.410048
31
0
39
0
210
0
220
0
230
1
0
SOLID
5
18D
100
AcDbEntity
8
SK2
62
256
6
ByLayer
370
18
48
1
60
0
100
AcDbTrace
10
-40
20
-46.410048
30
0
11
-36.500002
21
-45.949264
31
0
12
-36.499998
22
-46.870832
32
0
13
-36.499998
23
-46.870832
33
0
39
0
210
0
220
0
230
1
0
SOLID
5
18E
100
AcDbEntity
8
SK2
62
256
6
ByLayer
370
18
48
1
60
0
100
AcDbTrace
10
49
20
-46.410048
30
0
11
45.500002
21
-46.870832
31
0
12
45.499998
22
-45.949264
32
0
13
45.499998
23
-45.949264
33
0
39
0
210
0
220
0
230
1
0
ENDBLK
5
190
100
AcDbEntity
8
0
100
AcDbBlockEnd
0
BLOCK
5
195
100
AcDbEntity
8
0
100
AcDbBlockBegin
2
*D9
70
1
10
0
20
0
30
0
3
*D9
0
LINE
5
197
100
AcDbEntity
8
0
62
256
6
ByLayer
370
-2
48
1
60
0
100
AcDbLine
10
49
20
-5.9375
30
0
11
49
21
-40.410048
31
0
39
0
210
0
220
0
230
1
0
LINE
5
198
100
AcDbEntity
8
0
62
256
6
ByLayer
370
-2
48
1
60
0
100
AcDbLine
10
0
20
-5.9375
30
0
11
0
21
-40.410048
31
0
39
0
210
0
220
0
230
1
0
LINE
5
199
100
AcDbEntity
8
0
62
256
6
ByLayer
370
-2
48
1
60
0
100
AcDbLine
10
45.5
20
-38.410048
30
0
11
3.5
21
-38.410048
31
0
39
0
210
0
220
0
230
1
0
SOLID
5
19A
100
AcDbEntity
8
0
62
256
6
ByLayer
370
-1
48
1
60
0
100
AcDbTrace
10
45.5
20
-38.993381
30
0
11
45.5
21
-37.826715
31
0
12
49
22
-38.410048
32
0
13
49
23
-38.410048
33
0
39
0
210
0
220
0
230
1
0
SOLID
5
19B
100
AcDbEntity
8
0
62
256
6
ByLayer
370
-1
48
1
60
0
100
AcDbTrace
10
3.5
20
-37.826715
30
0
11
3.5
21
-38.993381
31
0
12
0
22
-38.410048
32
0
13
0
23
-38.410048
33
0
39
0
210
0
220
0
230
1
0
MTEXT
5
19C
100
AcDbEntity
8
0
62
256
6
ByLayer
370
18
48
1
60
0
100
AcDbMText
10
24.5
20
-32.410048
30
0
210
0
220
0
230
1
1
\A1;49
40
3
41
0
44
1
50
0
71
5
72
5
7
iso_b_vert
0
POINT
5
19D
100
AcDbEntity
8
Defpoints
62
0
6
ByLayer
370
-1
48
1
60
0
100
AcDbPoint
10
49
20
-4.35
30
0
39
0
210
0
220
0
230
1
50
360
0
POINT
5
19E
100
AcDbEntity
8
Defpoints
62
0
6
ByLayer
370
-1
48
1
60
0
100
AcDbPoint
10
0
20
-4.35
30
0
39
0
210
0
220
0
230
1
50
360
0
POINT
5
19F
100
AcDbEntity
8
Defpoints
62
0
6
ByLayer
370
-1
48
1
60
0
100
AcDbPoint
10
0
20
-38.410048
30
0
39
0
210
0
220
0
230
1
50
360
0
ENDBLK
5
196
100
AcDbEntity
8
0
100
AcDbBlockEnd
0
BLOCK
5
1A7
100
AcDbEntity
8
0
100
AcDbBlockBegin
2
_U4
70
0
10
0
20
0
30
0
3
_U4
0
MTEXT
5
1A1
100
AcDbEntity
8
2
62
256
6
ByLayer
370
18
48
1
60
0
100
AcDbMText
10
22.709229
20
-37.524934
30
0
210
0
220
0
230
1
1
\W0.7565;49
40
3
41
0
44
1.084337
50
0
71
7
72
5
7
iso_b_vert
0
LINE
5
1A2
100
AcDbEntity
8
2
62
256
6
ByLayer
370
13
48
1
60
0
100
AcDbLine
10
49
20
-5.9375
30
0
11
49
21
-40.410048
31
0
39
0
210
0
220
0
230
1
0
LINE
5
1A3
100
AcDbEntity
8
2
62
256
6
ByLayer
370
13
48
1
60
0
100
AcDbLine
10
0
20
-5.9375
30
0
11
0
21
-40.410048
31
0
39
0
210
0
220
0
230
1
0
LINE
5
1A4
100
AcDbEntity
8
2
62
256
6
ByLayer
370
13
48
1
60
0
100
AcDbLine
10
49
20
-38.410048
30
0
11
0
21
-38.410048
31
0
39
0
210
0
220
0
230
1
0
SOLID
5
1A5
100
AcDbEntity
8
2
62
256
6
ByLayer
370
18
48
1
60
0
100
AcDbTrace
10
49
20
-38.410048
30
0
11
45.500002
21
-38.870832
31
0
12
45.499998
22
-37.949264
32
0
13
45.499998
23
-37.949264
33
0
39
0
210
0
220
0
230
1
0
SOLID
5
1A6
100
AcDbEntity
8
2
62
256
6
ByLayer
370
18
48
1
60
0
100
AcDbTrace
10
0
20
-38.410048
30
0
11
3.499998
21
-37.949264
31
0
12
3.500002
22
-38.870832
32
0
13
3.500002
23
-38.870832
33
0
39
0
210
0
220
0
230
1
0
ENDBLK
5
1A8
100
AcDbEntity
8
0
100
AcDbBlockEnd
0
ENDSEC
0
SECTION
2
ENTITIES
0
ARC
5
BF
100
AcDbEntity
8
1
62
256
6
ByLayer
370
18
48
1
60
0
100
AcDbCircle
39
0
10
1.344692
20
-5.067066
30
0
40
0.800000000000001
210
0
220
0
230
1
100
AcDbArc
50
89.896868
51
147.185809
0
ARC
5
C0
100
AcDbEntity
8
1
62
256
6
ByLayer
370
18
48
1
60
0
100
AcDbCircle
39
0
10
1.344692
20
5.067066
30
0
40
0.800000000000001
210
0
220
0
230
1
100
AcDbArc
50
212.814191
51
270.103132
0
ARC
5
C1
100
AcDbEntity
8
1
62
256
6
ByLayer
370
18
48
1
60
0
100
AcDbCircle
39
0
10
0
20
-4.2
30
0
40
0.8
210
0
220
0
230
1
100
AcDbArc
50
270
51
327.185809
0
ARC
5
C2
100
AcDbEntity
8
1
62
256
6
ByLayer
370
18
48
1
60
0
100
AcDbCircle
39
0
10
0
20
4.2
30
0
40
0.8
210
0
220
0
230
1
100
AcDbArc
50
32.814191
51
90
0
ARC
5
C3
100
AcDbEntity
8
SK2
62
256
6
ByLayer
370
13
48
1
60
0
100
AcDbCircle
39
0
10
49
20
0
30
0
40
20.2382595293338
210
0
220
0
230
1
100
AcDbArc
50
8.524603
51
70.003146
0
ARC
5
C4
100
AcDbEntity
8
SK2
62
256
6
ByLayer
370
13
48
1
60
0
100
AcDbCircle
39
0
10
49
20
0
30
0
40
20.2382595293338
210
0
220
0
230
1
100
AcDbArc
50
289.996854
51
351.475397
0
ELLIPSE
5
C5
100
AcDbEntity
8
1
62
256
6
ByLayer
370
13
48
1
60
0
100
AcDbEllipse
10
21.499967
20
-4.14418
30
0
11
0.000183729592396002
21
-0.00999831202938166
31
0
210
0
220
0
230
1
40
0.431509
41
3.09312285908515
42
-1.62018859601001
0
ELLIPSE
5
C6
100
AcDbEntity
8
1
62
256
6
ByLayer
370
18
48
1
60
0
100
AcDbEllipse
10
21.499737
20
-4.237576
30
0
11
0.1
21
0
31
0
210
0
220
0
230
1
40
0.999866
41
1.57445089174852
42
3.06003466032399
0
POINT
5
70
100
AcDbEntity
8
80
62
256
6
ByLayer
370
18
48
1
60
0
100
AcDbPoint
10
0
20
0
30
0
39
0
210
0
220
0
230
1
50
360
0
POINT
5
72
100
AcDbEntity
8
81
62
256
6
ByLayer
370
18
48
1
60
0
100
AcDbPoint
10
49
20
0
30
0
39
0
210
0
220
0
230
1
50
360
0
POINT
5
74
100
AcDbEntity
8
1
62
256
6
ByLayer
370
18
48
1
60
0
100
AcDbPoint
10
-213.55587
20
-200
30
0
39
0
210
0
220
0
230
1
50
360
0
POINT
5
76
100
AcDbEntity
8
1
62
256
6
ByLayer
370
13
48
1
60
1
100
AcDbPoint
10
-41.5
20
0
30
0
39
0
210
0
220
0
230
1
50
360
0
POINT
5
77
100
AcDbEntity
8
1
62
256
6
ByLayer
370
13
48
1
60
1
100
AcDbPoint
10
48.909333
20
0
30
0
39
0
210
0
220
0
230
1
50
360
0
POINT
5
78
100
AcDbEntity
8
1
62
256
6
ByLayer
370
18
48
1
60
1
100
AcDbPoint
10
49
20
-4.35
30
0
39
0
210
0
220
0
230
1
50
360
0
POINT
5
79
100
AcDbEntity
8
1
62
256
6
ByLayer
370
18
48
1
60
1
100
AcDbPoint
10
21.4
20
-4.35
30
0
39
0
210
0
220
0
230
1
50
360
0
POINT
5
7A
100
AcDbEntity
8
1
62
256
6
ByLayer
370
18
48
1
60
1
100
AcDbPoint
10
49
20
-4.35
30
0
39
0
210
0
220
0
230
1
50
360
0
POINT
5
7B
100
AcDbEntity
8
1
62
256
6
ByLayer
370
18
48
1
60
1
100
AcDbPoint
10
2
20
-4.35
30
0
39
0
210
0
220
0
230
1
50
360
0
POINT
5
7C
100
AcDbEntity
8
1
62
256
6
ByLayer
370
18
48
1
60
1
100
AcDbPoint
10
-40
20
-5
30
0
39
0
210
0
220
0
230
1
50
360
0
POINT
5
7D
100
AcDbEntity
8
1
62
256
6
ByLayer
370
18
48
1
60
1
100
AcDbPoint
10
0
20
-5
30
0
39
0
210
0
220
0
230
1
50
360
0
POINT
5
7E
100
AcDbEntity
8
1
62
256
6
ByLayer
370
18
48
1
60
1
100
AcDbPoint
10
-40
20
-5
30
0
39
0
210
0
220
0
230
1
50
360
0
POINT
5
7F
100
AcDbEntity
8
1
62
256
6
ByLayer
370
18
48
1
60
1
100
AcDbPoint
10
49
20
-4.35
30
0
39
0
210
0
220
0
230
1
50
360
0
POINT
5
80
100
AcDbEntity
8
1
62
256
6
ByLayer
370
18
48
1
60
1
100
AcDbPoint
10
49
20
-4.35
30
0
39
0
210
0
220
0
230
1
50
360
0
POINT
5
81
100
AcDbEntity
8
1
62
256
6
ByLayer
370
18
48
1
60
1
100
AcDbPoint
10
0
20
-4.35
30
0
39
0
210
0
220
0
230
1
50
360
0
SPLINE
5
C7
100
AcDbEntity
8
1
62
256
6
ByLayer
370
18
48
1
60
0
100
AcDbSpline
70
4
71
3
72
14
73
10
40
0
40
0
40
0
40
0
40
0.430469841183069
40
0.430469841183069
40
0.645704761774516
40
0.645704761774516
40
0.860939682365963
40
0.860939682365963
40
1
40
1
40
1
40
1
41
1
10
21.4564789746944
20
-4.1534332244577
30
0
41
1
10
21.4466318535989
20
-4.15786803314958
30
0
41
1
10
21.4382979117356
20
-4.16341320218012
30
0
41
1
10
21.4274852721022
20
-4.17296051341668
30
0
41
1
10
21.4242105323592
20
-4.17632514452077
30
0
41
1
10
21.4183568493186
20
-4.18323689311722
30
0
41
1
10
21.4157550669302
20
-4.18680486118893
30
0
41
1
10
21.4119562941227
20
-4.19284396099212
30
0
41
1
10
21.4105870005476
20
-4.1952623017514
30
0
41
1
10
21.4093402044856
20
-4.19771454821796
30
0
0
SPLINE
5
C8
100
AcDbEntity
8
1
62
256
6
ByLayer
370
18
48
1
60
0
100
AcDbSpline
70
4
71
3
72
12
73
8
40
0
40
0
40
0
40
0
40
0.287147199540986
40
0.287147199540986
40
0.643573599770493
40
0.643573599770493
40
1
40
1
40
1
40
1
41
1
10
21.4064311459782
20
-4.20402230449432
30
0
41
1
10
21.4051364195767
20
-4.20713919625686
30
0
41
1
10
21.4040331860413
20
-4.21029020421844
30
0
41
1
10
21.4019931157629
20
-4.21736765763575
30
0
41
1
10
21.4011499991581
20
-4.22131603125078
30
0
41
1
10
21.4000217797799
20
-4.22926827679655
30
0
41
1
10
21.3997374727289
20
-4.23330635580416
30
0
41
1
10
21.399737472729
20
-4.23728787667423
30
0
0
SPLINE
5
C9
100
AcDbEntity
8
1
62
256
6
ByLayer
370
18
48
1
60
0
100
AcDbSpline
70
4
71
3
72
22
73
18
40
0
40
0
40
0
40
0
40
0.499999999999995
40
0.499999999999995
40
0.749999999999993
40
0.749999999999993
40
0.874999999999992
40
0.874999999999992
40
0.937499999999991
40
0.937499999999991
40
0.968749999999995
40
0.968749999999995
40
0.984374999999958
40
0.984374999999958
40
0.992187499999979
40
0.992187499999979
40
1
40
1
40
1
40
1
41
1
10
47.3469495429734
20
4.34983750859124
30
0
41
1
10
47.365730069888
20
4.31933252795778
30
0
41
1
10
47.3845134873066
20
4.28871358500729
30
0
41
1
10
47.4126871746936
20
4.24262622350653
30
0
41
1
10
47.4220771099303
20
4.22723939344087
30
0
41
1
10
47.4361803277706
20
4.20407999928091
30
0
41
1
10
47.4408877087501
20
4.19634024723203
30
0
41
1
10
47.4479292760747
20
4.1847615500337
30
0
41
1
10
47.4502679974579
20
4.18091801200302
30
0
41
1
10
47.4537891533572
20
4.17512274564592
30
0
41
1
10
47.4549662608847
20
4.17318348513953
30
0
41
1
10
47.4567420690991
20
4.17025259632732
30
0
41
1
10
47.4573358387397
20
4.16927168718513
30
0
41
1
10
47.4582343898203
20
4.16778331253681
30
0
41
1
10
47.4585364335363
20
4.16728184623369
30
0
41
1
10
47.4591267425848
20
4.16630800205795
30
0
41
1
10
47.4594262488727
20
4.16581488497701
30
0
41
1
10
47.4596568516419
20
4.16545486711917
30
0
0
SPLINE
5
CA
100
AcDbEntity
8
1
62
256
6
ByLayer
370
18
48
1
60
0
100
AcDbSpline
70
4
71
3
72
8
73
4
40
0
40
0
40
0
40
0
40
1
40
1
40
1
40
1
41
1
10
48.5216013730632
20
1.50238662404084
30
0
41
1
10
48.6447891170494
20
1.15691304083262
30
0
41
1
10
48.7668675903759
20
0.811051201631557
30
0
41
1
10
48.8878126566939
20
0.464792658470486
30
0
0
SPLINE
5
CB
100
AcDbEntity
8
1
62
256
6
ByLayer
370
18
48
1
60
0
100
AcDbSpline
70
4
71
3
72
10
73
6
40
0
40
0
40
0
40
0
40
0.5
40
0.5
40
1
40
1
40
1
40
1
41
1
10
21.4956489847476
20
-4.14376566830265
30
0
41
1
10
21.4888871047148
20
-4.1438970819915
30
0
41
1
10
21.4822370978354
20
-4.14477441167037
30
0
41
1
10
21.4691588014089
20
-4.14798119975703
30
0
41
1
10
21.4626850236413
20
-4.15033604221711
30
0
41
1
10
21.4564789746944
20
-4.1534332244577
30
0
0
SPLINE
5
CC
100
AcDbEntity
8
1
62
256
6
ByLayer
370
13
48
1
60
0
100
AcDbSpline
70
4
71
3
72
8
73
4
40
0
40
0
40
0
40
0
40
1
40
1
40
1
40
1
41
1
10
21.4552310261452
20
-4.29963032464229
30
0
41
1
10
21.4556427931621
20
-4.25089773479323
30
0
41
1
10
21.4560587783172
20
-4.20216536446441
30
0
41
1
10
21.4564789746944
20
-4.1534332244577
30
0
0
SPLINE
5
CD
100
AcDbEntity
8
1
62
256
6
ByLayer
370
18
48
1
60
0
100
AcDbSpline
70
4
71
3
72
8
73
4
40
0
40
0
40
0
40
0
40
1
40
1
40
1
40
1
41
1
10
21.6390551136368
20
-4.14040030274623
30
0
41
1
10
21.591269536739
20
-4.14171429598923
30
0
41
1
10
21.5434678818687
20
-4.14283633243195
30
0
41
1
10
21.4956489847476
20
-4.14376566830265
30
0
0
SPLINE
5
CE
100
AcDbEntity
8
1
62
256
6
ByLayer
370
18
48
1
60
0
100
AcDbSpline
70
4
71
3
72
8
73
4
40
0
40
0
40
0
40
0
40
1
40
1
40
1
40
1
41
1
10
48.887812656694
20
0.464792658470515
30
0
41
1
10
48.9239605062234
20
0.361303511723889
30
0
41
1
10
48.9609483178229
20
0.258286206555738
30
0
41
1
10
48.9987762766165
20
0.155721897086181
30
0
0
SPLINE
5
CF
100
AcDbEntity
8
1
62
256
6
ByLayer
370
18
48
1
60
0
100
AcDbSpline
70
4
71
3
72
8
73
4
40
0
40
0
40
0
40
0
40
1
40
1
40
1
40
1
41
1
10
21.4999926794925
20
-4.13418971157614
30
0
41
1
10
21.5115391916627
20
-4.1339781197812
30
0
41
1
10
21.5230847014288
20
-4.13375531240987
30
0
41
1
10
21.5346292251728
20
-4.1335212998934
30
0
0
SPLINE
5
D0
100
AcDbEntity
8
1
62
256
6
ByLayer
370
18
48
1
60
0
100
AcDbSpline
70
4
71
3
72
12
73
8
40
0
40
0
40
0
40
0
40
0.150196521919891
40
0.150196521919891
40
0.575098260959945
40
0.575098260959945
40
1
40
1
40
1
40
1
41
1
10
21.4044306433338
20
-4.20640171072898
30
0
41
1
10
21.4039571860315
20
-4.20792494549096
30
0
41
1
10
21.4035207648566
20
-4.20945220237999
30
0
41
1
10
21.4019920114711
20
-4.21530566268217
30
0
41
1
10
21.4011492534562
20
-4.21966235634019
30
0
41
1
10
21.4000215858022
20
-4.22843754201975
30
0
41
1
10
21.3997374727289
20
-4.2328938117133
30
0
41
1
10
21.3997374727289
20
-4.23728787667423
30
0
0
SPLINE
5
D1
100
AcDbEntity
8
1
62
256
6
ByLayer
370
13
48
1
60
0
100
AcDbSpline
70
4
71
3
72
43
73
39
40
0
40
0
40
0
40
0
40
0.0673501984554298
40
0.0673501984554298
40
0.101025297683145
40
0.101025297683145
40
0.134700396910859
40
0.134700396910859
40
0.202050595366289
40
0.202050595366289
40
0.235725694594004
40
0.235725694594004
40
0.269400793821719
40
0.269400793821719
40
0.336750992277149
40
0.404101190732578
40
0.471451389188008
40
0.471451389188008
40
0.505126488415722
40
0.505126488415722
40
0.538801587643437
40
0.538801587643437
40
0.572476686871152
40
0.572476686871152
40
0.606151786098867
40
0.606151786098867
40
0.673501984554296
40
0.740852183009726
40
0.808202381465155
40
0.808202381465155
40
0.84187748069287
40
0.84187748069287
40
0.858715030306728
40
0.858715030306728
40
0.875552579920585
40
0.875552579920585
40
0.942902778376015
40
1
40
1
40
1
40
1
41
1
10
21.5005743299984
20
-0.906999524306258
30
0
41
1
10
21.5005679551364
20
-1.02501728132063
30
0
41
1
10
21.5005607887186
20
-1.1415730992079
30
0
41
1
10
21.5005489945979
20
-1.3142223238857
30
0
41
1
10
21.5005448833045
20
-1.37147808496425
30
0
41
1
10
21.5005363604479
20
-1.48486818701227
30
0
41
1
10
21.5005319511518
20
-1.54098072375621
30
0
41
1
10
21.5005183139409
20
-1.70758897275772
30
0
41
1
10
21.500508678244
20
-1.81635857141686
30
0
41
1
10
21.5004935157103
20
-1.97607186685667
30
0
41
1
10
21.5004883429728
20
-2.02873529983984
30
0
41
1
10
21.5004777737068
20
-2.1329057585817
30
0
41
1
10
21.5004723728102
20
-2.18445310820516
30
0
41
1
10
21.5004558777818
20
-2.3370823969052
30
0
41
1
10
21.5004333098947
20
-2.53338728826228
30
0
41
1
10
21.5003980237358
20
-2.80692303573031
30
0
41
1
10
21.5003736410496
20
-2.97545765236561
30
0
41
1
10
21.5003550358538
20
-3.0966056261901
30
0
41
1
10
21.5003487807539
20
-3.13611155781862
30
0
41
1
10
21.5003361602109
20
-3.2133429714348
30
0
41
1
10
21.500329784889
20
-3.25112408464602
30
0
41
1
10
21.5003169732712
20
-3.32455104192996
30
0
41
1
10
21.5003105390121
20
-3.36018996850987
30
0
41
1
10
21.5002976071704
20
-3.42932036655893
30
0
41
1
10
21.5002911003346
20
-3.46285562355746
30
0
41
1
10
21.5002715768894
20
-3.55971328057183
30
0
41
1
10
21.5002455001587
20
-3.67911710947482
30
0
41
1
10
21.5002059805342
20
-3.829802688927
30
0
41
1
10
21.5001791266735
20
-3.91140892530754
30
0
41
1
10
21.5001586820168
20
-3.9654205105239
30
0
41
1
10
21.5001518161197
20
-3.98222381248917
30
0
41
1
10
21.500141423673
20
-4.00559633400223
30
0
41
1
10
21.5001379398595
20
-4.01308970227916
30
0
41
1
10
21.5001309616386
20
-4.02741089916046
30
0
41
1
10
21.5001274675117
20
-4.03423918317117
30
0
41
1
10
21.5001099649978
20
-4.06673288987929
30
0
41
1
10
21.5000839050157
20
-4.10504049115457
30
0
41
1
10
21.5000571886522
20
-4.12571595669877
30
0
41
1
10
21.5000447325033
20
-4.13147844059446
30
0
0
SPLINE
5
D2
100
AcDbEntity
8
1
62
256
6
ByLayer
370
18
48
1
60
0
100
AcDbSpline
70
4
71
3
72
33
73
29
40
0
40
0
40
0
40
0
40
0.0253407266212272
40
0.0253407266212272
40
0.164577765675265
40
0.164577765675265
40
0.234196285202273
40
0.234196285202273
40
0.269005544965788
40
0.269005544965788
40
0.303814804729303
40
0.443051843783409
40
0.443051843783409
40
0.512670363310462
40
0.512670363310462
40
0.547479623074003
40
0.547479623074003
40
0.582288882837544
40
0.582288882837544
40
0.721525921891707
40
0.721525921891707
40
0.791144441418789
40
0.791144441418789
40
0.82595370118233
40
0.82595370118233
40
0.86076296094587
40
0.86076296094587
40
1
40
1
40
1
40
1
41
1
10
47.0066632104395
20
0.932400349405725
30
0
41
1
10
47.0113141095705
20
0.936881964343797
30
0
41
1
10
47.0160461451283
20
0.941414724380962
30
0
41
1
10
47.0473094478942
20
0.971173613293502
30
0
41
1
10
47.076221391148
20
0.997828593839529
30
0
41
1
10
47.1233286195018
20
1.0399785156346
30
0
41
1
10
47.1396906658348
20
1.05435536302585
30
0
41
1
10
47.1653876225906
20
1.07627318037808
30
0
41
1
10
47.1741542911274
20
1.08364637298075
30
0
41
1
10
47.1919271845893
20
1.09835828662634
30
0
41
1
10
47.2370513658939
20
1.13513362910913
30
0
41
1
10
47.2857594319019
20
1.17160165166138
30
0
41
1
10
47.3482567286632
20
1.21404166215001
30
0
41
1
10
47.3697618084847
20
1.22797278533181
30
0
41
1
10
47.403121385013
20
1.24841219593509
30
0
41
1
10
47.4144251718931
20
1.25514886895357
30
0
41
1
10
47.4374194518599
20
1.26844369078597
30
0
41
1
10
47.4491332874515
20
1.27501368797468
30
0
41
1
10
47.5080743773853
20
1.30700363313045
30
0
41
1
10
47.5568362985733
20
1.3300844724464
30
0
41
1
10
47.6326514692443
20
1.3599967665061
30
0
41
1
10
47.658368765022
20
1.36918292584167
30
0
41
1
10
47.6976379258766
20
1.38169058167895
30
0
41
1
10
47.7108426918213
20
1.38564909256121
30
0
41
1
10
47.7374837425384
20
1.39313595420762
30
0
41
1
10
47.750947399287
20
1.39667056307971
30
0
41
1
10
47.8184073588146
20
1.41314144490778
30
0
41
1
10
47.872910997704
20
1.42252650186811
30
0
41
1
10
47.9279585724599
20
1.42827654146077
30
0
0
SPLINE
5
D3
100
AcDbEntity
8
1
62
256
6
ByLayer
370
18
48
1
60
0
100
AcDbSpline
70
4
71
3
72
10
73
6
40
0
40
0
40
0
40
0
40
0.5
40
0.5
40
1
40
1
40
1
40
1
41
1
10
47.9279585724598
20
1.4282765414608
30
0
41
1
10
48.0271797231269
20
1.43864076817371
30
0
41
1
10
48.1262814305085
20
1.44985074344058
30
0
41
1
10
48.3241922209834
20
1.47434269465225
30
0
41
1
10
48.4230087000864
20
1.48757230127049
30
0
41
1
10
48.5216013730674
20
1.50238662404232
30
0
0
SPLINE
5
D4
100
AcDbEntity
8
1
62
256
6
ByLayer
370
18
48
1
60
0
100
AcDbSpline
70
4
71
3
72
28
73
24
40
0
40
0
40
0
40
0
40
0.124999999999995
40
0.124999999999995
40
0.24999999999999
40
0.24999999999999
40
0.49999999999998
40
0.49999999999998
40
0.531249999999983
40
0.531249999999983
40
0.562499999999986
40
0.562499999999986
40
0.624999999999987
40
0.624999999999987
40
0.687499999999988
40
0.687499999999988
40
0.718749999999992
40
0.718749999999992
40
0.749999999999995
40
0.749999999999995
40
0.874999999999998
40
0.874999999999998
40
1
40
1
40
1
40
1
41
1
10
47.5668894359367
20
3.97932176293548
30
0
41
1
10
47.6030642952121
20
3.87407726234875
30
0
41
1
10
47.639383340181
20
3.76860477487304
30
0
41
1
10
47.7124140346642
20
3.55727754924746
30
0
41
1
10
47.7491248098507
20
3.451428370016
30
0
41
1
10
47.8598015611955
20
3.1337976344058
30
0
41
1
10
47.9344090318201
20
2.92167961541236
30
0
41
1
10
48.0190801703578
20
2.68365456282933
30
0
41
1
10
48.0285040001839
20
2.65721744066329
30
0
41
1
10
48.0475319728743
20
2.60444911379491
30
0
41
1
10
48.0571180770797
20
2.57810728268819
30
0
41
1
10
48.0861135417738
20
2.4992183352106
30
0
41
1
10
48.1057572385107
20
2.44680613113374
30
0
41
1
10
48.1457556648196
20
2.34237770700068
30
0
41
1
10
48.1661088449436
20
2.29036059866382
30
0
41
1
10
48.1972344125822
20
2.21265771682641
30
0
41
1
10
48.2077090765907
20
2.18681065061901
30
0
41
1
10
48.2288693118054
20
2.13522944592262
30
0
41
1
10
48.2395705822412
20
2.10945938343704
30
0
41
1
10
48.2933548693713
20
1.98155074443571
30
0
41
1
10
48.337362475354
20
1.88194749010995
30
0
41
1
10
48.4276726864947
20
1.68809941695881
30
0
41
1
10
48.4739817318265
20
1.59387920400491
30
0
41
1
10
48.5216013730635
20
1.50238662404053
30
0
0
SPLINE
5
D5
100
AcDbEntity
8
1
62
256
6
ByLayer
370
18
48
1
60
0
100
AcDbSpline
70
4
71
3
72
8
73
4
40
0
40
0
40
0
40
0
40
1
40
1
40
1
40
1
41
1
10
47.4596568516723
20
4.16545486704845
30
0
41
1
10
47.4953854236476
20
4.10341676362887
30
0
41
1
10
47.531129876142
20
4.04137178366256
30
0
41
1
10
47.5668894359371
20
3.97932176293551
30
0
0
SPLINE
5
D6
100
AcDbEntity
8
1
62
256
6
ByLayer
370
18
48
1
60
0
100
AcDbSpline
70
4
71
3
72
26
73
22
40
0
40
0
40
0
40
0
40
0.127040580426265
40
0.127040580426265
40
0.25408116085253
40
0.25408116085253
40
0.381121741278794
40
0.381121741278794
40
0.444642031491929
40
0.444642031491929
40
0.508162321705064
40
0.508162321705064
40
0.635202902131334
40
0.635202902131334
40
0.698723192344472
40
0.698723192344472
40
0.76224348255761
40
0.76224348255761
40
0.88928406298388
40
0.88928406298388
40
1
40
1
40
1
40
1
41
1
10
47.4596568517548
20
4.16545486727512
30
0
41
1
10
47.1880294411051
20
4.16848745686855
30
0
41
1
10
46.9159428920164
20
4.16533116828114
30
0
41
1
10
46.3726985235556
20
4.14690578059208
30
0
41
1
10
46.1013598274792
20
4.13163224174005
30
0
41
1
10
45.558648407589
20
4.08885173329631
30
0
41
1
10
45.2873194776062
20
4.06141378737453
30
0
41
1
10
44.8800507560599
20
4.01121876877491
30
0
41
1
10
44.744254939733
20
3.99298925597307
30
0
41
1
10
44.4725227944956
20
3.95358252496055
30
0
41
1
10
44.3365593621635
20
3.93240862668006
30
0
41
1
10
43.9286566759245
20
3.86449151445643
30
0
41
1
10
43.6567075277969
20
3.81340210268024
30
0
41
1
10
43.2488745348889
20
3.72850901235211
30
0
41
1
10
43.1129298013301
20
3.69883221383159
30
0
41
1
10
42.8410016208213
20
3.63679575328967
30
0
41
1
10
42.705093929413
20
3.60445136856612
30
0
41
1
10
42.2977766697087
20
3.50359746162698
30
0
41
1
10
42.0266006064777
20
3.43116491732121
30
0
41
1
10
41.519444305042
20
3.28652964177832
30
0
41
1
10
41.2834100402797
20
3.21547933610421
30
0
41
1
10
41.0473949531339
20
3.1408983296873
30
0
0
SPLINE
5
D7
100
AcDbEntity
8
1
62
256
6
ByLayer
370
18
48
1
60
0
100
AcDbSpline
70
4
71
3
72
12
73
8
40
0
40
0
40
0
40
0
40
0.432993837541857
40
0.432993837541857
40
0.865987675083713
40
0.865987675083713
40
1
40
1
40
1
40
1
41
1
10
48.0646281046063
20
0.597240679837228
30
0
41
1
10
48.0425539129356
20
0.605232379134435
30
0
41
1
10
48.020575092119
20
0.612899249101986
30
0
41
1
10
47.976792696171
20
0.62763610921516
30
0
41
1
10
47.9549953308055
20
0.634684949145225
30
0
41
1
10
47.9264270219926
20
0.643999278529407
30
0
41
1
10
47.9196747615391
20
0.646201134450166
30
0
41
1
10
47.9129257022075
20
0.648392087477248
30
0
0
SPLINE
5
D8
100
AcDbEntity
8
1
62
256
6
ByLayer
370
18
48
1
60
0
100
AcDbSpline
70
4
71
3
72
8
73
4
40
0
40
0
40
0
40
0
40
1
40
1
40
1
40
1
41
1
10
47.4596568515404
20
-4.16545486727753
30
0
41
1
10
47.4953854235596
20
-4.10341676378155
30
0
41
1
10
47.5311298760981
20
-4.04137178373881
30
0
41
1
10
47.5668894359372
20
-3.97932176293534
30
0
0
SPLINE
5
D9
100
AcDbEntity
8
1
62
256
6
ByLayer
370
18
48
1
60
0
100
AcDbSpline
70
4
71
3
72
8
73
4
40
0
40
0
40
0
40
0
40
1
40
1
40
1
40
1
41
1
10
21.3997374727289
20
4.24437181891835
30
0
41
1
10
21.3997374727289
20
4.20196972644334
30
0
41
1
10
21.3997374727289
20
4.15924931351566
30
0
41
1
10
21.3997374727289
20
4.11621474229602
30
0
0
SPLINE
5
DA
100
AcDbEntity
8
1
62
256
6
ByLayer
370
18
48
1
60
0
100
AcDbSpline
70
2053
71
3
72
110
73
106
40
0
40
0
40
0
40
0
40
0.0312500000000002
40
0.0312500000000002
40
0.0625000000000005
40
0.0625000000000005
40
0.0937500000000007
40
0.0937500000000007
40
0.125000000000001
40
0.125000000000001
40
0.156250000000001
40
0.156250000000001
40
0.187500000000001
40
0.187500000000001
40
0.218750000000002
40
0.218750000000002
40
0.234375000000002
40
0.234375000000002
40
0.242187500000002
40
0.242187500000002
40
0.250000000000002
40
0.250000000000002
40
0.281250000000003
40
0.281250000000003
40
0.296875000000003
40
0.296875000000003
40
0.304687500000002
40
0.304687500000002
40
0.312500000000002
40
0.312500000000002
40
0.343750000000002
40
0.343750000000002
40
0.351562500000002
40
0.351562500000002
40
0.359375000000002
40
0.375000000000003
40
0.390625000000004
40
0.390625000000004
40
0.406250000000005
40
0.406250000000005
40
0.437500000000003
40
0.437500000000003
40
0.468750000000002
40
0.468750000000002
40
0.484375000000002
40
0.484375000000002
40
0.500000000000003
40
0.500000000000003
40
0.531250000000005
40
0.531250000000005
40
0.539062500000003
40
0.539062500000003
40
0.546875
40
0.546875
40
0.562499999999996
40
0.562499999999996
40
0.593749999999991
40
0.593749999999991
40
0.601562499999989
40
0.601562499999989
40
0.609374999999988
40
0.609374999999988
40
0.624999999999985
40
0.624999999999985
40
0.656249999999979
40
0.656249999999979
40
0.671874999999978
40
0.671874999999978
40
0.687499999999976
40
0.687499999999976
40
0.718749999999971
40
0.718749999999971
40
0.734374999999969
40
0.734374999999969
40
0.749999999999967
40
0.749999999999967
40
0.781249999999963
40
0.781249999999963
40
0.789062499999962
40
0.789062499999962
40
0.796874999999962
40
0.812499999999961
40
0.82812499999996
40
0.82812499999996
40
0.835937499999959
40
0.835937499999959
40
0.843749999999959
40
0.843749999999959
40
0.87499999999996
40
0.87499999999996
40
0.882812499999961
40
0.882812499999961
40
0.890624999999963
40
0.906249999999968
40
0.921874999999974
40
0.921874999999974
40
0.93749999999998
40
0.93749999999998
40
0.968749999999992
40
0.968749999999992
40
0.984374999999998
40
0.984374999999998
40
0.992187499999999
40
0.992187499999999
40
1
40
1
40
1
40
1
41
1
10
47.8661624113686
20
-1.95135202658003
30
0
41
1
10
47.8503527259028
20
-1.97242037461262
30
0
41
1
10
47.8352245284157
20
-1.99001079629886
30
0
41
1
10
47.8061785105729
20
-2.01865111227014
30
0
41
1
10
47.7922615042549
20
-2.02969914538971
30
0
41
1
10
47.7655834511884
20
-2.04496635462471
30
0
41
1
10
47.7531899412659
20
-2.04897120686135
30
0
41
1
10
47.7301519625516
20
-2.04989401339745
30
0
41
1
10
47.719501592706
20
-2.04681797044771
30
0
41
1
10
47.699932536305
20
-2.03304415014065
30
0
41
1
10
47.6912964049479
20
-2.02253543171352
30
0
41
1
10
47.6762409404675
20
-1.99435418307564
30
0
41
1
10
47.6698104713496
20
-1.97668171772213
30
0
41
1
10
47.6592820236301
20
-1.93339742196369
30
0
41
1
10
47.6553640959166
20
-1.90850849281506
30
0
41
1
10
47.6515042845738
20
-1.86635298867861
30
0
41
1
10
47.6505555745873
20
-1.85148755258294
30
0
41
1
10
47.6496644388353
20
-1.8279090527559
30
0
41
1
10
47.6494562570941
20
-1.81983573790671
30
0
41
1
10
47.6492246487874
20
-1.80324567589875
30
0
41
1
10
47.6492018616976
20
-1.79470394843079
30
0
41
1
10
47.6495639985409
20
-1.75139264826663
30
0
41
1
10
47.6513465650362
20
-1.71454490646994
30
0
41
1
10
47.6563671023144
20
-1.65592511144689
30
0
41
1
10
47.6584351304519
20
-1.6358229716397
30
0
41
1
10
47.6621784085273
20
-1.60477672980016
30
0
41
1
10
47.663531909451
20
-1.59429691827324
30
0
41
1
10
47.6664187232029
20
-1.57333336313189
30
0
41
1
10
47.6679561647341
20
-1.56281434195998
30
0
41
1
10
47.6761140014386
20
-1.51003667067081
30
0
41
1
10
47.6841291631686
20
-1.46723614920722
30
0
41
1
10
47.696185386636
20
-1.41301179028804
30
0
41
1
10
47.6987007198696
20
-1.40212935468057
30
0
41
1
10
47.7038712138257
20
-1.38058802589083
30
0
41
1
10
47.7118619070316
20
-1.34849946253121
30
0
41
1
10
47.7263425254601
20
-1.29610923524206
30
0
41
1
10
47.7391801182757
20
-1.25534442931885
30
0
41
1
10
47.7526682799406
20
-1.21516280218253
30
0
41
1
10
47.7596379941285
20
-1.19566424331333
30
0
41
1
10
47.7811063873851
20
-1.13911817687983
30
0
41
1
10
47.7962176775038
20
-1.10384645429227
30
0
41
1
10
47.8279623589581
20
-1.03813504880446
30
0
41
1
10
47.8441350897901
20
-1.00863790752311
30
0
41
1
10
47.868811263603
20
-0.968903439396144
30
0
41
1
10
47.8771063094396
20
-0.956416923766739
30
0
41
1
10
47.8938314472309
20
-0.93293984399719
30
0
41
1
10
47.9022053797074
20
-0.922033086978786
30
0
41
1
10
47.92711780981
20
-0.891978959933056
30
0
41
1
10
47.9435488454793
20
-0.875335044443204
30
0
41
1
10
47.9638342258646
20
-0.858558792931234
30
0
41
1
10
47.9678784586798
20
-0.855406687917991
30
0
41
1
10
47.9759397346087
20
-0.849510210101727
30
0
41
1
10
47.9799604134891
20
-0.846764354767998
30
0
41
1
10
47.9918811894086
20
-0.839201664638466
30
0
41
1
10
47.9996722715072
20
-0.835033126087751
30
0
41
1
10
48.0225735371137
20
-0.825058601330312
30
0
41
1
10
48.0372163860885
20
-0.82176210478633
30
0
41
1
10
48.054658452397
20
-0.821876215090157
30
0
41
1
10
48.058103418737
20
-0.822112514681919
30
0
41
1
10
48.0649028451309
20
-0.823020416168788
30
0
41
1
10
48.0682612519189
20
-0.823694074384861
30
0
41
1
10
48.0781071882222
20
-0.826355980167961
30
0
41
1
10
48.0843943135915
20
-0.828985095879318
30
0
41
1
10
48.1024100354262
20
-0.839412531862536
30
0
41
1
10
48.1133012699805
20
-0.849725902958681
30
0
41
1
10
48.127762860219
20
-0.87057057131301
30
0
41
1
10
48.1322728916288
20
-0.878428743803369
30
0
41
1
10
48.1405857844822
20
-0.896056945299307
30
0
41
1
10
48.1443239733249
20
-0.905688049812028
30
0
41
1
10
48.1542674192721
20
-0.937034924492281
30
0
41
1
10
48.159214288754
20
-0.961176892072757
30
0
41
1
10
48.1638413409204
20
-1.00271331545082
30
0
41
1
10
48.1649156949351
20
-1.01746325226045
30
0
41
1
10
48.1660346850308
20
-1.0488803476288
30
0
41
1
10
48.1660678188162
20
-1.06521990178376
30
0
41
1
10
48.1646057904599
20
-1.11611997261585
30
0
41
1
10
48.1615646521745
20
-1.15253978008144
30
0
41
1
10
48.1550228533591
20
-1.20144024910402
30
0
41
1
10
48.1535706335957
20
-1.21142575615551
30
0
41
1
10
48.1504082783271
20
-1.23157828715918
30
0
41
1
10
48.1452940184684
20
-1.26198611599344
30
0
41
1
10
48.1349777477702
20
-1.31354304228293
30
0
41
1
10
48.1248795550491
20
-1.35571996368264
30
0
41
1
10
48.116617796199
20
-1.38771221361924
30
0
41
1
10
48.1137387572566
20
-1.3984722192933
30
0
41
1
10
48.1078159388005
20
-1.41987707465947
30
0
41
1
10
48.1047704486925
20
-1.43053157794506
30
0
41
1
10
48.0891421473648
20
-1.48357384541359
30
0
41
1
10
48.0753705857606
20
-1.52527861672706
30
0
41
1
10
48.0567317971896
20
-1.57656414154934
30
0
41
1
10
48.0529421633986
20
-1.58674924249203
30
0
41
1
10
48.0453068796784
20
-1.606815015081
30
0
41
1
10
48.0337421412088
20
-1.6365307984322
30
0
41
1
10
48.013945167888
20
-1.6842177226832
30
0
41
1
10
47.9975998187986
20
-1.72048913798199
30
0
41
1
10
47.9810138393456
20
-1.75583203754974
30
0
41
1
10
47.9727090512866
20
-1.77280704525862
30
0
41
1
10
47.9478438239743
20
-1.82162883297002
30
0
41
1
10
47.9313015975355
20
-1.85145990435919
30
0
41
1
10
47.9065551534158
20
-1.89229466190667
30
0
41
1
10
47.8983279348608
20
-1.90522631157964
30
0
41
1
10
47.8861646665353
20
-1.92339269498589
30
0
41
1
10
47.8821330260313
20
-1.9292541120625
30
0
41
1
10
47.8741144111811
20
-1.94059183710218
30
0
41
1
10
47.870114832735
20
-1.94608493957187
30
0
41
1
10
47.8661624113686
20
-1.95135202658003
30
0
0
SPLINE
5
DB
100
AcDbEntity
8
1
62
256
6
ByLayer
370
18
48
1
60
0
100
AcDbSpline
70
4
71
3
72
13
73
9
40
0
40
0
40
0
40
0
40
0.500000000000027
40
0.500000000000027
40
0.625000000000025
40
0.625000000000025
40
0.750000000000022
40
1
40
1
40
1
40
1
41
1
10
47.5668894359371
20
-3.97932176293551
30
0
41
1
10
47.5371051257792
20
-4.02393782334849
30
0
41
1
10
47.5094424572221
20
-4.0624088668078
30
0
41
1
10
47.477547078055
20
-4.10188092550953
30
0
41
1
10
47.4712904490614
20
-4.10935550769494
30
0
41
1
10
47.4591651853173
20
-4.12327952994181
30
0
41
1
10
47.4415191764796
20
-4.14268043435499
30
0
41
1
10
47.4254356471906
20
-4.15769271824215
30
0
41
1
10
47.4153553060905
20
-4.16579696914704
30
0
0
SPLINE
5
DC
100
AcDbEntity
8
1
62
256
6
ByLayer
370
18
48
1
60
0
100
AcDbSpline
70
4
71
3
72
28
73
24
40
0
40
0
40
0
40
0
40
0.125000000000008
40
0.125000000000008
40
0.250000000000017
40
0.250000000000017
40
0.500000000000029
40
0.500000000000029
40
0.531250000000031
40
0.531250000000031
40
0.562500000000034
40
0.562500000000034
40
0.625000000000034
40
0.625000000000034
40
0.687500000000034
40
0.687500000000034
40
0.718750000000035
40
0.718750000000035
40
0.750000000000035
40
0.750000000000035
40
0.875000000000017
40
0.875000000000017
40
1
40
1
40
1
40
1
41
1
10
47.5668894359368
20
-3.97932176293528
30
0
41
1
10
47.6030642952121
20
-3.87407726234855
30
0
41
1
10
47.6393833401811
20
-3.76860477487287
30
0
41
1
10
47.7124140346643
20
-3.55727754924735
30
0
41
1
10
47.7491248098508
20
-3.45142837001586
30
0
41
1
10
47.8598015611955
20
-3.13379763440574
30
0
41
1
10
47.9344090318201
20
-2.92167961541236
30
0
41
1
10
48.0190801703578
20
-2.68365456282933
30
0
41
1
10
48.0285040001839
20
-2.65721744066332
30
0
41
1
10
48.0475319728743
20
-2.60444911379494
30
0
41
1
10
48.0571180770797
20
-2.57810728268819
30
0
41
1
10
48.0861135417738
20
-2.49921833521063
30
0
41
1
10
48.1057572385106
20
-2.44680613113374
30
0
41
1
10
48.1457556648197
20
-2.34237770700062
30
0
41
1
10
48.1661088449437
20
-2.29036059866374
30
0
41
1
10
48.1972344125822
20
-2.21265771682624
30
0
41
1
10
48.2077090765907
20
-2.18681065061884
30
0
41
1
10
48.2288693118055
20
-2.13522944592236
30
0
41
1
10
48.2395705822412
20
-2.10945938343679
30
0
41
1
10
48.2933548693714
20
-1.98155074443568
30
0
41
1
10
48.337362475354
20
-1.88194749011004
30
0
41
1
10
48.4276726864946
20
-1.68809941695892
30
0
41
1
10
48.4739817318264
20
-1.59387920400502
30
0
41
1
10
48.5216013730635
20
-1.50238662404053
30
0
0
SPLINE
5
DD
100
AcDbEntity
8
1
62
256
6
ByLayer
370
18
48
1
60
0
100
AcDbSpline
70
4
71
3
72
8
73
4
40
0
40
0
40
0
40
0
40
1
40
1
40
1
40
1
41
1
10
48.5216013730632
20
-1.50238662404087
30
0
41
1
10
48.6447891170494
20
-1.15691304083262
30
0
41
1
10
48.7668675903759
20
-0.811051201631528
30
0
41
1
10
48.887812656694
20
-0.464792658470458
30
0
0
SPLINE
5
DE
100
AcDbEntity
8
1
62
256
6
ByLayer
370
18
48
1
60
0
100
AcDbSpline
70
4
71
3
72
8
73
4
40
0
40
0
40
0
40
0
40
1
40
1
40
1
40
1
41
1
10
48.887812656694
20
-0.464792658470458
30
0
41
1
10
48.9239605062235
20
-0.361303511723747
30
0
41
1
10
48.9609483178229
20
-0.258286206555539
30
0
41
1
10
48.9987762766166
20
-0.155721897085897
30
0
0
SPLINE
5
DF
100
AcDbEntity
8
1
62
256
6
ByLayer
370
18
48
1
60
0
100
AcDbSpline
70
4
71
3
72
8
73
4
40
0
40
0
40
0
40
0
40
1
40
1
40
1
40
1
41
1
10
48.9987762766168
20
0.155721897085897
30
0
41
1
10
49.0004054925905
20
0.0520609698267549
30
0
41
1
10
49.0004103301821
20
-0.0517531719394526
30
0
41
1
10
48.9987762766168
20
-0.155721897085812
30
0
0
SPLINE
5
E0
100
AcDbEntity
8
1
62
256
6
ByLayer
370
18
48
1
60
0
100
AcDbSpline
70
4
71
3
72
56
73
52
40
0
40
0
40
0
40
0
40
0.0625000000000011
40
0.0625000000000011
40
0.0937500000000017
40
0.0937500000000017
40
0.109375000000005
40
0.109375000000005
40
0.125000000000008
40
0.125000000000008
40
0.187500000000022
40
0.187500000000022
40
0.250000000000036
40
0.250000000000036
40
0.281250000000039
40
0.281250000000039
40
0.312500000000042
40
0.312500000000042
40
0.375000000000049
40
0.375000000000049
40
0.406250000000049
40
0.406250000000049
40
0.421875000000045
40
0.421875000000045
40
0.437500000000042
40
0.437500000000042
40
0.500000000000034
40
0.500000000000034
40
0.531250000000031
40
0.531250000000031
40
0.562500000000027
40
0.562500000000027
40
0.62500000000002
40
0.62500000000002
40
0.656250000000018
40
0.656250000000018
40
0.687500000000017
40
0.687500000000017
40
0.750000000000015
40
0.750000000000015
40
0.781250000000012
40
0.781250000000012
40
0.812500000000009
40
0.812500000000009
40
0.875000000000006
40
0.875000000000006
40
0.937500000000003
40
0.937500000000003
40
0.968750000000002
40
0.968750000000002
40
1
40
1
40
1
40
1
41
1
10
48.998776276617
20
0.155721897086039
30
0
41
1
10
48.9811601372867
20
0.105849720739968
30
0
41
1
10
48.9625440964147
20
0.0564525408570944
30
0
41
1
10
48.9331104911005
20
-0.0169157937383773
30
0
41
1
10
48.9230469432701
20
-0.0412503015658672
30
0
41
1
10
48.9075639303909
20
-0.0775639153270333
30
0
41
1
10
48.9023287805611
20
-0.0896581636909559
30
0
41
1
10
48.8918038446565
20
-0.113608935795782
30
0
41
1
10
48.8865081822328
20
-0.125479909838987
30
0
41
1
10
48.8598682325434
20
-0.184315267265475
30
0
41
1
10
48.8380420143798
20
-0.229728454911452
30
0
41
1
10
48.7934240876108
20
-0.317194204324949
30
0
41
1
10
48.7706328810494
20
-0.359248695665968
30
0
41
1
10
48.7357082753627
20
-0.419614649232244
30
0
41
1
10
48.7238903875455
20
-0.439363152708921
30
0
41
1
10
48.7004161758368
20
-0.477228016716083
30
0
41
1
10
48.6887280232194
20
-0.495405546476007
30
0
41
1
10
48.6538118650436
20
-0.547691776018297
30
0
41
1
10
48.6307327949376
20
-0.579566732854033
30
0
41
1
10
48.5964063944121
20
-0.622757771651607
30
0
41
1
10
48.5850128088478
20
-0.636381509993583
30
0
41
1
10
48.5679930184445
20
-0.655607878029826
30
0
41
1
10
48.5623196490781
20
-0.661826837340982
30
0
41
1
10
48.5510998626617
20
-0.673742080053074
30
0
41
1
10
48.5455439623662
20
-0.679449889852123
30
0
41
1
10
48.5180272111165
20
-0.706757142594796
30
0
41
1
10
48.4968518630869
20
-0.72468096747815
30
0
41
1
10
48.4662430705906
20
-0.745768271545472
30
0
41
1
10
48.4562330565884
20
-0.751827072339637
30
0
41
1
10
48.4365876445189
20
-0.761971755060671
30
0
41
1
10
48.4269221866768
20
-0.766060896924614
30
0
41
1
10
48.3989511053682
20
-0.77515740690427
30
0
41
1
10
48.3815202751447
20
-0.777108682395124
30
0
41
1
10
48.3569812930048
20
-0.774188621412009
30
0
41
1
10
48.3490706855167
20
-0.77223683309586
30
0
41
1
10
48.3337635372748
20
-0.766387376359944
30
0
41
1
10
48.3263417090625
20
-0.762468241788071
30
0
41
1
10
48.3050907226984
20
-0.747978367134323
30
0
41
1
10
48.2922170451382
20
-0.734703651553161
30
0
41
1
10
48.2745821093195
20
-0.709794644143386
30
0
41
1
10
48.2689845082185
20
-0.700655506940109
30
0
41
1
10
48.2583213704749
20
-0.680741437094724
30
0
41
1
10
48.2532498351104
20
-0.669951762589818
30
0
41
1
10
48.2388398219277
20
-0.635248534742971
30
0
41
1
10
48.2304268001042
20
-0.609332533558074
30
0
41
1
10
48.2156648776904
20
-0.55245781924495
30
0
41
1
10
48.2093176999168
20
-0.521496144386532
30
0
41
1
10
48.2012139316524
20
-0.471462872886462
30
0
41
1
10
48.1987469355698
20
-0.454160965807091
30
0
41
1
10
48.1942897194964
20
-0.418487655609027
30
0
41
1
10
48.1923018248778
20
-0.400142586837717
30
0
41
1
10
48.1905455598811
20
-0.381303577124925
30
0
0
SPLINE
5
E1
100
AcDbEntity
8
1
62
256
6
ByLayer
370
18
48
1
60
0
100
AcDbSpline
70
4
71
3
72
8
73
4
40
0
40
0
40
0
40
0
40
1
40
1
40
1
40
1
41
1
10
48.1905455598811
20
-0.381303577124925
30
0
41
1
10
48.1606453457137
20
-0.060571554238976
30
0
41
1
10
48.1185960037027
20
0.265644557789926
30
0
41
1
10
48.0646281046063
20
0.597240679837199
30
0
0
SPLINE
5
E2
100
AcDbEntity
8
1
62
256
6
ByLayer
370
18
48
1
60
0
100
AcDbSpline
70
4
71
3
72
28
73
24
40
0
40
0
40
0
40
0
40
0.124999999999991
40
0.124999999999991
40
0.187499999999982
40
0.187499999999982
40
0.218749999999982
40
0.218749999999982
40
0.249999999999982
40
0.249999999999982
40
0.312499999999982
40
0.312499999999982
40
0.374999999999982
40
0.374999999999982
40
0.499999999999982
40
0.562499999999982
40
0.624999999999981
40
0.624999999999981
40
0.687499999999981
40
0.687499999999981
40
0.749999999999981
40
0.749999999999981
40
1
40
1
40
1
40
1
41
1
10
48.0646281046063
20
0.597240679837199
30
0
41
1
10
48.0389115231453
20
0.601535886073236
30
0
41
1
10
48.012490527575
20
0.602647153290746
30
0
41
1
10
47.9721548577136
20
0.600713083970732
30
0
41
1
10
47.9585854444869
20
0.59947854534488
30
0
41
1
10
47.9381222882178
20
0.596874313732201
30
0
41
1
10
47.9312928606514
20
0.595890117630574
30
0
41
1
10
47.9176307806715
20
0.593832026074665
30
0
41
1
10
47.9107994970942
20
0.592774942745393
30
0
41
1
10
47.8902925518181
20
0.589363001771005
30
0
41
1
10
47.8765964891008
20
0.5866814770134
30
0
41
1
10
47.8491438770817
20
0.580225919218861
30
0
41
1
10
47.8353896176994
20
0.576478057940705
30
0
41
1
10
47.7940611731643
20
0.563658224781193
30
0
41
1
10
47.752609200272
20
0.547767797810224
30
0
41
1
10
47.6973040850211
20
0.521484900223442
30
0
41
1
10
47.6696662415191
20
0.506764297987814
30
0
41
1
10
47.6420649021635
20
0.491596025145554
30
0
41
1
10
47.6282795125579
20
0.483747249388983
30
0
41
1
10
47.6007291862518
20
0.467209806204977
30
0
41
1
10
47.5869655659611
20
0.45854117302747
30
0
41
1
10
47.5182255211164
20
0.413140779220186
30
0
41
1
10
47.4634826384985
20
0.370133472437914
30
0
41
1
10
47.4093084316165
20
0.32119778956644
30
0
0
SPLINE
5
E3
100
AcDbEntity
8
1
62
256
6
ByLayer
370
18
48
1
60
0
100
AcDbSpline
70
4
71
3
72
22
73
18
40
0
40
0
40
0
40
0
40
0.499999999999855
40
0.499999999999855
40
0.749999999999786
40
0.749999999999786
40
0.874999999999787
40
0.874999999999787
40
0.937499999999823
40
0.937499999999823
40
0.968749999999876
40
0.968749999999876
40
0.984374999999898
40
0.984374999999898
40
0.992187499999949
40
0.992187499999949
40
1
40
1
40
1
40
1
41
1
10
47.3469495429749
20
-4.34983750858879
30
0
41
1
10
47.3657300698677
20
-4.31933252799072
30
0
41
1
10
47.3845134872646
20
-4.28871358507587
30
0
41
1
10
47.4126871746189
20
-4.24262622362892
30
0
41
1
10
47.4220771098446
20
-4.2272393935813
30
0
41
1
10
47.4361803276684
20
-4.20407999944871
30
0
41
1
10
47.4408877086425
20
-4.19634024740895
30
0
41
1
10
47.4479292759593
20
-4.18476155022353
30
0
41
1
10
47.4502679973401
20
-4.18091801219668
30
0
41
1
10
47.4537891532345
20
-4.17512274584783
30
0
41
1
10
47.4549662607604
20
-4.17318348534445
30
0
41
1
10
47.4567420689719
20
-4.17025259653718
30
0
41
1
10
47.4573358386114
20
-4.16927168739736
30
0
41
1
10
47.4582343896898
20
-4.16778331275316
30
0
41
1
10
47.4585364334053
20
-4.16728184645075
30
0
41
1
10
47.459126742458
20
-4.16630800226619
30
0
41
1
10
47.4594262487397
20
-4.16581488519404
30
0
41
1
10
47.4596568515403
20
-4.16545486727765
30
0
0
SPLINE
5
E4
100
AcDbEntity
8
1
62
256
6
ByLayer
370
18
48
1
60
0
100
AcDbSpline
70
4
71
3
72
54
73
50
40
0
40
0
40
0
40
0
40
0.0270533035581172
40
0.0270533035581172
40
0.0540796006815039
40
0.0540796006815039
40
0.0811058978048906
40
0.0811058978048906
40
0.135158492051662
40
0.135158492051662
40
0.189211086298433
40
0.189211086298433
40
0.216237383421818
40
0.216237383421818
40
0.243263680545204
40
0.243263680545204
40
0.270289977668589
40
0.270289977668589
40
0.297316274791975
40
0.297316274791975
40
0.351368869038746
40
0.351368869038746
40
0.405421463285517
40
0.405421463285517
40
0.459474057532288
40
0.459474057532288
40
0.486500354655674
40
0.486500354655674
40
0.51352665177906
40
0.51352665177906
40
0.567579246025831
40
0.567579246025831
40
0.675684434519373
40
0.675684434519373
40
0.702710731642759
40
0.702710731642759
40
0.729737028766144
40
0.729737028766144
40
0.783789623012915
40
0.783789623012915
40
0.837842217259686
40
0.837842217259686
40
0.891894811506457
40
0.891894811506457
40
0.918921108629843
40
0.918921108629843
40
0.945947405753229
40
0.945947405753229
40
1
40
1
40
1
40
1
41
1
10
36.4680899785099
20
-1.32997868870885
30
0
41
1
10
36.332237408257
20
-1.26799381945682
30
0
41
1
10
36.1963023454426
20
-1.20549314090547
30
0
41
1
10
35.9243538428268
20
-1.07963441800857
30
0
41
1
10
35.788352173214
20
-1.01628425080457
30
0
41
1
10
35.516695712096
20
-0.889028380478038
30
0
41
1
10
35.3809654495895
20
-0.825089208076662
30
0
41
1
10
34.9739736922737
20
-0.632532445296221
30
0
41
1
10
34.7028637010367
20
-0.503266609121368
30
0
41
1
10
34.1607438210388
20
-0.243655566537996
30
0
41
1
10
33.8897202481731
20
-0.113335929413211
30
0
41
1
10
33.4829924236272
20
0.0824014125671226
30
0
41
1
10
33.3473849680769
20
0.147690741899027
30
0
41
1
10
33.075999201547
20
0.278142408207714
30
0
41
1
10
32.9402218279044
20
0.343306693457009
30
0
41
1
10
32.6684762240602
20
0.473457700682957
30
0
41
1
10
32.5324469927185
20
0.538457168636484
30
0
41
1
10
32.2607119588022
20
0.66784132249407
30
0
41
1
10
32.1249447278151
20
0.732258451172044
30
0
41
1
10
31.7178744168339
20
0.92458211673943
30
0
41
1
10
31.4468080983032
20
1.05157121468747
30
0
41
1
10
30.9046904553357
20
1.30174335877652
30
0
41
1
10
30.6336780636641
20
1.42506092545557
30
0
41
1
10
30.0913253665073
20
1.6673334717662
30
0
41
1
10
29.8200391821306
20
1.78640943529237
30
0
41
1
10
29.4125004381774
20
1.96096116784997
30
0
41
1
10
29.2764657650988
20
2.01847972393958
30
0
41
1
10
29.0046340007192
20
2.13191206616259
30
0
41
1
10
28.8688284828301
20
2.18780854165871
30
0
41
1
10
28.4616512992118
20
2.352877335611
30
0
41
1
10
28.1905341725737
20
2.45948590875119
30
0
41
1
10
27.3774867078527
20
2.76812528704247
30
0
41
1
10
26.835631646651
20
2.95815706483725
30
0
41
1
10
26.1566354752899
20
3.17385542173429
30
0
41
1
10
26.0207136731082
20
3.21592230710681
30
0
41
1
10
25.7488015384753
20
3.2975908580618
30
0
41
1
10
25.6128842347444
20
3.33716203834842
30
0
41
1
10
25.2052201715527
20
3.45219251997108
30
0
41
1
10
24.9335274031731
20
3.52384788743137
30
0
41
1
10
24.3899568699148
20
3.65664259782946
30
0
41
1
10
24.118015456403
20
3.7178474510047
30
0
41
1
10
23.574117077234
20
3.8287206910039
30
0
41
1
10
23.3022636514022
20
3.87854824806789
30
0
41
1
10
22.8943822826144
20
3.94462956251516
30
0
41
1
10
22.758404757081
20
3.96522705279782
30
0
41
1
10
22.4866088401673
20
4.00349473858557
30
0
41
1
10
22.3507624385934
20
4.02118039103769
30
0
41
1
10
21.9432291740154
20
4.06967692445426
30
0
41
1
10
21.6715640536246
20
4.09596918061359
30
0
41
1
10
21.3997374727291
20
4.11621474229429
30
0
0
SPLINE
5
E5
100
AcDbEntity
8
1
62
256
6
ByLayer
370
18
48
1
60
0
100
AcDbSpline
70
4
71
3
72
8
73
4
40
0
40
0
40
0
40
0
40
1
40
1
40
1
40
1
41
1
10
47.3192891657529
20
-4.32196979110432
30
0
41
1
10
47.3499971728142
20
-4.27239015746846
30
0
41
1
10
47.3807364867869
20
-4.22261542332046
30
0
41
1
10
47.411511092974
20
-4.17264658492391
30
0
0
SPLINE
5
E6
100
AcDbEntity
8
1
62
256
6
ByLayer
370
18
48
1
60
0
100
AcDbSpline
70
4
71
3
72
42
73
38
40
0
40
0
40
0
40
0
40
0.127323652279573
40
0.127323652279573
40
0.19098547841936
40
0.19098547841936
40
0.254647304559147
40
0.254647304559147
40
0.286478217629041
40
0.286478217629041
40
0.318309130698936
40
0.318309130698936
40
0.381970956838723
40
0.381970956838723
40
0.44563278297851
40
0.44563278297851
40
0.477463696048403
40
0.477463696048403
40
0.509294609118297
40
0.509294609118297
40
0.54112552218819
40
0.54112552218819
40
0.572956435258083
40
0.572956435258083
40
0.63661826139787
40
0.63661826139787
40
0.700280087537657
40
0.700280087537657
40
0.73211100060755
40
0.73211100060755
40
0.763941913677444
40
0.763941913677444
40
0.827603739817228
40
0.827603739817228
40
0.891265565957012
40
0.891265565957012
40
1
40
1
40
1
40
1
41
1
10
47.4115110929741
20
-4.17264658492391
30
0
41
1
10
46.8701327951273
20
-4.14505376766618
30
0
41
1
10
46.3317915707302
20
-4.09285805631239
30
0
41
1
10
45.5261523014551
20
-3.980062114552
30
0
41
1
10
45.2579433679074
20
-3.9367303027465
30
0
41
1
10
44.7218240254411
20
-3.83903232292391
30
0
41
1
10
44.4538811039918
20
-3.78461694068881
30
0
41
1
10
44.0517860200944
20
-3.69491185228861
30
0
41
1
10
43.9177247575651
20
-3.6636653648444
30
0
41
1
10
43.6495185490924
20
-3.59858361961415
30
0
41
1
10
43.5153755035184
20
-3.56475285807508
30
0
41
1
10
43.1127078302029
20
-3.45937905899467
30
0
41
1
10
42.8439398526185
20
-3.38393788488378
30
0
41
1
10
42.305338035633
20
-3.22323246544428
30
0
41
1
10
42.0355053796685
20
-3.13797074228671
30
0
41
1
10
41.6296081117666
20
-3.00307183303542
30
0
41
1
10
41.4940845469209
20
-2.95692618293242
30
0
41
1
10
41.2227315226381
20
-2.86240075792685
30
0
41
1
10
41.0871670489357
20
-2.81411389919714
30
0
41
1
10
40.8162059468994
20
-2.71557544891041
30
0
41
1
10
40.6808077176841
20
-2.66532249147141
30
0
41
1
10
40.410161241771
20
-2.56295271939368
30
0
41
1
10
40.2749167944572
20
-2.51083673501395
30
0
41
1
10
39.8692624992839
20
-2.35185259249175
30
0
41
1
10
39.5989203298785
20
-2.24234501629658
30
0
41
1
10
39.0580234111567
20
-2.01713864558562
30
0
41
1
10
38.7874712416771
20
-1.90144155872008
30
0
41
1
10
38.3811270975371
20
-1.72383010402268
30
0
41
1
10
38.2455908036786
20
-1.66394879853334
30
0
41
1
10
37.9743313382399
20
-1.54290445797858
30
0
41
1
10
37.8385840373166
20
-1.48172588327699
30
0
41
1
10
37.431873317678
20
-1.29689434616194
30
0
41
1
10
37.1611333762856
20
-1.17182012169752
30
0
41
1
10
36.6200398636626
20
-0.918845606930347
30
0
41
1
10
36.3496883155013
20
-0.790942295691735
30
0
41
1
10
35.6174589659495
20
-0.442053708270976
30
0
41
1
10
35.1555001980681
20
-0.219276769519155
30
0
41
1
10
34.6922737109189
20
0.0038495629650015
30
0
0
SPLINE
5
E7
100
AcDbEntity
8
1
62
256
6
ByLayer
370
18
48
1
60
0
100
AcDbSpline
70
4
71
3
72
10
73
6
40
0
40
0
40
0
40
0
40
0.5
40
0.5
40
1
40
1
40
1
40
1
41
1
10
47.411511092974
20
-4.17264658492391
30
0
41
1
10
47.4121854596074
20
-4.17155161340364
30
0
41
1
10
47.4128681662884
20
-4.17039949986426
30
0
41
1
10
47.4141981507317
20
-4.16804102474507
30
0
41
1
10
47.4148353600349
20
-4.16684883227268
30
0
41
1
10
47.4153553060895
20
-4.16579696914818
30
0
0
SPLINE
5
E8
100
AcDbEntity
8
1
62
256
6
ByLayer
370
18
48
1
60
0
100
AcDbSpline
70
4
71
3
72
10
73
6
40
0
40
0
40
0
40
0
40
0.5
40
0.5
40
1
40
1
40
1
40
1
41
1
10
47.4155052383371
20
-4.16176032655028
30
0
41
1
10
47.4156892621148
20
-4.16191725404957
30
0
41
1
10
47.415787931008
20
-4.16230979083343
30
0
41
1
10
47.4157567869041
20
-4.16365419821915
30
0
41
1
10
47.4156203393727
20
-4.16461643399469
30
0
41
1
10
47.4153553060897
20
-4.16579696914818
30
0
0
SPLINE
5
E9
100
AcDbEntity
8
1
62
256
6
ByLayer
370
18
48
1
60
0
100
AcDbSpline
70
4
71
3
72
8
73
4
40
0
40
0
40
0
40
0
40
1
40
1
40
1
40
1
41
1
10
47.383788769822
20
-0.266846229995281
30
0
41
1
10
47.3856882674892
20
-0.267426280211168
30
0
41
1
10
47.3867031517818
20
-0.272572261979946
30
0
41
1
10
47.3860036666149
20
-0.278334691392104
30
0
0
SPLINE
5
EA
100
AcDbEntity
8
1
62
256
6
ByLayer
370
18
48
1
60
0
100
AcDbSpline
70
4
71
3
72
52
73
48
40
0
40
0
40
0
40
0
40
0.0534679078885833
40
0.0534679078885833
40
0.0824635006865715
40
0.0824635006865715
40
0.11145909348456
40
0.11145909348456
40
0.22744146467652
40
0.22744146467652
40
0.2854326502725
40
0.2854326502725
40
0.34342383586848
40
0.34342383586848
40
0.357921632267474
40
0.357921632267474
40
0.372419428666467
40
0.372419428666467
40
0.401415021464455
40
0.401415021464455
40
0.45940620706043
40
0.45940620706043
40
0.517397392656406
40
0.517397392656406
40
0.546392985454393
40
0.546392985454393
40
0.575388578252381
40
0.575388578252381
40
0.604384171050368
40
0.604384171050368
40
0.633379763848356
40
0.633379763848356
40
0.691370949444329
40
0.691370949444329
40
0.749362135040302
40
0.749362135040302
40
0.778357727838288
40
0.778357727838288
40
0.807353320636275
40
0.807353320636275
40
0.865344506232245
40
0.865344506232245
40
0.894340099030232
40
0.894340099030232
40
0.923335691828218
40
0.923335691828218
40
1
40
1
40
1
40
1
41
1
10
32.9022201389714
20
4.16522378780852
30
0
41
1
10
33.1515921493465
20
4.17030492835659
30
0
41
1
10
33.4007405771658
20
4.17064176942208
30
0
41
1
10
33.7850342634954
20
4.16307912541905
30
0
41
1
10
33.9201675753063
20
4.15888110336644
30
0
41
1
10
34.1905837675857
20
4.14730088613223
30
0
41
1
10
34.3259102076667
20
4.13991448853815
30
0
41
1
10
35.0027645086849
20
4.09477694245129
30
0
41
1
10
35.5429295300373
20
4.03274854638582
30
0
41
1
10
36.3517739399951
20
3.90813822171782
30
0
41
1
10
36.6211831898153
20
3.86128499768086
30
0
41
1
10
37.1606851431808
20
3.75565260860455
30
0
41
1
10
37.430742815013
20
3.69692455732977
30
0
41
1
10
37.768496193616
20
3.61715787566018
30
0
41
1
10
37.8360595032217
20
3.60088259877165
30
0
41
1
10
37.9712485246824
20
3.5676536211848
30
0
41
1
10
38.0388947760671
20
3.55069414125296
30
0
41
1
10
38.2417452183499
20
3.49880837913008
30
0
41
1
10
38.3768994165492
20
3.46287593721871
30
0
41
1
10
38.7821987677193
20
3.35127671639418
30
0
41
1
10
39.0521757926986
20
3.2718075800212
30
0
41
1
10
39.591820589041
20
3.10384158949512
30
0
41
1
10
39.8614822895351
20
3.01533597107078
30
0
41
1
10
40.265675645546
20
2.87636275665932
30
0
41
1
10
40.4003672650314
20
2.82899996186325
30
0
41
1
10
40.6699345920516
20
2.7321122367743
30
0
41
1
10
40.804802274314
20
2.68259114356604
30
0
41
1
10
41.0747137039401
20
2.58152974535244
30
0
41
1
10
41.2097596379177
20
2.52998922135526
30
0
41
1
10
41.4801168072712
20
2.42499304922137
30
0
41
1
10
41.6154769170787
20
2.37151647762579
30
0
41
1
10
42.0207175047493
20
2.20892474098258
30
0
41
1
10
42.29018365289
20
2.09747844153046
30
0
41
1
10
42.8279377610005
20
1.86925279447743
30
0
41
1
10
43.0962253658437
20
1.75247005132781
30
0
41
1
10
43.4979258502685
20
1.57370385213136
30
0
41
1
10
43.6317083960796
20
1.51352217685803
30
0
41
1
10
43.8992474940965
20
1.39223325243591
30
0
41
1
10
44.0330006152345
20
1.33112127119182
30
0
41
1
10
44.4342024490481
20
1.14647255212461
30
0
41
1
10
44.701567491025
20
1.02158961816843
30
0
41
1
10
45.1027095473472
20
0.832155876593703
30
0
41
1
10
45.2364458633842
20
0.768668016121978
30
0
41
1
10
45.5040546672825
20
0.641170154811221
30
0
41
1
10
45.6379277981327
20
0.577160706139892
30
0
41
1
10
46.1260714979725
20
0.343123774799352
30
0
41
1
10
46.4808552774864
20
0.171807771339075
30
0
41
1
10
46.8363226902227
20
-0.0006511796490258
30
0
0
SPLINE
5
EB
100
AcDbEntity
8
1
62
256
6
ByLayer
370
18
48
1
60
0
100
AcDbSpline
70
4
71
3
72
8
73
4
40
0
40
0
40
0
40
0
40
1
40
1
40
1
40
1
41
1
10
47.3293166841632
20
-0.249229776345885
30
0
41
1
10
47.34746523606
20
-0.255426624505731
30
0
41
1
10
47.3656203697294
20
-0.261298139793268
30
0
41
1
10
47.383788769822
20
-0.266846229995309
30
0
0
SPLINE
5
EC
100
AcDbEntity
8
1
62
256
6
ByLayer
370
18
48
1
60
0
100
AcDbSpline
70
4
71
3
72
52
73
48
40
0
40
0
40
0
40
0
40
0.114031586217598
40
0.114031586217598
40
0.142539482771998
40
0.142539482771998
40
0.171047379326398
40
0.171047379326398
40
0.228063172435201
40
0.228063172435201
40
0.256571068989602
40
0.256571068989602
40
0.285078965544004
40
0.285078965544004
40
0.342094758652806
40
0.342094758652806
40
0.399110551761609
40
0.399110551761609
40
0.42761844831601
40
0.42761844831601
40
0.456126344870412
40
0.456126344870412
40
0.484634241424813
40
0.484634241424813
40
0.513142137979215
40
0.513142137979215
40
0.57015793108802
40
0.57015793108802
40
0.627173724196825
40
0.627173724196825
40
0.655681620751227
40
0.655681620751227
40
0.669935569028427
40
0.669935569028427
40
0.684189517305628
40
0.684189517305628
40
0.74120531041443
40
0.74120531041443
40
0.798221103523233
40
0.798221103523233
40
0.912252689740836
40
0.912252689740836
40
0.940760586295236
40
0.940760586295236
40
0.969268482849635
40
0.969268482849635
40
1
40
1
40
1
40
1
41
1
10
47.3860036665969
20
-0.27833469138335
30
0
41
1
10
46.8469962674386
20
-0.0163997362292321
30
0
41
1
10
46.3096531028867
20
0.243418878150322
30
0
41
1
10
45.6396816283727
20
0.563975111926737
30
0
41
1
10
45.5057724312138
20
0.627875278709467
30
0
41
1
10
45.2380918185057
20
0.755164944350611
30
0
41
1
10
45.1043197724252
20
0.818553575773961
30
0
41
1
10
44.7030712999642
20
1.00770351217943
30
0
41
1
10
44.4356361446182
20
1.1324149865743
30
0
41
1
10
44.034330638643
20
1.31683522013989
30
0
41
1
10
43.9005433910382
20
1.37787646727827
30
0
41
1
10
43.632937014533
20
1.49903571237553
30
0
41
1
10
43.4991208002172
20
1.55915604008021
30
0
41
1
10
43.0973206567947
20
1.73774694092577
30
0
41
1
10
42.828969331878
20
1.85443059662094
30
0
41
1
10
42.2910942704654
20
2.08249676507228
30
0
41
1
10
42.0215716651295
20
2.19388454904009
30
0
41
1
10
41.6162515686169
20
2.3564199920236
30
0
41
1
10
41.4808641150753
20
2.40988320170186
30
0
41
1
10
41.2104382227255
20
2.51486771095909
30
0
41
1
10
41.0753577830365
20
2.56640728246731
30
0
41
1
10
40.8053772377814
20
2.66747620942738
30
0
41
1
10
40.6704749474659
20
2.71700646509478
30
0
41
1
10
40.4008389565957
20
2.81392562396292
30
0
41
1
10
40.266112913794
20
2.86130727913468
30
0
41
1
10
39.8618172218911
20
3.00034055620898
30
0
41
1
10
39.5920898093349
20
3.08890586181451
30
0
41
1
10
39.0523175707289
20
3.25703543774711
30
0
41
1
10
38.78227937125
20
3.33660846804168
30
0
41
1
10
38.3768904871823
20
3.4483944548123
30
0
41
1
10
38.2417067970291
20
3.48439413437382
30
0
41
1
10
38.0388133158614
20
3.5363892724925
30
0
41
1
10
37.9711510626628
20
3.55338672151311
30
0
41
1
10
37.8359278643902
20
3.58669236627807
30
0
41
1
10
37.768347411118
20
3.60300636420396
30
0
41
1
10
37.4305084198655
20
3.68296832667511
30
0
41
1
10
37.1603837850658
20
3.74187289034913
30
0
41
1
10
36.6207481278442
20
3.84790533478846
30
0
41
1
10
36.3512704238901
20
3.89497101549284
30
0
41
1
10
35.5422250832262
20
4.02024772164242
30
0
41
1
10
35.0019386435001
20
4.08279117405968
30
0
41
1
10
34.324941018701
20
4.12866028565222
30
0
41
1
10
34.189579981827
20
4.13619687054739
30
0
41
1
10
33.9190985109651
20
4.14808203117792
30
0
41
1
10
33.7839324557481
20
4.15243523560557
30
0
41
1
10
33.5030766765327
20
4.15828867703476
30
0
41
1
10
33.3573848590188
20
4.15953701551894
30
0
41
1
10
33.2116515749905
20
4.15909621292931
30
0
0
SPLINE
5
ED
100
AcDbEntity
8
1
62
256
6
ByLayer
370
18
48
1
60
0
100
AcDbSpline
70
4
71
3
72
44
73
40
40
0
40
0
40
0
40
0
40
0.0273260472787478
40
0.0273260472787478
40
0.148910291368911
40
0.148910291368911
40
0.209702413413992
40
0.209702413413992
40
0.270494535459073
40
0.270494535459073
40
0.300890596481612
40
0.300890596481612
40
0.331286657504151
40
0.331286657504151
40
0.392078779549229
40
0.392078779549229
40
0.452870901594307
40
0.452870901594307
40
0.483266962616846
40
0.483266962616846
40
0.513663023639385
40
0.513663023639385
40
0.544059084661924
40
0.544059084661924
40
0.574455145684463
40
0.574455145684463
40
0.635247267729541
40
0.635247267729541
40
0.696039389774619
40
0.696039389774619
40
0.726435450797159
40
0.726435450797159
40
0.756831511819698
40
0.756831511819698
40
0.817623633864773
40
0.817623633864773
40
0.878415755909849
40
0.878415755909849
40
1
40
1
40
1
40
1
41
1
10
34.0926557393182
20
0.302656183662663
30
0
41
1
10
34.214627530249
20
0.244247022769116
30
0
41
1
10
34.3366589370951
20
0.185715217229785
30
0
41
1
10
35.0016328405538
20
-0.133551996236918
30
0
41
1
10
35.5425780960046
20
-0.394371234161042
30
0
41
1
10
36.3537457756702
20
-0.780080846541097
30
0
41
1
10
36.624092675904
20
-0.907731755039691
30
0
41
1
10
37.1651735665994
20
-1.16023667972527
30
0
41
1
10
37.4359055054922
20
-1.2850937988274
30
0
41
1
10
37.8426032275691
20
-1.46962196189094
30
0
41
1
10
37.9783460295286
20
-1.53070245854391
30
0
41
1
10
38.2495973028507
20
-1.65156240790063
30
0
41
1
10
38.3851292263712
20
-1.71135766559567
30
0
41
1
10
38.7914606725604
20
-1.88872558879243
30
0
41
1
10
39.0620055975726
20
-2.00427854067271
30
0
41
1
10
39.6028890464351
20
-2.22923467233616
30
0
41
1
10
39.8732246066305
20
-2.33863683832828
30
0
41
1
10
40.2788702876213
20
-2.49748926590578
30
0
41
1
10
40.4141123964287
20
-2.54956516519368
30
0
41
1
10
40.6847526507146
20
-2.65186638397142
30
0
41
1
10
40.8201467027973
20
-2.70209137647308
30
0
41
1
10
41.0910986241795
20
-2.80058341875042
30
0
41
1
10
41.2266582579916
20
-2.84885157764066
30
0
41
1
10
41.4980007031112
20
-2.94334903505239
30
0
41
1
10
41.6335209750737
20
-2.98948628886538
30
0
41
1
10
42.0394092598413
20
-3.12437538953509
30
0
41
1
10
42.3092390620134
20
-3.20965161412505
30
0
41
1
10
42.8478406038792
20
-3.37042698543439
30
0
41
1
10
43.1166109883243
20
-3.44592381727634
30
0
41
1
10
43.5192862831539
20
-3.55140867617791
30
0
41
1
10
43.6534327507035
20
-3.58528077739035
30
0
41
1
10
43.9216456913579
20
-3.65045580544731
30
0
41
1
10
44.0557100511505
20
-3.68175448569093
30
0
41
1
10
44.4578145912411
20
-3.77163026972778
30
0
41
1
10
44.725764607612
20
-3.82617759435405
30
0
41
1
10
45.2618992888618
20
-3.9241739737804
30
0
41
1
10
45.5301158748862
20
-3.967673314671
30
0
41
1
10
46.3357727214754
20
-4.08102609640414
30
0
41
1
10
46.8741239407737
20
-4.13365869523307
30
0
41
1
10
47.4155052389214
20
-4.16176032657731
30
0
0
SPLINE
5
EE
100
AcDbEntity
8
1
62
256
6
ByLayer
370
18
48
1
60
0
100
AcDbSpline
70
4
71
3
72
42
73
38
40
0
40
0
40
0
40
0
40
0.0625000000000001
40
0.0625000000000001
40
0.125
40
0.1875
40
0.1875
40
0.21875
40
0.21875
40
0.25
40
0.25
40
0.3125
40
0.375
40
0.437499999999999
40
0.437499999999999
40
0.468749999999999
40
0.468749999999999
40
0.484374999999999
40
0.484374999999999
40
0.499999999999999
40
0.562499999999999
40
0.624999999999998
40
0.687499999999997
40
0.687499999999997
40
0.703124999999997
40
0.703124999999997
40
0.718749999999997
40
0.718749999999997
40
0.749999999999998
40
0.749999999999998
40
0.812499999999998
40
0.874999999999998
40
0.937499999999999
40
0.937499999999999
40
0.96875
40
0.96875
40
1
40
1
40
1
40
1
41
1
10
47.3860036666159
20
-0.278334691384771
30
0
41
1
10
47.3711797463321
20
-0.400455643035571
30
0
41
1
10
47.3582702740577
20
-0.521488079041859
30
0
41
1
10
47.3356071384317
20
-0.761384418716318
30
0
41
1
10
47.3161010397563
20
-0.999112024259489
30
0
41
1
10
47.3017965535408
20
-1.23243292705501
30
0
41
1
10
47.2926728187088
20
-1.40571152076984
30
0
41
1
10
47.2898997134878
20
-1.46318534755755
30
0
41
1
10
47.2848402368144
20
-1.5775470272244
30
0
41
1
10
47.2825505298259
20
-1.63454658615888
30
0
41
1
10
47.2763980073775
20
-1.8030686251071
30
0
41
1
10
47.2700519348625
20
-2.02199874950875
30
0
41
1
10
47.2648660477718
20
-2.33351802861714
30
0
41
1
10
47.2637364728669
20
-2.5299717189464
30
0
41
1
10
47.2636424897253
20
-2.67301562440758
30
0
41
1
10
47.2637376242624
20
-2.71997985403007
30
0
41
1
10
47.264063633948
20
-2.78933003111911
30
0
41
1
10
47.2642028048834
20
-2.81222688815933
30
0
41
1
10
47.2645398508955
20
-2.85744343473607
30
0
41
1
10
47.2655309528618
20
-2.96914753377581
30
0
41
1
10
47.2686012847502
20
-3.15832959517476
30
0
41
1
10
47.27546841786
20
-3.38577325793219
30
0
41
1
10
47.2821644816921
20
-3.52085644548791
30
0
41
1
10
47.2871774715673
20
-3.59998806787431
30
0
41
1
10
47.2882218080647
20
-3.61554913173498
30
0
41
1
10
47.2903995299403
20
-3.64613558751881
30
0
41
1
10
47.2915339949132
20
-3.66117265900718
30
0
41
1
10
47.2950625462798
20
-3.70526111020035
30
0
41
1
10
47.2975858723591
20
-3.73335631445644
30
0
41
1
10
47.3057257957003
20
-3.81382145022704
30
0
41
1
10
47.3180930822031
20
-3.91093487307012
30
0
41
1
10
47.3423173119397
20
-4.02667103908831
30
0
41
1
10
47.3632096725382
20
-4.08382153189209
30
0
41
1
10
47.3811098103296
20
-4.11899508846329
30
0
41
1
10
47.3874552692534
20
-4.12943816026424
30
0
41
1
10
47.4008911291564
20
-4.14760655492589
30
0
41
1
10
47.4079898343915
20
-4.15535151588133
30
0
41
1
10
47.4155052383841
20
-4.16176032658296
30
0
0
SPLINE
5
EF
100
AcDbEntity
8
1
62
256
6
ByLayer
370
18
48
1
60
0
100
AcDbSpline
70
4
71
3
72
10
73
6
40
0
40
0
40
0
40
0
40
0.183840109787378
40
0.183840109787378
40
1
40
1
40
1
40
1
41
1
10
23.4338609139469
20
-4.15123086084819
30
0
41
1
10
23.3129600630802
20
-4.1670489192845
30
0
41
1
10
23.1920362382719
20
-4.18165313420644
30
0
41
1
10
22.5339982239146
20
-4.25440291333896
30
0
41
1
10
21.995938807619
20
-4.28956169680327
30
0
41
1
10
21.4552310261452
20
-4.29963032464229
30
0
0
SPLINE
5
F0
100
AcDbEntity
8
1
62
256
6
ByLayer
370
18
48
1
60
0
100
AcDbSpline
70
4
71
3
72
16
73
12
40
0
40
0
40
0
40
0
40
0.25
40
0.25
40
0.375
40
0.375
40
0.5
40
0.5
40
0.75
40
0.75
40
1
40
1
40
1
40
1
41
1
10
21.4552310261452
20
-4.29963032464229
30
0
41
1
10
21.4468774908794
20
-4.29978587749471
30
0
41
1
10
21.4392890300719
20
-4.2999802670368
30
0
41
1
10
21.4290253187191
20
-4.30031164075805
30
0
41
1
10
21.4257843867977
20
-4.30042938292132
30
0
41
1
10
21.4198825619132
20
-4.30066824741246
30
0
41
1
10
21.4171946952138
20
-4.3007901416014
30
0
41
1
10
21.4099133954446
20
-4.30115881399075
30
0
41
1
10
21.4060983622755
20
-4.30141020339397
30
0
41
1
10
21.4010521913674
20
-4.30187266474195
30
0
41
1
10
21.3997374727289
20
-4.30208943320062
30
0
41
1
10
21.3997374727289
20
-4.3022786508501
30
0
0
SPLINE
5
F1
100
AcDbEntity
8
1
62
256
6
ByLayer
370
18
48
1
60
0
100
AcDbSpline
70
4
71
3
72
28
73
24
40
0
40
0
40
0
40
0
40
0.124999999999942
40
0.124999999999942
40
0.1874999999999
40
0.1874999999999
40
0.249999999999859
40
0.312499999999817
40
0.312499999999817
40
0.374999999999775
40
0.374999999999775
40
0.499999999999761
40
0.499999999999761
40
0.624999999999748
40
0.624999999999748
40
0.68749999999979
40
0.68749999999979
40
0.749999999999832
40
0.812499999999874
40
0.812499999999874
40
0.874999999999916
40
0.874999999999916
40
1
40
1
40
1
40
1
41
1
10
21.3997374727289
20
-1.03064545149351
30
0
41
1
10
21.3997374727289
20
-1.02232528930699
30
0
41
1
10
21.4008207141455
20
-1.01417860217325
30
0
41
1
10
21.4040199747447
20
-1.0022115432312
30
0
41
1
10
21.4053649691095
20
-0.99823744089602
30
0
41
1
10
21.4085397184671
20
-0.990553553449303
30
0
41
1
10
21.4121915960957
20
-0.983124576392896
30
0
41
1
10
21.416776037976
20
-0.976194666388892
30
0
41
1
10
21.4218388383586
20
-0.969521257546546
30
0
41
1
10
21.4246094382003
20
-0.966320861574786
30
0
41
1
10
21.4334050559503
20
-0.957379825428063
30
0
41
1
10
21.4399915338946
20
-0.952180930938312
30
0
41
1
10
21.4545671010818
20
-0.943426219887215
30
0
41
1
10
21.4622716184801
20
-0.940036071161842
30
0
41
1
10
21.4744369438019
20
-0.936394819809067
30
0
41
1
10
21.478624734293
20
-0.935421453358089
30
0
41
1
10
21.4870084374353
20
-0.934019771971748
30
0
41
1
10
21.4954208497603
20
-0.933148525524189
30
0
41
1
10
21.5038895078638
20
-0.933316733169221
30
0
41
1
10
21.512387088685
20
-0.934019424192911
30
0
41
1
10
21.5166317326011
20
-0.934640855018728
30
0
41
1
10
21.529045283185
20
-0.937252459082032
30
0
41
1
10
21.5370166850214
20
-0.939985072343347
30
0
41
1
10
21.5446723842255
20
-0.943745095778127
30
0
0
SPLINE
5
F2
100
AcDbEntity
8
1
62
256
6
ByLayer
370
18
48
1
60
0
100
AcDbSpline
70
4
71
3
72
46
73
42
40
0
40
0
40
0
40
0
40
0.0690274025863799
40
0.0690274025863799
40
0.138054805172761
40
0.138054805172761
40
0.17256850646595
40
0.17256850646595
40
0.20708220775914
40
0.20708220775914
40
0.241595909052329
40
0.241595909052329
40
0.276109610345518
40
0.276109610345518
40
0.345137012931899
40
0.345137012931899
40
0.414164415518281
40
0.414164415518281
40
0.448678116811471
40
0.448678116811471
40
0.483191818104662
40
0.483191818104662
40
0.55221922069104
40
0.55221922069104
40
0.621246623277419
40
0.621246623277419
40
0.655760324570608
40
0.655760324570608
40
0.690274025863797
40
0.690274025863797
40
0.724787727156987
40
0.724787727156987
40
0.759301428450176
40
0.759301428450176
40
0.828328831036557
40
0.828328831036557
40
0.897356233622938
40
0.897356233622938
40
0.96638363620932
40
0.96638363620932
40
1
40
1
40
1
40
1
41
1
10
21.5446723842255
20
-0.943745095778127
30
0
41
1
10
21.8135420098959
20
-1.07579784059823
30
0
41
1
10
22.0825485929277
20
-1.20555796453169
30
0
41
1
10
22.6208590286027
20
-1.46056358982244
30
0
41
1
10
22.8901630775308
20
-1.58580722252083
30
0
41
1
10
23.2944569837634
20
-1.77008839154294
30
0
41
1
10
23.429325335687
20
-1.83093998318799
30
0
41
1
10
23.6989662361074
20
-1.95131467368199
30
0
41
1
10
23.8336621029388
20
-2.01079894336493
30
0
41
1
10
24.1028130254172
20
-2.12834539902522
30
0
41
1
10
24.2372516721568
20
-2.18643661292779
30
0
41
1
10
24.5058934722448
20
-2.30117364664787
30
0
41
1
10
24.640132551961
20
-2.35775542013275
30
0
41
1
10
25.0429671445676
20
-2.52453677728249
30
0
41
1
10
25.3115907960822
20
-2.63193392649168
30
0
41
1
10
25.8491229314416
20
-2.83896071358115
30
0
41
1
10
26.1180295913803
20
-2.93859315785116
30
0
41
1
10
26.5217204889725
20
-3.0819763368898
30
0
41
1
10
26.6563672877155
20
-3.12879313040446
30
0
41
1
10
26.9255931668115
20
-3.22030530561432
30
0
41
1
10
27.060066339058
20
-3.26489920835323
30
0
41
1
10
27.4634976009366
20
-3.39465470420922
30
0
41
1
10
27.7323622806489
20
-3.47595185030613
30
0
41
1
10
28.2699042741095
20
-3.62831688720249
30
0
41
1
10
28.5385831551005
20
-3.69937925977069
30
0
41
1
10
28.9415544023462
20
-3.79814190270315
30
0
41
1
10
29.0758652252439
20
-3.82976086560097
30
0
41
1
10
29.3444972625516
20
-3.89033135960852
30
0
41
1
10
29.4788428114917
20
-3.9192580513504
30
0
41
1
10
29.7478337999017
20
-3.97418377052074
30
0
41
1
10
29.8824934697044
20
-4.00020935811759
30
0
41
1
10
30.1518955505488
20
-4.04936625104943
30
0
41
1
10
30.2864765231855
20
-4.07247185331545
30
0
41
1
10
30.6898314803792
20
-4.13738819713902
30
0
41
1
10
30.9582443487174
20
-4.17475136771063
30
0
41
1
10
31.4953367959692
20
-4.23706850485095
30
0
41
1
10
31.7639724673451
20
-4.26208130993473
30
0
41
1
10
32.3014091686129
20
-4.29990330090754
30
0
41
1
10
32.5702076359889
20
-4.31270785709495
30
0
41
1
10
32.9701579747498
20
-4.32250007088729
30
0
41
1
10
33.1012145788052
20
-4.32422893774884
30
0
41
1
10
33.2323089419892
20
-4.32446262348594
30
0
0
SPLINE
5
F3
100
AcDbEntity
8
1
62
256
6
ByLayer
370
18
48
1
60
0
100
AcDbSpline
70
4
71
3
72
161
73
157
40
0
40
0
40
0
40
0
40
0.0088021621719639
40
0.0088021621719639
40
0.0184325480279862
40
0.0184325480279862
40
0.03769331974003
40
0.03769331974003
40
0.0569540914520737
40
0.0569540914520737
40
0.0665844773080956
40
0.0665844773080956
40
0.0762148631641175
40
0.0762148631641175
40
0.0954756348761612
40
0.0954756348761612
40
0.114736406588205
40
0.114736406588205
40
0.124366792444227
40
0.124366792444227
40
0.13399717830025
40
0.13399717830025
40
0.153257950012296
40
0.153257950012296
40
0.172518721724341
40
0.172518721724341
40
0.182149107580365
40
0.182149107580365
40
0.186964300508377
40
0.186964300508377
40
0.191779493436388
40
0.211040265148432
40
0.211040265148432
40
0.220670651004454
40
0.220670651004454
40
0.230301036860476
40
0.230301036860476
40
0.239931422716498
40
0.239931422716498
40
0.249561808572519
40
0.249561808572519
40
0.268822580284564
40
0.268822580284564
40
0.278452966140587
40
0.278452966140587
40
0.28808335199661
40
0.28808335199661
40
0.307344123708656
40
0.307344123708656
40
0.326604895420702
40
0.326604895420702
40
0.336235281276724
40
0.336235281276724
40
0.345865667132747
40
0.345865667132747
40
0.365126438844793
40
0.365126438844793
40
0.374756824700816
40
0.374756824700816
40
0.379572017628827
40
0.379572017628827
40
0.384387210556839
40
0.384387210556839
40
0.394017596412862
40
0.394017596412862
40
0.403647982268885
40
0.403647982268885
40
0.422908753980932
40
0.422908753980932
40
0.442169525692978
40
0.442169525692978
40
0.451799911549002
40
0.451799911549002
40
0.461430297405025
40
0.461430297405025
40
0.480691069117072
40
0.480691069117072
40
0.499951840829118
40
0.499951840829118
40
0.509582226685142
40
0.509582226685142
40
0.519212612541164
40
0.519212612541164
40
0.538473384253209
40
0.538473384253209
40
0.548103770109232
40
0.548103770109232
40
0.557734155965255
40
0.557734155965255
40
0.567364541821278
40
0.567364541821278
40
0.576994927677301
40
0.576994927677301
40
0.586625313533323
40
0.586625313533323
40
0.596255699389346
40
0.596255699389346
40
0.615516471101392
40
0.615516471101392
40
0.634777242813437
40
0.634777242813437
40
0.654038014525482
40
0.654038014525482
40
0.663668400381505
40
0.663668400381505
40
0.673298786237527
40
0.673298786237527
40
0.692559557949573
40
0.692559557949573
40
0.711820329661619
40
0.711820329661619
40
0.721450715517642
40
0.721450715517642
40
0.731081101373664
40
0.731081101373664
40
0.75034187308571
40
0.75034187308571
40
0.769602644797755
40
0.769602644797755
40
0.779233030653778
40
0.779233030653778
40
0.7888634165098
40
0.7888634165098
40
0.808124188221845
40
0.808124188221845
40
0.817754574077867
40
0.817754574077867
40
0.827384959933889
40
0.827384959933889
40
0.837015345789912
40
0.837015345789912
40
0.846645731645934
40
0.846645731645934
40
0.865906503357978
40
0.865906503357978
40
0.875536889214
40
0.875536889214
40
0.885167275070022
40
0.885167275070022
40
0.894797660926044
40
0.894797660926044
40
0.904428046782067
40
0.904428046782067
40
0.923688818494111
40
0.923688818494111
40
0.933319204350133
40
0.933319204350133
40
0.942949590206156
40
0.942949590206156
40
0.9622103619182
40
0.9622103619182
40
0.971840747774223
40
0.971840747774223
40
0.981471133630246
40
0.981471133630246
40
1
40
1
40
1
40
1
41
1
10
40.9262935255075
20
-3.18569986913562
30
0
41
1
10
40.8272028785811
20
-3.21928274987181
30
0
41
1
10
40.7282138126792
20
-3.25218074474623
30
0
41
1
10
40.5211592225363
20
-3.31968624158057
30
0
41
1
10
40.4131582239862
20
-3.35422109829443
30
0
41
1
10
40.0895843360509
20
-3.45546626506629
30
0
41
1
10
39.874298979204
20
-3.51962763372089
30
0
41
1
10
39.4441920696985
20
-3.64089740538216
30
0
41
1
10
39.2293555964048
20
-3.69799405171941
30
0
41
1
10
38.9073077470504
20
-3.77828687012601
30
0
41
1
10
38.7999851288688
20
-3.804152411133
30
0
41
1
10
38.5855159451966
20
-3.8542053062518
30
0
41
1
10
38.4783922800932
20
-3.87841068780941
30
0
41
1
10
38.1570284825199
20
-3.9482464366609
30
0
41
1
10
37.9428391719792
20
-3.99114092143404
30
0
41
1
10
37.5142065669987
20
-4.06935511592101
30
0
41
1
10
37.2997420130901
20
-4.1046655652018
30
0
41
1
10
36.9777696464938
20
-4.15192444687847
30
0
41
1
10
36.8704059786884
20
-4.16673113596545
30
0
41
1
10
36.655725349975
20
-4.19450254735102
30
0
41
1
10
36.5483663040707
20
-4.20744136159431
30
0
41
1
10
36.2260194302869
20
-4.24329432978399
30
0
41
1
10
36.010808119374
20
-4.26326892294466
30
0
41
1
10
35.5794075758572
20
-4.29520688365119
30
0
41
1
10
35.3631902772042
20
-4.3071717540987
30
0
41
1
10
35.0381367625796
20
-4.31907923499088
30
0
41
1
10
34.9297141687181
20
-4.32204754501481
30
0
41
1
10
34.7669090361271
20
-4.32496283906067
30
0
41
1
10
34.7125794699436
20
-4.32567801892569
30
0
41
1
10
34.6039968884898
20
-4.32659143804034
30
0
41
1
10
34.3327214002786
20
-4.32758530935885
30
0
41
1
10
34.0622620110981
20
-4.32215402885814
30
0
41
1
10
33.73823188583
20
-4.30962342839337
30
0
41
1
10
33.6303101809512
20
-4.30444524169502
30
0
41
1
10
33.4146436515367
20
-4.29210420526212
30
0
41
1
10
33.3068854320488
20
-4.28494613633419
30
0
41
1
10
33.0916537551659
20
-4.26861865042648
30
0
41
1
10
32.9841929798705
20
-4.25944094900444
30
0
41
1
10
32.7693657166301
20
-4.2391278052398
30
0
41
1
10
32.6620133014126
20
-4.22798908356194
30
0
41
1
10
32.3400687919194
20
-4.19167183902258
30
0
41
1
10
32.1255806508373
20
-4.16359550527739
30
0
41
1
10
31.8038410815595
20
-4.11587364294263
30
0
41
1
10
31.6965986643946
20
-4.09902937540701
30
0
41
1
10
31.4821248873731
20
-4.06347079672381
30
0
41
1
10
31.3749046174767
20
-4.04475024474991
30
0
41
1
10
31.0534502285303
20
-3.98562669690648
30
0
41
1
10
30.8391874011992
20
-3.94242197475592
30
0
41
1
10
30.4101769020155
20
-3.84888818016179
30
0
41
1
10
30.1954455274005
20
-3.79855278102218
30
0
41
1
10
29.8728421729592
20
-3.7178754394948
30
0
41
1
10
29.7652234164906
20
-3.69012148548518
30
0
41
1
10
29.5498629810671
20
-3.63283390556899
30
0
41
1
10
29.4421665322122
20
-3.60324843288899
30
0
41
1
10
29.1188722863205
20
-3.51180018106038
30
0
41
1
10
28.9029521016527
20
-3.44738394678294
30
0
41
1
10
28.5781983078521
20
-3.34590193763592
30
0
41
1
10
28.4698026571092
20
-3.31126425553401
30
0
41
1
10
28.3069621488561
20
-3.25813059344952
30
0
41
1
10
28.2526411886896
20
-3.24022271119966
30
0
41
1
10
28.1439177498444
20
-3.20401262208219
30
0
41
1
10
28.0895077205294
20
-3.18570765747984
30
0
41
1
10
27.9264564534814
20
-3.130302115718
30
0
41
1
10
27.8178820925113
20
-3.09269982841624
30
0
41
1
10
27.6011285457876
20
-3.01595108369736
30
0
41
1
10
27.4929528440265
20
-2.97679706491923
30
0
41
1
10
27.1687151570789
20
-2.85748527682213
30
0
41
1
10
26.9530004406171
20
-2.77538967651569
30
0
41
1
10
26.522090624678
20
-2.60674645312199
30
0
41
1
10
26.3068734670577
20
-2.52023881108343
30
0
41
1
10
25.9843697432158
20
-2.38729620810164
30
0
41
1
10
25.8769455020094
20
-2.34241187112457
30
0
41
1
10
25.6623225767998
20
-2.25137227047136
30
0
41
1
10
25.5550757754342
20
-2.20530009622766
30
0
41
1
10
25.2333664514297
20
-2.06571574213277
30
0
41
1
10
25.0189662394984
20
-1.97078050032155
30
0
41
1
10
24.5899646418297
20
-1.77781247668207
30
0
41
1
10
24.3753294764372
20
-1.67984761536624
30
0
41
1
10
24.0532883654635
20
-1.53047119610338
30
0
41
1
10
23.9459831552205
20
-1.48016427383038
30
0
41
1
10
23.7313171883513
20
-1.37877881748662
30
0
41
1
10
23.6239359537563
20
-1.32774069868168
30
0
41
1
10
23.3015782616383
20
-1.17372451331622
30
0
41
1
10
23.0863821380671
20
-1.06985500001875
30
0
41
1
10
22.7629047405615
20
-0.912761181830916
30
0
41
1
10
22.6549676066141
20
-0.860176955732101
30
0
41
1
10
22.4388730377216
20
-0.754562511525364
30
0
41
1
10
22.3307023756912
20
-0.701560810896297
30
0
41
1
10
22.1142647460642
20
-0.594840406584268
30
0
41
1
10
22.0059926967615
20
-0.541130305025064
30
0
41
1
10
21.7891351657178
20
-0.433442000611365
30
0
41
1
10
21.6805655398533
20
-0.379430510843917
30
0
41
1
10
21.4630959204794
20
-0.271173715289251
30
0
41
1
10
21.3543824014595
20
-0.217022953887749
30
0
41
1
10
21.1372972040757
20
-0.108933005868749
30
0
41
1
10
21.0288690597478
20
-0.0549731168501069
30
0
41
1
10
20.7038955681898
20
0.106592867227391
30
0
41
1
10
20.4876251190313
20
0.213813401670251
30
0
41
1
10
20.0563589905734
20
0.428389277521489
30
0
41
1
10
19.8411303736231
20
0.535243507387065
30
0
41
1
10
19.4110021269488
20
0.747111784288222
30
0
41
1
10
19.1961025065736
20
0.852128201404781
30
0
41
1
10
18.8738549470551
20
1.00800738917923
30
0
41
1
10
18.7664519740899
20
1.05968499002219
30
0
41
1
10
18.5517544032598
20
1.162641488471
30
0
41
1
10
18.4445048539044
20
1.21400913478857
30
0
41
1
10
18.1227835164679
20
1.3672361197701
30
0
41
1
10
17.9083067039994
20
1.46815706245047
30
0
41
1
10
17.4789938300832
20
1.66683458955811
30
0
41
1
10
17.2641365949644
20
1.76455258005197
30
0
41
1
10
16.9414735514717
20
1.90856151907488
30
0
41
1
10
16.8338492895709
20
1.95612382514284
30
0
41
1
10
16.6186222036642
20
2.05066067810088
30
0
41
1
10
16.5110002045142
20
2.09759831077435
30
0
41
1
10
16.187818678057
20
2.23687759087181
30
0
41
1
10
15.9720042207945
20
2.32779774043328
30
0
41
1
10
15.5392964245857
20
2.50511703651307
30
0
41
1
10
15.322379573561
20
2.59147755876307
30
0
41
1
10
14.9961556489513
20
2.71754737668013
30
0
41
1
10
14.8872190771613
20
2.75908971252508
30
0
41
1
10
14.6698555001371
20
2.84086798840863
30
0
41
1
10
14.5613293035038
20
2.88104818976555
30
0
41
1
10
14.2360972240688
20
2.99928794168164
30
0
41
1
10
14.0197527318683
20
3.07507016536272
30
0
41
1
10
13.6956849638499
20
3.18388858659671
30
0
41
1
10
13.5877363235359
20
3.21935206039262
30
0
41
1
10
13.3719880614196
20
3.28867875855923
30
0
41
1
10
13.2641763983353
20
3.32252656503113
30
0
41
1
10
13.0487823575391
20
3.38873411882668
30
0
41
1
10
12.9412382812204
20
3.42114030328963
30
0
41
1
10
12.7262455885621
20
3.48427975406315
30
0
41
1
10
12.6188003387708
20
3.51501912001001
30
0
41
1
10
12.296548042127
20
3.60467450564354
30
0
41
1
10
12.0818167195221
20
3.66101751604552
30
0
41
1
10
11.7596404183923
20
3.74019664558955
30
0
41
1
10
11.6522395381319
20
3.76570593060887
30
0
41
1
10
11.4374243206628
20
3.81496641084522
30
0
41
1
10
11.3300045464532
20
3.83871408817055
30
0
41
1
10
11.1152973103984
20
3.88457406384114
30
0
41
1
10
11.007975184176
20
3.90665154445151
30
0
41
1
10
10.7932230911159
20
3.94894611390919
30
0
41
1
10
10.6858082461687
20
3.96917712598079
30
0
41
1
10
10.3633745580142
20
4.02706495346035
30
0
41
1
10
10.1481556892466
20
4.06190847542951
30
0
41
1
10
9.82474690976093
20
4.10843746110103
30
0
41
1
10
9.71685066684915
20
4.12299401336026
30
0
41
1
10
9.50089551939723
20
4.150208603978
30
0
41
1
10
9.39287570976717
20
4.16288756533601
30
0
41
1
10
9.06865046073116
20
4.19807236855243
30
0
41
1
10
8.85210045915127
20
4.2176338398026
30
0
41
1
10
8.52630233923304
20
4.24093653719649
30
0
41
1
10
8.41754790636446
20
4.24770174637217
30
0
41
1
10
8.19971336295356
20
4.2592152941393
30
0
41
1
10
8.09079995422201
20
4.26395430892373
30
0
41
1
10
7.77252173986531
20
4.27484165433825
30
0
41
1
10
7.56329698097403
20
4.2782532440464
30
0
41
1
10
7.35419772560581
20
4.27788202836291
30
0
0
SPLINE
5
F4
100
AcDbEntity
8
1
62
256
6
ByLayer
370
18
48
1
60
0
100
AcDbSpline
70
4
71
3
72
34
73
30
40
0
40
0
40
0
40
0
40
0.009982627606622
40
0.009982627606622
40
0.0649835927395886
40
0.0649835927395886
40
0.119984557872555
40
0.119984557872555
40
0.229986488138486
40
0.229986488138486
40
0.339988418404417
40
0.339988418404417
40
0.394989383537382
40
0.394989383537382
40
0.449990348670348
40
0.449990348670348
40
0.559992278936279
40
0.559992278936279
40
0.669994209202209
40
0.669994209202209
40
0.77999613946814
40
0.77999613946814
40
0.889998069734071
40
0.889998069734071
40
0.917498552300553
40
0.917498552300553
40
0.944999034867036
40
0.944999034867036
40
1
40
1
40
1
40
1
41
1
10
13.6600731096005
20
3.19773735587771
30
0
41
1
10
13.6859328238045
20
3.20632136759315
30
0
41
1
10
13.7117997091752
20
3.21486449501427
30
0
41
1
10
13.8802331139146
20
3.27020817234291
30
0
41
1
10
14.0230138118816
20
3.31580285579094
30
0
41
1
10
14.3090646498883
20
3.40441457016564
30
0
41
1
10
14.45192062404
20
3.44730195216445
30
0
41
1
10
14.8796952953846
20
3.57148264754605
30
0
41
1
10
15.1639486322838
20
3.64840054355332
30
0
41
1
10
15.7312803714199
20
3.78990076455392
30
0
41
1
10
16.0143676961586
20
3.85448237250898
30
0
41
1
10
16.4384479123099
20
3.94189960915617
30
0
41
1
10
16.5797264205289
20
3.96945404590153
30
0
41
1
10
16.862147103392
20
4.02137774764762
30
0
41
1
10
17.0032857451308
20
4.04574809608698
30
0
41
1
10
17.4266741685976
20
4.11395481541095
30
0
41
1
10
17.7088900143093
20
4.1528976259315
30
0
41
1
10
18.2736496667237
20
4.21748259673109
30
0
41
1
10
18.5562038229356
20
4.24311819493261
30
0
41
1
10
19.1221342376869
20
4.28077875961534
30
0
41
1
10
19.4055805176388
20
4.29278524430015
30
0
41
1
10
19.9738989109723
20
4.30291595829229
30
0
41
1
10
20.2587788932839
20
4.30104140668908
30
0
41
1
10
20.6160515343759
20
4.28985107385989
30
0
41
1
10
20.6875213340175
20
4.28717172151161
30
0
41
1
10
20.8302699817532
20
4.28094446831199
30
0
41
1
10
20.9015831121533
20
4.2773954904973
30
0
41
1
10
21.1153537939734
20
4.26545277165351
30
0
41
1
10
21.2576448210398
20
4.25576413629989
30
0
41
1
10
21.3997374727195
20
4.24437181891551
30
0
0
SPLINE
5
F5
100
AcDbEntity
8
1
62
256
6
ByLayer
370
18
48
1
60
0
100
AcDbSpline
70
4
71
3
72
70
73
66
40
0
40
0
40
0
40
0
40
0.0156250000000007
40
0.0156250000000007
40
0.0312500000000013
40
0.0312500000000013
40
0.0625000000000027
40
0.0937500000000041
40
0.0937500000000041
40
0.109375000000004
40
0.109375000000004
40
0.125000000000004
40
0.125000000000004
40
0.187500000000004
40
0.187500000000004
40
0.218750000000004
40
0.218750000000004
40
0.234375000000003
40
0.234375000000003
40
0.250000000000003
40
0.250000000000003
40
0.312500000000006
40
0.312500000000006
40
0.343750000000007
40
0.343750000000007
40
0.359375000000008
40
0.359375000000008
40
0.375000000000009
40
0.375000000000009
40
0.437500000000011
40
0.437500000000011
40
0.468750000000013
40
0.468750000000013
40
0.476562500000013
40
0.476562500000013
40
0.484375000000014
40
0.500000000000015
40
0.500000000000015
40
0.562500000000018
40
0.562500000000018
40
0.625000000000021
40
0.625000000000021
40
0.687500000000023
40
0.687500000000023
40
0.718750000000024
40
0.718750000000024
40
0.726562500000024
40
0.726562500000024
40
0.734375000000023
40
0.734375000000023
40
0.750000000000021
40
0.750000000000021
40
0.812500000000014
40
0.812500000000014
40
0.843750000000009
40
0.843750000000009
40
0.851562500000009
40
0.851562500000009
40
0.859375000000008
40
0.859375000000008
40
0.875000000000007
40
0.875000000000007
40
0.937500000000004
40
0.937500000000004
40
1
40
1
40
1
40
1
41
1
10
21.399737472729
20
4.25835503840858
30
0
41
1
10
21.5355638537339
20
4.24889433660235
30
0
41
1
10
21.6713731144464
20
4.23786580444576
30
0
41
1
10
21.9430141051542
20
4.21269087282687
30
0
41
1
10
22.0788805654712
20
4.19854021309527
30
0
41
1
10
22.4862998594838
20
4.1514761709887
30
0
41
1
10
23.0290115822705
20
4.07643636453463
30
0
41
1
10
23.5716393606099
20
3.97738709900347
30
0
41
1
10
23.9789487228951
20
3.89434201956539
30
0
41
1
10
24.1147956867816
20
3.86519496074592
30
0
41
1
10
24.3861695223237
20
3.80414503729418
30
0
41
1
10
24.5217568784543
20
3.77223048713478
30
0
41
1
10
25.1993510833734
20
3.60588633264044
30
0
41
1
10
25.7403181298083
20
3.45113149141028
30
0
41
1
10
26.5527392176166
20
3.1895507639646
30
0
41
1
10
26.8237132553124
20
3.09745492593402
30
0
41
1
10
27.2307913324095
20
2.95240557462282
30
0
41
1
10
27.3666116783089
20
2.90289482180498
30
0
41
1
10
27.6378974453141
20
2.80189027744197
30
0
41
1
10
27.7734391256781
20
2.75036993487245
30
0
41
1
10
28.4507974661303
20
2.48793677497443
30
0
41
1
10
28.9916022878386
20
2.2625875139104
30
0
41
1
10
29.8039098927056
20
1.90610369182707
30
0
41
1
10
30.0748489493733
20
1.78417576444852
30
0
41
1
10
30.4818495153905
20
1.59720805150874
30
0
41
1
10
30.6176325049195
20
1.53419826954507
30
0
41
1
10
30.8888311237606
20
1.40722391796433
30
0
41
1
10
31.0243242843729
20
1.3432240641124
30
0
41
1
10
31.7014153149191
20
1.02096619392458
30
0
41
1
10
32.241885628791
20
0.755919297993898
30
0
41
1
10
33.0538755437852
20
0.353596741736737
30
0
41
1
10
33.3247600985363
20
0.218713348971164
30
0
41
1
10
33.6639242726197
20
0.0497038205416231
30
0
41
1
10
33.7318135798207
20
0.0158659856203087
30
0
41
1
10
33.8674863521982
20
-0.0517572401930408
30
0
41
1
10
34.0708233854506
20
-0.153106635531856
30
0
41
1
10
34.2736726228783
20
-0.254143808060263
30
0
41
1
10
34.9488844727267
20
-0.589980710617112
30
0
41
1
10
35.4859898594535
20
-0.855628500960506
30
0
41
1
10
36.5577381534847
20
-1.37363776469428
30
0
41
1
10
37.0923949178141
20
-1.62596576814431
30
0
41
1
10
38.1631595723585
20
-2.10981849219454
30
0
41
1
10
38.6992635685256
20
-2.34136260705097
30
0
41
1
10
39.5070499954391
20
-2.66830467019062
30
0
41
1
10
39.7769224843581
20
-2.77387994414127
30
0
41
1
10
40.1153276484852
20
-2.9010342492272
30
0
41
1
10
40.1830619858892
20
-2.92622427150317
30
0
41
1
10
40.3186450924668
20
-2.97610834870943
30
0
41
1
10
40.3864773793185
20
-3.0007960659901
30
0
41
1
10
40.5898096862473
20
-3.07397087288229
30
0
41
1
10
40.7252557108886
20
-3.12161038348259
30
0
41
1
10
41.4020993738966
20
-3.35389226428322
30
0
41
1
10
41.9423499039269
20
-3.52077113237058
30
0
41
1
10
42.7535607153241
20
-3.73945339477064
30
0
41
1
10
43.0241063698817
20
-3.80707114385146
30
0
41
1
10
43.3627660495586
20
-3.88464894555867
30
0
41
1
10
43.4305219111788
20
-3.89981729407793
30
0
41
1
10
43.5660891467423
20
-3.92945091075316
30
0
41
1
10
43.633901607553
20
-3.9439160911067
30
0
41
1
10
43.8371631734564
20
-3.98618970434151
30
0
41
1
10
43.9725266578606
20
-4.01289617419738
30
0
41
1
10
44.6487757057191
20
-4.13896775200763
30
0
41
1
10
45.1879729337242
20
-4.21592880899607
30
0
41
1
10
46.2664643659961
20
-4.32035917707242
30
0
41
1
10
46.805731715293
20
-4.34782984833907
30
0
41
1
10
47.3469495429751
20
-4.34983750859277
30
0
0
SPLINE
5
F6
100
AcDbEntity
8
1
62
256
6
ByLayer
370
18
48
1
60
0
100
AcDbSpline
70
4
71
3
72
10
73
6
40
0
40
0
40
0
40
0
40
0.5
40
0.5
40
1
40
1
40
1
40
1
41
1
10
47.3192891657394
20
-4.32196979112774
30
0
41
1
10
47.3238874096088
20
-4.33093231047414
30
0
41
1
10
47.3284905132464
20
-4.33774243989345
30
0
41
1
10
47.3377159989582
20
-4.34704347510271
30
0
41
1
10
47.3423388148822
20
-4.34952758759223
30
0
41
1
10
47.3469495429724
20
-4.34983750859277
30
0
0
SPLINE
5
F7
100
AcDbEntity
8
1
62
256
6
ByLayer
370
18
48
1
60
0
100
AcDbSpline
70
4
71
3
72
71
73
67
40
0
40
0
40
0
40
0
40
0.0624999999999962
40
0.0624999999999962
40
0.0781249999999953
40
0.0781249999999953
40
0.0937499999999943
40
0.0937499999999943
40
0.124999999999993
40
0.124999999999993
40
0.187499999999989
40
0.187499999999989
40
0.203124999999988
40
0.203124999999988
40
0.218749999999987
40
0.249999999999985
40
0.249999999999985
40
0.281249999999983
40
0.281249999999983
40
0.312499999999981
40
0.312499999999981
40
0.32812499999998
40
0.32812499999998
40
0.343749999999979
40
0.343749999999979
40
0.374999999999979
40
0.374999999999979
40
0.406249999999978
40
0.406249999999978
40
0.437499999999977
40
0.437499999999977
40
0.453124999999978
40
0.453124999999978
40
0.468749999999978
40
0.499999999999979
40
0.499999999999979
40
0.531249999999979
40
0.531249999999979
40
0.56249999999998
40
0.56249999999998
40
0.578124999999981
40
0.578124999999981
40
0.593749999999982
40
0.624999999999984
40
0.624999999999984
40
0.687499999999986
40
0.687499999999986
40
0.703124999999987
40
0.703124999999987
40
0.718749999999987
40
0.718749999999987
40
0.749999999999989
40
0.749999999999989
40
0.812499999999991
40
0.812499999999991
40
0.820312499999992
40
0.820312499999992
40
0.828124999999992
40
0.843749999999993
40
0.874999999999994
40
0.874999999999994
40
0.906249999999995
40
0.906249999999995
40
0.937499999999996
40
0.937499999999996
40
1
40
1
40
1
40
1
41
1
10
47.3192891657521
20
-4.32196979112766
30
0
41
1
10
46.7801400508851
20
-4.29036557042636
30
0
41
1
10
46.2415982125936
20
-4.23365988859774
30
0
41
1
10
45.566947130383
20
-4.1324532991616
30
0
41
1
10
45.431968779423
20
-4.11069562562275
30
0
41
1
10
45.1623517202735
20
-4.06424978088964
30
0
41
1
10
45.0276462933451
20
-4.03955439160796
30
0
41
1
10
44.6237221103815
20
-3.96114995049982
30
0
41
1
10
44.3546913519967
20
-3.90312593822466
30
0
41
1
10
43.5476328057509
20
-3.71248926048847
30
0
41
1
10
43.00977429191
20
-3.56316144984507
30
0
41
1
10
42.3351547307696
20
-3.35125603448765
30
0
41
1
10
42.2001490296588
20
-3.3076206033854
30
0
41
1
10
41.9304712850512
20
-3.21810496202272
30
0
41
1
10
41.5262291521615
20
-3.08039302156359
30
0
41
1
10
41.1225369479828
20
-2.93278070171218
30
0
41
1
10
40.5843197636751
20
-2.72785831998433
30
0
41
1
10
40.315293190405
20
-2.62124584657332
30
0
41
1
10
39.776788989684
20
-2.40066431809467
30
0
41
1
10
39.50729166812
20
-2.28673167097736
30
0
41
1
10
39.1023689596116
20
-2.11086671100651
30
0
41
1
10
38.9673251903065
20
-2.05143682194952
30
0
41
1
10
38.6975657457393
20
-1.93129978020124
30
0
41
1
10
38.5627767456496
20
-1.87056141334077
30
0
41
1
10
38.1585981639711
20
-1.68649559524547
30
0
41
1
10
37.8894410589689
20
-1.56123540984501
30
0
41
1
10
37.3511675813921
20
-1.30665013588992
30
0
41
1
10
37.0820333367359
20
-1.17736040218966
30
0
41
1
10
36.5433676017393
20
-0.915556776570781
30
0
41
1
10
36.2738322685003
20
-0.783049144341476
30
0
41
1
10
35.868827592036
20
-0.582650752115711
30
0
41
1
10
35.7337669830181
20
-0.51560599345251
30
0
41
1
10
35.4639630849764
20
-0.381386107401965
30
0
41
1
10
35.0595230682563
20
-0.179756377205081
30
0
41
1
10
34.6556188868379
20
0.022246689858946
30
0
41
1
10
34.1170997435914
20
0.290998345172227
30
0
41
1
10
33.8478528987526
20
0.425087152191736
30
0
41
1
10
33.3090192194493
20
0.691955248763946
30
0
41
1
10
33.0394278713317
20
0.824725092472505
30
0
41
1
10
32.6343086679415
20
1.02194061636717
30
0
41
1
10
32.4992191260131
20
1.08732215214178
30
0
41
1
10
32.2293433951529
20
1.21704981365079
30
0
41
1
10
31.8247859509216
20
1.41018541766164
30
0
41
1
10
31.4207536732417
20
1.5985075060095
30
0
41
1
10
30.6127501724037
20
1.9675588051926
30
0
41
1
10
30.0742051368221
20
2.20353848105813
30
0
41
1
10
29.3987786916572
20
2.48156595197347
30
0
41
1
10
29.2636705963663
20
2.536293353764
30
0
41
1
10
28.9937446002448
20
2.64369516058679
30
0
41
1
10
28.8588655730323
20
2.69639673351745
30
0
41
1
10
28.4544173130277
20
2.85141690135975
30
0
41
1
10
28.1850342125078
20
2.9506445939204
30
0
41
1
10
27.3768745922181
20
3.23489212183099
30
0
41
1
10
26.8381608144072
20
3.40657609411028
30
0
41
1
10
26.2300738043457
20
3.57678494797932
30
0
41
1
10
26.1624831411296
20
3.59537878329851
30
0
41
1
10
26.0274309662121
20
3.6318692806309
30
0
41
1
10
25.824974308787
20
3.68557979510666
30
0
41
1
10
25.353335578815
20
3.80365237125417
30
0
41
1
10
24.9500805489894
20
3.89221204003812
30
0
41
1
10
24.4129081661055
20
3.99879900219136
30
0
41
1
10
24.1445504091673
20
4.04632732743997
30
0
41
1
10
23.6078805423025
20
4.12959197160555
30
0
41
1
10
23.3395945742449
20
4.16533973571427
30
0
41
1
10
22.5339982239146
20
4.25440291333896
30
0
41
1
10
21.995938807619
20
4.28956169680327
30
0
41
1
10
21.4552310261452
20
4.29963032464229
30
0
0
SPLINE
5
F8
100
AcDbEntity
8
1
62
256
6
ByLayer
370
18
48
1
60
0
100
AcDbSpline
70
4
71
3
72
16
73
12
40
0
40
0
40
0
40
0
40
0.249999999999896
40
0.249999999999896
40
0.374999999999913
40
0.374999999999913
40
0.49999999999993
40
0.49999999999993
40
0.749999999999965
40
0.749999999999965
40
1
40
1
40
1
40
1
41
1
10
21.4552310261452
20
4.29963032464229
30
0
41
1
10
21.4468774908794
20
4.29978587749471
30
0
41
1
10
21.439289030072
20
4.2999802670368
30
0
41
1
10
21.4290253187191
20
4.30031164075805
30
0
41
1
10
21.4257843867977
20
4.30042938292132
30
0
41
1
10
21.4198825619132
20
4.30066824741246
30
0
41
1
10
21.4171946952138
20
4.3007901416014
30
0
41
1
10
21.4099133954446
20
4.30115881399075
30
0
41
1
10
21.4060983622755
20
4.30141020339397
30
0
41
1
10
21.4010521913674
20
4.30187266474195
30
0
41
1
10
21.3997374727289
20
4.30208943320059
30
0
41
1
10
21.3997374727289
20
4.3022786508501
30
0
0
SPLINE
5
F9
100
AcDbEntity
8
1
62
256
6
ByLayer
370
18
48
1
60
0
100
AcDbSpline
70
4
71
3
72
62
73
58
40
0
40
0
40
0
40
0
40
0.0158206824039173
40
0.0158206824039173
40
0.0650296482837227
40
0.0650296482837227
40
0.114238614163528
40
0.114238614163528
40
0.138843097103431
40
0.138843097103431
40
0.163447580043334
40
0.163447580043334
40
0.212656545923137
40
0.212656545923137
40
0.26186551180294
40
0.26186551180294
40
0.311074477682744
40
0.311074477682744
40
0.335678960622645
40
0.335678960622645
40
0.360283443562547
40
0.360283443562547
40
0.409492409442352
40
0.409492409442352
40
0.434096892382256
40
0.434096892382256
40
0.45870137532216
40
0.45870137532216
40
0.507910341201967
40
0.507910341201967
40
0.53251482414187
40
0.53251482414187
40
0.557119307081772
40
0.557119307081772
40
0.581723790021675
40
0.581723790021675
40
0.606328272961578
40
0.606328272961578
40
0.655537238841381
40
0.655537238841381
40
0.704746204721185
40
0.704746204721185
40
0.729350687661085
40
0.729350687661085
40
0.753955170600986
40
0.753955170600986
40
0.778559653540886
40
0.778559653540886
40
0.803164136480787
40
0.803164136480787
40
0.85237310236059
40
0.85237310236059
40
0.901582068240393
40
0.901582068240393
40
0.950791034120197
40
0.950791034120197
40
1
40
1
40
1
40
1
41
1
10
30.9677983642331
20
4.1739431762546
30
0
41
1
10
31.0541291358342
20
4.18523365523734
30
0
41
1
10
31.1404529621376
20
4.19589245656556
30
0
41
1
10
31.4953367959692
20
4.23706850485095
30
0
41
1
10
31.7639724673451
20
4.26208130993476
30
0
41
1
10
32.3014091686129
20
4.29990330090754
30
0
41
1
10
32.570207635989
20
4.31270785709495
30
0
41
1
10
32.9736544407388
20
4.32258567687171
30
0
41
1
10
33.1082113411238
20
4.32432018343931
30
0
41
1
10
33.3774028861692
20
4.32463609791589
30
0
41
1
10
33.5118604129357
20
4.32321808041911
30
0
41
1
10
33.9149441839129
20
4.31424893830493
30
0
41
1
10
34.1832971368472
20
4.30196872580234
30
0
41
1
10
34.7202662194285
20
4.26517933097145
30
0
41
1
10
34.9888462883449
20
4.24069177746901
30
0
41
1
10
35.5261511795788
20
4.1795958734738
30
0
41
1
10
35.7948737506579
20
4.1429812323544
30
0
41
1
10
36.1981658480876
20
4.07885664047558
30
0
41
1
10
36.332663576316
20
4.05594424978264
30
0
41
1
10
36.6017937825101
20
4.00715479786541
30
0
41
1
10
36.7362459174387
20
3.98131173235205
30
0
41
1
10
37.1394638308406
20
3.89962876109965
30
0
41
1
10
37.4080580519755
20
3.83963017143407
30
0
41
1
10
37.8104369636479
20
3.74114889407167
30
0
41
1
10
37.9444884027696
20
3.70691092235106
30
0
41
1
10
38.2127122249105
20
3.63589611570723
30
0
41
1
10
38.3468795797418
20
3.59911716785067
30
0
41
1
10
38.7495844446469
20
3.48503570079561
30
0
41
1
10
39.0183182366795
20
3.40398935807761
30
0
41
1
10
39.4218592855217
20
3.27497414802895
30
0
41
1
10
39.5564708885505
20
3.23072029953349
30
0
41
1
10
39.8257419573982
20
3.13973087562349
30
0
41
1
10
39.9602177275227
20
3.09305750842381
30
0
41
1
10
40.228855791616
20
2.99735050233889
30
0
41
1
10
40.3630188227513
20
2.94831537282519
30
0
41
1
10
40.631308731975
20
2.84828848629965
30
0
41
1
10
40.7654356769894
20
2.79729945277401
30
0
41
1
10
41.1677616851052
20
2.64142177894996
30
0
41
1
10
41.4359060186379
20
2.53361687196792
30
0
41
1
10
41.9726841441325
20
2.31131120807262
30
0
41
1
10
42.2413151115281
20
2.19681675735703
30
0
41
1
10
42.6446596044079
20
2.02010164715773
30
0
41
1
10
42.7792021256271
20
1.9603567150765
30
0
41
1
10
43.0483413536011
20
1.83929538813385
30
0
41
1
10
43.1827058190975
20
1.77808374640034
30
0
41
1
10
43.4510579138383
20
1.65436144714221
30
0
41
1
10
43.5850397785703
20
1.59183918088067
30
0
41
1
10
43.8528725930977
20
1.4659668245574
30
0
41
1
10
43.9867312847717
20
1.40263240434911
30
0
41
1
10
44.3880993753332
20
1.21137641666286
30
0
41
1
10
44.6553656569443
20
1.08213390381087
30
0
41
1
10
45.1895841969382
20
0.820786365279758
30
0
41
1
10
45.4565950544932
20
0.688795358145796
30
0
41
1
10
45.9909702619643
20
0.423277206484954
30
0
41
1
10
46.2583000442468
20
0.289683063409313
30
0
41
1
10
46.7934046973227
20
0.0211260064209284
30
0
41
1
10
47.0611780065886
20
-0.113840651065971
30
0
41
1
10
47.3293166841619
20
-0.249229776346027
30
0
0
SPLINE
5
FA
100
AcDbEntity
8
1
62
256
6
ByLayer
370
18
48
1
60
0
100
AcDbSpline
70
4
71
3
72
8
73
4
40
0
40
0
40
0
40
0
40
1
40
1
40
1
40
1
41
1
10
47.3293166841579
20
-0.249229776346482
30
0
41
1
10
47.3513334801642
20
-0.0596116282515027
30
0
41
1
10
47.3776003814014
20
0.130568281108964
30
0
41
1
10
47.4093084316165
20
0.32119778956644
30
0
0
SPLINE
5
FB
100
AcDbEntity
8
1
62
256
6
ByLayer
370
18
48
1
60
0
100
AcDbSpline
70
4
71
3
72
68
73
64
40
0
40
0
40
0
40
0
40
0.049950051789181
40
0.049950051789181
40
0.099900103578362
40
0.099900103578362
40
0.149850155367543
40
0.149850155367543
40
0.199800207156724
40
0.199800207156724
40
0.224775233051316
40
0.224775233051316
40
0.249750258945908
40
0.249750258945908
40
0.274725284840499
40
0.274725284840499
40
0.299700310735091
40
0.299700310735091
40
0.349650362524278
40
0.349650362524278
40
0.374625388418871
40
0.374625388418871
40
0.399600414313464
40
0.399600414313464
40
0.424575440208057
40
0.424575440208057
40
0.44955046610265
40
0.474525491997243
40
0.474525491997243
40
0.487013004944538
40
0.487013004944538
40
0.499500517891833
40
0.499500517891833
40
0.524475543786424
40
0.524475543786424
40
0.549450569681015
40
0.549450569681015
40
0.599400621470196
40
0.599400621470196
40
0.649350673259377
40
0.649350673259377
40
0.674325699153967
40
0.674325699153967
40
0.699300725048558
40
0.699300725048558
40
0.749250776837739
40
0.749250776837739
40
0.79920082862692
40
0.79920082862692
40
0.82417585452151
40
0.82417585452151
40
0.849150880416101
40
0.849150880416101
40
0.899100932205279
40
0.899100932205279
40
0.949050983994458
40
0.949050983994458
40
0.974026009889047
40
0.974026009889047
40
0.986513522836342
40
0.986513522836342
40
0.999001035783636
40
1
40
1
40
1
40
1
41
1
10
47.4093084316164
20
0.32119778956644
30
0
41
1
10
47.1928099871083
20
0.43016344689849
30
0
41
1
10
46.9768287190312
20
0.538467999430424
30
0
41
1
10
46.5455369393857
20
0.753054251054465
30
0
41
1
10
46.3301996249156
20
0.859284255295819
30
0
41
1
10
45.9001741293008
20
1.06973523909286
30
0
41
1
10
45.6857107781058
20
1.17440104269815
30
0
41
1
10
45.2569890735148
20
1.38082459999114
30
0
41
1
10
45.0427683168355
20
1.48266193654811
30
0
41
1
10
44.7213936775779
20
1.63289479105612
30
0
41
1
10
44.6142615863942
20
1.68255239913972
30
0
41
1
10
44.3999838351252
20
1.78103254820269
30
0
41
1
10
44.292825886045
20
1.82983269735877
30
0
41
1
10
44.0785809502811
20
1.92675237690489
30
0
41
1
10
43.971524618128
20
1.97492656266564
30
0
41
1
10
43.7573327907149
20
2.07031143963977
30
0
41
1
10
43.6502047051173
20
2.11753635687174
30
0
41
1
10
43.3286547669263
20
2.25768467305238
30
0
41
1
10
43.1140596549089
20
2.34906765503001
30
0
41
1
10
42.7915947077657
20
2.48267365033163
30
0
41
1
10
42.684015511454
20
2.52663899007482
30
0
41
1
10
42.4686768073593
20
2.61343058914372
30
0
41
1
10
42.3609158470785
20
2.65625514744468
30
0
41
1
10
42.1453454533728
20
2.74097432380475
30
0
41
1
10
42.0374983238062
20
2.78280527009346
30
0
41
1
10
41.8215282161567
20
2.86515476873586
30
0
41
1
10
41.6053087976875
20
2.94623580443067
30
0
41
1
10
41.388494612081
20
3.02461905393227
30
0
41
1
10
41.2256303021082
20
3.0823446863875
30
0
41
1
10
41.1712942852005
20
3.10141094127223
30
0
41
1
10
41.0627339153941
20
3.13911379994363
30
0
41
1
10
41.0084850859333
20
3.15775987670648
30
0
41
1
10
40.8458322814289
20
3.21308593437328
30
0
41
1
10
40.7375173292191
20
3.24914754221794
30
0
41
1
10
40.5211592225363
20
3.31968624158057
30
0
41
1
10
40.4131582239862
20
3.35422109829443
30
0
41
1
10
40.0895843360508
20
3.45546626506632
30
0
41
1
10
39.8742989792041
20
3.51962763372092
30
0
41
1
10
39.4441920696985
20
3.64089740538216
30
0
41
1
10
39.2293555964048
20
3.69799405171941
30
0
41
1
10
38.9073077470504
20
3.77828687012601
30
0
41
1
10
38.7999851288688
20
3.804152411133
30
0
41
1
10
38.5855159451966
20
3.8542053062518
30
0
41
1
10
38.4783922800932
20
3.87841068780943
30
0
41
1
10
38.1570284825199
20
3.94824643666092
30
0
41
1
10
37.9428391719792
20
3.99114092143404
30
0
41
1
10
37.5142065669987
20
4.06935511592101
30
0
41
1
10
37.2997420130901
20
4.10466556520183
30
0
41
1
10
36.9777696464937
20
4.15192444687847
30
0
41
1
10
36.8704059786884
20
4.16673113596545
30
0
41
1
10
36.655725349975
20
4.19450254735102
30
0
41
1
10
36.5483663040707
20
4.20744136159431
30
0
41
1
10
36.2260194302869
20
4.24329432978399
30
0
41
1
10
36.0108081193739
20
4.26326892294466
30
0
41
1
10
35.5794075758572
20
4.29520688365119
30
0
41
1
10
35.3631902772042
20
4.3071717540987
30
0
41
1
10
35.0381367625796
20
4.31907923499088
30
0
41
1
10
34.9297141687181
20
4.32204754501481
30
0
41
1
10
34.7669090361271
20
4.32496283906067
30
0
41
1
10
34.7125794699436
20
4.32567801892569
30
0
41
1
10
34.6039968884898
20
4.32659143804034
30
0
41
1
10
34.5454015430072
20
4.32680611365905
30
0
41
1
10
34.4868442732332
20
4.32672101903131
30
0
41
1
10
34.4825070532266
20
4.32671307205007
30
0
0
SPLINE
5
FC
100
AcDbEntity
8
1
62
256
6
ByLayer
370
18
48
1
60
0
100
AcDbSpline
70
4
71
3
72
42
73
38
40
0
40
0
40
0
40
0
40
0.0236033717042087
40
0.0236033717042087
40
0.0660553990214184
40
0.0660553990214184
40
0.108507426338627
40
0.108507426338627
40
0.150959453655836
40
0.150959453655836
40
0.235863508290255
40
0.235863508290255
40
0.278315535607465
40
0.278315535607465
40
0.320767562924674
40
0.320767562924674
40
0.363219590241883
40
0.363219590241883
40
0.405671617559093
40
0.405671617559093
40
0.490575672193511
40
0.490575672193511
40
0.533027699510719
40
0.533027699510719
40
0.575479726827927
40
0.575479726827927
40
0.660383781462344
40
0.660383781462344
40
0.70283580877955
40
0.70283580877955
40
0.745287836096758
40
0.745287836096758
40
0.830191890731172
40
0.830191890731172
40
0.915095945365586
40
0.915095945365586
40
1
40
1
40
1
40
1
41
1
10
13.659865586886
20
-3.19545320652665
30
0
41
1
10
13.5998414860315
20
-3.21522234431211
30
0
41
1
10
13.5398403224645
20
-3.23474255103713
30
0
41
1
10
13.3719880614196
20
-3.28867875855923
30
0
41
1
10
13.2641763983353
20
-3.32252656503115
30
0
41
1
10
13.0487823575391
20
-3.38873411882668
30
0
41
1
10
12.9412382812204
20
-3.42114030328963
30
0
41
1
10
12.726245588562
20
-3.48427975406315
30
0
41
1
10
12.6188003387708
20
-3.51501912001001
30
0
41
1
10
12.296548042127
20
-3.60467450564354
30
0
41
1
10
12.0818167195222
20
-3.66101751604552
30
0
41
1
10
11.7596404183924
20
-3.74019664558955
30
0
41
1
10
11.6522395381319
20
-3.76570593060887
30
0
41
1
10
11.4374243206628
20
-3.81496641084522
30
0
41
1
10
11.3300045464532
20
-3.83871408817058
30
0
41
1
10
11.1152973103984
20
-3.88457406384111
30
0
41
1
10
11.007975184176
20
-3.90665154445151
30
0
41
1
10
10.793223091116
20
-3.94894611390922
30
0
41
1
10
10.6858082461688
20
-3.96917712598082
30
0
41
1
10
10.3633745580142
20
-4.02706495346035
30
0
41
1
10
10.1481556892466
20
-4.06190847542951
30
0
41
1
10
9.8247469097609
20
-4.10843746110103
30
0
41
1
10
9.71685066684915
20
-4.12299401336026
30
0
41
1
10
9.50089551939723
20
-4.150208603978
30
0
41
1
10
9.3928757097672
20
-4.16288756533601
30
0
41
1
10
9.06865046073116
20
-4.19807236855243
30
0
41
1
10
8.85210045915127
20
-4.2176338398026
30
0
41
1
10
8.52630233923307
20
-4.24093653719649
30
0
41
1
10
8.41754790636446
20
-4.24770174637217
30
0
41
1
10
8.19971336295356
20
-4.25921529413932
30
0
41
1
10
8.09079995422201
20
-4.26395430892373
30
0
41
1
10
7.76424916488517
20
-4.27512463437654
30
0
41
1
10
7.54676820058526
20
-4.27851691041184
30
0
41
1
10
7.1120708686509
20
-4.27712374842486
30
0
41
1
10
6.89477111416488
20
-4.27232449558855
30
0
41
1
10
6.45953990716077
20
-4.25466849752314
30
0
41
1
10
6.24166962759389
20
-4.24181607260712
30
0
41
1
10
6.02345582794769
20
-4.22501186158468
30
0
0
SPLINE
5
FD
100
AcDbEntity
8
1
62
256
6
ByLayer
370
18
48
1
60
0
100
AcDbSpline
70
4
71
3
72
38
73
34
40
0
40
0
40
0
40
0
40
0.0697982838413046
40
0.0697982838413046
40
0.139596567682609
40
0.139596567682609
40
0.279193135365219
40
0.279193135365219
40
0.348991419206523
40
0.348991419206523
40
0.418789703047828
40
0.418789703047828
40
0.488587986889132
40
0.488587986889132
40
0.523487128809785
40
0.523487128809785
40
0.558386270730437
40
0.558386270730437
40
0.628184554571742
40
0.628184554571742
40
0.697982838413046
40
0.697982838413046
40
0.732881980333699
40
0.732881980333699
40
0.767781122254351
40
0.767781122254351
40
0.837579406095655
40
0.837579406095655
40
0.90737768993696
40
0.90737768993696
40
0.977175973778265
40
0.977175973778265
40
1
40
1
40
1
40
1
41
1
10
7.78400691480527
20
-0.68946708316227
30
0
41
1
10
8.07025342334373
20
-0.829281943482755
30
0
41
1
10
8.35549697474855
20
-0.967490589471481
30
0
41
1
10
8.92445380270215
20
-1.23980997573096
30
0
41
1
10
9.20817197854655
20
-1.37390853104716
30
0
41
1
10
10.057910428705
20
-1.76839753502819
30
0
41
1
10
10.6225770492049
20
-2.02086280201934
30
0
41
1
10
11.4698185322169
20
-2.37838487430619
30
0
41
1
10
11.7522432197359
20
-2.49407766528463
30
0
41
1
10
12.3178407432189
20
-2.71723416316078
30
0
41
1
10
12.6009567458444
20
-2.82479538690234
30
0
41
1
10
13.1683437195726
20
-3.03097631572791
30
0
41
1
10
13.4525559373809
20
-3.12968243936541
30
0
41
1
10
13.8802331139145
20
-3.27020817234288
30
0
41
1
10
14.0230138118815
20
-3.31580285579091
30
0
41
1
10
14.3090646498882
20
-3.40441457016561
30
0
41
1
10
14.4519206240399
20
-3.44730195216442
30
0
41
1
10
14.8796952953846
20
-3.57148264754602
30
0
41
1
10
15.1639486322838
20
-3.64840054355329
30
0
41
1
10
15.7312803714199
20
-3.78990076455392
30
0
41
1
10
16.0143676961585
20
-3.85448237250895
30
0
41
1
10
16.4384479123098
20
-3.94189960915617
30
0
41
1
10
16.5797264205289
20
-3.9694540459015
30
0
41
1
10
16.8621471033919
20
-4.02137774764759
30
0
41
1
10
17.0032857451308
20
-4.04574809608695
30
0
41
1
10
17.4266741685975
20
-4.11395481541092
30
0
41
1
10
17.7088900143093
20
-4.15289762593147
30
0
41
1
10
18.2736496667236
20
-4.21748259673109
30
0
41
1
10
18.5562038229355
20
-4.24311819493261
30
0
41
1
10
19.1221342376868
20
-4.28077875961532
30
0
41
1
10
19.4055805176387
20
-4.29278524430012
30
0
41
1
10
19.7826597203419
20
-4.29950697211993
30
0
41
1
10
19.8756567991815
20
-4.300421266276
30
0
41
1
10
19.9687385504469
20
-4.3005886652756
30
0
0
SPLINE
5
FE
100
AcDbEntity
8
1
62
256
6
ByLayer
370
18
48
1
60
0
100
AcDbSpline
70
4
71
3
72
20
73
16
40
0
40
0
40
0
40
0
40
0.242328536291104
40
0.242328536291104
40
0.368607113575919
40
0.368607113575919
40
0.40017675789712
40
0.40017675789712
40
0.431746402218321
40
0.431746402218321
40
0.494885690860729
40
0.494885690860729
40
0.747442845430365
40
0.747442845430365
40
1
40
1
40
1
40
1
41
1
10
40.9264080850486
20
3.1905513015198
30
0
41
1
10
41.4458608088942
20
3.36737492895227
30
0
41
1
10
41.9642527104353
20
3.52667558434891
30
0
41
1
10
42.7535607153243
20
3.73945339477072
30
0
41
1
10
43.024106369882
20
3.80707114385152
30
0
41
1
10
43.3627660495587
20
3.88464894555872
30
0
41
1
10
43.430521911179
20
3.89981729407799
30
0
41
1
10
43.5660891467425
20
3.92945091075322
30
0
41
1
10
43.6339016075533
20
3.94391609110676
30
0
41
1
10
43.8371631734566
20
3.98618970434157
30
0
41
1
10
43.9725266578608
20
4.01289617419744
30
0
41
1
10
44.6487757057193
20
4.13896775200766
30
0
41
1
10
45.1879729337246
20
4.2159288089961
30
0
41
1
10
46.2664643659964
20
4.32035917707245
30
0
41
1
10
46.8057317152933
20
4.3478298483391
30
0
41
1
10
47.3469495429754
20
4.34983750859277
30
0
0
SPLINE
5
FF
100
AcDbEntity
8
1
62
256
6
ByLayer
370
18
48
1
60
0
100
AcDbSpline
70
4
71
3
72
12
73
8
40
0
40
0
40
0
40
0
40
0.126907123896887
40
0.126907123896887
40
0.56745880891433
40
0.56745880891433
40
1
40
1
40
1
40
1
41
1
10
11.9663039632972
20
-2.56734829122664
30
0
41
1
10
11.71133536857
20
-2.63625653235366
30
0
41
1
10
11.4567851664977
20
-2.70542647960806
30
0
41
1
10
10.320500578987
20
-3.0157050407168
30
0
41
1
10
9.44293104433572
20
-3.25941450502754
30
0
41
1
10
7.7167002370831
20
-3.74376713781942
30
0
41
1
10
6.86736303593199
20
-3.98447348891369
30
0
41
1
10
6.02345582794743
20
-4.22501186158479
30
0
0
SPLINE
5
100
100
AcDbEntity
8
1
62
256
6
ByLayer
370
18
48
1
60
0
100
AcDbSpline
70
4
71
3
72
102
73
98
40
0
40
0
40
0
40
0
40
0.062499999999998
40
0.062499999999998
40
0.124999999999996
40
0.124999999999996
40
0.156249999999995
40
0.156249999999995
40
0.187499999999994
40
0.187499999999994
40
0.203124999999994
40
0.203124999999994
40
0.218749999999993
40
0.218749999999993
40
0.249999999999992
40
0.249999999999992
40
0.281249999999991
40
0.281249999999991
40
0.28906249999999
40
0.28906249999999
40
0.29687499999999
40
0.312499999999989
40
0.312499999999989
40
0.343749999999988
40
0.343749999999988
40
0.359374999999987
40
0.359374999999987
40
0.367187499999987
40
0.367187499999987
40
0.374999999999987
40
0.374999999999987
40
0.406249999999985
40
0.406249999999985
40
0.414062499999985
40
0.414062499999985
40
0.417968749999985
40
0.417968749999985
40
0.421874999999985
40
0.437499999999986
40
0.453124999999987
40
0.453124999999987
40
0.460937499999988
40
0.460937499999988
40
0.468749999999988
40
0.468749999999988
40
0.499999999999989
40
0.499999999999989
40
0.507812499999989
40
0.507812499999989
40
0.515624999999989
40
0.515624999999989
40
0.531249999999987
40
0.531249999999987
40
0.562499999999984
40
0.562499999999984
40
0.570312499999983
40
0.570312499999983
40
0.578124999999982
40
0.593749999999979
40
0.593749999999979
40
0.624999999999973
40
0.624999999999973
40
0.656249999999968
40
0.656249999999968
40
0.671874999999964
40
0.671874999999964
40
0.687499999999961
40
0.687499999999961
40
0.718749999999954
40
0.718749999999954
40
0.722656249999954
40
0.722656249999954
40
0.723632812499954
40
0.723632812499954
40
0.724609374999954
40
0.724609374999954
40
0.726562499999954
40
0.726562499999954
40
0.728515624999955
40
0.728515624999955
40
0.730468749999955
40
0.730468749999955
40
0.732421874999956
40
0.732421874999956
40
0.734374999999956
40
0.734374999999956
40
0.749999999999958
40
0.749999999999958
40
0.812499999999967
40
0.812499999999967
40
0.843749999999973
40
0.843749999999973
40
0.874999999999978
40
0.874999999999978
40
0.937499999999989
40
0.937499999999989
40
1
40
1
40
1
40
1
41
1
10
6.02345676338572
20
-4.22501150130049
30
0
41
1
10
5.77432448584045
20
-4.20570411456865
30
0
41
1
10
5.52796033762087
20
-4.18058029008404
30
0
41
1
10
5.0416599502305
20
-4.11609441905344
30
0
41
1
10
4.80171255539565
20
-4.0767610715962
30
0
41
1
10
4.44766014425551
20
-4.00415006164221
30
0
41
1
10
4.33062568637692
20
-3.97766525165085
30
0
41
1
10
4.09878810540346
20
-3.91941107569644
30
0
41
1
10
3.98398357023663
20
-3.88764532357922
30
0
41
1
10
3.81372036915849
20
-3.83530876005128
30
0
41
1
10
3.75724241444874
20
-3.81706296479669
30
0
41
1
10
3.64522758250439
20
-3.7789281757596
30
0
41
1
10
3.58975150754748
20
-3.75906160478394
30
0
41
1
10
3.42504498399433
20
-3.69685606269448
30
0
41
1
10
3.31752524213965
20
-3.65192845842495
30
0
41
1
10
3.10795072802085
20
-3.55371167507954
30
0
41
1
10
3.00588718482374
20
-3.50043615526926
30
0
41
1
10
2.88255875027659
20
-3.42728074954087
30
0
41
1
10
2.85808548810701
20
-3.41230477757389
30
0
41
1
10
2.80979120699539
20
-3.3817738272844
30
0
41
1
10
2.73827469904916
20
-3.33507815558673
30
0
41
1
10
2.66965968594039
20
-3.28555724072748
30
0
41
1
10
2.53671679296915
20
-3.1823302400324
30
0
41
1
10
2.45375169779911
20
-3.10798310202497
30
0
41
1
10
2.34020547854297
20
-2.98578527591502
30
0
41
1
10
2.30418471548438
20
-2.9432624007772
30
0
41
1
10
2.25334625720936
20
-2.87634945191633
30
0
41
1
10
2.23693353085974
20
-2.85352242561396
30
0
41
1
10
2.20526955364261
20
-2.80673020632284
30
0
41
1
10
2.18997732852102
20
-2.78269233741517
30
0
41
1
10
2.11737351372963
20
-2.66055999921272
30
0
41
1
10
2.07132656386102
20
-2.55652727391851
30
0
41
1
10
2.03204864523372
20
-2.41690705936117
30
0
41
1
10
2.02511355466336
20
-2.38850083798374
30
0
41
1
10
2.01617470274638
20
-2.34512577694957
30
0
41
1
10
2.01343578028886
20
-2.33051592885286
30
0
41
1
10
2.00849231159702
20
-2.30123113974926
30
0
41
1
10
1.99744951798016
20
-2.22777699831985
30
0
41
1
10
1.98937828512803
20
-2.09339013601973
30
0
41
1
10
1.99896072747043
20
-1.97088163762967
30
0
41
1
10
2.01247647305382
20
-1.87785917350553
30
0
41
1
10
2.01804174130194
20
-1.84663967154299
30
0
41
1
10
2.03127859669368
20
-1.78390915916538
30
0
41
1
10
2.03888601242269
20
-1.75269347223514
30
0
41
1
10
2.08160384455002
20
-1.59732741480394
30
0
41
1
10
2.13066042155722
20
-1.47530010718438
30
0
41
1
10
2.20746690843032
20
-1.32519282991979
30
0
41
1
10
2.22355550946611
20
-1.29540177297173
30
0
41
1
10
2.25689196132475
20
-1.23659755642717
30
0
41
1
10
2.27416854793503
20
-1.20752788721023
30
0
41
1
10
2.32768728790157
20
-1.12124353819979
30
0
41
1
10
2.36561363851803
20
-1.0649509506959
30
0
41
1
10
2.48525573869952
20
-0.899295710997166
30
0
41
1
10
2.5727926648436
20
-0.793133125624962
30
0
41
1
10
2.68992532889703
20
-0.664705166873006
30
0
41
1
10
2.71375225964513
20
-0.639225387124583
30
0
41
1
10
2.76186356849615
20
-0.588965711361709
30
0
41
1
10
2.83482024354319
20
-0.514511745352536
30
0
41
1
10
2.90997733423973
20
-0.442665276513367
30
0
41
1
10
3.06286749950328
20
-0.302026593452894
30
0
41
1
10
3.16821255395922
20
-0.212320484958838
30
0
41
1
10
3.38438703381129
20
-0.0394186966819632
30
0
41
1
10
3.49522480745784
20
0.0437671259487047
30
0
41
1
10
3.66492633958893
20
0.16445151501722
30
0
41
1
10
3.72207034022986
20
0.203994091861404
30
0
41
1
10
3.83742474062922
20
0.281811033117663
30
0
41
1
10
3.89567055817102
20
0.320107702304028
30
0
41
1
10
4.07161015365307
20
0.433044693356862
30
0
41
1
10
4.19047162325791
20
0.505723011321891
30
0
41
1
10
4.32560198406523
20
0.584889365573332
30
0
41
1
10
4.34062120068043
20
0.593674348390806
30
0
41
1
10
4.35945649182008
20
0.604547134484676
30
0
41
1
10
4.36325938462545
20
0.606660784555373
30
0
41
1
10
4.37113152838626
20
0.610373423599611
30
0
41
1
10
4.37515710472411
20
0.611982761285191
30
0
41
1
10
4.38739642185175
20
0.616116940634186
30
0
41
1
10
4.39583293036711
20
0.617873118315742
30
0
41
1
10
4.41310486813899
20
0.619945931956977
30
0
41
1
10
4.42171476946166
20
0.620171162220799
30
0
41
1
10
4.43885725693971
20
0.619530454331937
30
0
41
1
10
4.44739468122333
20
0.618589501492693
30
0
41
1
10
4.46440533781276
20
0.615529224830482
30
0
41
1
10
4.47283455043885
20
0.613408232299975
30
0
41
1
10
4.48950812459739
20
0.608753497267685
30
0
41
1
10
4.49783008371412
20
0.606372359958414
30
0
41
1
10
4.5727624032188
20
0.585064504243888
30
0
41
1
10
4.63924858998107
20
0.565690201766472
30
0
41
1
10
4.97104047681819
20
0.466644297436005
30
0
41
1
10
5.23431769441498
20
0.380515234496585
30
0
41
1
10
5.62604904588361
20
0.241716837477071
30
0
41
1
10
5.75614256664113
20
0.193841987536331
30
0
41
1
10
6.01494175807503
20
0.0952192925693112
30
0
41
1
10
6.14369433129312
20
0.0444536098236199
30
0
41
1
10
6.52814216411031
20
-0.111880616565827
30
0
41
1
10
6.78201736445882
20
-0.221509425280658
30
0
41
1
10
7.28575113881953
20
-0.449547001381973
30
0
41
1
10
7.53562337749611
20
-0.567924070501078
30
0
41
1
10
7.78399694877945
20
-0.689464879158152
30
0
0
SPLINE
5
101
100
AcDbEntity
8
SK1
62
256
6
ByLayer
370
18
48
1
60
0
100
AcDbSpline
70
4
71
3
72
8
73
4
40
0
40
0
40
0
40
0
40
1
40
1
40
1
40
1
41
1
10
-39.35
20
0.996830907472798
30
0
41
1
10
-39.5672426932679
20
0.99699971651475
30
0
41
1
10
-39.7840152760228
20
0.997168861874002
30
0
41
1
10
-40
20
0.997338570867811
30
0
0
SPLINE
5
102
100
AcDbEntity
8
SK1
62
256
6
ByLayer
370
18
48
1
60
0
100
AcDbSpline
70
4
71
3
72
25
73
21
40
0
40
0
40
0
40
0
40
0.0625000000000002
40
0.0625000000000002
40
0.125
40
0.125
40
0.187500000000001
40
0.187500000000001
40
0.250000000000001
40
0.250000000000001
40
0.375000000000001
40
0.375000000000001
40
0.500000000000002
40
0.500000000000002
40
0.625000000000001
40
0.625000000000001
40
0.750000000000001
40
0.875
40
0.875
40
1
40
1
40
1
40
1
41
1
10
-39.25
20
0.896736605722822
30
0
41
1
10
-39.25
20
0.900903610380766
30
0
41
1
10
-39.2502661395244
20
0.905069351876904
30
0
41
1
10
-39.2512604345423
20
0.913072668298412
30
0
41
1
10
-39.2519866843407
20
0.916951619044625
30
0
41
1
10
-39.2538480473964
20
0.924490487556596
30
0
41
1
10
-39.2549899968068
20
0.928159425631037
30
0
41
1
10
-39.257575966206
20
0.935109208891333
30
0
41
1
10
-39.259025471732
20
0.938417377073449
30
0
41
1
10
-39.263782191426
20
0.947907581496224
30
0
41
1
10
-39.2675360127538
20
0.953707083214198
30
0
41
1
10
-39.2757138322291
20
0.964034964896172
30
0
41
1
10
-39.2801330746137
20
0.968583489667054
30
0
41
1
10
-39.2895228877571
20
0.976660532088601
30
0
41
1
10
-39.2945301170383
20
0.980205309993494
30
0
41
1
10
-39.3048836881833
20
0.98623889541372
30
0
41
1
10
-39.3155300749172
20
0.991209079168613
30
0
41
1
10
-39.3267176576283
20
0.994238356808069
30
0
41
1
10
-39.3381804120076
20
0.996291171332047
30
0
41
1
10
-39.3440705138439
20
0.996826299948992
30
0
41
1
10
-39.35
20
0.996830907472798
30
0
0
SPLINE
5
103
100
AcDbEntity
8
SK1
62
256
6
ByLayer
370
18
48
1
60
0
100
AcDbSpline
70
4
71
3
72
20
73
16
40
0
40
0
40
0
40
0
40
0.249999999999999
40
0.249999999999999
40
0.374999999999999
40
0.374999999999999
40
0.499999999999999
40
0.499999999999999
40
0.625
40
0.625
40
0.75
40
0.75
40
0.875
40
0.875
40
1
40
1
40
1
40
1
41
1
10
-39.35
20
-1.00316852122086
30
0
41
1
10
-39.3382043481001
20
-1.00317768706515
30
0
41
1
10
-39.326787304792
20
-1.00116421325424
30
0
41
1
10
-39.3102102587932
20
-0.995132209117003
30
0
41
1
10
-39.3048300610594
20
-0.992620134303678
30
0
41
1
10
-39.2945600539297
20
-0.986651398711473
30
0
41
1
10
-39.2896399368502
20
-0.983185515329978
30
0
41
1
10
-39.2802763498419
20
-0.975176203671936
30
0
41
1
10
-39.2758146852372
20
-0.970615927949382
30
0
41
1
10
-39.2675576540199
20
-0.960225408248192
30
0
41
1
10
-39.2638480125087
20
-0.95451215441085
30
0
41
1
10
-39.257458072052
20
-0.941807312744061
30
0
41
1
10
-39.2547798004343
20
-0.934764808480935
30
0
41
1
10
-39.2510671593003
20
-0.919754966327218
30
0
41
1
10
-39.25
20
-0.911563316591781
30
0
41
1
10
-39.25
20
-0.903262880101437
30
0
0
SPLINE
5
104
100
AcDbEntity
8
SK1
62
256
6
ByLayer
370
18
48
1
60
0
100
AcDbSpline
70
4
71
3
72
8
73
4
40
0
40
0
40
0
40
0
40
1
40
1
40
1
40
1
41
1
10
-40
20
-1.00266085782582
30
0
41
1
10
-39.7840035909907
20
-1.00283057600109
30
0
41
1
10
-39.5672327666027
20
-1.00299971989241
30
0
41
1
10
-39.35
20
-1.00316852122083
30
0
0
SPLINE
5
105
100
AcDbEntity
8
SK1
62
256
6
ByLayer
370
18
48
1
60
0
100
AcDbSpline
70
4
71
3
72
8
73
4
40
0
40
0
40
0
40
0
40
1
40
1
40
1
40
1
41
1
10
-39.35
20
-0.99683090747277
30
0
41
1
10
-39.5672426932679
20
-0.99699971651475
30
0
41
1
10
-39.7840152760228
20
-0.997168861874002
30
0
41
1
10
-40
20
-0.997338570867782
30
0
0
SPLINE
5
106
100
AcDbEntity
8
SK1
62
256
6
ByLayer
370
18
48
1
60
0
100
AcDbSpline
70
4
71
3
72
25
73
21
40
0
40
0
40
0
40
0
40
0.0624999999999995
40
0.0624999999999995
40
0.124999999999999
40
0.124999999999999
40
0.187499999999999
40
0.187499999999999
40
0.249999999999998
40
0.249999999999998
40
0.374999999999998
40
0.374999999999998
40
0.499999999999999
40
0.499999999999999
40
0.624999999999999
40
0.624999999999999
40
0.749999999999999
40
0.875
40
0.875
40
1
40
1
40
1
40
1
41
1
10
-39.25
20
-0.896736605722793
30
0
41
1
10
-39.25
20
-0.900903610380738
30
0
41
1
10
-39.2502661395244
20
-0.905069351876875
30
0
41
1
10
-39.2512604345423
20
-0.913072668298412
30
0
41
1
10
-39.2519866843407
20
-0.916951619044625
30
0
41
1
10
-39.2538480473964
20
-0.924490487556596
30
0
41
1
10
-39.2549899968068
20
-0.928159425631009
30
0
41
1
10
-39.257575966206
20
-0.935109208891333
30
0
41
1
10
-39.259025471732
20
-0.938417377073449
30
0
41
1
10
-39.263782191426
20
-0.947907581496224
30
0
41
1
10
-39.2675360127538
20
-0.953707083214169
30
0
41
1
10
-39.2757138322291
20
-0.964034964896172
30
0
41
1
10
-39.2801330746137
20
-0.968583489667026
30
0
41
1
10
-39.2895228877571
20
-0.976660532088601
30
0
41
1
10
-39.2945301170383
20
-0.980205309993465
30
0
41
1
10
-39.3048836881833
20
-0.986238895413692
30
0
41
1
10
-39.3155300749172
20
-0.991209079168613
30
0
41
1
10
-39.3267176576283
20
-0.99423835680804
30
0
41
1
10
-39.3381804120076
20
-0.996291171332047
30
0
41
1
10
-39.3440705138439
20
-0.996826299948992
30
0
41
1
10
-39.35
20
-0.99683090747277
30
0
0
SPLINE
5
107
100
AcDbEntity
8
1
62
256
6
ByLayer
370
18
48
1
60
0
100
AcDbSpline
70
4
71
3
72
28
73
24
40
0
40
0
40
0
40
0
40
0.0522190943246049
40
0.103261148063801
40
0.142448846958104
40
0.186993832675929
40
0.229184147431118
40
0.283867704707144
40
0.330876086617659
40
0.368902506927744
40
0.416745960735466
40
0.468340245238006
40
0.510047660180528
40
0.546094549170661
40
0.592677324137048
40
0.643373252728766
40
0.689108288818524
40
0.747610498595453
40
0.818771981370344
40
0.872632339405432
40
0.944238461248825
40
0.996299071596889
40
1
40
1
40
1
40
1
41
1
10
21.4999849935805
20
-4.13123628717292
30
0
41
1
10
21.6617120992062
20
-4.13368733866602
30
0
41
1
10
21.982166527496
20
-4.13762972034621
30
0
41
1
10
22.4259923513311
20
-4.14022394825798
30
0
41
1
10
22.8473683043939
20
-4.14126910837825
30
0
41
1
10
23.2464566951752
20
-4.14171487057163
30
0
41
1
10
23.693298168818
20
-4.142440142075
30
0
41
1
10
24.1484944118215
20
-4.14304739425114
30
0
41
1
10
24.5903525350039
20
-4.14442460403117
30
0
41
1
10
25.0106195555113
20
-4.14550275338328
30
0
41
1
10
25.4453818727263
20
-4.14619111530919
30
0
41
1
10
25.891788965912
20
-4.14679296905794
30
0
41
1
10
26.3008856703597
20
-4.14735916175164
30
0
41
1
10
26.6941329372387
20
-4.14796294557158
30
0
41
1
10
27.1158047714225
20
-4.14986804363295
30
0
41
1
10
27.5681203838938
20
-4.15072546852687
30
0
41
1
10
28.0581360793325
20
-4.15100937462282
30
0
41
1
10
28.6128764222335
20
-4.15125889572386
30
0
41
1
10
29.1933259230233
20
-4.15209078948041
30
0
41
1
10
29.8151795881666
20
-4.1545125853757
30
0
41
1
10
30.3767704239307
20
-4.15493098791455
30
0
41
1
10
30.7793432128367
20
-4.15626475382427
30
0
41
1
10
30.955776024444
20
-4.15671429572413
30
0
41
1
10
30.967486367944
20
-4.15674354058507
30
0
0
SPLINE
5
108
100
AcDbEntity
8
1
62
256
6
ByLayer
370
18
48
1
60
0
100
AcDbSpline
70
4
71
3
72
17
73
13
40
0
40
0
40
0
40
0
40
0.0446326661689819
40
0.178006060881398
40
0.30235041747921
40
0.423099428336562
40
0.502606658307897
40
0.580975608450932
40
0.657545574334016
40
0.743653700426304
40
0.865867252915134
40
1
40
1
40
1
40
1
41
1
10
47.9141204144415
20
0.64895879116176
30
0
41
1
10
47.8349219703073
20
0.673301532223206
30
0
41
1
10
47.519282251819
20
0.771211513144721
30
0
41
1
10
46.9850210311291
20
0.944830361399625
30
0
41
1
10
46.3181446987869
20
1.16811474219517
30
0
41
1
10
45.7480381311654
20
1.36597636026247
30
0
41
1
10
45.2599121394155
20
1.539884859376
30
0
41
1
10
44.8500745246978
20
1.68894176015161
30
0
41
1
10
44.4296100486146
20
1.84487490190958
30
0
41
1
10
43.9338141574459
20
2.03252267115715
30
0
41
1
10
43.3395587175795
20
2.2629140324365
30
0
41
1
10
42.896669687106
20
2.44051775197752
30
0
41
1
10
42.665429053501
20
2.53479524358374
30
0
0
SPLINE
5
109
100
AcDbEntity
8
1
62
256
6
ByLayer
370
18
48
1
60
0
100
AcDbSpline
70
4
71
3
72
36
73
32
40
0
40
0
40
0
40
0
40
2.5367552395E-05
40
4.50842765649E-05
40
6.05447828972E-05
40
7.46148745881E-05
40
0.0001459286008769
40
0.0001988306573282
40
0.0002933747455804
40
0.0004624461863049
40
0.0007651332634935
40
0.0013081126675153
40
0.0022855816023734
40
0.0040561160928834
40
0.0072974712872745
40
0.0133361483263546
40
0.0279950122376329
40
0.0596366465035198
40
0.105644909176502
40
0.154294165103924
40
0.200632239668629
40
0.328243770350663
40
0.454068514217462
40
0.591962944703971
40
0.645038013351241
40
0.703503297086279
40
0.761265289668778
40
0.804705702925817
40
0.857303190758504
40
0.936648857403013
40
1
40
1
40
1
40
1
41
1
10
22.5999816680786
20
0.0900156261719189
30
0
41
1
10
22.5999886908098
20
0.090016787488679
30
0
41
1
10
22.5999947396292
20
0.0900214129067365
30
0
41
1
10
22.5999565149031
20
0.090034145645717
30
0
41
1
10
22.5998883091096
20
0.0900561481276156
30
0
41
1
10
22.5996785670313
20
0.0901167992581975
30
0
41
1
10
22.5993542336041
20
0.0902062137832331
30
0
41
1
10
22.5989156142745
20
0.090333504080462
30
0
41
1
10
22.5982565298646
20
0.0905222720624579
30
0
41
1
10
22.5970921952935
20
0.0908570368708013
30
0
41
1
10
22.5949965359673
20
0.0914581861215424
30
0
41
1
10
22.5912364678221
20
0.0925357468993298
30
0
41
1
10
22.5844431162306
20
0.094477225647438
30
0
41
1
10
22.5720830159492
20
0.0979935788903958
30
0
41
1
10
22.5491934959076
20
0.104454585093691
30
0
41
1
10
22.5003285630268
20
0.118040488246407
30
0
41
1
10
22.3823692011307
20
0.151406376485028
30
0
41
1
10
22.1652199846018
20
0.21328442668414
30
0
41
1
10
21.8661286581755
20
0.299711391134195
30
0
41
1
10
21.5323322995922
20
0.398244305464601
30
0
41
1
10
21.0063433247797
20
0.556636538418985
30
0
41
1
10
20.3000310612421
20
0.777101299284084
30
0
41
1
10
19.3821363475511
20
1.07822222373832
30
0
41
1
10
18.6425983153799
20
1.33298868610942
30
0
41
1
10
18.0623987511408
20
1.53971993397633
30
0
41
1
10
17.669421037568
20
1.68245206817394
30
0
41
1
10
17.2996329609063
20
1.81941206832585
30
0
41
1
10
16.944133276427
20
1.9532686868661
30
0
41
1
10
16.5396591353721
20
2.10803947345869
30
0
41
1
10
16.090322573504
20
2.28310657815552
30
0
41
1
10
15.7633857330955
20
2.41454604490508
30
0
41
1
10
15.6184739746705
20
2.47349726201955
30
0
0
SPLINE
5
10A
100
AcDbEntity
8
1
62
256
6
ByLayer
370
18
48
1
60
0
100
AcDbSpline
70
4
71
3
72
30
73
26
40
0
40
0
40
0
40
0
40
0.0738447811247779
40
0.134221404903092
40
0.182866170380497
40
0.22041551661669
40
0.260963976408364
40
0.312500741519892
40
0.359029623271922
40
0.392222134849273
40
0.430589471450618
40
0.478519695891394
40
0.518783467333518
40
0.544603482476166
40
0.576750129552283
40
0.629938305376427
40
0.677222259895746
40
0.71472332663779
40
0.761753215237477
40
0.815432791868017
40
0.85777213537152
40
0.897137833391519
40
0.948999830391212
40
0.998470898470168
40
1
40
1
40
1
40
1
41
1
10
33.2304560614882
20
4.15915762788117
30
0
41
1
10
32.990841078531
20
4.15799304155411
30
0
41
1
10
32.5551714007013
20
4.15657444253822
30
0
41
1
10
31.9556061516707
20
4.15766561561685
30
0
41
1
10
31.4829890840069
20
4.1577915796679
30
0
41
1
10
31.0674115406089
20
4.15706482157276
30
0
41
1
10
30.6444645738504
20
4.15580444451757
30
0
41
1
10
30.1911784990406
20
4.15472511738335
30
0
41
1
10
29.7622286217745
20
4.15420839764343
30
0
41
1
10
29.3762521811303
20
4.15295693908311
30
0
41
1
10
28.9857110484837
20
4.15158583222967
30
0
41
1
10
28.5720503281594
20
4.15131967842703
30
0
41
1
10
28.1994021747154
20
4.15107926009489
30
0
41
1
10
27.8783413954061
20
4.150898157314
30
0
41
1
10
27.5150374027415
20
4.15065734433509
30
0
41
1
10
27.0815814597935
20
4.14972752454139
30
0
41
1
10
26.6306270739078
20
4.14777482169509
30
0
41
1
10
26.199796761711
20
4.14723800794889
30
0
41
1
10
25.7480640974884
20
4.14659258504551
30
0
41
1
10
25.280516214042
20
4.14595910828075
30
0
41
1
10
24.8380212512508
20
4.14514201977866
30
0
41
1
10
24.4014601272648
20
4.14376000516631
30
0
41
1
10
23.9416262903721
20
4.14274391476005
30
0
41
1
10
23.6053518956636
20
4.14228377828596
30
0
41
1
10
23.4387449199466
20
4.14204018205521
30
0
41
1
10
23.4337497460713
20
4.14203286295512
30
0
0
LINE
5
82
100
AcDbEntity
8
4
62
256
6
ByLayer
370
18
48
0.05
60
0
100
AcDbLine
10
0
20
0
30
0
11
49
21
0
31
0
39
0
210
0
220
0
230
1
0
LINE
5
84
100
AcDbEntity
8
81
62
256
6
ByLayer
370
18
48
1
60
0
100
AcDbLine
10
49
20
0
30
0
11
52
21
0
31
0
39
0
210
0
220
0
230
1
0
LINE
5
85
100
AcDbEntity
8
80
62
256
6
ByLayer
370
18
48
1
60
0
100
AcDbLine
10
0
20
0
30
0
11
-3
21
0
31
0
39
0
210
0
220
0
230
1
0
LINE
5
86
100
AcDbEntity
8
SK4
62
256
6
ByLayer
370
18
48
0.05
60
0
100
AcDbLine
10
-43
20
0
30
0
11
52
21
0
31
0
39
0
210
0
220
0
230
1
0
LINE
5
88
100
AcDbEntity
8
1
62
256
6
ByLayer
370
18
48
1
60
0
100
AcDbLine
10
0
20
5
30
0
11
0
21
-5
31
0
39
0
210
0
220
0
230
1
0
LINE
5
89
100
AcDbEntity
8
1
62
256
6
ByLayer
370
13
48
1
60
0
100
AcDbLine
10
21.455201
20
-4.148053
30
0
11
21.456479
21
-4.153433
31
0
39
0
210
0
220
0
230
1
0
LINE
5
8A
100
AcDbEntity
8
1
62
256
6
ByLayer
370
13
48
1
60
0
100
AcDbLine
10
48.887813
20
0.464793
30
0
11
47.927959
21
1.428277
31
0
39
0
210
0
220
0
230
1
0
LINE
5
8B
100
AcDbEntity
8
1
62
256
6
ByLayer
370
18
48
1
60
0
100
AcDbLine
10
21.500045
20
-4.131478
30
0
11
21.500007
21
-4.137586
31
0
39
0
210
0
220
0
230
1
0
LINE
5
8C
100
AcDbEntity
8
1
62
256
6
ByLayer
370
13
48
1
60
0
100
AcDbLine
10
0.672346
20
-4.633533
30
0
11
0.672346
21
4.633533
31
0
39
0
210
0
220
0
230
1
0
LINE
5
8D
100
AcDbEntity
8
1
62
256
6
ByLayer
370
18
48
1
60
0
100
AcDbLine
10
21.399737
20
-4.303164
30
0
11
21.399737
21
-1.030645
31
0
39
0
210
0
220
0
230
1
0
LINE
5
8E
100
AcDbEntity
8
1
62
256
6
ByLayer
370
18
48
1
60
0
100
AcDbLine
10
21.399737
20
4.258355
30
0
11
21.399737
21
4.244372
31
0
39
0
210
0
220
0
230
1
0
LINE
5
8F
100
AcDbEntity
8
1
62
256
6
ByLayer
370
18
48
1
60
0
100
AcDbLine
10
21.399737
20
4.303164
30
0
11
21.399737
21
4.302279
31
0
39
0
210
0
220
0
230
1
0
LINE
5
90
100
AcDbEntity
8
1
62
256
6
ByLayer
370
13
48
1
60
0
100
AcDbLine
10
1.346132
20
-4.267068
30
0
11
1.346132
21
4.267068
31
0
39
0
210
0
220
0
230
1
0
LINE
5
91
100
AcDbEntity
8
SK1
62
256
6
ByLayer
370
18
48
1
60
0
100
AcDbLine
10
-40
20
-0.997339
30
0
11
-40
21
-1.002661
31
0
39
0
210
0
220
0
230
1
0
LINE
5
93
100
AcDbEntity
8
SK1
62
256
6
ByLayer
370
13
48
1
60
0
100
AcDbLine
10
-39.35
20
-1.003169
30
0
11
-39.35
21
-0.996831
31
0
39
0
210
0
220
0
230
1
0
LINE
5
94
100
AcDbEntity
8
SK1
62
256
6
ByLayer
370
18
48
1
60
0
100
AcDbLine
10
-39.25
20
-0.903263
30
0
11
-39.25
21
0.896737
31
0
39
0
210
0
220
0
230
1
0
LINE
5
95
100
AcDbEntity
8
SK1
62
256
6
ByLayer
370
18
48
1
60
0
100
AcDbLine
10
-40
20
-3.66
30
0
11
-40
21
-1.002661
31
0
39
0
210
0
220
0
230
1
0
LINE
5
96
100
AcDbEntity
8
SK1
62
256
6
ByLayer
370
18
48
1
60
0
100
AcDbLine
10
-40
20
3.66
30
0
11
-40
21
0.997339
31
0
39
0
210
0
220
0
230
1
0
LINE
5
97
100
AcDbEntity
8
SK1
62
256
6
ByLayer
370
18
48
1
60
0
100
AcDbLine
10
0
20
5
30
0
11
0
21
-5
31
0
39
0
210
0
220
0
230
1
0
LINE
5
98
100
AcDbEntity
8
SK1
62
256
6
ByLayer
370
18
48
1
60
0
100
AcDbLine
10
-38.66
20
-5
30
0
11
-38.66
21
5
31
0
39
0
210
0
220
0
230
1
0
LINE
5
99
100
AcDbEntity
8
1
62
256
6
ByLayer
370
18
48
1
60
0
100
AcDbLine
10
1.346132
20
-4.267068
30
0
11
7.354018
21
-4.277882
31
0
39
0
210
0
220
0
230
1
0
LINE
5
9A
100
AcDbEntity
8
1
62
256
6
ByLayer
370
18
48
1
60
0
100
AcDbLine
10
19.968589
20
-4.300588
30
0
11
21.399737
21
-4.303164
31
0
39
0
210
0
220
0
230
1
0
LINE
5
9B
100
AcDbEntity
8
1
62
256
6
ByLayer
370
18
48
1
60
0
100
AcDbLine
10
33.231962
20
-4.324462
30
0
11
34.482742
21
-4.326713
31
0
39
0
210
0
220
0
230
1
0
LINE
5
9C
100
AcDbEntity
8
1
62
256
6
ByLayer
370
18
48
1
60
0
100
AcDbLine
10
34.482742
20
4.326713
30
0
11
33.231962
21
4.324462
31
0
39
0
210
0
220
0
230
1
0
LINE
5
9D
100
AcDbEntity
8
1
62
256
6
ByLayer
370
18
48
1
60
0
100
AcDbLine
10
21.399737
20
4.303164
30
0
11
19.968589
21
4.300588
31
0
39
0
210
0
220
0
230
1
0
LINE
5
9E
100
AcDbEntity
8
1
62
256
6
ByLayer
370
18
48
1
60
0
100
AcDbLine
10
7.354018
20
4.277882
30
0
11
1.346132
21
4.267068
31
0
39
0
210
0
220
0
230
1
0
LINE
5
9F
100
AcDbEntity
8
SK1
62
256
6
ByLayer
370
18
48
1
60
0
100
AcDbLine
10
-40
20
-3.66
30
0
11
-38.66
21
-5
31
0
39
0
210
0
220
0
230
1
0
LINE
5
A0
100
AcDbEntity
8
SK1
62
256
6
ByLayer
370
18
48
1
60
0
100
AcDbLine
10
-38.66
20
5
30
0
11
-40
21
3.66
31
0
39
0
210
0
220
0
230
1
0
LINE
5
A1
100
AcDbEntity
8
SK1
62
256
6
ByLayer
370
18
48
1
60
0
100
AcDbLine
10
-38.66
20
-5
30
0
11
0
21
-5
31
0
39
0
210
0
220
0
230
1
0
LINE
5
A2
100
AcDbEntity
8
SK1
62
256
6
ByLayer
370
18
48
1
60
0
100
AcDbLine
10
0
20
5
30
0
11
-38.66
21
5
31
0
39
0
210
0
220
0
230
1
0
LINE
5
A3
100
AcDbEntity
8
2
62
256
6
ByLayer
370
13
48
1
60
0
100
AcDbLine
10
56.5
20
-4.35
30
0
11
56.5
21
28.649084
31
0
39
0
210
0
220
0
230
1
0
LINE
5
A5
100
AcDbEntity
8
2
62
256
6
ByLayer
370
13
48
1
60
0
100
AcDbLine
10
50.5875
20
4.35
30
0
11
58.5
21
4.35
31
0
39
0
210
0
220
0
230
1
0
LINE
5
A6
100
AcDbEntity
8
2
62
256
6
ByLayer
370
13
48
1
60
0
100
AcDbLine
10
50.5875
20
-4.35
30
0
11
58.5
21
-4.35
31
0
39
0
210
0
220
0
230
1
0
LINE
5
A7
100
AcDbEntity
8
1
62
256
6
ByLayer
370
18
48
1
60
1
100
AcDbLine
10
56.5
20
4.35
30
0
11
56.960784
21
0.850002
31
0
39
0
210
0
220
0
230
1
0
LINE
5
A8
100
AcDbEntity
8
1
62
256
6
ByLayer
370
18
48
1
60
1
100
AcDbLine
10
56.960784
20
0.850002
30
0
11
56.039216
21
0.849998
31
0
39
0
210
0
220
0
230
1
0
LINE
5
A9
100
AcDbEntity
8
1
62
256
6
ByLayer
370
18
48
1
60
1
100
AcDbLine
10
56.039216
20
0.849998
30
0
11
56.5
21
4.35
31
0
39
0
210
0
220
0
230
1
0
LINE
5
AA
100
AcDbEntity
8
1
62
256
6
ByLayer
370
18
48
1
60
1
100
AcDbLine
10
56.5
20
-4.35
30
0
11
56.039216
21
-0.850002
31
0
39
0
210
0
220
0
230
1
0
LINE
5
AB
100
AcDbEntity
8
1
62
256
6
ByLayer
370
18
48
1
60
1
100
AcDbLine
10
56.039216
20
-0.850002
30
0
11
56.960784
21
-0.849998
31
0
39
0
210
0
220
0
230
1
0
LINE
5
AC
100
AcDbEntity
8
1
62
256
6
ByLayer
370
18
48
1
60
1
100
AcDbLine
10
56.960784
20
-0.849998
30
0
11
56.5
21
-4.35
31
0
39
0
210
0
220
0
230
1
0
LINE
5
AD
100
AcDbEntity
8
SK2
62
256
6
ByLayer
370
13
48
1
60
0
100
AcDbLine
10
-48.5
20
-5
30
0
11
-48.5
21
15.333771
31
0
39
0
210
0
220
0
230
1
0
LINE
5
AF
100
AcDbEntity
8
SK2
62
256
6
ByLayer
370
13
48
1
60
0
100
AcDbLine
10
-41.5875
20
5
30
0
11
-50.5
21
5
31
0
39
0
210
0
220
0
230
1
0
LINE
5
B0
100
AcDbEntity
8
SK2
62
256
6
ByLayer
370
13
48
1
60
0
100
AcDbLine
10
-41.5875
20
-5
30
0
11
-50.5
21
-5
31
0
39
0
210
0
220
0
230
1
0
LINE
5
B1
100
AcDbEntity
8
1
62
256
6
ByLayer
370
18
48
1
60
1
100
AcDbLine
10
-48.5
20
5
30
0
11
-48.039216
21
1.500002
31
0
39
0
210
0
220
0
230
1
0
LINE
5
B2
100
AcDbEntity
8
1
62
256
6
ByLayer
370
18
48
1
60
1
100
AcDbLine
10
-48.039216
20
1.500002
30
0
11
-48.960784
21
1.499998
31
0
39
0
210
0
220
0
230
1
0
LINE
5
B3
100
AcDbEntity
8
1
62
256
6
ByLayer
370
18
48
1
60
1
100
AcDbLine
10
-48.960784
20
1.499998
30
0
11
-48.5
21
5
31
0
39
0
210
0
220
0
230
1
0
LINE
5
B4
100
AcDbEntity
8
1
62
256
6
ByLayer
370
18
48
1
60
1
100
AcDbLine
10
-48.5
20
-5
30
0
11
-48.960784
21
-1.500002
31
0
39
0
210
0
220
0
230
1
0
LINE
5
B5
100
AcDbEntity
8
1
62
256
6
ByLayer
370
18
48
1
60
1
100
AcDbLine
10
-48.960784
20
-1.500002
30
0
11
-48.039216
21
-1.499998
31
0
39
0
210
0
220
0
230
1
0
LINE
5
B6
100
AcDbEntity
8
1
62
256
6
ByLayer
370
18
48
1
60
1
100
AcDbLine
10
-48.039216
20
-1.499998
30
0
11
-48.5
21
-5
31
0
39
0
210
0
220
0
230
1
0
LINE
5
B7
100
AcDbEntity
8
SK2
62
256
6
ByLayer
370
13
48
1
60
0
100
AcDbLine
10
49.542875
20
1.491792
30
0
11
56.604785
21
20.897546
31
0
39
0
210
0
220
0
230
1
0
LINE
5
B8
100
AcDbEntity
8
SK2
62
256
6
ByLayer
370
13
48
1
60
0
100
AcDbLine
10
49.542875
20
-1.491792
30
0
11
56.604785
21
-20.897546
31
0
39
0
210
0
220
0
230
1
0
LINE
5
B9
100
AcDbEntity
8
1
62
256
6
ByLayer
370
18
48
1
60
1
100
AcDbLine
10
55.920848
20
19.018123
30
0
11
59.331271
21
18.106352
31
0
39
0
210
0
220
0
230
1
0
LINE
5
BA
100
AcDbEntity
8
1
62
256
6
ByLayer
370
18
48
1
60
1
100
AcDbLine
10
59.331271
20
18.106352
30
0
11
58.979083
21
17.254736
31
0
39
0
210
0
220
0
230
1
0
LINE
5
BB
100
AcDbEntity
8
1
62
256
6
ByLayer
370
18
48
1
60
1
100
AcDbLine
10
58.979083
20
17.254736
30
0
11
55.920848
21
19.018123
31
0
39
0
210
0
220
0
230
1
0
LINE
5
BC
100
AcDbEntity
8
1
62
256
6
ByLayer
370
18
48
1
60
1
100
AcDbLine
10
55.920848
20
-19.018123
30
0
11
58.979079
21
-17.254737
31
0
39
0
210
0
220
0
230
1
0
LINE
5
BD
100
AcDbEntity
8
1
62
256
6
ByLayer
370
18
48
1
60
1
100
AcDbLine
10
58.979079
20
-17.254737
30
0
11
59.331274
21
-18.106351
31
0
39
0
210
0
220
0
230
1
0
LINE
5
BE
100
AcDbEntity
8
1
62
256
6
ByLayer
370
18
48
1
60
1
100
AcDbLine
10
59.331274
20
-18.106351
30
0
11
55.920848
21
-19.018123
31
0
39
0
210
0
220
0
230
1
0
LINE
5
10B
100
AcDbEntity
8
1
62
256
6
ByLayer
370
13
48
0.05
60
0
100
AcDbLine
10
-46.5
20
0
30
0
11
53.909333
21
0
31
0
39
0
210
0
220
0
230
1
0
LINE
5
110
100
AcDbEntity
8
1
62
256
6
ByLayer
370
18
48
1
60
1
100
AcDbLine
10
56.5
20
4.35
30
0
11
56.960784
21
0.850002
31
0
39
0
210
0
220
0
230
1
0
LINE
5
111
100
AcDbEntity
8
1
62
256
6
ByLayer
370
18
48
1
60
1
100
AcDbLine
10
56.960784
20
0.850002
30
0
11
56.039216
21
0.849998
31
0
39
0
210
0
220
0
230
1
0
LINE
5
112
100
AcDbEntity
8
1
62
256
6
ByLayer
370
18
48
1
60
1
100
AcDbLine
10
56.039216
20
0.849998
30
0
11
56.5
21
4.35
31
0
39
0
210
0
220
0
230
1
0
LINE
5
114
100
AcDbEntity
8
1
62
256
6
ByLayer
370
18
48
1
60
1
100
AcDbLine
10
56.5
20
-4.35
30
0
11
56.039216
21
-0.850002
31
0
39
0
210
0
220
0
230
1
0
LINE
5
115
100
AcDbEntity
8
1
62
256
6
ByLayer
370
18
48
1
60
1
100
AcDbLine
10
56.039216
20
-0.850002
30
0
11
56.960784
21
-0.849998
31
0
39
0
210
0
220
0
230
1
0
LINE
5
116
100
AcDbEntity
8
1
62
256
6
ByLayer
370
18
48
1
60
1
100
AcDbLine
10
56.960784
20
-0.849998
30
0
11
56.5
21
-4.35
31
0
39
0
210
0
220
0
230
1
0
LINE
5
11A
100
AcDbEntity
8
1
62
256
6
ByLayer
370
18
48
1
60
1
100
AcDbLine
10
-48.5
20
5
30
0
11
-48.039216
21
1.500002
31
0
39
0
210
0
220
0
230
1
0
LINE
5
11B
100
AcDbEntity
8
1
62
256
6
ByLayer
370
18
48
1
60
1
100
AcDbLine
10
-48.039216
20
1.500002
30
0
11
-48.960784
21
1.499998
31
0
39
0
210
0
220
0
230
1
0
LINE
5
11C
100
AcDbEntity
8
1
62
256
6
ByLayer
370
18
48
1
60
1
100
AcDbLine
10
-48.960784
20
1.499998
30
0
11
-48.5
21
5
31
0
39
0
210
0
220
0
230
1
0
LINE
5
11E
100
AcDbEntity
8
1
62
256
6
ByLayer
370
18
48
1
60
1
100
AcDbLine
10
-48.5
20
-5
30
0
11
-48.960784
21
-1.500002
31
0
39
0
210
0
220
0
230
1
0
LINE
5
11F
100
AcDbEntity
8
1
62
256
6
ByLayer
370
18
48
1
60
1
100
AcDbLine
10
-48.960784
20
-1.500002
30
0
11
-48.039216
21
-1.499998
31
0
39
0
210
0
220
0
230
1
0
LINE
5
120
100
AcDbEntity
8
1
62
256
6
ByLayer
370
18
48
1
60
1
100
AcDbLine
10
-48.039216
20
-1.499998
30
0
11
-48.5
21
-5
31
0
39
0
210
0
220
0
230
1
0
LINE
5
123
100
AcDbEntity
8
1
62
256
6
ByLayer
370
18
48
1
60
1
100
AcDbLine
10
55.920848
20
19.018123
30
0
11
59.331271
21
18.106352
31
0
39
0
210
0
220
0
230
1
0
LINE
5
124
100
AcDbEntity
8
1
62
256
6
ByLayer
370
18
48
1
60
1
100
AcDbLine
10
59.331271
20
18.106352
30
0
11
58.979083
21
17.254736
31
0
39
0
210
0
220
0
230
1
0
LINE
5
125
100
AcDbEntity
8
1
62
256
6
ByLayer
370
18
48
1
60
1
100
AcDbLine
10
58.979083
20
17.254736
30
0
11
55.920848
21
19.018123
31
0
39
0
210
0
220
0
230
1
0
LINE
5
127
100
AcDbEntity
8
1
62
256
6
ByLayer
370
18
48
1
60
1
100
AcDbLine
10
55.920848
20
-19.018123
30
0
11
58.979079
21
-17.254737
31
0
39
0
210
0
220
0
230
1
0
LINE
5
128
100
AcDbEntity
8
1
62
256
6
ByLayer
370
18
48
1
60
1
100
AcDbLine
10
58.979079
20
-17.254737
30
0
11
59.331274
21
-18.106351
31
0
39
0
210
0
220
0
230
1
0
LINE
5
129
100
AcDbEntity
8
1
62
256
6
ByLayer
370
18
48
1
60
1
100
AcDbLine
10
59.331274
20
-18.106351
30
0
11
55.920848
21
-19.018123
31
0
39
0
210
0
220
0
230
1
0
MTEXT
5
10C
100
AcDbEntity
8
2
62
256
6
ByLayer
370
18
48
1
60
0
100
AcDbMText
10
55.158886
20
18.008437
30
0
210
0
220
0
230
1
1
%%c
40
3
41
0
44
1.084337
50
90
71
7
72
5
7
iso_b_vert
0
MTEXT
5
10F
100
AcDbEntity
8
2
62
256
6
ByLayer
370
18
48
1
60
0
100
AcDbMText
10
55.158886
20
23.985
30
0
210
0
220
0
230
1
1
\W0.7121;8.7
40
3
41
0
44
1.084337
50
90
71
7
72
5
7
iso_b_vert
0
MTEXT
5
118
100
AcDbEntity
8
SK2
62
256
6
ByLayer
370
18
48
1
60
0
100
AcDbMText
10
-49.841114
20
6.658437
30
0
210
0
220
0
230
1
1
%%c
40
3
41
0
44
1.084337
50
90
71
7
72
5
7
iso_b_vert
0
MTEXT
5
119
100
AcDbEntity
8
SK2
62
256
6
ByLayer
370
18
48
1
60
0
100
AcDbMText
10
-49.841114
20
12.635
30
0
210
0
220
0
230
1
1
\W0.5321;10
40
3
41
0
44
1.084337
50
90
71
7
72
5
7
iso_b_vert
0
MTEXT
5
122
100
AcDbEntity
8
SK2
62
256
6
ByLayer
370
18
48
1
60
0
100
AcDbMText
10
65.797603
20
-2.114886
30
0
210
0
220
0
230
1
1
\W0.7071;140%%d
40
3
41
0
44
1.084337
50
0
71
7
72
5
7
iso_b_vert
0
MTEXT
5
12B
100
AcDbEntity
8
SK6
62
256
6
ByLayer
370
18
48
1
60
0
100
AcDbMText
10
-19.671638
20
-77.114886
30
0
210
0
220
0
230
1
1
\W0.7522;860.1-0870-027A1-SD S2BM
40
3
41
0
44
1.084337
50
0
71
7
72
5
7
iso_b_vert
0
HATCH
5
113
100
AcDbEntity
8
2
62
256
6
ByLayer
370
13
48
1
60
0
100
AcDbHatch
10
0
20
0
30
0
210
0
220
0
230
1
2
ANSI31
70
0
71
0
91
1
92
5
93
3
72
1
10
56.5
20
4.34999999999999
11
56.9607837415528
21
0.850001692553178
72
1
10
56.9607837415528
20
0.850001692553178
11
56.0392162584472
21
0.84999830744681
72
1
10
56.0392162584472
20
0.84999830744681
11
56.5
21
4.34999999999999
97
0
75
0
76
1
52
0
41
0.0062
77
0
78
1
53
45
43
0
44
0
45
-0.0139193969876572
46
0.0139193969876572
79
0
47
0
98
1
10
0
20
0
0
HATCH
5
117
100
AcDbEntity
8
2
62
256
6
ByLayer
370
13
48
1
60
0
100
AcDbHatch
10
0
20
0
30
0
210
0
220
0
230
1
2
ANSI31
70
0
71
0
91
1
92
5
93
3
72
1
10
56.5
20
-4.34999999999999
11
56.0392162584472
21
-0.850001692553178
72
1
10
56.0392162584472
20
-0.850001692553178
11
56.9607837415528
21
-0.84999830744681
72
1
10
56.9607837415528
20
-0.84999830744681
11
56.5
21
-4.34999999999999
97
0
75
0
76
1
52
0
41
0.0062
77
0
78
1
53
45
43
0
44
0
45
-0.0139193969876572
46
0.0139193969876572
79
0
47
0
98
1
10
0
20
0
0
HATCH
5
11D
100
AcDbEntity
8
SK2
62
256
6
ByLayer
370
13
48
1
60
0
100
AcDbHatch
10
0
20
0
30
0
210
0
220
0
230
1
2
ANSI31
70
0
71
0
91
1
92
5
93
3
72
1
10
-48.5
20
5
11
-48.0392162584472
21
1.50000169255318
72
1
10
-48.0392162584472
20
1.50000169255318
11
-48.9607837415528
21
1.49999830744682
72
1
10
-48.9607837415528
20
1.49999830744682
11
-48.5
21
5
97
0
75
0
76
1
52
0
41
0.0062
77
0
78
1
53
45
43
0
44
0
45
-0.0139193969876572
46
0.0139193969876572
79
0
47
0
98
1
10
0
20
0
0
HATCH
5
121
100
AcDbEntity
8
SK2
62
256
6
ByLayer
370
13
48
1
60
0
100
AcDbHatch
10
0
20
0
30
0
210
0
220
0
230
1
2
ANSI31
70
0
71
0
91
1
92
5
93
3
72
1
10
-48.5
20
-5
11
-48.9607837415528
21
-1.50000169255318
72
1
10
-48.9607837415528
20
-1.50000169255318
11
-48.0392162584472
21
-1.49999830744682
72
1
10
-48.0392162584472
20
-1.49999830744682
11
-48.5
21
-5
97
0
75
0
76
1
52
0
41
0.0062
77
0
78
1
53
45
43
0
44
0
45
-0.0139193969876572
46
0.0139193969876572
79
0
47
0
98
1
10
0
20
0
0
HATCH
5
126
100
AcDbEntity
8
SK2
62
256
6
ByLayer
370
13
48
1
60
0
100
AcDbHatch
10
0
20
0
30
0
210
0
220
0
230
1
2
ANSI31
70
0
71
0
91
1
92
5
93
3
72
1
10
55.9208480600519
20
19.018123222504
11
59.331270727842
21
18.1063518500464
72
1
10
59.331270727842
20
18.1063518500464
11
58.9790825049118
21
17.2547356914642
72
1
10
58.9790825049118
20
17.2547356914642
11
55.9208480600519
21
19.018123222504
97
0
75
0
76
1
52
0
41
0.0062
77
0
78
1
53
45
43
0
44
0
45
-0.0139193969876572
46
0.0139193969876572
79
0
47
0
98
1
10
0
20
0
0
HATCH
5
12A
100
AcDbEntity
8
SK2
62
256
6
ByLayer
370
13
48
1
60
0
100
AcDbHatch
10
0
20
0
30
0
210
0
220
0
230
1
2
ANSI31
70
0
71
0
91
1
92
5
93
3
72
1
10
55.9208480600518
20
-19.018123222504
11
58.9790793767557
21
-17.2547369851353
72
1
10
58.9790793767557
20
-17.2547369851353
11
59.331273855998
21
-18.1063505563754
72
1
10
59.331273855998
20
-18.1063505563754
11
55.9208480600518
21
-19.018123222504
97
0
75
0
76
1
52
0
41
0.0062
77
0
78
1
53
45
43
0
44
0
45
-0.0139193969876572
46
0.0139193969876572
79
0
47
0
98
1
10
0
20
0
0
DIMENSION
5
12E
100
AcDbEntity
8
SK2
62
256
6
ByLayer
370
18
48
1
60
0
100
AcDbDimension
2
_U0
10
21.4
20
-20.410048
30
0
11
35.2
21
-20.410048
31
0
70
32
71
1
72
1
41
1
210
0
220
0
230
1
3
Standard
100
AcDbAlignedDimension
13
49
23
-4.35
33
0
14
21.4
24
-4.35
34
0
50
0
100
AcDbRotatedDimension
1001
ACAD
1000
DSTYLE
1002
{
1070
   371
1070
    13
1070
   372
1070
    13
1070
   170
1070
     0
1070
   144
1040
1.0
1070
   277
1070
     2
1070
   284
1070
     8
1070
   278
1070
    46
1070
   146
1040
1.166667
1070
   345
1005
16
1070
   347
1005
16
1070
   346
1005
16
1070
   344
1005
0
1070
   343
1005
0
1070
   172
1070
     1
1070
    76
1070
     0
1070
    75
1070
     0
1070
   282
1070
     0
1070
   281
1070
     0
1070
     3
1000

1070
    71
1070
     0
1070
    74
1070
     0
1070
   279
1070
     0
1070
   173
1070
     1
1070
   340
1005
10D
1070
   271
1070
     2
1070
   272
1070
     2
1070
    77
1070
     1
1070
    73
1070
     1
1070
   171
1070
     3
1070
   274
1070
     4
1070
   177
1070
     2
1070
   176
1070
     2
1070
   178
1070
     2
1070
    78
1070
     8
1070
    48
1040
-0.1
1070
    41
1040
3.5
1070
   147
1040
1.5
1070
    42
1040
1.5875
1070
    44
1040
2.0
1070
   140
1040
3.0
1002
}
1001
ACAD_DSTYLE_DIM_LINETYPE
1070
   380
1005
16
1001
ACAD_DSTYLE_DIM_EXT1_LINETYPE
1070
   381
1005
16
1001
ACAD_DSTYLE_DIM_EXT2_LINETYPE
1070
   382
1005
16
0
DIMENSION
5
149
100
AcDbEntity
8
SK2
62
256
6
ByLayer
370
18
48
1
60
0
100
AcDbDimension
2
_U1
10
2
20
-30.410048
30
0
11
25.5
21
-30.410048
31
0
70
32
71
1
72
1
41
1
210
0
220
0
230
1
3
Standard
100
AcDbAlignedDimension
13
49
23
-4.35
33
0
14
2
24
-4.35
34
0
50
0
100
AcDbRotatedDimension
1001
ACAD
1000
DSTYLE
1002
{
1070
   371
1070
    13
1070
   372
1070
    13
1070
     3
1000

1070
   170
1070
     0
1070
   144
1040
1.0
1070
   277
1070
     2
1070
   284
1070
     8
1070
   278
1070
    46
1070
   146
1040
1.166667
1070
   345
1005
16
1070
   347
1005
16
1070
   346
1005
16
1070
   344
1005
0
1070
   343
1005
0
1070
   172
1070
     1
1070
    76
1070
     0
1070
    75
1070
     0
1070
   282
1070
     0
1070
   281
1070
     0
1070
    71
1070
     0
1070
    74
1070
     0
1070
   279
1070
     0
1070
   173
1070
     1
1070
   340
1005
10D
1070
   271
1070
     2
1070
   272
1070
     2
1070
    77
1070
     1
1070
    73
1070
     1
1070
   171
1070
     3
1070
   274
1070
     4
1070
   177
1070
     2
1070
   176
1070
     2
1070
   178
1070
     2
1070
    78
1070
     8
1070
    48
1040
-0.1
1070
    41
1040
3.5
1070
   147
1040
1.5
1070
    42
1040
1.5875
1070
    44
1040
2.0
1070
   140
1040
3.0
1002
}
1001
ACAD_DSTYLE_DIM_LINETYPE
1070
   380
1005
16
1001
ACAD_DSTYLE_DIM_EXT1_LINETYPE
1070
   381
1005
16
1001
ACAD_DSTYLE_DIM_EXT2_LINETYPE
1070
   382
1005
16
0
DIMENSION
5
161
100
AcDbEntity
8
SK2
62
256
6
ByLayer
370
18
48
1
60
0
100
AcDbDimension
2
_U2
10
0
20
-38.410048
30
0
11
-20
21
-38.410048
31
0
70
32
71
1
72
1
41
1
210
0
220
0
230
1
3
Standard
100
AcDbAlignedDimension
13
-40
23
-5
33
0
14
0
24
-5
34
0
50
0
100
AcDbRotatedDimension
1001
ACAD
1000
DSTYLE
1002
{
1070
   371
1070
    13
1070
   372
1070
    13
1070
     3
1000

1070
   170
1070
     0
1070
   144
1040
1.0
1070
   277
1070
     2
1070
   284
1070
     8
1070
   278
1070
    46
1070
   146
1040
1.166667
1070
   345
1005
16
1070
   347
1005
16
1070
   346
1005
16
1070
   344
1005
0
1070
   343
1005
0
1070
   172
1070
     1
1070
    76
1070
     0
1070
    75
1070
     0
1070
   282
1070
     0
1070
   281
1070
     0
1070
    71
1070
     0
1070
    74
1070
     0
1070
   279
1070
     0
1070
   173
1070
     1
1070
   340
1005
10D
1070
   271
1070
     2
1070
   272
1070
     2
1070
    77
1070
     1
1070
    73
1070
     1
1070
   171
1070
     3
1070
   274
1070
     4
1070
   177
1070
     2
1070
   176
1070
     2
1070
   178
1070
     2
1070
    78
1070
     8
1070
    48
1040
-0.1
1070
    41
1040
3.5
1070
   147
1040
1.5
1070
    42
1040
1.5875
1070
    44
1040
2.0
1070
   140
1040
3.0
1002
}
1001
ACAD_DSTYLE_DIM_LINETYPE
1070
   380
1005
16
1001
ACAD_DSTYLE_DIM_EXT1_LINETYPE
1070
   381
1005
16
1001
ACAD_DSTYLE_DIM_EXT2_LINETYPE
1070
   382
1005
16
0
DIMENSION
5
179
100
AcDbEntity
8
SK2
62
256
6
ByLayer
370
18
48
1
60
0
100
AcDbDimension
2
_U3
10
49
20
-46.410048
30
0
11
4.5
21
-46.410048
31
0
70
32
71
1
72
1
41
1
210
0
220
0
230
1
3
Standard
100
AcDbAlignedDimension
13
-40
23
-5
33
0
14
49
24
-4.35
34
0
50
0
100
AcDbRotatedDimension
1001
ACAD
1000
DSTYLE
1002
{
1070
   371
1070
    13
1070
   372
1070
    13
1070
     3
1000

1070
   170
1070
     0
1070
   144
1040
1.0
1070
   277
1070
     2
1070
   284
1070
     8
1070
   278
1070
    46
1070
   146
1040
1.166667
1070
   345
1005
16
1070
   347
1005
16
1070
   346
1005
16
1070
   344
1005
0
1070
   343
1005
0
1070
   172
1070
     1
1070
    76
1070
     0
1070
    75
1070
     0
1070
   282
1070
     0
1070
   281
1070
     0
1070
    71
1070
     0
1070
    74
1070
     0
1070
   279
1070
     0
1070
   173
1070
     1
1070
   340
1005
10D
1070
   271
1070
     2
1070
   272
1070
     2
1070
    77
1070
     1
1070
    73
1070
     1
1070
   171
1070
     3
1070
   274
1070
     4
1070
   177
1070
     2
1070
   176
1070
     2
1070
   178
1070
     2
1070
    78
1070
     8
1070
    48
1040
-0.1
1070
    41
1040
3.5
1070
   147
1040
1.5
1070
    42
1040
1.5875
1070
    44
1040
2.0
1070
   140
1040
3.0
1002
}
1001
ACAD_DSTYLE_DIM_LINETYPE
1070
   380
1005
16
1001
ACAD_DSTYLE_DIM_EXT1_LINETYPE
1070
   381
1005
16
1001
ACAD_DSTYLE_DIM_EXT2_LINETYPE
1070
   382
1005
16
0
DIMENSION
5
191
100
AcDbEntity
8
2
62
256
6
ByLayer
370
18
48
1
60
0
100
AcDbDimension
2
_U4
10
0
20
-38.410048
30
0
11
24.5
21
-38.410048
31
0
70
32
71
1
72
1
41
1
210
0
220
0
230
1
3
Standard
100
AcDbAlignedDimension
13
49
23
-4.35
33
0
14
0
24
-4.35
34
0
50
0
100
AcDbRotatedDimension
1001
ACAD
1000
DSTYLE
1002
{
1070
   371
1070
    13
1070
   372
1070
    13
1070
     3
1000

1070
   170
1070
     0
1070
   144
1040
1.0
1070
   277
1070
     2
1070
   284
1070
     8
1070
   278
1070
    46
1070
   146
1040
1.166667
1070
   345
1005
16
1070
   347
1005
16
1070
   346
1005
16
1070
   344
1005
0
1070
   343
1005
0
1070
   172
1070
     1
1070
    76
1070
     0
1070
    75
1070
     0
1070
   282
1070
     0
1070
   281
1070
     0
1070
    71
1070
     0
1070
    74
1070
     0
1070
   279
1070
     0
1070
   173
1070
     1
1070
   340
1005
10D
1070
   271
1070
     2
1070
   272
1070
     2
1070
    77
1070
     1
1070
    73
1070
     1
1070
   171
1070
     3
1070
   274
1070
     4
1070
   177
1070
     2
1070
   176
1070
     2
1070
   178
1070
     2
1070
    78
1070
     8
1070
    48
1040
-0.1
1070
    41
1040
3.5
1070
   147
1040
1.5
1070
    42
1040
1.5875
1070
    44
1040
2.0
1070
   140
1040
3.0
1002
}
1001
ACAD_DSTYLE_DIM_LINETYPE
1070
   380
1005
16
1001
ACAD_DSTYLE_DIM_EXT1_LINETYPE
1070
   381
1005
16
1001
ACAD_DSTYLE_DIM_EXT2_LINETYPE
1070
   382
1005
16
0
ENDSEC
0
SECTION
2
OBJECTS
0
DICTIONARY
5
219
330
0
100
AcDbDictionary
280
0
281
1
3
ACAD_GROUP
350
21a
3
ACAD_MLINESTYLE
350
21b
0
DICTIONARY
5
21a
330
0
100
AcDbDictionary
280
0
281
1
0
DICTIONARY
5
21b
330
0
100
AcDbDictionary
280
0
281
1
3
Standard
350
18
0
MLINESTYLE
5
18
330
21b
100
AcDbMlineStyle
2
Standard
70
0
3

62
256
51
90
52
90
71
2
49
-0.5
62
256
6
ByLayer
49
0.5
62
256
6
ByLayer
0
RASTERVARIABLES
5
207
330

100
AcDbRasterVariables
90
0
70
1
71
1
72
1
0
ENDSEC
0
EOF
