0
SECTION
2
HEADER
9
$ACADVER
1
AC1015
9
$DWGCODEPAGE
3
ANSI_1252
9
$HANDSEED
5
250
9
$ANGBASE
50
0
9
$ANGDIR
70
0
9
$ATTMODE
70
1
9
$AUNITS
70
0
9
$AUPREC
70
0
9
$CECOLOR
62
256
9
$CELTSCALE
40
1
9
$CELTYPE
6
ByLayer
9
$CELWEIGHT
370
18
9
$CLAYER
8
0
9
$CMLJUST
70
0
9
$CMLSCALE
40
1
9
$CMLSTYLE
2
Standard
9
$DIMSTYLE
2
Standard
9
$TEXTSIZE
40
0.2
9
$TEXTSTYLE
7
Standard
9
$LUNITS
70
2
9
$LUPREC
70
4
9
$EXTNAMES
290
1
9
$INSUNITS
70
4
9
$LTSCALE
40
1
9
$LWDISPLAY
290
1
9
$PDMODE
70
0
9
$PDSIZE
40
0
9
$PLINEGEN
70
0
0
ENDSEC
0
SECTION
2
CLASSES
0
CLASS
1
RASTERVARIABLES
2
AcDbRasterVariables
3
ISM
90
0
280
0
281
0
0
ENDSEC
0
SECTION
2
TABLES
0
TABLE
2
VPORT
5
246
100
AcDbSymbolTable
0
VPORT
5
1
100
AcDbSymbolTableRecord
100
AcDbViewportTableRecord
2
*Active
70
0
10
0
20
0
11
1
21
1
12
-1
22
1
13
0
23
0
14
0.5
24
0.5
15
10
25
10
16
0
26
0
36
1
17
0
27
0
37
0
0
ENDTAB
0
TABLE
2
LTYPE
5
247
100
AcDbSymbolTable
0
LTYPE
5
14
100
AcDbSymbolTableRecord
100
AcDbLinetypeTableRecord
70
0
2
ByBlock
3

72
65
73
0
40
0
0
LTYPE
5
15
100
AcDbSymbolTableRecord
100
AcDbLinetypeTableRecord
70
0
2
ByLayer
3

72
65
73
0
40
0
0
LTYPE
5
16
100
AcDbSymbolTableRecord
100
AcDbLinetypeTableRecord
70
0
2
Continuous
3
Solid line
72
65
73
0
40
0
0
LTYPE
5
6E
100
AcDbSymbolTableRecord
100
AcDbLinetypeTableRecord
70
0
2
CENTER
3
____ _ ____ _ ____ _ ____
72
65
73
4
40
47.5
49
22
74
0
49
-8.5
74
0
49
8.5
74
0
49
-8.5
74
0
0
LTYPE
5
6F
100
AcDbSymbolTableRecord
100
AcDbLinetypeTableRecord
70
0
2
DASHED
3
__ __ __ __ __ __ __ __ __
72
65
73
2
40
25.72
49
12.86
74
0
49
-12.86
74
0
0
ENDTAB
0
TABLE
2
LAYER
5
248
100
AcDbSymbolTable
0
LAYER
5
10
100
AcDbSymbolTableRecord
100
AcDbLayerTableRecord
2
0
70
0
62
7
6
Continuous
290
1
370
-3
390
0
0
LAYER
5
71
100
AcDbSymbolTableRecord
100
AcDbLayerTableRecord
2
81
70
0
62
-3
6
Continuous
290
1
370
-3
390
0
0
LAYER
5
73
100
AcDbSymbolTableRecord
100
AcDbLayerTableRecord
2
80
70
0
62
-6
6
Continuous
290
1
370
-3
390
0
0
LAYER
5
75
100
AcDbSymbolTableRecord
100
AcDbLayerTableRecord
2
1
70
0
62
4
6
Continuous
290
1
370
-3
390
0
0
LAYER
5
87
100
AcDbSymbolTableRecord
100
AcDbLayerTableRecord
2
4
70
0
62
-2
6
CENTER
290
1
370
-3
390
0
0
LAYER
5
A8
100
AcDbSymbolTableRecord
100
AcDbLayerTableRecord
2
2
70
0
62
7
6
Continuous
290
1
370
-3
390
0
0
LAYER
5
15B
100
AcDbSymbolTableRecord
100
AcDbLayerTableRecord
2
Defpoints
70
0
62
7
6
Continuous
290
0
370
-3
390
0
0
LAYER
5
232
100
AcDbSymbolTableRecord
100
AcDbLayerTableRecord
2
SK4
70
0
62
2
6
CENTER
290
1
370
-3
390
0
0
LAYER
5
233
100
AcDbSymbolTableRecord
100
AcDbLayerTableRecord
2
SK1
70
0
62
4
6
Continuous
290
1
370
-3
390
0
0
LAYER
5
234
100
AcDbSymbolTableRecord
100
AcDbLayerTableRecord
2
SK2
70
0
62
7
6
Continuous
290
1
370
-3
390
0
0
LAYER
5
235
100
AcDbSymbolTableRecord
100
AcDbLayerTableRecord
2
SK6
70
0
62
5
6
Continuous
290
1
370
-3
390
0
0
ENDTAB
0
TABLE
2
STYLE
5
249
100
AcDbSymbolTable
0
STYLE
5
11
100
AcDbSymbolTableRecord
100
AcDbTextStyleTableRecord
2
Standard
3
txt
70
0
71
0
40
0
41
1
42
0
50
0
0
STYLE
5
137
100
AcDbSymbolTableRecord
100
AcDbTextStyleTableRecord
2
iso_b_vert
3
simplex.shx
70
0
71
0
40
0
41
1
42
0
50
0
0
STYLE
5
138
100
AcDbSymbolTableRecord
100
AcDbTextStyleTableRecord
2
DWGDirectTextStyle
3
simplex
70
0
71
0
40
0
41
1
42
0
50
0
0
ENDTAB
0
TABLE
2
DIMSTYLE
5
24a
100
AcDbSymbolTable
100
AcDbDimStyleTable
0
DIMSTYLE
105
27
100
AcDbSymbolTableRecord
100
AcDbDimStyleTableRecord
2
Standard
70
0
3
<>
41
0.18
42
0.0625
44
0.18
140
0.18
147
0.09
73
0
74
0
77
1
271
2
275
0
278
52
280
0
340
11
0
ENDTAB
0
TABLE
2
VIEW
5
24b
100
AcDbSymbolTable
0
ENDTAB
0
TABLE
2
UCS
5
24c
100
AcDbSymbolTable
0
ENDTAB
0
TABLE
2
APPID
5
24d
100
AcDbSymbolTable
0
APPID
5
12
100
AcDbSymbolTableRecord
100
AcDbRegAppTableRecord
2
ACAD
70
0
0
APPID
5
157
100
AcDbSymbolTableRecord
100
AcDbRegAppTableRecord
2
ACAD_DSTYLE_DIMBREAK
70
0
0
APPID
5
1F1
100
AcDbSymbolTableRecord
100
AcDbRegAppTableRecord
2
ACAD_DSTYLE_DIM_LINETYPE
70
0
0
APPID
5
1F2
100
AcDbSymbolTableRecord
100
AcDbRegAppTableRecord
2
ACAD_DSTYLE_DIM_EXT1_LINETYPE
70
0
0
APPID
5
1F3
100
AcDbSymbolTableRecord
100
AcDbRegAppTableRecord
2
ACAD_DSTYLE_DIM_EXT2_LINETYPE
70
0
0
APPID
5
22E
100
AcDbSymbolTableRecord
100
AcDbRegAppTableRecord
2
ACAD_MLEADERVER
70
0
0
ENDTAB
0
TABLE
2
BLOCK_RECORD
5
24e
100
AcDbSymbolTable
0
BLOCK_RECORD
5
1F
100
AcDbSymbolTableRecord
100
AcDbBlockTableRecord
2
*Model_Space
340
0
70
0
0
BLOCK_RECORD
5
1B
100
AcDbSymbolTableRecord
100
AcDbBlockTableRecord
2
*Paper_Space
340
0
70
0
0
BLOCK_RECORD
5
23
100
AcDbSymbolTableRecord
100
AcDbBlockTableRecord
2
*Paper_Space0
340
0
70
0
0
BLOCK_RECORD
5
15C
100
AcDbSymbolTableRecord
100
AcDbBlockTableRecord
2
*D1
340
0
70
0
0
BLOCK_RECORD
5
168
100
AcDbSymbolTableRecord
100
AcDbBlockTableRecord
2
_U0
340
0
70
0
0
BLOCK_RECORD
5
176
100
AcDbSymbolTableRecord
100
AcDbBlockTableRecord
2
*D3
340
0
70
0
0
BLOCK_RECORD
5
182
100
AcDbSymbolTableRecord
100
AcDbBlockTableRecord
2
_U1
340
0
70
0
0
BLOCK_RECORD
5
18E
100
AcDbSymbolTableRecord
100
AcDbBlockTableRecord
2
*D5
340
0
70
0
0
BLOCK_RECORD
5
19A
100
AcDbSymbolTableRecord
100
AcDbBlockTableRecord
2
_U2
340
0
70
0
0
BLOCK_RECORD
5
1A6
100
AcDbSymbolTableRecord
100
AcDbBlockTableRecord
2
*D7
340
0
70
0
0
BLOCK_RECORD
5
1B2
100
AcDbSymbolTableRecord
100
AcDbBlockTableRecord
2
_U3
340
0
70
0
0
BLOCK_RECORD
5
1BE
100
AcDbSymbolTableRecord
100
AcDbBlockTableRecord
2
*D9
340
0
70
0
0
BLOCK_RECORD
5
1CA
100
AcDbSymbolTableRecord
100
AcDbBlockTableRecord
2
_U4
340
0
70
0
0
ENDTAB
0
ENDSEC
0
SECTION
2
BLOCKS
0
BLOCK
5
20
100
AcDbEntity
8
0
100
AcDbBlockBegin
2
*Model_Space
70
0
10
0
20
0
30
0
3
*Model_Space
0
ENDBLK
5
21
100
AcDbEntity
8
0
100
AcDbBlockEnd
0
BLOCK
5
1C
100
AcDbEntity
8
0
100
AcDbBlockBegin
2
*Paper_Space
70
0
10
0
20
0
30
0
3
*Paper_Space
0
ENDBLK
5
1D
100
AcDbEntity
8
0
100
AcDbBlockEnd
0
BLOCK
5
24
100
AcDbEntity
8
0
100
AcDbBlockBegin
2
*Paper_Space0
70
0
10
0
20
0
30
0
3
*Paper_Space0
0
ENDBLK
5
25
100
AcDbEntity
8
0
100
AcDbBlockEnd
0
BLOCK
5
15D
100
AcDbEntity
8
0
100
AcDbBlockBegin
2
*D1
70
1
10
0
20
0
30
0
3
*D1
0
LINE
5
15F
100
AcDbEntity
8
0
62
256
6
ByLayer
370
-2
48
1
60
0
100
AcDbLine
10
90
20
-5.4875
30
0
11
90
21
-21.772473
31
0
39
0
210
0
220
0
230
1
0
LINE
5
160
100
AcDbEntity
8
0
62
256
6
ByLayer
370
-2
48
1
60
0
100
AcDbLine
10
26.2
20
-5.4875
30
0
11
26.2
21
-21.772473
31
0
39
0
210
0
220
0
230
1
0
LINE
5
161
100
AcDbEntity
8
0
62
256
6
ByLayer
370
-2
48
1
60
0
100
AcDbLine
10
86.5
20
-19.772473
30
0
11
29.7
21
-19.772473
31
0
39
0
210
0
220
0
230
1
0
SOLID
5
162
100
AcDbEntity
8
0
62
256
6
ByLayer
370
-1
48
1
60
0
100
AcDbTrace
10
86.5
20
-20.355806
30
0
11
86.5
21
-19.18914
31
0
12
90
22
-19.772473
32
0
13
90
23
-19.772473
33
0
39
0
210
0
220
0
230
1
0
SOLID
5
163
100
AcDbEntity
8
0
62
256
6
ByLayer
370
-1
48
1
60
0
100
AcDbTrace
10
29.7
20
-19.18914
30
0
11
29.7
21
-20.355806
31
0
12
26.2
22
-19.772473
32
0
13
26.2
23
-19.772473
33
0
39
0
210
0
220
0
230
1
0
MTEXT
5
164
100
AcDbEntity
8
0
62
256
6
ByLayer
370
18
48
1
60
0
100
AcDbMText
10
58.1
20
-13.772473
30
0
210
0
220
0
230
1
1
\A1;63.8
40
3
41
0
44
1
50
0
71
5
72
5
7
iso_b_vert
0
POINT
5
165
100
AcDbEntity
8
Defpoints
62
0
6
ByLayer
370
-1
48
1
60
0
100
AcDbPoint
10
90
20
-3.9
30
0
39
0
210
0
220
0
230
1
50
360
0
POINT
5
166
100
AcDbEntity
8
Defpoints
62
0
6
ByLayer
370
-1
48
1
60
0
100
AcDbPoint
10
26.2
20
-3.9
30
0
39
0
210
0
220
0
230
1
50
360
0
POINT
5
167
100
AcDbEntity
8
Defpoints
62
0
6
ByLayer
370
-1
48
1
60
0
100
AcDbPoint
10
26.2
20
-19.772473
30
0
39
0
210
0
220
0
230
1
50
360
0
ENDBLK
5
15E
100
AcDbEntity
8
0
100
AcDbBlockEnd
0
BLOCK
5
171
100
AcDbEntity
8
0
100
AcDbBlockBegin
2
_U0
70
0
10
0
20
0
30
0
3
_U0
0
MTEXT
5
169
100
AcDbEntity
8
SK2
62
256
6
ByLayer
370
18
48
1
60
0
100
AcDbMText
10
54.738544
20
-17.574859
30
0
210
0
220
0
230
1
1
\W0.7346;63.8
40
3
41
0
44
1.084337
50
0
71
7
72
5
7
iso_b_vert
0
MTEXT
5
16A
100
AcDbEntity
8
SK2
62
256
6
ByLayer
370
18
48
1
60
0
100
AcDbMText
10
52.638544
20
-17.574859
30
0
210
0
220
0
230
1
1
\W1.1313;{\H1.88x;(}
40
3
41
0
44
1.084337
50
0
71
7
72
5
7
iso_b_vert
0
MTEXT
5
16B
100
AcDbEntity
8
SK2
62
256
6
ByLayer
370
18
48
1
60
0
100
AcDbMText
10
61.779456
20
-17.574859
30
0
210
0
220
0
230
1
1
\W1.1313;{\H1.88x;)}
40
3
41
0
44
1.084337
50
0
71
7
72
5
7
iso_b_vert
0
LINE
5
16C
100
AcDbEntity
8
SK2
62
256
6
ByLayer
370
13
48
1
60
0
100
AcDbLine
10
90
20
-5.4875
30
0
11
90
21
-21.772473
31
0
39
0
210
0
220
0
230
1
0
LINE
5
16D
100
AcDbEntity
8
SK2
62
256
6
ByLayer
370
13
48
1
60
0
100
AcDbLine
10
26.2
20
-5.4875
30
0
11
26.2
21
-21.772473
31
0
39
0
210
0
220
0
230
1
0
LINE
5
16E
100
AcDbEntity
8
SK2
62
256
6
ByLayer
370
13
48
1
60
0
100
AcDbLine
10
90
20
-19.772473
30
0
11
26.2
21
-19.772473
31
0
39
0
210
0
220
0
230
1
0
SOLID
5
16F
100
AcDbEntity
8
SK2
62
256
6
ByLayer
370
18
48
1
60
0
100
AcDbTrace
10
90
20
-19.772473
30
0
11
86.500002
21
-20.233257
31
0
12
86.499998
22
-19.311689
32
0
13
86.499998
23
-19.311689
33
0
39
0
210
0
220
0
230
1
0
SOLID
5
170
100
AcDbEntity
8
SK2
62
256
6
ByLayer
370
18
48
1
60
0
100
AcDbTrace
10
26.2
20
-19.772473
30
0
11
29.699998
21
-19.311689
31
0
12
29.700002
22
-20.233257
32
0
13
29.700002
23
-20.233257
33
0
39
0
210
0
220
0
230
1
0
ENDBLK
5
172
100
AcDbEntity
8
0
100
AcDbBlockEnd
0
BLOCK
5
177
100
AcDbEntity
8
0
100
AcDbBlockBegin
2
*D3
70
1
10
0
20
0
30
0
3
*D3
0
LINE
5
179
100
AcDbEntity
8
0
62
256
6
ByLayer
370
-2
48
1
60
0
100
AcDbLine
10
90
20
-5.4875
30
0
11
90
21
-31.772473
31
0
39
0
210
0
220
0
230
1
0
LINE
5
17A
100
AcDbEntity
8
0
62
256
6
ByLayer
370
-2
48
1
60
0
100
AcDbLine
10
6
20
-5.4875
30
0
11
6
21
-31.772473
31
0
39
0
210
0
220
0
230
1
0
LINE
5
17B
100
AcDbEntity
8
0
62
256
6
ByLayer
370
-2
48
1
60
0
100
AcDbLine
10
86.5
20
-29.772473
30
0
11
9.5
21
-29.772473
31
0
39
0
210
0
220
0
230
1
0
SOLID
5
17C
100
AcDbEntity
8
0
62
256
6
ByLayer
370
-1
48
1
60
0
100
AcDbTrace
10
86.5
20
-30.355806
30
0
11
86.5
21
-29.18914
31
0
12
90
22
-29.772473
32
0
13
90
23
-29.772473
33
0
39
0
210
0
220
0
230
1
0
SOLID
5
17D
100
AcDbEntity
8
0
62
256
6
ByLayer
370
-1
48
1
60
0
100
AcDbTrace
10
9.5
20
-29.18914
30
0
11
9.5
21
-30.355806
31
0
12
6
22
-29.772473
32
0
13
6
23
-29.772473
33
0
39
0
210
0
220
0
230
1
0
MTEXT
5
17E
100
AcDbEntity
8
0
62
256
6
ByLayer
370
18
48
1
60
0
100
AcDbMText
10
48
20
-23.772473
30
0
210
0
220
0
230
1
1
\A1;84
40
3
41
0
44
1
50
0
71
5
72
5
7
iso_b_vert
0
POINT
5
17F
100
AcDbEntity
8
Defpoints
62
0
6
ByLayer
370
-1
48
1
60
0
100
AcDbPoint
10
90
20
-3.9
30
0
39
0
210
0
220
0
230
1
50
360
0
POINT
5
180
100
AcDbEntity
8
Defpoints
62
0
6
ByLayer
370
-1
48
1
60
0
100
AcDbPoint
10
6
20
-3.9
30
0
39
0
210
0
220
0
230
1
50
360
0
POINT
5
181
100
AcDbEntity
8
Defpoints
62
0
6
ByLayer
370
-1
48
1
60
0
100
AcDbPoint
10
6
20
-29.772473
30
0
39
0
210
0
220
0
230
1
50
360
0
ENDBLK
5
178
100
AcDbEntity
8
0
100
AcDbBlockEnd
0
BLOCK
5
189
100
AcDbEntity
8
0
100
AcDbBlockBegin
2
_U1
70
0
10
0
20
0
30
0
3
_U1
0
MTEXT
5
183
100
AcDbEntity
8
SK2
62
256
6
ByLayer
370
18
48
1
60
0
100
AcDbMText
10
46.209229
20
-28.887359
30
0
210
0
220
0
230
1
1
\W0.7167;84
40
3
41
0
44
1.084337
50
0
71
7
72
5
7
iso_b_vert
0
LINE
5
184
100
AcDbEntity
8
SK2
62
256
6
ByLayer
370
13
48
1
60
0
100
AcDbLine
10
90
20
-5.4875
30
0
11
90
21
-31.772473
31
0
39
0
210
0
220
0
230
1
0
LINE
5
185
100
AcDbEntity
8
SK2
62
256
6
ByLayer
370
13
48
1
60
0
100
AcDbLine
10
6
20
-5.4875
30
0
11
6
21
-31.772473
31
0
39
0
210
0
220
0
230
1
0
LINE
5
186
100
AcDbEntity
8
SK2
62
256
6
ByLayer
370
13
48
1
60
0
100
AcDbLine
10
90
20
-29.772473
30
0
11
6
21
-29.772473
31
0
39
0
210
0
220
0
230
1
0
SOLID
5
187
100
AcDbEntity
8
SK2
62
256
6
ByLayer
370
18
48
1
60
0
100
AcDbTrace
10
90
20
-29.772473
30
0
11
86.500002
21
-30.233257
31
0
12
86.499998
22
-29.311689
32
0
13
86.499998
23
-29.311689
33
0
39
0
210
0
220
0
230
1
0
SOLID
5
188
100
AcDbEntity
8
SK2
62
256
6
ByLayer
370
18
48
1
60
0
100
AcDbTrace
10
6
20
-29.772473
30
0
11
9.499998
21
-29.311689
31
0
12
9.500002
22
-30.233257
32
0
13
9.500002
23
-30.233257
33
0
39
0
210
0
220
0
230
1
0
ENDBLK
5
18A
100
AcDbEntity
8
0
100
AcDbBlockEnd
0
BLOCK
5
18F
100
AcDbEntity
8
0
100
AcDbBlockBegin
2
*D5
70
1
10
0
20
0
30
0
3
*D5
0
LINE
5
191
100
AcDbEntity
8
0
62
256
6
ByLayer
370
-2
48
1
60
0
100
AcDbLine
10
-36
20
-5.5875
30
0
11
-36
21
-39.772473
31
0
39
0
210
0
220
0
230
1
0
LINE
5
192
100
AcDbEntity
8
0
62
256
6
ByLayer
370
-2
48
1
60
0
100
AcDbLine
10
0
20
-5.5875
30
0
11
0
21
-39.772473
31
0
39
0
210
0
220
0
230
1
0
LINE
5
193
100
AcDbEntity
8
0
62
256
6
ByLayer
370
-2
48
1
60
0
100
AcDbLine
10
-32.5
20
-37.772473
30
0
11
-3.5
21
-37.772473
31
0
39
0
210
0
220
0
230
1
0
SOLID
5
194
100
AcDbEntity
8
0
62
256
6
ByLayer
370
-1
48
1
60
0
100
AcDbTrace
10
-32.5
20
-37.18914
30
0
11
-32.5
21
-38.355806
31
0
12
-36
22
-37.772473
32
0
13
-36
23
-37.772473
33
0
39
0
210
0
220
0
230
1
0
SOLID
5
195
100
AcDbEntity
8
0
62
256
6
ByLayer
370
-1
48
1
60
0
100
AcDbTrace
10
-3.5
20
-38.355806
30
0
11
-3.5
21
-37.18914
31
0
12
0
22
-37.772473
32
0
13
0
23
-37.772473
33
0
39
0
210
0
220
0
230
1
0
MTEXT
5
196
100
AcDbEntity
8
0
62
256
6
ByLayer
370
18
48
1
60
0
100
AcDbMText
10
-18
20
-31.772473
30
0
210
0
220
0
230
1
1
\A1;36
40
3
41
0
44
1
50
0
71
5
72
5
7
iso_b_vert
0
POINT
5
197
100
AcDbEntity
8
Defpoints
62
0
6
ByLayer
370
-1
48
1
60
0
100
AcDbPoint
10
-36
20
-4
30
0
39
0
210
0
220
0
230
1
50
360
0
POINT
5
198
100
AcDbEntity
8
Defpoints
62
0
6
ByLayer
370
-1
48
1
60
0
100
AcDbPoint
10
0
20
-4
30
0
39
0
210
0
220
0
230
1
50
360
0
POINT
5
199
100
AcDbEntity
8
Defpoints
62
0
6
ByLayer
370
-1
48
1
60
0
100
AcDbPoint
10
0
20
-37.772473
30
0
39
0
210
0
220
0
230
1
50
360
0
ENDBLK
5
190
100
AcDbEntity
8
0
100
AcDbBlockEnd
0
BLOCK
5
1A1
100
AcDbEntity
8
0
100
AcDbBlockBegin
2
_U2
70
0
10
0
20
0
30
0
3
_U2
0
MTEXT
5
19B
100
AcDbEntity
8
SK2
62
256
6
ByLayer
370
18
48
1
60
0
100
AcDbMText
10
-19.632828
20
-36.887359
30
0
210
0
220
0
230
1
1
\W0.6740;36
40
3
41
0
44
1.084337
50
0
71
7
72
5
7
iso_b_vert
0
LINE
5
19C
100
AcDbEntity
8
SK2
62
256
6
ByLayer
370
13
48
1
60
0
100
AcDbLine
10
-36
20
-5.5875
30
0
11
-36
21
-39.772473
31
0
39
0
210
0
220
0
230
1
0
LINE
5
19D
100
AcDbEntity
8
SK2
62
256
6
ByLayer
370
13
48
1
60
0
100
AcDbLine
10
0
20
-5.5875
30
0
11
0
21
-39.772473
31
0
39
0
210
0
220
0
230
1
0
LINE
5
19E
100
AcDbEntity
8
SK2
62
256
6
ByLayer
370
13
48
1
60
0
100
AcDbLine
10
-36
20
-37.772473
30
0
11
0
21
-37.772473
31
0
39
0
210
0
220
0
230
1
0
SOLID
5
19F
100
AcDbEntity
8
SK2
62
256
6
ByLayer
370
18
48
1
60
0
100
AcDbTrace
10
-36
20
-37.772473
30
0
11
-32.500002
21
-37.311689
31
0
12
-32.499998
22
-38.233257
32
0
13
-32.499998
23
-38.233257
33
0
39
0
210
0
220
0
230
1
0
SOLID
5
1A0
100
AcDbEntity
8
SK2
62
256
6
ByLayer
370
18
48
1
60
0
100
AcDbTrace
10
0
20
-37.772473
30
0
11
-3.499998
21
-38.233257
31
0
12
-3.500002
22
-37.311689
32
0
13
-3.500002
23
-37.311689
33
0
39
0
210
0
220
0
230
1
0
ENDBLK
5
1A2
100
AcDbEntity
8
0
100
AcDbBlockEnd
0
BLOCK
5
1A7
100
AcDbEntity
8
0
100
AcDbBlockBegin
2
*D7
70
1
10
0
20
0
30
0
3
*D7
0
LINE
5
1A9
100
AcDbEntity
8
0
62
256
6
ByLayer
370
-2
48
1
60
0
100
AcDbLine
10
-36
20
-5.5875
30
0
11
-36
21
-47.772473
31
0
39
0
210
0
220
0
230
1
0
LINE
5
1AA
100
AcDbEntity
8
0
62
256
6
ByLayer
370
-2
48
1
60
0
100
AcDbLine
10
90
20
-5.4875
30
0
11
90
21
-47.772473
31
0
39
0
210
0
220
0
230
1
0
LINE
5
1AB
100
AcDbEntity
8
0
62
256
6
ByLayer
370
-2
48
1
60
0
100
AcDbLine
10
-32.5
20
-45.772473
30
0
11
86.5
21
-45.772473
31
0
39
0
210
0
220
0
230
1
0
SOLID
5
1AC
100
AcDbEntity
8
0
62
256
6
ByLayer
370
-1
48
1
60
0
100
AcDbTrace
10
-32.5
20
-45.18914
30
0
11
-32.5
21
-46.355806
31
0
12
-36
22
-45.772473
32
0
13
-36
23
-45.772473
33
0
39
0
210
0
220
0
230
1
0
SOLID
5
1AD
100
AcDbEntity
8
0
62
256
6
ByLayer
370
-1
48
1
60
0
100
AcDbTrace
10
86.5
20
-46.355806
30
0
11
86.5
21
-45.18914
31
0
12
90
22
-45.772473
32
0
13
90
23
-45.772473
33
0
39
0
210
0
220
0
230
1
0
MTEXT
5
1AE
100
AcDbEntity
8
0
62
256
6
ByLayer
370
18
48
1
60
0
100
AcDbMText
10
27
20
-39.772473
30
0
210
0
220
0
230
1
1
\A1;126
40
3
41
0
44
1
50
0
71
5
72
5
7
iso_b_vert
0
POINT
5
1AF
100
AcDbEntity
8
Defpoints
62
0
6
ByLayer
370
-1
48
1
60
0
100
AcDbPoint
10
-36
20
-4
30
0
39
0
210
0
220
0
230
1
50
360
0
POINT
5
1B0
100
AcDbEntity
8
Defpoints
62
0
6
ByLayer
370
-1
48
1
60
0
100
AcDbPoint
10
90
20
-3.9
30
0
39
0
210
0
220
0
230
1
50
360
0
POINT
5
1B1
100
AcDbEntity
8
Defpoints
62
0
6
ByLayer
370
-1
48
1
60
0
100
AcDbPoint
10
90
20
-45.772473
30
0
39
0
210
0
220
0
230
1
50
360
0
ENDBLK
5
1A8
100
AcDbEntity
8
0
100
AcDbBlockEnd
0
BLOCK
5
1B9
100
AcDbEntity
8
0
100
AcDbBlockBegin
2
_U3
70
0
10
0
20
0
30
0
3
_U3
0
MTEXT
5
1B3
100
AcDbEntity
8
SK2
62
256
6
ByLayer
370
18
48
1
60
0
100
AcDbMText
10
24.621201
20
-44.887359
30
0
210
0
220
0
230
1
1
\W0.6217;126
40
3
41
0
44
1.084337
50
0
71
7
72
5
7
iso_b_vert
0
LINE
5
1B4
100
AcDbEntity
8
SK2
62
256
6
ByLayer
370
13
48
1
60
0
100
AcDbLine
10
-36
20
-5.5875
30
0
11
-36
21
-47.772473
31
0
39
0
210
0
220
0
230
1
0
LINE
5
1B5
100
AcDbEntity
8
SK2
62
256
6
ByLayer
370
13
48
1
60
0
100
AcDbLine
10
90
20
-5.4875
30
0
11
90
21
-47.772473
31
0
39
0
210
0
220
0
230
1
0
LINE
5
1B6
100
AcDbEntity
8
SK2
62
256
6
ByLayer
370
13
48
1
60
0
100
AcDbLine
10
-36
20
-45.772473
30
0
11
90
21
-45.772473
31
0
39
0
210
0
220
0
230
1
0
SOLID
5
1B7
100
AcDbEntity
8
SK2
62
256
6
ByLayer
370
18
48
1
60
0
100
AcDbTrace
10
-36
20
-45.772473
30
0
11
-32.500002
21
-45.311689
31
0
12
-32.499998
22
-46.233257
32
0
13
-32.499998
23
-46.233257
33
0
39
0
210
0
220
0
230
1
0
SOLID
5
1B8
100
AcDbEntity
8
SK2
62
256
6
ByLayer
370
18
48
1
60
0
100
AcDbTrace
10
90
20
-45.772473
30
0
11
86.500002
21
-46.233257
31
0
12
86.499998
22
-45.311689
32
0
13
86.499998
23
-45.311689
33
0
39
0
210
0
220
0
230
1
0
ENDBLK
5
1BA
100
AcDbEntity
8
0
100
AcDbBlockEnd
0
BLOCK
5
1BF
100
AcDbEntity
8
0
100
AcDbBlockBegin
2
*D9
70
1
10
0
20
0
30
0
3
*D9
0
LINE
5
1C1
100
AcDbEntity
8
0
62
256
6
ByLayer
370
-2
48
1
60
0
100
AcDbLine
10
90
20
-5.4875
30
0
11
90
21
-39.772473
31
0
39
0
210
0
220
0
230
1
0
LINE
5
1C2
100
AcDbEntity
8
0
62
256
6
ByLayer
370
-2
48
1
60
0
100
AcDbLine
10
0
20
-5.4875
30
0
11
0
21
-39.772473
31
0
39
0
210
0
220
0
230
1
0
LINE
5
1C3
100
AcDbEntity
8
0
62
256
6
ByLayer
370
-2
48
1
60
0
100
AcDbLine
10
86.5
20
-37.772473
30
0
11
3.5
21
-37.772473
31
0
39
0
210
0
220
0
230
1
0
SOLID
5
1C4
100
AcDbEntity
8
0
62
256
6
ByLayer
370
-1
48
1
60
0
100
AcDbTrace
10
86.5
20
-38.355806
30
0
11
86.5
21
-37.18914
31
0
12
90
22
-37.772473
32
0
13
90
23
-37.772473
33
0
39
0
210
0
220
0
230
1
0
SOLID
5
1C5
100
AcDbEntity
8
0
62
256
6
ByLayer
370
-1
48
1
60
0
100
AcDbTrace
10
3.5
20
-37.18914
30
0
11
3.5
21
-38.355806
31
0
12
0
22
-37.772473
32
0
13
0
23
-37.772473
33
0
39
0
210
0
220
0
230
1
0
MTEXT
5
1C6
100
AcDbEntity
8
0
62
256
6
ByLayer
370
18
48
1
60
0
100
AcDbMText
10
45
20
-31.772473
30
0
210
0
220
0
230
1
1
\A1;90
40
3
41
0
44
1
50
0
71
5
72
5
7
iso_b_vert
0
POINT
5
1C7
100
AcDbEntity
8
Defpoints
62
0
6
ByLayer
370
-1
48
1
60
0
100
AcDbPoint
10
90
20
-3.9
30
0
39
0
210
0
220
0
230
1
50
360
0
POINT
5
1C8
100
AcDbEntity
8
Defpoints
62
0
6
ByLayer
370
-1
48
1
60
0
100
AcDbPoint
10
0
20
-3.9
30
0
39
0
210
0
220
0
230
1
50
360
0
POINT
5
1C9
100
AcDbEntity
8
Defpoints
62
0
6
ByLayer
370
-1
48
1
60
0
100
AcDbPoint
10
0
20
-37.772473
30
0
39
0
210
0
220
0
230
1
50
360
0
ENDBLK
5
1C0
100
AcDbEntity
8
0
100
AcDbBlockEnd
0
BLOCK
5
1D1
100
AcDbEntity
8
0
100
AcDbBlockBegin
2
_U4
70
0
10
0
20
0
30
0
3
_U4
0
MTEXT
5
1CB
100
AcDbEntity
8
2
62
256
6
ByLayer
370
18
48
1
60
0
100
AcDbMText
10
43.367172
20
-36.887359
30
0
210
0
220
0
230
1
1
\W0.6740;90
40
3
41
0
44
1.084337
50
0
71
7
72
5
7
iso_b_vert
0
LINE
5
1CC
100
AcDbEntity
8
2
62
256
6
ByLayer
370
13
48
1
60
0
100
AcDbLine
10
90
20
-5.4875
30
0
11
90
21
-39.772473
31
0
39
0
210
0
220
0
230
1
0
LINE
5
1CD
100
AcDbEntity
8
2
62
256
6
ByLayer
370
13
48
1
60
0
100
AcDbLine
10
0
20
-5.4875
30
0
11
0
21
-39.772473
31
0
39
0
210
0
220
0
230
1
0
LINE
5
1CE
100
AcDbEntity
8
2
62
256
6
ByLayer
370
13
48
1
60
0
100
AcDbLine
10
90
20
-37.772473
30
0
11
0
21
-37.772473
31
0
39
0
210
0
220
0
230
1
0
SOLID
5
1CF
100
AcDbEntity
8
2
62
256
6
ByLayer
370
18
48
1
60
0
100
AcDbTrace
10
90
20
-37.772473
30
0
11
86.500002
21
-38.233257
31
0
12
86.499998
22
-37.311689
32
0
13
86.499998
23
-37.311689
33
0
39
0
210
0
220
0
230
1
0
SOLID
5
1D0
100
AcDbEntity
8
2
62
256
6
ByLayer
370
18
48
1
60
0
100
AcDbTrace
10
0
20
-37.772473
30
0
11
3.499998
21
-37.311689
31
0
12
3.500002
22
-38.233257
32
0
13
3.500002
23
-38.233257
33
0
39
0
210
0
220
0
230
1
0
ENDBLK
5
1D2
100
AcDbEntity
8
0
100
AcDbBlockEnd
0
ENDSEC
0
SECTION
2
ENTITIES
0
ARC
5
C3
100
AcDbEntity
8
1
62
256
6
ByLayer
370
18
48
1
60
0
100
AcDbCircle
39
0
10
0.37424
20
-3.941224
30
0
40
0.200000000000003
210
0
220
0
230
1
100
AcDbArc
50
89.896868
51
159.325467
0
ARC
5
C4
100
AcDbEntity
8
1
62
256
6
ByLayer
370
18
48
1
60
0
100
AcDbCircle
39
0
10
0.37424
20
3.941224
30
0
40
0.200000000000003
210
0
220
0
230
1
100
AcDbArc
50
200.674533
51
270.103132
0
ARC
5
C5
100
AcDbEntity
8
1
62
256
6
ByLayer
370
18
48
1
60
0
100
AcDbCircle
39
0
10
0
20
-3.8
30
0
40
0.199999999999996
210
0
220
0
230
1
100
AcDbArc
50
270
51
339.325467
0
ARC
5
C6
100
AcDbEntity
8
1
62
256
6
ByLayer
370
18
48
1
60
0
100
AcDbCircle
39
0
10
0
20
3.8
30
0
40
0.199999999999996
210
0
220
0
230
1
100
AcDbArc
50
20.674533
51
90
0
ARC
5
C7
100
AcDbEntity
8
SK2
62
256
6
ByLayer
370
13
48
1
60
0
100
AcDbCircle
39
0
10
90
20
0
30
0
40
20.2442540259603
210
0
220
0
230
1
100
AcDbArc
50
8.52206
51
70.006278
0
ARC
5
C8
100
AcDbEntity
8
SK2
62
256
6
ByLayer
370
13
48
1
60
0
100
AcDbCircle
39
0
10
90
20
0
30
0
40
20.2442540259603
210
0
220
0
230
1
100
AcDbArc
50
289.993722
51
351.47794
0
ELLIPSE
5
C9
100
AcDbEntity
8
1
62
256
6
ByLayer
370
13
48
1
60
0
100
AcDbEllipse
10
12.224011
20
-60.187908
30
0
11
-51.5661523457109
21
54.4268547889778
31
0
210
0
220
0
230
1
40
0.683458
41
-0.919038225884996
42
-0.896640989959566
0
ELLIPSE
5
CA
100
AcDbEntity
8
1
62
256
6
ByLayer
370
13
48
1
60
0
100
AcDbEllipse
10
12.192535
20
-60.21773
30
0
11
-51.5698044836019
21
54.4307095341861
31
0
210
0
220
0
230
1
40
0.683458
41
-0.929531142078096
42
-0.895376269682196
0
ELLIPSE
5
CB
100
AcDbEntity
8
1
62
256
6
ByLayer
370
13
48
1
60
0
100
AcDbEllipse
10
12.221345
20
-60.190433
30
0
11
-51.5685654494598
21
54.4294017629396
31
0
210
0
220
0
230
1
40
0.683458
41
-0.919933795221754
42
-0.896514739918971
0
ELLIPSE
5
CC
100
AcDbEntity
8
1
62
256
6
ByLayer
370
13
48
1
60
0
100
AcDbEllipse
10
12.190031
20
-60.220102
30
0
11
-51.5675847708863
21
54.4283666798882
31
0
210
0
220
0
230
1
40
0.683458
41
-0.930526959062531
42
-0.895298454367307
0
ELLIPSE
5
CD
100
AcDbEntity
8
1
62
256
6
ByLayer
370
18
48
1
60
0
100
AcDbEllipse
10
51.099526
20
-3.784623
30
0
11
0.1
21
0
31
0
210
0
220
0
230
1
40
1
41
1.59923634840986
42
3.1410774311093
0
ELLIPSE
5
CE
100
AcDbEntity
8
1
62
256
6
ByLayer
370
18
48
1
60
0
100
AcDbEllipse
10
51.099526
20
3.784623
30
0
11
0.1
21
0
31
0
210
0
220
0
230
1
40
1
41
-3.14107743110977
42
-1.5671483601972
0
POINT
5
70
100
AcDbEntity
8
81
62
256
6
ByLayer
370
18
48
1
60
0
100
AcDbPoint
10
90
20
0
30
0
39
0
210
0
220
0
230
1
50
360
0
POINT
5
72
100
AcDbEntity
8
80
62
256
6
ByLayer
370
18
48
1
60
0
100
AcDbPoint
10
0
20
0
30
0
39
0
210
0
220
0
230
1
50
360
0
POINT
5
74
100
AcDbEntity
8
1
62
256
6
ByLayer
370
18
48
1
60
0
100
AcDbPoint
10
-191.052873
20
-173.90025
30
0
39
0
210
0
220
0
230
1
50
360
0
POINT
5
76
100
AcDbEntity
8
1
62
256
6
ByLayer
370
13
48
1
60
1
100
AcDbPoint
10
-37.5
20
0
30
0
39
0
210
0
220
0
230
1
50
360
0
POINT
5
77
100
AcDbEntity
8
1
62
256
6
ByLayer
370
13
48
1
60
1
100
AcDbPoint
10
90.13194
20
0
30
0
39
0
210
0
220
0
230
1
50
360
0
POINT
5
78
100
AcDbEntity
8
1
62
256
6
ByLayer
370
18
48
1
60
1
100
AcDbPoint
10
90
20
-3.9
30
0
39
0
210
0
220
0
230
1
50
360
0
POINT
5
79
100
AcDbEntity
8
1
62
256
6
ByLayer
370
18
48
1
60
1
100
AcDbPoint
10
26.2
20
-3.9
30
0
39
0
210
0
220
0
230
1
50
360
0
POINT
5
7A
100
AcDbEntity
8
1
62
256
6
ByLayer
370
18
48
1
60
1
100
AcDbPoint
10
90
20
-3.9
30
0
39
0
210
0
220
0
230
1
50
360
0
POINT
5
7B
100
AcDbEntity
8
1
62
256
6
ByLayer
370
18
48
1
60
1
100
AcDbPoint
10
6
20
-3.9
30
0
39
0
210
0
220
0
230
1
50
360
0
POINT
5
7C
100
AcDbEntity
8
1
62
256
6
ByLayer
370
18
48
1
60
1
100
AcDbPoint
10
-36
20
-4
30
0
39
0
210
0
220
0
230
1
50
360
0
POINT
5
7D
100
AcDbEntity
8
1
62
256
6
ByLayer
370
18
48
1
60
1
100
AcDbPoint
10
0
20
-4
30
0
39
0
210
0
220
0
230
1
50
360
0
POINT
5
7E
100
AcDbEntity
8
1
62
256
6
ByLayer
370
18
48
1
60
1
100
AcDbPoint
10
-36
20
-4
30
0
39
0
210
0
220
0
230
1
50
360
0
POINT
5
7F
100
AcDbEntity
8
1
62
256
6
ByLayer
370
18
48
1
60
1
100
AcDbPoint
10
90
20
-3.9
30
0
39
0
210
0
220
0
230
1
50
360
0
POINT
5
80
100
AcDbEntity
8
1
62
256
6
ByLayer
370
18
48
1
60
1
100
AcDbPoint
10
90
20
-3.9
30
0
39
0
210
0
220
0
230
1
50
360
0
POINT
5
81
100
AcDbEntity
8
1
62
256
6
ByLayer
370
18
48
1
60
1
100
AcDbPoint
10
0
20
-3.9
30
0
39
0
210
0
220
0
230
1
50
360
0
SPLINE
5
CF
100
AcDbEntity
8
1
62
256
6
ByLayer
370
18
48
1
60
0
100
AcDbSpline
70
4
71
3
72
8
73
4
40
0
40
0
40
0
40
0
40
1
40
1
40
1
40
1
41
1
10
89.5787827889866
20
1.32539070365067
30
0
41
1
10
89.6866173420584
20
1.0228319908386
30
0
41
1
10
89.7935025518435
20
0.719940996492824
30
0
41
1
10
89.8994182439254
20
0.416710659325673
30
0
0
SPLINE
5
D0
100
AcDbEntity
8
1
62
256
6
ByLayer
370
18
48
1
60
0
100
AcDbSpline
70
4
71
3
72
8
73
4
40
0
40
0
40
0
40
0
40
1
40
1
40
1
40
1
41
1
10
89.8994182439253
20
0.416710659325645
30
0
41
1
10
89.9318266769662
20
0.323927239938854
30
0
41
1
10
89.964988163287
20
0.231566899672629
30
0
41
1
10
89.9989028686862
20
0.139612735317229
30
0
0
SPLINE
5
D1
100
AcDbEntity
8
1
62
256
6
ByLayer
370
13
48
1
60
0
100
AcDbSpline
70
4
71
3
72
45
73
41
40
0
40
0
40
0
40
0
40
0.0022944918998295
40
0.0196277260535797
40
0.0369609602073298
40
0.0716274285148302
40
0.10629389682233
40
0.140960365129831
40
0.158293599283581
40
0.175626833437331
40
0.210293301744832
40
0.244959770052332
40
0.279626238359832
40
0.296959472513583
40
0.314292706667333
40
0.348959174974833
40
0.383625643282334
40
0.418292111589834
40
0.435625345743584
40
0.452958579897334
40
0.487625048204834
40
0.522291516512335
40
0.556957984819835
40
0.574291218973585
40
0.591624453127336
40
0.626290921434836
40
0.660957389742336
40
0.695623858049837
40
0.712957092203587
40
0.730290326357337
40
0.764956794664837
40
0.799623262972338
40
0.834289731279838
40
0.851622965433588
40
0.868956199587339
40
0.903622667894839
40
0.938289136202339
40
0.97295560450984
40
0.990288838663588
40
1
40
1
40
1
40
1
41
1
10
80.9737438967483
20
-1.77129502154193
30
0
41
1
10
80.9646798522262
20
-1.77148587616685
30
0
41
1
10
80.887144205378
20
-1.77308642541215
30
0
41
1
10
80.7411542595236
20
-1.77557893867146
30
0
41
1
10
80.4682344933649
20
-1.77620500056989
30
0
41
1
10
80.1270391280885
20
-1.7723450911821
30
0
41
1
10
79.7168203308667
20
-1.76282099455173
30
0
41
1
10
79.3744014600694
20
-1.75153984841197
30
0
41
1
10
79.1005464370029
20
-1.7399144144637
30
0
41
1
10
78.8276220218531
20
-1.72379688398007
30
0
41
1
10
78.4864162857882
20
-1.69918700146766
30
0
41
1
10
78.0761840736658
20
-1.66526053426026
30
0
41
1
10
77.733758391172
20
-1.63422133475939
30
0
41
1
10
77.4599042595342
20
-1.60694452148903
30
0
41
1
10
77.1869844933789
20
-1.57499427224852
30
0
41
1
10
76.8457891281055
20
-1.53103525386743
30
0
41
1
10
76.4355703308823
20
-1.47463446174834
30
0
41
1
10
76.0931514600722
20
-1.42558919321991
30
0
41
1
10
75.8192964369943
20
-1.38418883732669
30
0
41
1
10
75.5463720218398
20
-1.33818863149392
30
0
41
1
10
75.2051662857717
20
-1.27732696412193
30
0
41
1
10
74.7949340736511
20
-1.2015907058701
30
0
41
1
10
74.452508391166
20
-1.13727104681246
30
0
41
1
10
74.178654259534
20
-1.08405510098396
30
0
41
1
10
73.9057344933784
20
-1.02657205423728
30
0
41
1
10
73.5645391281019
20
-0.95220480418314
30
0
41
1
10
73.1543203308726
20
-0.861361014558412
30
0
41
1
10
72.8119014600595
20
-0.785363777761546
30
0
41
1
10
72.5380464369827
20
-0.72331531360993
30
0
41
1
10
72.265122021831
20
-0.657573294706566
30
0
41
1
10
71.9239162857681
20
-0.57387695169183
30
0
41
1
10
71.5136840736526
20
-0.47302715294515
30
0
41
1
10
71.1712583911633
20
-0.389606466588049
30
0
41
1
10
70.8974042595248
20
-0.32218297867837
30
0
41
1
10
70.6244844933667
20
-0.251839418146972
30
0
41
1
10
70.2832891280876
20
-0.163458385675852
30
0
41
1
10
69.8730703308599
20
-0.0581983428212993
30
0
41
1
10
69.530651460058
20
0.0279970782807482
30
0
41
1
10
69.2869025168599
20
0.0894274772442145
30
0
41
1
10
69.1803642714079
20
0.116949351241885
30
0
41
1
10
69.1421237504772
20
0.126858287065545
30
0
0
SPLINE
5
D2
100
AcDbEntity
8
1
62
256
6
ByLayer
370
13
48
1
60
0
100
AcDbSpline
70
4
71
3
72
43
73
39
40
0
40
0
40
0
40
0
40
0.0276236850235717
40
0.0626981897424289
40
0.0802354421018571
40
0.0977726944612847
40
0.132847199180141
40
0.167921703898997
40
0.202996208617853
40
0.22053346097728
40
0.238070713336709
40
0.273145218055564
40
0.30821972277442
40
0.343294227493277
40
0.360831479852705
40
0.378368732212133
40
0.413443236930989
40
0.448517741649845
40
0.483592246368701
40
0.501129498728129
40
0.518666751087557
40
0.553741255806413
40
0.588815760525269
40
0.623890265244125
40
0.641427517603554
40
0.658964769962981
40
0.694039274681837
40
0.729113779400692
40
0.764188284119549
40
0.781725536478977
40
0.799262788838405
40
0.834337293557261
40
0.869411798276117
40
0.904486302994973
40
0.922023555354401
40
0.939560807713829
40
0.974635312432685
40
1
40
1
40
1
40
1
41
1
10
37.3835820663782
20
-1.77172528082278
30
0
41
1
10
37.2759496468617
20
-1.77298016519794
30
0
41
1
10
37.0314745385028
20
-1.77468306086124
30
0
41
1
10
36.7181514600637
20
-1.77394453008591
30
0
41
1
10
36.4442964369922
20
-1.77067772851919
30
0
41
1
10
36.1713720218416
20
-1.76311274241567
30
0
41
1
10
35.8301662857782
20
-1.74906425947751
30
0
41
1
10
35.4199340736597
20
-1.72752230900014
30
0
41
1
10
35.0775083911679
20
-1.70648950136999
30
0
41
1
10
34.8036542595289
20
-1.68712521590947
30
0
41
1
10
34.5307344933715
20
-1.66315113927016
30
0
41
1
10
34.1895391280943
20
-1.6289086085412
30
0
41
1
10
33.7793203308681
20
-1.5837566173667
30
0
41
1
10
33.4369014600631
20
-1.54369426176933
30
0
41
1
10
33.1630464369924
20
-1.5093165110286
30
0
41
1
10
32.8901220218425
20
-1.47026667563674
30
0
41
1
10
32.5489162857802
20
-1.41772579061174
30
0
41
1
10
32.1386840736626
20
-1.3514643869041
30
0
41
1
10
31.7962583911706
20
-1.2945981651757
30
0
41
1
10
31.522404259531
20
-1.24712381949902
30
0
41
1
10
31.249484493373
20
-1.19518050338098
30
0
41
1
10
30.9082891280948
20
-1.12728114322786
30
0
41
1
10
30.4980703308676
20
-1.04361842156757
30
0
41
1
10
30.1556514600626
20
-0.973132670654195
30
0
41
1
10
29.881796436992
20
-0.915222633249414
30
0
41
1
10
29.6088720218419
20
-0.853296584012384
30
0
41
1
10
29.2676662857791
20
-0.773846068517685
30
0
41
1
10
28.857434073661
20
-0.67747270640686
30
0
41
1
10
28.5150083911684
20
-0.597309373667258
30
0
41
1
10
28.2411542595289
20
-0.532190807920188
30
0
41
1
10
27.9682344933717
20
-0.463729288358707
30
0
41
1
10
27.627039128095
20
-0.377141685270232
30
0
41
1
10
27.2168203308696
20
-0.273411892713028
30
0
41
1
10
26.8744014600649
20
-0.188041509386636
30
0
41
1
10
26.6005464369937
20
-0.119365600222523
30
0
41
1
10
26.3276220220709
20
-0.0482150914405963
30
0
41
1
10
26.0241992332201
20
0.0307918523521948
30
0
41
1
10
25.7886289465733
20
0.0913495541675786
30
0
41
1
10
25.6897047718534
20
0.116586235488597
30
0
0
SPLINE
5
D3
100
AcDbEntity
8
1
62
256
6
ByLayer
370
18
48
1
60
0
100
AcDbSpline
70
4
71
3
72
24
73
20
40
0
40
0
40
0
40
0
40
0.0450037493727579
40
0.0450037493727579
40
0.204169791143918
40
0.204169791143918
40
0.363335832915078
40
0.363335832915078
40
0.442918853800677
40
0.442918853800677
40
0.522501874686277
40
0.522501874686277
40
0.681667916457518
40
0.681667916457518
40
0.761250937343138
40
0.761250937343138
40
0.840833958228759
40
0.840833958228759
40
1
40
1
40
1
40
1
41
1
10
88.330443471989
20
0.918796553837637
30
0
41
1
10
88.3389283934818
20
0.924625650445051
30
0
41
1
10
88.3475250327468
20
0.930524232890718
30
0
41
1
10
88.3870171960262
20
0.957513303327119
30
0
41
1
10
88.419222047057
20
0.979234851219076
30
0
41
1
10
88.4870976621543
20
1.02298704431146
30
0
41
1
10
88.5227490966177
20
1.04504481270493
30
0
41
1
10
88.5792983806338
20
1.07771259858654
30
0
41
1
10
88.5984965544287
20
1.08843324133298
30
0
41
1
10
88.6374000342618
20
1.10925350186105
30
0
41
1
10
88.6571440818783
20
1.11937326888969
30
0
41
1
10
88.7173397280701
20
1.14862081958214
30
0
41
1
10
88.7587653098159
20
1.16661337231398
30
0
41
1
10
88.8231416458951
20
1.1905100532569
30
0
41
1
10
88.844983211031
20
1.19797652894417
30
0
41
1
10
88.8893740894646
20
1.21178196111413
30
0
41
1
10
88.9116876306919
20
1.21804550973948
30
0
41
1
10
88.9790151713893
20
1.23479990402558
30
0
41
1
10
89.024420193174
20
1.24323672362613
30
0
41
1
10
89.0703714312168
20
1.24889260802922
30
0
0
SPLINE
5
D4
100
AcDbEntity
8
1
62
256
6
ByLayer
370
18
48
1
60
0
100
AcDbSpline
70
4
71
3
72
10
73
6
40
0
40
0
40
0
40
0
40
0.5
40
0.5
40
1
40
1
40
1
40
1
41
1
10
89.0703714312169
20
1.24889260802897
30
0
41
1
10
89.1554454910518
20
1.2593639047474
30
0
41
1
10
89.2403938188444
20
1.27073518132201
30
0
41
1
10
89.4099606453827
20
1.29583862429061
30
0
41
1
10
89.4945969221725
20
1.30957519244842
30
0
41
1
10
89.578782788987
20
1.32539070365078
30
0
0
SPLINE
5
D5
100
AcDbEntity
8
1
62
256
6
ByLayer
370
18
48
1
60
0
100
AcDbSpline
70
4
71
3
72
10
73
6
40
0
40
0
40
0
40
0
40
0.5
40
0.5
40
1
40
1
40
1
40
1
41
1
10
89.28418641949
20
1.97953084249431
30
0
41
1
10
89.3297824116449
20
1.86345733066881
30
0
41
1
10
89.3768822609154
20
1.75087979106672
30
0
41
1
10
89.4748641338434
20
1.53283473076149
30
0
41
1
10
89.5257054632222
20
1.42727430277557
30
0
41
1
10
89.5787827889866
20
1.32539070365064
30
0
0
SPLINE
5
D6
100
AcDbEntity
8
1
62
256
6
ByLayer
370
13
48
1
60
0
100
AcDbSpline
70
4
71
3
72
44
73
40
40
0
40
0
40
0
40
0
40
0.0023975364072324
40
0.037165121413844
40
0.071932706420454
40
0.106700291427062
40
0.124084083930367
40
0.141467876433671
40
0.176235461440281
40
0.211003046446893
40
0.245770631453501
40
0.263154423956806
40
0.280538216460111
40
0.31530580146672
40
0.350073386473326
40
0.38484097147994
40
0.402224763983249
40
0.41960855648655
40
0.45437614149316
40
0.489143726499769
40
0.523911311506379
40
0.541295104009682
40
0.558678896512989
40
0.593446481519599
40
0.628214066526208
40
0.662981651532818
40
0.680365444036123
40
0.697749236539428
40
0.732516821546038
40
0.767284406552645
40
0.802051991559257
40
0.819435784062562
40
0.836819576565867
40
0.871587161572477
40
0.906354746579086
40
0.941122331585696
40
0.958506124089001
40
0.975889916592306
40
1
40
1
40
1
40
1
41
1
10
59.2365821605035
20
-1.77171163111237
30
0
41
1
10
59.2271712206551
20
-1.7718518637628
30
0
41
1
10
59.0812925513302
20
-1.77392686317705
30
0
41
1
10
58.7989162857752
20
-1.77519559690876
30
0
41
1
10
58.3886840736563
20
-1.77205737144692
30
0
41
1
10
58.0462583911669
20
-1.76598915077565
30
0
41
1
10
57.7724042595299
20
-1.75852950300202
30
0
41
1
10
57.4994844933722
20
-1.74667224611278
30
0
41
1
10
57.158289128094
20
-1.72732197474573
30
0
41
1
10
56.7480703308655
20
-1.69955479936624
30
0
41
1
10
56.4056514600584
20
-1.67348007319231
30
0
41
1
10
56.1317964369869
20
-1.65011741962888
30
0
41
1
10
55.858872021837
20
-1.62210074936169
30
0
41
1
10
55.5176662857752
20
-1.58291983904903
30
0
41
1
10
55.1074340736593
20
-1.53203956773729
30
0
41
1
10
54.7650083911683
20
-1.48739692147075
30
0
41
1
10
54.4911542595297
20
-1.44943464906416
30
0
41
1
10
54.2182344933736
20
-1.40682941823942
30
0
41
1
10
53.8770391280981
20
-1.35002229582443
30
0
41
1
10
53.4668203308736
20
-1.27889123458749
30
0
41
1
10
53.1244014600685
20
-1.21818757212063
30
0
41
1
10
52.8505464369965
20
-1.1677529265981
30
0
41
1
10
52.577622021845
20
-1.11294272762515
30
0
41
1
10
52.2364162857799
20
-1.04168538013212
30
0
41
1
10
51.8261840736597
20
-0.954279748105591
30
0
41
1
10
51.4837583911684
20
-0.880904261091388
30
0
41
1
10
51.2099042595299
20
-0.820808243497765
30
0
41
1
10
50.9369844933716
20
-0.756847470159386
30
0
41
1
10
50.5957891280927
20
-0.675106771204668
30
0
41
1
10
50.1855703308642
20
-0.576292847325902
30
0
41
1
10
49.8431514600575
20
-0.494342525220816
30
0
41
1
10
49.5692964369863
20
-0.42795433350858
30
0
41
1
10
49.2963720218368
20
-0.358433653469518
30
0
41
1
10
48.9551662857756
20
-0.270808732111078
30
0
41
1
10
48.5449340736598
20
-0.166146533032645
30
0
41
1
10
48.2025083911681
20
-0.0802140178181503
30
0
41
1
10
47.9286542595286
20
-0.0112325748143007
30
0
41
1
10
47.6975643018506
20
0.049068307213048
30
0
41
1
10
47.5346869436559
20
0.0914262969606625
30
0
41
1
10
47.4400014027028
20
0.115931159804887
30
0
0
SPLINE
5
D7
100
AcDbEntity
8
1
62
256
6
ByLayer
370
13
48
1
60
0
100
AcDbSpline
70
4
71
3
72
46
73
42
40
0
40
0
40
0
40
0
40
0.0211327975234901
40
0.0540311961079437
40
0.0704803954001703
40
0.0869295946923971
40
0.11982799327685
40
0.152726391861304
40
0.185624790445758
40
0.202073989737984
40
0.218523189030211
40
0.251421587614665
40
0.284319986199118
40
0.317218384783572
40
0.333667584075798
40
0.350116783368025
40
0.383015181952478
40
0.415913580536932
40
0.448811979121385
40
0.465261178413612
40
0.481710377705839
40
0.514608776290293
40
0.547507174874746
40
0.580405573459199
40
0.596854772751426
40
0.613303972043653
40
0.646202370628106
40
0.67910076921256
40
0.711999167797013
40
0.72844836708924
40
0.744897566381467
40
0.77779596496592
40
0.810694363550374
40
0.843592762134827
40
0.860041961427054
40
0.876491160719281
40
0.909389559303734
40
0.942287957888188
40
0.975186356472641
40
0.991635555764866
40
1
40
1
40
1
40
1
41
1
10
76.7300744128374
20
0.457995821499026
30
0
41
1
10
76.6422445178313
20
0.482419652004722
30
0
41
1
10
76.417663165794
20
0.544593136926352
30
0
41
1
10
76.124674545638
20
0.624744249951476
30
0
41
1
10
75.8512237895224
20
0.698261339173058
30
0
41
1
10
75.5778722265482
20
0.770810284020399
30
0
41
1
10
75.2361636366961
20
0.860211162351732
30
0
41
1
10
74.8259477216718
20
0.964466895246431
30
0
41
1
10
74.4840504741793
20
1.04841023541042
30
0
41
1
10
74.2106004111903
20
1.11344276399646
30
0
41
1
10
73.937248881246
20
1.17728353478901
30
0
41
1
10
73.5955399063886
20
1.2549834306852
30
0
41
1
10
73.1853230392424
20
1.34385076117161
30
0
41
1
10
72.8434245456409
20
1.41353405967021
30
0
41
1
10
72.5699737895347
20
1.46644461068394
30
0
41
1
10
72.2966222265645
20
1.51799640505618
30
0
41
1
10
71.9549136367153
20
1.57962063991582
30
0
41
1
10
71.5446977216882
20
1.64808869893559
30
0
41
1
10
71.2028004741823
20
1.69959264409374
30
0
41
1
10
70.929350411181
20
1.73742233822858
30
0
41
1
10
70.6559988812313
20
1.77381361621536
30
0
41
1
10
70.3142899063694
20
1.81594739183822
30
0
41
1
10
69.9040730392243
20
1.8602330464887
30
0
41
1
10
69.5621745456334
20
1.89070669391282
30
0
41
1
10
69.2887237895368
20
1.91134644129011
30
0
41
1
10
69.0153722265715
20
1.93053636111571
30
0
41
1
10
68.6736636367275
20
1.95079873333287
30
0
41
1
10
68.2634477217033
20
1.96838516087428
30
0
41
1
10
67.9215504741978
20
1.97609553542662
30
0
41
1
10
67.6481004111964
20
1.97838274289623
30
0
41
1
10
67.3747488812459
20
1.979301978362
30
0
41
1
10
67.0330399063819
20
1.97658113580951
30
0
41
1
10
66.6228230392321
20
1.96652222953591
30
0
41
1
10
66.2809245456305
20
1.9510682328854
30
0
41
1
10
66.0074737895249
20
1.9348870918727
30
0
41
1
10
65.7341222265555
20
1.91748467056172
30
0
41
1
10
65.3924136367085
20
1.89191828867678
30
0
41
1
10
64.9821977216866
20
1.85474611207249
30
0
41
1
10
64.6403004741931
20
1.81696314434222
30
0
41
1
10
64.4004504779958
20
1.78735182945212
30
0
41
1
10
64.2973535407363
20
1.7743369679757
30
0
41
1
10
64.2626019333929
20
1.769903005131
30
0
0
SPLINE
5
D8
100
AcDbEntity
8
1
62
256
6
ByLayer
370
13
48
1
60
0
100
AcDbSpline
70
4
71
3
72
45
73
41
40
0
40
0
40
0
40
0
40
0.0141147608194685
40
0.0471121456117782
40
0.080109530404088
40
0.1131069151964
40
0.129605607592555
40
0.14610429998871
40
0.179101684781021
40
0.212099069573332
40
0.245096454365642
40
0.261595146761797
40
0.278093839157953
40
0.311091223950263
40
0.344088608742574
40
0.377085993534885
40
0.39358468593104
40
0.410083378327196
40
0.443080763119506
40
0.476078147911817
40
0.509075532704128
40
0.525574225100283
40
0.542072917496438
40
0.575070302288749
40
0.60806768708106
40
0.64106507187337
40
0.657563764269527
40
0.674062456665681
40
0.707059841457992
40
0.740057226250302
40
0.773054611042613
40
0.789553303438769
40
0.806051995834924
40
0.839049380627234
40
0.872046765419545
40
0.905044150211856
40
0.921542842608011
40
0.938041535004166
40
0.971038919796477
40
1
40
1
40
1
40
1
41
1
10
33.1653586825105
20
0.476075646828548
30
0
41
1
10
33.1068872942994
20
0.492281588754139
30
0
41
1
10
32.9117473846291
20
0.546137685543755
30
0
41
1
10
32.5799136367118
20
0.636947040601939
30
0
41
1
10
32.1696977216881
20
0.746901139372341
30
0
41
1
10
31.8278004741894
20
0.836398020171231
30
0
41
1
10
31.5543504111941
20
0.906284739927884
30
0
41
1
10
31.2809988812465
20
0.975089234045214
30
0
41
1
10
30.9392899063854
20
1.05940514962515
30
0
41
1
10
30.5290730392369
20
1.15687923621366
30
0
41
1
10
30.1871745456349
20
1.23444390656252
30
0
41
1
10
29.9137237895289
20
1.29400441242458
30
0
41
1
10
29.6403722265593
20
1.35228039222963
30
0
41
1
10
29.2986636367117
20
1.42265567389816
30
0
41
1
10
28.888447721688
20
1.50215883562708
30
0
41
1
10
28.5465504741898
20
1.56343375892976
30
0
41
1
10
28.273100411195
20
1.60933952071281
30
0
41
1
10
27.999748881248
20
1.65384100427153
30
0
41
1
10
27.6580399063877
20
1.70637300205644
30
0
41
1
10
27.2478230392399
20
1.76350555006286
30
0
41
1
10
26.9059245456377
20
1.80509207422219
30
0
41
1
10
26.6324737895311
20
1.83478062451451
30
0
41
1
10
26.3591222265611
20
1.86301179132576
30
0
41
1
10
26.0174136367127
20
1.89473624866926
30
0
41
1
10
25.6071977216884
20
1.92626179932097
30
0
41
1
10
25.2653004741903
20
1.94580655257326
30
0
41
1
10
24.9918504111958
20
1.95761131454205
30
0
41
1
10
24.7184988812485
20
1.96799932240563
30
0
41
1
10
24.3767899063877
20
1.97716658999218
30
0
41
1
10
23.9665730392391
20
1.98136258402707
30
0
41
1
10
23.6246745456358
20
1.97780310706815
30
0
41
1
10
23.3512237895285
20
1.97107478543416
30
0
41
1
10
23.0778722265583
20
1.96303750678646
30
0
41
1
10
22.7361636367101
20
1.9491174025645
30
0
41
1
10
22.3259477216862
20
1.92571545438526
30
0
41
1
10
21.9840504741878
20
1.89922134706825
30
0
41
1
10
21.7106004111927
20
1.87432271945158
30
0
41
1
10
21.4372488813018
20
1.84830718899445
30
0
41
1
10
21.1122593105325
20
1.81386090213445
30
0
41
1
10
20.8555139342377
20
1.78301305254763
30
0
41
1
10
20.7354946085174
20
1.76761314741392
30
0
0
SPLINE
5
D9
100
AcDbEntity
8
1
62
256
6
ByLayer
370
13
48
1
60
0
100
AcDbSpline
70
4
71
3
72
18
73
14
40
0
40
0
40
0
40
0
40
0.031528142645507
40
0.094392807333155
40
0.157257472020803
40
0.282986801396099
40
0.408716130771395
40
0.534445460146691
40
0.597310124834339
40
0.660174789521987
40
0.785904118897283
40
0.911633448272579
40
1
40
1
40
1
40
1
41
1
10
89.2841864194899
20
1.97953084249434
30
0
41
1
10
89.2498957082232
20
1.97954641211592
30
0
41
1
10
89.1472347017836
20
1.97934387766324
30
0
41
1
10
88.9762237895225
20
1.97778879423328
30
0
41
1
10
88.7028722265483
20
1.97396041799374
30
0
41
1
10
88.3611636366964
20
1.96529313036348
30
0
41
1
10
87.9509477216722
20
1.94813508048921
30
0
41
1
10
87.6090504741799
20
1.92679459563527
30
0
41
1
10
87.3356004111909
20
1.90596072767539
30
0
41
1
10
87.0622488812467
20
1.88396142244238
30
0
41
1
10
86.7205399063893
20
1.85270626826048
30
0
41
1
10
86.3509575294099
20
1.81319717254081
30
0
41
1
10
86.1180844713685
20
1.78443721539409
30
0
41
1
10
86.021974146987
20
1.77197398835884
30
0
0
SPLINE
5
DA
100
AcDbEntity
8
1
62
256
6
ByLayer
370
13
48
1
60
0
100
AcDbSpline
70
4
71
3
72
46
73
42
40
0
40
0
40
0
40
0
40
0.019454350598449
40
0.0359146998551741
40
0.0523750491118975
40
0.0852957476253476
40
0.118216446138796
40
0.151137144652243
40
0.167597493908966
40
0.18405784316569
40
0.216978541679139
40
0.249899240192589
40
0.282819938706036
40
0.29928028796276
40
0.315740637219484
40
0.348661335732932
40
0.381582034246376
40
0.414502732759829
40
0.430963082016556
40
0.447423431273277
40
0.480344129786726
40
0.513264828300174
40
0.546185526813622
40
0.562645876070344
40
0.57910622532707
40
0.612026923840519
40
0.644947622353967
40
0.677868320867415
40
0.694328670124139
40
0.710789019380863
40
0.743709717894311
40
0.776630416407758
40
0.809551114921208
40
0.826011464177932
40
0.842471813434656
40
0.875392511948105
40
0.908313210461553
40
0.941233908975001
40
0.957694258231725
40
0.974154607488449
40
1
40
1
40
1
40
1
41
1
10
54.9706217963233
20
0.460608400592264
30
0
41
1
10
54.8898090138394
20
0.48310405143593
30
0
41
1
10
54.7406225344413
20
0.524469117365783
30
0
41
1
10
54.5231004111891
20
0.584171476459801
30
0
41
1
10
54.2497488812403
20
0.658327986802647
30
0
41
1
10
53.9080399063785
20
0.749970687101978
30
0
41
1
10
53.497823039231
20
0.857295382761976
30
0
41
1
10
53.1559245456332
20
0.944186127035891
30
0
41
1
10
52.882473789531
20
1.01176939914399
30
0
41
1
10
52.6091222265633
20
1.07820865569994
30
0
41
1
10
52.2674136367178
20
1.15935075698596
30
0
41
1
10
51.857197721695
20
1.2526724568022
30
0
41
1
10
51.5153004741961
20
1.32642135053308
30
0
41
1
10
51.2418504112005
20
1.38276120746059
30
0
41
1
10
50.9684988812525
20
1.4377826710944
30
0
41
1
10
50.6267899063906
20
1.50392075770216
30
0
41
1
10
50.2165730392406
20
1.57806659352482
30
0
41
1
10
49.8746745456357
20
1.634574818651
30
0
41
1
10
49.6012237895272
20
1.67652265769868
30
0
41
1
10
49.3278722265562
20
1.71704032389132
30
0
41
1
10
48.9861636367073
20
1.76444732777048
30
0
41
1
10
48.5759477216827
20
1.81522894377457
30
0
41
1
10
48.2340504741835
20
1.85131092674155
30
0
41
1
10
47.9606004111879
20
1.87651771645085
30
0
41
1
10
47.6872488812404
20
1.90027451190411
30
0
41
1
10
47.3455399063795
20
1.92632767556091
30
0
41
1
10
46.9353230392325
20
1.95094901361352
30
0
41
1
10
46.5934245456342
20
1.9646173377524
30
0
41
1
10
46.3199737895315
20
1.97168223601483
30
0
41
1
10
46.0466222265639
20
1.97734608936443
30
0
41
1
10
45.7049136367183
20
1.98056700136422
30
0
41
1
10
45.2946977216958
20
1.97761359726991
30
0
41
1
10
44.9528004741972
20
1.96807430463772
30
0
41
1
10
44.6793504112015
20
1.95659112627811
30
0
41
1
10
44.4059988812535
20
1.94384600762055
30
0
41
1
10
44.0642899063914
20
1.92407076219325
30
0
41
1
10
43.6540730392408
20
1.89373976594411
30
0
41
1
10
43.3121745456351
20
1.86155497231849
30
0
41
1
10
43.0387237895261
20
1.83217945503011
30
0
41
1
10
42.7947465418253
20
1.80501180858306
30
0
41
1
10
42.6190987576636
20
1.78385652915932
30
0
41
1
10
42.5117781113269
20
1.77031817260769
30
0
0
SPLINE
5
DB
100
AcDbEntity
8
1
62
256
6
ByLayer
370
18
48
1
60
0
100
AcDbSpline
70
4
71
3
72
10
73
6
40
0
40
0
40
0
40
0
40
0.5
40
0.5
40
1
40
1
40
1
40
1
41
1
10
89.2115538364443
20
2.17058206391178
30
0
41
1
10
89.2233589327205
20
2.13856052413405
30
0
41
1
10
89.2352947800908
20
2.1066112761813
30
0
41
1
10
89.2595061916844
20
2.04289738501524
30
0
41
1
10
89.2717670381804
20
2.01114680554599
30
0
41
1
10
89.2841864194899
20
1.97953084249431
30
0
0
SPLINE
5
DC
100
AcDbEntity
8
1
62
256
6
ByLayer
370
18
48
1
60
0
100
AcDbSpline
70
4
71
3
72
16
73
12
40
0
40
0
40
0
40
0
40
0.0656878970116081
40
0.0656878970116081
40
0.252550317609245
40
0.252550317609245
40
0.626275158804621
40
0.626275158804621
40
0.813137579402311
40
0.813137579402311
40
1
40
1
40
1
40
1
41
1
10
89.3147992889553
20
-0.603607960590011
30
0
41
1
10
89.3152935072577
20
-0.604586641935612
30
0
41
1
10
89.3159329045312
20
-0.605654253165199
30
0
41
1
10
89.3189125041299
20
-0.610077301293074
30
0
41
1
10
89.3222230669616
20
-0.614030630619794
30
0
41
1
10
89.3348569548785
20
-0.627498259979944
30
0
41
1
10
89.3464772587077
20
-0.638241085335721
30
0
41
1
10
89.3668541496828
20
-0.65598778108
30
0
41
1
10
89.374183978884
20
-0.662209155102289
30
0
41
1
10
89.3894849403487
20
-0.67495653913889
30
0
41
1
10
89.3974670061125
20
-0.681493025930592
30
0
41
1
10
89.4057164774146
20
-0.688163451081692
30
0
0
SPLINE
5
DD
100
AcDbEntity
8
1
62
256
6
ByLayer
370
18
48
1
60
0
100
AcDbSpline
70
4
71
3
72
8
73
4
40
0
40
0
40
0
40
0
40
1
40
1
40
1
40
1
41
1
10
88.619705560948
20
-3.73399783666244
30
0
41
1
10
88.6520793826349
20
-3.67781423377815
30
0
41
1
10
88.6844784545912
20
-3.62161852730222
30
0
41
1
10
88.7168959450921
20
-3.56542464355738
30
0
0
SPLINE
5
DE
100
AcDbEntity
8
1
62
256
6
ByLayer
370
18
48
1
60
0
100
AcDbSpline
70
4
71
3
72
47
73
43
40
0
40
0
40
0
40
0
40
0.0017436263700106
40
0.0342070457018466
40
0.0666704650336826
40
0.0829021746996006
40
0.0991338843655185
40
0.131597303697355
40
0.164060723029191
40
0.196524142361026
40
0.212755852026945
40
0.228987561692862
40
0.261450981024698
40
0.293914400356535
40
0.32637781968837
40
0.342609529354289
40
0.358841239020206
40
0.391304658352043
40
0.423768077683878
40
0.456231497015715
40
0.472463206681632
40
0.488694916347551
40
0.521158335679386
40
0.553621755011222
40
0.586085174343058
40
0.602316884008977
40
0.618548593674895
40
0.65101201300673
40
0.683475432338566
40
0.715938851670403
40
0.73217056133632
40
0.748402271002238
40
0.780865690334074
40
0.81332910966591
40
0.845792528997746
40
0.862024238663664
40
0.878255948329583
40
0.910719367661418
40
0.943182786993254
40
0.97564620632509
40
0.991877915991006
40
1
40
1
40
1
40
1
41
1
10
76.571138996644
20
0.541465609637783
30
0
41
1
10
76.5637959309861
20
0.543692900988219
30
0
41
1
10
76.4197360903268
20
0.587371116898595
30
0
41
1
10
76.1389148087097
20
0.671815285096812
30
0
41
1
10
75.7970519157034
20
0.772956404452145
30
0
41
1
10
75.523628010402
20
0.852323361936953
30
0
41
1
10
75.2502472697844
20
0.930401766027785
30
0
41
1
10
74.9085040839444
20
1.0263382688259
30
0
41
1
10
74.4982887188223
20
1.13794155975839
30
0
41
1
10
74.1564266970598
20
1.22761435755603
30
0
41
1
10
73.8830035890829
20
1.29693055018612
30
0
41
1
10
73.609623195409
20
1.364683874756
30
0
41
1
10
73.2678802924717
20
1.44684658470371
30
0
41
1
10
72.8576648087015
20
1.5405019871589
30
0
41
1
10
72.5158019157063
20
1.61371351269176
30
0
41
1
10
72.2423780104144
20
1.66910192363307
30
0
41
1
10
71.9689972698009
20
1.7227305975143
30
0
41
1
10
71.6272540839637
20
1.78649519743425
30
0
41
1
10
71.2170387188388
20
1.85692375160312
30
0
41
1
10
70.8751766970627
20
1.9095571823319
30
0
41
1
10
70.6017535890736
20
1.94792056088394
30
0
41
1
10
70.3283731953942
20
1.98443733887052
30
0
41
1
10
69.9866302924523
20
2.02627043983935
30
0
41
1
10
69.5764148086833
20
2.06958111149436
30
0
41
1
10
69.2345519156987
20
2.09872337634511
30
0
41
1
10
68.9611280104166
20
2.11792272479568
30
0
41
1
10
68.6877472698084
20
2.13527909103007
30
0
41
1
10
68.3460040839769
20
2.15281471998534
30
0
41
1
10
67.9357887188556
20
2.16654238365177
30
0
41
1
10
67.5939266970802
20
2.17053327374967
30
0
41
1
10
67.3205035890908
20
2.16948653392473
30
0
41
1
10
67.0471231954104
20
2.16671654881912
30
0
41
1
10
66.7053802924659
20
2.1589978273978
30
0
41
1
10
66.2951648086914
20
2.14241582064176
30
0
41
1
10
65.9533019156958
20
2.12106433848066
30
0
41
1
10
65.6798780104045
20
2.09984207929
30
0
41
1
10
65.4064972697921
20
2.0770998828356
30
0
41
1
10
65.0647540839576
20
2.04454076684695
30
0
41
1
10
64.6545387188387
20
1.99854124164429
30
0
41
1
10
64.3126766970753
20
1.95300978923279
30
0
41
1
10
64.073405244981
20
1.91780809084952
30
0
41
1
10
63.9708573664216
20
1.90237614381755
30
0
41
1
10
63.9366577763738
20
1.89717903649804
30
0
0
SPLINE
5
DF
100
AcDbEntity
8
1
62
256
6
ByLayer
370
18
48
1
60
0
100
AcDbSpline
70
4
71
3
72
46
73
42
40
0
40
0
40
0
40
0
40
0.0106738946571674
40
0.0269570835576634
40
0.0595234613586546
40
0.0920898391596465
40
0.12465621696064
40
0.140939405861136
40
0.157222594761633
40
0.189788972562626
40
0.222355350363618
40
0.254921728164611
40
0.271204917065107
40
0.287488105965604
40
0.320054483766595
40
0.352620861567588
40
0.385187239368582
40
0.401470428269078
40
0.417753617169574
40
0.450319994970567
40
0.48288637277156
40
0.515452750572553
40
0.531735939473049
40
0.548019128373545
40
0.580585506174538
40
0.61315188397553
40
0.645718261776523
40
0.66200145067702
40
0.678284639577516
40
0.710851017378509
40
0.743417395179501
40
0.775983772980494
40
0.79226696188099
40
0.808550150781486
40
0.841116528582479
40
0.873682906383472
40
0.906249284184465
40
0.922532473084961
40
0.938815661985457
40
0.97138203978645
40
1
40
1
40
1
40
1
41
1
10
33.0018051462069
20
0.562658119505244
30
0
41
1
10
32.9569955549686
20
0.576246942747133
30
0
41
1
10
32.843834203604
20
0.610451129037159
30
0
41
1
10
32.5939972697961
20
0.685132829815558
30
0
41
1
10
32.2522540839607
20
0.786110538400038
30
0
41
1
10
31.8420387188396
20
0.904576906047652
30
0
41
1
10
31.500176697071
20
1.00081781023289
30
0
41
1
10
31.2267535890877
20
1.07582952266571
30
0
41
1
10
30.9533731954103
20
1.14941142320836
30
0
41
1
10
30.611630292469
20
1.23929485864102
30
0
41
1
10
30.2014148086961
20
1.34291601270792
30
0
41
1
10
29.8595519157003
20
1.42517359155133
30
0
41
1
10
29.5861280104085
20
1.48816452382465
30
0
41
1
10
29.3127472697958
20
1.54948261232224
30
0
41
1
10
28.9710040839605
20
1.62321598060626
30
0
41
1
10
28.5607887188396
20
1.70615759633395
30
0
41
1
10
28.2189266970714
20
1.76981207335589
30
0
41
1
10
27.9455035890887
20
1.8172621033475
30
0
41
1
10
27.6721231954119
20
1.86290058906096
30
0
41
1
10
27.3303802924713
20
1.91639415317354
30
0
41
1
10
26.920164808699
20
1.97406541451213
30
0
41
1
10
26.578301915703
20
2.01558578324949
30
0
41
1
10
26.3048780104107
20
2.04484602427158
30
0
41
1
10
26.0314972697976
20
2.07224501543902
30
0
41
1
10
25.6897540839616
20
2.10247933501512
30
0
41
1
10
25.27953871884
20
2.13161150886549
30
0
41
1
10
24.937676697072
20
2.1486467675056
30
0
41
1
10
24.6642535890896
20
2.15807463536439
30
0
41
1
10
24.3908731954124
20
2.16570858609771
30
0
41
1
10
24.0491302924714
20
2.17101948674642
30
0
41
1
10
23.6389148086984
20
2.17002707924416
30
0
41
1
10
23.2970519157012
20
2.16165696707773
30
0
41
1
10
23.0236280104081
20
2.15073602235907
30
0
41
1
10
22.7502472697948
20
2.1381757389666
30
0
41
1
10
22.4085040839589
20
2.11824577725156
30
0
41
1
10
21.9982887188375
20
2.08714624746847
30
0
41
1
10
21.6564266970692
20
2.05380682167214
30
0
41
1
10
21.3830035890862
20
2.0231341299737
30
0
41
1
10
21.1096231954537
20
1.99108062195941
30
0
41
1
10
20.7844537501325
20
1.94917398397064
30
0
41
1
10
20.5275599377567
20
1.91220126151759
30
0
41
1
10
20.4073979186247
20
1.8938707871385
30
0
0
SPLINE
5
E0
100
AcDbEntity
8
1
62
256
6
ByLayer
370
18
48
1
60
0
100
AcDbSpline
70
4
71
3
72
8
73
4
40
0
40
0
40
0
40
0
40
1
40
1
40
1
40
1
41
1
10
88.619705560948
20
3.73399783666244
30
0
41
1
10
88.6520793826348
20
3.67781423377826
30
0
41
1
10
88.684478454591
20
3.62161852730242
30
0
41
1
10
88.7168959450919
20
3.56542464355769
30
0
0
SPLINE
5
E1
100
AcDbEntity
8
1
62
256
6
ByLayer
370
18
48
1
60
0
100
AcDbSpline
70
4
71
3
72
8
73
4
40
0
40
0
40
0
40
0
40
1
40
1
40
1
40
1
41
1
10
50.9995260199901
20
2.43327640118744
30
0
41
1
10
50.9995260199901
20
2.42158644577873
30
0
41
1
10
50.9995260199901
20
2.40950286334493
30
0
41
1
10
50.9995260199901
20
2.39703046228757
30
0
0
SPLINE
5
E2
100
AcDbEntity
8
1
62
256
6
ByLayer
370
18
48
1
60
0
100
AcDbSpline
70
4
71
3
72
18
73
14
40
0
40
0
40
0
40
0
40
0.101026993079032
40
0.158930818905862
40
0.216834644732692
40
0.332642296386352
40
0.448449948040011
40
0.564257599693671
40
0.6221614255205
40
0.68006525134733
40
0.79587290300099
40
0.911680554654649
40
1
40
1
40
1
40
1
41
1
10
89.2115538364444
20
2.17058206391178
30
0
41
1
10
89.0922641410047
20
2.17066980917693
30
0
41
1
10
88.9046032180884
20
2.16902275254449
30
0
41
1
10
88.648628010402
20
2.16314221861683
30
0
41
1
10
88.3752472697846
20
2.15517614227687
30
0
41
1
10
88.0335040839446
20
2.14096536548925
30
0
41
1
10
87.6232887188228
20
2.11664956677075
30
0
41
1
10
87.2814266970605
20
2.08889861932434
30
0
41
1
10
87.0080035890836
20
2.06262663472981
30
0
41
1
10
86.7346231954097
20
2.03490880196995
30
0
41
1
10
86.3928802924724
20
1.99620932956969
30
0
41
1
10
86.0151211783453
20
1.94722361106815
30
0
41
1
10
85.7740902087908
20
1.91159340662293
30
0
41
1
10
85.6698129647324
20
1.89543844559896
30
0
0
SPLINE
5
E3
100
AcDbEntity
8
1
62
256
6
ByLayer
370
18
48
1
60
0
100
AcDbSpline
70
4
71
3
72
47
73
43
40
0
40
0
40
0
40
0
40
0.0005190130561354
40
0.0329793213362527
40
0.0492094754763132
40
0.0654396296163718
40
0.0978999378964928
40
0.130360246176612
40
0.162820554456729
40
0.179050708596789
40
0.195280862736848
40
0.227741171016968
40
0.260201479297089
40
0.292661787577206
40
0.308891941717266
40
0.325122095857325
40
0.357582404137444
40
0.39004271241756
40
0.422503020697683
40
0.438733174837746
40
0.454963328977802
40
0.487423637257922
40
0.51988394553804
40
0.552344253818159
40
0.568574407958217
40
0.584804562098279
40
0.617264870378399
40
0.649725178658517
40
0.682185486938636
40
0.698415641078696
40
0.714645795218755
40
0.747106103498875
40
0.779566411778992
40
0.812026720059113
40
0.828256874199173
40
0.844487028339232
40
0.876947336619351
40
0.909407644899471
40
0.94186795317959
40
0.958098107319649
40
0.974328261459709
40
1
40
1
40
1
40
1
41
1
10
54.8173446909074
20
0.542525936766936
30
0
41
1
10
54.8151583088001
20
0.543189824055929
30
0
41
1
10
54.6762303447295
20
0.585370919408007
30
0
41
1
10
54.4689266970685
20
0.647943040166837
30
0
41
1
10
54.1955035890824
20
0.729198710802876
30
0
41
1
10
53.9221231954038
20
0.809253619497468
30
0
41
1
10
53.5803802924618
20
0.907909700974898
30
0
41
1
10
53.1701648086901
20
1.02317849564864
30
0
41
1
10
52.8283019156985
20
1.11631727019008
30
0
41
1
10
52.5548780104107
20
1.18861352708046
30
0
41
1
10
52.2814972698001
20
1.25940584252692
30
0
41
1
10
51.9397540839671
20
1.34557245126646
30
0
41
1
10
51.5295387188472
20
1.44437181233786
30
0
41
1
10
51.1876766970785
20
1.52223885623863
30
0
41
1
10
50.9142535890949
20
1.58153842047824
30
0
41
1
10
50.640873195417
20
1.63912429408924
30
0
41
1
10
50.2991302924747
20
1.70801714474987
30
0
41
1
10
49.8889148087
20
1.78486818110019
30
0
41
1
10
49.547051915701
20
1.84313461449332
30
0
41
1
10
49.2736280104066
20
1.88612331499996
30
0
41
1
10
49.0002472697924
20
1.92727310232434
30
0
41
1
10
48.6585040839556
20
1.97501032323242
30
0
41
1
10
48.2482887188335
20
2.02557210088978
30
0
41
1
10
47.9064266970644
20
2.06095324817889
30
0
41
1
10
47.6330035890809
20
2.08522396640191
30
0
41
1
10
47.3596231954035
20
2.10764585276178
30
0
41
1
10
47.0178802924626
20
2.13158786861104
30
0
41
1
10
46.6076648086914
20
2.15307914037592
30
0
41
1
10
46.2658019156994
20
2.16362824930224
30
0
41
1
10
45.9923780104112
20
2.16783242514779
30
0
41
1
10
45.7189972698008
20
2.1702681091615
30
0
41
1
10
45.3772540839677
20
2.16905215058358
30
0
41
1
10
44.9670387188482
20
2.1602298724639
30
0
41
1
10
44.6251766970797
20
2.14532525931267
30
0
41
1
10
44.3517535890961
20
2.12921659000608
30
0
41
1
10
44.0783731954181
20
2.11153152728588
30
0
41
1
10
43.7366302924755
20
2.08524463008851
30
0
41
1
10
43.3264148087003
20
2.046638331802
30
0
41
1
10
42.9845519157005
20
2.00714453840351
30
0
41
1
10
42.7111280104055
20
1.97163736834827
30
0
41
1
10
42.4663339395043
20
1.93867167819371
30
0
41
1
10
42.2898773841472
20
1.91318490368275
30
0
41
1
10
42.1817581973536
20
1.89690869179265
30
0
0
SPLINE
5
E4
100
AcDbEntity
8
1
62
256
6
ByLayer
370
18
48
1
60
0
100
AcDbSpline
70
4
71
3
72
14
73
10
40
0
40
0
40
0
40
0
40
0.25
40
0.25
40
0.5
40
0.5
40
0.75
40
0.75
40
1
40
1
40
1
40
1
41
1
10
88.7168959450919
20
3.56542464355772
30
0
41
1
10
88.756643052601
20
3.44970068927674
30
0
41
1
10
88.7967656902214
20
3.33348993281285
30
0
41
1
10
88.8776595772165
20
3.1009677360729
30
0
41
1
10
88.9184438649249
20
2.98460043621549
30
0
41
1
10
89.0008328579712
20
2.75175883434963
30
0
41
1
10
89.0424416853071
20
2.63531372171707
30
0
41
1
10
89.1264065672521
20
2.4027636153769
30
0
41
1
10
89.1687799950026
20
2.28660883755595
30
0
41
1
10
89.2115538364444
20
2.17058206391181
30
0
0
SPLINE
5
E5
100
AcDbEntity
8
1
62
256
6
ByLayer
370
18
48
1
60
0
100
AcDbSpline
70
4
71
3
72
18
73
14
40
0
40
0
40
0
40
0
40
0.151733566464539
40
0.151733566464539
40
0.303467132929078
40
0.303467132929078
40
0.455200699393617
40
0.455200699393617
40
0.606934265858156
40
0.606934265858156
40
0.910401398787233
40
0.910401398787233
40
1
40
1
40
1
40
1
41
1
10
89.1493210373376
20
0.608400766880663
30
0
41
1
10
89.1256478519317
20
0.619635048624588
30
0
41
1
10
89.1019483069774
20
0.630656150655796
30
0
41
1
10
89.0544994312479
20
0.652295717808613
30
0
41
1
10
89.0308167529298
20
0.662894393667983
30
0
41
1
10
88.983469077472
20
0.684011803479166
30
0
41
1
10
88.9598094419181
20
0.694498592176643
30
0
41
1
10
88.9126003821852
20
0.714914087150561
30
0
41
1
10
88.8890471685145
20
0.724861982451102
30
0
41
1
10
88.8185610467251
20
0.753827011065141
30
0
41
1
10
88.7717994170923
20
0.771976833611603
30
0
41
1
10
88.7116401931881
20
0.793415499219122
30
0
41
1
10
88.6979556452255
20
0.798157402917496
30
0
41
1
10
88.6843013543618
20
0.802746092348997
30
0
0
SPLINE
5
E6
100
AcDbEntity
8
1
62
256
6
ByLayer
370
13
48
1
60
0
100
AcDbSpline
70
4
71
3
72
45
73
41
40
0
40
0
40
0
40
0
40
0.0036234447608894
40
0.0373571730649761
40
0.0710909013690612
40
0.104824629673144
40
0.121691493825187
40
0.138558357977228
40
0.172292086281314
40
0.206025814585401
40
0.239759542889484
40
0.256626407041526
40
0.273493271193569
40
0.307226999497654
40
0.340960727801734
40
0.374694456105823
40
0.391561320257869
40
0.408428184409908
40
0.442161912713994
40
0.475895641018078
40
0.509629369322163
40
0.526496233474204
40
0.543363097626248
40
0.577096825930334
40
0.610830554234418
40
0.644564282538503
40
0.661431146690545
40
0.678298010842588
40
0.712031739146673
40
0.745765467450756
40
0.779499195754842
40
0.796366059906885
40
0.813232924058927
40
0.846966652363012
40
0.880700380667097
40
0.914434108971182
40
0.931300973123225
40
0.948167837275267
40
0.981901565579352
40
1
40
1
40
1
40
1
41
1
10
59.5433192392202
20
-1.92768192155631
30
0
41
1
10
59.5286610976699
20
-1.92813726266618
30
0
41
1
10
59.377549084886
20
-1.93265280783024
30
0
41
1
10
59.0899497706849
20
-1.93811881596784
30
0
41
1
10
58.6797169585291
20
-1.94042499349587
30
0
41
1
10
58.337259932826
20
-1.93850289448648
30
0
41
1
10
58.0633814694199
20
-1.93406914493022
30
0
41
1
10
57.7904873584799
20
-1.92489353422116
30
0
41
1
10
57.4493225619149
20
-1.90849291207931
30
0
41
1
10
57.0391039130245
20
-1.88372246250904
30
0
41
1
10
56.6966540305468
20
-1.85970570478838
30
0
41
1
10
56.4227745785974
20
-1.83766702475825
30
0
41
1
10
56.1498755378629
20
-1.81060991126537
30
0
41
1
10
55.8086997706843
20
-1.77221260336006
30
0
41
1
10
55.3984669585317
20
-1.7217145785946
30
0
41
1
10
55.0560099328274
20
-1.67692713892691
30
0
41
1
10
54.7821314694199
20
-1.63851280146233
30
0
41
1
10
54.5092373584819
20
-1.59509099690305
30
0
41
1
10
54.1680725619199
20
-1.536856485849
30
0
41
1
10
53.7578539130338
20
-1.46347000478954
30
0
41
1
10
53.4154040305582
20
-1.40042577954205
30
0
41
1
10
53.1415245786083
20
-1.34778833215202
30
0
41
1
10
52.8686255378722
20
-1.2904317132232
30
0
41
1
10
52.5274497706899
20
-1.21561761877433
30
0
41
1
10
52.1172169585327
20
-1.1234478096292
30
0
41
1
10
51.7747599328275
20
-1.0456685342252
30
0
41
1
10
51.5008814694199
20
-0.981742147189891
30
0
41
1
10
51.2279873584793
20
-0.913646595957886
30
0
41
1
10
50.8868225619134
20
-0.826416141953558
30
0
41
1
10
50.4766039130231
20
-0.720591865652807
30
0
41
1
10
50.1341540305457
20
-0.632418432546302
30
0
41
1
10
49.8602745785968
20
-0.560786276834875
30
0
41
1
10
49.5873755378627
20
-0.485774564859355
30
0
41
1
10
49.2461997706846
20
-0.391036641085577
30
0
41
1
10
48.8359669585322
20
-0.277514116174871
30
0
41
1
10
48.4935099328272
20
-0.183889643922612
30
0
41
1
10
48.2196314694188
20
-0.108543941770108
30
0
41
1
10
47.9467373584801
20
-0.030786481162778
30
0
41
1
10
47.6688233453333
20
0.0482269736494061
30
0
41
1
10
47.4588192894458
20
0.107265675599308
30
0
41
1
10
47.3854545548652
20
0.127788844890318
30
0
0
SPLINE
5
E7
100
AcDbEntity
8
1
62
256
6
ByLayer
370
13
48
1
60
0
100
AcDbSpline
70
4
71
3
72
46
73
42
40
0
40
0
40
0
40
0
40
0.0062608596922404
40
0.0231077878060743
40
0.0399547159199082
40
0.0736485721475761
40
0.107342428375244
40
0.141036284602912
40
0.157883212716746
40
0.17473014083058
40
0.208423997058248
40
0.242117853285916
40
0.275811709513584
40
0.292658637627418
40
0.309505565741251
40
0.343199421968919
40
0.376893278196587
40
0.410587134424255
40
0.427434062538089
40
0.444280990651923
40
0.477974846879591
40
0.511668703107259
40
0.545362559334927
40
0.562209487448761
40
0.579056415562595
40
0.612750271790262
40
0.64644412801793
40
0.680137984245598
40
0.696984912359432
40
0.713831840473266
40
0.747525696700934
40
0.781219552928602
40
0.81491340915627
40
0.831760337270104
40
0.848607265383938
40
0.882301121611606
40
0.915994977839273
40
0.949688834066941
40
0.966535762180773
40
0.98338269029461
40
1
40
1
40
1
40
1
41
1
10
81.3138942618786
20
-1.92607083558985
30
0
41
1
10
81.2884449992352
20
-1.92704701490476
30
0
41
1
10
81.1945162099485
20
-1.93053219469218
30
0
41
1
10
81.0321314694137
20
-1.93578611346547
30
0
41
1
10
80.7592373584732
20
-1.9402812858568
30
0
41
1
10
80.4180725619103
20
-1.94088023113986
30
0
41
1
10
80.0078539130273
20
-1.93619514183723
30
0
41
1
10
79.6654040305594
20
-1.92854091196631
30
0
41
1
10
79.391524578615
20
-1.9195162793404
30
0
41
1
10
79.1186255378804
20
-1.90564819782602
30
0
41
1
10
78.7774497706981
20
-1.88344213531539
30
0
41
1
10
78.3672169585384
20
-1.85185061610286
30
0
41
1
10
78.0247599328309
20
-1.82230923892351
30
0
41
1
10
77.7508814694242
20
-1.79590278439326
30
0
41
1
10
77.4779873584869
20
-1.76445637420952
30
0
41
1
10
77.1368225619272
20
-1.72071120341033
30
0
41
1
10
76.7266039130428
20
-1.66400979711094
30
0
41
1
10
76.3841540305623
20
-1.61424893873624
30
0
41
1
10
76.1102745786064
20
-1.57193994300931
30
0
41
1
10
75.8373755378673
20
-1.52467027530693
30
0
41
1
10
75.4961997706817
20
-1.46182186463781
30
0
41
1
10
75.085966958524
20
-1.38316832943005
30
0
41
1
10
74.7435099328251
20
-1.31596093288545
30
0
41
1
10
74.469631469424
20
-1.26010812276411
30
0
41
1
10
74.196737358486
20
-1.1996525710374
30
0
41
1
10
73.8555725619227
20
-1.12120701823406
30
0
41
1
10
73.4453539130316
20
-1.02498926408285
30
0
41
1
10
73.1029040305478
20
-0.944091684926519
30
0
41
1
10
72.8290245785931
20
-0.87782545174619
30
0
41
1
10
72.556125537857
20
-0.80757491622947
30
0
41
1
10
72.2149497706772
20
-0.717939249226447
30
0
41
1
10
71.8047169585251
20
-0.609563069689898
30
0
41
1
10
71.4622599328224
20
-0.519505695103845
30
0
41
1
10
71.1883814694149
20
-0.44651942330205
30
0
41
1
10
70.9154873584745
20
-0.370382310029953
30
0
41
1
10
70.5743225619087
20
-0.274529896682509
30
0
41
1
10
70.1641039130192
20
-0.160007243089893
30
0
41
1
10
69.8216540305465
20
-0.0658070200393865
30
0
41
1
10
69.5477745786027
20
0.0098078911084087
30
0
41
1
10
69.3440301803894
20
0.0678513534627427
30
0
41
1
10
69.2084968729214
20
0.106322407581558
30
0
41
1
10
69.1411770668633
20
0.125373168959158
30
0
0
SPLINE
5
E8
100
AcDbEntity
8
1
62
256
6
ByLayer
370
13
48
1
60
0
100
AcDbSpline
70
4
71
3
72
44
73
40
40
0
40
0
40
0
40
0
40
0.0279680245609191
40
0.0625937978640308
40
0.079906684515586
40
0.0972195711671418
40
0.131845344470253
40
0.166471117773363
40
0.201096891076474
40
0.218409777728029
40
0.235722664379585
40
0.270348437682695
40
0.304974210985806
40
0.339599984288918
40
0.356912870940473
40
0.374225757592029
40
0.40885153089514
40
0.443477304198251
40
0.478103077501361
40
0.495415964152917
40
0.512728850804472
40
0.547354624107583
40
0.581980397410694
40
0.616606170713805
40
0.633919057365362
40
0.651231944016915
40
0.685857717320026
40
0.720483490623137
40
0.755109263926249
40
0.772422150577804
40
0.78973503722936
40
0.82436081053247
40
0.858986583835581
40
0.893612357138692
40
0.910925243790247
40
0.928238130441803
40
0.962863903744914
40
0.997489677048024
40
1
40
1
40
1
40
1
41
1
10
37.6828738926804
20
-1.92945020367776
30
0
41
1
10
37.572494757077
20
-1.9324272382826
30
0
41
1
10
37.3252657832854
20
-1.93778282883946
30
0
41
1
10
37.0091540305528
20
-1.94133036765555
30
0
41
1
10
36.7352745786034
20
-1.94150351659457
30
0
41
1
10
36.4623755378682
20
-1.93704257306982
30
0
41
1
10
36.1211997706877
20
-1.92647900623021
30
0
41
1
10
35.7109669585324
20
-1.90858515151987
30
0
41
1
10
35.368509932827
20
-1.89016325025341
30
0
41
1
10
35.094631469419
20
-1.87257152396467
30
0
41
1
10
34.8217373584795
20
-1.85000874148366
30
0
41
1
10
34.4805725619156
20
-1.81711548304887
30
0
41
1
10
34.0703539130278
20
-1.77302530957797
30
0
41
1
10
33.7279040305521
20
-1.73338836433021
30
0
41
1
10
33.4540245786035
20
-1.69901683628783
30
0
41
1
10
33.1811255378691
20
-1.65960700628293
30
0
41
1
10
32.8399497706896
20
-1.6062052854985
30
0
41
1
10
32.4297169585353
20
-1.53836161193033
30
0
41
1
10
32.0872599328297
20
-1.47971245653619
30
0
41
1
10
31.8133814694211
20
-1.43047759500161
30
0
41
1
10
31.5404873584809
20
-1.37642253205061
30
0
41
1
10
31.199322561916
20
-1.30549866656887
30
0
41
1
10
30.7891039130272
20
-1.21769543280877
30
0
41
1
10
30.4466540305515
20
-1.1433164912512
30
0
41
1
10
30.1727745786031
20
-1.08197757692759
30
0
41
1
10
29.8998755378684
20
-1.01630685761288
30
0
41
1
10
29.5586997706885
20
-0.931839527931402
30
0
41
1
10
29.1484669585336
20
-0.829002345744073
30
0
41
1
10
28.8060099328275
20
-0.743055291566719
30
0
41
1
10
28.532131469419
20
-0.673031245126765
30
0
41
1
10
28.2592373584798
20
-0.599400477696605
30
0
41
1
10
27.9180725619164
20
-0.506081351542008
30
0
41
1
10
27.5078539130295
20
-0.393921503495591
30
0
41
1
10
27.1654040305542
20
-0.301197592301975
30
0
41
1
10
26.891524578605
20
-0.226413611232118
30
0
41
1
10
26.6186255381077
20
-0.148959278911917
30
0
41
1
10
26.2774497721664
20
-0.0520473743580396
30
0
41
1
10
25.9940474544526
20
0.0275089319769393
30
0
41
1
10
25.8472522163922
20
0.0682946389548817
30
0
41
1
10
25.8373285929195
20
0.0710500329437025
30
0
0
SPLINE
5
E9
100
AcDbEntity
8
1
62
256
6
ByLayer
370
18
48
1
60
0
100
AcDbSpline
70
4
71
3
72
22
73
18
40
0
40
0
40
0
40
0
40
0.499999999999871
40
0.499999999999871
40
0.749999999999846
40
0.749999999999846
40
0.874999999999834
40
0.874999999999834
40
0.937499999999871
40
0.937499999999871
40
0.968749999999849
40
0.968749999999849
40
0.984374999999881
40
0.984374999999881
40
0.99218749999994
40
0.99218749999994
40
1
40
1
40
1
40
1
41
1
10
88.5180323146106
20
3.89984585937125
30
0
41
1
10
88.5349594643141
20
3.87246566284071
30
0
41
1
10
88.551911323307
20
3.84492132471797
30
0
41
1
10
88.5773308582664
20
3.8034580496188
30
0
41
1
10
88.5857835284677
20
3.78965244811437
30
0
41
1
10
88.5984715515355
20
3.76888273765653
30
0
41
1
10
88.6027166688738
20
3.76191954085564
30
0
41
1
10
88.6091187190765
20
3.75139335448011
30
0
41
1
10
88.6112526289444
20
3.74788361457448
30
0
41
1
10
88.6143858404128
20
3.74275542045012
30
0
41
1
10
88.6154060416863
20
3.74109484181653
30
0
41
1
10
88.6169867664795
20
3.73850014969184
30
0
41
1
10
88.6175230725143
20
3.73761593308768
30
0
41
1
10
88.6183427267484
20
3.7362570940266
30
0
41
1
10
88.6186185602016
20
3.73579848959804
30
0
41
1
10
88.6191733829268
20
3.73487433857593
30
0
41
1
10
88.6194601066221
20
3.73439430505869
30
0
41
1
10
88.619705560948
20
3.73399783666244
30
0
0
SPLINE
5
EA
100
AcDbEntity
8
1
62
256
6
ByLayer
370
18
48
1
60
0
100
AcDbSpline
70
4
71
3
72
34
73
30
40
0
40
0
40
0
40
0
40
0.0854920085255827
40
0.0854920085255827
40
0.170984017051166
40
0.170984017051166
40
0.21373002131396
40
0.21373002131396
40
0.256476025576754
40
0.256476025576754
40
0.341968034102347
40
0.341968034102347
40
0.384714038365145
40
0.384714038365145
40
0.427460042627944
40
0.427460042627944
40
0.512952051153541
40
0.512952051153541
40
0.598444059679138
40
0.598444059679138
40
0.683936068204735
40
0.683936068204735
40
0.769428076730333
40
0.769428076730333
40
0.85492008525593
40
0.85492008525593
40
0.940412093781527
40
0.940412093781527
40
1
40
1
40
1
40
1
41
1
10
50.9995260199794
20
2.39703046233313
30
0
41
1
10
51.1956568016591
20
2.31582324225886
30
0
41
1
10
51.3916286557927
20
2.23182931046449
30
0
41
1
10
51.7835233032812
20
2.05864733106083
30
0
41
1
10
51.9794357560403
20
1.96940998076715
30
0
41
1
10
52.2735870944633
20
1.83217125951293
30
0
41
1
10
52.3716815000719
20
1.78585507139203
30
0
41
1
10
52.5679866870619
20
1.69213053421859
30
0
41
1
10
52.6662254513963
20
1.64470764757922
30
0
41
1
10
52.9607651942498
20
1.5010859956395
30
0
41
1
10
53.1570055204901
20
1.40351571421934
30
0
41
1
10
53.4513417540779
20
1.2546683340737
30
0
41
1
10
53.5494557460887
20
1.2046519862044
30
0
41
1
10
53.7457394488312
20
1.10391540062471
30
0
41
1
10
53.8439488340228
20
1.05317122635876
30
0
41
1
10
54.1383614166702
20
0.900157320972198
30
0
41
1
10
54.3343219125562
20
0.797095130321793
30
0
41
1
10
54.7259309124559
20
0.589416254285965
30
0
41
1
10
54.9215849301326
20
0.484805683255189
30
0
41
1
10
55.3129150760806
20
0.274622058955288
30
0
41
1
10
55.5086155403082
20
0.169109848560765
30
0
41
1
10
55.9003909230434
20
-0.0421817316161821
30
0
41
1
10
56.0964552724647
20
-0.147982368115379
30
0
41
1
10
56.4892424348586
20
-0.359322358806963
30
0
41
1
10
56.685580406718
20
-0.464710909691263
30
0
41
1
10
57.0783491459646
20
-0.674134357447429
30
0
41
1
10
57.2748269393726
20
-0.778144591411376
30
0
41
1
10
57.6080474716199
20
-0.952759645842235
30
0
41
1
10
57.7448045497219
20
-1.02391905557101
30
0
41
1
10
57.8815074731064
20
-1.09443135124522
30
0
0
SPLINE
5
EB
100
AcDbEntity
8
1
62
256
6
ByLayer
370
18
48
1
60
0
100
AcDbSpline
70
4
71
3
72
26
73
22
40
0
40
0
40
0
40
0
40
0.0963515930397182
40
0.0963515930397182
40
0.209307643909753
40
0.209307643909753
40
0.322263694779788
40
0.322263694779788
40
0.378741720214806
40
0.378741720214806
40
0.435219745649824
40
0.435219745649824
40
0.548175796519859
40
0.548175796519859
40
0.661131847389895
40
0.661131847389895
40
0.77408789825993
40
0.77408789825993
40
0.887043949129965
40
0.887043949129965
40
1
40
1
40
1
40
1
41
1
10
83.4139075416446
20
2.79079754267479
30
0
41
1
10
83.5812014349537
20
2.85074952913698
30
0
41
1
10
83.7484201117142
20
2.90821240759391
30
0
41
1
10
84.1116787617739
20
3.02750059406878
30
0
41
1
10
84.3077308180283
20
3.08839037835543
30
0
41
1
10
84.7001223599335
20
3.20263067702334
30
0
41
1
10
84.8965664646196
20
3.25603426564035
30
0
41
1
10
85.1911658910721
20
3.33019036646792
30
0
41
1
10
85.2893779442006
20
3.35392031180265
30
0
41
1
10
85.4858050297639
20
3.39933676440833
30
0
41
1
10
85.5840311406761
20
3.42102513257393
30
0
41
1
10
85.8783591642817
20
3.48289287433997
30
0
41
1
10
86.0742401063391
20
3.51989501032415
30
0
41
1
10
86.4655853759537
20
3.58532218990166
30
0
41
1
10
86.6610893615239
20
3.6137629824677
30
0
41
1
10
87.0521236117886
20
3.66167093003114
30
0
41
1
10
87.2476442657343
20
3.68114292755959
30
0
41
1
10
87.6389651679335
20
3.71130791183271
30
0
41
1
10
87.8347427049522
20
3.72200302964055
30
0
41
1
10
88.2268620092622
20
3.73458188657992
30
0
41
1
10
88.4233485645166
20
3.73650399372849
30
0
41
1
10
88.619705560948
20
3.73399783666235
30
0
0
SPLINE
5
EC
100
AcDbEntity
8
1
62
256
6
ByLayer
370
18
48
1
60
0
100
AcDbSpline
70
4
71
3
72
30
73
26
40
0
40
0
40
0
40
0
40
0.125000000000002
40
0.125000000000002
40
0.187500000000004
40
0.187500000000004
40
0.250000000000005
40
0.250000000000005
40
0.37500000000003
40
0.37500000000003
40
0.437500000000031
40
0.437500000000031
40
0.500000000000032
40
0.500000000000032
40
0.625000000000009
40
0.625000000000009
40
0.749999999999986
40
0.749999999999986
40
0.812499999999975
40
0.812499999999975
40
0.843749999999979
40
0.843749999999979
40
0.874999999999983
40
0.874999999999983
40
1
40
1
40
1
40
1
41
1
10
89.9989028686863
20
0.139612735317257
30
0
41
1
10
89.9779887211718
20
0.080403731946717
30
0
41
1
10
89.9555079336872
20
0.0219388946667323
30
0
41
1
10
89.9193893900364
20
-0.0645977915551725
30
0
41
1
10
89.9068993343939
20
-0.0933469448326036
30
0
41
1
10
89.8816142936766
20
-0.149281217003164
30
0
41
1
10
89.8687686770513
20
-0.176595986850145
30
0
41
1
10
89.8296525968162
20
-0.256577020174916
30
0
41
1
10
89.8028104257855
20
-0.307300268397682
30
0
41
1
10
89.7613957385458
20
-0.379145087633674
30
0
41
1
10
89.7473382518374
20
-0.40246290486175
30
0
41
1
10
89.7195320032701
20
-0.446451445163177
30
0
41
1
10
89.705706196509
20
-0.467264587181063
30
0
41
1
10
89.6644620868541
20
-0.526166162069018
30
0
41
1
10
89.6372790741992
20
-0.560755707392616
30
0
41
1
10
89.5835034671538
20
-0.619756821777884
30
0
41
1
10
89.557946995592
20
-0.643019272906429
30
0
41
1
10
89.5214567840855
20
-0.668812514356972
30
0
41
1
10
89.5095976294631
20
-0.675887687876354
30
0
41
1
10
89.492248049185
20
-0.684163510567657
30
0
41
1
10
89.4865305822732
20
-0.686532381604252
30
0
41
1
10
89.4753714325021
20
-0.690435585565723
30
0
41
1
10
89.4699130834576
20
-0.691979030773268
30
0
41
1
10
89.4431988257701
20
-0.697707302429933
30
0
41
1
10
89.4236614018614
20
-0.695974178439116
30
0
41
1
10
89.4057164774112
20
-0.688163451077116
30
0
0
SPLINE
5
ED
100
AcDbEntity
8
1
62
256
6
ByLayer
370
18
48
1
60
0
100
AcDbSpline
70
4
71
3
72
97
73
93
40
0
40
0
40
0
40
0
40
0.0312499999999928
40
0.0312499999999928
40
0.0468749999999892
40
0.0468749999999892
40
0.0624999999999856
40
0.078124999999982
40
0.078124999999982
40
0.0859374999999802
40
0.0859374999999802
40
0.0937499999999784
40
0.0937499999999784
40
0.124999999999971
40
0.124999999999971
40
0.140624999999967
40
0.140624999999967
40
0.156249999999964
40
0.156249999999964
40
0.187499999999956
40
0.187499999999956
40
0.203124999999953
40
0.203124999999953
40
0.218749999999949
40
0.234374999999945
40
0.234374999999945
40
0.249999999999941
40
0.249999999999941
40
0.281249999999934
40
0.281249999999934
40
0.312499999999927
40
0.312499999999927
40
0.328124999999923
40
0.328124999999923
40
0.34374999999992
40
0.34374999999992
40
0.374999999999922
40
0.374999999999922
40
0.390624999999928
40
0.390624999999928
40
0.406249999999935
40
0.406249999999935
40
0.437499999999947
40
0.437499999999947
40
0.46874999999996
40
0.46874999999996
40
0.499999999999973
40
0.499999999999973
40
0.531249999999985
40
0.531249999999985
40
0.546874999999991
40
0.546874999999991
40
0.562499999999998
40
0.562499999999998
40
0.593750000000011
40
0.593750000000011
40
0.609375000000017
40
0.609375000000017
40
0.625000000000024
40
0.625000000000024
40
0.656250000000037
40
0.656250000000037
40
0.664062500000039
40
0.664062500000039
40
0.671875000000042
40
0.687500000000047
40
0.703125000000052
40
0.703125000000052
40
0.718750000000057
40
0.718750000000057
40
0.750000000000059
40
0.750000000000059
40
0.765625000000056
40
0.765625000000056
40
0.781250000000053
40
0.781250000000053
40
0.812500000000048
40
0.812500000000048
40
0.843750000000042
40
0.843750000000042
40
0.859375000000033
40
0.859375000000033
40
0.875000000000025
40
0.875000000000025
40
0.906250000000019
40
0.906250000000019
40
0.921875000000016
40
0.921875000000016
40
0.937500000000013
40
0.937500000000013
40
0.968750000000006
40
1
40
1
40
1
40
1
41
1
10
89.4057164774082
20
-0.688163451083085
30
0
41
1
10
89.4093675639908
20
-0.704357882625175
30
0
41
1
10
89.4118855448745
20
-0.722726110908951
30
0
41
1
10
89.4137006796179
20
-0.754022853715185
30
0
41
1
10
89.4139651139892
20
-0.764920134761581
30
0
41
1
10
89.4138134151968
20
-0.787507519240478
30
0
41
1
10
89.4129835820925
20
-0.810929457620801
30
0
41
1
10
89.4107841406383
20
-0.836045350694206
30
0
41
1
10
89.4086036916347
20
-0.855544123663947
30
0
41
1
10
89.4077882653777
20
-0.862154210003723
30
0
41
1
10
89.4059755509647
20
-0.8756023099765
30
0
41
1
10
89.404974392977
20
-0.88246335323376
30
0
41
1
10
89.3995663412912
20
-0.916947457139855
30
0
41
1
10
89.3939520247512
20
-0.945245715961278
30
0
41
1
10
89.3837098237596
20
-0.988740181619193
30
0
41
1
10
89.3799903498852
20
-1.00341403273862
30
0
41
1
10
89.3719358475308
20
-1.0331244855644
30
0
41
1
10
89.3676681576483
20
-1.047911940207
30
0
41
1
10
89.354224798962
20
-1.09199144467584
30
0
41
1
10
89.3444024522557
20
-1.12104641638271
30
0
41
1
10
89.3284776626724
20
-1.16416610267976
30
0
41
1
10
89.3230155967796
20
-1.17833311242706
30
0
41
1
10
89.3119108752184
20
-1.20601735309575
30
0
41
1
10
89.3005934145726
20
-1.23313870646521
30
0
41
1
10
89.2888821290896
20
-1.25918410143234
30
0
41
1
10
89.2769830624289
20
-1.28470148868968
30
0
41
1
10
89.2709312537613
20
-1.2972084950278
30
0
41
1
10
89.2528236935499
20
-1.33331193050083
30
0
41
1
10
89.2407121424068
20
-1.35573215886697
30
0
41
1
10
89.2164365731253
20
-1.39748739191521
30
0
41
1
10
89.2042173248834
20
-1.41688749481923
30
0
41
1
10
89.1862518262714
20
-1.4430591716573
30
0
41
1
10
89.1802886490327
20
-1.45134782211386
30
0
41
1
10
89.168546938184
20
-1.46687993692083
30
0
41
1
10
89.1627768080499
20
-1.47411541417384
30
0
41
1
10
89.1457523615943
20
-1.49429144801803
30
0
41
1
10
89.1347826081348
20
-1.50571169757788
30
0
41
1
10
89.1188621967314
20
-1.51983891446542
30
0
41
1
10
89.1136447926694
20
-1.52404487778722
30
0
41
1
10
89.1033870498272
20
-1.53142609723344
30
0
41
1
10
89.0983366301635
20
-1.53460285034842
30
0
41
1
10
89.0836948310765
20
-1.5424104063741
30
0
41
1
10
89.0745275720134
20
-1.54539782291434
30
0
41
1
10
89.0573173115849
20
-1.54694738809141
30
0
41
1
10
89.0492603040922
20
-1.54550461032684
30
0
41
1
10
89.034353179124
20
-1.53785679404996
30
0
41
1
10
89.0276813929098
20
-1.53175187618828
30
0
41
1
10
89.0158359159593
20
-1.5149880335081
30
0
41
1
10
89.0106614757572
20
-1.50433207760375
30
0
41
1
10
89.0040829175838
20
-1.48463019717951
30
0
41
1
10
89.0020890373499
20
-1.47742193166061
30
0
41
1
10
88.9985927665235
20
-1.4620308555929
30
0
41
1
10
88.9970775150665
20
-1.45381510471103
30
0
41
1
10
88.9932286577459
20
-1.427599482266
30
0
41
1
10
88.9915844511683
20
-1.40804616065452
30
0
41
1
10
88.9906154791168
20
-1.37533073066169
30
0
41
1
10
88.990547257813
20
-1.36379796171119
30
0
41
1
10
88.9909393351113
20
-1.34008668953101
30
0
41
1
10
88.9913957586268
20
-1.32786000679815
30
0
41
1
10
88.9935499267115
20
-1.29007068077948
30
0
41
1
10
88.9960235381891
20
-1.26340968776762
30
0
41
1
10
89.0005483357176
20
-1.22811034479719
30
0
41
1
10
89.0015267525383
20
-1.22094667771947
30
0
41
1
10
89.0036054428118
20
-1.20660300058046
30
0
41
1
10
89.0069147491942
20
-1.18499490034051
30
0
41
1
10
89.0133789239549
20
-1.1485281659125
30
0
41
1
10
89.019573058879
20
-1.11887989760038
30
0
41
1
10
89.0262986828942
20
-1.08899219105274
30
0
41
1
10
89.0299481821959
20
-1.0738552195767
30
0
41
1
10
89.0414735614196
20
-1.02909003419944
30
0
41
1
10
89.0499702585765
20
-0.999845413192361
30
0
41
1
10
89.0639390849877
20
-0.956852256546824
30
0
41
1
10
89.0688274942428
20
-0.942595176569995
30
0
41
1
10
89.0788809565238
20
-0.914784990832914
30
0
41
1
10
89.0840368443366
20
-0.901247518469631
30
0
41
1
10
89.099882185495
20
-0.861682677524783
30
0
41
1
10
89.110951626269
20
-0.836686359677174
30
0
41
1
10
89.1340812695296
20
-0.789423377922475
30
0
41
1
10
89.1458350376028
20
-0.767778904328452
30
0
41
1
10
89.1637333675611
20
-0.738002237267921
30
0
41
1
10
89.1697441980394
20
-0.728528160917108
30
0
41
1
10
89.1818537698054
20
-0.710467285252633
30
0
41
1
10
89.1879740979849
20
-0.70185422564856
30
0
41
1
10
89.2062069946337
20
-0.677679849769191
30
0
41
1
10
89.2182474992035
20
-0.663675049318471
30
0
41
1
10
89.2361302244243
20
-0.645625335073049
30
0
41
1
10
89.2420611832234
20
-0.640104591158689
30
0
41
1
10
89.2538589376807
20
-0.630052286881522
30
0
41
1
10
89.25974582659
20
-0.625508760472059
30
0
41
1
10
89.2770729449632
20
-0.613535193196924
30
0
41
1
10
89.2993807804322
20
-0.601862425666639
30
0
41
1
10
89.3200552944011
20
-0.59848075324885
30
0
41
1
10
89.3299336885319
20
-0.598971387625028
30
0
0
SPLINE
5
EE
100
AcDbEntity
8
1
62
256
6
ByLayer
370
18
48
1
60
0
100
AcDbSpline
70
4
71
3
72
16
73
12
40
0
40
0
40
0
40
0
40
0.125000000000003
40
0.125000000000003
40
0.250000000000005
40
0.500000000000009
40
0.750000000000013
40
0.750000000000013
40
0.875000000000007
40
0.875000000000007
40
1
40
1
40
1
40
1
41
1
10
89.329933688532
20
-0.598971387624829
30
0
41
1
10
89.3264426340613
20
-0.591137482503427
30
0
41
1
10
89.3230991680586
20
-0.582861154308603
30
0
41
1
10
89.3167477039642
20
-0.56559505909641
30
0
41
1
10
89.3076988750425
20
-0.538569292445061
30
0
41
1
10
89.2948657640932
20
-0.488125493816625
30
0
41
1
10
89.286790504845
20
-0.442329140714548
30
0
41
1
10
89.2815102218812
20
-0.406003971737022
30
0
41
1
10
89.2798789298903
20
-0.393555098848339
30
0
41
1
10
89.2768844526993
20
-0.368122884345695
30
0
41
1
10
89.2755192234663
20
-0.355127336850984
30
0
41
1
10
89.2742822261026
20
-0.341858379493601
30
0
0
SPLINE
5
EF
100
AcDbEntity
8
1
62
256
6
ByLayer
370
18
48
1
60
0
100
AcDbSpline
70
4
71
3
72
8
73
4
40
0
40
0
40
0
40
0
40
1
40
1
40
1
40
1
41
1
10
89.2742822261025
20
-0.341858379493658
30
0
41
1
10
89.2452861707045
20
-0.030825038671594
30
0
41
1
10
89.2035449844947
20
0.285967529728964
30
0
41
1
10
89.1493210373376
20
0.60840076688072
30
0
0
SPLINE
5
F0
100
AcDbEntity
8
1
62
256
6
ByLayer
370
18
48
1
60
0
100
AcDbSpline
70
4
71
3
72
20
73
16
40
0
40
0
40
0
40
0
40
0.249999999999987
40
0.249999999999987
40
0.312499999999989
40
0.312499999999989
40
0.374999999999991
40
0.374999999999991
40
0.499999999999995
40
0.499999999999995
40
0.750000000000003
40
0.750000000000003
40
0.875000000000002
40
0.875000000000002
40
1
40
1
40
1
40
1
41
1
10
89.1493210373376
20
0.60840076688072
30
0
41
1
10
89.1011993432148
20
0.601995571643215
30
0
41
1
10
89.0520167723809
20
0.586536242326474
30
0
41
1
10
88.9901097242308
20
0.559418404810714
30
0
41
1
10
88.977708962219
20
0.553630508190139
30
0
41
1
10
88.9529107828293
20
0.541638523604774
30
0
41
1
10
88.9405045483737
20
0.535358422364368
30
0
41
1
10
88.9032295182529
20
0.515229117599006
30
0
41
1
10
88.8783078831478
20
0.500168522303653
30
0
41
1
10
88.803485666883
20
0.449980501678766
30
0
41
1
10
88.7541566517992
20
0.410460633040117
30
0
41
1
10
88.6813154124788
20
0.343682601772827
30
0
41
1
10
88.6572228695625
20
0.320320608028965
30
0
41
1
10
88.6094701871268
20
0.27087975617161
30
0
41
1
10
88.5858104528177
20
0.244806666491854
30
0
41
1
10
88.5623925278291
20
0.217375801083733
30
0
0
SPLINE
5
F1
100
AcDbEntity
8
1
62
256
6
ByLayer
370
18
48
1
60
0
100
AcDbSpline
70
4
71
3
72
14
73
10
40
0
40
0
40
0
40
0
40
0.250000000000005
40
0.250000000000005
40
0.375000000000008
40
0.375000000000008
40
0.50000000000001
40
0.50000000000001
40
1
40
1
40
1
40
1
41
1
10
88.7168959450919
20
-3.56542464355769
30
0
41
1
10
88.7033217667703
20
-3.58582926006022
30
0
41
1
10
88.6902147161962
20
-3.60485176712095
30
0
41
1
10
88.6712651484314
20
-3.6311738181096
30
0
41
1
10
88.66506711395
20
-3.63957899909383
30
0
41
1
10
88.652909580671
20
-3.65562565649071
30
0
41
1
10
88.646953436955
20
-3.6632611666243
30
0
41
1
10
88.6180621405463
20
-3.69911757887573
30
0
41
1
10
88.5975404024837
20
-3.72072624044375
30
0
41
1
10
88.579284200033
20
-3.73545651402171
30
0
0
SPLINE
5
F2
100
AcDbEntity
8
1
62
256
6
ByLayer
370
18
48
1
60
0
100
AcDbSpline
70
4
71
3
72
14
73
10
40
0
40
0
40
0
40
0
40
0.25
40
0.25
40
0.5
40
0.5
40
0.75
40
0.75
40
1
40
1
40
1
40
1
41
1
10
88.7168959450921
20
-3.56542464355735
30
0
41
1
10
88.756643052601
20
-3.4497006892764
30
0
41
1
10
88.7967656902215
20
-3.33348993281257
30
0
41
1
10
88.8776595772166
20
-3.10096773607268
30
0
41
1
10
88.9184438649249
20
-2.98460043621526
30
0
41
1
10
89.0008328579713
20
-2.75175883434946
30
0
41
1
10
89.0424416853072
20
-2.63531372171696
30
0
41
1
10
89.1264065672521
20
-2.40276361537687
30
0
41
1
10
89.1687799950026
20
-2.28660883755592
30
0
41
1
10
89.2115538364444
20
-2.17058206391181
30
0
0
SPLINE
5
F3
100
AcDbEntity
8
1
62
256
6
ByLayer
370
18
48
1
60
0
100
AcDbSpline
70
4
71
3
72
10
73
6
40
0
40
0
40
0
40
0
40
0.5
40
0.5
40
1
40
1
40
1
40
1
41
1
10
89.2115538364444
20
-2.17058206391178
30
0
41
1
10
89.2233589327205
20
-2.13856052413405
30
0
41
1
10
89.2352947800908
20
-2.10661127618133
30
0
41
1
10
89.2595061916844
20
-2.04289738501524
30
0
41
1
10
89.2717670381805
20
-2.01114680554599
30
0
41
1
10
89.28418641949
20
-1.97953084249434
30
0
0
SPLINE
5
F4
100
AcDbEntity
8
1
62
256
6
ByLayer
370
18
48
1
60
0
100
AcDbSpline
70
4
71
3
72
10
73
6
40
0
40
0
40
0
40
0
40
0.5
40
0.5
40
1
40
1
40
1
40
1
41
1
10
89.28418641949
20
-1.97953084249434
30
0
41
1
10
89.3297824116449
20
-1.86345733066884
30
0
41
1
10
89.3768822609154
20
-1.75087979106672
30
0
41
1
10
89.4748641338434
20
-1.53283473076149
30
0
41
1
10
89.5257054632223
20
-1.42727430277557
30
0
41
1
10
89.5787827889866
20
-1.32539070365064
30
0
0
SPLINE
5
F5
100
AcDbEntity
8
1
62
256
6
ByLayer
370
18
48
1
60
0
100
AcDbSpline
70
4
71
3
72
8
73
4
40
0
40
0
40
0
40
0
40
1
40
1
40
1
40
1
41
1
10
89.5787827889866
20
-1.3253907036507
30
0
41
1
10
89.6866173420584
20
-1.02283199083857
30
0
41
1
10
89.7935025518436
20
-0.719940996492738
30
0
41
1
10
89.8994182439254
20
-0.416710659325531
30
0
0
SPLINE
5
F6
100
AcDbEntity
8
1
62
256
6
ByLayer
370
18
48
1
60
0
100
AcDbSpline
70
4
71
3
72
8
73
4
40
0
40
0
40
0
40
0
40
1
40
1
40
1
40
1
41
1
10
89.8994182439254
20
-0.416710659325503
30
0
41
1
10
89.9318266769664
20
-0.323927239938797
30
0
41
1
10
89.9649881632871
20
-0.231566899672657
30
0
41
1
10
89.9989028686862
20
-0.139612735317314
30
0
0
SPLINE
5
F7
100
AcDbEntity
8
1
62
256
6
ByLayer
370
18
48
1
60
0
100
AcDbSpline
70
4
71
3
72
8
73
4
40
0
40
0
40
0
40
0
40
1
40
1
40
1
40
1
41
1
10
89.9989028686863
20
0.139612735317201
30
0
41
1
10
90.0003636629639
20
0.0466678515181513
30
0
41
1
10
90.0003677636582
20
-0.0464069396616367
30
0
41
1
10
89.9989028686863
20
-0.139612735317286
30
0
0
SPLINE
5
F8
100
AcDbEntity
8
1
62
256
6
ByLayer
370
18
48
1
60
0
100
AcDbSpline
70
4
71
3
72
22
73
18
40
0
40
0
40
0
40
0
40
0.499999999999792
40
0.499999999999792
40
0.749999999999689
40
0.749999999999689
40
0.874999999999679
40
0.874999999999679
40
0.937499999999714
40
0.937499999999714
40
0.968749999999773
40
0.968749999999773
40
0.984374999999845
40
0.984374999999845
40
0.992187499999923
40
0.992187499999923
40
1
40
1
40
1
40
1
41
1
10
88.5180323146107
20
-3.8998458593712
30
0
41
1
10
88.5349594643141
20
-3.87246566284068
30
0
41
1
10
88.5519113233071
20
-3.84492132471794
30
0
41
1
10
88.5773308582664
20
-3.8034580496188
30
0
41
1
10
88.5857835284677
20
-3.78965244811437
30
0
41
1
10
88.5984715515355
20
-3.7688827376565
30
0
41
1
10
88.6027166688738
20
-3.76191954085562
30
0
41
1
10
88.6091187190765
20
-3.75139335448011
30
0
41
1
10
88.6112526289444
20
-3.74788361457448
30
0
41
1
10
88.6143858404129
20
-3.74275542045015
30
0
41
1
10
88.6154060416863
20
-3.74109484181653
30
0
41
1
10
88.6169867664796
20
-3.73850014969182
30
0
41
1
10
88.6175230725143
20
-3.73761593308771
30
0
41
1
10
88.6183427267485
20
-3.73625709402663
30
0
41
1
10
88.6186185602016
20
-3.73579848959807
30
0
41
1
10
88.6191733829268
20
-3.73487433857596
30
0
41
1
10
88.6194601066221
20
-3.73439430505869
30
0
41
1
10
88.619705560948
20
-3.73399783666244
30
0
0
SPLINE
5
F9
100
AcDbEntity
8
1
62
256
6
ByLayer
370
18
48
1
60
0
100
AcDbSpline
70
4
71
3
72
102
73
98
40
0
40
0
40
0
40
0
40
0.0217565216667733
40
0.0217565216667733
40
0.0342459055445822
40
0.0342459055445822
40
0.0467352894223912
40
0.0467352894223912
40
0.0592246733002002
40
0.0592246733002002
40
0.0717140571780092
40
0.0717140571780092
40
0.0842034410558182
40
0.0842034410558182
40
0.096692824933627
40
0.096692824933627
40
0.121671592689245
40
0.121671592689245
40
0.146650360444863
40
0.146650360444863
40
0.159139744322672
40
0.159139744322672
40
0.171629128200482
40
0.171629128200482
40
0.196607895956101
40
0.196607895956101
40
0.22158666371172
40
0.22158666371172
40
0.23407604758953
40
0.23407604758953
40
0.24656543146734
40
0.24656543146734
40
0.271544199222959
40
0.271544199222959
40
0.296522966978578
40
0.296522966978578
40
0.346480502489818
40
0.346480502489818
40
0.371459270245438
40
0.371459270245438
40
0.383948654123248
40
0.383948654123248
40
0.396438038001059
40
0.396438038001059
40
0.446395573512303
40
0.446395573512303
40
0.471374341267925
40
0.471374341267925
40
0.483863725145737
40
0.483863725145737
40
0.496353109023548
40
0.496353109023548
40
0.546310644534798
40
0.546310644534798
40
0.571289412290422
40
0.571289412290422
40
0.596268180046047
40
0.596268180046047
40
0.621246947801671
40
0.621246947801671
40
0.646225715557296
40
0.646225715557296
40
0.696183251068545
40
0.696183251068545
40
0.708672634946357
40
0.708672634946357
40
0.721162018824169
40
0.721162018824169
40
0.746140786579792
40
0.746140786579792
40
0.758630170457603
40
0.758630170457603
40
0.771119554335414
40
0.771119554335414
40
0.796098322091034
40
0.796098322091034
40
0.808587705968845
40
0.808587705968845
40
0.821077089846655
40
0.821077089846655
40
0.846055857602276
40
0.846055857602276
40
0.871034625357896
40
0.871034625357896
40
0.896013393113517
40
0.896013393113517
40
0.908502776991327
40
0.908502776991327
40
0.920992160869137
40
0.920992160869137
40
0.945970928624759
40
0.945970928624759
40
0.970949696380381
40
0.970949696380381
40
0.995928464136003
40
0.995928464136003
40
1
40
1
40
1
40
1
41
1
10
61.6658586171219
20
2.79069258608129
30
0
41
1
10
61.8365260345279
20
2.85181836078459
30
0
41
1
10
62.0073006245995
20
2.91048073446981
30
0
41
1
10
62.276443877451
20
2.99875097859191
30
0
41
1
10
62.3746613511427
20
3.03008648123142
30
0
41
1
10
62.571019194746
20
3.09090864153967
30
0
41
1
10
62.6691906819992
20
3.12040533844646
30
0
41
1
10
62.8655600616046
20
3.17751719213064
30
0
41
1
10
62.9637568167853
20
3.20513708838484
30
0
41
1
10
63.1601315683594
20
3.25839672978674
30
0
41
1
10
63.258308711818
20
3.28402734431467
30
0
41
1
10
63.4546664208796
20
3.3333178361039
30
0
41
1
10
63.5528645092255
20
3.35697727839124
30
0
41
1
10
63.7491280991929
20
3.40222269645642
30
0
41
1
10
63.8472072646278
20
3.42381159937898
30
0
41
1
10
64.1413396875562
20
3.48539450833599
30
0
41
1
10
64.3372874944079
20
3.52218255320852
30
0
41
1
10
64.7292222291255
20
3.58714014804281
30
0
41
1
10
64.9251756921539
20
3.61531181271388
30
0
41
1
10
65.2193782821845
20
3.65104991183142
30
0
41
1
10
65.3174927009528
20
3.66187558050703
30
0
41
1
10
65.5138533427849
20
3.68134386741889
30
0
41
1
10
65.6120298418672
20
3.68997962004769
30
0
41
1
10
65.9063297326927
20
3.71255875110151
30
0
41
1
10
66.1023355035046
20
3.72319098429739
30
0
41
1
10
66.4942648975797
20
3.73547127224043
30
0
41
1
10
66.6901628532937
20
3.73703304596808
30
0
41
1
10
66.9842465354413
20
3.7326733760427
30
0
41
1
10
67.0823113269997
20
3.73010049007883
30
0
41
1
10
67.2785471375999
20
3.72271407253734
30
0
41
1
10
67.3767446472292
20
3.71789713426776
30
0
41
1
10
67.6713143532755
20
3.70009056703174
30
0
41
1
10
67.8676949025272
20
3.6837860226554
30
0
41
1
10
68.2604485218376
20
3.64216387095138
30
0
41
1
10
68.4568382958352
20
3.61690889398196
30
0
41
1
10
69.045904412597
20
3.52838637265762
30
0
41
1
10
69.4376172451425
20
3.45230306404781
30
0
41
1
10
70.0254143536717
20
3.31342069135829
30
0
41
1
10
70.2214137035837
20
3.26310124668916
30
0
41
1
10
70.5157428735477
20
3.18184546624519
30
0
41
1
10
70.6139328352734
20
3.15378364559822
30
0
41
1
10
70.8103003486525
20
3.09578655347673
30
0
41
1
10
70.9084711044314
20
3.06585405307115
30
0
41
1
10
71.3993629456509
20
2.91161481901358
30
0
41
1
10
71.7920724969943
20
2.77335135322622
30
0
41
1
10
72.3812187402762
20
2.54704386120454
30
0
41
1
10
72.5775717528655
20
2.46841002651843
30
0
41
1
10
72.8721661880863
20
2.34610378467625
30
0
41
1
10
72.9703649020465
20
2.30460142597835
30
0
41
1
10
73.1667417320473
20
2.22019918436251
30
0
41
1
10
73.2649528974461
20
2.17730499827485
30
0
41
1
10
73.7550268188443
20
1.96013307916527
30
0
41
1
10
74.1447711036784
20
1.77742967892945
30
0
41
1
10
74.7275491434216
20
1.49285826975992
30
0
41
1
10
74.9214805743517
20
1.3961849593004
30
0
41
1
10
75.3091225403182
20
1.20005127901624
30
0
41
1
10
75.5028197176197
20
1.10056046738063
30
0
41
1
10
75.8902243978082
20
0.899176659978139
30
0
41
1
10
76.083944704094
20
0.797316985067681
30
0
41
1
10
76.4716709267795
20
0.591639773809248
30
0
41
1
10
76.6656879447892
20
0.487865650502243
30
0
41
1
10
77.2487803903704
20
0.17482194913552
30
0
41
1
10
77.6389077684009
20
-0.0362319646811216
30
0
41
1
10
78.1296864293547
20
-0.300438288210387
30
0
41
1
10
78.227909345736
20
-0.35323436094248
30
0
41
1
10
78.4241069242319
20
-0.45842732817141
30
0
41
1
10
78.5221455128337
20
-0.510858279476111
30
0
41
1
10
78.8161295279245
20
-0.667572792965615
30
0
41
1
10
79.0119345742665
20
-0.771293112117007
30
0
41
1
10
79.3055856194736
20
-0.925331813093749
30
0
41
1
10
79.4034626133684
20
-0.976418876781281
30
0
41
1
10
79.5992273093854
20
-1.07800607885926
30
0
41
1
10
79.6971146027445
20
-1.12850499464699
30
0
41
1
10
79.9908846846995
20
-1.27898927629741
30
0
41
1
10
80.1868716298916
20
-1.3779651792143
30
0
41
1
10
80.4812997272165
20
-1.52395727492277
30
0
41
1
10
80.5795481340933
20
-1.57222467840543
30
0
41
1
10
80.7758767644603
20
-1.66768448197715
30
0
41
1
10
80.8739952561834
20
-1.71489525775647
30
0
41
1
10
81.1682758591489
20
-1.85488470288613
30
0
41
1
10
81.3643295012626
20
-1.94602870601778
30
0
41
1
10
81.7565729051026
20
-2.12347900365944
30
0
41
1
10
81.9527673657565
20
-2.20977106121842
30
0
41
1
10
82.3455778360813
20
-2.37701928491708
30
0
41
1
10
82.5420269494548
20
-2.45789856282312
30
0
41
1
10
82.8366771280424
20
-2.5746261107368
30
0
41
1
10
82.9349000018125
20
-2.61278349555974
30
0
41
1
10
83.1312228952208
20
-2.68743863374954
30
0
41
1
10
83.2293316704315
20
-2.72393753821123
30
0
41
1
10
83.5235672510509
20
-2.8308684076502
30
0
41
1
10
83.7196026599301
20
-2.89874922877743
30
0
41
1
10
84.1116787617739
20
-3.02750059406881
30
0
41
1
10
84.3077308180283
20
-3.0883903783554
30
0
41
1
10
84.7001223599335
20
-3.20263067702337
30
0
41
1
10
84.8965664646195
20
-3.25603426564032
30
0
41
1
10
85.1249791941382
20
-3.31352995598994
30
0
41
1
10
85.1569936072962
20
-3.32148316503702
30
0
41
1
10
85.1890089491237
20
-3.32933015126295
30
0
0
SPLINE
5
FA
100
AcDbEntity
8
1
62
256
6
ByLayer
370
18
48
1
60
0
100
AcDbSpline
70
4
71
3
72
53
73
49
40
0
40
0
40
0
40
0
40
0.0088527686615473
40
0.0088527686615473
40
0.034890367028342
40
0.034890367028342
40
0.139040760495513
40
0.139040760495513
40
0.165078358862306
40
0.165078358862306
40
0.191115957229099
40
0.191115957229099
40
0.243191153962682
40
0.243191153962682
40
0.295266350696264
40
0.295266350696264
40
0.347341547429847
40
0.347341547429847
40
0.373379145796638
40
0.373379145796638
40
0.386397944980034
40
0.386397944980034
40
0.39941674416343
40
0.39941674416343
40
0.451491940897015
40
0.451491940897015
40
0.477529539263808
40
0.477529539263808
40
0.5035671376306
40
0.5035671376306
40
0.555642334364189
40
0.555642334364189
40
0.659792727831362
40
0.659792727831362
40
0.763943121298536
40
0.763943121298536
40
0.816018318032123
40
0.816018318032123
40
0.829037117215518
40
0.829037117215518
40
0.842055916398913
40
0.868093514765701
40
0.868093514765701
40
0.920168711499279
40
0.920168711499279
40
0.972243908232857
40
0.972243908232857
40
1
40
1
40
1
40
1
41
1
10
67.9067852828454
20
-3.71915724361929
30
0
41
1
10
67.8733528757255
20
-3.72006789142441
30
0
41
1
10
67.8399136712081
20
-3.72084815653838
30
0
41
1
10
67.7080944372249
20
-3.7234082701454
30
0
41
1
10
67.6097768155465
20
-3.7241843444053
30
0
41
1
10
67.1189804299856
20
-3.72246732793855
30
0
41
1
10
66.7282100637439
20
-3.70326305943385
30
0
41
1
10
66.2403720553172
20
-3.6571858608161
30
0
41
1
10
66.1428333141596
20
-3.64685616785181
30
0
41
1
10
65.9478390878743
20
-3.62412411668188
30
0
41
1
10
65.8503888192903
20
-3.61173673419603
30
0
41
1
10
65.5580480304652
20
-3.57134744952864
30
0
41
1
10
65.3631555351294
20
-3.54007356140832
30
0
41
1
10
64.9730638656783
20
-3.46916089298131
30
0
41
1
10
64.7778662874747
20
-3.4295303263647
30
0
41
1
10
64.3868226160478
20
-3.34202725223221
30
0
41
1
10
64.1909737644719
20
-3.29414687174065
30
0
41
1
10
63.8965264490367
20
-3.21634016419597
30
0
41
1
10
63.7982655245421
20
-3.18940747966951
30
0
41
1
10
63.6506729831623
20
-3.14752420055515
30
0
41
1
10
63.6014404286812
20
-3.13331492691145
30
0
41
1
10
63.5031037908986
20
-3.10446329935905
30
0
41
1
10
63.4539746255433
20
-3.08981391321822
30
0
41
1
10
63.2085119193171
20
-3.01546348070906
30
0
41
1
10
63.0127275944164
20
-2.95245110644757
30
0
41
1
10
62.7196802508848
20
-2.85298178510834
30
0
41
1
10
62.6221021410556
20
-2.81899825979778
30
0
41
1
10
62.4271348938218
20
-2.74946242286316
30
0
41
1
10
62.3297470103707
20
-2.7139130450752
30
0
41
1
10
62.0377833716124
20
-2.60495930677524
30
0
41
1
10
61.8434044120721
20
-2.52923929503339
30
0
41
1
10
61.2606171295956
20
-2.29366347133356
30
0
41
1
10
60.8725624850128
20
-2.12540734712869
30
0
41
1
10
60.0950077863439
20
-1.76996443633391
30
0
41
1
10
59.7055352508698
20
-1.58270954696101
30
0
41
1
10
59.118410899902
20
-1.29050101764938
30
0
41
1
10
58.9222077211086
20
-1.19122672074192
30
0
41
1
10
58.6761259355776
20
-1.0651266600785
30
0
41
1
10
58.6268667981702
20
-1.03980550032532
30
0
41
1
10
58.5284802917941
20
-0.989084716274192
30
0
41
1
10
58.3810157950467
20
-0.912843681223393
30
0
41
1
10
58.2338739174316
20
-0.836167651427161
30
0
41
1
10
57.9399599631374
20
-0.682351930433981
30
0
41
1
10
57.7445101138931
20
-0.579190503861298
30
0
41
1
10
57.354402280732
20
-0.371986063571399
30
0
41
1
10
57.1597433912043
20
-0.267944698270355
30
0
41
1
10
56.8616095379197
20
-0.108410860878877
30
0
41
1
10
56.7580045752123
20
-0.0529363477942297
30
0
41
1
10
56.6544285935997
20
0.0025022799992769
30
0
0
SPLINE
5
FB
100
AcDbEntity
8
1
62
256
6
ByLayer
370
18
48
1
60
0
100
AcDbSpline
70
4
71
3
72
54
73
50
40
0
40
0
40
0
40
0
40
0.0328461903959138
40
0.0328461903959138
40
0.0844910780755477
40
0.0844910780755477
40
0.187780853434815
40
0.187780853434815
40
0.239425741114449
40
0.239425741114449
40
0.291070628794083
40
0.291070628794083
40
0.3168930726339
40
0.3168930726339
40
0.342715516473717
40
0.342715516473717
40
0.394360404153348
40
0.394360404153348
40
0.446005291832979
40
0.446005291832979
40
0.49765017951261
40
0.49765017951261
40
0.549295067192241
40
0.549295067192241
40
0.600939954871872
40
0.600939954871872
40
0.652584842551503
40
0.652584842551503
40
0.678407286391319
40
0.678407286391319
40
0.704229730231134
40
0.704229730231134
40
0.755874617910765
40
0.755874617910765
40
0.768785839830675
40
0.768785839830675
40
0.781697061750584
40
0.781697061750584
40
0.807519505590402
40
0.807519505590402
40
0.859164393270036
40
0.859164393270036
40
0.91080928094967
40
0.91080928094967
40
0.962454168629303
40
0.962454168629303
40
0.988276612469122
40
0.988276612469122
40
1
40
1
40
1
40
1
41
1
10
54.8841533455559
20
3.69341820582485
30
0
41
1
10
55.0077975074629
20
3.69800128127565
30
0
41
1
10
55.1312931644237
20
3.70086068367237
30
0
41
1
10
55.448593721189
20
3.70405325263184
30
0
41
1
10
55.6422129677389
20
3.70194148660036
30
0
41
1
10
56.2232224670867
20
3.68154844534098
30
0
41
1
10
56.6106900395732
20
3.64938614368512
30
0
41
1
10
57.1929622713861
20
3.57626945089874
30
0
41
1
10
57.3872265442041
20
3.54774796437027
30
0
41
1
10
57.7760917338526
20
3.48282626951442
30
0
41
1
10
57.9707190557634
20
3.44640493032861
30
0
41
1
10
58.2638261024252
20
3.38495644331937
30
0
41
1
10
58.3617158900271
20
3.36334492080871
30
0
41
1
10
58.557865065359
20
3.31793911720678
30
0
41
1
10
58.6562328733921
20
3.29411636366166
30
0
41
1
10
58.9507434161272
20
3.21978478084958
30
0
41
1
10
59.1464646478037
20
3.16638638186865
30
0
41
1
10
59.5368540538937
20
3.05276871233082
30
0
41
1
10
59.7315164549233
20
2.99253276759018
30
0
41
1
10
60.1199024668696
20
2.86557045171705
30
0
41
1
10
60.3136635842406
20
2.79883055500434
30
0
41
1
10
60.7013077401897
20
2.65851495311045
30
0
41
1
10
60.8951530724303
20
2.58497388140225
30
0
41
1
10
61.2828624461795
20
2.43205549095865
30
0
41
1
10
61.4767309982243
20
2.35266590576523
30
0
41
1
10
61.8645750553792
20
2.1885267354335
30
0
41
1
10
62.0585373301723
20
2.10376797245576
30
0
41
1
10
62.3494707189162
20
1.97285502545014
30
0
41
1
10
62.4464682846661
20
1.92859075606893
30
0
41
1
10
62.6407715883761
20
1.83882410049941
30
0
41
1
10
62.7380618043923
20
1.79332305732032
30
0
41
1
10
63.0303341117648
20
1.65508689620304
30
0
41
1
10
63.2257208407572
20
1.56061355239692
30
0
41
1
10
63.4706803825174
20
1.43992164235806
30
0
41
1
10
63.51970938374
20
1.41565366398842
30
0
41
1
10
63.6178492323284
20
1.3668683488647
30
0
41
1
10
63.666982781058
20
1.34233957403768
30
0
41
1
10
63.8142463157589
20
1.26853037380766
30
0
41
1
10
63.912295581312
20
1.21900044105058
30
0
41
1
10
64.2061391359644
20
1.06957626640627
30
0
41
1
10
64.4016197681592
20
0.968832654522544
30
0
41
1
10
64.7918701729591
20
0.765371597355596
30
0
41
1
10
64.9866509801381
20
0.662671987026783
30
0
41
1
10
65.37589342258
20
0.455995057293535
30
0
41
1
10
65.5703352128134
20
0.351984452259899
30
0
41
1
10
65.8617324032454
20
0.195017349063221
30
0
41
1
10
65.9588408160244
20
0.14257086830338
30
0
41
1
10
66.1001859235115
20
0.0664470921645375
30
0
41
1
10
66.1443376947703
20
0.0426914269735903
30
0
41
1
10
66.1885060986872
20
0.0189476428183184
30
0
0
SPLINE
5
FC
100
AcDbEntity
8
1
62
256
6
ByLayer
370
18
48
1
60
0
100
AcDbSpline
70
4
71
3
72
8
73
4
40
0
40
0
40
0
40
0
40
1
40
1
40
1
40
1
41
1
10
88.4931359711197
20
-3.874452155988
30
0
41
1
10
88.5205553157316
20
-3.83055911832338
30
0
41
1
10
88.5480092128368
20
-3.78645642558257
30
0
41
1
10
88.575502099101
20
-3.74214511279183
30
0
0
SPLINE
5
FD
100
AcDbEntity
8
1
62
256
6
ByLayer
370
18
48
1
60
0
100
AcDbSpline
70
4
71
3
72
8
73
4
40
0
40
0
40
0
40
0
40
1
40
1
40
1
40
1
41
1
10
88.5425809598885
20
-0.306956628382665
30
0
41
1
10
88.5444906723256
20
-0.307546901356005
30
0
41
1
10
88.5454791537268
20
-0.312788261459787
30
0
41
1
10
88.5448051318908
20
-0.318634659500276
30
0
0
SPLINE
5
FE
100
AcDbEntity
8
1
62
256
6
ByLayer
370
18
48
1
60
0
100
AcDbSpline
70
4
71
3
72
47
73
43
40
0
40
0
40
0
40
0
40
0.0062787675018974
40
0.0062787675018974
40
0.110925063241691
40
0.110925063241691
40
0.13708663717664
40
0.13708663717664
40
0.163248211111588
40
0.163248211111588
40
0.215571358981485
40
0.215571358981485
40
0.267894506851382
40
0.267894506851382
40
0.320217654721279
40
0.320217654721279
40
0.372540802591176
40
0.372540802591176
40
0.398702376526124
40
0.411783163493598
40
0.411783163493598
40
0.424863950461073
40
0.424863950461073
40
0.529510246200875
40
0.529510246200875
40
0.581833394070775
40
0.581833394070775
40
0.634156541940674
40
0.634156541940674
40
0.738802837680474
40
0.738802837680474
40
0.791125985550375
40
0.791125985550375
40
0.843449133420276
40
0.843449133420276
40
0.869610707355227
40
0.869610707355227
40
0.895772281290177
40
0.895772281290177
40
0.948095429160081
40
0.948095429160081
40
1
40
1
40
1
40
1
41
1
10
76.817363455003
20
3.73743359004507
30
0
41
1
10
76.8407860951654
20
3.73794447168862
30
0
41
1
10
76.8642018111707
20
3.73838734326162
30
0
41
1
10
77.2777608702489
20
3.74503116162279
30
0
41
1
10
77.6660173405848
20
3.73270100317256
30
0
41
1
10
78.1494456584207
20
3.69840016853422
30
0
41
1
10
78.2460299816173
20
3.69059226875629
30
0
41
1
10
78.4390648887483
20
3.67296271274048
30
0
41
1
10
78.5355399075082
20
3.66308688545271
30
0
41
1
10
78.8251069295929
20
3.62971744586363
30
0
41
1
10
79.0182623148272
20
3.60268857216522
30
0
41
1
10
79.4046977333789
20
3.54036641646655
30
0
41
1
10
79.5980085284415
20
3.505006564111
30
0
41
1
10
79.9851589373421
20
3.42598796750949
30
0
41
1
10
80.1789590884732
20
3.38237465968851
30
0
41
1
10
80.5668629805971
20
3.28771903053581
30
0
41
1
10
80.7610356522758
20
3.2365941725744
30
0
41
1
10
81.0533852630679
20
3.15357407100689
30
0
41
1
10
81.1998149206551
20
3.11050668086944
30
0
41
1
10
81.3466415289143
20
3.06518874796012
30
0
41
1
10
81.4446158082449
20
3.03448638590822
30
0
41
1
10
81.4936637415805
20
3.01888497691465
30
0
41
1
10
81.9345013893647
20
2.87662819313474
30
0
41
1
10
82.3237750162121
20
2.736556612963
30
0
41
1
10
82.9050866029035
20
2.50932966328574
30
0
41
1
10
83.098463050683
20
2.43071177992641
30
0
41
1
10
83.4850813788221
20
2.26790131882311
30
0
41
1
10
83.6782916037505
20
2.18373785787256
30
0
41
1
10
84.2578020851256
20
1.92403943885074
30
0
41
1
10
84.6439832057382
20
1.74122605744685
30
0
41
1
10
85.223949366066
20
1.45496503406011
30
0
41
1
10
85.4174281036685
20
1.35755934002441
30
0
41
1
10
85.8056234367036
20
1.15938265960872
30
0
41
1
10
86.0003070048077
20
1.05860179648363
30
0
41
1
10
86.2932237622754
20
0.905291684055186
30
0
41
1
10
86.3910124085716
20
0.853831375876126
30
0
41
1
10
86.5869122179254
20
0.750250597847298
30
0
41
1
10
86.6850224856438
20
0.698130150292343
30
0
41
1
10
86.9789112848712
20
0.541374717385054
30
0
41
1
10
87.1745713559914
20
0.436176025635064
30
0
41
1
10
87.5640253956678
20
0.225672287116055
30
0
41
1
10
87.7578254968
20
0.120381354239981
30
0
41
1
10
87.951628745654
20
0.0148995652239421
30
0
0
SPLINE
5
FF
100
AcDbEntity
8
1
62
256
6
ByLayer
370
18
48
1
60
0
100
AcDbSpline
70
4
71
3
72
8
73
4
40
0
40
0
40
0
40
0
40
1
40
1
40
1
40
1
41
1
10
88.4944850383491
20
-0.291126233029331
30
0
41
1
10
88.5105047743019
20
-0.296720751929115
30
0
41
1
10
88.5265345821687
20
-0.301996853861453
30
0
41
1
10
88.5425809598885
20
-0.306956628382665
30
0
0
SPLINE
5
100
100
AcDbEntity
8
1
62
256
6
ByLayer
370
18
48
1
60
0
100
AcDbSpline
70
4
71
3
72
54
73
50
40
0
40
0
40
0
40
0
40
0.038079247867905
40
0.038079247867905
40
0.0635673442594258
40
0.0635673442594258
40
0.0890554406509459
40
0.0890554406509459
40
0.14003163343399
40
0.14003163343399
40
0.191007826217033
40
0.191007826217033
40
0.241984019000076
40
0.241984019000076
40
0.267472115391596
40
0.267472115391596
40
0.280216163587358
40
0.280216163587358
40
0.29296021178312
40
0.29296021178312
40
0.343936404566161
40
0.343936404566161
40
0.369424500957683
40
0.369424500957683
40
0.394912597349204
40
0.394912597349204
40
0.445888790132248
40
0.445888790132248
40
0.496864982915291
40
0.496864982915291
40
0.547841175698335
40
0.547841175698335
40
0.598817368481378
40
0.598817368481378
40
0.649793561264422
40
0.649793561264422
40
0.700769754047465
40
0.700769754047465
40
0.726257850438988
40
0.726257850438988
40
0.751745946830512
40
0.751745946830512
40
0.802722139613555
40
0.802722139613555
40
0.853698332396598
40
0.853698332396598
40
0.955650717962686
40
0.955650717962686
40
1
40
1
40
1
40
1
41
1
10
66.7830844274841
20
-0.309981404380693
30
0
41
1
10
66.6372471445857
20
-0.23238830457953
30
0
41
1
10
66.4915795297675
20
-0.154658807902223
30
0
41
1
10
66.2486889643101
20
-0.0246993581308459
30
0
41
1
10
66.1513724524325
20
0.0274617485438569
30
0
41
1
10
65.9569141703152
20
0.131923675498086
30
0
41
1
10
65.8597872205824
20
0.184249036763873
30
0
41
1
10
65.568330006544
20
0.340850992741565
30
0
41
1
10
65.3738491040074
20
0.444628768289846
30
0
41
1
10
64.984535231277
20
0.650873487815545
30
0
41
1
10
64.7897199992846
20
0.753369686820577
30
0
41
1
10
64.399403443784
20
0.956446285147052
30
0
41
1
10
64.2038923581607
20
1.05701122629185
30
0
41
1
10
63.9100080649939
20
1.20619057632592
30
0
41
1
10
63.8119458440121
20
1.25564240440576
30
0
41
1
10
63.664663627358
20
1.32933905491902
30
0
41
1
10
63.6155224555133
20
1.35383187263969
30
0
41
1
10
63.5173651591712
20
1.40254824524848
30
0
41
1
10
63.4683272977692
20
1.42678274042345
30
0
41
1
10
63.2233228381631
20
1.54731209359522
30
0
41
1
10
63.0278987732808
20
1.64167272948103
30
0
41
1
10
62.7355684860802
20
1.77976608694897
30
0
41
1
10
62.6382586913186
20
1.82522409568753
30
0
41
1
10
62.443916391551
20
1.91491567543389
30
0
41
1
10
62.3468982654999
20
1.95914500710253
30
0
41
1
10
62.0558981669421
20
2.08994983905956
30
0
41
1
10
61.8618919003643
20
2.17465025655139
30
0
41
1
10
61.4739646610231
20
2.33871231942047
30
0
41
1
10
61.2800560193986
20
2.41808073482693
30
0
41
1
10
60.8922685848427
20
2.5709895961007
30
0
41
1
10
60.698386370205
20
2.64454445029617
30
0
41
1
10
60.3106711721073
20
2.78492500683075
30
0
41
1
10
60.1168710613249
20
2.85170723010103
30
0
41
1
10
59.7284049838989
20
2.97876955095765
30
0
41
1
10
59.5337052157082
20
3.03906963512199
30
0
41
1
10
59.1432484085852
20
3.15284713163717
30
0
41
1
10
58.9474974984678
20
3.20634156645519
30
0
41
1
10
58.6529484529113
20
3.28084192270799
30
0
41
1
10
58.5545663212449
20
3.30472566470189
30
0
41
1
10
58.3583852964192
20
3.3502619318883
30
0
41
1
10
58.2604790998321
20
3.37194272315321
30
0
41
1
10
57.9673211856586
20
3.43361065972226
30
0
41
1
10
57.7726547210173
20
3.47018890891155
30
0
41
1
10
57.3837062012334
20
3.53544375228671
30
0
41
1
10
57.1894006165054
20
3.5641454843589
30
0
41
1
10
56.607006550484
20
3.63784211941746
30
0
41
1
10
56.2194601936434
20
3.67044184675424
30
0
41
1
10
55.6635162291724
20
3.69064326182359
30
0
41
1
10
55.4950261986735
20
3.69322778990718
30
0
41
1
10
55.326323548098
20
3.69268268409132
30
0
0
SPLINE
5
101
100
AcDbEntity
8
1
62
256
6
ByLayer
370
13
48
1
60
0
100
AcDbSpline
70
4
71
3
72
30
73
26
40
0
40
0
40
0
40
0
40
0.0489584409812469
40
0.0489584409812469
40
0.10839296496268
40
0.10839296496268
40
0.227262012925546
40
0.227262012925546
40
0.286696536906979
40
0.286696536906979
40
0.346131060888412
40
0.346131060888412
40
0.465000108851279
40
0.465000108851279
40
0.524434632832712
40
0.524434632832712
40
0.583869156814145
40
0.583869156814145
40
0.702738204777012
40
0.702738204777012
40
0.762172728758445
40
0.762172728758445
40
0.821607252739878
40
0.821607252739878
40
1
40
1
40
1
40
1
41
1
10
51.0999798382902
20
3.68462428551808
30
0
41
1
10
51.0999767930448
20
3.68460899077797
30
0
41
1
10
51.0999737608573
20
3.68383107261855
30
0
41
1
10
51.0999670742811
20
3.68040815460446
30
0
41
1
10
51.0999634204974
20
3.67739204483962
30
0
41
1
10
51.099952553728
20
3.66496465106837
30
0
41
1
10
51.0999454309639
20
3.65219312238665
30
0
41
1
10
51.0999348695632
20
3.62634753330096
30
0
41
1
10
51.0999313693206
20
3.61661607985732
30
0
41
1
10
51.0999243963604
20
3.59490905128649
30
0
41
1
10
51.0999209205756
20
3.58291979847203
30
0
41
1
10
51.0999105583248
20
3.54373737950587
30
0
41
1
10
51.099903725092
20
3.51330429248594
30
0
41
1
10
51.0998934792432
20
3.46121847130183
30
0
41
1
10
51.099890064429
20
3.44278235359172
30
0
41
1
10
51.0998832150502
20
3.40374908460743
30
0
41
1
10
51.0998797795007
20
3.38314303403845
30
0
41
1
10
51.0998694586995
20
3.31837287531351
30
0
41
1
10
51.0998625438513
20
3.27117445958345
30
0
41
1
10
51.0998519759277
20
3.1943699340716
30
0
41
1
10
51.0998484205177
20
3.16776589835027
30
0
41
1
10
51.0998412178846
20
3.11253952890519
30
0
41
1
10
51.0998375732437
20
3.08393535299032
30
0
41
1
10
51.099822828603
20
2.96604174514849
30
0
41
1
10
51.0998113728546
20
2.86962864178366
30
0
41
1
10
51.0997991437242
20
2.76518335321629
30
0
0
SPLINE
5
102
100
AcDbEntity
8
1
62
256
6
ByLayer
370
18
48
1
60
0
100
AcDbSpline
70
4
71
3
72
49
73
45
40
0
40
0
40
0
40
0
40
0.0777795066687329
40
0.0777795066687329
40
0.128849420470621
40
0.128849420470621
40
0.179919334272508
40
0.205454291173452
40
0.218221769623924
40
0.218221769623924
40
0.230989248074396
40
0.230989248074396
40
0.282059161876287
40
0.282059161876287
40
0.38419898948007
40
0.38419898948007
40
0.486338817083854
40
0.486338817083854
40
0.537408730885748
40
0.537408730885748
40
0.562943687786693
40
0.562943687786693
40
0.588478644687638
40
0.588478644687638
40
0.639548558489529
40
0.652316036940002
40
0.652316036940002
40
0.665083515390476
40
0.665083515390476
40
0.690618472291422
40
0.690618472291422
40
0.741688386093318
40
0.741688386093318
40
0.792758299895214
40
0.792758299895214
40
0.84382821369711
40
0.84382821369711
40
0.869363170598057
40
0.869363170598057
40
0.894898127499004
40
0.894898127499004
40
0.997037955102791
40
0.997037955102791
40
1
40
1
40
1
40
1
41
1
10
56.0846357406722
20
0.317390014503417
30
0
41
1
10
56.3806688059681
20
0.160149089530847
30
0
41
1
10
56.6765979518395
20
0.0019421839984091
30
0
41
1
10
57.1675321098835
20
-0.260079171591912
30
0
41
1
10
57.3622981401668
20
-0.363914176115912
30
0
41
1
10
57.7526211212564
20
-0.570719508228962
30
0
41
1
10
58.0459560271847
20
-0.725176250629374
30
0
41
1
10
58.3894692825859
20
-0.903783118919222
30
0
41
1
10
58.5370115659461
20
-0.979898488566846
30
0
41
1
10
58.6354498087657
20
-1.03053658959371
30
0
41
1
10
58.6847343918136
20
-1.05581673519205
30
0
41
1
10
58.9309242791691
20
-1.18170526607054
30
0
41
1
10
59.1272171397466
20
-1.28082261062332
30
0
41
1
10
59.7146202347192
20
-1.57259373849024
30
0
41
1
10
60.1042940808911
20
-1.75960020085324
30
0
41
1
10
60.8822576103313
20
-2.11464419066692
30
0
41
1
10
61.2705209311334
20
-2.28274668878083
30
0
41
1
10
61.8536295192593
20
-2.51815124913682
30
0
41
1
10
62.0481163580289
20
-2.59382417073141
30
0
41
1
10
62.3402448363017
20
-2.70272024141517
30
0
41
1
10
62.4376887892773
20
-2.73825256091362
30
0
41
1
10
62.6327676275965
20
-2.8077606931756
30
0
41
1
10
62.7304006102984
20
-2.8417335737229
30
0
41
1
10
63.0236118531436
20
-2.94117768880665
30
0
41
1
10
63.2684792327759
20
-3.01993332729725
30
0
41
1
10
63.5142624169664
20
-3.09318365678578
30
0
41
1
10
63.6126540242567
20
-3.12203791947988
30
0
41
1
10
63.6619133530418
20
-3.13624886031482
30
0
41
1
10
63.8095690127353
20
-3.17813421344724
30
0
41
1
10
63.9078730076236
20
-3.20507123539122
30
0
41
1
10
64.2024515861066
20
-3.28289961248171
30
0
41
1
10
64.3983900741448
20
-3.33080553427323
30
0
41
1
10
64.7896189638823
20
-3.41837806178501
30
0
41
1
10
64.9849129980839
20
-3.45805352699415
30
0
41
1
10
65.3752020844327
20
-3.52907604791858
30
0
41
1
10
65.5701946207673
20
-3.56041304532189
30
0
41
1
10
65.8626919073762
20
-3.60090954710708
30
0
41
1
10
65.9601968779675
20
-3.61333702575428
30
0
41
1
10
66.1552996107667
20
-3.63615508050447
30
0
41
1
10
66.2528905333558
20
-3.64652836268297
30
0
41
1
10
66.7409882607436
20
-3.69282661772692
30
0
41
1
10
67.1319753234686
20
-3.71223619861692
30
0
41
1
10
67.5362273277603
20
-3.71389603147139
30
0
41
1
10
67.5476224362802
20
-3.71392776815372
30
0
41
1
10
67.5590195753178
20
-3.71394444077066
30
0
0
SPLINE
5
103
100
AcDbEntity
8
1
62
256
6
ByLayer
370
18
48
1
60
0
100
AcDbSpline
70
4
71
3
72
35
73
31
40
0
40
0
40
0
40
0
40
0.0287125299199377
40
0.0287125299199377
40
0.0574250598398753
40
0.0574250598398753
40
0.114850119679751
40
0.114850119679751
40
0.229700239359502
40
0.229700239359502
40
0.344550359039253
40
0.344550359039253
40
0.459400478719004
40
0.459400478719004
40
0.516825538558879
40
0.516825538558879
40
0.531181803518847
40
0.531181803518847
40
0.545538068478814
40
0.574250598398751
40
0.574250598398751
40
0.689100718078496
40
0.689100718078496
40
0.80395083775824
40
0.80395083775824
40
0.918800957437985
40
0.918800957437985
40
0.976226017277858
40
0.976226017277858
40
1
40
1
40
1
40
1
41
1
10
88.575502099101
20
-3.74214511279183
30
0
41
1
10
88.4773954051856
20
-3.73658902429557
30
0
41
1
10
88.3792851313013
20
-3.72989465656801
30
0
41
1
10
88.1830204924659
20
-3.71424325363893
30
0
41
1
10
88.0848504349972
20
-3.70528295382266
30
0
41
1
10
87.7909639863209
20
-3.67511418007439
30
0
41
1
10
87.5956252712566
20
-3.65060135230408
30
0
41
1
10
87.010892170776
20
-3.56430113596483
30
0
41
1
10
86.6227781963874
20
-3.48975231223972
30
0
41
1
10
85.8477383763634
20
-3.30909378529347
30
0
41
1
10
85.4608163438389
20
-3.20303453753735
30
0
41
1
10
84.6855264263525
20
-2.9617085848576
30
0
41
1
10
84.2971612187611
20
-2.82629323931354
30
0
41
1
10
83.7117439204133
20
-2.60302773960774
30
0
41
1
10
83.5161239150688
20
-2.52524623050678
30
0
41
1
10
83.270806011229
20
-2.42405754532581
30
0
41
1
10
83.22167738067
20
-2.40361104436695
30
0
41
1
10
83.1235279196816
20
-2.3624090299991
30
0
41
1
10
82.9764253393051
20
-2.30012622034573
30
0
41
1
10
82.8296651074238
20
-2.23644006805822
30
0
41
1
10
82.3411266885861
20
-2.02119110954979
30
0
41
1
10
81.952413848338
20
-1.83949865607187
30
0
41
1
10
81.1767144889449
20
-1.46164952850637
30
0
41
1
10
80.789711515844
20
-1.26552235848018
30
0
41
1
10
80.015016833927
20
-0.863140729509638
30
0
41
1
10
79.6273733159473
20
-0.656792467488827
30
0
41
1
10
79.0434869376015
20
-0.343110137645311
30
0
41
1
10
78.8484562808154
20
-0.237847653110464
30
0
41
1
10
78.5719165568726
20
-0.0883862137590654
30
0
41
1
10
78.4908567988656
20
-0.0445511699288659
30
0
41
1
10
78.4096934599864
20
-0.0006584432712486
30
0
0
SPLINE
5
104
100
AcDbEntity
8
1
62
256
6
ByLayer
370
18
48
1
60
0
100
AcDbSpline
70
4
71
3
72
10
73
6
40
0
40
0
40
0
40
0
40
0.5
40
0.5
40
1
40
1
40
1
40
1
41
1
10
88.5755020991011
20
-3.74214511279183
30
0
41
1
10
88.5761577753817
20
-3.74108833481375
30
0
41
1
10
88.5768246802028
20
-3.73997162308004
30
0
41
1
10
88.5781326992538
20
-3.73766999150567
30
0
41
1
10
88.578764231949
20
-3.73649819174886
30
0
41
1
10
88.5792842000356
20
-3.73545651401878
30
0
0
SPLINE
5
105
100
AcDbEntity
8
1
62
256
6
ByLayer
370
18
48
1
60
0
100
AcDbSpline
70
4
71
3
72
10
73
6
40
0
40
0
40
0
40
0
40
0.5
40
0.5
40
1
40
1
40
1
40
1
41
1
10
88.5794417535335
20
-3.73125411193996
30
0
41
1
10
88.579633420044
20
-3.73141739300902
30
0
41
1
10
88.5797387425491
20
-3.73181868949942
30
0
41
1
10
88.5797099631125
20
-3.73321095720004
30
0
41
1
10
88.5795681829451
20
-3.73421350248131
30
0
41
1
10
88.5792842000351
20
-3.73545651401881
30
0
0
SPLINE
5
106
100
AcDbEntity
8
1
62
256
6
ByLayer
370
18
48
1
60
0
100
AcDbSpline
70
4
71
3
72
45
73
41
40
0
40
0
40
0
40
0
40
0.101672511922086
40
0.101672511922086
40
0.152508767883127
40
0.152508767883127
40
0.177926895863648
40
0.177926895863648
40
0.203345023844169
40
0.203345023844169
40
0.25418127980521
40
0.25418127980521
40
0.305017535766252
40
0.305017535766252
40
0.406690047688332
40
0.406690047688332
40
0.457526303649373
40
0.457526303649373
40
0.508362559610413
40
0.508362559610413
40
0.610035071532491
40
0.610035071532491
40
0.622744135522753
40
0.622744135522753
40
0.635453199513015
40
0.660871327493542
40
0.660871327493542
40
0.711707583454593
40
0.711707583454593
40
0.762543839415645
40
0.762543839415645
40
0.813380095376696
40
0.813380095376696
40
0.864216351337748
40
0.864216351337748
40
0.889634479318275
40
0.889634479318275
40
0.915052607298802
40
0.915052607298802
40
1
40
1
40
1
40
1
41
1
10
88.5448051319067
20
-0.318634659508916
30
0
41
1
10
88.1536818558835
20
-0.106335700039096
30
0
41
1
10
87.7631856910178
20
0.106360944421255
30
0
41
1
10
87.176570716812
20
0.422676573283866
30
0
41
1
10
86.9808837612033
20
0.527654164255409
30
0
41
1
10
86.6869585825445
20
0.684100662805605
30
0
41
1
10
86.5888375567883
20
0.736121473326193
30
0
41
1
10
86.392893038512
20
0.839523956702493
30
0
41
1
10
86.2950817776313
20
0.890899594326868
30
0
41
1
10
86.0020964768735
20
1.04396893045603
30
0
41
1
10
85.8073666235098
20
1.14460942704991
30
0
41
1
10
85.419077987385
20
1.34254807797416
30
0
41
1
10
85.2255516742167
20
1.43984887366264
30
0
41
1
10
84.645447068863
20
1.72582746040573
30
0
41
1
10
84.259179657505
20
1.90851941145408
30
0
41
1
10
83.6795478483099
20
2.16813833481356
30
0
41
1
10
83.4862991273281
20
2.25229370790385
30
0
41
1
10
83.0996092410568
20
2.41513043038006
30
0
41
1
10
82.9061981403925
20
2.49377673079943
30
0
41
1
10
82.3247885015036
20
2.72111463857612
30
0
41
1
10
81.9354639433274
20
2.86132337539254
30
0
41
1
10
81.4945872007107
20
3.00381619606557
30
0
41
1
10
81.4455334436603
20
3.01944545232618
30
0
41
1
10
81.3475375939852
20
3.05020907723838
30
0
41
1
10
81.2006783779315
20
3.09562258471425
30
0
41
1
10
81.0542154061936
20
3.13879644259504
30
0
41
1
10
80.7617983503486
20
3.22204365915573
30
0
41
1
10
80.567579297915
20
3.27333223351832
30
0
41
1
10
80.1795851328065
20
3.36832499532156
30
0
41
1
10
79.9857413338818
20
3.41212103710987
30
0
41
1
10
79.5985039613275
20
3.49154693660739
30
0
41
1
10
79.4051498733927
20
3.52712597266759
30
0
41
1
10
79.0186299112352
20
3.58990934277875
30
0
41
1
10
78.8254338310016
20
3.61718489759838
30
0
41
1
10
78.5358075064021
20
3.65095591280803
30
0
41
1
10
78.4393127078654
20
3.66096992530413
30
0
41
1
10
78.2462372921781
20
3.6788666557016
30
0
41
1
10
78.1496327807939
20
3.68680614164566
30
0
41
1
10
77.7297393805259
20
3.71718252901527
30
0
41
1
10
77.4055061827141
20
3.73005457403599
30
0
41
1
10
77.0800040048022
20
3.73038521050924
30
0
0
SPLINE
5
107
100
AcDbEntity
8
1
62
256
6
ByLayer
370
13
48
1
60
0
100
AcDbSpline
70
4
71
3
72
28
73
24
40
0
40
0
40
0
40
0
40
0.0472979173439144
40
0.0472979173439144
40
0.125540487427133
40
0.125540487427133
40
0.203783057510352
40
0.203783057510352
40
0.360268197676789
40
0.360268197676789
40
0.438510767760008
40
0.438510767760008
40
0.516753337843227
40
0.516753337843227
40
0.673238478009665
40
0.673238478009665
40
0.751481048092883
40
0.751481048092883
40
0.829723618176102
40
0.829723618176102
40
0.98620875834254
40
0.98620875834254
40
1
40
1
40
1
40
1
41
1
10
51.1001218192072
20
-3.14573686506455
30
0
41
1
10
51.1001198781848
20
-3.16233964128242
30
0
41
1
10
51.1001179037008
20
-3.178590773862
30
0
41
1
10
51.1001125811376
20
-3.22079258127292
30
0
41
1
10
51.1001091771543
20
-3.24614366638883
30
0
41
1
10
51.1001022475742
20
-3.29472680806993
30
0
41
1
10
51.1000987191811
20
-3.31798291207429
30
0
41
1
10
51.1000879740101
20
-3.38466002641951
30
0
41
1
10
51.1000805983441
20
-3.42499553627272
30
0
41
1
10
51.1000693185147
20
-3.47928307381807
30
0
41
1
10
51.1000655224105
20
-3.49633698639218
30
0
41
1
10
51.1000579080418
20
-3.52820692363724
30
0
41
1
10
51.1000540852995
20
-3.54304537176432
30
0
41
1
10
51.1000425889241
20
-3.58428497216099
30
0
41
1
10
51.1000348882525
20
-3.60741643740329
30
0
41
1
10
51.1000233359845
20
-3.63551767009412
30
0
41
1
10
51.1000194901196
20
-3.64376782701331
30
0
41
1
10
51.1000118449229
20
-3.65798523756212
30
0
41
1
10
51.1000080409555
20
-3.66396411217821
30
0
41
1
10
51.0999966891137
20
-3.67853745352596
30
0
41
1
10
51.0999892023621
20
-3.6837747350267
30
0
41
1
10
51.0999811421257
20
-3.68459591276601
30
0
41
1
10
51.0999804899087
20
-3.68462755829015
30
0
41
1
10
51.0999798382896
20
-3.68462428551544
30
0
0
SPLINE
5
108
100
AcDbEntity
8
1
62
256
6
ByLayer
370
18
48
1
60
0
100
AcDbSpline
70
4
71
3
72
37
73
33
40
0
40
0
40
0
40
0
40
0.0150479106660183
40
0.0150479106660183
40
0.028727800795659
40
0.028727800795659
40
0.0424076909252998
40
0.0424076909252998
40
0.0697674711845774
40
0.0697674711845774
40
0.12448703170313
40
0.12448703170313
40
0.233926152740236
40
0.233926152740236
40
0.343365273777341
40
0.343365273777341
40
0.452804394814447
40
0.452804394814447
40
0.480164175073721
40
0.493844065203361
40
0.493844065203361
40
0.507523955332999
40
0.507523955332999
40
0.562243515851555
40
0.562243515851555
40
0.671682636888666
40
0.671682636888666
40
0.781121757925778
40
0.781121757925778
40
0.890560878962889
40
0.890560878962889
40
1
40
1
40
1
40
1
41
1
10
77.9213270385414
20
0.273857894050821
30
0
41
1
10
77.9752418872766
20
0.244857171351413
30
0
41
1
10
78.0292012023684
20
0.215805428261746
30
0
41
1
10
78.132305851908
20
0.160257777866491
30
0
41
1
10
78.1814713066368
20
0.13375533010165
30
0
41
1
10
78.2797395260037
20
0.0807708064737653
30
0
41
1
10
78.3288328582286
20
0.0542943155322746
30
0
41
1
10
78.4759982430137
20
-0.0250763490867314
30
0
41
1
10
78.5739557252978
20
-0.0779127179858676
30
0
41
1
10
78.8674250656773
20
-0.236101713486875
30
0
41
1
10
79.0625329881123
20
-0.341130807754638
30
0
41
1
10
79.6466666523487
20
-0.654128291594816
30
0
41
1
10
80.0344949604306
20
-0.860042011146703
30
0
41
1
10
80.8095983039789
20
-1.26158478039858
30
0
41
1
10
81.1968192692791
20
-1.45731922223797
30
0
41
1
10
81.9729821771861
20
-1.83441591294439
30
0
41
1
10
82.3619404926576
20
-2.01574895115809
30
0
41
1
10
82.8508023261217
20
-2.23056584935512
30
0
41
1
10
82.9976607599752
20
-2.29412402446479
30
0
41
1
10
83.1448627892469
20
-2.35628183899399
30
0
41
1
10
83.2430787745483
20
-2.39740123083487
30
0
41
1
10
83.2922240223343
20
-2.41779975294861
30
0
41
1
10
83.5375827518682
20
-2.51873387686436
30
0
41
1
10
83.7331595180433
20
-2.59628831426619
30
0
41
1
10
84.3182188934428
20
-2.81882077267798
30
0
41
1
10
84.7060419573697
20
-2.95367738226628
30
0
41
1
10
85.4796217074442
20
-3.19389594979361
30
0
41
1
10
85.8653777601315
20
-3.29941554721776
30
0
41
1
10
86.6374190580019
20
-3.47916776377016
30
0
41
1
10
87.0236997107541
20
-3.55335235030046
30
0
41
1
10
87.7989451864861
20
-3.66807110754942
30
0
41
1
10
88.1879147149299
20
-3.70861677915002
30
0
41
1
10
88.5794417544417
20
-3.73125411199243
30
0
0
SPLINE
5
109
100
AcDbEntity
8
1
62
256
6
ByLayer
370
18
48
1
60
0
100
AcDbSpline
70
4
71
3
72
46
73
42
40
0
40
0
40
0
40
0
40
0.0624999999999996
40
0.0624999999999996
40
0.0937499999999994
40
0.109375
40
0.109375
40
0.125
40
0.125
40
0.187499999999999
40
0.249999999999999
40
0.312499999999999
40
0.312499999999999
40
0.343749999999999
40
0.343749999999999
40
0.374999999999999
40
0.374999999999999
40
0.437499999999998
40
0.437499999999998
40
0.468749999999998
40
0.468749999999998
40
0.499999999999998
40
0.499999999999998
40
0.562499999999998
40
0.562499999999998
40
0.624999999999999
40
0.624999999999999
40
0.687499999999999
40
0.687499999999999
40
0.718749999999999
40
0.718749999999999
40
0.749999999999999
40
0.749999999999999
40
0.812499999999999
40
0.812499999999999
40
0.843749999999999
40
0.843749999999999
40
0.874999999999999
40
0.874999999999999
40
0.937499999999999
40
1
40
1
40
1
40
1
41
1
10
88.5448051318899
20
-0.318634659507382
30
0
41
1
10
88.5324147900896
20
-0.426107245908213
30
0
41
1
10
88.521587277851
20
-0.532962123172013
30
0
41
1
10
88.5073105400268
20
-0.692285334129707
30
0
41
1
10
88.5006642936222
20
-0.771706890862589
30
0
41
1
10
88.4946933152718
20
-0.850759699453761
30
0
41
1
10
88.4908562569919
20
-0.903378474785313
30
0
41
1
10
88.4890088818092
20
-0.929657288788007
30
0
41
1
10
88.4801465194501
20
-1.06035887486647
30
0
41
1
10
88.4682970809964
20
-1.26579818716169
30
0
41
1
10
88.4560692888691
20
-1.56314606895455
30
0
41
1
10
88.4508690995419
20
-1.75417685365761
30
0
41
1
10
88.4478666299331
20
-1.89469475843558
30
0
41
1
10
88.4470161260211
20
-1.94107426120527
30
0
41
1
10
88.4455893037634
20
-2.03289686283341
30
0
41
1
10
88.4450130668944
20
-2.07837578507136
30
0
41
1
10
88.4436713884394
20
-2.21241869837459
30
0
41
1
10
88.4432836266319
20
-2.29891015150204
30
0
41
1
10
88.4433493219854
20
-2.42435559521132
30
0
41
1
10
88.4434799709085
20
-2.46545445707744
30
0
41
1
10
88.4439502023363
20
-2.54620986247568
30
0
41
1
10
88.444289787975
20
-2.58582358922956
30
0
41
1
10
88.4456104643083
20
-2.70195420642037
30
0
41
1
10
88.4468909079547
20
-2.77593535859552
30
0
41
1
10
88.4502855575759
20
-2.91702830403165
30
0
41
1
10
88.4524059809166
20
-2.98424287544748
30
0
41
1
10
88.4575729139602
20
-3.11056756155435
30
0
41
1
10
88.4606208653918
20
-3.16981716032657
30
0
41
1
10
88.4660493141425
20
-3.25281742180624
30
0
41
1
10
88.4680045834935
20
-3.27952971951319
30
0
41
1
10
88.4722286367368
20
-3.33084955049432
30
0
41
1
10
88.4744947016444
20
-3.35543029121459
30
0
41
1
10
88.4818099055894
20
-3.42595794654972
30
0
41
1
10
88.4873728645574
20
-3.46869613647195
30
0
41
1
10
88.4970210256881
20
-3.52636807088635
30
0
41
1
10
88.5004607317955
20
-3.54454059079555
30
0
41
1
10
88.507792994913
20
-3.57854956029806
30
0
41
1
10
88.511686855778
20
-3.59440130863729
30
0
41
1
10
88.5241238236167
20
-3.63853923495992
30
0
41
1
10
88.5427164269136
20
-3.68828861229838
30
0
41
1
10
88.5662081391781
20
-3.7199803704284
30
0
41
1
10
88.5794417536036
20
-3.7312541119997
30
0
0
SPLINE
5
10A
100
AcDbEntity
8
1
62
256
6
ByLayer
370
18
48
1
60
0
100
AcDbSpline
70
4
71
3
72
70
73
66
40
0
40
0
40
0
40
0
40
0.0123928656237015
40
0.0123928656237015
40
0.0442511602810025
40
0.0442511602810025
40
0.107967749595603
40
0.107967749595603
40
0.123896896924253
40
0.123896896924253
40
0.139826044252902
40
0.139826044252902
40
0.171684338910204
40
0.171684338910204
40
0.187613486238854
40
0.187613486238854
40
0.203542633567504
40
0.203542633567504
40
0.235400928224804
40
0.235400928224804
40
0.251330075553454
40
0.251330075553454
40
0.267259222882105
40
0.267259222882105
40
0.299117517539405
40
0.299117517539405
40
0.362834106854007
40
0.362834106854007
40
0.378763254182656
40
0.378763254182656
40
0.394692401511306
40
0.394692401511306
40
0.426550696168604
40
0.426550696168604
40
0.4902672854832
40
0.4902672854832
40
0.506196432811849
40
0.506196432811849
40
0.522125580140498
40
0.522125580140498
40
0.553983874797795
40
0.553983874797795
40
0.61770046411239
40
0.61770046411239
40
0.633629611441041
40
0.633629611441041
40
0.649558758769691
40
0.649558758769691
40
0.681417053426991
40
0.681417053426991
40
0.745133642741591
40
0.745133642741591
40
0.761062790070242
40
0.761062790070242
40
0.776991937398894
40
0.776991937398894
40
0.808850232056194
40
0.808850232056194
40
0.872566821370796
40
0.872566821370796
40
0.904425116028097
40
0.904425116028097
40
0.936283410685398
40
0.936283410685398
40
1
40
1
40
1
40
1
41
1
10
69.4428442806495
20
-3.71947843619398
30
0
41
1
10
69.3668065682444
20
-3.73090743716972
30
0
41
1
10
69.2907373712129
20
-3.74166618162707
30
0
41
1
10
69.0193772327844
20
-3.77761649634027
30
0
41
1
10
68.8242823859002
20
-3.79896998472157
30
0
41
1
10
68.2393164286208
20
-3.84937318796122
30
0
41
1
10
67.849894719108
20
-3.8647891639034
30
0
41
1
10
67.3620235277072
20
-3.8609975337769
30
0
41
1
10
67.2643920146305
20
-3.85908697977231
30
0
41
1
10
67.0689702651185
20
-3.85295740801234
30
0
41
1
10
66.971140018702
20
-3.84873518146517
30
0
41
1
10
66.6779771393909
20
-3.8326419655846
30
0
41
1
10
66.4827973511661
20
-3.8173429941682
30
0
41
1
10
66.190172164858
20
-3.78766329326228
30
0
41
1
10
66.0926575460628
20
-3.77664796096016
30
0
41
1
10
65.8977003874851
20
-3.75236496027222
30
0
41
1
10
65.8002535723941
20
-3.73909763111217
30
0
41
1
10
65.507870284698
20
-3.69597263747099
30
0
41
1
10
65.3128992015198
20
-3.66279031182538
30
0
41
1
10
65.0201163030878
20
-3.60648902648248
30
0
41
1
10
64.922467343222
20
-3.58663417641674
30
0
41
1
10
64.7270158057019
20
-3.54477155119838
30
0
41
1
10
64.6291623230585
20
-3.52275115775328
30
0
41
1
10
64.3358898057277
20
-3.45363699868929
30
0
41
1
10
64.1406495399241
20
-3.40347075013082
30
0
41
1
10
63.5553402762382
20
-3.2411306113581
30
0
41
1
10
63.1656663921706
20
-3.1171197080904
30
0
41
1
10
62.6775388193218
20
-2.94409444657234
30
0
41
1
10
62.5798630239546
20
-2.90858768790295
30
0
41
1
10
62.3843889767217
20
-2.83578812958814
30
0
41
1
10
62.28653319804
20
-2.79847536315711
30
0
41
1
10
61.9931884518221
20
-2.68418565447726
30
0
41
1
10
61.797904575396
20
-2.60484721784818
30
0
41
1
10
61.2124379332344
20
-2.35806543265315
30
0
41
1
10
60.8226318776361
20
-2.18186801659229
30
0
41
1
10
60.3344482101907
20
-1.94928757948907
30
0
41
1
10
60.2367652784208
20
-1.90215445935178
30
0
41
1
10
60.0412636258054
20
-1.80671731395682
30
0
41
1
10
59.9433912078263
20
-1.75838637377168
30
0
41
1
10
59.6499375435203
20
-1.61195092019986
30
0
41
1
10
59.4546090998645
20
-1.51245113931816
30
0
41
1
10
58.8690112607919
20
-1.20924541836325
30
0
41
1
10
58.4791270450879
20
-1.00083690889477
30
0
41
1
10
57.9907637761392
20
-0.735362459406986
30
0
41
1
10
57.8930421841129
20
-0.682016901230554
30
0
41
1
10
57.6974747793264
20
-0.57486915766205
30
0
41
1
10
57.5995837289684
20
-0.521041090080075
30
0
41
1
10
57.3060087484167
20
-0.359128569871132
30
0
41
1
10
57.1106408077935
20
-0.250758201181355
30
0
41
1
10
56.5248924089495
20
0.0743869482643618
30
0
41
1
10
56.1348856651211
20
0.291229766305406
30
0
41
1
10
55.6464310078865
20
0.55956144030003
30
0
41
1
10
55.5486936897746
20
0.613093344003488
30
0
41
1
10
55.3530939500582
20
0.719829744078709
30
0
41
1
10
55.2552024066466
20
0.77305059535837
30
0
41
1
10
54.9614829108018
20
0.932023408229156
30
0
41
1
10
54.7659690608972
20
1.03687690776212
30
0
41
1
10
54.1797076223005
20
1.34699715243624
30
0
41
1
10
53.7892715758461
20
1.54788295294881
30
0
41
1
10
53.2023607792437
20
1.83727598140069
30
0
41
1
10
53.0063760045609
20
1.93180061196813
30
0
41
1
10
52.6151362215449
20
2.11559672249746
30
0
41
1
10
52.4197225852409
20
2.20495122139297
30
0
41
1
10
51.8335686818009
20
2.46462773502893
30
0
41
1
10
51.442898914978
20
2.62654482632917
30
0
41
1
10
51.0511068788502
20
2.77554044417079
30
0
0
SPLINE
5
10B
100
AcDbEntity
8
1
62
256
6
ByLayer
370
18
48
1
60
0
100
AcDbSpline
70
4
71
3
72
16
73
12
40
0
40
0
40
0
40
0
40
0.250000000000198
40
0.250000000000198
40
0.37500000000016
40
0.37500000000016
40
0.500000000000122
40
0.500000000000122
40
0.750000000000061
40
0.750000000000061
40
1
40
1
40
1
40
1
41
1
10
51.0511068788502
20
2.77554044417079
30
0
41
1
10
51.0432675334508
20
2.77852168933035
30
0
41
1
10
51.0361771599255
20
2.78214519288645
30
0
41
1
10
51.026633322281
20
2.78850398768273
30
0
41
1
10
51.02362067932
20
2.7907964073658
30
0
41
1
10
51.0181347447607
20
2.79557254885984
30
0
41
1
10
51.0156428946992
20
2.79806509804183
30
0
41
1
10
51.0089087367907
20
2.80584811462549
30
0
41
1
10
51.0053836697213
20
2.81152068456635
30
0
41
1
10
51.0007277570857
20
2.82307883180604
30
0
41
1
10
50.99952601999
20
2.82905575639651
30
0
41
1
10
50.99952601999
20
2.83508426662397
30
0
0
SPLINE
5
10C
100
AcDbEntity
8
1
62
256
6
ByLayer
370
18
48
1
60
0
100
AcDbSpline
70
4
71
3
72
115
73
111
40
0
40
0
40
0
40
0
40
0.0246284656985617
40
0.0246284656985617
40
0.0493558465789913
40
0.0493558465789913
40
0.0617195370192061
40
0.0617195370192061
40
0.0740832274594209
40
0.0740832274594209
40
0.0988106083398518
40
0.0988106083398518
40
0.148265370100715
40
0.148265370100715
40
0.160629060540932
40
0.160629060540932
40
0.172992750981148
40
0.172992750981148
40
0.19772013186158
40
0.19772013186158
40
0.222447512742011
40
0.222447512742011
40
0.234811203182227
40
0.234811203182227
40
0.247174893622443
40
0.247174893622443
40
0.271902274502875
40
0.271902274502875
40
0.296629655383306
40
0.296629655383306
40
0.321357036263738
40
0.321357036263738
40
0.346084417144169
40
0.346084417144169
40
0.370811798024601
40
0.370811798024601
40
0.383175488464817
40
0.383175488464817
40
0.395539178905032
40
0.395539178905032
40
0.420266559785463
40
0.420266559785463
40
0.444993940665893
40
0.444993940665893
40
0.469721321546323
40
0.469721321546323
40
0.482085011986538
40
0.482085011986538
40
0.494448702426752
40
0.494448702426752
40
0.519176083307181
40
0.519176083307181
40
0.531539773747395
40
0.531539773747395
40
0.543903464187609
40
0.543903464187609
40
0.568630845068036
40
0.568630845068036
40
0.593358225948464
40
0.593358225948464
40
0.605721916388677
40
0.605721916388677
40
0.61808560682889
40
0.61808560682889
40
0.630449297269103
40
0.630449297269103
40
0.642812987709317
40
0.642812987709317
40
0.667540368589741
40
0.667540368589741
40
0.692267749470166
40
0.692267749470166
40
0.704631439910379
40
0.704631439910379
40
0.716995130350592
40
0.716995130350592
40
0.729358820790806
40
0.729358820790806
40
0.741722511231019
40
0.741722511231019
40
0.766449892111445
40
0.766449892111445
40
0.778813582551657
40
0.778813582551657
40
0.79117727299187
40
0.803540963432082
40
0.803540963432082
40
0.815904653872294
40
0.815904653872294
40
0.840632034752718
40
0.840632034752718
40
0.865359415633141
40
0.865359415633141
40
0.877723106073353
40
0.877723106073353
40
0.890086796513565
40
0.890086796513565
40
0.91481417739399
40
0.91481417739399
40
0.939541558274415
40
0.939541558274415
40
0.951905248714627
40
0.951905248714627
40
0.964268939154839
40
0.964268939154839
40
0.976632629595052
40
0.976632629595052
40
0.988996320035264
40
0.988996320035264
40
1
40
1
40
1
40
1
41
1
10
53.4914803390518
20
3.69962351978771
30
0
41
1
10
53.6857352732226
20
3.72850261727109
30
0
41
1
10
53.8798995392053
20
3.75296691497289
30
0
41
1
10
54.2689822247865
20
3.79311858398421
30
0
41
1
10
54.4639129096791
20
3.80876032074821
30
0
41
1
10
54.7566030711171
20
3.82542080539653
30
0
41
1
10
54.8542114922507
20
3.8298423576673
30
0
41
1
10
55.0495143616702
20
3.83641026268734
30
0
41
1
10
55.1472051470943
20
3.83855499540496
30
0
41
1
10
55.4398503678904
20
3.84154221890242
30
0
41
1
10
55.6345974324511
20
3.83892864749709
30
0
41
1
10
56.2191155852051
20
3.81742525224979
30
0
41
1
10
56.6090160192537
20
3.78498231099465
30
0
41
1
10
57.0973846985996
20
3.72198116847591
30
0
41
1
10
57.1950794225293
20
3.70825801142695
30
0
41
1
10
57.3902101796431
20
3.6786069034485
30
0
41
1
10
57.4876886908677
20
3.66267300232869
30
0
41
1
10
57.7798900802582
20
3.61154536660246
30
0
41
1
10
57.9744161598087
20
3.57302907872659
30
0
41
1
10
58.3639658088764
20
3.48786384537192
30
0
41
1
10
58.5589465395706
20
3.44120933010242
30
0
41
1
10
58.8517059899783
20
3.36514168975708
30
0
41
1
10
58.9493413447886
20
3.33877055423395
30
0
41
1
10
59.1447174166376
20
3.28399440887256
30
0
41
1
10
59.2423940583147
20
3.25560649844204
30
0
41
1
10
59.5350800305293
20
3.16755644250563
30
0
41
1
10
59.7298750818129
20
3.10496771941695
30
0
41
1
10
60.1189967835327
20
2.97213438723111
30
0
41
1
10
60.3133856297771
20
2.90193937723385
30
0
41
1
10
60.7029928834528
20
2.75542009278436
30
0
41
1
10
60.8981419321762
20
2.67903668420456
30
0
41
1
10
61.2889839354898
20
2.51987173932912
30
0
41
1
10
61.4842005374901
20
2.43729597088651
30
0
41
1
10
61.8741097894314
20
2.26641889967888
30
0
41
1
10
62.0688196923755
20
2.17807392034897
30
0
41
1
10
62.3605657563356
20
2.04120207466389
30
0
41
1
10
62.4577900563928
20
1.99489369774753
30
0
41
1
10
62.6524251269171
20
1.90127222441987
30
0
41
1
10
62.7498172808037
20
1.85393183613195
30
0
41
1
10
63.0422021832746
20
1.71030475716157
30
0
41
1
10
63.2375420441171
20
1.61234151640389
30
0
41
1
10
63.6274824296147
20
1.41305939687032
30
0
41
1
10
63.8222485322502
20
1.3117016279113
30
0
41
1
10
64.2118293647603
20
1.10634264215946
30
0
41
1
10
64.4066195277209
20
1.00230227881292
30
0
41
1
10
64.6988533800564
20
0.844276673913981
30
0
41
1
10
64.7962775844529
20
0.791281885777693
30
0
41
1
10
64.9912106846986
20
0.684753583476351
30
0
41
1
10
65.0887560151689
20
0.631201903532087
30
0
41
1
10
65.3813636796347
20
0.469999230966124
30
0
41
1
10
65.5758275030244
20
0.362046132170804
30
0
41
1
10
65.8666537939798
20
0.199465981259834
30
0
41
1
10
65.9634784164459
20
0.14521563418208
30
0
41
1
10
66.1571465605109
20
0.0370659854969517
30
0
41
1
10
66.2539695355586
20
-0.0168716944563982
30
0
41
1
10
66.5443431714116
20
-0.178393636602579
30
0
41
1
10
66.7378056598032
20
-0.2856741930824
30
0
41
1
10
67.1245147389459
20
-0.499400791292061
30
0
41
1
10
67.3177611125148
20
-0.605846898112702
30
0
41
1
10
67.6075550697819
20
-0.764726170490604
30
0
41
1
10
67.704137937955
20
-0.817558700517168
30
0
41
1
10
67.897264907257
20
-0.922980876440533
30
0
41
1
10
67.9938178164493
20
-0.975554572041261
30
0
41
1
10
68.1870523752597
20
-1.08015870940562
30
0
41
1
10
68.2837360714101
20
-1.13218552327356
30
0
41
1
10
68.477388332042
20
-1.2354212613198
30
0
41
1
10
68.5743494775137
20
-1.28664350184576
30
0
41
1
10
68.8656358877933
20
-1.43912847934936
30
0
41
1
10
69.0604037022645
20
-1.5392427911803
30
0
41
1
10
69.4508368127085
20
-1.73620370714761
30
0
41
1
10
69.6456938653806
20
-1.83264770981745
30
0
41
1
10
69.937462019207
20
-1.97421273759755
30
0
41
1
10
70.0346318846259
20
-2.02088327643486
30
0
41
1
10
70.2288179550233
20
-2.11314938863885
30
0
41
1
10
70.3258431294167
20
-2.15873017473928
30
0
41
1
10
70.519936020696
20
-2.24851759227729
30
0
41
1
10
70.6170026857453
20
-2.29272617687474
30
0
41
1
10
70.8112992807015
20
-2.37960414055146
30
0
41
1
10
70.9085224598052
20
-2.42228413291161
30
0
41
1
10
71.2004062597284
20
-2.54807490582834
30
0
41
1
10
71.3952785751982
20
-2.62894312004792
30
0
41
1
10
71.6880233123161
20
-2.74572953704023
30
0
41
1
10
71.7855786980845
20
-2.78386347366305
30
0
41
1
10
71.9804544947928
20
-2.85845261825875
30
0
41
1
10
72.1751561070591
20
-2.93138722496519
30
0
41
1
10
72.3695444757115
20
-3.00096108711355
30
0
41
1
10
72.5638106115224
20
-3.06880587607094
30
0
41
1
10
72.6608899829291
20
-3.10185444895714
30
0
41
1
10
72.9521680743076
20
-3.19815958652813
30
0
41
1
10
73.1464174061426
20
-3.25857450185731
30
0
41
1
10
73.5350606132939
20
-3.37179464826312
30
0
41
1
10
73.7294711309485
20
-3.42456915456197
30
0
41
1
10
74.021786283432
20
-3.49747074914694
30
0
41
1
10
74.1192879774896
20
-3.52072269233804
30
0
41
1
10
74.3141014130036
20
-3.56505096703347
30
0
41
1
10
74.4114618570352
20
-3.58613934531149
30
0
41
1
10
74.7034390186632
20
-3.64617523389015
30
0
41
1
10
74.8979439817618
20
-3.68190370419541
30
0
41
1
10
75.2867295253103
20
-3.7447348837598
30
0
41
1
10
75.481010336777
20
-3.77183547586046
30
0
41
1
10
75.7723807220502
20
-3.80586348216676
30
0
41
1
10
75.8694895013039
20
-3.81610387711422
30
0
41
1
10
76.0636963053392
20
-3.83434287864668
30
0
41
1
10
76.1608219915879
20
-3.84232980652888
30
0
41
1
10
76.3554214973369
20
-3.85596532442301
30
0
41
1
10
76.452864335048
20
-3.86162037056528
30
0
41
1
10
76.6475917390139
20
-3.87061527324704
30
0
41
1
10
76.7449317701514
20
-3.87395922796932
30
0
41
1
10
76.9288528936398
20
-3.8781219578681
30
0
41
1
10
77.0154389440681
20
-3.87917923068955
30
0
41
1
10
77.1020023921496
20
-3.87933476096913
30
0
0
SPLINE
5
10D
100
AcDbEntity
8
1
62
256
6
ByLayer
370
18
48
1
60
0
100
AcDbSpline
70
4
71
3
72
135
73
131
40
0
40
0
40
0
40
0
40
0.010133302149834
40
0.010133302149834
40
0.021544658885542
40
0.021544658885542
40
0.0329560156212501
40
0.0329560156212501
40
0.0557787290926674
40
0.0557787290926674
40
0.067190085828376
40
0.067190085828376
40
0.0786014425640847
40
0.0786014425640847
40
0.101424156035501
40
0.101424156035501
40
0.124246869506917
40
0.124246869506917
40
0.135658226242625
40
0.135658226242625
40
0.147069582978334
40
0.147069582978334
40
0.169892296449751
40
0.169892296449751
40
0.18130365318546
40
0.18130365318546
40
0.192715009921169
40
0.192715009921169
40
0.198420688289024
40
0.198420688289024
40
0.204126366656878
40
0.215537723392588
40
0.215537723392588
40
0.238360436864009
40
0.238360436864009
40
0.249771793599719
40
0.249771793599719
40
0.261183150335429
40
0.261183150335429
40
0.28400586380685
40
0.28400586380685
40
0.30682857727827
40
0.30682857727827
40
0.318239934013981
40
0.318239934013981
40
0.329651290749691
40
0.329651290749691
40
0.352474004221112
40
0.352474004221112
40
0.363885360956822
40
0.363885360956822
40
0.369591039324678
40
0.369591039324678
40
0.375296717692532
40
0.375296717692532
40
0.398119431163956
40
0.398119431163956
40
0.420942144635379
40
0.420942144635379
40
0.43235350137109
40
0.43235350137109
40
0.443764858106802
40
0.443764858106802
40
0.466587571578225
40
0.466587571578225
40
0.489410285049648
40
0.489410285049648
40
0.512232998521071
40
0.512232998521071
40
0.535055711992494
40
0.535055711992494
40
0.546467068728206
40
0.546467068728206
40
0.552172747096061
40
0.552172747096061
40
0.557878425463917
40
0.557878425463917
40
0.580701138935342
40
0.580701138935342
40
0.603523852406768
40
0.603523852406768
40
0.61493520914248
40
0.61493520914248
40
0.626346565878192
40
0.626346565878192
40
0.649169279349616
40
0.649169279349616
40
0.67199199282104
40
0.67199199282104
40
0.694814706292464
40
0.694814706292464
40
0.717637419763889
40
0.717637419763889
40
0.729048776499601
40
0.729048776499601
40
0.734754454867457
40
0.734754454867457
40
0.740460133235313
40
0.740460133235313
40
0.763282846706739
40
0.763282846706739
40
0.786105560178166
40
0.786105560178166
40
0.797516916913879
40
0.797516916913879
40
0.808928273649591
40
0.808928273649591
40
0.831750987121016
40
0.831750987121016
40
0.85457370059244
40
0.85457370059244
40
0.877396414063864
40
0.877396414063864
40
0.900219127535288
40
0.900219127535288
40
0.905924805903145
40
0.905924805903145
40
0.911630484271001
40
0.911630484271001
40
0.923041841006714
40
0.923041841006714
40
0.945864554478139
40
0.945864554478139
40
0.968687267949565
40
0.968687267949565
40
0.980098624685277
40
0.980098624685277
40
0.99150998142099
40
0.99150998142099
40
1
40
1
40
1
40
1
41
1
10
83.3137889547635
20
-2.83383460265773
30
0
41
1
10
83.2226255482044
20
-2.86887026552756
30
0
41
1
10
83.1313465438398
20
-2.90321340901866
30
0
41
1
10
82.9370309617199
20
-2.97475059116124
30
0
41
1
10
82.8338539368322
20
-3.01180619826033
30
0
41
1
10
82.6279314865133
20
-3.08366979127143
30
0
41
1
10
82.5251431858811
20
-3.11851281700388
30
0
41
1
10
82.217206793338
20
-3.21971387067236
30
0
41
1
10
82.0124784372111
20
-3.28273449561539
30
0
41
1
10
81.705926851384
20
-3.37043042776122
30
0
41
1
10
81.6038317831969
20
-3.39852276642966
30
0
41
1
10
81.399829224171
20
-3.45245001495184
30
0
41
1
10
81.2979511308717
20
-3.4783085949648
30
0
41
1
10
80.9924870002814
20
-3.55240222314805
30
0
41
1
10
80.7890525382521
20
-3.59714294338386
30
0
41
1
10
80.3821492536225
20
-3.67705529205671
30
0
41
1
10
80.1786640501413
20
-3.71222064579064
30
0
41
1
10
79.8731749698462
20
-3.7576784257476
30
0
41
1
10
79.7713181795042
20
-3.77162412226193
30
0
41
1
10
79.5675557261207
20
-3.79708535547567
30
0
41
1
10
79.4656190263113
20
-3.80858696485399
30
0
41
1
10
79.159517982024
20
-3.83934311389692
30
0
41
1
10
78.9550782752121
20
-3.85485392771074
30
0
41
1
10
78.6475155987631
20
-3.87047653432012
30
0
41
1
10
78.5448446687055
20
-3.87441098911521
30
0
41
1
10
78.339172237222
20
-3.87971295021927
30
0
41
1
10
78.2361623458874
20
-3.88108103455286
30
0
41
1
10
78.08143531306
20
-3.88118641413274
30
0
41
1
10
78.0298577478021
20
-3.88089615080756
30
0
41
1
10
77.9268439687094
20
-3.87966683935582
30
0
41
1
10
77.7724560641932
20
-3.87685040022902
30
0
41
1
10
77.618431392085
20
-3.87113354374344
30
0
41
1
10
77.3107766945965
20
-3.85588229385337
30
0
41
1
10
77.1061904617545
20
-3.84062665547941
30
0
41
1
10
76.7997893548847
20
-3.81031753721439
30
0
41
1
10
76.6977333175347
20
-3.79897841830803
30
0
41
1
10
76.4937938664744
20
-3.77383250915261
30
0
41
1
10
76.3919395087657
20
-3.76001215282341
30
0
41
1
10
76.086505957714
20
-3.7148993056723
30
0
41
1
10
75.8830495337485
20
-3.67996120766688
30
0
41
1
10
75.4760169861748
20
-3.60066010416819
30
0
41
1
10
75.2724237075149
20
-3.55631235427913
30
0
41
1
10
74.9667172598785
20
-3.48289212867306
30
0
41
1
10
74.864782463666
20
-3.45725326028057
30
0
41
1
10
74.6608404675794
20
-3.40362957665832
30
0
41
1
10
74.55880213828
20
-3.3756703331037
30
0
41
1
10
74.2523677467911
20
-3.28843810173328
30
0
41
1
10
74.0476649231259
20
-3.22579831266671
30
0
41
1
10
73.7396448558981
20
-3.12538694259732
30
0
41
1
10
73.6368114687966
20
-3.09084097344476
30
0
41
1
10
73.4822986392888
20
-3.03742073038933
30
0
41
1
10
73.430749580035
20
-3.01934827247519
30
0
41
1
10
73.3275661213362
20
-2.98266352850735
30
0
41
1
10
73.2759134483153
20
-2.96404195596611
30
0
41
1
10
73.0180693898699
20
-2.86976036339934
30
0
41
1
10
72.8125933276783
20
-2.7905720499308
30
0
41
1
10
72.4025583910798
20
-2.62565236457883
30
0
41
1
10
72.1980194541115
20
-2.53989847856138
30
0
41
1
10
71.8916392809591
20
-2.40679618128914
30
0
41
1
10
71.7895810920673
20
-2.36168806065186
30
0
41
1
10
71.5856285459227
20
-2.26995633034011
30
0
41
1
10
71.4837618155469
20
-2.22329090460241
30
0
41
1
10
71.1782558252522
20
-2.08124231369274
30
0
41
1
10
70.9747177536223
20
-1.98379816924853
30
0
41
1
10
70.5674540740256
20
-1.78414533936524
30
0
41
1
10
70.3637102150124
20
-1.68196832762234
30
0
41
1
10
69.9557444920936
20
-1.47332687072134
30
0
41
1
10
69.7516748051103
20
-1.36660147036983
30
0
41
1
10
69.3426091669177
20
-1.14955652569009
30
0
41
1
10
69.137628209227
20
-1.03921468083271
30
0
41
1
10
68.8291384541571
20
-0.871552904531256
30
0
41
1
10
68.7261403244991
20
-0.815305135352361
30
0
41
1
10
68.5713686097133
20
-0.730426229697287
30
0
41
1
10
68.5197047124756
20
-0.702036308924562
30
0
41
1
10
68.4164183452593
20
-0.645147913905959
30
0
41
1
10
68.364827637506
20
-0.616662381235926
30
0
41
1
10
68.1071490207812
20
-0.474003612529145
30
0
41
1
10
67.9017619675995
20
-0.35937459895402
30
0
41
1
10
67.4918449292967
20
-0.130316639923564
30
0
41
1
10
67.287330453962
20
-0.0158572692752159
30
0
41
1
10
66.9809426122267
20
0.155224832290713
30
0
41
1
10
66.8788734978043
20
0.212144197298159
30
0
41
1
10
66.6748934426125
20
0.325837682575411
30
0
41
1
10
66.5730068822298
20
0.382655964157152
30
0
41
1
10
66.2674065944674
20
0.552566540425602
30
0
41
1
10
66.0637737553016
20
0.665154357454668
30
0
41
1
10
65.6562554084125
20
0.888146581957386
30
0
41
1
10
65.4523500089905
20
0.998516423276328
30
0
41
1
10
65.0440155803573
20
1.21659136184414
30
0
41
1
10
64.8397418492875
20
1.32456742507293
30
0
41
1
10
64.4301896887368
20
1.53698671739778
30
0
41
1
10
64.2249340126897
20
1.64147094049122
30
0
41
1
10
63.9159852984236
20
1.79499972267334
30
0
41
1
10
63.812826964018
20
1.84564679095413
30
0
41
1
10
63.6578043177542
20
1.92078343660907
30
0
41
1
10
63.6061148753746
20
1.94567166193508
30
0
41
1
10
63.502886947198
20
1.99506824468256
30
0
41
1
10
63.4513254630644
20
2.01959279445308
30
0
41
1
10
63.1937792534845
20
2.14134648211828
30
0
41
1
10
62.9884549844331
20
2.23576165341211
30
0
41
1
10
62.5786073991783
20
2.41778153425614
30
0
41
1
10
62.3740941413176
20
2.50540695230544
30
0
41
1
10
62.0676680225063
20
2.63147290931386
30
0
41
1
10
61.965578460865
20
2.67259387862967
30
0
41
1
10
61.7615558869026
20
2.75310625121023
30
0
41
1
10
61.659641251334
20
2.79251928584617
30
0
41
1
10
61.3539250514424
20
2.90788985359077
30
0
41
1
10
61.1501862927835
20
2.98102601941065
30
0
41
1
10
60.7423976303191
20
3.11923209150351
30
0
41
1
10
60.5383255767832
20
3.18428240749753
30
0
41
1
10
60.1296220113585
20
3.30604616782736
30
0
41
1
10
59.9251448624003
20
3.36290007772612
30
0
41
1
10
59.5151083027005
20
3.46765323307744
30
0
41
1
10
59.3095796268622
20
3.51558704033678
30
0
41
1
10
59.0517445374944
20
3.5696624468392
30
0
41
1
10
59.0001319910893
20
3.5801860584518
30
0
41
1
10
58.8968122782376
20
3.6006457711259
30
0
41
1
10
58.8450743479164
20
3.6105874439161
30
0
41
1
10
58.6900193330642
20
3.6394677100819
30
0
41
1
10
58.5868325431255
20
3.65747331518281
30
0
41
1
10
58.2778984476921
20
3.70781341099101
30
0
41
1
10
58.0726136712787
20
3.73636613641358
30
0
41
1
10
57.6627969225324
20
3.7833541374751
30
0
41
1
10
57.4582687812171
20
3.80179765920664
30
0
41
1
10
57.1517852272412
20
3.82192312603362
30
0
41
1
10
57.0496697270244
20
3.82737503058084
30
0
41
1
10
56.8455969594057
20
3.83577985940232
30
0
41
1
10
56.7436482023274
20
3.83873070453322
30
0
41
1
10
56.5658496839235
20
3.84167508681782
30
0
41
1
10
56.4900061318073
20
3.84223333085257
30
0
41
1
10
56.4141569460843
20
3.84209472560161
30
0
0
SPLINE
5
10E
100
AcDbEntity
8
1
62
256
6
ByLayer
370
18
48
1
60
0
100
AcDbSpline
70
4
71
3
72
142
73
138
40
0
40
0
40
0
40
0
40
0.003133485133069
40
0.0088935883919653
40
0.0088935883919653
40
0.0146536916508612
40
0.0146536916508612
40
0.0261738981686531
40
0.0261738981686531
40
0.0376941046864449
40
0.0376941046864449
40
0.0607345177220283
40
0.0607345177220283
40
0.083774930757612
40
0.083774930757612
40
0.0952951372754032
40
0.0952951372754032
40
0.106815343793194
40
0.106815343793194
40
0.129855756828776
40
0.129855756828776
40
0.141375963346566
40
0.141375963346566
40
0.152896169864357
40
0.152896169864357
40
0.164416376382147
40
0.164416376382147
40
0.175936582899937
40
0.187456789417728
40
0.187456789417728
40
0.193216892676623
40
0.193216892676623
40
0.198976995935517
40
0.198976995935517
40
0.210497202453308
40
0.210497202453308
40
0.222017408971099
40
0.222017408971099
40
0.24505782200668
40
0.24505782200668
40
0.268098235042263
40
0.268098235042263
40
0.279618441560054
40
0.279618441560054
40
0.291138648077845
40
0.291138648077845
40
0.314179061113429
40
0.314179061113429
40
0.32569926763122
40
0.32569926763122
40
0.337219474149011
40
0.337219474149011
40
0.348739680666802
40
0.348739680666802
40
0.360259887184593
40
0.371780093702384
40
0.371780093702384
40
0.383300300220176
40
0.383300300220176
40
0.394820506737967
40
0.394820506737967
40
0.406340713255758
40
0.406340713255758
40
0.42938112629134
40
0.42938112629134
40
0.452421539326922
40
0.452421539326922
40
0.475461952362504
40
0.475461952362504
40
0.498502365398087
40
0.498502365398087
40
0.510022571915878
40
0.510022571915878
40
0.521542778433669
40
0.521542778433669
40
0.544583191469251
40
0.544583191469251
40
0.556103397987042
40
0.556103397987042
40
0.561863501245938
40
0.561863501245938
40
0.567623604504833
40
0.567623604504833
40
0.579143811022624
40
0.579143811022624
40
0.590664017540415
40
0.590664017540415
40
0.613704430575996
40
0.613704430575996
40
0.636744843611577
40
0.636744843611577
40
0.659785256647158
40
0.659785256647158
40
0.68282566968274
40
0.68282566968274
40
0.705866082718321
40
0.705866082718321
40
0.728906495753902
40
0.728906495753902
40
0.740426702271693
40
0.740426702271693
40
0.746186805530588
40
0.746186805530588
40
0.751946908789484
40
0.751946908789484
40
0.763467115307274
40
0.763467115307274
40
0.774987321825064
40
0.774987321825064
40
0.798027734860644
40
0.798027734860644
40
0.821068147896225
40
0.821068147896225
40
0.832588354414016
40
0.832588354414016
40
0.844108560931806
40
0.844108560931806
40
0.867148973967387
40
0.867148973967387
40
0.890189387002967
40
0.890189387002967
40
0.913229800038548
40
0.913229800038548
40
0.924750006556338
40
0.924750006556338
40
0.930510109815234
40
0.930510109815234
40
0.936270213074128
40
0.947790419591919
40
0.947790419591919
40
0.959310626109709
40
0.959310626109709
40
0.982351039145289
40
0.982351039145289
40
0.993871245663079
40
0.993871245663079
40
1
40
1
40
1
40
1
41
1
10
39.8089169990953
20
-2.82478800577576
30
0
41
1
10
39.7808423383715
20
-2.83516325607852
30
0
41
1
10
39.7011231947545
20
-2.86441969757843
30
0
41
1
10
39.6212958023126
20
-2.89312705561775
30
0
41
1
10
39.5177940318151
20
-2.92984154700983
30
0
41
1
10
39.4659650733529
20
-2.94797355573328
30
0
41
1
10
39.3105540249699
20
-3.00157759939413
30
0
41
1
10
39.2071159874072
20
-3.03623016157007
30
0
41
1
10
39.0005775125924
20
-3.10339411463701
30
0
41
1
10
38.8975124981002
20
-3.13594482133448
30
0
41
1
10
38.5887778291949
20
-3.23034280757855
30
0
41
1
10
38.3834858591212
20
-3.28884830087031
30
0
41
1
10
37.9734902131362
20
-3.39670237250155
30
0
41
1
10
37.7687669287982
20
-3.44603855914593
30
0
41
1
10
37.4618930393622
20
-3.51308148560494
30
0
41
1
10
37.3596481769701
20
-3.5342778848449
30
0
41
1
10
37.1553026773481
20
-3.57439466853975
30
0
41
1
10
37.0531640027087
20
-3.59328766958981
30
0
41
1
10
36.7466907651092
20
-3.64637119661055
30
0
41
1
10
36.5423262605927
20
-3.67698288110841
30
0
41
1
10
36.235361319638
20
-3.71557082993232
30
0
41
1
10
36.1329695302277
20
-3.72721263365679
30
0
41
1
10
35.9280229489606
20
-3.74804291771619
30
0
41
1
10
35.8254572195994
20
-3.75722896554768
30
0
41
1
10
35.6202239838984
20
-3.77314968000283
30
0
41
1
10
35.5175598285327
20
-3.77988165640423
30
0
41
1
10
35.3119510935766
20
-3.79082202089484
30
0
41
1
10
35.1060880291396
20
-3.79924714889751
30
0
41
1
10
34.8995952314645
20
-3.802593002252
30
0
41
1
10
34.7444455421725
20
-3.8031826702192
30
0
41
1
10
34.692682074945
20
-3.80305930607949
30
0
41
1
10
34.5890550942781
20
-3.80217059330821
30
0
41
1
10
34.5371834018309
20
-3.80140464068882
30
0
41
1
10
34.3817871359641
20
-3.79815053269479
30
0
41
1
10
34.2783527103979
20
-3.79470708875681
30
0
41
1
10
34.0718303423035
20
-3.78529368994708
30
0
41
1
10
33.968779383544
20
-3.77931560808742
30
0
41
1
10
33.66002832586
20
-3.75762090320473
30
0
41
1
10
33.4547039499574
20
-3.73815334651769
30
0
41
1
10
33.0446013142472
20
-3.68951746922133
30
0
41
1
10
32.8398018520546
20
-3.66036356603291
30
0
41
1
10
32.5328027450736
20
-3.60954697341188
30
0
41
1
10
32.4305277552796
20
-3.59141326329257
30
0
41
1
10
32.2260959862128
20
-3.55274316651455
30
0
41
1
10
32.1239011234048
20
-3.53222968720314
30
0
41
1
10
31.8172544633454
20
-3.46723972733471
30
0
41
1
10
31.6127552363408
20
-3.41930279305129
30
0
41
1
10
31.3055604931831
20
-3.34076229693108
30
0
41
1
10
31.2030892216849
20
-3.31347610639276
30
0
41
1
10
30.9979785713633
20
-3.25670779411141
30
0
41
1
10
30.8953300162919
20
-3.22723589127426
30
0
41
1
10
30.6899444096238
20
-3.16599803591032
30
0
41
1
10
30.5871880204803
20
-3.13424831452849
30
0
41
1
10
30.38138639689
20
-3.06863738882683
30
0
41
1
10
30.1753207378195
20
-3.00089040981189
30
0
41
1
10
29.9686058995434
20
-2.92897908406366
30
0
41
1
10
29.7615075722855
20
-2.85504175374032
30
0
41
1
10
29.6576615165782
20
-2.81702364435412
30
0
41
1
10
29.4504670161628
20
-2.73933529999306
30
0
41
1
10
29.3470269935145
20
-2.69964920440248
30
0
41
1
10
29.1405091929975
20
-2.6185383151489
30
0
41
1
10
29.0374615553109
20
-2.57707012465269
30
0
41
1
10
28.7286704783368
20
-2.45032904166658
30
0
41
1
10
28.523301207732
20
-2.36269042240289
30
0
41
1
10
28.1130717371444
20
-2.18189724332524
30
0
41
1
10
27.9081868504537
20
-2.08878355054017
30
0
41
1
10
27.4986896080519
20
-1.89746279457444
30
0
41
1
10
27.2942597264685
20
-1.79895752470264
30
0
41
1
10
26.8851632873204
20
-1.59765537240275
30
0
41
1
10
26.6805274568551
20
-1.49481283946787
30
0
41
1
10
26.3731036848874
20
-1.33784342400719
30
0
41
1
10
26.270553616317
20
-1.28506483332603
30
0
41
1
10
26.0652814058066
20
-1.17863153123062
30
0
41
1
10
25.9625583118936
20
-1.12497922949018
30
0
41
1
10
25.6542543908251
20
-0.962468265532806
30
0
41
1
10
25.4483526598507
20
-0.852387141211125
30
0
41
1
10
25.1384617767147
20
-0.685514386670178
30
0
41
1
10
25.0349985002092
20
-0.629586357510959
30
0
41
1
10
24.8795094901701
20
-0.545318470372763
30
0
41
1
10
24.8276019687523
20
-0.517151633383463
30
0
41
1
10
24.7238304518343
20
-0.460778371216605
30
0
41
1
10
24.6719872847514
20
-0.432583182110818
30
0
41
1
10
24.5165809163937
20
-0.347979658851955
30
0
41
1
10
24.4131295441572
20
-0.291575121684133
30
0
41
1
10
24.2066110976675
20
-0.178604611044761
30
0
41
1
10
24.1035557148459
20
-0.122016877380275
30
0
41
1
10
23.7947074571968
20
0.0474905239766485
30
0
41
1
10
23.589282572507
20
0.160251918313776
30
0
41
1
10
23.1789058362875
20
0.38442197032856
30
0
41
1
10
22.9739234095803
20
0.495775308776473
30
0
41
1
10
22.5642600114515
20
0.71683453684247
30
0
41
1
10
22.3597441021389
20
0.826839828784159
30
0
41
1
10
21.9504087928233
20
1.04408434260682
30
0
41
1
10
21.7456359099536
20
1.15141069675545
30
0
41
1
10
21.3354412428227
20
1.36269024691853
30
0
41
1
10
21.1299929228924
20
1.46660072948188
30
0
41
1
10
20.7186309977143
20
1.67134459489947
30
0
41
1
10
20.5125403455645
20
1.77186594839088
30
0
41
1
10
20.2023594957399
20
1.91911194656123
30
0
41
1
10
20.0987955814448
20
1.96761141211874
30
0
41
1
10
19.9431495017776
20
2.03940864035215
30
0
41
1
10
19.8911928454839
20
2.06319380633974
30
0
41
1
10
19.7874073928622
20
2.11033792953268
30
0
41
1
10
19.7355567742354
20
2.1337071284826
30
0
41
1
10
19.5801268329899
20
2.20320379572672
30
0
41
1
10
19.476658933195
20
2.24870509963705
30
0
41
1
10
19.2701304853323
20
2.33822145063254
30
0
41
1
10
19.1670530525126
20
2.38220706520809
30
0
41
1
10
18.8581267103548
20
2.5114788571461
30
0
41
1
10
18.6526346618208
20
2.5941585738567
30
0
41
1
10
18.2420936618863
20
2.75198280679336
30
0
41
1
10
18.0370066110313
20
2.82708674818906
30
0
41
1
10
17.7296430976661
20
2.9340690871318
30
0
41
1
10
17.6272797637263
20
2.96883674006293
30
0
41
1
10
17.4225497542229
20
3.0363596206912
30
0
41
1
10
17.3201848446607
20
3.06911828014361
30
0
41
1
10
17.0130039120778
20
3.1642941636363
30
0
41
1
10
16.8080934801891
20
3.22360170318637
30
0
41
1
10
16.3976076742009
20
3.33352444010319
30
0
41
1
10
16.192028991769
20
3.38415045332243
30
0
41
1
10
15.7803787171474
20
3.47675389257478
30
0
41
1
10
15.5741090296545
20
3.51855801346738
30
0
41
1
10
15.2636545569366
20
3.57416308614825
30
0
41
1
10
15.1599957173667
20
3.59151594038488
30
0
41
1
10
15.0042037815
20
3.61573569186422
30
0
41
1
10
14.952227705334
20
3.62350652881196
30
0
41
1
10
14.8484279800417
20
3.63840753469125
30
0
41
1
10
14.6928621073176
20
3.65981250567665
30
0
41
1
10
14.5376806117403
20
3.67839453520696
30
0
41
1
10
14.3312009802338
20
3.70070970980149
30
0
41
1
10
14.2281393503514
20
3.71061907981962
30
0
41
1
10
13.9192891086412
20
3.73656069618829
30
0
41
1
10
13.7138738019545
20
3.74882052621626
30
0
41
1
10
13.4061229206034
20
3.75971649540225
30
0
41
1
10
13.3035999862253
20
3.76210045024016
30
0
41
1
10
13.1466119235529
20
3.76385276662233
30
0
41
1
10
13.092107545783
20
3.76411053418067
30
0
41
1
10
13.0376203904852
20
3.7640176375734
30
0
0
SPLINE
5
10F
100
AcDbEntity
8
1
62
256
6
ByLayer
370
18
48
1
60
0
100
AcDbSpline
70
4
71
3
72
97
73
93
40
0
40
0
40
0
40
0
40
0.0152291143407487
40
0.0152291143407487
40
0.0601527447391541
40
0.0601527447391541
40
0.0826145599383564
40
0.0826145599383564
40
0.105076375137559
40
0.105076375137559
40
0.11630728273716
40
0.11630728273716
40
0.127538190336761
40
0.127538190336761
40
0.150000005535964
40
0.150000005535964
40
0.172461820735167
40
0.172461820735167
40
0.19492363593437
40
0.19492363593437
40
0.206154543533972
40
0.206154543533972
40
0.217385451133574
40
0.217385451133574
40
0.239847266332777
40
0.239847266332777
40
0.262309081531981
40
0.262309081531981
40
0.284770896731184
40
0.284770896731184
40
0.329694527129592
40
0.329694527129592
40
0.352156342328795
40
0.352156342328795
40
0.374618157527998
40
0.374618157527998
40
0.3802336113278
40
0.3802336113278
40
0.385849065127602
40
0.385849065127602
40
0.397079972727204
40
0.397079972727204
40
0.419541787926409
40
0.419541787926409
40
0.464465418324817
40
0.464465418324817
40
0.509389048723226
40
0.509389048723226
40
0.53185086392243
40
0.53185086392243
40
0.554312679121634
40
0.554312679121634
40
0.565543586721236
40
0.565543586721236
40
0.576774494320837
40
0.576774494320837
40
0.599236309520043
40
0.599236309520043
40
0.644159939918453
40
0.644159939918453
40
0.655390847518054
40
0.655390847518054
40
0.666621755117656
40
0.666621755117656
40
0.689083570316861
40
0.689083570316861
40
0.734007200715271
40
0.734007200715271
40
0.756469015914476
40
0.756469015914476
40
0.778930831113681
40
0.778930831113681
40
0.823854461512091
40
0.823854461512091
40
0.835085369111694
40
0.835085369111694
40
0.840700822911495
40
0.840700822911495
40
0.846316276711296
40
0.868778091910502
40
0.868778091910502
40
0.891239907109708
40
0.891239907109708
40
0.913701722308915
40
0.913701722308915
40
0.924932629908517
40
0.924932629908517
40
0.936163537508119
40
0.936163537508119
40
0.958625352707324
40
0.958625352707324
40
1
40
1
40
1
40
1
41
1
10
18.0923832732424
20
2.8014633011947
30
0
41
1
10
18.2283057989156
20
2.85131600839756
30
0
41
1
10
18.3641207760333
20
2.89951274837054
30
0
41
1
10
18.9003490002219
20
3.08311907332111
30
0
41
1
10
19.3002552156029
20
3.20541043531634
30
0
41
1
10
19.9015583331621
20
3.36413362540347
30
0
41
1
10
20.1022130625308
20
3.41294470257253
30
0
41
1
10
20.5043109542321
20
3.50200470971964
30
0
41
1
10
20.7057118993429
20
3.54228283605301
30
0
41
1
10
21.0087077311983
20
3.59596933317175
30
0
41
1
10
21.1099047530505
20
3.6127505471421
30
0
41
1
10
21.3120095583698
20
3.64393957699133
30
0
41
1
10
21.4129854577425
20
3.65836160711436
30
0
41
1
10
21.7157432502426
20
3.69809511724671
30
0
41
1
10
21.9173690099355
20
3.71986977485614
30
0
41
1
10
22.3204659296744
20
3.7539149791921
30
0
41
1
10
22.5219452473675
20
3.76617811248306
30
0
41
1
10
22.9252305332181
20
3.78107956880353
30
0
41
1
10
23.1270166203516
20
3.78372425314205
30
0
41
1
10
23.4301477808896
20
3.78042327288335
30
0
41
1
10
23.5313210427903
20
3.77810785397526
30
0
41
1
10
23.7331799976152
20
3.77107492125094
30
0
41
1
10
23.8339329151575
20
3.76635625155097
30
0
41
1
10
24.1357565799452
20
3.74863570233623
30
0
41
1
10
24.3364155602932
20
3.73207525287498
30
0
41
1
10
24.7369721049236
20
3.68970224732104
30
0
41
1
10
24.9368572281328
20
3.66388520662449
30
0
41
1
10
25.3361773269756
20
3.60321681586765
30
0
41
1
10
25.5355871885497
20
3.56835047341232
30
0
41
1
10
26.1336680019824
20
3.45054634647866
30
0
41
1
10
26.5322501052172
20
3.35445863472523
30
0
41
1
10
27.1317804524616
20
3.18534162319042
30
0
41
1
10
27.3318669017702
20
3.124766555728
30
0
41
1
10
27.7330215478479
20
2.99562083949212
30
0
41
1
10
27.9340776225737
20
2.9270416202769
30
0
41
1
10
28.1861873628693
20
2.83644669941964
30
0
41
1
10
28.236649042062
20
2.81808441639578
30
0
41
1
10
28.3376575771885
20
2.78087772496082
30
0
41
1
10
28.3882028338387
20
2.76203356510331
30
0
41
1
10
28.5396218726556
20
2.70492095389648
30
0
41
1
10
28.6403971994933
20
2.66603012218474
30
0
41
1
10
28.9422369766573
20
2.54695971811523
30
0
41
1
10
29.1428622713224
20
2.46444663089633
30
0
41
1
10
29.7435580101751
20
2.20851241749781
30
0
41
1
10
30.1423852338737
20
2.02661120039096
30
0
41
1
10
30.9392506880975
20
1.64432624994981
30
0
41
1
10
31.3374462598329
20
1.44419735798317
30
0
41
1
10
31.9362852344432
20
1.13368755390644
30
0
41
1
10
32.1361287887806
20
1.02841494787865
30
0
41
1
10
32.5367107026489
20
0.815063734019986
30
0
41
1
10
32.7374591972498
20
0.70700557322499
30
0
41
1
10
33.0395004611421
20
0.543231720611033
30
0
41
1
10
33.1403339306231
20
0.488359129325687
30
0
41
1
10
33.3423518397864
20
0.378126979801124
30
0
41
1
10
33.4432801727551
20
0.322914108264399
30
0
41
1
10
33.7458285009534
20
0.157079345729073
30
0
41
1
10
33.9472151627317
20
0.0462299084959739
30
0
41
1
10
34.5511924931678
20
-0.285818398172239
30
0
41
1
10
34.9535384491874
20
-0.506632660542834
30
0
41
1
10
35.4576297976873
20
-0.779146937147857
30
0
41
1
10
35.5585144520076
20
-0.83346337072436
30
0
41
1
10
35.7604630295793
20
-0.941614023527308
30
0
41
1
10
35.8612640963134
20
-0.995308781186765
30
0
41
1
10
36.1632122858771
20
-1.15515096963779
30
0
41
1
10
36.3638964082518
20
-1.26007136704135
30
0
41
1
10
36.9646104082362
20
-1.56911433801773
30
0
41
1
10
37.3632464198016
20
-1.76760570683146
30
0
41
1
10
37.9607243179292
20
-2.05043061200246
30
0
41
1
10
38.159784734916
20
-2.14225386889544
30
0
41
1
10
38.5580487281915
20
-2.32046709037201
30
0
41
1
10
38.7572130894618
20
-2.40691415119397
30
0
41
1
10
39.3555032981587
20
-2.65720533086133
30
0
41
1
10
39.7554119616862
20
-2.81203498146545
30
0
41
1
10
40.2581660529258
20
-2.98811578462494
30
0
41
1
10
40.3588543051788
20
-3.02246563396892
30
0
41
1
10
40.5101527733381
20
-3.07260777260396
30
0
41
1
10
40.5606264524175
20
-3.08909108134998
30
0
41
1
10
40.6614902579549
20
-3.12153397887502
30
0
41
1
10
40.9135521567983
20
-3.20136756758163
30
0
41
1
10
41.1651872855067
20
-3.274787847352
30
0
41
1
10
41.5675751795216
20
-3.38379324493991
30
0
41
1
10
41.7686641402161
20
-3.43405500824741
30
0
41
1
10
42.1709170625555
20
-3.5258489220183
30
0
41
1
10
42.3721262601572
20
-3.56734547474903
30
0
41
1
10
42.6743364202469
20
-3.6227786909169
30
0
41
1
10
42.775136591232
20
-3.64012284936768
30
0
41
1
10
42.9769051492456
20
-3.67251020426389
30
0
41
1
10
43.0777774526969
20
-3.68753695525544
30
0
41
1
10
43.3800732409954
20
-3.72904133532143
30
0
41
1
10
43.5812982189313
20
-3.75197577377386
30
0
41
1
10
44.1528924620732
20
-3.80353516245344
30
0
41
1
10
44.523077081001
20
-3.82068756327595
30
0
41
1
10
44.8940060227502
20
-3.82135899783211
30
0
0
SPLINE
5
110
100
AcDbEntity
8
1
62
256
6
ByLayer
370
18
48
1
60
0
100
AcDbSpline
70
4
71
3
72
70
73
66
40
0
40
0
40
0
40
0
40
0.0220907276893622
40
0.0220907276893622
40
0.0346280260523201
40
0.0346280260523201
40
0.047165324415278
40
0.047165324415278
40
0.0973145178671123
40
0.0973145178671123
40
0.122389114593029
40
0.122389114593029
40
0.134926412955987
40
0.134926412955987
40
0.147463711318945
40
0.147463711318945
40
0.19761290477078
40
0.19761290477078
40
0.222687501496697
40
0.222687501496697
40
0.235224799859656
40
0.235224799859656
40
0.247762098222614
40
0.247762098222614
40
0.297911291674444
40
0.297911291674444
40
0.348060485126274
40
0.348060485126274
40
0.398209678578104
40
0.398209678578104
40
0.423284275304019
40
0.423284275304019
40
0.435821573666976
40
0.435821573666976
40
0.448358872029933
40
0.498508065481759
40
0.498508065481759
40
0.548657258933585
40
0.548657258933585
40
0.598806452385411
40
0.598806452385411
40
0.623881049111324
40
0.63641834747428
40
0.63641834747428
40
0.648955645837236
40
0.648955645837236
40
0.699104839289061
40
0.699104839289061
40
0.724179436014973
40
0.736716734377929
40
0.736716734377929
40
0.749254032740886
40
0.749254032740886
40
0.79940322619271
40
0.79940322619271
40
0.824477822918623
40
0.837015121281578
40
0.837015121281578
40
0.849552419644534
40
0.849552419644534
40
0.899701613096356
40
0.899701613096356
40
0.949850806548178
40
0.949850806548178
40
1
40
1
40
1
40
1
41
1
10
65.1916874658068
20
3.75769366682064
30
0
41
1
10
65.3642424444974
20
3.77974396588112
30
0
41
1
10
65.5369108915874
20
3.79832414380263
30
0
41
1
10
65.8079350631592
20
3.82190600025518
30
0
41
1
10
65.9061335733808
20
3.82930302100417
30
0
41
1
10
66.1022741497854
20
3.84177368792439
30
0
41
1
10
66.2002723301592
20
3.84685263346432
30
0
41
1
10
66.6900132830668
20
3.86646713963944
30
0
41
1
10
67.0810298582907
20
3.86366028444871
30
0
41
1
10
67.6683381887271
20
3.83180667116895
30
0
41
1
10
67.8642354680246
20
3.81658087162503
30
0
41
1
10
68.1585228381533
20
3.78684328373876
30
0
41
1
10
68.2567140255859
20
3.77577691804521
30
0
41
1
10
68.4528429732661
20
3.75140825073751
30
0
41
1
10
68.5508342251674
20
3.73810119079789
30
0
41
1
10
69.0405309742096
20
3.66601903796473
30
0
41
1
10
69.4314713761568
20
3.59061073053044
30
0
41
1
10
70.0186045598962
20
3.45214002931931
30
0
41
1
10
70.2144304093813
20
3.40175232781178
30
0
41
1
10
70.5085875118883
20
3.31997930173455
30
0
41
1
10
70.606767246587
20
3.29167139605539
30
0
41
1
10
70.8026695996803
20
3.23321728434141
30
0
41
1
10
70.9004603395064
20
3.20305334093183
30
0
41
1
10
71.3887225792669
20
3.04769884441018
30
0
41
1
10
71.777124782681
20
2.90890321013521
30
0
41
1
10
72.5523040043207
20
2.60616942745065
30
0
41
1
10
72.9390899873484
20
2.44225765033229
30
0
41
1
10
73.7133210528812
20
2.09256199199817
30
0
41
1
10
74.1007641464362
20
1.9067653901586
30
0
41
1
10
74.6843775124855
20
1.61440181930527
30
0
41
1
10
74.8793260262727
20
1.51467370075983
30
0
41
1
10
75.1726265412781
20
1.36204985278445
30
0
41
1
10
75.2705635395158
20
1.31065789348111
30
0
41
1
10
75.4666753652031
20
1.20697699092705
30
0
41
1
10
75.9561019248881
20
0.94629745586704
30
0
41
1
10
76.4418074130073
20
0.67922376222549
30
0
41
1
10
77.2169173882422
20
0.248724399419871
30
0
41
1
10
77.6034900937587
20
0.0319332732842952
30
0
41
1
10
78.3769978336489
20
-0.400491267546499
30
0
41
1
10
78.7639130461825
20
-0.616160635958039
30
0
41
1
10
79.3464590001051
20
-0.935330075433797
30
0
41
1
10
79.63827962076
20
-1.09382321487996
30
0
41
1
10
79.9313140596255
20
-1.24996410386083
30
0
41
1
10
80.1269849884524
20
-1.35345352983302
30
0
41
1
10
80.2250558904628
20
-1.40493638884041
30
0
41
1
10
80.7148283820387
20
-1.65986876807725
30
0
41
1
10
81.1054648995608
20
-1.85619866996393
30
0
41
1
10
81.6915608398713
20
-2.13632488887066
30
0
41
1
10
81.9846422220571
20
-2.27279790073905
30
0
41
1
10
82.2781454422563
20
-2.40331029590206
30
0
41
1
10
82.473950614338
20
-2.48892823211057
30
0
41
1
10
82.5719774616929
20
-2.53106557277687
30
0
41
1
10
83.0617562007835
20
-2.73777615151474
30
0
41
1
10
83.4523088484943
20
-2.89036908014029
30
0
41
1
10
84.0382005615832
20
-3.09780204891587
30
0
41
1
10
84.3311614716037
20
-3.196154587877
30
0
41
1
10
84.6245306312328
20
-3.28601519776924
30
0
41
1
10
84.8202450438862
20
-3.34398498969856
30
0
41
1
10
84.9182413812552
20
-3.37202072852918
30
0
41
1
10
85.4077167288847
20
-3.5069719625931
30
0
41
1
10
85.7971514908166
20
-3.59807242633318
30
0
41
1
10
86.5744619592816
20
-3.74534454240092
30
0
41
1
10
86.9623392469503
20
-3.80152909973535
30
0
41
1
10
87.7389206835385
20
-3.87795782180956
30
0
41
1
10
88.1276031792847
20
-3.89819512916426
30
0
41
1
10
88.5180323146107
20
-3.89984585937123
30
0
0
SPLINE
5
111
100
AcDbEntity
8
1
62
256
6
ByLayer
370
18
48
1
60
0
100
AcDbSpline
70
4
71
3
72
10
73
6
40
0
40
0
40
0
40
0
40
0.5
40
0.5
40
1
40
1
40
1
40
1
41
1
10
88.4931359711081
20
-3.87445215600818
30
0
41
1
10
88.4972800269144
20
-3.88259699208268
30
0
41
1
10
88.5014383778631
20
-3.88880308921634
30
0
41
1
10
88.5097411681817
20
-3.89726470355839
30
0
41
1
10
88.5138883664115
20
-3.89953114547285
30
0
41
1
10
88.5180323146107
20
-3.89984585937123
30
0
0
SPLINE
5
112
100
AcDbEntity
8
1
62
256
6
ByLayer
370
18
48
1
60
0
100
AcDbSpline
70
4
71
3
72
77
73
73
40
0
40
0
40
0
40
0
40
0.0557506822524807
40
0.0557506822524807
40
0.0696883528156006
40
0.0696883528156006
40
0.0836260233787204
40
0.0836260233787204
40
0.11150136450496
40
0.11150136450496
40
0.167252046757439
40
0.167252046757439
40
0.181189717320559
40
0.181189717320559
40
0.19512738788368
40
0.22300272900992
40
0.22300272900992
40
0.250878070136161
40
0.250878070136161
40
0.264815740699281
40
0.264815740699281
40
0.278753411262401
40
0.278753411262401
40
0.334504093514883
40
0.334504093514883
40
0.390254775767366
40
0.390254775767366
40
0.446005458019848
40
0.446005458019848
40
0.459943128582968
40
0.459943128582968
40
0.473880799146088
40
0.473880799146088
40
0.501756140272329
40
0.501756140272329
40
0.55750682252481
40
0.55750682252481
40
0.57144449308793
40
0.57144449308793
40
0.58538216365105
40
0.58538216365105
40
0.613257504777292
40
0.613257504777292
40
0.669008187029776
40
0.669008187029776
40
0.682945857592897
40
0.682945857592897
40
0.696883528156018
40
0.696883528156018
40
0.72475886928226
40
0.72475886928226
40
0.752634210408501
40
0.752634210408501
40
0.780509551534743
40
0.780509551534743
40
0.794447222097865
40
0.794447222097865
40
0.808384892660987
40
0.808384892660987
40
0.836260233787228
40
0.836260233787228
40
0.86413557491347
40
0.86413557491347
40
0.892010916039712
40
0.892010916039712
40
0.905948586602832
40
0.905948586602832
40
0.919886257165953
40
0.919886257165953
40
0.947761598292195
40
0.947761598292195
40
1
40
1
40
1
40
1
41
1
10
88.493135971119
20
-3.87445215600809
30
0
41
1
10
88.1038337755074
20
-3.84871542769156
30
0
41
1
10
87.7149267591707
20
-3.80460892333056
30
0
41
1
10
87.2277379474869
20
-3.72720089709827
30
0
41
1
10
87.1302471533177
20
-3.71060529326209
30
0
41
1
10
86.9351247731341
20
-3.67519901398345
30
0
41
1
10
86.8375233905139
20
-3.65639263717804
30
0
41
1
10
86.5450189513926
20
-3.59679517459716
30
0
41
1
10
86.3502387089342
20
-3.55279438990641
30
0
41
1
10
85.7661153252816
20
-3.4083501256456
30
0
41
1
10
85.3769822239396
20
-3.29545378429418
30
0
41
1
10
84.889077354532
20
-3.13514236125152
30
0
41
1
10
84.7914930041336
20
-3.10214325350614
30
0
41
1
10
84.5964911189446
20
-3.03438972637761
30
0
41
1
10
84.3041413043847
20
-2.93009486249733
30
0
41
1
10
84.0120765172546
20
-2.81802656117784
30
0
41
1
10
83.6225896921522
20
-2.66209289897896
30
0
41
1
10
83.4278131468968
20
-2.58087058986368
30
0
41
1
10
83.1353445127294
20
-2.45447211000848
30
0
41
1
10
83.0378041690184
20
-2.41157868299638
30
0
41
1
10
82.8425768235783
20
-2.32432809640352
30
0
41
1
10
82.7450679691212
20
-2.28005041254295
30
0
41
1
10
82.2582144313129
20
-2.05571061356278
30
0
41
1
10
81.8706514431508
20
-1.86666856459127
30
0
41
1
10
81.0968183255212
20
-1.47376102424641
30
0
41
1
10
80.7105254633747
20
-1.26993188185551
30
0
41
1
10
79.9366439535224
20
-0.85184517744355
30
0
41
1
10
79.549078665145
20
-0.637544333678193
30
0
41
1
10
79.062135350567
20
-0.366015716051407
30
0
41
1
10
78.9646231968393
20
-0.311525975460597
30
0
41
1
10
78.769314708668
20
-0.20224136611813
30
0
41
1
10
78.6716904995835
20
-0.147542824228708
30
0
41
1
10
78.3790978081569
20
0.016485008596959
30
0
41
1
10
78.1843115298477
20
0.125819105636793
30
0
41
1
10
77.6002184341792
20
0.452765524659554
30
0
41
1
10
77.2111230073748
20
0.669224716489254
30
0
41
1
10
76.7234587953722
20
0.93495086349958
30
0
41
1
10
76.6258610796016
20
0.987853519618625
30
0
41
1
10
76.4305074939423
20
1.09312284037153
30
0
41
1
10
76.3328192407509
20
1.14545282698745
30
0
41
1
10
76.0401043307859
20
1.30122548473898
30
0
41
1
10
75.8452532367984
20
1.40353607564663
30
0
41
1
10
75.260960484231
20
1.70484285082605
30
0
41
1
10
74.871792768076
20
1.89823573733312
30
0
41
1
10
74.3840390920877
20
2.12785002381531
30
0
41
1
10
74.2864238948466
20
2.17316724975629
30
0
41
1
10
74.0910373232335
20
2.26254574926008
30
0
41
1
10
73.9932969113301
20
2.30659200419041
30
0
41
1
10
73.7004563823202
20
2.4364864632563
30
0
41
1
10
73.5055271078326
20
2.52018376689773
30
0
41
1
10
73.1158177504614
20
2.68120077496854
30
0
41
1
10
72.9210526043818
20
2.75854377161741
30
0
41
1
10
72.5314424570187
20
2.90657150425136
30
0
41
1
10
72.3365964497194
20
2.97725281545954
30
0
41
1
10
72.043979567116
20
3.07791643661613
30
0
41
1
10
71.9463792101409
20
3.1105743339011
30
0
41
1
10
71.7510127525368
20
3.17404513431038
30
0
41
1
10
71.6532475559935
20
3.20485625423731
30
0
41
1
10
71.360308588362
20
3.29424981661378
30
0
41
1
10
71.1652675260738
20
3.34986575780465
30
0
41
1
10
70.775357666298
20
3.45290312041982
30
0
41
1
10
70.580528718152
20
3.50035989467318
30
0
41
1
10
70.1908425855432
20
3.58691474570037
30
0
41
1
10
69.9959455982084
20
3.62598227138025
30
0
41
1
10
69.7032492798086
20
3.67807246046541
30
0
41
1
10
69.6056267653587
20
3.69435167086405
30
0
41
1
10
69.4102249085882
20
3.72471123028217
30
0
41
1
10
69.3124228114788
20
3.7387932526598
30
0
41
1
10
69.0193772327842
20
3.77761649634027
30
0
41
1
10
68.8242823859001
20
3.79896998472157
30
0
41
1
10
68.2638849118278
20
3.84725626092131
30
0
41
1
10
67.8989638858992
20
3.86277457745683
30
0
41
1
10
67.5333535652384
20
3.86210954401733
30
0
0
SPLINE
5
113
100
AcDbEntity
8
1
62
256
6
ByLayer
370
18
48
1
60
0
100
AcDbSpline
70
4
71
3
72
28
73
24
40
0
40
0
40
0
40
0
40
0.124999999999976
40
0.124999999999976
40
0.187499999999935
40
0.187499999999935
40
0.249999999999895
40
0.249999999999895
40
0.374999999999914
40
0.374999999999914
40
0.437499999999922
40
0.437499999999922
40
0.49999999999993
40
0.49999999999993
40
0.624999999999949
40
0.624999999999949
40
0.687499999999958
40
0.687499999999958
40
0.749999999999966
40
0.749999999999966
40
0.874999999999983
40
0.874999999999983
40
1
40
1
40
1
40
1
41
1
10
50.9995260199901
20
-3.19683517570928
30
0
41
1
10
50.9995260199901
20
-3.19201074309956
30
0
41
1
10
51.0006539181043
20
-3.1872689967206
30
0
41
1
10
51.0039875085545
20
-3.1802803484054
30
0
41
1
10
51.0053895573622
20
-3.17795597698577
30
0
41
1
10
51.0086911119934
20
-3.17346632078372
30
0
41
1
10
51.0105897266117
20
-3.17129350807159
30
0
41
1
10
51.0170145007132
20
-3.16498963750078
30
0
41
1
10
51.0223577100804
20
-3.16102370659118
30
0
41
1
10
51.0314731068294
20
-3.15581516270643
30
0
41
1
10
51.0346973749828
20
-3.15419447763938
30
0
41
1
10
51.0415177234648
20
-3.15118654632269
30
0
41
1
10
51.0451385132003
20
-3.14979136269062
30
0
41
1
10
51.0564046828592
20
-3.14603664253875
30
0
41
1
10
51.0643452790883
20
-3.1441240660593
30
0
41
1
10
51.0768953564883
20
-3.14214351555432
30
0
41
1
10
51.0811966217289
20
-3.1416351251068
30
0
41
1
10
51.0897679803389
20
-3.14095130542967
30
0
41
1
10
51.0940684942407
20
-3.14077005332442
30
0
41
1
10
51.1070141364079
20
-3.14070444065081
30
0
41
1
10
51.1157929481543
20
-3.14131805242633
30
0
41
1
10
51.1325194307805
20
-3.14377600188351
30
0
41
1
10
51.1406319163999
20
-3.14562685915661
30
0
41
1
10
51.1482700756368
20
-3.14807020829122
30
0
0
SPLINE
5
114
100
AcDbEntity
8
1
62
256
6
ByLayer
370
18
48
1
60
0
100
AcDbSpline
70
4
71
3
72
24
73
20
40
0
40
0
40
0
40
0
40
0.278590300424437
40
0.278590300424437
40
0.417885450636655
40
0.417885450636655
40
0.487533025742764
40
0.487533025742764
40
0.557180600848873
40
0.557180600848873
40
0.696475751061099
40
0.696475751061099
40
0.835770901273325
40
0.835770901273325
40
0.905418476379437
40
0.905418476379437
40
0.97506605148555
40
0.97506605148555
40
1
40
1
40
1
40
1
41
1
10
51.1482700756369
20
-3.14807020829122
30
0
41
1
10
51.5381322991839
20
-3.27278213127698
30
0
41
1
10
51.9278428252931
20
-3.38119717330341
30
0
41
1
10
52.5131068116735
20
-3.51922678150467
30
0
41
1
10
52.7082874565077
20
-3.56114780477682
30
0
41
1
10
53.0012079975554
20
-3.61781364197714
30
0
41
1
10
53.0989029557192
20
-3.63565896297121
30
0
41
1
10
53.2940867687046
20
-3.66912780861705
30
0
41
1
10
53.3916218534566
20
-3.68476000076302
30
0
41
1
10
53.6841756311027
20
-3.72830603416392
30
0
41
1
10
53.8791197696891
20
-3.75288644609395
30
0
41
1
10
54.2689822247864
20
-3.79311858398421
30
0
41
1
10
54.463912909679
20
-3.80876032074821
30
0
41
1
10
54.756603071117
20
-3.82542080539653
30
0
41
1
10
54.8542114922506
20
-3.8298423576673
30
0
41
1
10
55.0495143616702
20
-3.83641026268734
30
0
41
1
10
55.1472051470943
20
-3.83855499540496
30
0
41
1
10
55.2796760470551
20
-3.83990721357554
30
0
41
1
10
55.3145873336615
20
-3.84011613867318
30
0
41
1
10
55.3494899492968
20
-3.84017780337635
30
0
0
SPLINE
5
115
100
AcDbEntity
8
1
62
256
6
ByLayer
370
18
48
1
60
0
100
AcDbSpline
70
4
71
3
72
58
73
54
40
0
40
0
40
0
40
0
40
0.0377886337724253
40
0.0377886337724253
40
0.0596570739139645
40
0.0596570739139645
40
0.0815255140555033
40
0.0815255140555033
40
0.103393954197042
40
0.103393954197042
40
0.125262394338581
40
0.125262394338581
40
0.168999274621657
40
0.168999274621657
40
0.212736154904733
40
0.212736154904733
40
0.23460459504627
40
0.23460459504627
40
0.256473035187806
40
0.256473035187806
40
0.278341475329343
40
0.278341475329343
40
0.30020991547088
40
0.30020991547088
40
0.343946795753951
40
0.343946795753951
40
0.387683676037022
40
0.387683676037022
40
0.431420556320094
40
0.431420556320094
40
0.453288996461628
40
0.453288996461628
40
0.475157436603162
40
0.475157436603162
40
0.562631197169299
40
0.562631197169299
40
0.606368077452368
40
0.606368077452368
40
0.628236517593902
40
0.628236517593902
40
0.650104957735437
40
0.650104957735437
40
0.737578718301576
40
0.737578718301576
40
0.781315598584645
40
0.781315598584645
40
0.80318403872618
40
0.80318403872618
40
0.825052478867716
40
0.825052478867716
40
0.912526239433858
40
0.912526239433858
40
1
40
1
40
1
40
1
41
1
10
75.1716433988688
20
3.72589723569547
30
0
41
1
10
75.339573552791
20
3.75202461757658
30
0
41
1
10
75.5074280551311
20
3.77492069773675
30
0
41
1
10
75.7723807220502
20
3.80586348216676
30
0
41
1
10
75.869489501304
20
3.81610387711422
30
0
41
1
10
76.0636963053393
20
3.83434287864668
30
0
41
1
10
76.1608219915879
20
3.84232980652891
30
0
41
1
10
76.3554214973369
20
3.85596532442304
30
0
41
1
10
76.4528643350481
20
3.86162037056528
30
0
41
1
10
76.6475917390139
20
3.87061527324704
30
0
41
1
10
76.7449317701515
20
3.87395922796932
30
0
41
1
10
77.0368701179613
20
3.88056673702528
30
0
41
1
10
77.2313831192228
20
3.88041194100885
30
0
41
1
10
77.6201769151849
20
3.87101024153034
30
0
41
1
10
77.8144564780753
20
3.86176029924152
30
0
41
1
10
78.1057851877904
20
3.84096861835411
30
0
41
1
10
78.2028787112304
20
3.83288357721949
30
0
41
1
10
78.3970859339607
20
3.81439100064247
30
0
41
1
10
78.4942204162409
20
3.80398736684435
30
0
41
1
10
78.6888030416449
20
3.78095780873801
30
0
41
1
10
78.7862507349728
20
3.76832394500562
30
0
41
1
10
78.9809465391248
20
3.74088687694052
30
0
41
1
10
79.0782475512081
20
3.7260772982668
30
0
41
1
10
79.3699863221788
20
3.67838161613986
30
0
41
1
10
79.5642797580754
20
3.64223522499316
30
0
41
1
10
79.9528479419886
20
3.56151494851491
30
0
41
1
10
80.1470912783176
20
3.51693046393925
30
0
41
1
10
80.535422106675
20
3.41915852230278
30
0
41
1
10
80.7295687050192
20
3.36599545319024
30
0
41
1
10
81.021463096496
20
3.28041598057169
30
0
41
1
10
81.1189031803272
20
3.25089876145705
30
0
41
1
10
81.313582370097
20
3.19005722538725
30
0
41
1
10
81.4108656651206
20
3.15872074761057
30
0
41
1
10
81.8970513465213
20
2.99753838219968
30
0
41
1
10
82.285215523088
20
2.85418013217222
30
0
41
1
10
82.8674182834447
20
2.61868546218997
30
0
41
1
10
83.061531241513
20
2.53682646704183
30
0
41
1
10
83.3533831078246
20
2.40981720685679
30
0
41
1
10
83.4508221421632
20
2.36674291633116
30
0
41
1
10
83.6455230838654
20
2.27934227885771
30
0
41
1
10
83.7428118464207
20
2.23500472810781
30
0
41
1
10
84.2289757673051
20
2.01018645666829
30
0
41
1
10
84.6169881094698
20
1.82029730827602
30
0
41
1
10
85.198921104301
20
1.52228409150152
30
0
41
1
10
85.3929294012119
20
1.42081152658869
30
0
41
1
10
85.6846210829111
20
1.26644897266615
30
0
41
1
10
85.7820228387946
20
1.2145897088769
30
0
41
1
10
85.976638883842
20
1.110352030706
30
0
41
1
10
86.0738575073853
20
1.05797175086624
30
0
41
1
10
86.5595357071539
20
0.79482341078824
30
0
41
1
10
86.9467394129712
20
0.580297393969005
30
0
41
1
10
87.7203898460007
20
0.14664171227318
30
0
41
1
10
88.1068684441524
20
-0.072435622038256
30
0
41
1
10
88.4944850383476
20
-0.291126233030212
30
0
0
SPLINE
5
116
100
AcDbEntity
8
1
62
256
6
ByLayer
370
18
48
1
60
0
100
AcDbSpline
70
4
71
3
72
10
73
6
40
0
40
0
40
0
40
0
40
0.5
40
0.5
40
1
40
1
40
1
40
1
41
1
10
88.4944850383408
20
-0.291126233031008
30
0
41
1
10
88.5037888826513
20
-0.206788852579621
30
0
41
1
10
88.5140140893282
20
-0.122237864214526
30
0
41
1
10
88.5365604872858
20
0.047269634897674
30
0
41
1
10
88.5488869327948
20
0.132260515564781
30
0
41
1
10
88.5623925278342
20
0.217375801079072
30
0
0
SPLINE
5
117
100
AcDbEntity
8
1
62
256
6
ByLayer
370
18
48
1
60
0
100
AcDbSpline
70
4
71
3
72
56
73
52
40
0
40
0
40
0
40
0
40
0.0586510241006332
40
0.0586510241006332
40
0.0879765361509482
40
0.0879765361509482
40
0.117302048201263
40
0.117302048201263
40
0.175953072301891
40
0.175953072301891
40
0.205278584352206
40
0.205278584352206
40
0.234604096402521
40
0.234604096402521
40
0.293255120503151
40
0.293255120503151
40
0.351906144603781
40
0.351906144603781
40
0.381231656654094
40
0.381231656654094
40
0.410557168704408
40
0.410557168704408
40
0.469208192805032
40
0.469208192805032
40
0.527859216905656
40
0.527859216905656
40
0.55718472895597
40
0.55718472895597
40
0.586510241006283
40
0.586510241006283
40
0.645161265106911
40
0.645161265106911
40
0.674486777157226
40
0.674486777157226
40
0.703812289207541
40
0.703812289207541
40
0.762463313308171
40
0.762463313308171
40
0.821114337408801
40
0.821114337408801
40
0.850439849459118
40
0.850439849459118
40
0.879765361509434
40
0.879765361509434
40
0.938416385610064
40
0.938416385610064
40
0.967741897660378
40
0.967741897660378
40
0.997067409710692
40
0.997067409710692
40
1
40
1
40
1
40
1
41
1
10
88.5623925278351
20
0.2173758010928
30
0
41
1
10
88.356384712226
20
0.333498379408468
30
0
41
1
10
88.1503805529045
20
0.449084481666347
30
0
41
1
10
87.8413806033182
20
0.621660252143016
30
0
41
1
10
87.738395110024
20
0.679074798003683
30
0
41
1
10
87.5322957671947
20
0.793405601526644
30
0
41
1
10
87.4293599476559
20
0.850247118027823
30
0
41
1
10
87.121122158926
20
1.01947875863306
30
0
41
1
10
86.916246175648
20
1.13063600055395
30
0
41
1
10
86.6095468277965
20
1.29440517307495
30
0
41
1
10
86.5074152427935
20
1.34849927935431
30
0
41
1
10
86.3033590321135
20
1.45571122603835
30
0
41
1
10
86.2014634421387
20
1.50887791379086
30
0
41
1
10
85.8959892026414
20
1.66674763729048
30
0
41
1
10
85.6925955634694
20
1.76977546644869
30
0
41
1
10
85.2858697336853
20
1.97070175739748
30
0
41
1
10
85.082521706144
20
2.0685772375831
30
0
41
1
10
84.7773057324161
20
2.21118777088995
30
0
41
1
10
84.6755483651195
20
2.25804480766769
30
0
41
1
10
84.4720100813142
20
2.35041083645984
30
0
41
1
10
84.3701987411283
20
2.39587456881012
30
0
41
1
10
84.0645086730719
20
2.52991382439714
30
0
41
1
10
83.8603916133436
20
2.61616258587972
30
0
41
1
10
83.4510527602043
20
2.78176594982588
30
0
41
1
10
83.2457948793084
20
2.86107931286949
30
0
41
1
10
82.9370309617188
20
2.97475059116167
30
0
41
1
10
82.8338539368312
20
3.0118061982607
30
0
41
1
10
82.6279314865122
20
3.0836697912718
30
0
41
1
10
82.5251431858802
20
3.11851281700425
30
0
41
1
10
82.217206793337
20
3.21971387067271
30
0
41
1
10
82.01247843721
20
3.28273449561576
30
0
41
1
10
81.7059268513828
20
3.37043042776151
30
0
41
1
10
81.6038317831958
20
3.39852276642992
30
0
41
1
10
81.39982922417
20
3.45245001495212
30
0
41
1
10
81.2979511308706
20
3.47830859496508
30
0
41
1
10
80.9924870002803
20
3.55240222314828
30
0
41
1
10
80.789052538251
20
3.59714294338408
30
0
41
1
10
80.3821492536215
20
3.67705529205691
30
0
41
1
10
80.1786640501402
20
3.71222064579081
30
0
41
1
10
79.873174969845
20
3.75767842574774
30
0
41
1
10
79.7713181795032
20
3.77162412226207
30
0
41
1
10
79.5675557261197
20
3.79708535547579
30
0
41
1
10
79.4656190263103
20
3.8085869648541
30
0
41
1
10
79.1595179820229
20
3.839343113897
30
0
41
1
10
78.9550782752111
20
3.85485392771082
30
0
41
1
10
78.647515598762
20
3.87047653432015
30
0
41
1
10
78.5448446687045
20
3.87441098911523
30
0
41
1
10
78.339172237221
20
3.8797129502193
30
0
41
1
10
78.2361623458864
20
3.88108103455286
30
0
41
1
10
78.1226957176689
20
3.88115831300505
30
0
41
1
10
78.1123803691617
20
3.88115232246298
30
0
41
1
10
78.1020655256766
20
3.88113332395983
30
0
0
SPLINE
5
118
100
AcDbEntity
8
1
62
256
6
ByLayer
370
18
48
1
60
0
100
AcDbSpline
70
4
71
3
72
131
73
127
40
0
40
0
40
0
40
0
40
0.0039736866756727
40
0.0039736866756727
40
0.0268109935427246
40
0.0268109935427246
40
0.0496483004097763
40
0.0496483004097763
40
0.072485607276828
40
0.072485607276828
40
0.0953229141438798
40
0.0953229141438798
40
0.101032240860643
40
0.101032240860643
40
0.106741567577406
40
0.106741567577406
40
0.118160221010933
40
0.118160221010933
40
0.140997527877985
40
0.140997527877985
40
0.163834834745038
40
0.163834834745038
40
0.175253488178564
40
0.175253488178564
40
0.18667214161209
40
0.18667214161209
40
0.209509448479142
40
0.209509448479142
40
0.232346755346194
40
0.232346755346194
40
0.255184062213245
40
0.255184062213245
40
0.278021369080297
40
0.278021369080297
40
0.289440022513823
40
0.289440022513823
40
0.300858675947349
40
0.300858675947349
40
0.323695982814401
40
0.323695982814401
40
0.346533289681452
40
0.346533289681452
40
0.357951943114978
40
0.357951943114978
40
0.369370596548503
40
0.369370596548503
40
0.392207903415553
40
0.392207903415553
40
0.415045210282604
40
0.415045210282604
40
0.437882517149654
40
0.437882517149654
40
0.460719824016705
40
0.460719824016705
40
0.466429150733466
40
0.466429150733466
40
0.472138477450228
40
0.472138477450228
40
0.483557130883752
40
0.483557130883752
40
0.5063944377508
40
0.5063944377508
40
0.529231744617848
40
0.529231744617848
40
0.540650398051371
40
0.540650398051371
40
0.552069051484895
40
0.552069051484895
40
0.574906358351941
40
0.574906358351941
40
0.597743665218986
40
0.597743665218986
40
0.609162318652509
40
0.609162318652509
40
0.620580972086032
40
0.620580972086032
40
0.643418278953079
40
0.643418278953079
40
0.654836932386603
40
0.654836932386603
40
0.666255585820127
40
0.666255585820127
40
0.689092892687175
40
0.689092892687175
40
0.711930199554223
40
0.711930199554223
40
0.723348852987748
40
0.723348852987748
40
0.734767506421273
40
0.734767506421273
40
0.757604813288323
40
0.757604813288323
40
0.780442120155374
40
0.780442120155374
40
0.791860773588899
40
0.791860773588899
40
0.803279427022425
40
0.81469808045595
40
0.820407407172713
40
0.820407407172713
40
0.826116733889475
40
0.826116733889475
40
0.837535387322999
40
0.837535387322999
40
0.848954040756524
40
0.848954040756524
40
0.871791347623573
40
0.871791347623573
40
0.894628654490623
40
0.894628654490623
40
0.906047307924147
40
0.906047307924147
40
0.917465961357672
40
0.917465961357672
40
0.940303268224722
40
0.940303268224722
40
0.951721921658246
40
0.951721921658246
40
0.96314057509177
40
0.96314057509177
40
0.974559228525294
40
0.974559228525294
40
0.985977881958818
40
0.997396535392342
40
0.997396535392342
40
1
40
1
40
1
40
1
41
1
10
61.6641320020363
20
-2.79048460490654
30
0
41
1
10
61.6286630439777
20
-2.80409440503931
30
0
41
1
10
61.5931988884406
20
-2.81759317179672
30
0
41
1
10
61.3539250514417
20
-2.90788985359106
30
0
41
1
10
61.1501862927827
20
-2.9810260194109
30
0
41
1
10
60.7423976303184
20
-3.11923209150376
30
0
41
1
10
60.5383255767824
20
-3.18428240749773
30
0
41
1
10
60.1296220113578
20
-3.30604616782762
30
0
41
1
10
59.9251448623996
20
-3.36290007772632
30
0
41
1
10
59.5151083026998
20
-3.46765323307761
30
0
41
1
10
59.3095796268616
20
-3.51558704033692
30
0
41
1
10
59.0517445374938
20
-3.56966244683935
30
0
41
1
10
59.0001319910886
20
-3.58018605845194
30
0
41
1
10
58.8968122782369
20
-3.60064577112604
30
0
41
1
10
58.8450743479157
20
-3.61058744391622
30
0
41
1
10
58.6900193330634
20
-3.63946771008202
30
0
41
1
10
58.5868325431248
20
-3.65747331518293
30
0
41
1
10
58.2778984476914
20
-3.70781341099112
30
0
41
1
10
58.0726136712779
20
-3.73636613641367
30
0
41
1
10
57.6627969225316
20
-3.78335413747516
30
0
41
1
10
57.4582687812165
20
-3.8017976592067
30
0
41
1
10
57.1517852272406
20
-3.82192312603368
30
0
41
1
10
57.0496697270237
20
-3.82737503058087
30
0
41
1
10
56.8455969594051
20
-3.83577985940235
30
0
41
1
10
56.7436482023267
20
-3.83873070453325
30
0
41
1
10
56.4378016532563
20
-3.84379559016318
30
0
41
1
10
56.2339481543763
20
-3.84212934247705
30
0
41
1
10
55.825873046526
20
-3.82874977956658
30
0
41
1
10
55.6216262155368
20
-3.81704695179053
30
0
41
1
10
55.2125494292354
20
-3.78361382632494
30
0
41
1
10
55.0078671473713
20
-3.76182530534925
30
0
41
1
10
54.5973489161821
20
-3.70823646736287
30
0
41
1
10
54.3915513610911
20
-3.67643107231703
30
0
41
1
10
54.0817073089395
20
-3.62128570563919
30
0
41
1
10
53.9781287029554
20
-3.60163938727373
30
0
41
1
10
53.7714662346196
20
-3.5600467964656
30
0
41
1
10
53.6683203660694
20
-3.53808254097683
30
0
41
1
10
53.3594792298267
20
-3.46866854126981
30
0
41
1
10
53.1542158299376
20
-3.41781676478263
30
0
41
1
10
52.7443957744488
20
-3.30756096276815
30
0
41
1
10
52.5398361487571
20
-3.24816434842759
30
0
41
1
10
52.2332740815385
20
-3.15299113332125
30
0
41
1
10
52.1311268319312
20
-3.12026109892395
30
0
41
1
10
51.9269956731749
20
-3.05270062644243
30
0
41
1
10
51.8250056996568
20
-3.01787422191976
30
0
41
1
10
51.5190148669076
20
-2.91053118107956
30
0
41
1
10
51.3150400482732
20
-2.83509956120437
30
0
41
1
10
50.9066710634694
20
-2.67707269507017
30
0
41
1
10
50.7022478230973
20
-2.59452176354446
30
0
41
1
10
50.2928066078567
20
-2.4224688526825
30
0
41
1
10
50.0879209579873
20
-2.33276468408624
30
0
41
1
10
49.6769279053146
20
-2.14717915787088
30
0
41
1
10
49.4708650211552
20
-2.05123911328454
30
0
41
1
10
49.2123002261073
20
-1.92776124741576
30
0
41
1
10
49.1605085910773
20
-1.90287174152192
30
0
41
1
10
49.0570330182861
20
-1.8528387116184
30
0
41
1
10
49.0053389034863
20
-1.82769093636392
30
0
41
1
10
48.8503842088871
20
-1.75186052413679
30
0
41
1
10
48.747271445694
20
-1.70075630285169
30
0
41
1
10
48.4384923768835
20
-1.54581434078548
30
0
41
1
10
48.2332329241152
20
-1.4406097679261
30
0
41
1
10
47.8233807166105
20
-1.22731646644158
30
0
41
1
10
47.618778242409
20
-1.11924577187475
30
0
41
1
10
47.3121254892719
20
-0.955436780360316
30
0
41
1
10
47.2099456267993
20
-0.90055752772642
30
0
41
1
10
47.0057506067768
20
-0.790085736871845
30
0
41
1
10
46.9037151821418
20
-0.73452913358139
30
0
41
1
10
46.5975715344743
20
-0.56730071449681
30
0
41
1
10
46.3934702418195
20
-0.454990458014436
30
0
41
1
10
45.9847981612952
20
-0.229561805266741
30
0
41
1
10
45.7801936810817
20
-0.116507273686523
30
0
41
1
10
45.4728436509216
20
0.0535165830393112
30
0
41
1
10
45.3703609007523
20
0.110342391878163
30
0
41
1
10
45.1651574025297
20
0.223977542051529
30
0
41
1
10
45.0624386327086
20
0.280790339921452
30
0
41
1
10
44.7538439043928
20
0.451053237971564
30
0
41
1
10
44.5475223596307
20
0.564314416388754
30
0
41
1
10
44.2368264552649
20
0.733229464801298
30
0
41
1
10
44.1333237085896
20
0.789234135241287
30
0
41
1
10
43.926759379967
20
0.900445909490742
30
0
41
1
10
43.8236741453497
20
0.955737192444161
30
0
41
1
10
43.5149319619058
20
1.12052782829696
30
0
41
1
10
43.3096628227869
20
1.22871009859605
30
0
41
1
10
42.8997507717766
20
1.44092045400251
30
0
41
1
10
42.6950921624083
20
1.54492372715575
30
0
41
1
10
42.3883327971029
20
1.69745378789895
30
0
41
1
10
42.2861192514847
20
1.74772108591242
30
0
41
1
10
42.0818515823939
20
1.84723242438145
30
0
41
1
10
41.9797658909641
20
1.89642347911655
30
0
41
1
10
41.6734599440894
20
2.04199079083293
30
0
41
1
10
41.4692284709157
20
2.13642204396552
30
0
41
1
10
41.0602514721149
20
2.31935619386985
30
0
41
1
10
40.8554671976266
20
2.40780754773229
30
0
41
1
10
40.5478616090206
20
2.53595399602213
30
0
41
1
10
40.4452893024305
20
2.57796086329344
30
0
41
1
10
40.2398811834174
20
2.66027883947609
30
0
41
1
10
40.0342281935887
20
2.74092860109735
30
0
41
1
10
39.7764010319749
20
2.83734844096577
30
0
41
1
10
39.6212958023121
20
2.89312705561792
30
0
41
1
10
39.5177940318147
20
2.92984154700997
30
0
41
1
10
39.4659650733526
20
2.94797355573343
30
0
41
1
10
39.3105540249695
20
3.00157759939424
30
0
41
1
10
39.2071159874069
20
3.03623016157022
30
0
41
1
10
39.0005775125921
20
3.10339411463713
30
0
41
1
10
38.8975124980998
20
3.13594482133459
30
0
41
1
10
38.5887778291946
20
3.23034280757869
30
0
41
1
10
38.3834858591208
20
3.2888483008704
30
0
41
1
10
37.9734902131358
20
3.39670237250167
30
0
41
1
10
37.7687669287979
20
3.44603855914602
30
0
41
1
10
37.4618930393619
20
3.51308148560503
30
0
41
1
10
37.3596481769698
20
3.53427788484498
30
0
41
1
10
37.1553026773477
20
3.57439466853981
30
0
41
1
10
37.0531640027084
20
3.59328766958987
30
0
41
1
10
36.7466907651088
20
3.64637119661057
30
0
41
1
10
36.5423262605923
20
3.67698288110847
30
0
41
1
10
36.2353613196376
20
3.71557082993235
30
0
41
1
10
36.1329695302274
20
3.72721263365685
30
0
41
1
10
35.9280229489602
20
3.74804291771622
30
0
41
1
10
35.8254572195991
20
3.75722896554771
30
0
41
1
10
35.6202239838981
20
3.77314968000286
30
0
41
1
10
35.5175598285323
20
3.77988165640426
30
0
41
1
10
35.3119510935763
20
3.79082202089484
30
0
41
1
10
35.1060878747354
20
3.79924715394125
30
0
41
1
10
34.8995952314641
20
3.802593002252
30
0
41
1
10
34.7725792471964
20
3.80307574416133
30
0
41
1
10
34.7489866359792
20
3.80309885058659
30
0
41
1
10
34.7253839758761
20
3.80305533184762
30
0
0
SPLINE
5
119
100
AcDbEntity
8
1
62
256
6
ByLayer
370
18
48
1
60
0
100
AcDbSpline
70
4
71
3
72
47
73
43
40
0
40
0
40
0
40
0
40
0.0315852322314851
40
0.0315852322314851
40
0.0688319540687338
40
0.0688319540687338
40
0.106078675905982
40
0.106078675905982
40
0.180572119580483
40
0.180572119580483
40
0.255065563254982
40
0.255065563254982
40
0.329559006929483
40
0.329559006929483
40
0.366805728766732
40
0.366805728766732
40
0.385429089685356
40
0.385429089685356
40
0.40405245060398
40
0.44129917244123
40
0.44129917244123
40
0.478545894278478
40
0.478545894278478
40
0.553039337952979
40
0.553039337952979
40
0.59028605979023
40
0.59028605979023
40
0.627532781627481
40
0.627532781627481
40
0.664779503464731
40
0.664779503464731
40
0.702026225301983
40
0.702026225301983
40
0.776519668976487
40
0.776519668976487
40
0.81376639081374
40
0.81376639081374
40
0.851013112650992
40
0.851013112650992
40
0.925506556325495
40
0.925506556325495
40
1
40
1
40
1
40
1
41
1
10
18.0928383966581
20
-2.80564533705728
30
0
41
1
10
18.0058925160113
20
-2.83724761996049
30
0
41
1
10
17.9189790552196
20
-2.86816795474539
30
0
41
1
10
17.7296430976661
20
-2.93406908713183
30
0
41
1
10
17.6272797637262
20
-2.96883674006295
30
0
41
1
10
17.4225497542228
20
-3.03635962069123
30
0
41
1
10
17.3201848446606
20
-3.06911828014361
30
0
41
1
10
17.0130039120777
20
-3.1642941636363
30
0
41
1
10
16.8080934801891
20
-3.2236017031864
30
0
41
1
10
16.3976076742008
20
-3.33352444010319
30
0
41
1
10
16.1920289917689
20
-3.38415045332243
30
0
41
1
10
15.7803787171474
20
-3.47675389257481
30
0
41
1
10
15.5741090296544
20
-3.51855801346738
30
0
41
1
10
15.2636545569366
20
-3.57416308614825
30
0
41
1
10
15.1599957173667
20
-3.59151594038488
30
0
41
1
10
15.0042037815
20
-3.61573569186422
30
0
41
1
10
14.952227705334
20
-3.62350652881199
30
0
41
1
10
14.8484279800416
20
-3.63840753469128
30
0
41
1
10
14.6928621073176
20
-3.65981250567668
30
0
41
1
10
14.5376806117403
20
-3.67839453520696
30
0
41
1
10
14.3312009802338
20
-3.70070970980149
30
0
41
1
10
14.2281393503514
20
-3.71061907981962
30
0
41
1
10
13.9192891086412
20
-3.73656069618829
30
0
41
1
10
13.7138738019545
20
-3.74882052621626
30
0
41
1
10
13.4061229206033
20
-3.75971649540225
30
0
41
1
10
13.3035999862253
20
-3.76210045024018
30
0
41
1
10
13.0986547865955
20
-3.76438806895874
30
0
41
1
10
12.9962213533224
20
-3.76429262315582
30
0
41
1
10
12.7915143423603
20
-3.76162422141752
30
0
41
1
10
12.6892579899811
20
-3.75904681604732
30
0
41
1
10
12.4847476995328
20
-3.75141190782773
30
0
41
1
10
12.3825038549124
20
-3.746354738788
30
0
41
1
10
12.0756851610336
20
-3.72749201260558
30
0
41
1
10
11.8710100769054
20
-3.7100027788552
30
0
41
1
10
11.5636172104012
20
-3.67646947196883
30
0
41
1
10
11.4610991233402
20
-3.66407178493435
30
0
41
1
10
11.2559758064362
20
-3.63680927679755
30
0
41
1
10
11.1533629119147
20
-3.62194653090413
30
0
41
1
10
10.8452503961306
20
-3.57368932115733
30
0
41
1
10
10.6394575649915
20
-3.53662680753302
30
0
41
1
10
10.2263510021927
20
-3.45312001188432
30
0
41
1
10
10.0190825418591
20
-3.40665673047738
30
0
41
1
10
9.81094898372083
20
-3.35555713135975
30
0
0
SPLINE
5
11A
100
AcDbEntity
8
1
62
256
6
ByLayer
370
18
48
1
60
0
100
AcDbSpline
70
4
71
3
72
20
73
16
40
0
40
0
40
0
40
0
40
0.0130544850561405
40
0.0130544850561405
40
0.0261089703277066
40
0.0261089703277066
40
0.0783274169306152
40
0.0783274169306152
40
0.287229536943973
40
0.287229536943973
40
0.705189840332254
40
0.705189840332254
40
0.914088294908869
40
0.914088294908869
40
1
40
1
40
1
40
1
41
1
10
8.97587944620898
20
1.31767535174359
30
0
41
1
10
8.97591032372853
20
1.31769192680778
30
0
41
1
10
8.97594121399914
20
1.31770848100192
30
0
41
1
10
8.97600302205029
20
1.31774154413066
30
0
41
1
10
8.97603393987308
20
1.31775805304017
30
0
41
1
10
8.9761886029282
20
1.31784047680361
30
0
41
1
10
8.97631256937154
20
1.31790602786404
30
0
41
1
10
8.97693344541256
20
1.31823210161608
30
0
41
1
10
8.97743356693456
20
1.31848732539382
30
0
41
1
10
8.97894350885738
20
1.31923619299658
30
0
41
1
10
8.97996291306083
20
1.31971345367441
30
0
41
1
10
8.98150713018276
20
1.32039811203299
30
0
41
1
10
8.98202443782449
20
1.32062113637761
30
0
41
1
10
8.98275783278049
20
1.32092882053527
30
0
41
1
10
8.98297196973905
20
1.32101764533701
30
0
41
1
10
8.98318649407747
20
1.32110563537302
30
0
0
SPLINE
5
11B
100
AcDbEntity
8
1
62
256
6
ByLayer
370
18
48
1
60
0
100
AcDbSpline
70
4
71
3
72
14
73
10
40
0
40
0
40
0
40
0
40
0.16687990108158
40
0.16687990108158
40
0.500178644480472
40
0.500178644480472
40
0.833477387879759
40
0.833477387879759
40
1
40
1
40
1
40
1
41
1
10
9.08437496635162
20
1.32360989685617
30
0
41
1
10
9.08497747370268
20
1.32344646274805
30
0
41
1
10
9.08557996866313
20
1.32328298433001
30
0
41
1
10
9.08738575150659
20
1.32279286806008
30
0
41
1
10
9.08858900232607
20
1.32246609769109
30
0
41
1
10
9.09099540499159
20
1.32181220358643
30
0
41
1
10
9.09219855686831
20
1.32148507985892
30
0
41
1
10
9.09400275278057
20
1.32099425354195
30
0
41
1
10
9.09460383404905
20
1.32083068373629
30
0
41
1
10
9.09520490291382
20
1.32066706970653
30
0
0
SPLINE
5
11C
100
AcDbEntity
8
1
62
256
6
ByLayer
370
18
48
1
60
0
100
AcDbSpline
70
4
71
3
72
40
73
36
40
0
40
0
40
0
40
0
40
0.112764995928087
40
0.112764995928087
40
0.225529991856174
40
0.225529991856174
40
0.281912489820218
40
0.281912489820218
40
0.338294987784262
40
0.338294987784262
40
0.394677485748306
40
0.394677485748306
40
0.408773110239318
40
0.408773110239318
40
0.42286873473033
40
0.42286873473033
40
0.451059983712353
40
0.451059983712353
40
0.56382497964045
40
0.56382497964045
40
0.676589975568547
40
0.676589975568547
40
0.732972473532597
40
0.732972473532597
40
0.789354971496646
40
0.789354971496646
40
0.81754622047867
40
0.81754622047867
40
0.845737469460694
40
0.845737469460694
40
0.90211996742474
40
0.90211996742474
40
0.958502465388786
40
0.958502465388786
40
1
40
1
40
1
40
1
41
1
10
12.4701934732362
20
-0.0894611269477252
30
0
41
1
10
12.8750957055857
20
-0.309815752793497
30
0
41
1
10
13.2775633181588
20
-0.528339198700081
30
0
41
1
10
14.080257335337
20
-0.957061628785681
30
0
41
1
10
14.4804910626449
20
-1.16724184752985
30
0
41
1
10
15.0813040731895
20
-1.47246392215635
30
0
41
1
10
15.2816502072608
20
-1.57253434299506
30
0
41
1
10
15.682800177076
20
-1.7687904385169
30
0
41
1
10
15.8835758993551
20
-1.86502182859499
30
0
41
1
10
16.2860274959828
20
-2.05283012510458
30
0
41
1
10
16.4876864003891
20
-2.14443655346611
30
0
41
1
10
16.7404919815535
20
-2.25573633751338
30
0
41
1
10
16.791105883142
20
-2.27784209894486
30
0
41
1
10
16.8922140485925
20
-2.32163603202201
30
0
41
1
10
16.9427304387239
20
-2.3433340403175
30
0
41
1
10
17.0941756198582
20
-2.40782051727845
30
0
41
1
10
17.1949954679973
20
-2.45000904208965
30
0
41
1
10
17.6984551044844
20
-2.65685266462279
30
0
41
1
10
18.0994107003288
20
-2.80887513926103
30
0
41
1
10
18.900349000222
20
-3.08311907332109
30
0
41
1
10
19.3002552156029
20
-3.20541043531637
30
0
41
1
10
19.9015583331622
20
-3.36413362540347
30
0
41
1
10
20.1022130625308
20
-3.41294470257253
30
0
41
1
10
20.5043109542322
20
-3.50200470971964
30
0
41
1
10
20.705711899343
20
-3.54228283605303
30
0
41
1
10
21.0087077311984
20
-3.59596933317175
30
0
41
1
10
21.1099047530505
20
-3.6127505471421
30
0
41
1
10
21.3120095583698
20
-3.64393957699133
30
0
41
1
10
21.4129854577425
20
-3.65836160711436
30
0
41
1
10
21.7157432502427
20
-3.69809511724674
30
0
41
1
10
21.9173690099355
20
-3.71986977485614
30
0
41
1
10
22.3204659296744
20
-3.7539149791921
30
0
41
1
10
22.5219452473675
20
-3.76617811248306
30
0
41
1
10
22.8719969330995
20
-3.77911257869809
30
0
41
1
10
23.0204836791202
20
-3.78199290001746
30
0
41
1
10
23.169111084899
20
-3.78225413851789
30
0
0
SPLINE
5
11D
100
AcDbEntity
8
1
62
256
6
ByLayer
370
18
48
1
60
0
100
AcDbSpline
70
4
71
3
72
49
73
45
40
0
40
0
40
0
40
0
40
0.0312684975558464
40
0.0312684975558464
40
0.0581777059570728
40
0.0581777059570728
40
0.071632310157686
40
0.071632310157686
40
0.0850869143582992
40
0.138905331160755
40
0.138905331160755
40
0.19272374796321
40
0.19272374796321
40
0.246542164765666
40
0.246542164765666
40
0.273451373166894
40
0.273451373166894
40
0.300360581568122
40
0.300360581568122
40
0.354178998370574
40
0.354178998370574
40
0.46181583197548
40
0.46181583197548
40
0.488725040376706
40
0.488725040376706
40
0.515634248777932
40
0.515634248777932
40
0.569452665580382
40
0.569452665580382
40
0.623271082382832
40
0.623271082382832
40
0.677089499185281
40
0.677089499185281
40
0.703998707586506
40
0.703998707586506
40
0.730907915987731
40
0.730907915987731
40
0.784726332790184
40
0.784726332790184
40
0.892363166395092
40
0.892363166395092
40
0.946181583197546
40
0.946181583197546
40
1
40
1
40
1
40
1
41
1
10
39.8076454911595
20
2.82664797686104
30
0
41
1
10
39.9241287951822
20
2.86987876318011
30
0
41
1
10
40.0407751936131
20
2.91197844874978
30
0
41
1
10
40.2581660529259
20
2.98811578462499
30
0
41
1
10
40.3588543051789
20
3.02246563396895
30
0
41
1
10
40.5101527733382
20
3.07260777260396
30
0
41
1
10
40.5606264524176
20
3.08909108134998
30
0
41
1
10
40.6614902579549
20
3.12153397887505
30
0
41
1
10
40.9135521567983
20
3.20136756758163
30
0
41
1
10
41.1651872855067
20
3.27478784735203
30
0
41
1
10
41.5675751795216
20
3.38379324493991
30
0
41
1
10
41.7686641402162
20
3.43405500824741
30
0
41
1
10
42.1709170625555
20
3.5258489220183
30
0
41
1
10
42.3721262601573
20
3.56734547474906
30
0
41
1
10
42.6743364202469
20
3.6227786909169
30
0
41
1
10
42.775136591232
20
3.64012284936768
30
0
41
1
10
42.9769051492457
20
3.67251020426389
30
0
41
1
10
43.0777774526969
20
3.68753695525544
30
0
41
1
10
43.3800732409956
20
3.72904133532146
30
0
41
1
10
43.5812982189314
20
3.75197577377384
30
0
41
1
10
44.1846701990132
20
3.80640160260734
30
0
41
1
10
44.5865814523314
20
3.82351044539934
30
0
41
1
10
45.0901975723233
20
3.82058221158226
30
0
41
1
10
45.1909724362179
20
3.81877971932397
30
0
41
1
10
45.392694932858
20
3.81273081403697
30
0
41
1
10
45.4934833669216
20
3.80848968124485
30
0
41
1
10
45.7956364876234
20
3.79214721480073
30
0
41
1
10
45.9968193641016
20
3.77642744712506
30
0
41
1
10
46.3989891146831
20
3.73547038058618
30
0
41
1
10
46.5999919744908
20
3.71023972325668
30
0
41
1
10
47.00209553001
20
3.65036519332216
30
0
41
1
10
47.203228517039
20
3.6157334242439
30
0
41
1
10
47.5053621082358
20
3.55688737129839
30
0
41
1
10
47.606183170049
20
3.53611169584283
30
0
41
1
10
47.8078259350797
20
3.49231102996802
30
0
41
1
10
47.9084709465083
20
3.46932573554025
30
0
41
1
10
48.2099442964183
20
3.39719570821552
30
0
41
1
10
48.4103053128853
20
3.34487235431413
30
0
41
1
10
49.0100319444393
20
3.17579929268291
30
0
41
1
10
49.4081844646659
20
3.04708974617617
30
0
41
1
10
50.0048513991596
20
2.83246107342868
30
0
41
1
10
50.2036189676598
20
2.75728763343329
30
0
41
1
10
50.6013439404906
20
2.60021379742545
30
0
41
1
10
50.8003086308837
20
2.51832560352054
30
0
41
1
10
50.9995260199902
20
2.43327640118738
30
0
0
SPLINE
5
11E
100
AcDbEntity
8
1
62
256
6
ByLayer
370
18
48
1
60
0
100
AcDbSpline
70
4
71
3
72
58
73
54
40
0
40
0
40
0
40
0
40
0.0372967318351517
40
0.0372967318351517
40
0.0745934636703034
40
0.0745934636703034
40
0.0932418295878793
40
0.0932418295878793
40
0.111890195505455
40
0.111890195505455
40
0.149186927340607
40
0.167835293258182
40
0.167835293258182
40
0.186483659175757
40
0.186483659175757
40
0.223780391010906
40
0.223780391010906
40
0.298373854681204
40
0.298373854681204
40
0.335670586516353
40
0.335670586516353
40
0.372967318351503
40
0.372967318351503
40
0.447560782021803
40
0.447560782021803
40
0.484857513856952
40
0.484857513856952
40
0.522154245692102
40
0.522154245692102
40
0.596747709362402
40
0.596747709362402
40
0.634044441197552
40
0.634044441197552
40
0.652692807115128
40
0.652692807115128
40
0.671341173032703
40
0.671341173032703
40
0.745934636703002
40
0.745934636703002
40
0.783231368538151
40
0.783231368538151
40
0.801879734455725
40
0.801879734455725
40
0.820528100373299
40
0.895121564043603
40
0.895121564043603
40
0.932418295878755
40
0.932418295878755
40
0.951066661796332
40
0.951066661796332
40
0.969715027713908
40
0.969715027713908
40
1
40
1
40
1
40
1
41
1
10
50.9995260199901
20
2.4843733006866
30
0
41
1
10
51.1961723881365
20
2.40182682874001
30
0
41
1
10
51.3928770303041
20
2.31621455161226
30
0
41
1
10
51.7859308023353
20
2.13973672969331
30
0
41
1
10
51.9823613918367
20
2.04884044016683
30
0
41
1
10
52.2771335188523
20
1.9089247502867
30
0
41
1
10
52.375410858835
20
1.86168946849267
30
0
41
1
10
52.5720397141902
20
1.76607758776262
30
0
41
1
10
52.6704005887555
20
1.71769597556525
30
0
41
1
10
52.9652781793454
20
1.57110575923883
30
0
41
1
10
53.2599265005776
20
1.42153720272842
30
0
41
1
10
53.5545627095072
20
1.26804823820976
30
0
41
1
10
53.7510222644356
20
1.16491316195021
30
0
41
1
10
53.8492987163983
20
1.11292698623277
30
0
41
1
10
54.1440677000077
20
0.955987908277962
30
0
41
1
10
54.3402325506286
20
0.850198255313899
30
0
41
1
10
54.9282978094309
20
0.53044048003818
30
0
41
1
10
55.3198421498618
20
0.314216332920324
30
0
41
1
10
55.9082137469132
20
-0.0114356865677507
30
0
41
1
10
56.1045279015657
20
-0.120228198554088
30
0
41
1
10
56.4977264319087
20
-0.337663988429
30
0
41
1
10
56.6939816097477
20
-0.445956671613914
30
0
41
1
10
57.2822079633531
20
-0.76868372173368
30
0
41
1
10
57.6736176002629
20
-0.981007007988893
30
0
41
1
10
58.2615841217096
20
-1.29176095872035
30
0
41
1
10
58.4577181366957
20
-1.39405154409386
30
0
41
1
10
58.8506350261068
20
-1.59541238025318
30
0
41
1
10
59.0468314338009
20
-1.69417935796082
30
0
41
1
10
59.6347993082988
20
-1.98369877242135
30
0
41
1
10
60.0261610239772
20
-2.16768886947102
30
0
41
1
10
60.6141837883494
20
-2.42728509972417
30
0
41
1
10
60.810342416409
20
-2.51110350532431
30
0
41
1
10
61.1050320857248
20
-2.6324131655293
30
0
41
1
10
61.2032646077673
20
-2.67208214920836
30
0
41
1
10
61.3995030238078
20
-2.74972597466404
30
0
41
1
10
61.4975499266213
20
-2.78771774599031
30
0
41
1
10
61.9875262439749
20
-2.97340574743256
30
0
41
1
10
62.3786740307739
20
-3.10829078136928
30
0
41
1
10
62.9662311171382
20
-3.28775079217323
30
0
41
1
10
63.1622242001564
20
-3.34375932377938
30
0
41
1
10
63.4566919933453
20
-3.42176648461503
30
0
41
1
10
63.5548947439967
20
-3.44675798433846
30
0
41
1
10
63.7510624506477
20
-3.494593092635
30
0
41
1
10
64.2411487861471
20
-3.60887946173119
30
0
41
1
10
64.7301102935527
20
-3.69638586519801
30
0
41
1
10
65.3176008170256
20
-3.77466007254535
30
0
41
1
10
65.5135569576236
20
-3.79629211427869
30
0
41
1
10
65.8079350631587
20
-3.82190600025515
30
0
41
1
10
65.9061335733804
20
-3.82930302100414
30
0
41
1
10
66.102274149785
20
-3.84177368792436
30
0
41
1
10
66.2002723301588
20
-3.8468526334643
30
0
41
1
10
66.4572885189953
20
-3.85714633178199
30
0
41
1
10
66.6162285734531
20
-3.8604679114477
30
0
41
1
10
66.7751275843156
20
-3.86074492978031
30
0
0
SPLINE
5
11F
100
AcDbEntity
8
1
62
256
6
ByLayer
370
18
48
1
60
0
100
AcDbSpline
70
4
71
3
72
19
73
15
40
0
40
0
40
0
40
0
40
0.101426414620196
40
0.101426414620196
40
0.213748112792674
40
0.269908961878913
40
0.269908961878913
40
0.326069810965152
40
0.326069810965152
40
0.550713207310102
40
0.550713207310102
40
0.775356603655051
40
0.775356603655051
40
1
40
1
40
1
40
1
41
1
10
83.3137483270892
20
2.83273873827079
30
0
41
1
10
83.4902053133871
20
2.90086722014536
30
0
41
1
10
83.6665500553097
20
2.96622045091573
30
0
41
1
10
84.0382005615823
20
3.09780204891558
30
0
41
1
10
84.3311614716028
20
3.19615458787669
30
0
41
1
10
84.6245306312317
20
3.28601519776893
30
0
41
1
10
84.8202450438851
20
3.34398498969824
30
0
41
1
10
84.9182413812541
20
3.37202072852887
30
0
41
1
10
85.4077167288839
20
3.50697196259287
30
0
41
1
10
85.797151490816
20
3.59807242633303
30
0
41
1
10
86.5744619592811
20
3.74534454240086
30
0
41
1
10
86.96233924695
20
3.80152909973532
30
0
41
1
10
87.7389206835385
20
3.87795782180953
30
0
41
1
10
88.1276031792847
20
3.89819512916426
30
0
41
1
10
88.5180323146106
20
3.89984585937123
30
0
0
SPLINE
5
120
100
AcDbEntity
8
1
62
256
6
ByLayer
370
18
48
1
60
0
100
AcDbSpline
70
4
71
3
72
17
73
13
40
0
40
0
40
0
40
0
40
0.25
40
0.25
40
0.375
40
0.375
40
0.5
40
0.625
40
0.625
40
0.75
40
0.75
40
1
40
1
40
1
40
1
41
1
10
9.0952049123336
20
1.32066706714221
30
0
41
1
10
9.3895670830201
20
1.24054019797836
30
0
41
1
10
9.68045683548559
20
1.14992218821095
30
0
41
1
10
10.1121395015159
20
0.998795896427765
30
0
41
1
10
10.2553328740971
20
0.94586405192095
30
0
41
1
10
10.5398216884855
20
0.835323820889158
30
0
41
1
10
10.8224551608893
20
0.720098684616289
30
0
41
1
10
11.1017406076749
20
0.596104065983894
30
0
41
1
10
11.3795631447815
20
0.468098469466412
30
0
41
1
10
11.5177271019242
20
0.4020952045191
30
0
41
1
10
11.9295927423542
20
0.199143208914108
30
0
41
1
10
12.2009283894231
20
0.0571104938293274
30
0
41
1
10
12.4701934732362
20
-0.0894611269477537
30
0
0
SPLINE
5
121
100
AcDbEntity
8
1
62
256
6
ByLayer
370
18
48
1
60
0
100
AcDbSpline
70
4
71
3
72
14
73
10
40
0
40
0
40
0
40
0
40
0.25
40
0.25
40
0.5
40
0.5
40
0.75
40
0.75
40
1
40
1
40
1
40
1
41
1
10
8.98318649409308
20
1.32110563534053
30
0
41
1
10
8.99112173550165
20
1.32436038108753
30
0
41
1
10
8.99937887714779
20
1.32638576436364
30
0
41
1
10
9.01623145961409
20
1.32914676706636
30
0
41
1
10
9.02485407321208
20
1.32982669668254
30
0
41
1
10
9.04201428669424
20
1.33001569918065
30
0
41
1
10
9.05063214566678
20
1.3295253839826
30
0
41
1
10
9.06765228837764
20
1.32744926483207
30
0
41
1
10
9.07609934110462
20
1.3258547149992
30
0
41
1
10
9.08437496635261
20
1.32360989685989
30
0
0
SPLINE
5
122
100
AcDbEntity
8
1
62
256
6
ByLayer
370
18
48
1
60
0
100
AcDbSpline
70
4
71
5
72
12
73
6
40
0
40
0
40
0
40
0
40
0
40
0
40
1
40
1
40
1
40
1
40
1
40
1
41
1
10
16.3053007662223
20
-2.05713075078563
30
0
41
1
10
14.9854035460175
20
-2.33292997215537
30
0
41
1
10
13.6752420774869
20
-2.6038652588943
30
0
41
1
10
12.3756793294947
20
-2.86636075757323
30
0
41
1
10
11.0874529342376
20
-3.11748680449915
30
0
41
1
10
9.81094898372089
20
-3.35555713135975
30
0
0
SPLINE
5
123
100
AcDbEntity
8
1
62
256
6
ByLayer
370
18
48
1
60
0
100
AcDbSpline
70
4
71
3
72
76
73
72
40
0
40
0
40
0
40
0
40
0.0624999999999894
40
0.0624999999999894
40
0.124999999999979
40
0.124999999999979
40
0.187499999999968
40
0.187499999999968
40
0.249999999999958
40
0.249999999999958
40
0.281249999999953
40
0.281249999999953
40
0.312499999999949
40
0.312499999999949
40
0.343749999999945
40
0.343749999999945
40
0.374999999999941
40
0.374999999999941
40
0.39062499999994
40
0.39062499999994
40
0.406249999999939
40
0.406249999999939
40
0.437499999999938
40
0.437499999999938
40
0.468749999999937
40
0.468749999999937
40
0.476562499999938
40
0.476562499999938
40
0.484374999999939
40
0.484374999999939
40
0.49999999999994
40
0.49999999999994
40
0.531249999999944
40
0.531249999999944
40
0.539062499999945
40
0.539062499999945
40
0.546874999999946
40
0.546874999999946
40
0.562499999999949
40
0.562499999999949
40
0.593749999999953
40
0.593749999999953
40
0.609374999999955
40
0.609374999999955
40
0.617187499999956
40
0.617187499999956
40
0.624999999999957
40
0.624999999999957
40
0.656249999999963
40
0.656249999999963
40
0.671874999999966
40
0.671874999999966
40
0.687499999999969
40
0.687499999999969
40
0.718749999999974
40
0.718749999999974
40
0.749999999999978
40
0.749999999999978
40
0.765624999999981
40
0.765624999999981
40
0.781249999999983
40
0.781249999999983
40
0.812499999999986
40
0.812499999999986
40
0.87499999999999
40
0.87499999999999
40
0.937499999999994
40
0.937499999999994
40
0.968749999999997
40
0.968749999999997
40
1
40
1
40
1
40
1
41
1
10
9.8109489839662
20
-3.35555713142014
30
0
41
1
10
9.66894280310157
20
-3.32054962066581
30
0
41
1
10
9.52835361207428
20
-3.2826211464139
30
0
41
1
10
9.2503618918953
20
-3.20005261796231
30
0
41
1
10
9.11295723119375
20
-3.15541737316192
30
0
41
1
10
8.84182363801656
20
-3.05825750399686
30
0
41
1
10
8.70809069744075
20
-3.00574190424081
30
0
41
1
10
8.44501581565382
20
-2.89113291086036
30
0
41
1
10
8.3156654869353
20
-2.8290583580102
30
0
41
1
10
8.12576937856048
20
-2.72682150533612
30
0
41
1
10
8.06316269024222
20
-2.69121319339371
30
0
41
1
10
7.93954168945692
20
-2.6164590594006
30
0
41
1
10
7.87884486261473
20
-2.57750273575479
30
0
41
1
10
7.76011987831669
20
-2.49608598865004
30
0
41
1
10
7.70206867456903
20
-2.45361417097277
30
0
41
1
10
7.58899742264245
20
-2.364583578918
30
0
41
1
10
7.53397516975721
20
-2.3180277592507
30
0
41
1
10
7.45413171977543
20
-2.24456078206902
30
0
41
1
10
7.42795731523574
20
-2.21945036411307
30
0
41
1
10
7.37692933675817
20
-2.16824079384042
30
0
41
1
10
7.35203372729254
20
-2.14210452025654
30
0
41
1
10
7.2793417003067
20
-2.06198070184809
30
0
41
1
10
7.2335296354027
20
-2.00628699461785
30
0
41
1
10
7.14815733622956
20
-1.88952480868724
30
0
41
1
10
7.10859003643145
20
-1.82846228682985
30
0
41
1
10
7.06388808192432
20
-1.74804829899452
30
0
41
1
10
7.0551869074402
20
-1.73176006285357
30
0
41
1
10
7.03829060176486
20
-1.69874917391837
30
0
41
1
10
7.03008314540239
20
-1.6819983553786
30
0
41
1
10
7.00642238978637
20
-1.631400434017
30
0
41
1
10
6.99188993412952
20
-1.59713930383373
30
0
41
1
10
6.9522289522377
20
-1.49268016663228
30
0
41
1
10
6.93102164322346
20
-1.42081253560488
30
0
41
1
10
6.91195478346319
20
-1.32782077256155
30
0
41
1
10
6.90851470844899
20
-1.30906408119134
30
0
41
1
10
6.90240885402375
20
-1.27122262862298
30
0
41
1
10
6.89973950936121
20
-1.252106670823
30
0
41
1
10
6.89296230088348
20
-1.19445833433878
30
0
41
1
10
6.89011579543364
20
-1.15593646223206
30
0
41
1
10
6.88653385708727
20
-1.0401084422499
30
0
41
1
10
6.89074976257047
20
-0.962540108490145
30
0
41
1
10
6.90686843634239
20
-0.8456849410492
30
0
41
1
10
6.9138753866616
20
-0.806649383933006
30
0
41
1
10
6.92683689598437
20
-0.747972554039251
30
0
41
1
10
6.9315627406057
20
-0.728417299320796
30
0
41
1
10
6.941727111631
20
-0.689621856483512
30
0
41
1
10
6.94717493010614
20
-0.670337948368086
30
0
41
1
10
6.97617298795598
20
-0.574466456872727
30
0
41
1
10
7.00498132111957
20
-0.499517240069906
30
0
41
1
10
7.05552910320455
20
-0.389388422691326
30
0
41
1
10
7.07361099764256
20
-0.353050667849544
30
0
41
1
10
7.11205977586656
20
-0.281147479958037
30
0
41
1
10
7.13224547608547
20
-0.24591629328512
30
0
41
1
10
7.19538343616668
20
-0.142156895588812
30
0
41
1
10
7.24090365196577
20
-0.0755531793705586
30
0
41
1
10
7.33759642100171
20
0.0534179430304391
30
0
41
1
10
7.38877478479205
20
0.115780995829738
30
0
41
1
10
7.46915295368623
20
0.206619287714375
30
0
41
1
10
7.49654966179588
20
0.236446011234818
30
0
41
1
10
7.55246698938052
20
0.29525701663556
30
0
41
1
10
7.58100104899501
20
0.324250534006751
30
0
41
1
10
7.66754422498431
20
0.409446509247317
30
0
41
1
10
7.72669725708232
20
0.464095996505819
30
0
41
1
10
7.90782282687434
20
0.622658024953836
30
0
41
1
10
8.03342666783618
20
0.721236728587343
30
0
41
1
10
8.29193058296082
20
0.907744899197354
30
0
41
1
10
8.4248529194667
20
0.995641065414475
30
0
41
1
10
8.62864331204784
20
1.12109472784042
30
0
41
1
10
8.6973642851284
20
1.1618683592344
30
0
41
1
10
8.83586710672242
20
1.24130775823195
30
0
41
1
10
8.90563751266237
20
1.27996946219668
30
0
41
1
10
8.97587944660143
20
1.31767535195391
30
0
0
SPLINE
5
124
100
AcDbEntity
8
SK1
62
256
6
ByLayer
370
18
48
1
60
0
100
AcDbSpline
70
4
71
3
72
20
73
16
40
0
40
0
40
0
40
0
40
0.250000000000001
40
0.250000000000001
40
0.375
40
0.375
40
0.5
40
0.5
40
0.625
40
0.625
40
0.75
40
0.75
40
0.875
40
0.875
40
1
40
1
40
1
40
1
41
1
10
-35.5
20
3.19679462762895
30
0
41
1
10
-35.4882268337925
20
3.20888493170349
30
0
41
1
10
-35.4768284599212
20
3.22099414255828
30
0
41
1
10
-35.460270247116
20
3.23916747257289
30
0
41
1
10
-35.4548935855135
20
3.24517220714597
30
0
41
1
10
-35.4446281675297
20
3.2568472569632
30
0
41
1
10
-35.4397086452965
20
3.26255106099075
30
0
41
1
10
-35.4303421282015
20
3.27365423044395
30
0
41
1
10
-35.42587821818
20
3.27907381957593
30
0
41
1
10
-35.4176059015987
20
3.28944266507645
30
0
41
1
10
-35.4138878355358
20
3.2942772173285
30
0
41
1
10
-35.4074804765349
20
3.30307651013666
30
0
41
1
10
-35.4047944703442
20
3.30704561863189
30
0
41
1
10
-35.4010706900342
20
3.31339957972861
30
0
41
1
10
-35.4
20
3.31585379184827
30
0
41
1
10
-35.4
20
3.31720370796566
30
0
0
SPLINE
5
125
100
AcDbEntity
8
SK1
62
256
6
ByLayer
370
18
48
1
60
0
100
AcDbSpline
70
4
71
3
72
8
73
4
40
0
40
0
40
0
40
0
40
1
40
1
40
1
40
1
41
1
10
-36
20
2.68069881286621
30
0
41
1
10
-35.8338611456488
20
2.85322860611674
30
0
41
1
10
-35.6671111508157
20
3.02518194570476
30
0
41
1
10
-35.5
20
3.19679462762892
30
0
0
SPLINE
5
126
100
AcDbEntity
8
SK1
62
256
6
ByLayer
370
18
48
1
60
0
100
AcDbSpline
70
4
71
3
72
8
73
4
40
0
40
0
40
0
40
0
40
1
40
1
40
1
40
1
41
1
10
-35.5
20
-3.14444898855891
30
0
41
1
10
-35.6671096009441
20
-2.97283789825573
30
0
41
1
10
-35.8338593158913
20
-2.80088486719038
30
0
41
1
10
-36
20
-2.6283531737962
30
0
0
SPLINE
5
127
100
AcDbEntity
8
SK1
62
256
6
ByLayer
370
18
48
1
60
0
100
AcDbSpline
70
4
71
3
72
22
73
18
40
0
40
0
40
0
40
0
40
0.0624999999999999
40
0.0624999999999999
40
0.125
40
0.125
40
0.1875
40
0.1875
40
0.25
40
0.25
40
0.374999999999998
40
0.374999999999998
40
0.499999999999997
40
0.499999999999997
40
0.749999999999998
40
0.749999999999998
40
1
40
1
40
1
40
1
41
1
10
-35.4
20
-3.27183748743832
30
0
41
1
10
-35.4
20
-3.27087074154008
30
0
41
1
10
-35.4002593707883
20
-3.26964792559278
30
0
41
1
10
-35.4012586278463
20
-3.26672712316781
30
0
41
1
10
-35.4019982945466
20
-3.26503672404462
30
0
41
1
10
-35.4038578007551
20
-3.26133837105664
30
0
41
1
10
-35.4049815088952
20
-3.25931913542573
30
0
41
1
10
-35.4075716555566
20
-3.25498050076567
30
0
41
1
10
-35.4090489651597
20
-3.25264532320844
30
0
41
1
10
-35.4138573621912
20
-3.24537142889116
30
0
41
1
10
-35.4175572428453
20
-3.24016350425887
30
0
41
1
10
-35.4257321758531
20
-3.22919167543219
30
0
41
1
10
-35.4302443888244
20
-3.2233854505111
30
0
41
1
10
-35.4443844515144
20
-3.20577483364858
30
0
41
1
10
-35.4547261901556
20
-3.19360936596868
30
0
41
1
10
-35.4768266423379
20
-3.16879071745112
30
0
41
1
10
-35.4882299237007
20
-3.15653611949134
30
0
41
1
10
-35.5
20
-3.14444898855891
30
0
0
SPLINE
5
128
100
AcDbEntity
8
SK1
62
256
6
ByLayer
370
18
48
1
60
0
100
AcDbSpline
70
4
71
3
72
20
73
16
40
0
40
0
40
0
40
0
40
0.249999999999999
40
0.249999999999999
40
0.374999999999999
40
0.374999999999999
40
0.499999999999999
40
0.499999999999999
40
0.625
40
0.625
40
0.75
40
0.75
40
0.875
40
0.875
40
1
40
1
40
1
40
1
41
1
10
-35.5
20
-3.19679462762895
30
0
41
1
10
-35.4882268337925
20
-3.20888493170349
30
0
41
1
10
-35.4768284599212
20
-3.22099414255828
30
0
41
1
10
-35.460270247116
20
-3.23916747257289
30
0
41
1
10
-35.4548935855135
20
-3.24517220714597
30
0
41
1
10
-35.4446281675297
20
-3.2568472569632
30
0
41
1
10
-35.4397086452965
20
-3.26255106099075
30
0
41
1
10
-35.4303421282015
20
-3.27365423044395
30
0
41
1
10
-35.42587821818
20
-3.27907381957593
30
0
41
1
10
-35.4176059015987
20
-3.28944266507645
30
0
41
1
10
-35.4138878355358
20
-3.2942772173285
30
0
41
1
10
-35.4074804765349
20
-3.30307651013666
30
0
41
1
10
-35.4047944703442
20
-3.30704561863189
30
0
41
1
10
-35.4010706900342
20
-3.31339957972861
30
0
41
1
10
-35.4
20
-3.31585379184827
30
0
41
1
10
-35.4
20
-3.31720370796566
30
0
0
SPLINE
5
129
100
AcDbEntity
8
1
62
256
6
ByLayer
370
18
48
1
60
0
100
AcDbSpline
70
4
71
3
72
10
73
6
40
0
40
0
40
0
40
0
40
0.300864544065448
40
0.695450438823177
40
1
40
1
40
1
40
1
41
1
10
85.5692141445223
20
3.46115451165122
30
0
41
1
10
85.8617715223268
20
3.52866910511295
30
0
41
1
10
86.5381611331217
20
3.6594781078166
30
0
41
1
10
87.5113715518527
20
3.76948169770034
30
0
41
1
10
88.1919230296577
20
3.78016491157192
30
0
41
1
10
88.4884246533173
20
3.77302857336417
30
0
0
SPLINE
5
12A
100
AcDbEntity
8
1
62
256
6
ByLayer
370
18
48
1
60
0
100
AcDbSpline
70
4
71
1
72
4
73
2
40
0
40
0
40
1
40
1
41
1
10
88.4884246533173
20
3.77302857336417
30
0
41
1
10
88.5956490308952
20
3.77480532631378
30
0
0
SPLINE
5
12B
100
AcDbEntity
8
1
62
256
6
ByLayer
370
18
48
1
60
0
100
AcDbSpline
70
4
71
3
72
12
73
8
40
0
40
0
40
0
40
0
40
0.0697447952572413
40
0.340954558831202
40
0.589020408548882
40
0.813939653640104
40
1
40
1
40
1
40
1
41
1
10
88.688659320712
20
0.804932235412196
30
0
41
1
10
88.5765071400464
20
0.840351315680579
30
0
41
1
10
88.0289816799904
20
1.01586132349689
30
0
41
1
10
87.0917224846
20
1.34765986288809
30
0
41
1
10
85.9138963992924
20
1.78427272146882
30
0
41
1
10
84.8785875574
20
2.19217381803327
30
0
41
1
10
84.2374117849371
20
2.45684482570599
30
0
41
1
10
83.9480288958908
20
2.57886726347633
30
0
0
SPLINE
5
12C
100
AcDbEntity
8
1
62
256
6
ByLayer
370
18
48
1
60
0
100
AcDbSpline
70
4
71
3
72
16
73
12
40
0
40
0
40
0
40
0
40
0.160885012136491
40
0.297430460127859
40
0.409637885996902
40
0.497511589651948
40
0.562777364539159
40
0.649341072032306
40
0.757830004666318
40
0.888232562528285
40
1
40
1
40
1
40
1
41
1
10
47.5258470228593
20
0.0883961470467796
30
0
41
1
10
47.1500533746848
20
0.194283272688978
30
0
41
1
10
46.4574530923846
20
0.397089956701478
30
0
41
1
10
45.5088757997843
20
0.694578488625467
30
0
41
1
10
44.7332902869532
20
0.951058868308081
30
0
41
1
10
44.1245919635966
20
1.16065761579421
30
0
41
1
10
43.5765944312644
20
1.35503887850334
30
0
41
1
10
42.9831156466696
20
1.57159893248925
30
0
41
1
10
42.2442309204592
20
1.85104916709673
30
0
41
1
10
41.4518911399538
20
2.16248378674661
30
0
41
1
10
40.9083287257939
20
2.38668889566444
30
0
41
1
10
40.6581615347072
20
2.49196818720708
30
0
0
SPLINE
5
12D
100
AcDbEntity
8
1
62
256
6
ByLayer
370
18
48
1
60
0
100
AcDbSpline
70
4
71
3
72
20
73
16
40
0
40
0
40
0
40
0
40
0.133669077829659
40
0.2380351356317
40
0.313107062367796
40
0.35019203035923
40
0.378386482908511
40
0.409796732144898
40
0.444579927963756
40
0.496203880009944
40
0.560000029233432
40
0.644881163020523
40
0.750912991370657
40
0.878085905362171
40
1
40
1
40
1
40
1
41
1
10
69.2863267341058
20
0.0842163200604489
30
0
41
1
10
68.9691958606313
20
0.173424448122518
30
0
41
1
10
68.4059334825772
20
0.337208181794011
30
0
41
1
10
67.6684289570584
20
0.564243398799988
30
0
41
1
10
67.160299313729
20
0.727181656144637
30
0
41
1
10
66.8317075143258
20
0.835174468907383
30
0
41
1
10
66.605635269677
20
0.910515394624099
30
0
41
1
10
66.3851799929823
20
0.984903159572781
30
0
41
1
10
66.110352233956
20
1.07890205304227
30
0
41
1
10
65.7605723155551
20
1.20062320499761
30
0
41
1
10
65.2951880717516
20
1.36625381838795
30
0
41
1
10
64.7051668162843
20
1.58217261618452
30
0
41
1
10
63.9713369772244
20
1.86024319038987
30
0
41
1
10
63.1559947031211
20
2.1813344958106
30
0
41
1
10
62.5877310201685
20
2.41569349854015
30
0
41
1
10
62.3104119600612
20
2.53249429843325
30
0
0
SPLINE
5
12E
100
AcDbEntity
8
1
62
256
6
ByLayer
370
18
48
1
60
0
100
AcDbSpline
70
4
71
3
72
17
73
13
40
0
40
0
40
0
40
0
40
0.100861267794791
40
0.186887457411986
40
0.258079350116022
40
0.315793613674044
40
0.385503249104803
40
0.476854237652713
40
0.589840430399822
40
0.724451942048615
40
0.88067382217074
40
1
40
1
40
1
40
1
41
1
10
25.918729982245
20
0.0484061012643622
30
0
41
1
10
25.682136525985
20
0.114432685607426
30
0
41
1
10
25.2445325462016
20
0.239624348160589
30
0
41
1
10
24.642199017494
20
0.419855720799859
30
0
41
1
10
24.1420275917209
20
0.574976508774682
30
0
41
1
10
23.6810162112109
20
0.722060729273579
30
0
41
1
10
23.1745130682871
20
0.888096389149325
30
0
41
1
10
22.5420673289656
20
1.10240397662054
30
0
41
1
10
21.7630453953006
20
1.37712255893368
30
0
41
1
10
20.8398207145458
20
1.71844543359046
30
0
41
1
10
19.9073744689453
20
2.07972549367435
30
0
41
1
10
19.285944690704
20
2.3350435248087
30
0
41
1
10
19.0176597495724
20
2.44774843382339
30
0
0
SPLINE
5
12F
100
AcDbEntity
8
1
62
256
6
ByLayer
370
18
48
1
60
0
100
AcDbSpline
70
4
71
3
72
11
73
7
40
0
40
0
40
0
40
0
40
0.090125269417475
40
0.484754069260396
40
0.919622028498644
40
1
40
1
40
1
40
1
41
1
10
83.3540614357502
20
2.81116069417595
30
0
41
1
10
83.4205344024518
20
2.83569961900727
30
0
41
1
10
83.7781113353613
20
2.96519777050381
30
0
41
1
10
84.4569068202473
20
3.18415635853515
30
0
41
1
10
85.1288682349502
20
3.3769391992916
30
0
41
1
10
85.5097848023137
20
3.45027974874637
30
0
41
1
10
85.5692141445223
20
3.46115451165122
30
0
0
SPLINE
5
130
100
AcDbEntity
8
1
62
256
6
ByLayer
370
18
48
1
60
0
100
AcDbSpline
70
4
71
2
72
6
73
3
40
0
40
0
40
0
40
1
40
1
40
1
41
1
10
78.4104237100569
20
-0.0010533234282377
30
0
41
1
10
78.4104002385794
20
-0.0010420055187979
30
0
41
1
10
78.4103767673378
20
-0.0010301742481431
30
0
0
SPLINE
5
131
100
AcDbEntity
8
1
62
256
6
ByLayer
370
18
48
1
60
0
100
AcDbSpline
70
4
71
3
72
20
73
16
40
0
40
0
40
0
40
0
40
0.0858129121975509
40
0.141505574344413
40
0.177189724670307
40
0.21286550875151
40
0.321761634672887
40
0.420360305020818
40
0.509591243692676
40
0.605510208923576
40
0.76487832894597
40
0.924438728508132
40
0.960262359019459
40
0.9960862841926
40
1
40
1
40
1
40
1
41
1
10
67.5370549680279
20
-3.71391086875715
30
0
41
1
10
67.7554416631068
20
-3.714222153126
30
0
41
1
10
68.1155611367852
20
-3.71480314097604
30
0
41
1
10
68.5664867764219
20
-3.71593233226497
30
0
41
1
10
68.8898265078705
20
-3.71649854510446
30
0
41
1
10
69.3485633616448
20
-3.71711415601993
30
0
41
1
10
69.9674153739339
20
-3.71725244809036
30
0
41
1
10
70.7225529401468
20
-3.72047599247114
30
0
41
1
10
71.444672168658
20
-3.72070910832761
30
0
41
1
10
72.3214447306192
20
-3.72065987567825
30
0
41
1
10
73.3771935047874
20
-3.72441805010146
30
0
41
1
10
74.2800105765201
20
-3.72603844603822
30
0
41
1
10
74.8684170696671
20
-3.72561156290939
30
0
41
1
10
75.0607147482189
20
-3.72555664557569
30
0
41
1
10
75.1618439815608
20
-3.7255713980046
30
0
41
1
10
75.1718040864239
20
-3.72557330225723
30
0
0
SPLINE
5
132
100
AcDbEntity
8
1
62
256
6
ByLayer
370
18
48
1
60
0
100
AcDbSpline
70
4
71
3
72
19
73
15
40
0
40
0
40
0
40
0
40
0.136597394280008
40
0.232865409784916
40
0.292899564369044
40
0.347513445417222
40
0.402591550054454
40
0.458029800118294
40
0.513706290338257
40
0.590530112291932
40
0.659598263693546
40
0.736049261006971
40
0.856672925123899
40
1
40
1
40
1
40
1
41
1
10
55.3477806207154
20
3.69275261166456
30
0
41
1
10
55.1543673420409
20
3.69229256053441
30
0
41
1
10
54.8246430420042
20
3.69161003504212
30
0
41
1
10
54.4099091569324
20
3.69121288097367
30
0
41
1
10
54.1112603295245
20
3.69074806083867
30
0
41
1
10
53.8709345315679
20
3.69042114945176
30
0
41
1
10
53.6371164464115
20
3.69007684354139
30
0
41
1
10
53.4017939296808
20
3.6895942180715
30
0
41
1
10
53.1356809857178
20
3.68880875285086
30
0
41
1
10
52.8502684586123
20
3.68800486610621
30
0
41
1
10
52.5354391298428
20
3.68767748828702
30
0
41
1
10
52.1585906865254
20
3.68749260003904
30
0
41
1
10
51.6765957710708
20
3.68682602852726
30
0
41
1
10
51.3028537314002
20
3.68546224418273
30
0
41
1
10
51.0999096418587
20
3.68450899653823
30
0
0
SPLINE
5
133
100
AcDbEntity
8
1
62
256
6
ByLayer
370
18
48
1
60
0
100
AcDbSpline
70
4
71
3
72
21
73
17
40
0
40
0
40
0
40
0
40
0.0739594125193995
40
0.126660005528623
40
0.159724213706477
40
0.189110531037708
40
0.218904915403954
40
0.249058011201295
40
0.394108073316363
40
0.525678919456039
40
0.657481486324575
40
0.754746714732674
40
0.840303295986759
40
0.937183534821642
40
0.97289758498602
40
1
40
1
40
1
40
1
41
1
10
77.1008378427244
20
3.73036039715532
30
0
41
1
10
76.9120395785128
20
3.73081555844129
30
0
41
1
10
76.5887123337183
20
3.73078151883487
30
0
41
1
10
76.1809791869102
20
3.72921570313014
30
0
41
1
10
75.8870365902554
20
3.72695460871216
30
0
41
1
10
75.6515600708147
20
3.72611678563217
30
0
41
1
10
75.4235142393364
20
3.72568605397768
30
0
41
1
10
74.9002079477798
20
3.72536689237751
30
0
41
1
10
74.1170911108953
20
3.7267000356577
30
0
41
1
10
73.0744951489489
20
3.72333267706782
30
0
41
1
10
72.1538811167802
20
3.72049902253235
30
0
41
1
10
71.3507249177429
20
3.72078051812613
30
0
41
1
10
70.6367164893178
20
3.72019347603728
30
0
41
1
10
70.0798379419597
20
3.71780930082954
30
0
41
1
10
69.6721731488983
20
3.71736962290694
30
0
41
1
10
69.5118188237849
20
3.71720518606495
30
0
41
1
10
69.4426333522322
20
3.71713433773826
30
0
0
SPLINE
5
134
100
AcDbEntity
8
1
62
256
6
ByLayer
370
18
48
1
60
0
100
AcDbSpline
70
4
71
3
72
15
73
11
40
0
40
0
40
0
40
0
40
0.204749937129934
40
0.387809059795315
40
0.509714399967507
40
0.616913880423634
40
0.730300519318409
40
0.846539297518822
40
0.962770422227705
40
1
40
1
40
1
40
1
41
1
10
51.0999059948899
20
-3.68453067332206
30
0
41
1
10
51.2631060853132
20
-3.68530615464806
30
0
41
1
10
51.5722178195115
20
-3.68649462966019
30
0
41
1
10
51.9784986943675
20
-3.68726525347887
30
0
41
1
10
52.3070252922362
20
-3.68757066507351
30
0
41
1
10
52.5800175181187
20
-3.68771385104108
30
0
41
1
10
52.8484930783752
20
-3.6880222945907
30
0
41
1
10
53.1241667108102
20
-3.68876776987128
30
0
41
1
10
53.3391372218028
20
-3.68941794749733
30
0
41
1
10
53.4614569955084
20
-3.68970307691708
30
0
41
1
10
53.4911317930478
20
-3.68976789187076
30
0
0
LINE
5
82
100
AcDbEntity
8
81
62
256
6
ByLayer
370
18
48
1
60
0
100
AcDbLine
10
90
20
0
30
0
11
93
21
0
31
0
39
0
210
0
220
0
230
1
0
LINE
5
83
100
AcDbEntity
8
80
62
256
6
ByLayer
370
18
48
1
60
0
100
AcDbLine
10
0
20
0
30
0
11
-3
21
0
31
0
39
0
210
0
220
0
230
1
0
LINE
5
84
100
AcDbEntity
8
SK4
62
256
6
ByLayer
370
18
48
0.05
60
0
100
AcDbLine
10
-39
20
0
30
0
11
93
21
0
31
0
39
0
210
0
220
0
230
1
0
LINE
5
86
100
AcDbEntity
8
4
62
256
6
ByLayer
370
18
48
0.05
60
0
100
AcDbLine
10
0
20
0
30
0
11
90
21
0
31
0
39
0
210
0
220
0
230
1
0
LINE
5
88
100
AcDbEntity
8
1
62
256
6
ByLayer
370
18
48
1
60
0
100
AcDbLine
10
0
20
4
30
0
11
0
21
-4
31
0
39
0
210
0
220
0
230
1
0
LINE
5
89
100
AcDbEntity
8
1
62
256
6
ByLayer
370
13
48
1
60
0
100
AcDbLine
10
89.899418
20
0.416711
30
0
11
89.070371
21
1.248893
31
0
39
0
210
0
220
0
230
1
0
LINE
5
8A
100
AcDbEntity
8
1
62
256
6
ByLayer
370
13
48
1
60
0
100
AcDbLine
10
0.18712
20
-3.870612
30
0
11
0.18712
21
3.870612
31
0
39
0
210
0
220
0
230
1
0
LINE
5
8B
100
AcDbEntity
8
1
62
256
6
ByLayer
370
18
48
1
60
0
100
AcDbLine
10
50.999526
20
-3.196835
30
0
11
50.999526
21
-3.832349
31
0
39
0
210
0
220
0
230
1
0
LINE
5
8C
100
AcDbEntity
8
1
62
256
6
ByLayer
370
18
48
1
60
0
100
AcDbLine
10
50.999526
20
2.484373
30
0
11
50.999526
21
2.433276
31
0
39
0
210
0
220
0
230
1
0
LINE
5
8D
100
AcDbEntity
8
1
62
256
6
ByLayer
370
13
48
1
60
0
100
AcDbLine
10
0.3746
20
-3.741224
30
0
11
0.3746
21
3.741224
31
0
39
0
210
0
220
0
230
1
0
LINE
5
8E
100
AcDbEntity
8
SK1
62
256
6
ByLayer
370
18
48
1
60
0
100
AcDbLine
10
-36
20
-2.628272
30
0
11
-36
21
-2.680699
31
0
39
0
210
0
220
0
230
1
0
LINE
5
90
100
AcDbEntity
8
SK1
62
256
6
ByLayer
370
13
48
1
60
0
100
AcDbLine
10
-35.5
20
-3.196795
30
0
11
-35.5
21
-3.14438
31
0
39
0
210
0
220
0
230
1
0
LINE
5
91
100
AcDbEntity
8
SK1
62
256
6
ByLayer
370
18
48
1
60
0
100
AcDbLine
10
-35.4
20
3.36
30
0
11
-35.4
21
3.317204
31
0
39
0
210
0
220
0
230
1
0
LINE
5
92
100
AcDbEntity
8
SK1
62
256
6
ByLayer
370
18
48
1
60
0
100
AcDbLine
10
-36
20
2.680699
30
0
11
-36
21
-2.628353
31
0
39
0
210
0
220
0
230
1
0
LINE
5
93
100
AcDbEntity
8
SK1
62
256
6
ByLayer
370
18
48
1
60
0
100
AcDbLine
10
-35.4
20
-3.36
30
0
11
-35.4
21
-3.271837
31
0
39
0
210
0
220
0
230
1
0
LINE
5
94
100
AcDbEntity
8
SK1
62
256
6
ByLayer
370
18
48
1
60
0
100
AcDbLine
10
-34.76
20
-4
30
0
11
-34.76
21
4
31
0
39
0
210
0
220
0
230
1
0
LINE
5
95
100
AcDbEntity
8
SK1
62
256
6
ByLayer
370
18
48
1
60
0
100
AcDbLine
10
0
20
4
30
0
11
0
21
-4
31
0
39
0
210
0
220
0
230
1
0
LINE
5
96
100
AcDbEntity
8
1
62
256
6
ByLayer
370
18
48
1
60
0
100
AcDbLine
10
69.183712
20
0.113329
30
0
11
69.183694
21
0.113334
31
0
39
0
210
0
220
0
230
1
0
LINE
5
97
100
AcDbEntity
8
1
62
256
6
ByLayer
370
18
48
1
60
0
100
AcDbLine
10
0.3746
20
-3.741224
30
0
11
13.036657
21
-3.764016
31
0
39
0
210
0
220
0
230
1
0
LINE
5
98
100
AcDbEntity
8
1
62
256
6
ByLayer
370
18
48
1
60
0
100
AcDbLine
10
23.16879
20
-3.782253
30
0
11
34.725396
21
-3.803055
31
0
39
0
210
0
220
0
230
1
0
LINE
5
99
100
AcDbEntity
8
1
62
256
6
ByLayer
370
18
48
1
60
0
100
AcDbLine
10
44.894117
20
-3.821359
30
0
11
50.999526
21
-3.832349
31
0
39
0
210
0
220
0
230
1
0
LINE
5
9A
100
AcDbEntity
8
1
62
256
6
ByLayer
370
18
48
1
60
0
100
AcDbLine
10
55.348937
20
-3.840178
30
0
11
56.41449
21
-3.842096
31
0
39
0
210
0
220
0
230
1
0
LINE
5
9B
100
AcDbEntity
8
1
62
256
6
ByLayer
370
18
48
1
60
0
100
AcDbLine
10
66.774611
20
-3.860744
30
0
11
67.533308
21
-3.86211
31
0
39
0
210
0
220
0
230
1
0
LINE
5
9C
100
AcDbEntity
8
1
62
256
6
ByLayer
370
18
48
1
60
0
100
AcDbLine
10
77.102498
20
-3.879334
30
0
11
78.10256
21
-3.881134
31
0
39
0
210
0
220
0
230
1
0
LINE
5
9D
100
AcDbEntity
8
1
62
256
6
ByLayer
370
18
48
1
60
0
100
AcDbLine
10
78.10256
20
3.881134
30
0
11
77.102498
21
3.879334
31
0
39
0
210
0
220
0
230
1
0
LINE
5
9E
100
AcDbEntity
8
1
62
256
6
ByLayer
370
18
48
1
60
0
100
AcDbLine
10
67.533308
20
3.86211
30
0
11
66.774611
21
3.860744
31
0
39
0
210
0
220
0
230
1
0
LINE
5
9F
100
AcDbEntity
8
1
62
256
6
ByLayer
370
18
48
1
60
0
100
AcDbLine
10
56.41449
20
3.842096
30
0
11
55.348937
21
3.840178
31
0
39
0
210
0
220
0
230
1
0
LINE
5
A0
100
AcDbEntity
8
1
62
256
6
ByLayer
370
18
48
1
60
0
100
AcDbLine
10
50.999526
20
3.832349
30
0
11
44.894117
21
3.821359
31
0
39
0
210
0
220
0
230
1
0
LINE
5
A1
100
AcDbEntity
8
1
62
256
6
ByLayer
370
18
48
1
60
0
100
AcDbLine
10
34.725396
20
3.803055
30
0
11
23.16879
21
3.782253
31
0
39
0
210
0
220
0
230
1
0
LINE
5
A2
100
AcDbEntity
8
1
62
256
6
ByLayer
370
18
48
1
60
0
100
AcDbLine
10
13.036657
20
3.764016
30
0
11
0.3746
21
3.741224
31
0
39
0
210
0
220
0
230
1
0
LINE
5
A3
100
AcDbEntity
8
SK1
62
256
6
ByLayer
370
18
48
1
60
0
100
AcDbLine
10
-35.4
20
-3.36
30
0
11
-34.76
21
-4
31
0
39
0
210
0
220
0
230
1
0
LINE
5
A4
100
AcDbEntity
8
SK1
62
256
6
ByLayer
370
18
48
1
60
0
100
AcDbLine
10
-34.76
20
4
30
0
11
-35.4
21
3.36
31
0
39
0
210
0
220
0
230
1
0
LINE
5
A5
100
AcDbEntity
8
SK1
62
256
6
ByLayer
370
18
48
1
60
0
100
AcDbLine
10
-34.76
20
-4
30
0
11
0
21
-4
31
0
39
0
210
0
220
0
230
1
0
LINE
5
A6
100
AcDbEntity
8
SK1
62
256
6
ByLayer
370
18
48
1
60
0
100
AcDbLine
10
0
20
4
30
0
11
-34.76
21
4
31
0
39
0
210
0
220
0
230
1
0
LINE
5
A7
100
AcDbEntity
8
2
62
256
6
ByLayer
370
13
48
1
60
0
100
AcDbLine
10
97.5
20
-3.9
30
0
11
97.5
21
28.199084
31
0
39
0
210
0
220
0
230
1
0
LINE
5
A9
100
AcDbEntity
8
2
62
256
6
ByLayer
370
13
48
1
60
0
100
AcDbLine
10
91.5875
20
3.9
30
0
11
99.5
21
3.9
31
0
39
0
210
0
220
0
230
1
0
LINE
5
AA
100
AcDbEntity
8
2
62
256
6
ByLayer
370
13
48
1
60
0
100
AcDbLine
10
91.5875
20
-3.9
30
0
11
99.5
21
-3.9
31
0
39
0
210
0
220
0
230
1
0
LINE
5
AB
100
AcDbEntity
8
1
62
256
6
ByLayer
370
18
48
1
60
1
100
AcDbLine
10
97.5
20
3.9
30
0
11
97.960784
21
0.400002
31
0
39
0
210
0
220
0
230
1
0
LINE
5
AC
100
AcDbEntity
8
1
62
256
6
ByLayer
370
18
48
1
60
1
100
AcDbLine
10
97.960784
20
0.400002
30
0
11
97.039216
21
0.399998
31
0
39
0
210
0
220
0
230
1
0
LINE
5
AD
100
AcDbEntity
8
1
62
256
6
ByLayer
370
18
48
1
60
1
100
AcDbLine
10
97.039216
20
0.399998
30
0
11
97.5
21
3.9
31
0
39
0
210
0
220
0
230
1
0
LINE
5
AE
100
AcDbEntity
8
1
62
256
6
ByLayer
370
18
48
1
60
1
100
AcDbLine
10
97.5
20
-3.9
30
0
11
97.039216
21
-0.400002
31
0
39
0
210
0
220
0
230
1
0
LINE
5
AF
100
AcDbEntity
8
1
62
256
6
ByLayer
370
18
48
1
60
1
100
AcDbLine
10
97.039216
20
-0.400002
30
0
11
97.960784
21
-0.399998
31
0
39
0
210
0
220
0
230
1
0
LINE
5
B0
100
AcDbEntity
8
1
62
256
6
ByLayer
370
18
48
1
60
1
100
AcDbLine
10
97.960784
20
-0.399998
30
0
11
97.5
21
-3.9
31
0
39
0
210
0
220
0
230
1
0
LINE
5
B1
100
AcDbEntity
8
SK2
62
256
6
ByLayer
370
13
48
1
60
0
100
AcDbLine
10
-44.5
20
-4
30
0
11
-44.5
21
13.841828
31
0
39
0
210
0
220
0
230
1
0
LINE
5
B3
100
AcDbEntity
8
SK2
62
256
6
ByLayer
370
13
48
1
60
0
100
AcDbLine
10
-37.5875
20
4
30
0
11
-46.5
21
4
31
0
39
0
210
0
220
0
230
1
0
LINE
5
B4
100
AcDbEntity
8
SK2
62
256
6
ByLayer
370
13
48
1
60
0
100
AcDbLine
10
-37.5875
20
-4
30
0
11
-46.5
21
-4
31
0
39
0
210
0
220
0
230
1
0
LINE
5
B5
100
AcDbEntity
8
1
62
256
6
ByLayer
370
18
48
1
60
1
100
AcDbLine
10
-44.5
20
4
30
0
11
-44.039216
21
0.500002
31
0
39
0
210
0
220
0
230
1
0
LINE
5
B6
100
AcDbEntity
8
1
62
256
6
ByLayer
370
18
48
1
60
1
100
AcDbLine
10
-44.039216
20
0.500002
30
0
11
-44.960784
21
0.499998
31
0
39
0
210
0
220
0
230
1
0
LINE
5
B7
100
AcDbEntity
8
1
62
256
6
ByLayer
370
18
48
1
60
1
100
AcDbLine
10
-44.960784
20
0.499998
30
0
11
-44.5
21
4
31
0
39
0
210
0
220
0
230
1
0
LINE
5
B8
100
AcDbEntity
8
1
62
256
6
ByLayer
370
18
48
1
60
1
100
AcDbLine
10
-44.5
20
-4
30
0
11
-44.960784
21
-0.500002
31
0
39
0
210
0
220
0
230
1
0
LINE
5
B9
100
AcDbEntity
8
1
62
256
6
ByLayer
370
18
48
1
60
1
100
AcDbLine
10
-44.960784
20
-0.500002
30
0
11
-44.039216
21
-0.499998
31
0
39
0
210
0
220
0
230
1
0
LINE
5
BA
100
AcDbEntity
8
1
62
256
6
ByLayer
370
18
48
1
60
1
100
AcDbLine
10
-44.039216
20
-0.499998
30
0
11
-44.5
21
-4
31
0
39
0
210
0
220
0
230
1
0
LINE
5
BB
100
AcDbEntity
8
SK2
62
256
6
ByLayer
370
13
48
1
60
0
100
AcDbLine
10
90.542794
20
1.491822
30
0
11
97.605693
21
20.903595
31
0
39
0
210
0
220
0
230
1
0
LINE
5
BC
100
AcDbEntity
8
SK2
62
256
6
ByLayer
370
13
48
1
60
0
100
AcDbLine
10
90.542794
20
-1.491822
30
0
11
97.605693
21
-20.903595
31
0
39
0
210
0
220
0
230
1
0
LINE
5
BD
100
AcDbEntity
8
1
62
256
6
ByLayer
370
18
48
1
60
1
100
AcDbLine
10
96.921858
20
19.024135
30
0
11
100.332342
21
18.112593
31
0
39
0
210
0
220
0
230
1
0
LINE
5
BE
100
AcDbEntity
8
1
62
256
6
ByLayer
370
18
48
1
60
1
100
AcDbLine
10
100.332342
20
18.112593
30
0
11
99.980211
21
17.260953
31
0
39
0
210
0
220
0
230
1
0
LINE
5
BF
100
AcDbEntity
8
1
62
256
6
ByLayer
370
18
48
1
60
1
100
AcDbLine
10
99.980211
20
17.260953
30
0
11
96.921858
21
19.024135
31
0
39
0
210
0
220
0
230
1
0
LINE
5
C0
100
AcDbEntity
8
1
62
256
6
ByLayer
370
18
48
1
60
1
100
AcDbLine
10
96.921858
20
-19.024135
30
0
11
99.980208
21
-17.260954
31
0
39
0
210
0
220
0
230
1
0
LINE
5
C1
100
AcDbEntity
8
1
62
256
6
ByLayer
370
18
48
1
60
1
100
AcDbLine
10
99.980208
20
-17.260954
30
0
11
100.332345
21
-18.112592
31
0
39
0
210
0
220
0
230
1
0
LINE
5
C2
100
AcDbEntity
8
1
62
256
6
ByLayer
370
18
48
1
60
1
100
AcDbLine
10
100.332345
20
-18.112592
30
0
11
96.921858
21
-19.024135
31
0
39
0
210
0
220
0
230
1
0
LINE
5
135
100
AcDbEntity
8
1
62
256
6
ByLayer
370
13
48
0.05
60
0
100
AcDbLine
10
-42.5
20
0
30
0
11
95.13194
21
0
31
0
39
0
210
0
220
0
230
1
0
LINE
5
13A
100
AcDbEntity
8
1
62
256
6
ByLayer
370
18
48
1
60
1
100
AcDbLine
10
97.5
20
3.9
30
0
11
97.960784
21
0.400002
31
0
39
0
210
0
220
0
230
1
0
LINE
5
13B
100
AcDbEntity
8
1
62
256
6
ByLayer
370
18
48
1
60
1
100
AcDbLine
10
97.960784
20
0.400002
30
0
11
97.039216
21
0.399998
31
0
39
0
210
0
220
0
230
1
0
LINE
5
13C
100
AcDbEntity
8
1
62
256
6
ByLayer
370
18
48
1
60
1
100
AcDbLine
10
97.039216
20
0.399998
30
0
11
97.5
21
3.9
31
0
39
0
210
0
220
0
230
1
0
LINE
5
13E
100
AcDbEntity
8
1
62
256
6
ByLayer
370
18
48
1
60
1
100
AcDbLine
10
97.5
20
-3.9
30
0
11
97.039216
21
-0.400002
31
0
39
0
210
0
220
0
230
1
0
LINE
5
13F
100
AcDbEntity
8
1
62
256
6
ByLayer
370
18
48
1
60
1
100
AcDbLine
10
97.039216
20
-0.400002
30
0
11
97.960784
21
-0.399998
31
0
39
0
210
0
220
0
230
1
0
LINE
5
140
100
AcDbEntity
8
1
62
256
6
ByLayer
370
18
48
1
60
1
100
AcDbLine
10
97.960784
20
-0.399998
30
0
11
97.5
21
-3.9
31
0
39
0
210
0
220
0
230
1
0
LINE
5
144
100
AcDbEntity
8
1
62
256
6
ByLayer
370
18
48
1
60
1
100
AcDbLine
10
-44.5
20
4
30
0
11
-44.039216
21
0.500002
31
0
39
0
210
0
220
0
230
1
0
LINE
5
145
100
AcDbEntity
8
1
62
256
6
ByLayer
370
18
48
1
60
1
100
AcDbLine
10
-44.039216
20
0.500002
30
0
11
-44.960784
21
0.499998
31
0
39
0
210
0
220
0
230
1
0
LINE
5
146
100
AcDbEntity
8
1
62
256
6
ByLayer
370
18
48
1
60
1
100
AcDbLine
10
-44.960784
20
0.499998
30
0
11
-44.5
21
4
31
0
39
0
210
0
220
0
230
1
0
LINE
5
148
100
AcDbEntity
8
1
62
256
6
ByLayer
370
18
48
1
60
1
100
AcDbLine
10
-44.5
20
-4
30
0
11
-44.960784
21
-0.500002
31
0
39
0
210
0
220
0
230
1
0
LINE
5
149
100
AcDbEntity
8
1
62
256
6
ByLayer
370
18
48
1
60
1
100
AcDbLine
10
-44.960784
20
-0.500002
30
0
11
-44.039216
21
-0.499998
31
0
39
0
210
0
220
0
230
1
0
LINE
5
14A
100
AcDbEntity
8
1
62
256
6
ByLayer
370
18
48
1
60
1
100
AcDbLine
10
-44.039216
20
-0.499998
30
0
11
-44.5
21
-4
31
0
39
0
210
0
220
0
230
1
0
LINE
5
14D
100
AcDbEntity
8
1
62
256
6
ByLayer
370
18
48
1
60
1
100
AcDbLine
10
96.921858
20
19.024135
30
0
11
100.332342
21
18.112593
31
0
39
0
210
0
220
0
230
1
0
LINE
5
14E
100
AcDbEntity
8
1
62
256
6
ByLayer
370
18
48
1
60
1
100
AcDbLine
10
100.332342
20
18.112593
30
0
11
99.980211
21
17.260953
31
0
39
0
210
0
220
0
230
1
0
LINE
5
14F
100
AcDbEntity
8
1
62
256
6
ByLayer
370
18
48
1
60
1
100
AcDbLine
10
99.980211
20
17.260953
30
0
11
96.921858
21
19.024135
31
0
39
0
210
0
220
0
230
1
0
LINE
5
151
100
AcDbEntity
8
1
62
256
6
ByLayer
370
18
48
1
60
1
100
AcDbLine
10
96.921858
20
-19.024135
30
0
11
99.980208
21
-17.260954
31
0
39
0
210
0
220
0
230
1
0
LINE
5
152
100
AcDbEntity
8
1
62
256
6
ByLayer
370
18
48
1
60
1
100
AcDbLine
10
99.980208
20
-17.260954
30
0
11
100.332345
21
-18.112592
31
0
39
0
210
0
220
0
230
1
0
LINE
5
153
100
AcDbEntity
8
1
62
256
6
ByLayer
370
18
48
1
60
1
100
AcDbLine
10
100.332345
20
-18.112592
30
0
11
96.921858
21
-19.024135
31
0
39
0
210
0
220
0
230
1
0
MTEXT
5
136
100
AcDbEntity
8
2
62
256
6
ByLayer
370
18
48
1
60
0
100
AcDbMText
10
96.158886
20
17.558437
30
0
210
0
220
0
230
1
1
%%c
40
3
41
0
44
1.084337
50
90
71
7
72
5
7
iso_b_vert
0
MTEXT
5
139
100
AcDbEntity
8
2
62
256
6
ByLayer
370
18
48
1
60
0
100
AcDbMText
10
96.158886
20
23.535
30
0
210
0
220
0
230
1
1
\W0.7121;7.8
40
3
41
0
44
1.084337
50
90
71
7
72
5
7
iso_b_vert
0
MTEXT
5
142
100
AcDbEntity
8
SK2
62
256
6
ByLayer
370
18
48
1
60
0
100
AcDbMText
10
-45.841114
20
6.658437
30
0
210
0
220
0
230
1
1
%%c
40
3
41
0
44
1.084337
50
90
71
7
72
5
7
iso_b_vert
0
MTEXT
5
143
100
AcDbEntity
8
SK2
62
256
6
ByLayer
370
18
48
1
60
0
100
AcDbMText
10
-45.841114
20
12.635
30
0
210
0
220
0
230
1
1
\W0.5404;8
40
3
41
0
44
1.084337
50
90
71
7
72
5
7
iso_b_vert
0
MTEXT
5
14C
100
AcDbEntity
8
SK2
62
256
6
ByLayer
370
18
48
1
60
0
100
AcDbMText
10
106.803597
20
-2.114886
30
0
210
0
220
0
230
1
1
\W0.7071;140%%d
40
3
41
0
44
1.084337
50
0
71
7
72
5
7
iso_b_vert
0
MTEXT
5
155
100
AcDbEntity
8
SK6
62
256
6
ByLayer
370
18
48
1
60
0
100
AcDbMText
10
2.83136
20
-51.015136
30
0
210
0
220
0
230
1
1
\W0.7522;860.1-0780-063A1-SD S2BM
40
3
41
0
44
1.084337
50
0
71
7
72
5
7
iso_b_vert
0
HATCH
5
13D
100
AcDbEntity
8
2
62
256
6
ByLayer
370
13
48
1
60
0
100
AcDbHatch
10
0
20
0
30
0
210
0
220
0
230
1
2
ANSI31
70
0
71
0
91
1
92
5
93
3
72
1
10
97.5
20
3.89999999999998
11
97.9607837415528
21
0.400001692553161
72
1
10
97.9607837415528
20
0.400001692553161
11
97.0392162584472
21
0.399998307446793
72
1
10
97.0392162584472
20
0.399998307446793
11
97.5
21
3.89999999999998
97
0
75
0
76
1
52
0
41
0.0062
77
0
78
1
53
45
43
0
44
0
45
-0.0139193969876572
46
0.0139193969876572
79
0
47
0
98
1
10
0
20
0
0
HATCH
5
141
100
AcDbEntity
8
2
62
256
6
ByLayer
370
13
48
1
60
0
100
AcDbHatch
10
0
20
0
30
0
210
0
220
0
230
1
2
ANSI31
70
0
71
0
91
1
92
5
93
3
72
1
10
97.5
20
-3.90000000000001
11
97.0392162584472
21
-0.40000169255319
72
1
10
97.0392162584472
20
-0.40000169255319
11
97.9607837415528
21
-0.399998307446822
72
1
10
97.9607837415528
20
-0.399998307446822
11
97.5
21
-3.90000000000001
97
0
75
0
76
1
52
0
41
0.0062
77
0
78
1
53
45
43
0
44
0
45
-0.0139193969876572
46
0.0139193969876572
79
0
47
0
98
1
10
0
20
0
0
HATCH
5
147
100
AcDbEntity
8
SK2
62
256
6
ByLayer
370
13
48
1
60
0
100
AcDbHatch
10
0
20
0
30
0
210
0
220
0
230
1
2
ANSI31
70
0
71
0
91
1
92
5
93
3
72
1
10
-44.5
20
4
11
-44.0392162584472
21
0.500001692553184
72
1
10
-44.0392162584472
20
0.500001692553184
11
-44.9607837415528
21
0.499998307446816
72
1
10
-44.9607837415528
20
0.499998307446816
11
-44.5
21
4
97
0
75
0
76
1
52
0
41
0.0062
77
0
78
1
53
45
43
0
44
0
45
-0.0139193969876572
46
0.0139193969876572
79
0
47
0
98
1
10
0
20
0
0
HATCH
5
14B
100
AcDbEntity
8
SK2
62
256
6
ByLayer
370
13
48
1
60
0
100
AcDbHatch
10
0
20
0
30
0
210
0
220
0
230
1
2
ANSI31
70
0
71
0
91
1
92
5
93
3
72
1
10
-44.5
20
-4
11
-44.9607837415528
21
-0.500001692553184
72
1
10
-44.9607837415528
20
-0.500001692553184
11
-44.0392162584472
21
-0.499998307446816
72
1
10
-44.0392162584472
20
-0.499998307446816
11
-44.5
21
-4
97
0
75
0
76
1
52
0
41
0.0062
77
0
78
1
53
45
43
0
44
0
45
-0.0139193969876572
46
0.0139193969876572
79
0
47
0
98
1
10
0
20
0
0
HATCH
5
150
100
AcDbEntity
8
SK2
62
256
6
ByLayer
370
13
48
1
60
0
100
AcDbHatch
10
0
20
0
30
0
210
0
220
0
230
1
2
ANSI31
70
0
71
0
91
1
92
5
93
3
72
1
10
96.9218582279888
20
19.024134664663
11
100.332342307377
21
18.1125930293828
72
1
10
100.332342307377
20
18.1125930293828
11
99.9802114523673
21
17.2609531484008
72
1
10
99.9802114523673
20
17.2609531484008
11
96.9218582279888
21
19.024134664663
97
0
75
0
76
1
52
0
41
0.0062
77
0
78
1
53
45
43
0
44
0
45
-0.0139193969876572
46
0.0139193969876572
79
0
47
0
98
1
10
0
20
0
0
HATCH
5
154
100
AcDbEntity
8
SK2
62
256
6
ByLayer
370
13
48
1
60
0
100
AcDbHatch
10
0
20
0
30
0
210
0
220
0
230
1
2
ANSI31
70
0
71
0
91
1
92
5
93
3
72
1
10
96.9218582279888
20
-19.024134664663
11
99.980208324124
21
-17.2609544418611
72
1
10
99.980208324124
20
-17.2609544418611
11
100.33234543562
21
-18.1125917359224
72
1
10
100.33234543562
20
-18.1125917359224
11
96.9218582279888
21
-19.024134664663
97
0
75
0
76
1
52
0
41
0.0062
77
0
78
1
53
45
43
0
44
0
45
-0.0139193969876572
46
0.0139193969876572
79
0
47
0
98
1
10
0
20
0
0
DIMENSION
5
158
100
AcDbEntity
8
SK2
62
256
6
ByLayer
370
18
48
1
60
0
100
AcDbDimension
2
_U0
10
26.2
20
-19.772473
30
0
11
58.1
21
-19.772473
31
0
70
32
71
1
72
1
41
1
210
0
220
0
230
1
3
Standard
100
AcDbAlignedDimension
13
90
23
-3.9
33
0
14
26.2
24
-3.9
34
0
50
0
100
AcDbRotatedDimension
1001
ACAD
1000
DSTYLE
1002
{
1070
   371
1070
    13
1070
   372
1070
    13
1070
   170
1070
     0
1070
   144
1040
1.0
1070
   277
1070
     2
1070
   284
1070
     8
1070
   278
1070
    46
1070
   146
1040
1.166667
1070
   345
1005
16
1070
   347
1005
16
1070
   346
1005
16
1070
   344
1005
0
1070
   343
1005
0
1070
   172
1070
     1
1070
    76
1070
     0
1070
    75
1070
     0
1070
   282
1070
     0
1070
   281
1070
     0
1070
     3
1000

1070
    71
1070
     0
1070
    74
1070
     0
1070
   279
1070
     0
1070
   173
1070
     1
1070
   340
1005
137
1070
   271
1070
     2
1070
   272
1070
     2
1070
    77
1070
     1
1070
    73
1070
     1
1070
   171
1070
     3
1070
   274
1070
     4
1070
   177
1070
     2
1070
   176
1070
     2
1070
   178
1070
     2
1070
    78
1070
     8
1070
    48
1040
-0.1
1070
    41
1040
3.5
1070
   147
1040
1.5
1070
    42
1040
1.5875
1070
    44
1040
2.0
1070
   140
1040
3.0
1002
}
1001
ACAD_DSTYLE_DIM_LINETYPE
1070
   380
1005
16
1001
ACAD_DSTYLE_DIM_EXT1_LINETYPE
1070
   381
1005
16
1001
ACAD_DSTYLE_DIM_EXT2_LINETYPE
1070
   382
1005
16
0
DIMENSION
5
173
100
AcDbEntity
8
SK2
62
256
6
ByLayer
370
18
48
1
60
0
100
AcDbDimension
2
_U1
10
6
20
-29.772473
30
0
11
48
21
-29.772473
31
0
70
32
71
1
72
1
41
1
210
0
220
0
230
1
3
Standard
100
AcDbAlignedDimension
13
90
23
-3.9
33
0
14
6
24
-3.9
34
0
50
0
100
AcDbRotatedDimension
1001
ACAD
1000
DSTYLE
1002
{
1070
   371
1070
    13
1070
   372
1070
    13
1070
     3
1000

1070
   170
1070
     0
1070
   144
1040
1.0
1070
   277
1070
     2
1070
   284
1070
     8
1070
   278
1070
    46
1070
   146
1040
1.166667
1070
   345
1005
16
1070
   347
1005
16
1070
   346
1005
16
1070
   344
1005
0
1070
   343
1005
0
1070
   172
1070
     1
1070
    76
1070
     0
1070
    75
1070
     0
1070
   282
1070
     0
1070
   281
1070
     0
1070
    71
1070
     0
1070
    74
1070
     0
1070
   279
1070
     0
1070
   173
1070
     1
1070
   340
1005
137
1070
   271
1070
     2
1070
   272
1070
     2
1070
    77
1070
     1
1070
    73
1070
     1
1070
   171
1070
     3
1070
   274
1070
     4
1070
   177
1070
     2
1070
   176
1070
     2
1070
   178
1070
     2
1070
    78
1070
     8
1070
    48
1040
-0.1
1070
    41
1040
3.5
1070
   147
1040
1.5
1070
    42
1040
1.5875
1070
    44
1040
2.0
1070
   140
1040
3.0
1002
}
1001
ACAD_DSTYLE_DIM_LINETYPE
1070
   380
1005
16
1001
ACAD_DSTYLE_DIM_EXT1_LINETYPE
1070
   381
1005
16
1001
ACAD_DSTYLE_DIM_EXT2_LINETYPE
1070
   382
1005
16
0
DIMENSION
5
18B
100
AcDbEntity
8
SK2
62
256
6
ByLayer
370
18
48
1
60
0
100
AcDbDimension
2
_U2
10
0
20
-37.772473
30
0
11
-18
21
-37.772473
31
0
70
32
71
1
72
1
41
1
210
0
220
0
230
1
3
Standard
100
AcDbAlignedDimension
13
-36
23
-4
33
0
14
0
24
-4
34
0
50
0
100
AcDbRotatedDimension
1001
ACAD
1000
DSTYLE
1002
{
1070
   371
1070
    13
1070
   372
1070
    13
1070
     3
1000

1070
   170
1070
     0
1070
   144
1040
1.0
1070
   277
1070
     2
1070
   284
1070
     8
1070
   278
1070
    46
1070
   146
1040
1.166667
1070
   345
1005
16
1070
   347
1005
16
1070
   346
1005
16
1070
   344
1005
0
1070
   343
1005
0
1070
   172
1070
     1
1070
    76
1070
     0
1070
    75
1070
     0
1070
   282
1070
     0
1070
   281
1070
     0
1070
    71
1070
     0
1070
    74
1070
     0
1070
   279
1070
     0
1070
   173
1070
     1
1070
   340
1005
137
1070
   271
1070
     2
1070
   272
1070
     2
1070
    77
1070
     1
1070
    73
1070
     1
1070
   171
1070
     3
1070
   274
1070
     4
1070
   177
1070
     2
1070
   176
1070
     2
1070
   178
1070
     2
1070
    78
1070
     8
1070
    48
1040
-0.1
1070
    41
1040
3.5
1070
   147
1040
1.5
1070
    42
1040
1.5875
1070
    44
1040
2.0
1070
   140
1040
3.0
1002
}
1001
ACAD_DSTYLE_DIM_LINETYPE
1070
   380
1005
16
1001
ACAD_DSTYLE_DIM_EXT1_LINETYPE
1070
   381
1005
16
1001
ACAD_DSTYLE_DIM_EXT2_LINETYPE
1070
   382
1005
16
0
DIMENSION
5
1A3
100
AcDbEntity
8
SK2
62
256
6
ByLayer
370
18
48
1
60
0
100
AcDbDimension
2
_U3
10
90
20
-45.772473
30
0
11
27
21
-45.772473
31
0
70
32
71
1
72
1
41
1
210
0
220
0
230
1
3
Standard
100
AcDbAlignedDimension
13
-36
23
-4
33
0
14
90
24
-3.9
34
0
50
0
100
AcDbRotatedDimension
1001
ACAD
1000
DSTYLE
1002
{
1070
   371
1070
    13
1070
   372
1070
    13
1070
     3
1000

1070
   170
1070
     0
1070
   144
1040
1.0
1070
   277
1070
     2
1070
   284
1070
     8
1070
   278
1070
    46
1070
   146
1040
1.166667
1070
   345
1005
16
1070
   347
1005
16
1070
   346
1005
16
1070
   344
1005
0
1070
   343
1005
0
1070
   172
1070
     1
1070
    76
1070
     0
1070
    75
1070
     0
1070
   282
1070
     0
1070
   281
1070
     0
1070
    71
1070
     0
1070
    74
1070
     0
1070
   279
1070
     0
1070
   173
1070
     1
1070
   340
1005
137
1070
   271
1070
     2
1070
   272
1070
     2
1070
    77
1070
     1
1070
    73
1070
     1
1070
   171
1070
     3
1070
   274
1070
     4
1070
   177
1070
     2
1070
   176
1070
     2
1070
   178
1070
     2
1070
    78
1070
     8
1070
    48
1040
-0.1
1070
    41
1040
3.5
1070
   147
1040
1.5
1070
    42
1040
1.5875
1070
    44
1040
2.0
1070
   140
1040
3.0
1002
}
1001
ACAD_DSTYLE_DIM_LINETYPE
1070
   380
1005
16
1001
ACAD_DSTYLE_DIM_EXT1_LINETYPE
1070
   381
1005
16
1001
ACAD_DSTYLE_DIM_EXT2_LINETYPE
1070
   382
1005
16
0
DIMENSION
5
1BB
100
AcDbEntity
8
2
62
256
6
ByLayer
370
18
48
1
60
0
100
AcDbDimension
2
_U4
10
0
20
-37.772473
30
0
11
45
21
-37.772473
31
0
70
32
71
1
72
1
41
1
210
0
220
0
230
1
3
Standard
100
AcDbAlignedDimension
13
90
23
-3.9
33
0
14
0
24
-3.9
34
0
50
0
100
AcDbRotatedDimension
1001
ACAD
1000
DSTYLE
1002
{
1070
   371
1070
    13
1070
   372
1070
    13
1070
     3
1000

1070
   170
1070
     0
1070
   144
1040
1.0
1070
   277
1070
     2
1070
   284
1070
     8
1070
   278
1070
    46
1070
   146
1040
1.166667
1070
   345
1005
16
1070
   347
1005
16
1070
   346
1005
16
1070
   344
1005
0
1070
   343
1005
0
1070
   172
1070
     1
1070
    76
1070
     0
1070
    75
1070
     0
1070
   282
1070
     0
1070
   281
1070
     0
1070
    71
1070
     0
1070
    74
1070
     0
1070
   279
1070
     0
1070
   173
1070
     1
1070
   340
1005
137
1070
   271
1070
     2
1070
   272
1070
     2
1070
    77
1070
     1
1070
    73
1070
     1
1070
   171
1070
     3
1070
   274
1070
     4
1070
   177
1070
     2
1070
   176
1070
     2
1070
   178
1070
     2
1070
    78
1070
     8
1070
    48
1040
-0.1
1070
    41
1040
3.5
1070
   147
1040
1.5
1070
    42
1040
1.5875
1070
    44
1040
2.0
1070
   140
1040
3.0
1002
}
1001
ACAD_DSTYLE_DIM_LINETYPE
1070
   380
1005
16
1001
ACAD_DSTYLE_DIM_EXT1_LINETYPE
1070
   381
1005
16
1001
ACAD_DSTYLE_DIM_EXT2_LINETYPE
1070
   382
1005
16
0
ENDSEC
0
SECTION
2
OBJECTS
0
DICTIONARY
5
243
330
0
100
AcDbDictionary
280
0
281
1
3
ACAD_GROUP
350
244
3
ACAD_MLINESTYLE
350
245
0
DICTIONARY
5
244
330
0
100
AcDbDictionary
280
0
281
1
0
DICTIONARY
5
245
330
0
100
AcDbDictionary
280
0
281
1
3
Standard
350
18
0
MLINESTYLE
5
18
330
245
100
AcDbMlineStyle
2
Standard
70
0
3

62
256
51
90
52
90
71
2
49
-0.5
62
256
6
ByLayer
49
0.5
62
256
6
ByLayer
0
RASTERVARIABLES
5
231
330

100
AcDbRasterVariables
90
0
70
1
71
1
72
1
0
ENDSEC
0
EOF
