0
SECTION
2
HEADER
9
$ACADVER
1
AC1015
9
$DWGCODEPAGE
3
ANSI_1252
9
$HANDSEED
5
236
9
$ANGBASE
50
0
9
$ANGDIR
70
0
9
$ATTMODE
70
1
9
$AUNITS
70
0
9
$AUPREC
70
0
9
$CECOLOR
62
256
9
$CELTSCALE
40
1
9
$CELTYPE
6
ByLayer
9
$CELWEIGHT
370
18
9
$CLAYER
8
0
9
$CMLJUST
70
0
9
$CMLSCALE
40
1
9
$CMLSTYLE
2
Standard
9
$DIMSTYLE
2
Standard
9
$TEXTSIZE
40
0.2
9
$TEXTSTYLE
7
Standard
9
$LUNITS
70
2
9
$LUPREC
70
4
9
$EXTNAMES
290
1
9
$INSUNITS
70
4
9
$LTSCALE
40
1
9
$LWDISPLAY
290
1
9
$PDMODE
70
0
9
$PDSIZE
40
0
9
$PLINEGEN
70
0
0
ENDSEC
0
SECTION
2
CLASSES
0
CLASS
1
RASTERVARIABLES
2
AcDbRasterVariables
3
ISM
90
0
280
0
281
0
0
ENDSEC
0
SECTION
2
TABLES
0
TABLE
2
VPORT
5
22c
100
AcDbSymbolTable
0
VPORT
5
1
100
AcDbSymbolTableRecord
100
AcDbViewportTableRecord
2
*Active
70
0
10
0
20
0
11
1
21
1
12
-1
22
1
13
0
23
0
14
0.5
24
0.5
15
10
25
10
16
0
26
0
36
1
17
0
27
0
37
0
0
ENDTAB
0
TABLE
2
LTYPE
5
22d
100
AcDbSymbolTable
0
LTYPE
5
14
100
AcDbSymbolTableRecord
100
AcDbLinetypeTableRecord
70
0
2
ByBlock
3

72
65
73
0
40
0
0
LTYPE
5
15
100
AcDbSymbolTableRecord
100
AcDbLinetypeTableRecord
70
0
2
ByLayer
3

72
65
73
0
40
0
0
LTYPE
5
16
100
AcDbSymbolTableRecord
100
AcDbLinetypeTableRecord
70
0
2
Continuous
3
Solid line
72
65
73
0
40
0
0
LTYPE
5
6E
100
AcDbSymbolTableRecord
100
AcDbLinetypeTableRecord
70
0
2
CENTER
3
____ _ ____ _ ____ _ ____
72
65
73
4
40
47.5
49
22
74
0
49
-8.5
74
0
49
8.5
74
0
49
-8.5
74
0
0
LTYPE
5
6F
100
AcDbSymbolTableRecord
100
AcDbLinetypeTableRecord
70
0
2
DASHED
3
__ __ __ __ __ __ __ __ __
72
65
73
2
40
25.72
49
12.86
74
0
49
-12.86
74
0
0
ENDTAB
0
TABLE
2
LAYER
5
22e
100
AcDbSymbolTable
0
LAYER
5
10
100
AcDbSymbolTableRecord
100
AcDbLayerTableRecord
2
0
70
0
62
7
6
Continuous
290
1
370
-3
390
0
0
LAYER
5
71
100
AcDbSymbolTableRecord
100
AcDbLayerTableRecord
2
81
70
0
62
-3
6
Continuous
290
1
370
-3
390
0
0
LAYER
5
73
100
AcDbSymbolTableRecord
100
AcDbLayerTableRecord
2
80
70
0
62
-6
6
Continuous
290
1
370
-3
390
0
0
LAYER
5
75
100
AcDbSymbolTableRecord
100
AcDbLayerTableRecord
2
1
70
0
62
4
6
Continuous
290
1
370
-3
390
0
0
LAYER
5
87
100
AcDbSymbolTableRecord
100
AcDbLayerTableRecord
2
4
70
0
62
-2
6
CENTER
290
1
370
-3
390
0
0
LAYER
5
A2
100
AcDbSymbolTableRecord
100
AcDbLayerTableRecord
2
2
70
0
62
7
6
Continuous
290
1
370
-3
390
0
0
LAYER
5
141
100
AcDbSymbolTableRecord
100
AcDbLayerTableRecord
2
Defpoints
70
0
62
7
6
Continuous
290
0
370
-3
390
0
0
LAYER
5
218
100
AcDbSymbolTableRecord
100
AcDbLayerTableRecord
2
SK4
70
0
62
2
6
CENTER
290
1
370
-3
390
0
0
LAYER
5
219
100
AcDbSymbolTableRecord
100
AcDbLayerTableRecord
2
SK1
70
0
62
4
6
Continuous
290
1
370
-3
390
0
0
LAYER
5
21a
100
AcDbSymbolTableRecord
100
AcDbLayerTableRecord
2
SK2
70
0
62
7
6
Continuous
290
1
370
-3
390
0
0
LAYER
5
21b
100
AcDbSymbolTableRecord
100
AcDbLayerTableRecord
2
SK6
70
0
62
5
6
Continuous
290
1
370
-3
390
0
0
ENDTAB
0
TABLE
2
STYLE
5
22f
100
AcDbSymbolTable
0
STYLE
5
11
100
AcDbSymbolTableRecord
100
AcDbTextStyleTableRecord
2
Standard
3
txt
70
0
71
0
40
0
41
1
42
0
50
0
0
STYLE
5
11D
100
AcDbSymbolTableRecord
100
AcDbTextStyleTableRecord
2
iso_b_vert
3
simplex.shx
70
0
71
0
40
0
41
1
42
0
50
0
0
STYLE
5
11E
100
AcDbSymbolTableRecord
100
AcDbTextStyleTableRecord
2
DWGDirectTextStyle
3
simplex
70
0
71
0
40
0
41
1
42
0
50
0
0
ENDTAB
0
TABLE
2
DIMSTYLE
5
230
100
AcDbSymbolTable
100
AcDbDimStyleTable
0
DIMSTYLE
105
27
100
AcDbSymbolTableRecord
100
AcDbDimStyleTableRecord
2
Standard
70
0
3
<>
41
0.18
42
0.0625
44
0.18
140
0.18
147
0.09
73
0
74
0
77
1
271
2
275
0
278
52
280
0
340
11
0
ENDTAB
0
TABLE
2
VIEW
5
231
100
AcDbSymbolTable
0
ENDTAB
0
TABLE
2
UCS
5
232
100
AcDbSymbolTable
0
ENDTAB
0
TABLE
2
APPID
5
233
100
AcDbSymbolTable
0
APPID
5
12
100
AcDbSymbolTableRecord
100
AcDbRegAppTableRecord
2
ACAD
70
0
0
APPID
5
13D
100
AcDbSymbolTableRecord
100
AcDbRegAppTableRecord
2
ACAD_DSTYLE_DIMBREAK
70
0
0
APPID
5
1D7
100
AcDbSymbolTableRecord
100
AcDbRegAppTableRecord
2
ACAD_DSTYLE_DIM_LINETYPE
70
0
0
APPID
5
1D8
100
AcDbSymbolTableRecord
100
AcDbRegAppTableRecord
2
ACAD_DSTYLE_DIM_EXT1_LINETYPE
70
0
0
APPID
5
1D9
100
AcDbSymbolTableRecord
100
AcDbRegAppTableRecord
2
ACAD_DSTYLE_DIM_EXT2_LINETYPE
70
0
0
APPID
5
214
100
AcDbSymbolTableRecord
100
AcDbRegAppTableRecord
2
ACAD_MLEADERVER
70
0
0
ENDTAB
0
TABLE
2
BLOCK_RECORD
5
234
100
AcDbSymbolTable
0
BLOCK_RECORD
5
1F
100
AcDbSymbolTableRecord
100
AcDbBlockTableRecord
2
*Model_Space
340
0
70
0
0
BLOCK_RECORD
5
1B
100
AcDbSymbolTableRecord
100
AcDbBlockTableRecord
2
*Paper_Space
340
0
70
0
0
BLOCK_RECORD
5
23
100
AcDbSymbolTableRecord
100
AcDbBlockTableRecord
2
*Paper_Space0
340
0
70
0
0
BLOCK_RECORD
5
142
100
AcDbSymbolTableRecord
100
AcDbBlockTableRecord
2
*D1
340
0
70
0
0
BLOCK_RECORD
5
14E
100
AcDbSymbolTableRecord
100
AcDbBlockTableRecord
2
_U0
340
0
70
0
0
BLOCK_RECORD
5
15C
100
AcDbSymbolTableRecord
100
AcDbBlockTableRecord
2
*D3
340
0
70
0
0
BLOCK_RECORD
5
168
100
AcDbSymbolTableRecord
100
AcDbBlockTableRecord
2
_U1
340
0
70
0
0
BLOCK_RECORD
5
174
100
AcDbSymbolTableRecord
100
AcDbBlockTableRecord
2
*D5
340
0
70
0
0
BLOCK_RECORD
5
180
100
AcDbSymbolTableRecord
100
AcDbBlockTableRecord
2
_U2
340
0
70
0
0
BLOCK_RECORD
5
18C
100
AcDbSymbolTableRecord
100
AcDbBlockTableRecord
2
*D7
340
0
70
0
0
BLOCK_RECORD
5
198
100
AcDbSymbolTableRecord
100
AcDbBlockTableRecord
2
_U3
340
0
70
0
0
BLOCK_RECORD
5
1A4
100
AcDbSymbolTableRecord
100
AcDbBlockTableRecord
2
*D9
340
0
70
0
0
BLOCK_RECORD
5
1B0
100
AcDbSymbolTableRecord
100
AcDbBlockTableRecord
2
_U4
340
0
70
0
0
ENDTAB
0
ENDSEC
0
SECTION
2
BLOCKS
0
BLOCK
5
20
100
AcDbEntity
8
0
100
AcDbBlockBegin
2
*Model_Space
70
0
10
0
20
0
30
0
3
*Model_Space
0
ENDBLK
5
21
100
AcDbEntity
8
0
100
AcDbBlockEnd
0
BLOCK
5
1C
100
AcDbEntity
8
0
100
AcDbBlockBegin
2
*Paper_Space
70
0
10
0
20
0
30
0
3
*Paper_Space
0
ENDBLK
5
1D
100
AcDbEntity
8
0
100
AcDbBlockEnd
0
BLOCK
5
24
100
AcDbEntity
8
0
100
AcDbBlockBegin
2
*Paper_Space0
70
0
10
0
20
0
30
0
3
*Paper_Space0
0
ENDBLK
5
25
100
AcDbEntity
8
0
100
AcDbBlockEnd
0
BLOCK
5
143
100
AcDbEntity
8
0
100
AcDbBlockBegin
2
*D1
70
1
10
0
20
0
30
0
3
*D1
0
LINE
5
145
100
AcDbEntity
8
0
62
256
6
ByLayer
370
-2
48
1
60
0
100
AcDbLine
10
43
20
-5.1595
30
0
11
43
21
-21.536929
31
0
39
0
210
0
220
0
230
1
0
LINE
5
146
100
AcDbEntity
8
0
62
256
6
ByLayer
370
-2
48
1
60
0
100
AcDbLine
10
20.3
20
-5.1595
30
0
11
20.3
21
-21.536929
31
0
39
0
210
0
220
0
230
1
0
LINE
5
147
100
AcDbEntity
8
0
62
256
6
ByLayer
370
-2
48
1
60
0
100
AcDbLine
10
39.5
20
-19.536929
30
0
11
23.8
21
-19.536929
31
0
39
0
210
0
220
0
230
1
0
SOLID
5
148
100
AcDbEntity
8
0
62
256
6
ByLayer
370
-1
48
1
60
0
100
AcDbTrace
10
39.5
20
-20.120263
30
0
11
39.5
21
-18.953596
31
0
12
43
22
-19.536929
32
0
13
43
23
-19.536929
33
0
39
0
210
0
220
0
230
1
0
SOLID
5
149
100
AcDbEntity
8
0
62
256
6
ByLayer
370
-1
48
1
60
0
100
AcDbTrace
10
23.8
20
-18.953596
30
0
11
23.8
21
-20.120263
31
0
12
20.3
22
-19.536929
32
0
13
20.3
23
-19.536929
33
0
39
0
210
0
220
0
230
1
0
MTEXT
5
14A
100
AcDbEntity
8
0
62
256
6
ByLayer
370
18
48
1
60
0
100
AcDbMText
10
31.65
20
-13.536929
30
0
210
0
220
0
230
1
1
\A1;22.7
40
3
41
0
44
1
50
0
71
5
72
5
7
iso_b_vert
0
POINT
5
14B
100
AcDbEntity
8
Defpoints
62
0
6
ByLayer
370
-1
48
1
60
0
100
AcDbPoint
10
43
20
-3.572
30
0
39
0
210
0
220
0
230
1
50
360
0
POINT
5
14C
100
AcDbEntity
8
Defpoints
62
0
6
ByLayer
370
-1
48
1
60
0
100
AcDbPoint
10
20.3
20
-3.572
30
0
39
0
210
0
220
0
230
1
50
360
0
POINT
5
14D
100
AcDbEntity
8
Defpoints
62
0
6
ByLayer
370
-1
48
1
60
0
100
AcDbPoint
10
20.3
20
-19.536929
30
0
39
0
210
0
220
0
230
1
50
360
0
ENDBLK
5
144
100
AcDbEntity
8
0
100
AcDbBlockEnd
0
BLOCK
5
157
100
AcDbEntity
8
0
100
AcDbBlockBegin
2
_U0
70
0
10
0
20
0
30
0
3
_U0
0
MTEXT
5
14F
100
AcDbEntity
8
SK2
62
256
6
ByLayer
370
18
48
1
60
0
100
AcDbMText
10
28.288544
20
-17.339315
30
0
210
0
220
0
230
1
1
\W0.7346;22.7
40
3
41
0
44
1.084337
50
0
71
7
72
5
7
iso_b_vert
0
MTEXT
5
150
100
AcDbEntity
8
SK2
62
256
6
ByLayer
370
18
48
1
60
0
100
AcDbMText
10
26.188544
20
-17.339315
30
0
210
0
220
0
230
1
1
\W1.1313;{\H1.88x;(}
40
3
41
0
44
1.084337
50
0
71
7
72
5
7
iso_b_vert
0
MTEXT
5
151
100
AcDbEntity
8
SK2
62
256
6
ByLayer
370
18
48
1
60
0
100
AcDbMText
10
35.329456
20
-17.339315
30
0
210
0
220
0
230
1
1
\W1.1313;{\H1.88x;)}
40
3
41
0
44
1.084337
50
0
71
7
72
5
7
iso_b_vert
0
LINE
5
152
100
AcDbEntity
8
SK2
62
256
6
ByLayer
370
13
48
1
60
0
100
AcDbLine
10
43
20
-5.1595
30
0
11
43
21
-21.536929
31
0
39
0
210
0
220
0
230
1
0
LINE
5
153
100
AcDbEntity
8
SK2
62
256
6
ByLayer
370
13
48
1
60
0
100
AcDbLine
10
20.3
20
-5.1595
30
0
11
20.3
21
-21.536929
31
0
39
0
210
0
220
0
230
1
0
LINE
5
154
100
AcDbEntity
8
SK2
62
256
6
ByLayer
370
13
48
1
60
0
100
AcDbLine
10
43
20
-19.536929
30
0
11
20.3
21
-19.536929
31
0
39
0
210
0
220
0
230
1
0
SOLID
5
155
100
AcDbEntity
8
SK2
62
256
6
ByLayer
370
18
48
1
60
0
100
AcDbTrace
10
43
20
-19.536929
30
0
11
39.500002
21
-19.997713
31
0
12
39.499998
22
-19.076146
32
0
13
39.499998
23
-19.076146
33
0
39
0
210
0
220
0
230
1
0
SOLID
5
156
100
AcDbEntity
8
SK2
62
256
6
ByLayer
370
18
48
1
60
0
100
AcDbTrace
10
20.3
20
-19.536929
30
0
11
23.799998
21
-19.076146
31
0
12
23.800002
22
-19.997713
32
0
13
23.800002
23
-19.997713
33
0
39
0
210
0
220
0
230
1
0
ENDBLK
5
158
100
AcDbEntity
8
0
100
AcDbBlockEnd
0
BLOCK
5
15D
100
AcDbEntity
8
0
100
AcDbBlockBegin
2
*D3
70
1
10
0
20
0
30
0
3
*D3
0
LINE
5
15F
100
AcDbEntity
8
0
62
256
6
ByLayer
370
-2
48
1
60
0
100
AcDbLine
10
43
20
-5.1595
30
0
11
43
21
-31.536929
31
0
39
0
210
0
220
0
230
1
0
LINE
5
160
100
AcDbEntity
8
0
62
256
6
ByLayer
370
-2
48
1
60
0
100
AcDbLine
10
2
20
-5.1595
30
0
11
2
21
-31.536929
31
0
39
0
210
0
220
0
230
1
0
LINE
5
161
100
AcDbEntity
8
0
62
256
6
ByLayer
370
-2
48
1
60
0
100
AcDbLine
10
39.5
20
-29.536929
30
0
11
5.5
21
-29.536929
31
0
39
0
210
0
220
0
230
1
0
SOLID
5
162
100
AcDbEntity
8
0
62
256
6
ByLayer
370
-1
48
1
60
0
100
AcDbTrace
10
39.5
20
-30.120263
30
0
11
39.5
21
-28.953596
31
0
12
43
22
-29.536929
32
0
13
43
23
-29.536929
33
0
39
0
210
0
220
0
230
1
0
SOLID
5
163
100
AcDbEntity
8
0
62
256
6
ByLayer
370
-1
48
1
60
0
100
AcDbTrace
10
5.5
20
-28.953596
30
0
11
5.5
21
-30.120263
31
0
12
2
22
-29.536929
32
0
13
2
23
-29.536929
33
0
39
0
210
0
220
0
230
1
0
MTEXT
5
164
100
AcDbEntity
8
0
62
256
6
ByLayer
370
18
48
1
60
0
100
AcDbMText
10
22.5
20
-23.536929
30
0
210
0
220
0
230
1
1
\A1;41
40
3
41
0
44
1
50
0
71
5
72
5
7
iso_b_vert
0
POINT
5
165
100
AcDbEntity
8
Defpoints
62
0
6
ByLayer
370
-1
48
1
60
0
100
AcDbPoint
10
43
20
-3.572
30
0
39
0
210
0
220
0
230
1
50
360
0
POINT
5
166
100
AcDbEntity
8
Defpoints
62
0
6
ByLayer
370
-1
48
1
60
0
100
AcDbPoint
10
2
20
-3.572
30
0
39
0
210
0
220
0
230
1
50
360
0
POINT
5
167
100
AcDbEntity
8
Defpoints
62
0
6
ByLayer
370
-1
48
1
60
0
100
AcDbPoint
10
2
20
-29.536929
30
0
39
0
210
0
220
0
230
1
50
360
0
ENDBLK
5
15E
100
AcDbEntity
8
0
100
AcDbBlockEnd
0
BLOCK
5
16F
100
AcDbEntity
8
0
100
AcDbBlockBegin
2
_U1
70
0
10
0
20
0
30
0
3
_U1
0
MTEXT
5
169
100
AcDbEntity
8
SK2
62
256
6
ByLayer
370
18
48
1
60
0
100
AcDbMText
10
21.084172
20
-28.651815
30
0
210
0
220
0
230
1
1
\W0.7092;41
40
3
41
0
44
1.084337
50
0
71
7
72
5
7
iso_b_vert
0
LINE
5
16A
100
AcDbEntity
8
SK2
62
256
6
ByLayer
370
13
48
1
60
0
100
AcDbLine
10
43
20
-5.1595
30
0
11
43
21
-31.536929
31
0
39
0
210
0
220
0
230
1
0
LINE
5
16B
100
AcDbEntity
8
SK2
62
256
6
ByLayer
370
13
48
1
60
0
100
AcDbLine
10
2
20
-5.1595
30
0
11
2
21
-31.536929
31
0
39
0
210
0
220
0
230
1
0
LINE
5
16C
100
AcDbEntity
8
SK2
62
256
6
ByLayer
370
13
48
1
60
0
100
AcDbLine
10
43
20
-29.536929
30
0
11
2
21
-29.536929
31
0
39
0
210
0
220
0
230
1
0
SOLID
5
16D
100
AcDbEntity
8
SK2
62
256
6
ByLayer
370
18
48
1
60
0
100
AcDbTrace
10
43
20
-29.536929
30
0
11
39.500002
21
-29.997713
31
0
12
39.499998
22
-29.076146
32
0
13
39.499998
23
-29.076146
33
0
39
0
210
0
220
0
230
1
0
SOLID
5
16E
100
AcDbEntity
8
SK2
62
256
6
ByLayer
370
18
48
1
60
0
100
AcDbTrace
10
2
20
-29.536929
30
0
11
5.499998
21
-29.076146
31
0
12
5.500002
22
-29.997713
32
0
13
5.500002
23
-29.997713
33
0
39
0
210
0
220
0
230
1
0
ENDBLK
5
170
100
AcDbEntity
8
0
100
AcDbBlockEnd
0
BLOCK
5
175
100
AcDbEntity
8
0
100
AcDbBlockBegin
2
*D5
70
1
10
0
20
0
30
0
3
*D5
0
LINE
5
177
100
AcDbEntity
8
0
62
256
6
ByLayer
370
-2
48
1
60
0
100
AcDbLine
10
-36
20
-5.5875
30
0
11
-36
21
-39.536929
31
0
39
0
210
0
220
0
230
1
0
LINE
5
178
100
AcDbEntity
8
0
62
256
6
ByLayer
370
-2
48
1
60
0
100
AcDbLine
10
0
20
-5.5875
30
0
11
0
21
-39.536929
31
0
39
0
210
0
220
0
230
1
0
LINE
5
179
100
AcDbEntity
8
0
62
256
6
ByLayer
370
-2
48
1
60
0
100
AcDbLine
10
-32.5
20
-37.536929
30
0
11
-3.5
21
-37.536929
31
0
39
0
210
0
220
0
230
1
0
SOLID
5
17A
100
AcDbEntity
8
0
62
256
6
ByLayer
370
-1
48
1
60
0
100
AcDbTrace
10
-32.5
20
-36.953596
30
0
11
-32.5
21
-38.120263
31
0
12
-36
22
-37.536929
32
0
13
-36
23
-37.536929
33
0
39
0
210
0
220
0
230
1
0
SOLID
5
17B
100
AcDbEntity
8
0
62
256
6
ByLayer
370
-1
48
1
60
0
100
AcDbTrace
10
-3.5
20
-38.120263
30
0
11
-3.5
21
-36.953596
31
0
12
0
22
-37.536929
32
0
13
0
23
-37.536929
33
0
39
0
210
0
220
0
230
1
0
MTEXT
5
17C
100
AcDbEntity
8
0
62
256
6
ByLayer
370
18
48
1
60
0
100
AcDbMText
10
-18
20
-31.536929
30
0
210
0
220
0
230
1
1
\A1;36
40
3
41
0
44
1
50
0
71
5
72
5
7
iso_b_vert
0
POINT
5
17D
100
AcDbEntity
8
Defpoints
62
0
6
ByLayer
370
-1
48
1
60
0
100
AcDbPoint
10
-36
20
-4
30
0
39
0
210
0
220
0
230
1
50
360
0
POINT
5
17E
100
AcDbEntity
8
Defpoints
62
0
6
ByLayer
370
-1
48
1
60
0
100
AcDbPoint
10
0
20
-4
30
0
39
0
210
0
220
0
230
1
50
360
0
POINT
5
17F
100
AcDbEntity
8
Defpoints
62
0
6
ByLayer
370
-1
48
1
60
0
100
AcDbPoint
10
0
20
-37.536929
30
0
39
0
210
0
220
0
230
1
50
360
0
ENDBLK
5
176
100
AcDbEntity
8
0
100
AcDbBlockEnd
0
BLOCK
5
187
100
AcDbEntity
8
0
100
AcDbBlockBegin
2
_U2
70
0
10
0
20
0
30
0
3
_U2
0
MTEXT
5
181
100
AcDbEntity
8
SK2
62
256
6
ByLayer
370
18
48
1
60
0
100
AcDbMText
10
-19.632828
20
-36.651815
30
0
210
0
220
0
230
1
1
\W0.6740;36
40
3
41
0
44
1.084337
50
0
71
7
72
5
7
iso_b_vert
0
LINE
5
182
100
AcDbEntity
8
SK2
62
256
6
ByLayer
370
13
48
1
60
0
100
AcDbLine
10
-36
20
-5.5875
30
0
11
-36
21
-39.536929
31
0
39
0
210
0
220
0
230
1
0
LINE
5
183
100
AcDbEntity
8
SK2
62
256
6
ByLayer
370
13
48
1
60
0
100
AcDbLine
10
0
20
-5.5875
30
0
11
0
21
-39.536929
31
0
39
0
210
0
220
0
230
1
0
LINE
5
184
100
AcDbEntity
8
SK2
62
256
6
ByLayer
370
13
48
1
60
0
100
AcDbLine
10
-36
20
-37.536929
30
0
11
0
21
-37.536929
31
0
39
0
210
0
220
0
230
1
0
SOLID
5
185
100
AcDbEntity
8
SK2
62
256
6
ByLayer
370
18
48
1
60
0
100
AcDbTrace
10
-36
20
-37.536929
30
0
11
-32.500002
21
-37.076146
31
0
12
-32.499998
22
-37.997713
32
0
13
-32.499998
23
-37.997713
33
0
39
0
210
0
220
0
230
1
0
SOLID
5
186
100
AcDbEntity
8
SK2
62
256
6
ByLayer
370
18
48
1
60
0
100
AcDbTrace
10
0
20
-37.536929
30
0
11
-3.499998
21
-37.997713
31
0
12
-3.500002
22
-37.076146
32
0
13
-3.500002
23
-37.076146
33
0
39
0
210
0
220
0
230
1
0
ENDBLK
5
188
100
AcDbEntity
8
0
100
AcDbBlockEnd
0
BLOCK
5
18D
100
AcDbEntity
8
0
100
AcDbBlockBegin
2
*D7
70
1
10
0
20
0
30
0
3
*D7
0
LINE
5
18F
100
AcDbEntity
8
0
62
256
6
ByLayer
370
-2
48
1
60
0
100
AcDbLine
10
-36
20
-5.5875
30
0
11
-36
21
-47.536929
31
0
39
0
210
0
220
0
230
1
0
LINE
5
190
100
AcDbEntity
8
0
62
256
6
ByLayer
370
-2
48
1
60
0
100
AcDbLine
10
43
20
-5.1595
30
0
11
43
21
-47.536929
31
0
39
0
210
0
220
0
230
1
0
LINE
5
191
100
AcDbEntity
8
0
62
256
6
ByLayer
370
-2
48
1
60
0
100
AcDbLine
10
-32.5
20
-45.536929
30
0
11
39.5
21
-45.536929
31
0
39
0
210
0
220
0
230
1
0
SOLID
5
192
100
AcDbEntity
8
0
62
256
6
ByLayer
370
-1
48
1
60
0
100
AcDbTrace
10
-32.5
20
-44.953596
30
0
11
-32.5
21
-46.120263
31
0
12
-36
22
-45.536929
32
0
13
-36
23
-45.536929
33
0
39
0
210
0
220
0
230
1
0
SOLID
5
193
100
AcDbEntity
8
0
62
256
6
ByLayer
370
-1
48
1
60
0
100
AcDbTrace
10
39.5
20
-46.120263
30
0
11
39.5
21
-44.953596
31
0
12
43
22
-45.536929
32
0
13
43
23
-45.536929
33
0
39
0
210
0
220
0
230
1
0
MTEXT
5
194
100
AcDbEntity
8
0
62
256
6
ByLayer
370
18
48
1
60
0
100
AcDbMText
10
3.5
20
-39.536929
30
0
210
0
220
0
230
1
1
\A1;79
40
3
41
0
44
1
50
0
71
5
72
5
7
iso_b_vert
0
POINT
5
195
100
AcDbEntity
8
Defpoints
62
0
6
ByLayer
370
-1
48
1
60
0
100
AcDbPoint
10
-36
20
-4
30
0
39
0
210
0
220
0
230
1
50
360
0
POINT
5
196
100
AcDbEntity
8
Defpoints
62
0
6
ByLayer
370
-1
48
1
60
0
100
AcDbPoint
10
43
20
-3.572
30
0
39
0
210
0
220
0
230
1
50
360
0
POINT
5
197
100
AcDbEntity
8
Defpoints
62
0
6
ByLayer
370
-1
48
1
60
0
100
AcDbPoint
10
43
20
-45.536929
30
0
39
0
210
0
220
0
230
1
50
360
0
ENDBLK
5
18E
100
AcDbEntity
8
0
100
AcDbBlockEnd
0
BLOCK
5
19F
100
AcDbEntity
8
0
100
AcDbBlockBegin
2
_U3
70
0
10
0
20
0
30
0
3
_U3
0
MTEXT
5
199
100
AcDbEntity
8
SK2
62
256
6
ByLayer
370
18
48
1
60
0
100
AcDbMText
10
1.867172
20
-44.651815
30
0
210
0
220
0
230
1
1
\W0.6927;79
40
3
41
0
44
1.084337
50
0
71
7
72
5
7
iso_b_vert
0
LINE
5
19A
100
AcDbEntity
8
SK2
62
256
6
ByLayer
370
13
48
1
60
0
100
AcDbLine
10
-36
20
-5.5875
30
0
11
-36
21
-47.536929
31
0
39
0
210
0
220
0
230
1
0
LINE
5
19B
100
AcDbEntity
8
SK2
62
256
6
ByLayer
370
13
48
1
60
0
100
AcDbLine
10
43
20
-5.1595
30
0
11
43
21
-47.536929
31
0
39
0
210
0
220
0
230
1
0
LINE
5
19C
100
AcDbEntity
8
SK2
62
256
6
ByLayer
370
13
48
1
60
0
100
AcDbLine
10
-36
20
-45.536929
30
0
11
43
21
-45.536929
31
0
39
0
210
0
220
0
230
1
0
SOLID
5
19D
100
AcDbEntity
8
SK2
62
256
6
ByLayer
370
18
48
1
60
0
100
AcDbTrace
10
-36
20
-45.536929
30
0
11
-32.500002
21
-45.076146
31
0
12
-32.499998
22
-45.997713
32
0
13
-32.499998
23
-45.997713
33
0
39
0
210
0
220
0
230
1
0
SOLID
5
19E
100
AcDbEntity
8
SK2
62
256
6
ByLayer
370
18
48
1
60
0
100
AcDbTrace
10
43
20
-45.536929
30
0
11
39.500002
21
-45.997713
31
0
12
39.499998
22
-45.076146
32
0
13
39.499998
23
-45.076146
33
0
39
0
210
0
220
0
230
1
0
ENDBLK
5
1A0
100
AcDbEntity
8
0
100
AcDbBlockEnd
0
BLOCK
5
1A5
100
AcDbEntity
8
0
100
AcDbBlockBegin
2
*D9
70
1
10
0
20
0
30
0
3
*D9
0
LINE
5
1A7
100
AcDbEntity
8
0
62
256
6
ByLayer
370
-2
48
1
60
0
100
AcDbLine
10
43
20
-5.1595
30
0
11
43
21
-39.536929
31
0
39
0
210
0
220
0
230
1
0
LINE
5
1A8
100
AcDbEntity
8
0
62
256
6
ByLayer
370
-2
48
1
60
0
100
AcDbLine
10
0
20
-5.1595
30
0
11
0
21
-39.536929
31
0
39
0
210
0
220
0
230
1
0
LINE
5
1A9
100
AcDbEntity
8
0
62
256
6
ByLayer
370
-2
48
1
60
0
100
AcDbLine
10
39.5
20
-37.536929
30
0
11
3.5
21
-37.536929
31
0
39
0
210
0
220
0
230
1
0
SOLID
5
1AA
100
AcDbEntity
8
0
62
256
6
ByLayer
370
-1
48
1
60
0
100
AcDbTrace
10
39.5
20
-38.120263
30
0
11
39.5
21
-36.953596
31
0
12
43
22
-37.536929
32
0
13
43
23
-37.536929
33
0
39
0
210
0
220
0
230
1
0
SOLID
5
1AB
100
AcDbEntity
8
0
62
256
6
ByLayer
370
-1
48
1
60
0
100
AcDbTrace
10
3.5
20
-36.953596
30
0
11
3.5
21
-38.120263
31
0
12
0
22
-37.536929
32
0
13
0
23
-37.536929
33
0
39
0
210
0
220
0
230
1
0
MTEXT
5
1AC
100
AcDbEntity
8
0
62
256
6
ByLayer
370
18
48
1
60
0
100
AcDbMText
10
21.5
20
-31.536929
30
0
210
0
220
0
230
1
1
\A1;43
40
3
41
0
44
1
50
0
71
5
72
5
7
iso_b_vert
0
POINT
5
1AD
100
AcDbEntity
8
Defpoints
62
0
6
ByLayer
370
-1
48
1
60
0
100
AcDbPoint
10
43
20
-3.572
30
0
39
0
210
0
220
0
230
1
50
360
0
POINT
5
1AE
100
AcDbEntity
8
Defpoints
62
0
6
ByLayer
370
-1
48
1
60
0
100
AcDbPoint
10
0
20
-3.572
30
0
39
0
210
0
220
0
230
1
50
360
0
POINT
5
1AF
100
AcDbEntity
8
Defpoints
62
0
6
ByLayer
370
-1
48
1
60
0
100
AcDbPoint
10
0
20
-37.536929
30
0
39
0
210
0
220
0
230
1
50
360
0
ENDBLK
5
1A6
100
AcDbEntity
8
0
100
AcDbBlockEnd
0
BLOCK
5
1B7
100
AcDbEntity
8
0
100
AcDbBlockBegin
2
_U4
70
0
10
0
20
0
30
0
3
_U4
0
MTEXT
5
1B1
100
AcDbEntity
8
2
62
256
6
ByLayer
370
18
48
1
60
0
100
AcDbMText
10
19.709229
20
-36.651815
30
0
210
0
220
0
230
1
1
\W0.7361;43
40
3
41
0
44
1.084337
50
0
71
7
72
5
7
iso_b_vert
0
LINE
5
1B2
100
AcDbEntity
8
2
62
256
6
ByLayer
370
13
48
1
60
0
100
AcDbLine
10
43
20
-5.1595
30
0
11
43
21
-39.536929
31
0
39
0
210
0
220
0
230
1
0
LINE
5
1B3
100
AcDbEntity
8
2
62
256
6
ByLayer
370
13
48
1
60
0
100
AcDbLine
10
0
20
-5.1595
30
0
11
0
21
-39.536929
31
0
39
0
210
0
220
0
230
1
0
LINE
5
1B4
100
AcDbEntity
8
2
62
256
6
ByLayer
370
13
48
1
60
0
100
AcDbLine
10
43
20
-37.536929
30
0
11
0
21
-37.536929
31
0
39
0
210
0
220
0
230
1
0
SOLID
5
1B5
100
AcDbEntity
8
2
62
256
6
ByLayer
370
18
48
1
60
0
100
AcDbTrace
10
43
20
-37.536929
30
0
11
39.500002
21
-37.997713
31
0
12
39.499998
22
-37.076146
32
0
13
39.499998
23
-37.076146
33
0
39
0
210
0
220
0
230
1
0
SOLID
5
1B6
100
AcDbEntity
8
2
62
256
6
ByLayer
370
18
48
1
60
0
100
AcDbTrace
10
0
20
-37.536929
30
0
11
3.499998
21
-37.076146
31
0
12
3.500002
22
-37.997713
32
0
13
3.500002
23
-37.997713
33
0
39
0
210
0
220
0
230
1
0
ENDBLK
5
1B8
100
AcDbEntity
8
0
100
AcDbBlockEnd
0
ENDSEC
0
SECTION
2
ENTITIES
0
ARC
5
BD
100
AcDbEntity
8
1
62
256
6
ByLayer
370
18
48
1
60
0
100
AcDbCircle
39
0
10
1.162813
20
-4.299029
30
0
40
0.799999999999999
210
0
220
0
230
1
100
AcDbArc
50
89.896868
51
136.615321
0
ARC
5
BE
100
AcDbEntity
8
1
62
256
6
ByLayer
370
18
48
1
60
0
100
AcDbCircle
39
0
10
1.162813
20
4.299029
30
0
40
0.799999999999999
210
0
220
0
230
1
100
AcDbArc
50
223.384679
51
270.103132
0
ARC
5
BF
100
AcDbEntity
8
1
62
256
6
ByLayer
370
18
48
1
60
0
100
AcDbCircle
39
0
10
0
20
-3.2
30
0
40
0.8
210
0
220
0
230
1
100
AcDbArc
50
270
51
316.615321
0
ARC
5
C0
100
AcDbEntity
8
1
62
256
6
ByLayer
370
18
48
1
60
0
100
AcDbCircle
39
0
10
0
20
3.2
30
0
40
0.8
210
0
220
0
230
1
100
AcDbArc
50
43.384679
51
90
0
ARC
5
C1
100
AcDbEntity
8
SK2
62
256
6
ByLayer
370
13
48
1
60
0
100
AcDbCircle
39
0
10
43
20
0
30
0
40
19.3249205115982
210
0
220
0
230
1
100
AcDbArc
50
8.930714
51
70.00144
0
ARC
5
C2
100
AcDbEntity
8
SK2
62
256
6
ByLayer
370
13
48
1
60
0
100
AcDbCircle
39
0
10
43
20
0
30
0
40
19.3249205115982
210
0
220
0
230
1
100
AcDbArc
50
289.99856
51
351.069286
0
ELLIPSE
5
C3
100
AcDbEntity
8
1
62
256
6
ByLayer
370
13
48
1
60
0
100
AcDbEllipse
10
20.360105
20
-3.413827
30
0
11
-0.00425786655463625
21
0.0090482358724179
31
0
210
0
220
0
230
1
40
0.421353
41
0.0443842154981516
42
1.41615318597059
0
ELLIPSE
5
C4
100
AcDbEntity
8
1
62
256
6
ByLayer
370
18
48
1
60
0
100
AcDbEllipse
10
20.400154
20
-3.405381
30
0
11
-0.000219347686275815
21
-0.00999759404019414
31
0
210
0
220
0
230
1
40
0.440867
41
-3.09801934517174
42
-1.5284751161176
0
ELLIPSE
5
C5
100
AcDbEntity
8
1
62
256
6
ByLayer
370
13
48
1
60
0
100
AcDbEllipse
10
8.224459
20
-57.932354
30
0
11
-53.1673285559616
21
52.8637221705839
31
0
210
0
220
0
230
1
40
0.659649
41
-0.980617807016262
42
-0.946898215157622
0
ELLIPSE
5
C6
100
AcDbEntity
8
1
62
256
6
ByLayer
370
13
48
1
60
0
100
AcDbEllipse
10
8.190415
20
-57.966594
30
0
11
-53.1688652463976
21
52.8652500859123
31
0
210
0
220
0
230
1
40
0.659649
41
-0.985967956294043
42
-0.9455481939081
0
ELLIPSE
5
C7
100
AcDbEntity
8
1
62
256
6
ByLayer
370
13
48
1
60
0
100
AcDbEllipse
10
8.192979
20
-57.964015
30
0
11
-53.171202435287
21
52.8675739285326
31
0
210
0
220
0
230
1
40
0.659649
41
-0.985475372924112
42
-0.945628888998021
0
ELLIPSE
5
C8
100
AcDbEntity
8
1
62
256
6
ByLayer
370
13
48
1
60
0
100
AcDbEllipse
10
8.221729
20
-57.935099
30
0
11
-53.1698763785284
21
52.8662554440804
31
0
210
0
220
0
230
1
40
0.659649
41
-0.981616136229702
42
-0.946769215527802
0
POINT
5
70
100
AcDbEntity
8
81
62
256
6
ByLayer
370
18
48
1
60
0
100
AcDbPoint
10
43
20
0
30
0
39
0
210
0
220
0
230
1
50
360
0
POINT
5
72
100
AcDbEntity
8
80
62
256
6
ByLayer
370
18
48
1
60
0
100
AcDbPoint
10
0
20
0
30
0
39
0
210
0
220
0
230
1
50
360
0
POINT
5
74
100
AcDbEntity
8
1
62
256
6
ByLayer
370
18
48
1
60
0
100
AcDbPoint
10
-215.01254
20
-174.755925
30
0
39
0
210
0
220
0
230
1
50
360
0
POINT
5
76
100
AcDbEntity
8
1
62
256
6
ByLayer
370
13
48
1
60
1
100
AcDbPoint
10
-37.5
20
0
30
0
39
0
210
0
220
0
230
1
50
360
0
POINT
5
77
100
AcDbEntity
8
1
62
256
6
ByLayer
370
13
48
1
60
1
100
AcDbPoint
10
43.187404
20
0
30
0
39
0
210
0
220
0
230
1
50
360
0
POINT
5
78
100
AcDbEntity
8
1
62
256
6
ByLayer
370
18
48
1
60
1
100
AcDbPoint
10
43
20
-3.572
30
0
39
0
210
0
220
0
230
1
50
360
0
POINT
5
79
100
AcDbEntity
8
1
62
256
6
ByLayer
370
18
48
1
60
1
100
AcDbPoint
10
20.3
20
-3.572
30
0
39
0
210
0
220
0
230
1
50
360
0
POINT
5
7A
100
AcDbEntity
8
1
62
256
6
ByLayer
370
18
48
1
60
1
100
AcDbPoint
10
43
20
-3.572
30
0
39
0
210
0
220
0
230
1
50
360
0
POINT
5
7B
100
AcDbEntity
8
1
62
256
6
ByLayer
370
18
48
1
60
1
100
AcDbPoint
10
2
20
-3.572
30
0
39
0
210
0
220
0
230
1
50
360
0
POINT
5
7C
100
AcDbEntity
8
1
62
256
6
ByLayer
370
18
48
1
60
1
100
AcDbPoint
10
-36
20
-4
30
0
39
0
210
0
220
0
230
1
50
360
0
POINT
5
7D
100
AcDbEntity
8
1
62
256
6
ByLayer
370
18
48
1
60
1
100
AcDbPoint
10
0
20
-4
30
0
39
0
210
0
220
0
230
1
50
360
0
POINT
5
7E
100
AcDbEntity
8
1
62
256
6
ByLayer
370
18
48
1
60
1
100
AcDbPoint
10
-36
20
-4
30
0
39
0
210
0
220
0
230
1
50
360
0
POINT
5
7F
100
AcDbEntity
8
1
62
256
6
ByLayer
370
18
48
1
60
1
100
AcDbPoint
10
43
20
-3.572
30
0
39
0
210
0
220
0
230
1
50
360
0
POINT
5
80
100
AcDbEntity
8
1
62
256
6
ByLayer
370
18
48
1
60
1
100
AcDbPoint
10
43
20
-3.572
30
0
39
0
210
0
220
0
230
1
50
360
0
POINT
5
81
100
AcDbEntity
8
1
62
256
6
ByLayer
370
18
48
1
60
1
100
AcDbPoint
10
0
20
-3.572
30
0
39
0
210
0
220
0
230
1
50
360
0
SPLINE
5
C9
100
AcDbEntity
8
1
62
256
6
ByLayer
370
18
48
1
60
0
100
AcDbSpline
70
4
71
3
72
22
73
18
40
0
40
0
40
0
40
0
40
0.500000000000152
40
0.500000000000152
40
0.750000000000228
40
0.750000000000228
40
0.875000000000216
40
0.875000000000216
40
0.937500000000208
40
0.937500000000208
40
0.968750000000155
40
0.968750000000155
40
0.98437500000008
40
0.98437500000008
40
0.99218750000004
40
0.99218750000004
40
1
40
1
40
1
40
1
41
1
10
41.6420059387124
20
3.57187175207912
30
0
41
1
10
41.6575004480639
20
3.54670971885753
30
0
41
1
10
41.6730058321314
20
3.52143333159251
30
0
41
1
10
41.696222217169
20
3.48346957914475
30
0
41
1
10
41.7039487664388
20
3.47081746394457
30
0
41
1
10
41.7156017494155
20
3.45167177639425
30
0
41
1
10
41.7195095239166
20
3.44523505640242
30
0
41
1
10
41.7253105997382
20
3.43569877761871
30
0
41
1
10
41.7272181057134
20
3.43257283672753
30
0
41
1
10
41.7300944324475
20
3.42785034297953
30
0
41
1
10
41.7310631137911
20
3.42625548593531
30
0
41
1
10
41.7325445372109
20
3.42380257389158
30
0
41
1
10
41.7330458746424
20
3.42296866165998
30
0
41
1
10
41.733792594912
20
3.42172915623126
30
0
41
1
10
41.7340404251683
20
3.42131839926222
30
0
41
1
10
41.7345015588095
20
3.42056822077123
30
0
41
1
10
41.7347067293786
20
3.42024727350358
30
0
41
1
10
41.7347746316047
20
3.42017120795893
30
0
0
SPLINE
5
CA
100
AcDbEntity
8
1
62
256
6
ByLayer
370
18
48
1
60
0
100
AcDbSpline
70
4
71
3
72
8
73
4
40
0
40
0
40
0
40
0
40
1
40
1
40
1
40
1
41
1
10
42.6057590746202
20
1.23762164350663
30
0
41
1
10
42.7073911279643
20
0.952626579394519
30
0
41
1
10
42.8081039436974
20
0.667309784010598
30
0
41
1
10
42.907877427512
20
0.381664224388572
30
0
0
SPLINE
5
CB
100
AcDbEntity
8
1
62
256
6
ByLayer
370
18
48
1
60
0
100
AcDbSpline
70
4
71
3
72
18
73
14
40
0
40
0
40
0
40
0
40
0.250000000000014
40
0.250000000000014
40
0.375000000000018
40
0.375000000000018
40
0.500000000000023
40
0.500000000000023
40
0.750000000000026
40
0.750000000000026
40
0.875000000000013
40
0.875000000000013
40
1
40
1
40
1
40
1
41
1
10
20.3556816942244
20
-3.41420585303041
30
0
41
1
10
20.3460067428347
20
-3.41828325692904
30
0
41
1
10
20.3378225695149
20
-3.42333090747232
30
0
41
1
10
20.3272105469654
20
-3.43197371587024
30
0
41
1
10
20.3239876886937
20
-3.43502139167887
30
0
41
1
10
20.3182327489749
20
-3.44126781140784
30
0
41
1
10
20.3156753358726
20
-3.44448745366301
30
0
41
1
10
20.3088709396336
20
-3.45440561138912
30
0
41
1
10
20.3054749445769
20
-3.46142380744303
30
0
41
1
10
20.3021331662387
20
-3.47201391046355
30
0
41
1
10
20.3013020522745
20
-3.47556751025311
30
0
41
1
10
20.3001900786723
20
-3.48272009234117
30
0
41
1
10
20.2999100203699
20
-3.48634964288394
30
0
41
1
10
20.2999100203699
20
-3.48992611950115
30
0
0
SPLINE
5
CC
100
AcDbEntity
8
1
62
256
6
ByLayer
370
18
48
1
60
0
100
AcDbSpline
70
4
71
3
72
10
73
6
40
0
40
0
40
0
40
0
40
0.5
40
0.5
40
1
40
1
40
1
40
1
41
1
10
20.3957413947137
20
-3.40570753646824
30
0
41
1
10
20.3888191272524
20
-3.40556478420788
30
0
41
1
10
20.3820131282344
20
-3.40620720215378
30
0
41
1
10
20.3686331823559
20
-3.40902200533199
30
0
41
1
10
20.3620117482174
20
-3.41122037930961
30
0
41
1
10
20.3556816942244
20
-3.41420585303041
30
0
0
SPLINE
5
CD
100
AcDbEntity
8
1
62
256
6
ByLayer
370
13
48
1
60
0
100
AcDbSpline
70
4
71
3
72
8
73
4
40
0
40
0
40
0
40
0
40
1
40
1
40
1
40
1
41
1
10
20.3544599133489
20
-3.53036667175454
30
0
41
1
10
20.3548630052477
20
-3.49164658585431
30
0
41
1
10
20.3552702658427
20
-3.45292631528133
30
0
41
1
10
20.3556816942244
20
-3.41420585303041
30
0
0
SPLINE
5
CE
100
AcDbEntity
8
1
62
256
6
ByLayer
370
18
48
1
60
0
100
AcDbSpline
70
4
71
3
72
8
73
4
40
0
40
0
40
0
40
0
40
1
40
1
40
1
40
1
41
1
10
41.694002001051
20
3.42837401175751
30
0
41
1
10
41.6396309570814
20
3.42555035823463
30
0
41
1
10
41.5852677385281
20
3.42240572430276
30
0
41
1
10
41.5309094684492
20
3.41894169881374
30
0
0
SPLINE
5
CF
100
AcDbEntity
8
1
62
256
6
ByLayer
370
18
48
1
60
0
100
AcDbSpline
70
4
71
3
72
8
73
4
40
0
40
0
40
0
40
0
40
1
40
1
40
1
40
1
41
1
10
21.1131361839366
20
-3.40190785176506
30
0
41
1
10
20.8744152828435
20
-3.40934538060279
30
0
41
1
10
20.6353634308337
20
-3.41064906573953
30
0
41
1
10
20.3957413947137
20
-3.40570753646824
30
0
0
SPLINE
5
D0
100
AcDbEntity
8
1
62
256
6
ByLayer
370
18
48
1
60
0
100
AcDbSpline
70
4
71
3
72
8
73
4
40
0
40
0
40
0
40
0
40
1
40
1
40
1
40
1
41
1
10
42.9078774275121
20
0.381664224388572
30
0
41
1
10
42.9375602201607
20
0.296684151596878
30
0
41
1
10
42.9679327404235
20
0.212091551622308
30
0
41
1
10
42.9989951402423
20
0.127870946295275
30
0
0
SPLINE
5
D1
100
AcDbEntity
8
1
62
256
6
ByLayer
370
13
48
1
60
0
100
AcDbSpline
70
4
71
3
72
47
73
43
40
0
40
0
40
0
40
0
40
0.0075653351304519
40
0.0399521167891035
40
0.0561455076184296
40
0.0723388984477557
40
0.104725680106408
40
0.137112461765059
40
0.169499243423712
40
0.185692634253038
40
0.201886025082364
40
0.234272806741016
40
0.266659588399668
40
0.29904637005832
40
0.315239760887646
40
0.331433151716972
40
0.363819933375624
40
0.396206715034277
40
0.428593496692929
40
0.444786887522254
40
0.460980278351581
40
0.493367060010233
40
0.525753841668885
40
0.558140623327537
40
0.574334014156863
40
0.590527404986189
40
0.622914186644841
40
0.655300968303493
40
0.687687749962145
40
0.703881140791472
40
0.720074531620797
40
0.752461313279449
40
0.7848480949381
40
0.817234876596754
40
0.83342826742608
40
0.849621658255405
40
0.882008439914058
40
0.91439522157271
40
0.946782003231362
40
0.962975394060688
40
0.979168784890014
40
1
40
1
40
1
40
1
41
1
10
34.3360657571984
20
-1.72557359395375
30
0
41
1
10
34.3048702080762
20
-1.72701554331866
30
0
41
1
10
34.1400954454458
20
-1.73442932922137
30
0
41
1
10
33.908300329661
20
-1.74341210791329
30
0
41
1
10
33.6409680797958
20
-1.75134389408538
30
0
41
1
10
33.3745447362104
20
-1.7553164904792
30
0
41
1
10
33.0414738055911
20
-1.75592221485684
30
0
41
1
10
32.6410190211078
20
-1.75210673840382
30
0
41
1
10
32.3067553456495
20
-1.74586173305991
30
0
41
1
10
32.039421791462
20
-1.73838791069278
30
0
41
1
10
31.7729937410249
20
-1.7265106960611
30
0
41
1
10
31.4399126664062
20
-1.70742328452408
30
0
41
1
10
31.0394450745978
20
-1.6803807732793
30
0
41
1
10
30.7051753296604
20
-1.65525097399808
30
0
41
1
10
30.4378430797984
20
-1.63277141735884
30
0
41
1
10
30.1714197362118
20
-1.60568720116069
30
0
41
1
10
29.8383488055897
20
-1.56794594264292
30
0
41
1
10
29.4378940211012
20
-1.51914336691618
30
0
41
1
10
29.1036303456383
20
-1.47648054338347
30
0
41
1
10
28.8362967914493
20
-1.44019440493841
30
0
41
1
10
28.5698687410137
20
-1.39934279955511
30
0
41
1
10
28.2367876663986
20
-1.34494970596467
30
0
41
1
10
27.8363200745956
20
-1.2769772116298
30
0
41
1
10
27.5020503296588
20
-1.21904755652559
30
0
41
1
10
27.2347180797957
20
-1.17088333374753
30
0
41
1
10
26.9682947362101
20
-1.11843718299099
30
0
41
1
10
26.6352238055893
20
-1.05028462866355
30
0
41
1
10
26.2347690211033
20
-0.96675645489276
30
0
41
1
10
25.9005053456442
20
-0.896646335932019
30
0
41
1
10
25.6331717914572
20
-0.839177606866116
30
0
41
1
10
25.3667437410205
20
-0.777941296682116
30
0
41
1
10
25.0336626664025
20
-0.699679515681368
30
0
41
1
10
24.6331950745946
20
-0.60506931329914
30
0
41
1
10
24.298925329655
20
-0.52652041413748
30
0
41
1
10
24.0315930797913
20
-0.462798802820345
30
0
41
1
10
23.7651697362055
20
-0.396018337110462
30
0
41
1
10
23.4320988055856
20
-0.311784622414791
30
0
41
1
10
23.0316440211012
20
-0.211093949363942
30
0
41
1
10
22.6973803456423
20
-0.128278278846182
30
0
41
1
10
22.4300467914554
20
-0.0617106540262853
30
0
41
1
10
22.2111493525193
20
-0.0052296175385891
30
0
41
1
10
22.0588428908753
20
0.0339756756226848
30
0
41
1
10
21.9731144815256
20
0.0559591812164228
30
0
0
SPLINE
5
D2
100
AcDbEntity
8
1
62
256
6
ByLayer
370
18
48
1
60
0
100
AcDbSpline
70
4
71
3
72
32
73
28
40
0
40
0
40
0
40
0
40
0.0051874126736319
40
0.0051874126736319
40
0.1473034965774
40
0.1473034965774
40
0.218361538529284
40
0.218361538529284
40
0.253890559505226
40
0.253890559505226
40
0.289419580481168
40
0.289419580481168
40
0.431535664384965
40
0.431535664384965
40
0.502593706336881
40
0.502593706336881
40
0.538122727312821
40
0.538122727312821
40
0.573651748288761
40
0.573651748288761
40
0.715767832192521
40
0.715767832192521
40
0.786825874144401
40
0.786825874144401
40
0.857883916096282
40
0.857883916096282
40
1
40
1
40
1
40
1
41
1
10
41.3726041127733
20
0.774687287789675
30
0
41
1
10
41.3733939808567
20
0.775432994985579
30
0
41
1
10
41.3741865837329
20
0.776180296993829
30
0
41
1
10
41.3967714392932
20
0.797445808817088
30
0
41
1
10
41.4206239150109
20
0.819130027657451
30
0
41
1
10
41.4598072133342
20
0.853080672174656
30
0
41
1
10
41.4734349871635
20
0.864638938369012
30
0
41
1
10
41.4947924931757
20
0.882298779901276
30
0
41
1
10
41.5020633726
20
0.888237509822119
30
0
41
1
10
41.5167872224657
20
0.900103996096618
30
0
41
1
10
41.524256273033
20
0.90604504158614
30
0
41
1
10
41.5621567633123
20
0.935749057978825
30
0
41
1
10
41.5942379272617
20
0.959521596043544
30
0
41
1
10
41.6455723994159
20
0.994270036194365
30
0
41
1
10
41.6632250985651
20
1.00569486425479
30
0
41
1
10
41.6905639675684
20
1.02252533097055
30
0
41
1
10
41.6998205316664
20
1.02808405550715
30
0
41
1
10
41.7186334704068
20
1.0390819978241
30
0
41
1
10
41.7281916874867
20
1.04452066762622
30
0
41
1
10
41.7762590635736
20
1.07104126144495
30
0
41
1
10
41.8160129749692
20
1.09031143386124
30
0
41
1
10
41.8778839085682
20
1.11536655059402
30
0
41
1
10
41.8988785407701
20
1.12308252243651
30
0
41
1
10
41.9416428513226
20
1.137128476991
30
0
41
1
10
41.9634741870835
20
1.14347355047596
30
0
41
1
10
42.0297524739615
20
1.16018306541929
30
0
41
1
10
42.0744094274041
20
1.16808752023417
30
0
41
1
10
42.1195244547181
20
1.17299844473581
30
0
0
SPLINE
5
D3
100
AcDbEntity
8
1
62
256
6
ByLayer
370
18
48
1
60
0
100
AcDbSpline
70
4
71
3
72
10
73
6
40
0
40
0
40
0
40
0
40
0.5
40
0.5
40
1
40
1
40
1
40
1
41
1
10
42.1195244547183
20
1.17299844473411
30
0
41
1
10
42.2008126169265
20
1.18184693826819
30
0
41
1
10
42.282011911315
20
1.19138755486759
30
0
41
1
10
42.4441262619801
20
1.21268250000694
30
0
41
1
10
42.5250747480825
20
1.2244181325006
30
0
41
1
10
42.6057590746199
20
1.23762164350825
30
0
0
SPLINE
5
D4
100
AcDbEntity
8
1
62
256
6
ByLayer
370
18
48
1
60
0
100
AcDbSpline
70
4
71
3
72
14
73
10
40
0
40
0
40
0
40
0
40
0.5
40
0.5
40
0.749999999999989
40
0.749999999999989
40
0.874999999999995
40
0.874999999999995
40
1
40
1
40
1
40
1
41
1
10
42.2812178183382
20
1.97182579086541
30
0
41
1
10
42.3308962447077
20
1.8417166866227
30
0
41
1
10
42.3823966798825
20
1.71539495462187
30
0
41
1
10
42.4632379122276
20
1.53171106523257
30
0
41
1
10
42.490783205643
20
1.47145332248044
30
0
41
1
10
42.5331175008543
20
1.38258733423262
30
0
41
1
10
42.5473992376152
20
1.35322068075686
30
0
41
1
10
42.5763211460558
20
1.29500622210759
30
0
41
1
10
42.5909879246048
20
1.26610642698174
30
0
41
1
10
42.6057590746205
20
1.23762164350654
30
0
0
SPLINE
5
D5
100
AcDbEntity
8
1
62
256
6
ByLayer
370
13
48
1
60
0
100
AcDbSpline
70
4
71
3
72
48
73
44
40
0
40
0
40
0
40
0
40
0.0053372936892542
40
0.0369032072519301
40
0.0684691208146046
40
0.0842520775959422
40
0.10003503437728
40
0.131600947939955
40
0.163166861502629
40
0.194732775065305
40
0.210515731846642
40
0.22629868862798
40
0.257864602190655
40
0.28943051575333
40
0.320996429316005
40
0.336779386097342
40
0.35256234287868
40
0.384128256441354
40
0.41569417000403
40
0.447260083566705
40
0.463043040348042
40
0.47882599712938
40
0.510391910692055
40
0.54195782425473
40
0.573523737817405
40
0.589306694598743
40
0.60508965138008
40
0.636655564942755
40
0.66822147850543
40
0.699787392068105
40
0.715570348849443
40
0.73135330563078
40
0.762919219193455
40
0.794485132756129
40
0.826051046318805
40
0.841834003100143
40
0.85761695988148
40
0.889182873444155
40
0.92074878700683
40
0.952314700569505
40
0.968097657350843
40
0.98388061413218
40
1
40
1
40
1
40
1
41
1
10
29.7098934251293
20
0.482556611663824
30
0
41
1
10
29.6873299519958
20
0.488787725260664
30
0
41
1
10
29.5313163597202
20
0.531818463808207
30
0
41
1
10
29.241781190248
20
0.610921336220969
30
0
41
1
10
28.9080149862247
20
0.700529522143654
30
0
41
1
10
28.6410661477672
20
0.770843516573308
30
0
41
1
10
28.3742298055237
20
0.840221803780338
30
0
41
1
10
28.0406660777512
20
0.925565813005647
30
0
41
1
10
27.6402191374477
20
1.024843751324
30
0
41
1
10
27.306453835585
20
1.10455727069362
30
0
41
1
10
27.0395052552807
20
1.16621759030153
30
0
41
1
10
26.7726686849627
20
1.2267539177642
30
0
41
1
10
26.4391042472931
20
1.30030415221395
30
0
41
1
10
26.0386561902368
20
1.38420222530871
30
0
41
1
10
25.7048899862227
20
1.44979065453663
30
0
41
1
10
25.4379411477738
20
1.49950888598178
30
0
41
1
10
25.1711048055347
20
1.54796597671975
30
0
41
1
10
24.8375410777667
20
1.6057752398271
30
0
41
1
10
24.437094137465
20
1.6697855106269
30
0
41
1
10
24.1033288356002
20
1.71773420889139
30
0
41
1
10
23.8363802552934
20
1.75286150834702
30
0
41
1
10
23.5695436849739
20
1.78666760061594
30
0
41
1
10
23.2359792473021
20
1.82568276655576
30
0
41
1
10
22.8355311902423
20
1.86643304950678
30
0
41
1
10
22.5017649862219
20
1.89421073383463
30
0
41
1
10
22.2348161477675
20
1.91287917021322
30
0
41
1
10
21.9679798055256
20
1.93022620686062
30
0
41
1
10
21.6344160777551
20
1.94834542639799
30
0
41
1
10
21.233969137453
20
1.96362887382159
30
0
41
1
10
20.9002038355914
20
1.96973079077247
30
0
41
1
10
20.6332552552875
20
1.9709390085568
30
0
41
1
10
20.3664186849688
20
1.97090660849204
30
0
41
1
10
20.0328542472975
20
1.96718315995926
30
0
41
1
10
19.6324061902376
20
1.95621727144018
30
0
41
1
10
19.2986399862181
20
1.94034352033182
30
0
41
1
10
19.0316911477651
20
1.92403683228537
30
0
41
1
10
18.7648548055244
20
1.90662633034967
30
0
41
1
10
18.4312910777557
20
1.88124565835577
30
0
41
1
10
18.0308441374555
20
1.84458869967682
30
0
41
1
10
17.6970788355939
20
1.80756081229089
30
0
41
1
10
17.4301302552897
20
1.77459590180518
30
0
41
1
10
17.2285808572667
20
1.74901738056693
30
0
41
1
10
17.0937355015705
20
1.73099266094209
30
0
41
1
10
17.0255973852607
20
1.72164786848219
30
0
0
SPLINE
5
D6
100
AcDbEntity
8
1
62
256
6
ByLayer
370
13
48
1
60
0
100
AcDbSpline
70
4
71
3
72
19
73
15
40
0
40
0
40
0
40
0
40
0.0649528486581346
40
0.17956430531786
40
0.236870033647723
40
0.294175761977585
40
0.408787218637311
40
0.523398675297036
40
0.638010131956761
40
0.695315860286624
40
0.752621588616487
40
0.867233045276212
40
0.981844501935937
40
1
40
1
40
1
40
1
41
1
10
42.2812178183382
20
1.97182579086538
30
0
41
1
10
42.2055741401029
20
1.9718920945389
30
0
41
1
10
41.9964357860363
20
1.97101004827235
30
0
41
1
10
41.7205149862205
20
1.96548356344331
30
0
41
1
10
41.4535661477767
20
1.95647416254295
30
0
41
1
10
41.1867298055402
20
1.94629371335708
30
0
41
1
10
40.8531660777746
20
1.92989656379368
30
0
41
1
10
40.4527191374731
20
1.90385117135077
30
0
41
1
10
40.118953835605
20
1.87551544108615
30
0
41
1
10
39.8520052552945
20
1.84937190055305
30
0
41
1
10
39.5851686849717
20
1.82223877477031
30
0
41
1
10
39.2516042472956
20
1.78484015368147
30
0
41
1
10
38.9634940033893
20
1.74833158247762
30
0
41
1
10
38.8088504791592
20
1.7270823746496
30
0
41
1
10
38.7877032570227
20
1.72414643880538
30
0
0
SPLINE
5
D7
100
AcDbEntity
8
1
62
256
6
ByLayer
370
18
48
1
60
0
100
AcDbSpline
70
4
71
3
72
8
73
4
40
0
40
0
40
0
40
0
40
1
40
1
40
1
40
1
41
1
10
42.2061336610509
20
2.17499007088861
30
0
41
1
10
42.2304780723086
20
2.10698159800802
30
0
41
1
10
42.2555042867867
20
2.03917020576174
30
0
41
1
10
42.2812178183382
20
1.97182579086541
30
0
0
SPLINE
5
D8
100
AcDbEntity
8
1
62
256
6
ByLayer
370
18
48
1
60
0
100
AcDbSpline
70
4
71
3
72
18
73
14
40
0
40
0
40
0
40
0
40
0.125000000000009
40
0.125000000000009
40
0.250000000000018
40
0.250000000000018
40
0.500000000000034
40
0.500000000000034
40
0.75000000000005
40
0.75000000000005
40
0.875000000000025
40
0.875000000000025
40
1
40
1
40
1
40
1
41
1
10
42.370534028603
20
-0.50668011208424
30
0
41
1
10
42.3679683635034
20
-0.507859688543164
30
0
41
1
10
42.3660505145386
20
-0.509467450337638
30
0
41
1
10
42.3635123842777
20
-0.513542670358532
30
0
41
1
10
42.3628925019311
20
-0.516022091255024
30
0
41
1
10
42.3629941466715
20
-0.524690213728348
30
0
41
1
10
42.3656260968185
20
-0.531872832348313
30
0
41
1
10
42.3748484817712
20
-0.548444690233424
30
0
41
1
10
42.3812881040514
20
-0.55757146695862
30
0
41
1
10
42.3927723312487
20
-0.572079524656886
30
0
41
1
10
42.3969136266515
20
-0.577059411553194
30
0
41
1
10
42.4057328679342
20
-0.587271211511705
30
0
41
1
10
42.4104262970765
20
-0.592519422033945
30
0
41
1
10
42.415304170899
20
-0.597826972973735
30
0
0
SPLINE
5
D9
100
AcDbEntity
8
1
62
256
6
ByLayer
370
18
48
1
60
0
100
AcDbSpline
70
4
71
3
72
8
73
4
40
0
40
0
40
0
40
0
40
1
40
1
40
1
40
1
41
1
10
20.4001814823938
20
-3.39538885201102
30
0
41
1
10
20.5374187929401
20
-3.39839203864659
30
0
41
1
10
20.6744697216022
20
-3.39935158864782
30
0
41
1
10
20.8113791987293
20
-3.3982883058585
30
0
0
SPLINE
5
DA
100
AcDbEntity
8
1
62
256
6
ByLayer
370
18
48
1
60
0
100
AcDbSpline
70
4
71
3
72
8
73
4
40
0
40
0
40
0
40
0
40
1
40
1
40
1
40
1
41
1
10
41.7347746316048
20
-3.42017120795893
30
0
41
1
10
41.7651407118062
20
-3.36744752422123
30
0
41
1
10
41.7955245222985
20
-3.31471385066584
30
0
41
1
10
41.8259219737339
20
-3.2619784065559
30
0
0
SPLINE
5
DB
100
AcDbEntity
8
1
62
256
6
ByLayer
370
18
48
1
60
0
100
AcDbSpline
70
4
71
3
72
8
73
4
40
0
40
0
40
0
40
0
40
1
40
1
40
1
40
1
41
1
10
20.2999100203699
20
3.52197510607536
30
0
41
1
10
20.2999100203699
20
3.48588479963257
30
0
41
1
10
20.2999100203699
20
3.44955589339122
30
0
41
1
10
20.2999100203699
20
3.41299121957405
30
0
0
SPLINE
5
DC
100
AcDbEntity
8
1
62
256
6
ByLayer
370
18
48
1
60
0
100
AcDbSpline
70
4
71
3
72
48
73
44
40
0
40
0
40
0
40
0
40
0.0192119886138421
40
0.0503238735497941
40
0.0814357584857448
40
0.0969917009537204
40
0.112547643421696
40
0.143659528357647
40
0.174771413293598
40
0.205883298229549
40
0.221439240697525
40
0.2369951831655
40
0.268107068101451
40
0.299218953037402
40
0.330330837973353
40
0.345886780441329
40
0.361442722909305
40
0.392554607845255
40
0.423666492781207
40
0.454778377717158
40
0.470334320185133
40
0.485890262653109
40
0.51700214758906
40
0.548114032525011
40
0.579225917460962
40
0.594781859928938
40
0.610337802396913
40
0.641449687332864
40
0.672561572268816
40
0.703673457204766
40
0.719229399672743
40
0.734785342140718
40
0.765897227076669
40
0.797009112012619
40
0.828120996948571
40
0.843676939416546
40
0.859232881884522
40
0.890344766820473
40
0.921456651756424
40
0.952568536692375
40
0.968124479160351
40
0.983680421628326
40
1
40
1
40
1
40
1
41
1
10
29.5460626947877
20
0.563690733721046
30
0
41
1
10
29.4636614252437
20
0.588672414817466
30
0
41
1
10
29.2478086134159
20
0.653833267781636
30
0
41
1
10
28.8984174475867
20
0.75777391836337
30
0
41
1
10
28.5646860955178
20
0.855185066950213
30
0
41
1
10
28.2977634085579
20
0.931503737815291
30
0
41
1
10
28.030898462462
20
1.00656661585981
30
0
41
1
10
27.6973006886515
20
1.09864390342312
30
0
41
1
10
27.2968546415104
20
1.2055108386476
30
0
41
1
10
26.9631238358977
20
1.29115898838083
30
0
41
1
10
26.6962015133027
20
1.35726896129842
30
0
41
1
10
26.4293366466519
20
1.42188541900319
30
0
41
1
10
26.0957388098717
20
1.50011174735837
30
0
41
1
10
25.6952924475751
20
1.5890587600264
30
0
41
1
10
25.3615610955158
20
1.65839702880024
30
0
41
1
10
25.0946384085648
20
1.71077273359953
30
0
41
1
10
24.8277734624737
20
1.76148806849727
30
0
41
1
10
24.4941756886682
20
1.82166691499097
30
0
41
1
10
24.0937296415293
20
1.88791658015697
30
0
41
1
10
23.7599988359147
20
1.93723021380967
30
0
41
1
10
23.4930765133172
20
1.97308132689432
30
0
41
1
10
23.2262116466647
20
2.00720382879908
30
0
41
1
10
22.8926138098818
20
2.04615683097808
30
0
41
1
10
22.4921674475811
20
2.08621926150349
30
0
41
1
10
22.158436095515
20
2.11290520012071
30
0
41
1
10
21.8915134085582
20
2.1303251316304
30
0
41
1
10
21.6246484624641
20
2.14602923477131
30
0
41
1
10
21.2910506886559
20
2.1616561009495
30
0
41
1
10
20.8906046415164
20
2.1733584726739
30
0
41
1
10
20.556873835905
20
2.17596863112493
30
0
41
1
10
20.2899515133103
20
2.17402262977512
30
0
41
1
10
20.0230866466588
20
2.17047638868902
30
0
41
1
10
19.6894888098766
20
2.16196558962844
30
0
41
1
10
19.2890424475762
20
2.1447196883662
30
0
41
1
10
18.9553110955111
20
2.12314216282209
30
0
41
1
10
18.688388408556
20
2.1019435092677
30
0
41
1
10
18.4215234624631
20
2.07933434850389
30
0
41
1
10
18.0879256886568
20
2.0471234424962
30
0
41
1
10
17.6874796415192
20
2.0018179149628
30
0
41
1
10
17.3537488359077
20
1.95717577176751
30
0
41
1
10
17.0868265133128
20
1.91784183305708
30
0
41
1
10
16.8834027870489
20
1.88699317791318
30
0
41
1
10
16.7466905878715
20
1.86525459702256
30
0
41
1
10
16.6766932074956
20
1.8538573169937
30
0
0
SPLINE
5
DD
100
AcDbEntity
8
1
62
256
6
ByLayer
370
18
48
1
60
0
100
AcDbSpline
70
4
71
3
72
8
73
4
40
0
40
0
40
0
40
0
40
1
40
1
40
1
40
1
41
1
10
41.7347746316048
20
3.42017120795893
30
0
41
1
10
41.7651407118062
20
3.36744752422121
30
0
41
1
10
41.7955245222985
20
3.31471385066581
30
0
41
1
10
41.8259219737339
20
3.26197840655584
30
0
0
SPLINE
5
DE
100
AcDbEntity
8
1
62
256
6
ByLayer
370
18
48
1
60
0
100
AcDbSpline
70
4
71
3
72
26
73
22
40
0
40
0
40
0
40
0
40
0.0281198226492462
40
0.0281198226492462
40
0.0929118344726256
40
0.0929118344726256
40
0.22249585811939
40
0.22249585811939
40
0.352079881766156
40
0.352079881766156
40
0.48166390541292
40
0.48166390541292
40
0.611247929059686
40
0.611247929059686
40
0.676039940883071
40
0.676039940883071
40
0.740831952706457
40
0.740831952706457
40
0.870415976353229
40
0.870415976353229
40
1
40
1
40
1
40
1
41
1
10
36.5599175827231
20
2.56672428437605
30
0
41
1
10
36.6084603681335
20
2.58259622845603
30
0
41
1
10
36.6570143839046
20
2.59828011607951
30
0
41
1
10
36.8174879185041
20
2.6494678419443
30
0
41
1
10
36.9294621313474
20
2.684166846766
30
0
41
1
10
37.2652857078931
20
2.78495883660222
30
0
41
1
10
37.4892754812342
20
2.84778452135086
30
0
41
1
10
37.9371200041984
20
2.96429789042645
30
0
41
1
10
38.1606657796362
20
3.01792993773915
30
0
41
1
10
38.6073495124973
20
3.11571339029857
30
0
41
1
10
38.8304558204901
20
3.1598641369408
30
0
41
1
10
39.2768087303589
20
3.23824689062161
30
0
41
1
10
39.5000122494049
20
3.27249935959361
30
0
41
1
10
39.8351484825313
20
3.31614613941852
30
0
41
1
10
39.9469248314902
20
3.32940453912715
30
0
41
1
10
40.1706111355934
20
3.35328484799251
30
0
41
1
10
40.2825977135466
20
3.36390745528121
30
0
41
1
10
40.6182888457812
20
3.39169716406803
30
0
41
1
10
40.8417700146894
20
3.40481404228544
30
0
41
1
10
41.2884131386728
20
3.42043837004988
30
0
41
1
10
41.5115988879855
20
3.42295242856579
30
0
41
1
10
41.7347746316291
20
3.42017120786457
30
0
0
SPLINE
5
DF
100
AcDbEntity
8
1
62
256
6
ByLayer
370
18
48
1
60
0
100
AcDbSpline
70
4
71
3
72
20
73
16
40
0
40
0
40
0
40
0
40
0.0251697983933215
40
0.131478777770753
40
0.237787757148185
40
0.290942246836901
40
0.344096736525617
40
0.450405715903048
40
0.55671469528048
40
0.663023674657912
40
0.716178164346627
40
0.769332654035343
40
0.875641633412775
40
0.981950612790207
40
1
40
1
40
1
40
1
41
1
10
42.2061336610509
20
2.17499007088858
30
0
41
1
10
42.1745376004805
20
2.17499684596118
30
0
41
1
10
42.0094850220287
20
2.17469313009568
30
0
41
1
10
41.7109174475675
20
2.17087771788422
30
0
41
1
10
41.3771860955136
20
2.15938674118991
30
0
41
1
10
41.1102634085677
20
2.14618769940418
30
0
41
1
10
40.8433984624793
20
2.13148631295732
30
0
41
1
10
40.5098006886763
20
2.10907688787068
30
0
41
1
10
40.1093546415377
20
2.07532633179693
30
0
41
1
10
39.77562383592
20
2.04013334192064
30
0
41
1
10
39.5087015133187
20
2.00820328075838
30
0
41
1
10
39.241836646663
20
1.97501634233532
30
0
41
1
10
38.9082388098757
20
1.92976495201162
30
0
41
1
10
38.6186116616172
20
1.88596481317433
30
0
41
1
10
38.462459504771
20
1.86056437394316
30
0
41
1
10
38.4397955403975
20
1.85684103620596
30
0
0
SPLINE
5
E0
100
AcDbEntity
8
1
62
256
6
ByLayer
370
18
48
1
60
0
100
AcDbSpline
70
4
71
3
72
12
73
8
40
0
40
0
40
0
40
0
40
0.249999999999997
40
0.249999999999997
40
0.499999999999994
40
0.499999999999994
40
1
40
1
40
1
40
1
41
1
10
41.8259219737339
20
3.26197840655584
30
0
41
1
10
41.8569234671672
20
3.17178722986697
30
0
41
1
10
41.8880986130739
20
3.08131689195858
30
0
41
1
10
41.9507519468341
20
2.9002408592516
30
0
41
1
10
41.9822264622343
20
2.80964483905834
30
0
41
1
10
42.0771825509203
20
2.53775530536052
30
0
41
1
10
42.1412013237277
20
2.35636310118289
30
0
41
1
10
42.2061336610509
20
2.17499007088861
30
0
0
SPLINE
5
E1
100
AcDbEntity
8
1
62
256
6
ByLayer
370
18
48
1
60
0
100
AcDbSpline
70
4
71
3
72
10
73
6
40
0
40
0
40
0
40
0
40
0.947472999664058
40
0.947472999664058
40
1
40
1
40
1
40
1
41
1
10
42.231156614153
20
0.49510825586205
30
0
41
1
10
42.1807936320634
20
0.515313442596295
30
0
41
1
10
42.1305500939942
20
0.534100388493982
30
0
41
1
10
42.0777352502977
20
0.551386135612745
30
0
41
1
10
42.0749606403299
20
0.552286754502148
30
0
41
1
10
42.0721867880384
20
0.553179412430779
30
0
0
SPLINE
5
E2
100
AcDbEntity
8
1
62
256
6
ByLayer
370
13
48
1
60
0
100
AcDbSpline
70
4
71
3
72
48
73
44
40
0
40
0
40
0
40
0
40
0.0118685159713636
40
0.043449569924239
40
0.0592400969006769
40
0.0750306238771148
40
0.106611677829991
40
0.138192731782866
40
0.169773785735742
40
0.18556431271218
40
0.201354839688618
40
0.232935893641494
40
0.26451694759437
40
0.296098001547246
40
0.311888528523683
40
0.327679055500121
40
0.359260109452996
40
0.390841163405873
40
0.422422217358749
40
0.438212744335187
40
0.454003271311625
40
0.485584325264501
40
0.517165379217376
40
0.548746433170252
40
0.56453696014669
40
0.580327487123128
40
0.611908541076004
40
0.64348959502888
40
0.675070648981756
40
0.690861175958194
40
0.706651702934631
40
0.738232756887507
40
0.769813810840382
40
0.801394864793259
40
0.817185391769697
40
0.832975918746135
40
0.86455697269901
40
0.896138026651886
40
0.927719080604762
40
0.9435096075812
40
0.959300134557638
40
0.990881188510514
40
1
40
1
40
1
40
1
41
1
10
34.6979174526101
20
-1.87778161237324
30
0
41
1
10
34.6477408450022
20
-1.88107548357459
30
0
41
1
10
34.4639854524299
20
-1.89272870288411
30
0
41
1
10
34.2131516660562
20
-1.90670889844134
30
0
41
1
10
33.9457957255988
20
-1.91892626694141
30
0
41
1
10
33.6793975120067
20
-1.92686789929201
30
0
41
1
10
33.3463566426764
20
-1.93205982452636
30
0
41
1
10
32.9459016943864
20
-1.93323861511354
30
0
41
1
10
32.6116076757612
20
-1.93075213095344
30
0
41
1
10
32.3442503339037
20
-1.92598536574121
30
0
41
1
10
32.0778471382863
20
-1.91646495402026
30
0
41
1
10
31.7447955448392
20
-1.89991778265198
30
0
41
1
10
31.3443270704714
20
-1.87537657190501
30
0
41
1
10
31.0100266660558
20
-1.85188535077467
30
0
41
1
10
30.7426707256011
20
-1.83038998595919
30
0
41
1
10
30.4762725120076
20
-1.80392457543366
30
0
41
1
10
30.143231642674
20
-1.76654168253074
30
0
41
1
10
29.7427766943783
20
-1.71761318694058
30
0
41
1
10
29.4084826757483
20
-1.67438110474976
30
0
41
1
10
29.1411253338894
20
-1.63730394816324
30
0
41
1
10
28.8747221382737
20
-1.59530065120947
30
0
41
1
10
28.5416705448306
20
-1.53906625272526
30
0
41
1
10
28.1412020704688
20
-1.46834932736203
30
0
41
1
10
27.8069016660541
20
-1.40767408094823
30
0
41
1
10
27.5395457255987
20
-1.35698571783715
30
0
41
1
10
27.2731475120063
20
-1.30167802894286
30
0
41
1
10
26.9401066426743
20
-1.22958065303851
30
0
41
1
10
26.5396516943813
20
-1.14083284911135
30
0
41
1
10
26.2053576757552
20
-1.06594538714455
30
0
41
1
10
25.9380003338982
20
-1.00435388851841
30
0
41
1
10
25.6715971382812
20
-0.938699553363477
30
0
41
1
10
25.338545544835
20
-0.854602085423636
30
0
41
1
10
24.9380770704679
20
-0.752578779832731
30
0
41
1
10
24.6037766660503
20
-0.667477423213768
30
0
41
1
10
24.3364207255941
20
-0.598254079203969
30
0
41
1
10
24.0700225120015
20
-0.525733414483511
30
0
41
1
10
23.7369816426703
20
-0.434081151162417
30
0
41
1
10
23.3365266943789
20
-0.324174646153438
30
0
41
1
10
23.002232675753
20
-0.233378059014569
30
0
41
1
10
22.7348753338961
20
-0.160222789692227
30
0
41
1
10
22.4684721384026
20
-0.0847222619516401
30
0
41
1
10
22.2301746426752
20
-0.0172668008885637
30
0
41
1
10
22.0582642016304
20
0.0309855557265735
30
0
41
1
10
22.0197368913812
20
0.0417764019395861
30
0
0
SPLINE
5
E3
100
AcDbEntity
8
1
62
256
6
ByLayer
370
18
48
1
60
0
100
AcDbSpline
70
4
71
3
72
37
73
33
40
0
40
0
40
0
40
0
40
0.124999999999984
40
0.124999999999984
40
0.156249999999983
40
0.156249999999983
40
0.187499999999982
40
0.249999999999968
40
0.312499999999955
40
0.312499999999955
40
0.343749999999954
40
0.343749999999954
40
0.374999999999953
40
0.374999999999953
40
0.499999999999961
40
0.499999999999961
40
0.562499999999959
40
0.562499999999959
40
0.624999999999957
40
0.687499999999955
40
0.687499999999955
40
0.718749999999959
40
0.718749999999959
40
0.749999999999963
40
0.749999999999963
40
0.87499999999999
40
0.87499999999999
40
0.906249999999992
40
0.906249999999992
40
0.937499999999995
40
0.937499999999995
40
1
40
1
40
1
40
1
41
1
10
42.9989951402423
20
0.127870946295275
30
0
41
1
10
42.9776735450942
20
0.0675084381838076
30
0
41
1
10
42.9545776724599
20
0.0079886845508952
30
0
41
1
10
42.9234262006502
20
-0.0653041535091745
30
0
41
1
10
42.9170696313193
20
-0.0799301285945546
30
0
41
1
10
42.9042716852979
20
-0.108732028568056
30
0
41
1
10
42.8848987093985
20
-0.151376753115954
30
0
41
1
10
42.8517639977569
20
-0.21968041741809
30
0
41
1
10
42.8243914021756
20
-0.271326710250122
30
0
41
1
10
42.8035370571438
20
-0.308883796394582
30
0
41
1
10
42.7965313005202
20
-0.321206132745601
30
0
41
1
10
42.7824089268145
20
-0.345442599397785
30
0
41
1
10
42.7752668320062
20
-0.357397295624224
30
0
41
1
10
42.7397058108944
20
-0.4153997931665
30
0
41
1
10
42.7116082034764
20
-0.456456012634959
30
0
41
1
10
42.6699879326888
20
-0.509899760422172
30
0
41
1
10
42.6562016580189
20
-0.526346344980084
30
0
41
1
10
42.6287953127749
20
-0.556327938828986
30
0
41
1
10
42.6021684106408
20
-0.582726006118975
30
0
41
1
10
42.5769864682086
20
-0.60219988951647
30
0
41
1
10
42.5586120907782
20
-0.614206993921528
30
0
41
1
10
42.5525727675954
20
-0.617775386324581
30
0
41
1
10
42.540661471508
20
-0.624032759185894
30
0
41
1
10
42.5347710967954
20
-0.626728309997389
30
0
41
1
10
42.5059737785072
20
-0.637871078276049
30
0
41
1
10
42.4851466859091
20
-0.639388416555647
30
0
41
1
10
42.4614160959874
20
-0.632687439853498
30
0
41
1
10
42.4567864489759
20
-0.630912869048728
30
0
41
1
10
42.4477533516427
20
-0.626494277454668
30
0
41
1
10
42.44335263954
20
-0.623848084643413
30
0
41
1
10
42.4306208430663
20
-0.614719326422033
30
0
41
1
10
42.4227060692796
20
-0.607027199310636
30
0
41
1
10
42.415304170899
20
-0.597826972973621
30
0
0
SPLINE
5
E4
100
AcDbEntity
8
1
62
256
6
ByLayer
370
18
48
1
60
0
100
AcDbSpline
70
4
71
3
72
105
73
101
40
0
40
0
40
0
40
0
40
0.0312500000000074
40
0.0312500000000074
40
0.0390625000000092
40
0.0390625000000092
40
0.046875000000011
40
0.0625000000000147
40
0.0781250000000185
40
0.0781250000000185
40
0.0859375000000196
40
0.0859375000000196
40
0.0937500000000206
40
0.0937500000000206
40
0.125000000000025
40
0.125000000000025
40
0.140625000000027
40
0.140625000000027
40
0.156250000000029
40
0.17187500000003
40
0.17187500000003
40
0.187500000000032
40
0.187500000000032
40
0.218750000000036
40
0.218750000000036
40
0.234375000000035
40
0.234375000000035
40
0.250000000000034
40
0.250000000000034
40
0.281250000000037
40
0.281250000000037
40
0.296875000000036
40
0.296875000000036
40
0.312500000000036
40
0.312500000000036
40
0.328125000000035
40
0.328125000000035
40
0.343750000000034
40
0.343750000000034
40
0.375000000000032
40
0.375000000000032
40
0.390625000000031
40
0.390625000000031
40
0.406250000000031
40
0.406250000000031
40
0.437500000000033
40
0.437500000000033
40
0.453125000000035
40
0.453125000000035
40
0.468750000000036
40
0.468750000000036
40
0.500000000000039
40
0.500000000000039
40
0.515625000000041
40
0.515625000000041
40
0.531250000000043
40
0.531250000000043
40
0.562500000000047
40
0.562500000000047
40
0.578125000000048
40
0.578125000000048
40
0.593750000000049
40
0.593750000000049
40
0.625000000000053
40
0.625000000000053
40
0.640625000000055
40
0.640625000000055
40
0.656250000000058
40
0.656250000000058
40
0.687500000000065
40
0.687500000000065
40
0.695312500000065
40
0.695312500000065
40
0.703125000000065
40
0.718750000000062
40
0.734375000000059
40
0.734375000000059
40
0.750000000000055
40
0.750000000000055
40
0.781250000000049
40
0.781250000000049
40
0.796875000000046
40
0.796875000000046
40
0.812500000000043
40
0.812500000000043
40
0.843750000000036
40
0.843750000000036
40
0.859375000000033
40
0.859375000000033
40
0.87500000000003
40
0.87500000000003
40
0.906250000000024
40
0.906250000000024
40
0.937500000000017
40
0.937500000000017
40
0.968750000000011
40
0.968750000000011
40
0.984375000000005
40
0.984375000000005
40
1
40
1
40
1
40
1
41
1
10
42.4153041708991
20
-0.597826972973905
30
0
41
1
10
42.4186072711324
20
-0.615768647343486
30
0
41
1
10
42.4206872368892
20
-0.635913860094007
30
0
41
1
10
42.4215457182519
20
-0.664226711648666
30
0
41
1
10
42.4216287602211
20
-0.670050704401376
30
0
41
1
10
42.4216136934746
20
-0.681860695303527
30
0
41
1
10
42.4213215605153
20
-0.69987671172359
30
0
41
1
10
42.4194997755182
20
-0.731397780243128
30
0
41
1
10
42.4166146244395
20
-0.758225707837596
30
0
41
1
10
42.4139006287962
20
-0.778974552672111
30
0
41
1
10
42.4129041333743
20
-0.785995669395589
30
0
41
1
10
42.4107231457642
20
-0.800254005055677
30
0
41
1
10
42.4095348258168
20
-0.807510924325669
30
0
41
1
10
42.403196907648
20
-0.843873878933806
30
0
41
1
10
42.3968310809827
20
-0.873501934556344
30
0
41
1
10
42.3854663651296
20
-0.918742649808536
30
0
41
1
10
42.3813574314173
20
-0.934012090721779
30
0
41
1
10
42.3725970346978
20
-0.964585059049085
30
0
41
1
10
42.3633894909932
20
-0.994874755369096
30
0
41
1
10
42.3533582977398
20
-1.02463518771069
30
0
41
1
10
42.3429365270388
20
-1.05414095932133
30
0
41
1
10
42.3375182384001
20
-1.06879782974178
30
0
41
1
10
42.3207695181145
20
-1.11219017346753
30
0
41
1
10
42.3091998584718
20
-1.13972163710309
30
0
41
1
10
42.2913438721648
20
-1.1791309972599
30
0
41
1
10
42.28530731538
20
-1.19195014144623
30
0
41
1
10
42.2730723430476
20
-1.21696005992396
30
0
41
1
10
42.2669151504764
20
-1.22906356985681
30
0
41
1
10
42.248518045546
20
-1.26387472207671
30
0
41
1
10
42.2362767766473
20
-1.28525138229381
30
0
41
1
10
42.2179585917324
20
-1.31469724887796
30
0
41
1
10
42.2118406073331
20
-1.32410028409205
30
0
41
1
10
42.199725083857
20
-1.34186142110622
30
0
41
1
10
42.1937315254681
20
-1.35021711771981
30
0
41
1
10
42.1818679544402
20
-1.36589812368578
30
0
41
1
10
42.1759788531358
20
-1.3732439686589
30
0
41
1
10
42.1644675541619
20
-1.38673495395352
30
0
41
1
10
42.1588277650317
20
-1.3929054796312
30
0
41
1
10
42.1422373863412
20
-1.40974469063232
30
0
41
1
10
42.1316140575508
20
-1.41875284999588
30
0
41
1
10
42.1162956528845
20
-1.42891988475682
30
0
41
1
10
42.1112901608796
20
-1.43174957306269
30
0
41
1
10
42.1014949336535
20
-1.43624213056916
30
0
41
1
10
42.0967657973078
20
-1.43787769664073
30
0
41
1
10
42.0830587825854
20
-1.44099280095637
30
0
41
1
10
42.0745580918395
20
-1.44069357116231
30
0
41
1
10
42.0627249222382
20
-1.43660618115132
30
0
41
1
10
42.0589343123681
20
-1.43463415845463
30
0
41
1
10
42.0516645879502
20
-1.42941643584351
30
0
41
1
10
42.0481922610861
20
-1.42616637145494
30
0
41
1
10
42.0384395693739
20
-1.41465943421088
30
0
41
1
10
42.0327460715459
20
-1.40461522546681
30
0
41
1
10
42.0254026861396
20
-1.3858910292918
30
0
41
1
10
42.0231556008461
20
-1.37903666563304
30
0
41
1
10
42.0190768332494
20
-1.36403964342802
30
0
41
1
10
42.0172389499451
20
-1.35585022572408
30
0
41
1
10
42.0124793851075
20
-1.32976860250548
30
0
41
1
10
42.010266733557
20
-1.3102932160277
30
0
41
1
10
42.0084153015935
20
-1.27786659787031
30
0
41
1
10
42.0080444809371
20
-1.2665189209647
30
0
41
1
10
42.0078239414822
20
-1.24268744870113
30
0
41
1
10
42.0079787788575
20
-1.23013935544495
30
0
41
1
10
42.0092507531848
20
-1.19162068034981
30
0
41
1
10
42.0111549241193
20
-1.16456358618703
30
0
41
1
10
42.0156744689733
20
-1.12187239497493
30
0
41
1
10
42.0174602518782
20
-1.10728878963229
30
0
41
1
10
42.0216322762633
20
-1.0773773161433
30
0
41
1
10
42.0239868833274
20
-1.06228440154752
30
0
41
1
10
42.0318110820918
20
-1.01687200072766
30
0
41
1
10
42.0380493494399
20
-0.986305637091988
30
0
41
1
10
42.0472132169309
20
-0.947740607644647
30
0
41
1
10
42.0491210041784
20
-0.939986405294633
30
0
41
1
10
42.0530377654678
20
-0.924601423477867
30
0
41
1
10
42.0590693294697
20
-0.901684753211981
30
0
41
1
10
42.0698938713094
20
-0.864274865645115
30
0
41
1
10
42.0793752397657
20
-0.83516485585244
30
0
41
1
10
42.0892766082737
20
-0.806465189309847
30
0
41
1
10
42.0944524572584
20
-0.792289509107746
30
0
41
1
10
42.1102862241752
20
-0.751259197472621
30
0
41
1
10
42.121346632619
20
-0.725586758732135
30
0
41
1
10
42.1386795175442
20
-0.689442531340859
30
0
41
1
10
42.14460929411
20
-0.677741590066091
30
0
41
1
10
42.156540365365
20
-0.655464997549814
30
0
41
1
10
42.1625471951001
20
-0.644870648800634
30
0
41
1
10
42.1806870175941
20
-0.61463278969282
30
0
41
1
10
42.1929392382666
20
-0.596523382160996
30
0
41
1
10
42.2115407468873
20
-0.572318662299807
30
0
41
1
10
42.2177348086891
20
-0.56480596242983
30
0
41
1
10
42.2300144685533
20
-0.550951125434608
30
0
41
1
10
42.2361150900594
20
-0.544589427127391
30
0
41
1
10
42.2542964614095
20
-0.527144563784873
30
0
41
1
10
42.2662581755811
20
-0.517689745502679
30
0
41
1
10
42.2898135075465
20
-0.503128151644432
30
0
41
1
10
42.3011489144286
20
-0.498183654293342
30
0
41
1
10
42.3228567852989
20
-0.492773391066493
30
0
41
1
10
42.3332399099509
20
-0.492301289511914
30
0
41
1
10
42.3480262102875
20
-0.495082595437111
30
0
41
1
10
42.3528277558628
20
-0.49660340567641
30
0
41
1
10
42.3619847594743
20
-0.500784524028262
30
0
41
1
10
42.3663621445226
20
-0.503446500646703
30
0
41
1
10
42.370534028603
20
-0.506680112084211
30
0
0
SPLINE
5
E5
100
AcDbEntity
8
1
62
256
6
ByLayer
370
18
48
1
60
0
100
AcDbSpline
70
4
71
3
72
10
73
6
40
0
40
0
40
0
40
0
40
0.5
40
0.5
40
1
40
1
40
1
40
1
41
1
10
42.370534028603
20
-0.50668011208424
30
0
41
1
10
42.3621913785585
20
-0.48045882918143
30
0
41
1
10
42.355183681696
20
-0.451039452741355
30
0
41
1
10
42.3435077512198
20
-0.386308769818783
30
0
41
1
10
42.3388375387848
20
-0.350871658990883
30
0
41
1
10
42.3353169517032
20
-0.313107213219268
30
0
0
SPLINE
5
E6
100
AcDbEntity
8
1
62
256
6
ByLayer
370
18
48
1
60
0
100
AcDbSpline
70
4
71
3
72
8
73
4
40
0
40
0
40
0
40
0
40
1
40
1
40
1
40
1
41
1
10
42.3353169517032
20
-0.313107213219297
30
0
41
1
10
42.3106245127025
20
-0.0482376752727589
30
0
41
1
10
42.275840868731
20
0.221196217008895
30
0
41
1
10
42.231156614153
20
0.495108255862022
30
0
0
SPLINE
5
E7
100
AcDbEntity
8
1
62
256
6
ByLayer
370
18
48
1
60
0
100
AcDbSpline
70
4
71
3
72
26
73
22
40
0
40
0
40
0
40
0
40
0.0624999999999976
40
0.0624999999999976
40
0.124999999999995
40
0.124999999999995
40
0.24999999999999
40
0.24999999999999
40
0.374999999999984
40
0.374999999999984
40
0.437499999999981
40
0.437499999999981
40
0.499999999999978
40
0.499999999999978
40
0.624999999999984
40
0.624999999999984
40
0.749999999999989
40
0.749999999999989
40
0.874999999999995
40
0.874999999999995
40
1
40
1
40
1
40
1
41
1
10
42.231156614153
20
0.495108255862022
30
0
41
1
10
42.2202591422329
20
0.495832952520914
30
0
41
1
10
42.2092717399861
20
0.495927228095212
30
0
41
1
10
42.187315910584
20
0.496231791683186
30
0
41
1
10
42.1763047784541
20
0.496137099074502
30
0
41
1
10
42.1430446563623
20
0.493980844717555
30
0
41
1
10
42.1205964523475
20
0.490240313193112
30
0
41
1
10
42.0753453115155
20
0.478866236128056
30
0
41
1
10
42.052546864685
20
0.471268399483876
30
0
41
1
10
42.0182362322041
20
0.457753770717488
30
0
41
1
10
42.0067933860312
20
0.453017817451581
30
0
41
1
10
41.9839011554249
20
0.44308068620731
30
0
41
1
10
41.9724412323806
20
0.437779555010508
30
0
41
1
10
41.9380084238269
20
0.420630813130629
30
0
41
1
10
41.9149858013042
20
0.407565002506033
30
0
41
1
10
41.8688903814913
20
0.378235021970823
30
0
41
1
10
41.8458001841798
20
0.361988713200105
30
0
41
1
10
41.7999898416545
20
0.326903350214735
30
0
41
1
10
41.777230454028
20
0.307969379647176
30
0
41
1
10
41.7320500656025
20
0.268143063927255
30
0
41
1
10
41.7096284357807
20
0.247128977156649
30
0
41
1
10
41.6874043517722
20
0.224723373892601
30
0
0
SPLINE
5
E8
100
AcDbEntity
8
1
62
256
6
ByLayer
370
18
48
1
60
0
100
AcDbSpline
70
4
71
3
72
14
73
10
40
0
40
0
40
0
40
0
40
0.250000000000011
40
0.250000000000011
40
0.375000000000017
40
0.375000000000017
40
0.500000000000022
40
0.500000000000022
40
1
40
1
40
1
40
1
41
1
10
41.8259219737339
20
-3.26197840655598
30
0
41
1
10
41.8134162863255
20
-3.28076295282128
30
0
41
1
10
41.8013360279472
20
-3.29827758542507
30
0
41
1
10
41.783865034498
20
-3.32250914625976
30
0
41
1
10
41.7781495917028
20
-3.33024604976251
30
0
41
1
10
41.7669368961765
20
-3.34501373923476
30
0
41
1
10
41.7614679778268
20
-3.35200654632521
30
0
41
1
10
41.7349064494463
20
-3.3848761344895
30
0
41
1
10
41.7160396339929
20
-3.40464165473242
30
0
41
1
10
41.6992603529911
20
-3.41803694831171
30
0
0
SPLINE
5
E9
100
AcDbEntity
8
1
62
256
6
ByLayer
370
18
48
1
60
0
100
AcDbSpline
70
4
71
3
72
12
73
8
40
0
40
0
40
0
40
0
40
0.250000000000003
40
0.250000000000003
40
0.500000000000006
40
0.500000000000006
40
1
40
1
40
1
40
1
41
1
10
41.8259219737339
20
-3.26197840655593
30
0
41
1
10
41.8569234671672
20
-3.17178722986705
30
0
41
1
10
41.8880986130739
20
-3.08131689195864
30
0
41
1
10
41.9507519468341
20
-2.90024085925163
30
0
41
1
10
41.9822264622342
20
-2.80964483905839
30
0
41
1
10
42.0771825509203
20
-2.53775530536055
30
0
41
1
10
42.1412013237278
20
-2.35636310118292
30
0
41
1
10
42.2061336610509
20
-2.17499007088864
30
0
0
SPLINE
5
EA
100
AcDbEntity
8
1
62
256
6
ByLayer
370
18
48
1
60
0
100
AcDbSpline
70
4
71
3
72
8
73
4
40
0
40
0
40
0
40
0
40
1
40
1
40
1
40
1
41
1
10
42.2061336610509
20
-2.17499007088861
30
0
41
1
10
42.2304780723091
20
-2.10698159800825
30
0
41
1
10
42.2555042867867
20
-2.03917020576174
30
0
41
1
10
42.2812178183382
20
-1.97182579086541
30
0
0
SPLINE
5
EB
100
AcDbEntity
8
1
62
256
6
ByLayer
370
18
48
1
60
0
100
AcDbSpline
70
4
71
3
72
14
73
10
40
0
40
0
40
0
40
0
40
0.50000000000001
40
0.50000000000001
40
0.750000000000005
40
0.750000000000005
40
0.875000000000002
40
0.875000000000002
40
1
40
1
40
1
40
1
41
1
10
42.2812178183382
20
-1.97182579086541
30
0
41
1
10
42.3308962447077
20
-1.8417166866227
30
0
41
1
10
42.3823966798825
20
-1.71539495462187
30
0
41
1
10
42.4632379122275
20
-1.53171106523257
30
0
41
1
10
42.490783205643
20
-1.47145332248044
30
0
41
1
10
42.5331175008543
20
-1.38258733423265
30
0
41
1
10
42.5473992376152
20
-1.35322068075686
30
0
41
1
10
42.5763211460558
20
-1.29500622210759
30
0
41
1
10
42.5909879246048
20
-1.26610642698174
30
0
41
1
10
42.6057590746205
20
-1.23762164350654
30
0
0
SPLINE
5
EC
100
AcDbEntity
8
1
62
256
6
ByLayer
370
18
48
1
60
0
100
AcDbSpline
70
4
71
3
72
8
73
4
40
0
40
0
40
0
40
0
40
1
40
1
40
1
40
1
41
1
10
42.6057590746202
20
-1.23762164350663
30
0
41
1
10
42.7073911279643
20
-0.95262657939449
30
0
41
1
10
42.8081039436974
20
-0.667309784010541
30
0
41
1
10
42.9078774275121
20
-0.381664224388487
30
0
0
SPLINE
5
ED
100
AcDbEntity
8
1
62
256
6
ByLayer
370
18
48
1
60
0
100
AcDbSpline
70
4
71
3
72
8
73
4
40
0
40
0
40
0
40
0
40
1
40
1
40
1
40
1
41
1
10
42.9078774275121
20
-0.381664224388487
30
0
41
1
10
42.9375602201607
20
-0.296684151596821
30
0
41
1
10
42.9679327404236
20
-0.212091551622251
30
0
41
1
10
42.9989951402423
20
-0.127870946295275
30
0
0
SPLINE
5
EE
100
AcDbEntity
8
1
62
256
6
ByLayer
370
18
48
1
60
0
100
AcDbSpline
70
4
71
3
72
8
73
4
40
0
40
0
40
0
40
0
40
1
40
1
40
1
40
1
41
1
10
42.9989951402423
20
0.127870946295303
30
0
41
1
10
43.0003331727229
20
0.0427369371300301
30
0
41
1
10
43.0003367385245
20
-0.0425100584913309
30
0
41
1
10
42.9989951402423
20
-0.127870946295275
30
0
0
SPLINE
5
EF
100
AcDbEntity
8
1
62
256
6
ByLayer
370
18
48
1
60
0
100
AcDbSpline
70
4
71
3
72
22
73
18
40
0
40
0
40
0
40
0
40
0.50000000000015
40
0.50000000000015
40
0.750000000000271
40
0.750000000000271
40
0.875000000000285
40
0.875000000000285
40
0.937500000000242
40
0.937500000000242
40
0.968750000000172
40
0.968750000000172
40
0.984375000000088
40
0.984375000000088
40
0.992187500000044
40
0.992187500000044
40
1
40
1
40
1
40
1
41
1
10
41.6420059387123
20
-3.57187175207912
30
0
41
1
10
41.6575004480639
20
-3.54670971885753
30
0
41
1
10
41.6730058321314
20
-3.52143333159251
30
0
41
1
10
41.696222217169
20
-3.48346957914473
30
0
41
1
10
41.7039487664388
20
-3.47081746394457
30
0
41
1
10
41.7156017494155
20
-3.45167177639425
30
0
41
1
10
41.7195095239166
20
-3.44523505640242
30
0
41
1
10
41.7253105997382
20
-3.43569877761871
30
0
41
1
10
41.7272181057134
20
-3.4325728367275
30
0
41
1
10
41.7300944324475
20
-3.42785034297953
30
0
41
1
10
41.7310631137911
20
-3.42625548593529
30
0
41
1
10
41.7325445372109
20
-3.42380257389158
30
0
41
1
10
41.7330458746424
20
-3.42296866165998
30
0
41
1
10
41.733792594912
20
-3.42172915623124
30
0
41
1
10
41.7340404251683
20
-3.42131839926225
30
0
41
1
10
41.7345015588095
20
-3.42056822077126
30
0
41
1
10
41.7347067293786
20
-3.42024727350358
30
0
41
1
10
41.7347746316048
20
-3.42017120795893
30
0
0
SPLINE
5
F0
100
AcDbEntity
8
1
62
256
6
ByLayer
370
18
48
1
60
0
100
AcDbSpline
70
4
71
3
72
72
73
68
40
0
40
0
40
0
40
0
40
0.0390084054119258
40
0.0390084054119258
40
0.0780168108238517
40
0.0780168108238517
40
0.117025216235777
40
0.117025216235777
40
0.156033621647703
40
0.156033621647703
40
0.195042027059629
40
0.195042027059629
40
0.214546229765592
40
0.214546229765592
40
0.234050432471555
40
0.234050432471555
40
0.253554635177518
40
0.253554635177518
40
0.273058837883481
40
0.273058837883481
40
0.312067243295408
40
0.312067243295408
40
0.351075648707334
40
0.351075648707334
40
0.370579851413298
40
0.370579851413298
40
0.390084054119262
40
0.390084054119262
40
0.429092459531192
40
0.429092459531192
40
0.468100864943121
40
0.468100864943121
40
0.507109270355051
40
0.507109270355051
40
0.526613473061016
40
0.526613473061016
40
0.546117675766981
40
0.546117675766981
40
0.585126081178909
40
0.585126081178909
40
0.624134486590836
40
0.624134486590836
40
0.663142892002764
40
0.663142892002764
40
0.682647094708728
40
0.682647094708728
40
0.702151297414692
40
0.702151297414692
40
0.74115970282662
40
0.74115970282662
40
0.780168108238547
40
0.780168108238547
40
0.819176513650475
40
0.819176513650475
40
0.838680716356439
40
0.838680716356439
40
0.858184919062403
40
0.858184919062403
40
0.897193324474331
40
0.897193324474331
40
0.936201729886258
40
0.936201729886258
40
0.955705932592221
40
0.955705932592221
40
0.975210135298184
40
0.975210135298184
40
1
40
1
40
1
40
1
41
1
10
20.2999100203699
20
3.41299121957405
30
0
41
1
10
20.5234189837341
20
3.40526478720389
30
0
41
1
10
20.7463628684322
20
3.39228460855384
30
0
41
1
10
21.1914083198016
20
3.35582413252686
30
0
41
1
10
21.4135765398539
20
3.33243565962491
30
0
41
1
10
21.8576111858944
20
3.27549630005018
30
0
41
1
10
22.0794550349972
20
3.24191299070691
30
0
41
1
10
22.5232326393129
20
3.16465405626991
30
0
41
1
10
22.7451071825826
20
3.12092208185669
30
0
41
1
10
23.1894338615761
20
3.02397996757986
30
0
41
1
10
23.4118614410708
20
2.97073450362123
30
0
41
1
10
23.7461231311201
20
2.88395744901274
30
0
41
1
10
23.8576559450901
20
2.85389099352955
30
0
41
1
10
24.0809618684033
20
2.79148223870232
30
0
41
1
10
24.1927258831387
20
2.75912605214134
30
0
41
1
10
24.4165806993958
20
2.69223109465708
30
0
41
1
10
24.5284934895811
20
2.6577388992315
30
0
41
1
10
24.7521070913003
20
2.58681961151669
30
0
41
1
10
24.8638435297097
20
2.55037851524858
30
0
41
1
10
25.1988892568204
20
2.43817654704256
30
0
41
1
10
25.4220587855521
20
2.35957532579582
30
0
41
1
10
25.8683003002276
20
2.19510276679367
30
0
41
1
10
26.0913959889293
20
2.10927197640629
30
0
41
1
10
26.4264349507108
20
1.97571344467602
30
0
41
1
10
26.5381737266294
20
1.93037866002891
30
0
41
1
10
26.7618065833553
20
1.8381485560939
30
0
41
1
10
26.8737478966647
20
1.79123495218602
30
0
41
1
10
27.2095750965537
20
1.64845427974402
30
0
41
1
10
27.4330322033045
20
1.55060594009629
30
0
41
1
10
27.8796388382114
20
1.35063774818019
30
0
41
1
10
28.102801356714
20
1.24854646113127
30
0
41
1
10
28.5491440707038
20
1.04071586506552
30
0
41
1
10
28.7723460110435
20
0.935019222724833
30
0
41
1
10
29.1074380102499
20
0.774219607756663
30
0
41
1
10
29.2191973737383
20
0.720273369276839
30
0
41
1
10
29.442906651735
20
0.611813970942336
30
0
41
1
10
29.5549227003303
20
0.557271976084991
30
0
41
1
10
29.8906476567619
20
0.393225206078483
30
0
41
1
10
30.1141088354184
20
0.283260850116932
30
0
41
1
10
30.5607079180023
20
0.0629197073866408
30
0
41
1
10
30.7837945669765
20
-0.0475606489280835
30
0
41
1
10
31.2301614674833
20
-0.267883718589388
30
0
41
1
10
31.4534063597734
20
-0.37779804589178
30
0
41
1
10
31.7886209267404
20
-0.541778692966261
30
0
41
1
10
31.9004268371282
20
-0.596270523306345
30
0
41
1
10
32.1241817009186
20
-0.704901161151639
30
0
41
1
10
32.2361624868812
20
-0.75905780750773
30
0
41
1
10
32.5716908181072
20
-0.920308701156301
30
0
41
1
10
32.7950661158269
20
-1.02630529739017
30
0
41
1
10
33.2415481469357
20
-1.23456586344099
30
0
41
1
10
33.4646809591094
20
-1.33677393248536
30
0
41
1
10
33.9109866198285
20
-1.53694460433249
30
0
41
1
10
34.1342070177463
20
-1.63481449821887
30
0
41
1
10
34.4694952384405
20
-1.77767619757012
30
0
41
1
10
34.5813268407919
20
-1.82465246908754
30
0
41
1
10
34.8051695609454
20
-1.91723409384537
30
0
41
1
10
34.9171498567768
20
-1.96282392686956
30
0
41
1
10
35.2527493178611
20
-2.09710614966389
30
0
41
1
10
35.4761863811616
20
-2.18346969755677
30
0
41
1
10
35.9230465992419
20
-2.34906816946645
30
0
41
1
10
36.1464695478986
20
-2.42830285652468
30
0
41
1
10
36.4818406710681
20
-2.5413618883326
30
0
41
1
10
36.5936756730538
20
-2.57807638232518
30
0
41
1
10
36.8174879185041
20
-2.64946784194433
30
0
41
1
10
36.9294621313473
20
-2.684166846766
30
0
41
1
10
37.1836807111561
20
-2.7604664227988
30
0
41
1
10
37.3260014690029
20
-2.80140421021002
30
0
41
1
10
37.468320708087
20
-2.84052620173006
30
0
0
SPLINE
5
F1
100
AcDbEntity
8
1
62
256
6
ByLayer
370
18
48
1
60
0
100
AcDbSpline
70
4
71
3
72
18
73
14
40
0
40
0
40
0
40
0
40
0.249999999999959
40
0.249999999999959
40
0.374999999999938
40
0.374999999999938
40
0.499999999999918
40
0.499999999999918
40
0.749999999999944
40
0.749999999999944
40
0.874999999999972
40
0.874999999999972
40
1
40
1
40
1
40
1
41
1
10
20.3556816942244
20
-3.40486715225137
30
0
41
1
10
20.3460072701708
20
-3.40944153979385
30
0
41
1
10
20.337821963999
20
-3.4151061866977
30
0
41
1
10
20.3272083444059
20
-3.42480964993101
30
0
41
1
10
20.3239850305408
20
-3.42823187360494
30
0
41
1
10
20.3182295602909
20
-3.43524688623913
30
0
41
1
10
20.3156720365195
20
-3.43886316462394
30
0
41
1
10
20.308867711443
20
-3.45000462855984
30
0
41
1
10
20.305472365185
20
-3.45789044917524
30
0
41
1
10
20.3021318397785
20
-3.4697917546768
30
0
41
1
10
20.3013011574215
20
-3.47378570584345
30
0
41
1
10
20.3001898465139
20
-3.48182534106999
30
0
41
1
10
20.2999100203699
20
-3.48590542963137
30
0
41
1
10
20.2999100203699
20
-3.48992611950115
30
0
0
SPLINE
5
F2
100
AcDbEntity
8
1
62
256
6
ByLayer
370
18
48
1
60
0
100
AcDbSpline
70
4
71
3
72
10
73
6
40
0
40
0
40
0
40
0
40
0.5
40
0.5
40
1
40
1
40
1
40
1
41
1
10
20.4001814823938
20
-3.39538885201102
30
0
41
1
10
20.3924826974616
20
-3.39523513409097
30
0
41
1
10
20.3849178956047
20
-3.39595602527578
30
0
41
1
10
20.3700543594332
20
-3.39909745593283
30
0
41
1
10
20.3627012382427
20
-3.40154807976367
30
0
41
1
10
20.3556816942244
20
-3.40486715225137
30
0
0
SPLINE
5
F3
100
AcDbEntity
8
1
62
256
6
ByLayer
370
13
48
1
60
0
100
AcDbSpline
70
4
71
3
72
38
73
34
40
0
40
0
40
0
40
0
40
0.03125
40
0.03125
40
0.0624999999999999
40
0.0624999999999999
40
0.125
40
0.1875
40
0.1875
40
0.21875
40
0.21875
40
0.25
40
0.25
40
0.374999999999999
40
0.374999999999999
40
0.437499999999999
40
0.437499999999999
40
0.468749999999999
40
0.468749999999999
40
0.499999999999999
40
0.499999999999999
40
0.625
40
0.625
40
0.6875
40
0.703125
40
0.703125
40
0.71875
40
0.71875
40
0.75
40
0.75
40
0.875
40
0.875
40
1
40
1
40
1
40
1
41
1
10
20.4007679869498
20
-0.510658163021361
30
0
41
1
10
20.400764539422
20
-0.55938932642897
30
0
41
1
10
20.4007608977697
20
-0.60792780741977
30
0
41
1
10
20.4007532516979
20
-0.704619810815956
30
0
41
1
10
20.4007492447055
20
-0.752798566000052
30
0
41
1
10
20.4007367655254
20
-0.896176268326201
30
0
41
1
10
20.4007188808935
20
-1.08462834936748
30
0
41
1
10
20.4006988721624
20
-1.26770341195811
30
0
41
1
10
20.4006831679242
20
-1.40296987898554
30
0
41
1
10
20.4006778121485
20
-1.44775215012186
30
0
41
1
10
20.4006669205298
20
-1.53629809880647
30
0
41
1
10
20.4006613736711
20
-1.58015138523012
30
0
41
1
10
20.4006332974623
20
-1.79631064692293
30
0
41
1
10
20.4006098619467
20
-1.95874639603284
30
0
41
1
10
20.4005736403226
20
-2.1872419681747
30
0
41
1
10
20.400561382388
20
-2.26086625289682
30
0
41
1
10
20.4005427164524
20
-2.36743491379755
30
0
41
1
10
20.4005364476142
20
-2.40231228528887
30
0
41
1
10
20.4005238113026
20
-2.4707553948335
30
0
41
1
10
20.4005174292799
20
-2.50439347788887
30
0
41
1
10
20.4004855137674
20
-2.66791624097917
30
0
41
1
10
20.4004598889465
20
-2.78449750950199
30
0
41
1
10
20.4004207789031
20
-2.93860021764752
30
0
41
1
10
20.4004043376129
20
-2.99845831807474
30
0
41
1
10
20.4003876007426
20
-3.05276898510763
30
0
41
1
10
20.4003808792742
20
-3.07404427659307
30
0
41
1
10
20.4003775015331
20
-3.08446887902153
30
0
41
1
10
20.4003673514498
20
-3.11498184367986
30
0
41
1
10
20.4003605785269
20
-3.13426359258295
30
0
41
1
10
20.4003266293686
20
-3.22548771590917
30
0
41
1
10
20.4002992098082
20
-3.28199112242257
30
0
41
1
10
20.4002423363409
20
-3.36308399768595
30
0
41
1
10
20.4002128913451
20
-3.38767944441497
30
0
41
1
10
20.4001814823938
20
-3.39538885201102
30
0
0
SPLINE
5
F4
100
AcDbEntity
8
1
62
256
6
ByLayer
370
18
48
1
60
0
100
AcDbSpline
70
4
71
3
72
39
73
35
40
0
40
0
40
0
40
0
40
0.0624999999999997
40
0.124999999999999
40
0.187499999999999
40
0.187499999999999
40
0.218749999999999
40
0.218749999999999
40
0.25
40
0.25
40
0.3125
40
0.375
40
0.4375
40
0.4375
40
0.46875
40
0.46875
40
0.484375
40
0.484375
40
0.5
40
0.5625
40
0.625
40
0.6875
40
0.6875
40
0.71875
40
0.71875
40
0.75
40
0.75
40
0.8125
40
0.875
40
0.9375
40
0.9375
40
0.96875
40
0.96875
40
1
40
1
40
1
40
1
41
1
10
41.6699414067017
20
-0.268147933704796
30
0
41
1
10
41.6582521277648
20
-0.367577441283743
30
0
41
1
10
41.6379125133803
20
-0.564567937183114
30
0
41
1
10
41.6149120094049
20
-0.854482462696126
30
0
41
1
10
41.6036976621183
20
-1.04399430703975
30
0
41
1
10
41.5965567631464
20
-1.18466931895071
30
0
41
1
10
41.5943886747491
20
-1.2313175432601
30
0
41
1
10
41.5904376730867
20
-1.32411533887276
30
0
41
1
10
41.588651587623
20
-1.37036860811924
30
0
41
1
10
41.5838578082915
20
-1.50716206735004
30
0
41
1
10
41.5789360652658
20
-1.68480113399073
30
0
41
1
10
41.5749883236349
20
-1.93736129798708
30
0
41
1
10
41.5742081147035
20
-2.09649918367433
30
0
41
1
10
41.5742255339995
20
-2.21232287681929
30
0
41
1
10
41.5743325128784
20
-2.2503416704302
30
0
41
1
10
41.5746401161865
20
-2.30647008000801
30
0
41
1
10
41.5747673561321
20
-2.32503761877973
30
0
41
1
10
41.5750690697975
20
-2.36169116121394
30
0
41
1
10
41.57594289358
20
-2.45223165447962
30
0
41
1
10
41.5785534302085
20
-2.60548964284101
30
0
41
1
10
41.5842841861459
20
-2.7895913827816
30
0
41
1
10
41.5898279154402
20
-2.89884267994597
30
0
41
1
10
41.5947925434285
20
-2.97561429077598
30
0
41
1
10
41.5965848386109
20
-3.00036763825548
30
0
41
1
10
41.6004689408945
20
-3.0480077039503
30
0
41
1
10
41.6025503015169
20
-3.07077096595836
30
0
41
1
10
41.6092581795239
20
-3.13595124383823
30
0
41
1
10
41.6194342650658
20
-3.21457801204412
30
0
41
1
10
41.6392996706018
20
-3.30820766493358
30
0
41
1
10
41.6563744053799
20
-3.35441985344411
30
0
41
1
10
41.6709744370694
20
-3.38286846348799
30
0
41
1
10
41.6761496986646
20
-3.39132506368065
30
0
41
1
10
41.6871170466955
20
-3.40606071466635
30
0
41
1
10
41.6929082683726
20
-3.4123446085319
30
0
41
1
10
41.6990355907397
20
-3.41754792062304
30
0
0
SPLINE
5
F5
100
AcDbEntity
8
1
62
256
6
ByLayer
370
18
48
1
60
0
100
AcDbSpline
70
4
71
3
72
8
73
4
40
0
40
0
40
0
40
0
40
1
40
1
40
1
40
1
41
1
10
41.6192817716836
20
-3.54919003210685
30
0
41
1
10
41.6441611506785
20
-3.50908037557684
30
0
41
1
10
41.6690667902666
20
-3.46880810165325
30
0
41
1
10
41.694002001051
20
-3.42837401175757
30
0
0
SPLINE
5
F6
100
AcDbEntity
8
1
62
256
6
ByLayer
370
18
48
1
60
0
100
AcDbSpline
70
4
71
3
72
12
73
8
40
0
40
0
40
0
40
0
40
0.0985576596271192
40
0.0985576596271192
40
0.399038439751416
40
0.399038439751416
40
1
40
1
40
1
40
1
41
1
10
22.5633440856696
20
-3.40322466546755
30
0
41
1
10
22.4910074049277
20
-3.41318731299415
30
0
41
1
10
22.4186735852262
20
-3.42259193913637
30
0
41
1
10
22.1257950333569
20
-3.45839607028674
30
0
41
1
10
21.9052453220022
20
-3.4801450017726
30
0
41
1
10
21.2427430314858
20
-3.529368928352
30
0
41
1
10
20.7999245583468
20
-3.54084818757732
30
0
41
1
10
20.3544599133489
20
-3.53036667175465
30
0
0
SPLINE
5
F7
100
AcDbEntity
8
1
62
256
6
ByLayer
370
18
48
1
60
0
100
AcDbSpline
70
4
71
3
72
16
73
12
40
0
40
0
40
0
40
0
40
0.25
40
0.25
40
0.375
40
0.375
40
0.5
40
0.5
40
0.75
40
0.75
40
1
40
1
40
1
40
1
41
1
10
20.3544599133489
20
-3.53036667175465
30
0
41
1
10
20.3462290871256
20
-3.53017300535203
30
0
41
1
10
20.3387600800033
20
-3.52993009294542
30
0
41
1
10
20.3286698594846
20
-3.52947349871718
30
0
41
1
10
20.325483630365
20
-3.52930461625422
30
0
41
1
10
20.3196822950867
20
-3.52894152436983
30
0
41
1
10
20.317041907091
20
-3.52874641013366
30
0
41
1
10
20.3098934209082
20
-3.52811568866574
30
0
41
1
10
20.30614818041
20
-3.52762854651195
30
0
41
1
10
20.3011973985157
20
-3.5265659633788
30
0
41
1
10
20.2999100203699
20
-3.52597919508187
30
0
41
1
10
20.2999100203698
20
-3.52535305254955
30
0
0
SPLINE
5
F8
100
AcDbEntity
8
1
62
256
6
ByLayer
370
18
48
1
60
0
100
AcDbSpline
70
4
71
3
72
27
73
23
40
0
40
0
40
0
40
0
40
0.124999999999963
40
0.124999999999963
40
0.187499999999945
40
0.187499999999945
40
0.249999999999927
40
0.312499999999909
40
0.312499999999909
40
0.374999999999891
40
0.374999999999891
40
0.499999999999854
40
0.499999999999854
40
0.624999999999817
40
0.624999999999817
40
0.687499999999848
40
0.687499999999848
40
0.749999999999878
40
0.749999999999878
40
0.874999999999939
40
0.874999999999939
40
1
40
1
40
1
40
1
41
1
10
20.2999100203699
20
-0.619747258156622
30
0
41
1
10
20.29991002037
20
-0.611265286479039
30
0
41
1
10
20.3010045042185
20
-0.602961681629012
30
0
41
1
10
20.3042377856933
20
-0.590766407475627
30
0
41
1
10
20.3055972992928
20
-0.586716992907895
30
0
41
1
10
20.3088042695699
20
-0.578893718481595
30
0
41
1
10
20.3124931199147
20
-0.571331718061458
30
0
41
1
10
20.3171245863635
20
-0.564281538272496
30
0
41
1
10
20.3222402198149
20
-0.557494696313682
30
0
41
1
10
20.3250362459471
20
-0.5542458947005
30
0
41
1
10
20.3339135678027
20
-0.545173021486477
30
0
41
1
10
20.3405739774493
20
-0.539897039702282
30
0
41
1
10
20.3552638143387
20
-0.531063476731703
30
0
41
1
10
20.363028845714
20
-0.527655176281826
30
0
41
1
10
20.3752927384026
20
-0.524024272713177
30
0
41
1
10
20.3795121417627
20
-0.52306193616667
30
0
41
1
10
20.3879441168587
20
-0.521696732295794
30
0
41
1
10
20.3921745980547
20
-0.521285027340326
30
0
41
1
10
20.4049087627796
20
-0.520848557791169
30
0
41
1
10
20.4135747455368
20
-0.521651769907152
30
0
41
1
10
20.4301588793414
20
-0.525347516704187
30
0
41
1
10
20.4381389196999
20
-0.528206118549207
30
0
41
1
10
20.4457939900132
20
-0.53211626903186
30
0
0
SPLINE
5
F9
100
AcDbEntity
8
1
62
256
6
ByLayer
370
18
48
1
60
0
100
AcDbSpline
70
4
71
3
72
157
73
153
40
0
40
0
40
0
40
0
40
0.0012479870481273
40
0.0012479870481273
40
0.011477328929105
40
0.011477328929105
40
0.0217066708100827
40
0.0217066708100827
40
0.0319360126910604
40
0.0319360126910604
40
0.0523946964530147
40
0.0523946964530147
40
0.0626240383339918
40
0.0626240383339918
40
0.0728533802149689
40
0.0728533802149689
40
0.0933120639769231
40
0.0933120639769231
40
0.113770747738877
40
0.113770747738877
40
0.134229431500832
40
0.134229431500832
40
0.154688115262786
40
0.154688115262786
40
0.164917457143764
40
0.164917457143764
40
0.175146799024741
40
0.175146799024741
40
0.185376140905719
40
0.185376140905719
40
0.195605482786697
40
0.195605482786697
40
0.216064166548652
40
0.216064166548652
40
0.22629350842963
40
0.22629350842963
40
0.236522850310608
40
0.236522850310608
40
0.246752192191586
40
0.246752192191586
40
0.256981534072563
40
0.256981534072563
40
0.27744021783452
40
0.27744021783452
40
0.287669559715498
40
0.287669559715498
40
0.297898901596476
40
0.297898901596476
40
0.308128243477455
40
0.308128243477455
40
0.318357585358433
40
0.318357585358433
40
0.33881626912039
40
0.33881626912039
40
0.359274952882347
40
0.359274952882347
40
0.369504294763326
40
0.369504294763326
40
0.374618965703815
40
0.374618965703815
40
0.379733636644304
40
0.379733636644304
40
0.400192320406264
40
0.400192320406264
40
0.410421662287244
40
0.410421662287244
40
0.420651004168223
40
0.420651004168223
40
0.441109687930183
40
0.441109687930183
40
0.461568371692143
40
0.461568371692143
40
0.471797713573123
40
0.471797713573123
40
0.482027055454103
40
0.482027055454103
40
0.502485739216063
40
0.502485739216063
40
0.522944422978022
40
0.522944422978022
40
0.533173764859002
40
0.533173764859002
40
0.543403106739981
40
0.543403106739981
40
0.563861790501941
40
0.563861790501941
40
0.574091132382921
40
0.574091132382921
40
0.584320474263901
40
0.584320474263901
40
0.59454981614488
40
0.59454981614488
40
0.60477915802586
40
0.60477915802586
40
0.625237841787821
40
0.625237841787821
40
0.645696525549781
40
0.645696525549781
40
0.655925867430761
40
0.655925867430761
40
0.666155209311741
40
0.666155209311741
40
0.686613893073701
40
0.686613893073701
40
0.707072576835661
40
0.707072576835661
40
0.717301918716641
40
0.717301918716641
40
0.72753126059762
40
0.72753126059762
40
0.747989944359579
40
0.747989944359579
40
0.758219286240559
40
0.758219286240559
40
0.763333957181049
40
0.763333957181049
40
0.768448628121539
40
0.768448628121539
40
0.77867797000252
40
0.77867797000252
40
0.788907311883501
40
0.788907311883501
40
0.809365995645463
40
0.809365995645463
40
0.819595337526444
40
0.819595337526444
40
0.829824679407425
40
0.829824679407425
40
0.840054021288406
40
0.840054021288406
40
0.850283363169386
40
0.850283363169386
40
0.870742046931349
40
0.870742046931349
40
0.891200730693311
40
0.891200730693311
40
0.911659414455273
40
0.911659414455273
40
0.932118098217236
40
0.932118098217236
40
0.942347440098217
40
0.942347440098217
40
0.952576781979197
40
0.952576781979197
40
0.957691452919687
40
0.957691452919687
40
0.962806123860178
40
0.973035465741158
40
0.973035465741158
40
0.99349414950312
40
0.99349414950312
40
1
40
1
40
1
40
1
41
1
10
36.4911785769124
20
-2.59363479427964
30
0
41
1
10
36.4799378284249
20
-2.59759743878283
30
0
41
1
10
36.4686963538637
20
-2.60155162308976
30
0
41
1
10
36.3653064763516
20
-2.6378404093179
30
0
41
1
10
36.2730831112028
20
-2.66957453494607
30
0
41
1
10
36.0883402916195
20
-2.73161410274949
30
0
41
1
10
35.9960117430866
20
-2.76187694688048
30
0
41
1
10
35.8116335258549
20
-2.82076589838189
30
0
41
1
10
35.71954568718
20
-2.84940491680681
30
0
41
1
10
35.4435243133396
20
-2.93285977967744
30
0
41
1
10
35.2598086449638
20
-2.98518979937873
30
0
41
1
10
34.9846534166213
20
-3.05878398234753
30
0
41
1
10
34.8930352175884
20
-3.08253000859443
30
0
41
1
10
34.7100140759805
20
-3.12845426444557
30
0
41
1
10
34.6185697139943
20
-3.15059072848868
30
0
41
1
10
34.3443108155883
20
-3.21441477041759
30
0
41
1
10
34.1615913289439
20
-3.25353603186198
30
0
41
1
10
33.7960602092446
20
-3.32472128713832
30
0
41
1
10
33.6132214499552
20
-3.35677461486529
30
0
41
1
10
33.2474723407484
20
-3.41387591975322
30
0
41
1
10
33.064753291311
20
-3.43901667657002
30
0
41
1
10
32.6987218633416
20
-3.48189649662277
30
0
41
1
10
32.515460869409
20
-3.49967341161192
30
0
41
1
10
32.239956017907
20
-3.52074719466935
30
0
41
1
10
32.1480187482934
20
-3.52684081766995
30
0
41
1
10
31.9639373288267
20
-3.53716191655798
30
0
41
1
10
31.8717826205727
20
-3.5413881571063
30
0
41
1
10
31.6873327214843
20
-3.54797103436928
30
0
41
1
10
31.5950690946803
20
-3.55032872064922
30
0
41
1
10
31.4102701863535
20
-3.55312443917762
30
0
41
1
10
31.3178762853528
20
-3.55356132384415
30
0
41
1
10
31.0412208242209
20
-3.55200878942563
30
0
41
1
10
30.8572442700412
20
-3.54715890751223
30
0
41
1
10
30.5817277647043
20
-3.53431584264939
30
0
41
1
10
30.4899668661044
20
-3.52910709170612
30
0
41
1
10
30.3065984312992
20
-3.5168503927446
30
0
41
1
10
30.2149806433672
20
-3.50980683666077
30
0
41
1
10
30.0320135635432
20
-3.49384530150328
30
0
41
1
10
29.9406518217747
20
-3.48492743378569
30
0
41
1
10
29.7579909670158
20
-3.46528369614586
30
0
41
1
10
29.666706032407
20
-3.4545537516783
30
0
41
1
10
29.3929216313921
20
-3.41968340250907
30
0
41
1
10
29.2104854218146
20
-3.39286529178543
30
0
41
1
10
28.9367483509973
20
-3.34746306603552
30
0
41
1
10
28.8454936874454
20
-3.33146412039176
30
0
41
1
10
28.6629658411589
20
-3.29774068031944
30
0
41
1
10
28.5716982516496
20
-3.280013529017
30
0
41
1
10
28.3892606917311
20
-3.24273150513309
30
0
41
1
10
28.2980519258683
20
-3.22320408771938
30
0
41
1
10
28.1155220592074
20
-3.1824785787816
30
0
41
1
10
28.0242128089926
20
-3.16127140342312
30
0
41
1
10
27.7500851128453
20
-3.09517613227541
30
0
41
1
10
27.567058117895
20
-3.04782240325943
30
0
41
1
10
27.2002030460311
20
-2.9467898079975
30
0
41
1
10
27.0163650725239
20
-2.8931392606373
30
0
41
1
10
26.7402903635919
20
-2.80749003415298
30
0
41
1
10
26.6481629758401
20
-2.77813482340139
30
0
41
1
10
26.5097588826414
20
-2.73295977410504
30
0
41
1
10
26.4635900233628
20
-2.71770942649451
30
0
41
1
10
26.3711782363764
20
-2.68683110678722
30
0
41
1
10
26.3249122380467
20
-2.67119532895288
30
0
41
1
10
26.0937667965482
20
-2.59222031437406
30
0
41
1
10
25.9093257886434
20
-2.52648302917319
30
0
41
1
10
25.6332110403924
20
-2.42435262178211
30
0
41
1
10
25.5412618618232
20
-2.38972528301497
30
0
41
1
10
25.3575958964126
20
-2.31922531556003
30
0
41
1
10
25.2659199718177
20
-2.28328860032772
30
0
41
1
10
24.9911660630038
20
-2.17371901685769
30
0
41
1
10
24.8082893996477
20
-2.09844231966639
30
0
41
1
10
24.4427723980617
20
-1.94403874117595
30
0
41
1
10
24.2601145494303
20
-1.86494314580179
30
0
41
1
10
23.9861619234347
20
-1.74368895975593
30
0
41
1
10
23.894843293823
20
-1.70284805041024
30
0
41
1
10
23.7123072986051
20
-1.62013744200871
30
0
41
1
10
23.6211164800434
20
-1.57821910284252
30
0
41
1
10
23.3474710388143
20
-1.45130657170489
30
0
41
1
10
23.1649721867105
20
-1.36510592763062
30
0
41
1
10
22.7994954232654
20
-1.19015617262835
30
0
41
1
10
22.6164977014984
20
-1.1014469777877
30
0
41
1
10
22.341529512032
20
-0.966691218806716
30
0
41
1
10
22.2497884379669
20
-0.921503836868197
30
0
41
1
10
22.0662741956791
20
-0.830309488945545
30
0
41
1
10
21.9744862616241
20
-0.784329769176679
30
0
41
1
10
21.69875608926
20
-0.645777667459072
30
0
41
1
10
21.5145039319513
20
-0.5524805271574
30
0
41
1
10
21.2372195796235
20
-0.411650724732027
30
0
41
1
10
21.144557051937
20
-0.364521870618916
30
0
41
1
10
20.9595722815755
20
-0.270365443594983
30
0
41
1
10
20.8671980794457
20
-0.22330503611073
30
0
41
1
10
20.6826841656118
20
-0.129218358409304
30
0
41
1
10
20.5905582423265
20
-0.0821627369062128
30
0
41
1
10
20.4066463547641
20
0.0121344334054641
30
0
41
1
10
20.3148180699568
20
0.0592870604388338
30
0
41
1
10
20.0395448133843
20
0.200406039289135
30
0
41
1
10
19.8563476369984
20
0.294108599266906
30
0
41
1
10
19.490250312099
20
0.480102594074822
30
0
41
1
10
19.3073257942064
20
0.572347459438078
30
0
41
1
10
19.0331428250713
20
0.7096381862209
30
0
41
1
10
18.9418234088327
20
0.755302662949276
30
0
41
1
10
18.7592980907701
20
0.84635714293924
30
0
41
1
10
18.668054241326
20
0.891672957292172
30
0
41
1
10
18.3942824458585
20
1.02679943890547
30
0
41
1
10
18.2117245713186
20
1.1158088450743
30
0
41
1
10
17.8461963857254
20
1.29106762203008
30
0
41
1
10
17.66319505
20
1.37726175166307
30
0
41
1
10
17.3884464606642
20
1.50459966592823
30
0
41
1
10
17.2968738769898
20
1.54681383829336
30
0
41
1
10
17.1136017595693
20
1.63050038755048
30
0
41
1
10
17.0218869806237
20
1.67194533572288
30
0
41
1
10
16.7464425598924
20
1.79496665445922
30
0
41
1
10
16.5624083468621
20
1.87522085048835
30
0
41
1
10
16.2855067848708
20
1.99252196385112
30
0
41
1
10
16.1930661394232
20
2.03111205432577
30
0
41
1
10
16.0541939257113
20
2.08822806921131
30
0
41
1
10
16.0078440696447
20
2.1071468554245
30
0
41
1
10
15.9152124854255
20
2.14467783536239
30
0
41
1
10
15.8689343440668
20
2.1632917520131
30
0
41
1
10
15.730243980617
20
2.21873122499432
30
0
41
1
10
15.6379844524131
20
2.25516609763216
30
0
41
1
10
15.4536613514168
20
2.32665005018845
30
0
41
1
10
15.3616098626802
20
2.36172061407635
30
0
41
1
10
15.085718661728
20
2.46483675526525
30
0
41
1
10
14.9021355937876
20
2.53077572510006
30
0
41
1
10
14.6270486181549
20
2.62524308514063
30
0
41
1
10
14.5354052186873
20
2.65599876192025
30
0
41
1
10
14.3522227877994
20
2.7160537404136
30
0
41
1
10
14.2606798555217
20
2.74534945098469
30
0
41
1
10
14.0778257595122
20
2.80264122162166
30
0
41
1
10
13.9864837024078
20
2.8305953798228
30
0
41
1
10
13.8038097350799
20
2.88492498478863
30
0
41
1
10
13.7124918402948
20
2.91131826458971
30
0
41
1
10
13.4385282764887
20
2.98811606084146
30
0
41
1
10
13.2558644173249
20
3.03612907328073
30
0
41
1
10
12.8902294353324
20
3.12556571631203
30
0
41
1
10
12.7072312280581
20
3.16698018015944
30
0
41
1
10
12.3413634806328
20
3.24355901515693
30
0
41
1
10
12.1582838106565
20
3.27852478415025
30
0
41
1
10
11.7913398585179
20
3.34139498498976
30
0
41
1
10
11.607485690685
20
3.3693126480195
30
0
41
1
10
11.3309616822369
20
3.40579477991073
30
0
41
1
10
11.2386642972688
20
3.41705782467221
30
0
41
1
10
11.0538560980554
20
3.43779288370729
30
0
41
1
10
10.9613851579629
20
3.44728258033484
30
0
41
1
10
10.8225205161279
20
3.46014884369504
30
0
41
1
10
10.7761932322523
20
3.46420693884784
30
0
41
1
10
10.6836338104253
20
3.47184240895888
30
0
41
1
10
10.5448759294736
20
3.48258180732856
30
0
41
1
10
10.4063352320227
20
3.49118091292246
30
0
41
1
10
10.1294748927196
20
3.50553678663945
30
0
41
1
10
9.94517860756093
20
3.51131628949597
30
0
41
1
10
9.70252442187996
20
3.51401639210297
30
0
41
1
10
9.64399491899414
20
3.51429095988235
30
0
41
1
10
9.58549422332396
20
3.51418889143506
30
0
0
SPLINE
5
FA
100
AcDbEntity
8
1
62
256
6
ByLayer
370
18
48
1
60
0
100
AcDbSpline
70
4
71
3
72
28
73
24
40
0
40
0
40
0
40
0
40
0.0606233406342076
40
0.0606233406342076
40
0.194820006257892
40
0.194820006257892
40
0.329016671881576
40
0.329016671881576
40
0.46321333750526
40
0.46321333750526
40
0.496762503911182
40
0.496762503911182
40
0.530311670317104
40
0.530311670317104
40
0.597410003128947
40
0.597410003128947
40
0.731606668752631
40
0.731606668752631
40
0.865803334376316
40
0.865803334376316
40
0.932901667188158
40
0.932901667188158
40
1
40
1
40
1
40
1
41
1
10
14.6690482477842
20
2.61709940559598
30
0
41
1
10
14.7829243457468
20
2.6561150037104
30
0
41
1
10
14.896875455625
20
2.69409808264823
30
0
41
1
10
15.2634289859259
20
2.81265634407549
30
0
41
1
10
15.5154126697247
20
2.88869573218514
30
0
41
1
10
16.0189218038573
20
3.02897298986139
30
0
41
1
10
16.2704121630713
20
3.09324185528124
30
0
41
1
10
16.7736274258823
20
3.20928696507033
30
0
41
1
10
17.0253581077753
20
3.26106586322092
30
0
41
1
10
17.3404991777078
20
3.31768111073046
30
0
41
1
10
17.4035525268934
20
3.32859772920497
30
0
41
1
10
17.5297201365372
20
3.34960883204275
30
0
41
1
10
17.5928430854931
20
3.35970536444643
30
0
41
1
10
17.782041957825
20
3.38872256115855
30
0
41
1
10
17.9080405630326
20
3.40637652722697
30
0
41
1
10
18.2858273663494
20
3.454184907224
30
0
41
1
10
18.5373981355929
20
3.47919682372088
30
0
41
1
10
19.0404665020334
20
3.5153701882144
30
0
41
1
10
19.2919676069612
20
3.52652708117918
30
0
41
1
10
19.6696220936734
20
3.53273338461545
30
0
41
1
10
19.7955861541983
20
3.53304668452245
30
0
41
1
10
20.047752928657
20
3.53014991838518
30
0
41
1
10
20.1740123499214
20
3.52693396411198
30
0
41
1
10
20.2999100203699
20
3.52197510607525
30
0
0
SPLINE
5
FB
100
AcDbEntity
8
1
62
256
6
ByLayer
370
18
48
1
60
0
100
AcDbSpline
70
4
71
3
72
70
73
66
40
0
40
0
40
0
40
0
40
0.0156250000000004
40
0.0156250000000004
40
0.0312500000000009
40
0.0312500000000009
40
0.062500000000001
40
0.062500000000001
40
0.0937500000000011
40
0.0937500000000011
40
0.125000000000001
40
0.125000000000001
40
0.156250000000001
40
0.156250000000001
40
0.171875000000002
40
0.171875000000002
40
0.187500000000002
40
0.187500000000002
40
0.250000000000004
40
0.250000000000004
40
0.281250000000005
40
0.281250000000005
40
0.296875000000006
40
0.296875000000006
40
0.312500000000006
40
0.312500000000006
40
0.375000000000005
40
0.375000000000005
40
0.406250000000004
40
0.406250000000004
40
0.421875000000004
40
0.421875000000004
40
0.437500000000004
40
0.437500000000004
40
0.500000000000004
40
0.500000000000004
40
0.531250000000003
40
0.531250000000003
40
0.546875000000003
40
0.546875000000003
40
0.562500000000003
40
0.625000000000006
40
0.625000000000006
40
0.656250000000007
40
0.656250000000007
40
0.671875000000007
40
0.671875000000007
40
0.687500000000007
40
0.750000000000007
40
0.750000000000007
40
0.765625000000006
40
0.765625000000006
40
0.781250000000006
40
0.781250000000006
40
0.812500000000005
40
0.812500000000005
40
0.874999999999999
40
0.874999999999999
40
0.890624999999999
40
0.890624999999999
40
0.906249999999999
40
0.906249999999999
40
0.937499999999999
40
0.937499999999999
40
1
40
1
40
1
40
1
41
1
10
20.2999100203699
20
3.52724998086342
30
0
41
1
10
20.4114274164903
20
3.52407547943534
30
0
41
1
10
20.5229263960079
20
3.51952951030674
30
0
41
1
10
20.7459426149407
20
3.50770227465867
30
0
41
1
10
20.8575052279998
20
3.50041732557853
30
0
41
1
10
21.1919792616558
20
3.47450047297912
30
0
41
1
10
21.414442817076
20
3.45182844274655
30
0
41
1
10
21.8587920178464
20
3.39600164575677
30
0
41
1
10
22.080678369411
20
3.36284729074896
30
0
41
1
10
22.5243285896791
20
3.28639995985662
30
0
41
1
10
22.7460865016734
20
3.24310609395977
30
0
41
1
10
23.1898112478573
20
3.14664238731606
30
0
41
1
10
23.4117780810602
20
3.09347135611992
30
0
41
1
10
23.7451755500058
20
3.00651692267607
30
0
41
1
10
23.8563829219719
20
2.97633271066405
30
0
41
1
10
24.0789997910349
20
2.9136046784507
30
0
41
1
10
24.1904396322722
20
2.88105164992481
30
0
41
1
10
24.7479592010315
20
2.71259180475724
30
0
41
1
10
25.192259339933
20
2.56041712183898
30
0
41
1
10
25.8588514443937
20
2.30977505463645
30
0
41
1
10
26.0810734835813
20
2.22250255804326
30
0
41
1
10
26.4147792476431
20
2.08649627113906
30
0
41
1
10
26.5260769425479
20
2.04031203634216
30
0
41
1
10
26.7488452727459
20
1.94631642970711
30
0
41
1
10
26.860375201061
20
1.89847835541687
30
0
41
1
10
27.4173697091327
20
1.65593461271894
30
0
41
1
10
27.8614820093168
20
1.45089092532672
30
0
41
1
10
28.5280103370798
20
1.13145636589732
30
0
41
1
10
28.7502491888727
20
1.02300592817843
30
0
41
1
10
29.0840373315227
20
0.857987645827649
30
0
41
1
10
29.1953717609026
20
0.802591355416439
30
0
41
1
10
29.4182393560957
20
0.691120899111041
30
0
41
1
10
29.5296788473846
20
0.635092210819465
30
0
41
1
10
30.0862390060778
20
0.354114345873597
30
0
41
1
10
30.5301998495938
20
0.126255246523755
30
0
41
1
10
31.1967197586771
20
-0.215227161587222
30
0
41
1
10
31.4189921301175
20
-0.32899840290284
30
0
41
1
10
31.7528773678846
20
-0.498926958116186
30
0
41
1
10
31.8643150885408
20
-0.555480191785506
30
0
41
1
10
32.0870774903914
20
-0.66807100457649
30
0
41
1
10
32.6435014077788
20
-0.948162357999109
30
0
41
1
10
33.1982030221073
20
-1.22003663771346
30
0
41
1
10
33.8646375137962
20
-1.53384882991796
30
0
41
1
10
34.0869164332997
20
-1.63637617333254
30
0
41
1
10
34.4208759167643
20
-1.78642771869318
30
0
41
1
10
34.5322901355579
20
-1.83582183373477
30
0
41
1
10
34.7548157512303
20
-1.9330241983655
30
0
41
1
10
35.3107098732612
20
-2.17222411561065
30
0
41
1
10
35.865170762648
20
-2.39135838945407
30
0
41
1
10
36.4206412250163
20
-2.59123760770018
30
0
41
1
10
36.5317856144484
20
-2.63025148818196
30
0
41
1
10
36.754227302644
20
-2.70627923837046
30
0
41
1
10
36.8655500108754
20
-2.74330114902776
30
0
41
1
10
37.1996625308257
20
-2.85120470542077
30
0
41
1
10
37.4220013018634
20
-2.91873844108613
30
0
41
1
10
38.0884100913374
20
-3.1075249686875
30
0
41
1
10
38.5318635850587
20
-3.21495443843932
30
0
41
1
10
39.0873824593542
20
-3.32405143126917
30
0
41
1
10
39.1985470412735
20
-3.34461180650658
30
0
41
1
10
39.4210552685672
20
-3.38316389664399
30
0
41
1
10
39.5324240769189
20
-3.40115764322905
30
0
41
1
10
39.8660797112332
20
-3.45110299535284
30
0
41
1
10
40.0881772160702
20
-3.47906545061969
30
0
41
1
10
40.7541010943644
20
-3.54676402654155
30
0
41
1
10
41.197513037274
20
-3.5703320423828
30
0
41
1
10
41.6420059387122
20
-3.57187175207903
30
0
0
SPLINE
5
FC
100
AcDbEntity
8
1
62
256
6
ByLayer
370
18
48
1
60
0
100
AcDbSpline
70
4
71
3
72
10
73
6
40
0
40
0
40
0
40
0
40
0.5
40
0.5
40
1
40
1
40
1
40
1
41
1
10
41.6192817716698
20
-3.54919003213058
30
0
41
1
10
41.6230617515011
20
-3.55652456599421
30
0
41
1
10
41.6268538839697
20
-3.56209781715941
30
0
41
1
10
41.6344359901616
20
-3.5696618817812
30
0
41
1
10
41.638222704821
20
-3.57165487710614
30
0
41
1
10
41.6420059387124
20
-3.57187175207903
30
0
0
SPLINE
5
FD
100
AcDbEntity
8
1
62
256
6
ByLayer
370
18
48
1
60
0
100
AcDbSpline
70
4
71
3
72
66
73
62
40
0
40
0
40
0
40
0
40
0.0633753738345842
40
0.0633753738345842
40
0.0792192172932303
40
0.0792192172932303
40
0.0950630607518763
40
0.0950630607518763
40
0.126750747669168
40
0.126750747669168
40
0.158438434586461
40
0.158438434586461
40
0.190126121503753
40
0.190126121503753
40
0.205969964962398
40
0.205969964962398
40
0.221813808421043
40
0.253501495338334
40
0.253501495338334
40
0.285189182255624
40
0.285189182255624
40
0.316876869172915
40
0.316876869172915
40
0.332720712631561
40
0.332720712631561
40
0.348564556090207
40
0.380252243007497
40
0.380252243007497
40
0.411939929924788
40
0.411939929924788
40
0.443627616842078
40
0.443627616842078
40
0.50700299067666
40
0.50700299067666
40
0.538690677593952
40
0.538690677593952
40
0.554534521052596
40
0.554534521052596
40
0.570378364511241
40
0.570378364511241
40
0.633753738345819
40
0.633753738345819
40
0.697129112180397
40
0.697129112180397
40
0.760504486014975
40
0.760504486014975
40
0.792192172932263
40
0.792192172932263
40
0.808036016390907
40
0.808036016390907
40
0.823879859849551
40
0.823879859849551
40
0.855567546766839
40
0.855567546766839
40
0.887255233684126
40
0.887255233684126
40
0.918942920601414
40
0.918942920601414
40
0.950630607518702
40
0.950630607518702
40
1
40
1
40
1
40
1
41
1
10
41.6192817716825
20
-3.54919003213047
30
0
41
1
10
41.1752647607569
20
-3.52259386271263
30
0
41
1
10
40.731963732447
20
-3.47414109917585
30
0
41
1
10
40.1767092637637
20
-3.38728153282213
30
0
41
1
10
40.0656061764303
20
-3.36859276269891
30
0
41
1
10
39.8432694744541
20
-3.3285856284497
30
0
41
1
10
39.7321081112159
20
-3.30728200351354
30
0
41
1
10
39.398993640039
20
-3.23965126134476
30
0
41
1
10
39.1772227708154
20
-3.18957401779258
30
0
41
1
10
38.733847973317
20
-3.07988670591229
30
0
41
1
10
38.512303530088
20
-3.02021818766659
30
0
41
1
10
38.0689441256063
20
-2.89178673376577
30
0
41
1
10
37.8471208045996
20
-2.82303821406208
30
0
41
1
10
37.5139007306806
20
-2.71340283062355
30
0
41
1
10
37.4026847352393
20
-2.67575251633659
30
0
41
1
10
37.1803309117499
20
-2.59845436435222
30
0
41
1
10
36.8470767710434
20
-2.47956960256906
30
0
41
1
10
36.5143923054611
20
-2.35226868280978
30
0
41
1
10
36.0709138608407
20
-2.17568278771913
30
0
41
1
10
35.8492924765364
20
-2.08385897438637
30
0
41
1
10
35.4056988690075
20
-1.89404786701115
30
0
41
1
10
35.1837101392733
20
-1.79609159210247
30
0
41
1
10
34.8501632641295
20
-1.64502192503184
30
0
41
1
10
34.7388765965555
20
-1.59397166544204
30
0
41
1
10
34.5166037783717
20
-1.49083061677035
30
0
41
1
10
34.1834445528787
20
-1.33446579275406
30
0
41
1
10
33.850802741759
20
-1.17357191479206
30
0
41
1
10
33.4072872470834
20
-0.955866426717222
30
0
41
1
10
33.1855363403025
20
-0.845417805671104
30
0
41
1
10
32.7416610702537
20
-0.622053885555175
30
0
41
1
10
32.5194849888843
20
-0.509120904061888
30
0
41
1
10
31.8519344101418
20
-0.168205814574918
30
0
41
1
10
31.4084007320603
20
0.0604422317213675
30
0
41
1
10
30.7428212133979
20
0.400530127019579
30
0
41
1
10
30.5209206948626
20
0.513423796794399
30
0
41
1
10
30.1877763185586
20
0.681604923120773
30
0
41
1
10
30.0766772930589
20
0.737468172871985
30
0
41
1
10
29.8543026807253
20
0.848654677328426
30
0
41
1
10
29.742945892557
20
0.904017114592733
30
0
41
1
10
29.1874015102312
20
1.17820709241593
30
0
41
1
10
28.7458236484789
20
1.389761361654
30
0
41
1
10
27.8652898625218
20
1.79219049009214
30
0
41
1
10
27.4263172817146
20
1.98302800407024
30
0
41
1
10
26.5477929906974
20
2.33875954150614
30
0
41
1
10
26.1082210494381
20
2.50361394828502
30
0
41
1
10
25.445858108894
20
2.7273858380957
30
0
41
1
10
25.2245649688075
20
2.79805554506402
30
0
41
1
10
24.8916038348731
20
2.89775959261951
30
0
41
1
10
24.7804463556075
20
2.92994347379189
30
0
41
1
10
24.5577191721847
20
2.9921066484406
30
0
41
1
10
24.4465216021865
20
3.02198255081851
30
0
41
1
10
24.1133734721589
20
3.10796516893617
30
0
41
1
10
23.8918638436628
20
3.16042161918836
30
0
41
1
10
23.4495261821749
20
3.25528207642475
30
0
41
1
10
23.2286997535284
20
3.29769198229121
30
0
41
1
10
22.7873845506078
20
3.37229461680855
30
0
41
1
10
22.5668772298601
20
3.40447418112518
30
0
41
1
10
22.125795033357
20
3.45839607028674
30
0
41
1
10
21.9052453220022
20
3.4801450017726
30
0
41
1
10
21.3403518677056
20
3.52211659087882
30
0
41
1
10
20.9955944741803
20
3.5347322375035
30
0
41
1
10
20.6494318936824
20
3.53410489527514
30
0
0
SPLINE
5
FE
100
AcDbEntity
8
1
62
256
6
ByLayer
370
18
48
1
60
0
100
AcDbSpline
70
4
71
3
72
12
73
8
40
0
40
0
40
0
40
0
40
0.5
40
0.5
40
0.75
40
0.75
40
1
40
1
40
1
40
1
41
1
10
41.623706784941
20
-0.243266598092418
30
0
41
1
10
41.6324347372147
20
-0.16567125193626
30
0
41
1
10
41.6420319854255
20
-0.0878127052905313
30
0
41
1
10
41.6579180063773
20
0.0293591358515073
30
0
41
1
10
41.6634619358591
20
0.0684804625899176
30
0
41
1
10
41.6750810578752
20
0.14684992989325
30
0
41
1
10
41.6811238135914
20
0.185877983873468
30
0
41
1
10
41.6874043517675
20
0.224723373896239
30
0
0
SPLINE
5
FF
100
AcDbEntity
8
1
62
256
6
ByLayer
370
18
48
1
60
0
100
AcDbSpline
70
4
71
3
72
60
73
56
40
0
40
0
40
0
40
0
40
0.0264438345145382
40
0.0264438345145382
40
0.0528876690290763
40
0.0528876690290763
40
0.105775338058153
40
0.105775338058153
40
0.158663007087229
40
0.158663007087229
40
0.185106841601767
40
0.185106841601767
40
0.211550676116305
40
0.211550676116305
40
0.264438345145382
40
0.264438345145382
40
0.317326014174458
40
0.317326014174458
40
0.343769848688998
40
0.343769848688998
40
0.370213683203537
40
0.370213683203537
40
0.423101352232617
40
0.423101352232617
40
0.475989021261696
40
0.475989021261696
40
0.502432855776236
40
0.502432855776236
40
0.528876690290776
40
0.528876690290776
40
0.555320524805315
40
0.555320524805315
40
0.581764359319855
40
0.581764359319855
40
0.634652028348935
40
0.634652028348935
40
0.661095862863474
40
0.661095862863474
40
0.687539697378014
40
0.687539697378014
40
0.740427366407091
40
0.740427366407091
40
0.793315035436167
40
0.793315035436167
40
0.846202704465243
40
0.846202704465243
40
0.899090373494319
40
0.899090373494319
40
0.925534208008859
40
0.925534208008859
40
0.951978042523399
40
0.951978042523399
40
0.978421877037938
40
0.978421877037938
40
1
40
1
40
1
40
1
41
1
10
41.6874043517677
20
0.224723373885212
30
0
41
1
10
41.595030195852
20
0.272299656071226
30
0
41
1
10
41.5026545597293
20
0.319773578583295
30
0
41
1
10
41.3179288590316
20
0.414571929215043
30
0
41
1
10
41.2256179610422
20
0.461971666046736
30
0
41
1
10
40.9487387155539
20
0.603972386527431
30
0
41
1
10
40.763910578094
20
0.698190990385484
30
0
41
1
10
40.3953424573676
20
0.884012776436151
30
0
41
1
10
40.2114377462633
20
0.975674306583301
30
0
41
1
10
39.9360035345145
20
1.11106689043794
30
0
41
1
10
39.8442576625802
20
1.15583880984781
30
0
41
1
10
39.6609756408177
20
1.24481763325252
30
0
41
1
10
39.5694744207114
20
1.28908885724653
30
0
41
1
10
39.2951217422571
20
1.42073892069553
30
0
41
1
10
39.1124159161349
20
1.50694680423877
30
0
41
1
10
38.7470501077815
20
1.67565820162002
30
0
41
1
10
38.5643713976168
20
1.75813128142391
30
0
41
1
10
38.2902578684827
20
1.87886608308074
30
0
41
1
10
38.1988632037502
20
1.91860309456683
30
0
41
1
10
38.0161509583133
20
1.99726281374575
30
0
41
1
10
37.9248378475707
20
2.03619079668928
30
0
41
1
10
37.6507321595049
20
2.15127583117996
30
0
41
1
10
37.4678257421663
20
2.22582160742033
30
0
41
1
10
37.1013332083483
20
2.37001868042373
30
0
41
1
10
36.9177274637387
20
2.43964323139647
30
0
41
1
10
36.6417081034978
20
2.54025237102687
30
0
41
1
10
36.549602040352
20
2.57315455722355
30
0
41
1
10
36.3653064763517
20
2.6378404093179
30
0
41
1
10
36.2730831112028
20
2.66957453494607
30
0
41
1
10
36.0883402916195
20
2.73161410274949
30
0
41
1
10
35.9960117430867
20
2.76187694688048
30
0
41
1
10
35.8116335258549
20
2.82076589838189
30
0
41
1
10
35.71954568718
20
2.84940491680681
30
0
41
1
10
35.4435243133397
20
2.93285977967744
30
0
41
1
10
35.2598086449639
20
2.98518979937873
30
0
41
1
10
34.9846534166213
20
3.05878398234756
30
0
41
1
10
34.8930352175884
20
3.08253000859443
30
0
41
1
10
34.7100140759805
20
3.12845426444559
30
0
41
1
10
34.6185697139943
20
3.15059072848868
30
0
41
1
10
34.3443108155883
20
3.21441477041759
30
0
41
1
10
34.161591328944
20
3.25353603186198
30
0
41
1
10
33.7960602092447
20
3.32472128713832
30
0
41
1
10
33.6132214499551
20
3.35677461486529
30
0
41
1
10
33.2474723407484
20
3.41387591975322
30
0
41
1
10
33.0647532913111
20
3.43901667657002
30
0
41
1
10
32.6987218633416
20
3.48189649662274
30
0
41
1
10
32.515460869409
20
3.49967341161195
30
0
41
1
10
32.2399560179071
20
3.52074719466935
30
0
41
1
10
32.1480187482934
20
3.52684081766995
30
0
41
1
10
31.9639373288267
20
3.53716191655798
30
0
41
1
10
31.8717826205726
20
3.5413881571063
30
0
41
1
10
31.6873327214843
20
3.54797103436928
30
0
41
1
10
31.5950690946803
20
3.55032872064922
30
0
41
1
10
31.427271846658
20
3.55286723064131
30
0
41
1
10
31.3518777503902
20
3.55336801339567
30
0
41
1
10
31.2765796430313
20
3.55323250248338
30
0
0
SPLINE
5
100
100
AcDbEntity
8
1
62
256
6
ByLayer
370
18
48
1
60
0
100
AcDbSpline
70
4
71
3
72
47
73
43
40
0
40
0
40
0
40
0
40
0.0274983058944608
40
0.0274983058944608
40
0.0610328470705168
40
0.0610328470705168
40
0.0945673882465728
40
0.0945673882465728
40
0.128101929422629
40
0.128101929422629
40
0.195171011774739
40
0.195171011774739
40
0.262240094126848
40
0.262240094126848
40
0.329309176478958
40
0.329309176478958
40
0.396378258831068
40
0.396378258831068
40
0.429912800007124
40
0.429912800007124
40
0.46344734118318
40
0.46344734118318
40
0.480214611771207
40
0.480214611771207
40
0.496981882359234
40
0.530516423535286
40
0.530516423535286
40
0.597585505887388
40
0.597585505887388
40
0.631120047063439
40
0.631120047063439
40
0.664654588239489
40
0.664654588239489
40
0.731723670591591
40
0.731723670591591
40
0.798792752943694
40
0.798792752943694
40
0.865861835295796
40
0.865861835295796
40
0.932930917647898
40
0.932930917647898
40
1
40
1
40
1
40
1
41
1
10
14.6692335536714
20
-2.61068687982134
30
0
41
1
10
14.594058587449
20
-2.63629156814375
30
0
41
1
10
14.5189187511002
20
-2.66140372598571
30
0
41
1
10
14.3522227877993
20
-2.7160537404136
30
0
41
1
10
14.2606798555217
20
-2.74534945098469
30
0
41
1
10
14.0778257595122
20
-2.80264122162166
30
0
41
1
10
13.9864837024078
20
-2.8305953798228
30
0
41
1
10
13.80380973508
20
-2.88492498478863
30
0
41
1
10
13.7124918402948
20
-2.91131826458974
30
0
41
1
10
13.4385282764887
20
-2.98811606084146
30
0
41
1
10
13.2558644173249
20
-3.0361290732807
30
0
41
1
10
12.8902294353325
20
-3.12556571631203
30
0
41
1
10
12.7072312280581
20
-3.16698018015944
30
0
41
1
10
12.3413634806328
20
-3.24355901515693
30
0
41
1
10
12.1582838106565
20
-3.27852478415028
30
0
41
1
10
11.7913398585179
20
-3.34139498498976
30
0
41
1
10
11.607485690685
20
-3.3693126480195
30
0
41
1
10
11.3309616822369
20
-3.40579477991073
30
0
41
1
10
11.2386642972687
20
-3.41705782467219
30
0
41
1
10
11.0538560980554
20
-3.43779288370729
30
0
41
1
10
10.9613851579629
20
-3.44728258033484
30
0
41
1
10
10.8225205161279
20
-3.46014884369501
30
0
41
1
10
10.7761932322523
20
-3.46420693884784
30
0
41
1
10
10.6836338104253
20
-3.47184240895888
30
0
41
1
10
10.5448759294736
20
-3.48258180732859
30
0
41
1
10
10.4063352320227
20
-3.49118091292246
30
0
41
1
10
10.1294748927196
20
-3.50553678663945
30
0
41
1
10
9.94517860756091
20
-3.51131628949597
30
0
41
1
10
9.66901667570397
20
-3.51438924515122
30
0
41
1
10
9.57700405427866
20
-3.51448178936752
30
0
41
1
10
9.3931554287565
20
-3.51280536208657
30
0
41
1
10
9.30135362681443
20
-3.5110317615711
30
0
41
1
10
9.02604263280702
20
-3.50290247774501
30
0
41
1
10
8.84261934670209
20
-3.49374138819374
30
0
41
1
10
8.4755518051723
20
-3.46809506633971
30
0
41
1
10
8.29190684116108
20
-3.45162486700738
30
0
41
1
10
7.92450591940337
20
-3.41136699480475
30
0
41
1
10
7.74085545942324
20
-3.38751798624668
30
0
41
1
10
7.37312835188897
20
-3.33251455801178
30
0
41
1
10
7.18899675239325
20
-3.30139087955126
30
0
41
1
10
6.81963965179335
20
-3.23231156251691
30
0
41
1
10
6.6344630201279
20
-3.19433077318061
30
0
41
1
10
6.44871763486813
20
-3.15297908943589
30
0
0
SPLINE
5
101
100
AcDbEntity
8
1
62
256
6
ByLayer
370
18
48
1
60
0
100
AcDbSpline
70
4
71
3
72
22
73
18
40
0
40
0
40
0
40
0
40
0.0088384560707177
40
0.0088384560707177
40
0.0176769124126255
40
0.0176769124126255
40
0.0530309153134434
40
0.0530309153134434
40
0.194456727002102
40
0.194456727002102
40
0.477361411082224
40
0.477361411082224
40
0.760258512797211
40
0.760258512797211
40
0.901682804007017
40
0.901682804007017
40
1
40
1
40
1
40
1
41
1
10
5.34599910089779
20
1.41298741520333
30
0
41
1
10
5.34602075196355
20
1.41299853319524
30
0
41
1
10
5.34604240876396
20
1.41300964180476
30
0
41
1
10
5.34608573473636
20
1.41303183871736
30
0
41
1
10
5.34610740391602
20
1.41304292702026
30
0
41
1
10
5.34621578335336
20
1.41309831384083
30
0
41
1
10
5.34630261313535
20
1.41314241602561
30
0
41
1
10
5.3467371486212
20
1.4133623075011
30
0
41
1
10
5.34708649941777
20
1.41353538967195
30
0
41
1
10
5.34813902812121
20
1.41404694851008
30
0
41
1
10
5.34884693078288
20
1.41437747246778
30
0
41
1
10
5.35027331835568
20
1.41501826139245
30
0
41
1
10
5.35099194130777
20
1.41532866477053
30
0
41
1
10
5.35207686256396
20
1.4157797709943
30
0
41
1
10
5.35243967434045
20
1.4159277441052
30
0
41
1
10
5.3530565990749
20
1.41617461071056
30
0
41
1
10
5.35331014692838
20
1.41627472091417
30
0
41
1
10
5.35356420828785
20
1.41637371688293
30
0
0
SPLINE
5
102
100
AcDbEntity
8
1
62
256
6
ByLayer
370
18
48
1
60
0
100
AcDbSpline
70
4
71
3
72
16
73
12
40
0
40
0
40
0
40
0
40
0.091236562542101
40
0.091236562542101
40
0.242944090751019
40
0.242944090751019
40
0.546359151445043
40
0.546359151445043
40
0.849774212139453
40
0.849774212139453
40
1
40
1
40
1
40
1
41
1
10
5.4548236975879
20
1.41829341233475
30
0
41
1
10
5.45515999825184
20
1.41820263485837
30
0
41
1
10
5.45549629500266
20
1.41811184354802
30
0
41
1
10
5.45639177312438
20
1.41787004826452
30
0
41
1
10
5.456950947586
20
1.41771901986723
30
0
41
1
10
5.45862843850318
20
1.41726581994678
30
0
41
1
10
5.45974672250586
20
1.41696353371427
30
0
41
1
10
5.46198320373989
20
1.41635865500334
30
0
41
1
10
5.46310140110563
20
1.41605606286908
30
0
41
1
10
5.46477317139332
20
1.41560342316058
30
0
41
1
10
5.46532677737721
20
1.41545349205248
30
0
41
1
10
5.46588037237902
20
1.41530352236919
30
0
0
SPLINE
5
103
100
AcDbEntity
8
1
62
256
6
ByLayer
370
18
48
1
60
0
100
AcDbSpline
70
4
71
3
72
44
73
40
40
0
40
0
40
0
40
0
40
0.0655200642838726
40
0.0655200642838726
40
0.131040128567745
40
0.131040128567745
40
0.262080257135489
40
0.262080257135489
40
0.327600321419361
40
0.327600321419361
40
0.360360353561296
40
0.360360353561296
40
0.376740369632263
40
0.376740369632263
40
0.39312038570323
40
0.39312038570323
40
0.458640449987095
40
0.458640449987095
40
0.524160514270959
40
0.524160514270959
40
0.589680578554824
40
0.589680578554824
40
0.655200642838689
40
0.655200642838689
40
0.720720707122553
40
0.720720707122553
40
0.786240771406418
40
0.786240771406418
40
0.802620787477384
40
0.802620787477384
40
0.819000803548351
40
0.819000803548351
40
0.851760835690283
40
0.851760835690283
40
0.917280899974146
40
0.917280899974146
40
0.982800964258009
40
0.982800964258009
40
1
40
1
40
1
40
1
41
1
10
8.22388395549143
20
0.332388365571461
30
0
41
1
10
8.47656690893152
20
0.204715669049818
30
0
41
1
10
8.7284029369913
20
0.0767957970035411
30
0
41
1
10
9.23092292705016
20
-0.178468265064595
30
0
41
1
10
9.48161241127204
20
-0.30580036077049
30
0
41
1
10
10.2329303852237
20
-0.684996467286965
30
0
41
1
10
10.7328871955517
20
-0.9339065827333
30
0
41
1
10
11.4847779779693
20
-1.29490943964222
30
0
41
1
10
11.7357324282046
20
-1.41318501076702
30
0
41
1
10
12.1132156161008
20
-1.58642358848678
30
0
41
1
10
12.2392076198912
20
-1.64349469290028
30
0
41
1
10
12.4284940724762
20
-1.72798762574845
30
0
41
1
10
12.4916575892688
20
-1.75597331559533
30
0
41
1
10
12.6178753432364
20
-1.81145434259872
30
0
41
1
10
12.6809550924001
20
-1.83895874485785
30
0
41
1
10
12.9962120777097
20
-1.97529671765136
30
0
41
1
10
13.2479427782784
20
-2.08060665836268
30
0
41
1
10
13.7513243404261
20
-2.28234269207471
30
0
41
1
10
14.0029154645848
20
-2.37886745104876
30
0
41
1
10
14.506503442236
20
-2.56231516087198
30
0
41
1
10
14.7584473622845
20
-2.64932482929643
30
0
41
1
10
15.2634289859259
20
-2.81265634407549
30
0
41
1
10
15.5154126697247
20
-2.88869573218514
30
0
41
1
10
16.0189218038574
20
-3.02897298986139
30
0
41
1
10
16.2704121630713
20
-3.09324185528124
30
0
41
1
10
16.7736274258823
20
-3.20928696507033
30
0
41
1
10
17.0253581077753
20
-3.26106586322092
30
0
41
1
10
17.3404991777078
20
-3.31768111073046
30
0
41
1
10
17.4035525268934
20
-3.32859772920497
30
0
41
1
10
17.5297201365372
20
-3.34960883204275
30
0
41
1
10
17.5928430854931
20
-3.35970536444643
30
0
41
1
10
17.7820419578251
20
-3.38872256115855
30
0
41
1
10
17.9080405630326
20
-3.406376527227
30
0
41
1
10
18.2858273663494
20
-3.454184907224
30
0
41
1
10
18.5373981355929
20
-3.47919682372088
30
0
41
1
10
19.0404665020334
20
-3.5153701882144
30
0
41
1
10
19.2919676069612
20
-3.52652708117918
30
0
41
1
10
19.6098268724448
20
-3.53175072109619
30
0
41
1
10
19.6759383183837
20
-3.5323529734861
30
0
41
1
10
19.7420774044889
20
-3.53247047463
30
0
0
SPLINE
5
104
100
AcDbEntity
8
1
62
256
6
ByLayer
370
18
48
1
60
0
100
AcDbSpline
70
4
71
3
72
22
73
18
40
0
40
0
40
0
40
0
40
0.0302559782871064
40
0.0302559782871064
40
0.0949055797346346
40
0.0949055797346346
40
0.22420478262969
40
0.22420478262969
40
0.482803188419802
40
0.482803188419802
40
0.547452789867327
40
0.547452789867327
40
0.612102391314852
40
0.612102391314852
40
0.741401594209901
40
0.741401594209901
40
1
40
1
40
1
40
1
41
1
10
36.4869001299165
20
2.61424077014485
30
0
41
1
10
36.5389206149188
20
2.6324653929012
30
0
41
1
10
36.5909551640486
20
2.65047489042396
30
0
41
1
10
36.754227302644
20
2.70627923837049
30
0
41
1
10
36.8655500108755
20
2.74330114902776
30
0
41
1
10
37.1996625308258
20
2.85120470542077
30
0
41
1
10
37.4220013018635
20
2.91873844108613
30
0
41
1
10
38.0884100913375
20
3.1075249686875
30
0
41
1
10
38.5318635850587
20
3.21495443843932
30
0
41
1
10
39.0873824593542
20
3.32405143126917
30
0
41
1
10
39.1985470412735
20
3.34461180650658
30
0
41
1
10
39.4210552685673
20
3.38316389664399
30
0
41
1
10
39.5324240769189
20
3.40115764322905
30
0
41
1
10
39.8660797112332
20
3.45110299535284
30
0
41
1
10
40.0881772160702
20
3.47906545061969
30
0
41
1
10
40.7541010943644
20
3.54676402654155
30
0
41
1
10
41.197513037274
20
3.5703320423828
30
0
41
1
10
41.6420059387122
20
3.57187175207903
30
0
0
SPLINE
5
105
100
AcDbEntity
8
1
62
256
6
ByLayer
370
18
48
1
60
0
100
AcDbSpline
70
4
71
3
72
16
73
12
40
0
40
0
40
0
40
0
40
0.249999999999998
40
0.249999999999998
40
0.375000000000001
40
0.375000000000001
40
0.500000000000003
40
0.500000000000003
40
0.750000000000002
40
0.750000000000002
40
1
40
1
40
1
40
1
41
1
10
5.46588037234065
20
1.41530352237166
30
0
41
1
10
5.70445903186092
20
1.35067245212269
30
0
41
1
10
5.94073930902863
20
1.27913745656161
30
0
41
1
10
6.2920389840173
20
1.16168875188305
30
0
41
1
10
6.40861995838938
20
1.12085098198179
30
0
41
1
10
6.64081510412859
20
1.03587675050886
30
0
41
1
10
6.75633916203805
20
0.991772001156903
30
0
41
1
10
7.1009465513844
20
0.854958166459568
30
0
41
1
10
7.32821716398757
20
0.757674990746096
30
0
41
1
10
7.77876222174677
20
0.55248760346953
30
0
41
1
10
8.0020382326816
20
0.444585601345892
30
0
41
1
10
8.22388395549143
20
0.332388365571461
30
0
0
SPLINE
5
106
100
AcDbEntity
8
1
62
256
6
ByLayer
370
18
48
1
60
0
100
AcDbSpline
70
4
71
3
72
36
73
32
40
0
40
0
40
0
40
0
40
0.0135026982651027
40
0.0135026982651027
40
0.13681486098196
40
0.13681486098196
40
0.260127023698818
40
0.260127023698818
40
0.383439186415675
40
0.383439186415675
40
0.445095267774104
40
0.445095267774104
40
0.460509288113713
40
0.460509288113713
40
0.475923308453321
40
0.475923308453321
40
0.506751349132539
40
0.506751349132539
40
0.630063511849406
40
0.630063511849406
40
0.69171959320784
40
0.69171959320784
40
0.722547633887057
40
0.722547633887057
40
0.753375674566273
40
0.753375674566273
40
0.815031755924704
40
0.815031755924704
40
0.876687837283136
40
0.876687837283136
40
1
40
1
40
1
40
1
41
1
10
30.9326664870195
20
0.303147516154127
30
0
41
1
10
30.9816608720754
20
0.279088887323809
30
0
41
1
10
31.0306744830136
20
0.254994630275405
30
0
41
1
10
31.5268689455088
20
0.0108521198912399
30
0
41
1
10
31.9712243692071
20
-0.209557119281698
30
0
41
1
10
32.8575271359569
20
-0.644299707730028
30
0
41
1
10
33.2995058623432
20
-0.858588874680919
30
0
41
1
10
34.1843062677413
20
-1.27459836310482
30
0
41
1
10
34.6271043197732
20
-1.47634767309455
30
0
41
1
10
35.2942274194598
20
-1.76507696951228
30
0
41
1
10
35.5170873416631
20
-1.85900615638499
30
0
41
1
10
35.7965172632398
20
-1.97299828405377
30
0
41
1
10
35.8524056049612
20
-1.99560857801686
30
0
41
1
10
35.9640278550665
20
-2.04037380429506
30
0
41
1
10
36.0197886252596
20
-2.06253948359998
30
0
41
1
10
36.1869353953552
20
-2.12837301695973
30
0
41
1
10
36.2981796807752
20
-2.17137623579217
30
0
41
1
10
36.8534405358809
20
-2.38176913877692
30
0
41
1
10
37.2946365051503
20
-2.53531844474492
30
0
41
1
10
37.9545026398775
20
-2.74109326759518
30
0
41
1
10
38.1741325020121
20
-2.80558408865343
30
0
41
1
10
38.503311939011
20
-2.89569458761159
30
0
41
1
10
38.6129980683263
20
-2.92463470208733
30
0
41
1
10
38.8323801431458
20
-2.98035537786413
30
0
41
1
10
38.9420721054697
20
-3.00712907152575
30
0
41
1
10
39.2711675596114
20
-3.08402779038815
30
0
41
1
10
39.4905930828915
20
-3.13072574103009
30
0
41
1
10
39.9299270330314
20
-3.21463517258286
30
0
41
1
10
40.1498661167984
20
-3.25189598864978
30
0
41
1
10
40.8109884277768
20
-3.3489410864627
30
0
41
1
10
41.2533803748216
20
-3.39391313151222
30
0
41
1
10
41.6990355910945
20
-3.4175479206192
30
0
0
SPLINE
5
107
100
AcDbEntity
8
1
62
256
6
ByLayer
370
18
48
1
60
0
100
AcDbSpline
70
4
71
3
72
34
73
30
40
0
40
0
40
0
40
0
40
0.13070614412644
40
0.13070614412644
40
0.19605921618966
40
0.19605921618966
40
0.26141228825288
40
0.26141228825288
40
0.294088824284492
40
0.294088824284492
40
0.326765360316104
40
0.326765360316104
40
0.392118432379327
40
0.392118432379327
40
0.522824576505771
40
0.522824576505771
40
0.555501112537381
40
0.555501112537381
40
0.571839380553188
40
0.571839380553188
40
0.588177648568994
40
0.588177648568994
40
0.653530720632224
40
0.653530720632224
40
0.784236864758684
40
0.784236864758684
40
0.914943008885143
40
0.914943008885143
40
1
40
1
40
1
40
1
41
1
10
41.6940020010511
20
-3.42837401175751
30
0
41
1
10
41.2483375948133
20
-3.40522930496465
30
0
41
1
10
40.8031989491383
20
-3.36051912051238
30
0
41
1
10
40.1339030919881
20
-3.26241811583634
30
0
41
1
10
39.9114953459902
20
-3.22470491173115
30
0
41
1
10
39.4676939803487
20
-3.13975131937266
30
0
41
1
10
39.2462739052037
20
-3.09246361865203
30
0
41
1
10
38.9145356093766
20
-3.01463780461157
30
0
41
1
10
38.8040220314124
20
-2.9875488833319
30
0
41
1
10
38.5831114131853
20
-2.93119279886091
30
0
41
1
10
38.4727151545583
20
-2.90192888584667
30
0
41
1
10
38.1415663990005
20
-2.81083763701193
30
0
41
1
10
37.9208509106861
20
-2.74569843254577
30
0
41
1
10
37.2583849139247
20
-2.53808299718523
30
0
41
1
10
36.8163103196852
20
-2.38342525770633
30
0
41
1
10
36.26101664151
20
-2.17203942691654
30
0
41
1
10
36.1498214580984
20
-2.12885760591044
30
0
41
1
10
35.9828331871728
20
-2.06278737597722
30
0
41
1
10
35.9271387828362
20
-2.04054797540147
30
0
41
1
10
35.8156722326404
20
-1.99564674434092
30
0
41
1
10
35.7598705911562
20
-1.97297273134171
30
0
41
1
10
35.4810979961831
20
-1.85876097634153
30
0
41
1
10
35.2587519174219
20
-1.76467157871977
30
0
41
1
10
34.5931481566685
20
-1.47548936596476
30
0
41
1
10
34.1513294749653
20
-1.27347167182683
30
0
41
1
10
33.2684243864101
20
-0.856963905846129
30
0
41
1
10
32.8273647927142
20
-0.642441404078198
30
0
41
1
10
32.0972925586213
20
-0.283252731471066
30
0
41
1
10
31.8089628463596
20
-0.140375319421651
30
0
41
1
10
31.5196521185828
20
0.0028523247607666
30
0
0
SPLINE
5
108
100
AcDbEntity
8
1
62
256
6
ByLayer
370
18
48
1
60
0
100
AcDbSpline
70
4
71
3
72
14
73
10
40
0
40
0
40
0
40
0
40
0.25
40
0.25
40
0.5
40
0.5
40
0.75
40
0.75
40
1
40
1
40
1
40
1
41
1
10
41.694002001051
20
-3.42837401175754
30
0
41
1
10
41.6945977319984
20
-3.42740799471093
30
0
41
1
10
41.6951941666744
20
-3.42640739306464
30
0
41
1
10
41.6963888874187
20
-3.42431543445758
30
0
41
1
10
41.6969643744756
20
-3.42326189623645
30
0
41
1
10
41.6979749819393
20
-3.42129482831982
30
0
41
1
10
41.6984045478538
20
-3.42038961012693
30
0
41
1
10
41.6990126624843
20
-3.41894227482552
30
0
41
1
10
41.6991947421725
20
-3.41839396180293
30
0
41
1
10
41.6992603529996
20
-3.41803694829761
30
0
0
SPLINE
5
109
100
AcDbEntity
8
1
62
256
6
ByLayer
370
18
48
1
60
0
100
AcDbSpline
70
4
71
3
72
8
73
4
40
0
40
0
40
0
40
0
40
1
40
1
40
1
40
1
41
1
10
41.6990355907088
20
-3.41754792060047
30
0
41
1
10
41.6991389618541
20
-3.41763570320737
30
0
41
1
10
41.6992149223335
20
-3.4177959913506
30
0
41
1
10
41.6992603529966
20
-3.41803694829795
30
0
0
SPLINE
5
10A
100
AcDbEntity
8
1
62
256
6
ByLayer
370
18
48
1
60
0
100
AcDbSpline
70
4
71
3
72
48
73
44
40
0
40
0
40
0
40
0
40
0.0675538747427932
40
0.0675538747427932
40
0.135107749485586
40
0.135107749485586
40
0.168884686856983
40
0.168884686856983
40
0.202661624228379
40
0.202661624228379
40
0.236438561599776
40
0.236438561599776
40
0.270215498971173
40
0.270215498971173
40
0.405323248456754
40
0.405323248456754
40
0.439100185828149
40
0.439100185828149
40
0.472877123199545
40
0.472877123199545
40
0.540430997942336
40
0.540430997942336
40
0.607984872685128
40
0.607984872685128
40
0.641761810056524
40
0.641761810056524
40
0.675538747427919
40
0.675538747427919
40
0.709315684799315
40
0.709315684799315
40
0.743092622170711
40
0.743092622170711
40
0.810646496913502
40
0.810646496913502
40
0.878200371656294
40
0.878200371656294
40
0.945754246399085
40
0.945754246399085
40
0.962642715084785
40
0.962642715084785
40
0.979531183770486
40
0.979531183770486
40
1
40
1
40
1
40
1
41
1
10
20.4457939900132
20
-0.532116269031889
30
0
41
1
10
20.6670575920262
20
-0.645135999066497
30
0
41
1
10
20.8883822204897
20
-0.756519801269548
30
0
41
1
10
21.3311897882088
20
-0.97603659036335
30
0
41
1
10
21.5526735607851
20
-1.08416683807661
30
0
41
1
10
21.8851302462475
20
-1.24372806773988
30
0
41
1
10
21.9959868129326
20
-1.2964772790564
30
0
41
1
10
22.2177917176098
20
-1.40106683847452
30
0
41
1
10
22.328801246948
20
-1.45292896863495
30
0
41
1
10
22.5506085028139
20
-1.55557607158235
30
0
41
1
10
22.6613625785129
20
-1.60638287317318
30
0
41
1
10
22.8826411797235
20
-1.70682935826315
30
0
41
1
10
22.9932005055065
20
-1.75640712980177
30
0
41
1
10
23.5460672409164
20
-2.00028861315727
30
0
41
1
10
23.988270588553
20
-2.18319545102136
30
0
41
1
10
24.5416247601211
20
-2.39542524119258
30
0
41
1
10
24.6523075860112
20
-2.43707294385436
30
0
41
1
10
24.8737641979251
20
-2.51865205023819
30
0
41
1
10
24.9846037030752
20
-2.55853651351458
30
0
41
1
10
25.3169081304208
20
-2.67471875468286
30
0
41
1
10
25.5383150101485
20
-2.74779578156557
30
0
41
1
10
25.9808739435972
20
-2.88534500361149
30
0
41
1
10
26.2020274684586
20
-2.94981218997523
30
0
41
1
10
26.533656194211
20
-3.03990783394425
30
0
41
1
10
26.6441738363301
20
-3.06884558675188
30
0
41
1
10
26.8652187866457
20
-3.1244482374226
30
0
41
1
10
26.9757742786488
20
-3.15108438428953
30
0
41
1
10
27.1971406250288
20
-3.2018546311669
30
0
41
1
10
27.3079292453486
20
-3.22601131941965
30
0
41
1
10
27.5296790697526
20
-3.27189410880504
30
0
41
1
10
27.6404680186745
20
-3.29358797631289
30
0
41
1
10
27.9724432494914
20
-3.35488228496354
30
0
41
1
10
28.1933707565493
20
-3.39063746415232
30
0
41
1
10
28.6354964614706
20
-3.45142242529101
30
0
41
1
10
28.8566276233553
20
-3.47651861987222
30
0
41
1
10
29.2990340447039
20
-3.51617123531025
30
0
41
1
10
29.5203053466514
20
-3.53072378828966
30
0
41
1
10
29.797098462796
20
-3.54217743826169
30
0
41
1
10
29.852469069261
20
-3.54413059128819
30
0
41
1
10
29.963245058505
20
-3.54735655636622
30
0
41
1
10
30.0186520426509
20
-3.54862900097481
30
0
41
1
10
30.1410405522215
20
-3.55068441365378
30
0
41
1
10
30.2080221360604
20
-3.55130754553829
30
0
41
1
10
30.2749346506985
20
-3.551429564182
30
0
0
SPLINE
5
10B
100
AcDbEntity
8
1
62
256
6
ByLayer
370
18
48
1
60
0
100
AcDbSpline
70
4
71
3
72
48
73
44
40
0
40
0
40
0
40
0
40
0.115965557381022
40
0.115965557381022
40
0.173948336071533
40
0.173948336071533
40
0.231931114762044
40
0.231931114762044
40
0.260922504107299
40
0.260922504107299
40
0.289913893452555
40
0.289913893452555
40
0.347896672143063
40
0.347896672143063
40
0.405879450833571
40
0.405879450833571
40
0.463862229524079
40
0.463862229524079
40
0.492853618869331
40
0.492853618869331
40
0.521845008214584
40
0.521845008214584
40
0.53634070288721
40
0.53634070288721
40
0.550836397559836
40
0.579827786905086
40
0.579827786905086
40
0.637810565595588
40
0.637810565595588
40
0.69579334428609
40
0.69579334428609
40
0.753776122976592
40
0.753776122976592
40
0.811758901667095
40
0.811758901667095
40
0.927724459048099
40
0.927724459048099
40
0.942220153720724
40
0.942220153720724
40
0.956715848393349
40
0.985707237738601
40
0.985707237738601
40
1
40
1
40
1
40
1
41
1
10
41.6699414067017
20
-0.268147933704796
30
0
41
1
10
41.2266747360154
20
-0.0471161096973844
30
0
41
1
10
40.7855695004208
20
0.171988726514314
30
0
41
1
10
40.1267520777348
20
0.495938132829281
30
0
41
1
10
39.9076466678435
20
0.60316792068889
30
0
41
1
10
39.4699904307778
20
0.815236464387937
30
0
41
1
10
39.2513902812238
20
0.920019284984278
30
0
41
1
10
38.9236075400251
20
1.07482008586501
30
0
41
1
10
38.8143717515115
20
1.12603185710765
30
0
41
1
10
38.5959638479551
20
1.22762487279817
30
0
41
1
10
38.4867966423743
20
1.2780091857056
30
0
41
1
10
38.1591139570023
20
1.4276130290317
30
0
41
1
10
37.9403914699058
20
1.5252612033253
30
0
41
1
10
37.5022425540567
20
1.71590960923359
30
0
41
1
10
37.2828175191608
20
1.80891727018016
30
0
41
1
10
36.8431093130506
20
1.9896254682248
30
0
41
1
10
36.6228374813903
20
2.07733224839691
30
0
41
1
10
36.2914091366069
20
2.20424835283785
30
0
41
1
10
36.1807609278427
20
2.24578021457214
30
0
41
1
10
35.9590805250307
20
2.32716443465611
30
0
41
1
10
35.8480525292455
20
2.36700659027309
30
0
41
1
10
35.6811467664089
20
2.42550392831959
30
0
41
1
10
35.6254206981857
20
2.44480348946553
30
0
41
1
10
35.514006713946
20
2.48291910870651
30
0
41
1
10
35.3469577384481
20
2.53936181639386
30
0
41
1
10
35.180136456947
20
2.59357036024468
30
0
41
1
10
34.8468280216586
20
2.69890122302496
30
0
41
1
10
34.6250693619709
20
2.76502870946663
30
0
41
1
10
34.1825897503348
20
2.88794935096982
30
0
41
1
10
33.9619119049458
20
2.94468353983746
30
0
41
1
10
33.5206159752995
20
3.04919177681796
30
0
41
1
10
33.2999501965317
20
3.09703166680706
30
0
41
1
10
32.8586042297905
20
3.18269243468555
30
0
41
1
10
32.6379656781822
20
3.22041079272182
30
0
41
1
10
31.9749441843435
20
3.3197450486131
30
0
41
1
10
31.5312991684979
20
3.36803487844617
30
0
41
1
10
31.0296495678787
20
3.3971019972623
30
0
41
1
10
30.9738578232045
20
3.39997865481354
30
0
41
1
10
30.8623666652249
20
3.40501341570012
30
0
41
1
10
30.6952178517529
20
3.41149633551521
30
0
41
1
10
30.528264665617
20
3.41483619268041
30
0
41
1
10
30.3621309506438
20
3.41615360180302
30
0
41
1
10
30.3072776989241
20
3.41626087385572
30
0
41
1
10
30.2524255211186
20
3.41604917026666
30
0
0
SPLINE
5
10C
100
AcDbEntity
8
1
62
256
6
ByLayer
370
18
48
1
60
0
100
AcDbSpline
70
4
71
3
72
8
73
4
40
0
40
0
40
0
40
0
40
1
40
1
40
1
40
1
41
1
10
41.6677030567635
20
-0.256685114913893
30
0
41
1
10
41.6696042247982
20
-0.257230283770497
30
0
41
1
10
41.6706211185437
20
-0.262366275647963
30
0
41
1
10
41.6699414067017
20
-0.268147933704824
30
0
0
SPLINE
5
10D
100
AcDbEntity
8
1
62
256
6
ByLayer
370
18
48
1
60
0
100
AcDbSpline
70
4
71
3
72
48
73
44
40
0
40
0
40
0
40
0
40
0.0491630684142436
40
0.0491630684142436
40
0.0783746482743522
40
0.0929804382044066
40
0.0929804382044066
40
0.107586228134461
40
0.107586228134461
40
0.224432547574902
40
0.224432547574902
40
0.282855707295123
40
0.282855707295123
40
0.341278867015345
40
0.341278867015345
40
0.399702026735567
40
0.399702026735567
40
0.458125186455789
40
0.458125186455789
40
0.4873367663159
40
0.501942556245955
40
0.501942556245955
40
0.51654834617601
40
0.51654834617601
40
0.545759926036124
40
0.545759926036124
40
0.574971505896238
40
0.574971505896238
40
0.633394665616463
40
0.633394665616463
40
0.691817825336687
40
0.691817825336687
40
0.750240985056912
40
0.750240985056912
40
0.779452564917026
40
0.779452564917026
40
0.808664144777139
40
0.808664144777139
40
0.867087304497364
40
0.867087304497364
40
0.925510464217589
40
0.925510464217589
40
1
40
1
40
1
40
1
41
1
10
29.8566347640594
20
3.41841027678811
30
0
41
1
10
30.0439026878834
20
3.424507952943
30
0
41
1
10
30.2310611523682
20
3.42712852914838
30
0
41
1
10
30.5295249572535
20
3.42520657730753
30
0
41
1
10
30.6964291231642
20
3.42211197841911
30
0
41
1
10
30.8635294363896
20
3.41586812324891
30
0
41
1
10
30.9749884873864
20
3.41099131416567
30
0
41
1
10
31.0307658014657
20
3.40819295957056
30
0
41
1
10
31.5322948886025
20
3.37981856720285
30
0
41
1
10
31.9758195153586
20
3.33206790273547
30
0
41
1
10
32.6386349823016
20
3.23343757292039
30
0
41
1
10
32.85920315956
20
3.19594455592517
30
0
41
1
10
33.3004094476215
20
3.11070513529438
30
0
41
1
10
33.5210038151542
20
3.06305291858169
30
0
41
1
10
33.9621521201243
20
2.95888044083512
30
0
41
1
10
34.1827550166024
20
2.90230238805819
30
0
41
1
10
34.6250894598931
20
2.77966252869402
30
0
41
1
10
34.8467766636426
20
2.71365120219022
30
0
41
1
10
35.1799779199621
20
2.60845687283225
30
0
41
1
10
35.346745883251
20
2.5543080641454
30
0
41
1
10
35.513741775859
20
2.49791193020525
30
0
41
1
10
35.6251204043928
20
2.45982438223606
30
0
41
1
10
35.6808337633361
20
2.44053529373068
30
0
41
1
10
35.8477001272518
20
2.38206822368233
30
0
41
1
10
35.9587017999078
20
2.34224566589069
30
0
41
1
10
36.1803281447606
20
2.26089166701897
30
0
41
1
10
36.2909478028769
20
2.2193682005288
30
0
41
1
10
36.6222878008126
20
2.09246213736282
30
0
41
1
10
36.8424976312353
20
2.00474359473785
30
0
41
1
10
37.2820772214916
20
1.82397239261667
30
0
41
1
10
37.5014350801891
20
1.73091124928194
30
0
41
1
10
37.9394426098773
20
1.54011098596518
30
0
41
1
10
38.1580916500906
20
1.44236614010262
30
0
41
1
10
38.4856613460619
20
1.29259092691513
30
0
41
1
10
38.5947905934781
20
1.24214687343348
30
0
41
1
10
38.8131227001327
20
1.14042644963712
30
0
41
1
10
38.922320236803
20
1.08914448267348
30
0
41
1
10
39.2499874889539
20
0.934115677322808
30
0
41
1
10
39.4685103759997
20
0.829160621633889
30
0
41
1
10
39.9060114632785
20
0.616709282633082
30
0
41
1
10
40.1250386496896
20
0.509268016476653
30
0
41
1
10
40.6244657151061
20
0.263075609488538
30
0
41
1
10
40.9051366127719
20
0.123793364095661
30
0
41
1
10
41.1866485276313
20
-0.0164830752869136
30
0
0
SPLINE
5
10E
100
AcDbEntity
8
1
62
256
6
ByLayer
370
18
48
1
60
0
100
AcDbSpline
70
4
71
3
72
8
73
4
40
0
40
0
40
0
40
0
40
1
40
1
40
1
40
1
41
1
10
41.6237067849488
20
-0.243266598090287
30
0
41
1
10
41.6383629548472
20
-0.24800422874813
30
0
41
1
10
41.6530265755092
20
-0.252476565033959
30
0
41
1
10
41.6677030567635
20
-0.256685114913921
30
0
0
SPLINE
5
10F
100
AcDbEntity
8
1
62
256
6
ByLayer
370
18
48
1
60
0
100
AcDbSpline
70
4
71
3
72
59
73
55
40
0
40
0
40
0
40
0
40
0.0488348245382815
40
0.0488348245382815
40
0.0988961495625711
40
0.0988961495625711
40
0.111411480818645
40
0.111411480818645
40
0.12392681207472
40
0.12392681207472
40
0.148957474586871
40
0.148957474586871
40
0.19901879961117
40
0.19901879961117
40
0.24908012463547
40
0.24908012463547
40
0.29914144965977
40
0.29914144965977
40
0.349202774684069
40
0.349202774684069
40
0.399264099708369
40
0.399264099708369
40
0.449325424732668
40
0.449325424732668
40
0.499386749756968
40
0.499386749756968
40
0.511902081013044
40
0.511902081013044
40
0.524417412269121
40
0.549448074781273
40
0.549448074781273
40
0.574478737293425
40
0.574478737293425
40
0.599509399805577
40
0.599509399805577
40
0.649570724829879
40
0.649570724829879
40
0.674601387342029
40
0.674601387342029
40
0.699632049854179
40
0.699632049854179
40
0.749693374878479
40
0.749693374878479
40
0.77472403739063
40
0.77472403739063
40
0.799754699902781
40
0.799754699902781
40
0.849816024927086
40
0.849816024927086
40
0.89987734995139
40
0.89987734995139
40
0.949938674975695
40
0.949938674975695
40
1
40
1
40
1
40
1
41
1
10
28.4306818255371
20
3.42325425157461
30
0
41
1
10
28.6463319141838
20
3.45264897360383
30
0
41
1
10
28.8620470932807
20
3.47700436362834
30
0
41
1
10
29.299034044704
20
3.51617123531025
30
0
41
1
10
29.5203053466514
20
3.53072378828966
30
0
41
1
10
29.7970984627961
20
3.54217743826169
30
0
41
1
10
29.852469069261
20
3.54413059128819
30
0
41
1
10
29.9632450585051
20
3.54735655636625
30
0
41
1
10
30.018652042651
20
3.54862900097484
30
0
41
1
10
30.1846401102578
20
3.55141663177375
30
0
41
1
10
30.29508759564
20
3.55190516778421
30
0
41
1
10
30.6259109653331
20
3.54928750733154
30
0
41
1
10
30.8457882080137
20
3.54208607473615
30
0
41
1
10
31.2850636974615
20
3.51716562062481
30
0
41
1
10
31.5044171515105
20
3.499463063593
30
0
41
1
10
31.9425379200338
20
3.45372808948122
30
0
41
1
10
32.1613020680368
20
3.42568924600255
30
0
41
1
10
32.5983715654374
20
3.35925059246799
30
0
41
1
10
32.8167201956493
20
3.32085252499965
30
0
41
1
10
33.2539914084516
20
3.23432897671481
30
0
41
1
10
33.472873696672
20
3.18620235311104
30
0
41
1
10
33.9110776254877
20
3.08007442728624
30
0
41
1
10
34.1304330222527
20
3.02207180783213
30
0
41
1
10
34.5706840883245
20
2.89720303533687
30
0
41
1
10
34.7915524914081
20
2.83034130965845
30
0
41
1
10
35.0685206610691
20
2.74109437319453
30
0
41
1
10
35.1239743417517
20
2.72295617363116
30
0
41
1
10
35.2347771341586
20
2.68617293429242
30
0
41
1
10
35.4008894558944
20
2.63021748064673
30
0
41
1
10
35.5667250103619
20
2.57191712941656
30
0
41
1
10
35.7876015986869
20
2.4920977649941
30
0
41
1
10
35.8979219860558
20
2.45114403136637
30
0
41
1
10
36.1185772435487
20
2.36750100090441
30
0
41
1
10
36.2289119977202
20
2.32481406888743
30
0
41
1
10
36.5599353525703
20
2.19416765294713
30
0
41
1
10
36.7806433127362
20
2.10361749852387
30
0
41
1
10
37.1121692045777
20
1.96330197860726
30
0
41
1
10
37.2227556161647
20
1.91578381783248
30
0
41
1
10
37.444087022701
20
1.81925917805398
30
0
41
1
10
37.5548681775017
20
1.77023611828642
30
0
41
1
10
37.8872375724442
20
1.62105478684771
30
0
41
1
10
38.108078888566
20
1.51912927253727
30
0
41
1
10
38.4383979789586
20
1.36283904111798
30
0
41
1
10
38.5483430371033
20
1.31016675569794
30
0
41
1
10
38.7681408278505
20
1.20410184181856
30
0
41
1
10
38.8780002124935
20
1.15072245683956
30
0
41
1
10
39.2074242268166
20
0.989485174807271
30
0
41
1
10
39.4268053899603
20
0.880472463074938
30
0
41
1
10
39.8653932189274
20
0.659972593495638
30
0
41
1
10
40.0846479496064
20
0.548576691691665
30
0
41
1
10
40.5235723357737
20
0.324453778256384
30
0
41
1
10
40.7432119337713
20
0.211669931531645
30
0
41
1
10
41.1830061617758
20
-0.0150513766551796
30
0
41
1
10
41.4031593706264
20
-0.128992226483973
30
0
41
1
10
41.6237067849466
20
-0.243266598090571
30
0
0
SPLINE
5
110
100
AcDbEntity
8
1
62
256
6
ByLayer
370
18
48
1
60
0
100
AcDbSpline
70
4
71
5
72
12
73
6
40
0
40
0
40
0
40
0
40
0
40
0
40
1
40
1
40
1
40
1
40
1
40
1
41
1
10
12.9167687002963
20
-1.93425553424311
30
0
41
1
10
11.6028458874486
20
-2.19627233733919
30
0
41
1
10
10.2982828530715
20
-2.45234330911896
30
0
41
1
10
9.00397103687885
20
-2.69891182002163
30
0
41
1
10
7.72063452379913
20
-2.9330466498532
30
0
41
1
10
6.44871763485415
20
-3.15297908943251
30
0
0
SPLINE
5
111
100
AcDbEntity
8
1
62
256
6
ByLayer
370
18
48
1
60
0
100
AcDbSpline
70
4
71
3
72
79
73
75
40
0
40
0
40
0
40
0
40
0.0624999999999985
40
0.0624999999999985
40
0.124999999999997
40
0.124999999999997
40
0.187499999999996
40
0.187499999999996
40
0.249999999999994
40
0.249999999999994
40
0.265624999999993
40
0.265624999999993
40
0.281249999999992
40
0.281249999999992
40
0.312499999999991
40
0.312499999999991
40
0.343749999999989
40
0.343749999999989
40
0.374999999999987
40
0.374999999999987
40
0.390624999999987
40
0.390624999999987
40
0.406249999999987
40
0.406249999999987
40
0.437499999999987
40
0.437499999999987
40
0.468749999999987
40
0.468749999999987
40
0.484374999999988
40
0.484374999999988
40
0.492187499999987
40
0.492187499999987
40
0.499999999999987
40
0.499999999999987
40
0.531249999999988
40
0.531249999999988
40
0.546874999999988
40
0.546874999999988
40
0.554687499999988
40
0.554687499999988
40
0.562499999999988
40
0.562499999999988
40
0.593749999999987
40
0.593749999999987
40
0.609374999999987
40
0.617187499999987
40
0.617187499999987
40
0.624999999999987
40
0.624999999999987
40
0.656249999999985
40
0.656249999999985
40
0.671874999999985
40
0.671874999999985
40
0.679687499999984
40
0.679687499999984
40
0.687499999999984
40
0.687499999999984
40
0.718749999999986
40
0.718749999999986
40
0.749999999999987
40
0.749999999999987
40
0.765624999999988
40
0.765624999999988
40
0.781249999999988
40
0.781249999999988
40
0.81249999999999
40
0.81249999999999
40
0.874999999999995
40
0.874999999999995
40
0.906249999999996
40
0.906249999999996
40
0.937499999999997
40
0.937499999999997
40
1
40
1
40
1
40
1
41
1
10
6.44871765319866
20
-3.15297909354757
30
0
41
1
10
6.30412843647156
20
-3.12054465896423
30
0
41
1
10
6.16075579915346
20
-3.08531612047298
30
0
41
1
10
5.87672720519618
20
-3.00846267718165
30
0
41
1
10
5.73606957858937
20
-2.96684202757041
30
0
41
1
10
5.45786209483003
20
-2.87611796587453
30
0
41
1
10
5.32030917241136
20
-2.82702244149709
30
0
41
1
10
5.04887907729406
20
-2.71980581419692
30
0
41
1
10
4.91499560408661
20
-2.66170088580145
30
0
41
1
10
4.75048624786427
20
-2.58196815884088
30
0
41
1
10
4.71772769642112
20
-2.56566378048359
30
0
41
1
10
4.65251610654406
20
-2.53228951688234
30
0
41
1
10
4.62003891996929
20
-2.51520619169602
30
0
41
1
10
4.5233653949654
20
-2.46286989718359
30
0
41
1
10
4.45987980414773
20
-2.42651366948823
30
0
41
1
10
4.33508658726254
20
-2.35047351499924
30
0
41
1
10
4.27377793242914
20
-2.3107911684769
30
0
41
1
10
4.15366795308404
20
-2.2275813043187
30
0
41
1
10
4.09486488335787
20
-2.18405646441499
30
0
41
1
10
4.00887749911288
20
-2.11535923864949
30
0
41
1
10
3.98054237554624
20
-2.09185160704061
30
0
41
1
10
3.92495803605877
20
-2.04382157596137
30
0
41
1
10
3.8977032392763
20
-2.01929817920151
30
0
41
1
10
3.81767227879732
20
-1.94408686371475
30
0
41
1
10
3.76662043006027
20
-1.89176636024595
30
0
41
1
10
3.66994959415283
20
-1.78197730202098
30
0
41
1
10
3.62432439681305
20
-1.72451455041602
30
0
41
1
10
3.56084893377846
20
-1.6336184547464
30
0
41
1
10
3.54052085567614
20
-1.6025329545634
30
0
41
1
10
3.5114271238478
20
-1.55458027147841
30
0
41
1
10
3.50196261664402
20
-1.53837498777148
30
0
41
1
10
3.48353061987788
20
-1.50549383017395
30
0
41
1
10
3.47454597728429
20
-1.48878350347064
30
0
41
1
10
3.43121982680725
20
-1.4045105465442
30
0
41
1
10
3.40160043789402
20
-1.33475948011582
30
0
41
1
10
3.36586583536467
20
-1.22611946985805
30
0
41
1
10
3.35540719442321
20
-1.18923553541228
30
0
41
1
10
3.34208336616098
20
-1.13282020548334
30
0
41
1
10
3.33803646162346
20
-1.11383336885112
30
0
41
1
10
3.33076692148708
20
-1.07548021995436
30
0
41
1
10
3.32754248144397
20
-1.05608499347977
30
0
41
1
10
3.31370380046675
20
-0.959154501345694
30
0
41
1
10
3.30976809854627
20
-0.881019795446065
30
0
41
1
10
3.31459508315399
20
-0.762944082905364
30
0
41
1
10
3.3196941768756
20
-0.703687621839265
30
0
41
1
10
3.32885376396382
20
-0.644103772380106
30
0
41
1
10
3.33586793560539
20
-0.6043083952421
30
0
41
1
10
3.33982995962552
20
-0.584384620635291
30
0
41
1
10
3.36165982432286
20
-0.48562537236424
30
0
41
1
10
3.385700426489
20
-0.408515726864891
30
0
41
1
10
3.43030478661248
20
-0.295324937941615
30
0
41
1
10
3.4466018007939
20
-0.25800838058106
30
0
41
1
10
3.47306271738015
20
-0.202618140784381
30
0
41
1
10
3.48222867512553
20
-0.184236532743512
30
0
41
1
10
3.50107016988378
20
-0.147929233999946
30
0
41
1
10
3.51076086687877
20
-0.129970167471157
30
0
41
1
10
3.56048637686246
20
-0.0410916403609463
30
0
41
1
10
3.60431207151501
20
0.0270955866638189
30
0
41
1
10
3.69852402785696
20
0.15874344831397
30
0
41
1
10
3.74891879894142
20
0.222197941504135
30
0
41
1
10
3.82865698656064
20
0.314393894158286
30
0
41
1
10
3.85597200182553
20
0.344670232854497
30
0
41
1
10
3.91169740926102
20
0.404095318719527
30
0
41
1
10
3.9400216857365
20
0.433156761114248
30
0
41
1
10
4.02624003491698
20
0.518586983208223
30
0
41
1
10
4.08537389949063
20
0.573209849764481
30
0
41
1
10
4.26689628728323
20
0.731294744286004
30
0
41
1
10
4.39336321502086
20
0.829033682746797
30
0
41
1
10
4.58913121074275
20
0.967187607735525
30
0
41
1
10
4.65541168037268
20
1.01181095370225
30
0
41
1
10
4.7897874044981
20
1.09853725934786
30
0
41
1
10
4.85795093875149
20
1.14067826991081
30
0
41
1
10
5.06419891175841
20
1.26331746457069
30
0
41
1
10
5.20411852143843
20
1.34013065125993
30
0
41
1
10
5.34599910977426
20
1.41298741974037
30
0
0
SPLINE
5
112
100
AcDbEntity
8
1
62
256
6
ByLayer
370
18
48
1
60
0
100
AcDbSpline
70
4
71
3
72
14
73
10
40
0
40
0
40
0
40
0
40
0.25
40
0.25
40
0.5
40
0.5
40
0.75
40
0.75
40
1
40
1
40
1
40
1
41
1
10
5.35356420828785
20
1.41637371688293
30
0
41
1
10
5.36153716532957
20
1.41948040972207
30
0
41
1
10
5.36981231601931
20
1.42140993296067
30
0
41
1
10
5.38668566616303
20
1.42401325414522
30
0
41
1
10
5.39531579322866
20
1.42463591392354
30
0
41
1
10
5.41248352750202
20
1.42474144980954
30
0
41
1
10
5.42110178082868
20
1.42422473097352
30
0
41
1
10
5.43811825115188
20
1.42211997762672
30
0
41
1
10
5.44655662322592
20
1.42052493975032
30
0
41
1
10
5.45482369759341
20
1.41829341235456
30
0
0
SPLINE
5
113
100
AcDbEntity
8
SK1
62
256
6
ByLayer
370
18
48
1
60
0
100
AcDbSpline
70
4
71
3
72
8
73
4
40
0
40
0
40
0
40
0
40
1
40
1
40
1
40
1
41
1
10
-35.5
20
3.21903810065007
30
0
41
1
10
-35.6671062850399
20
3.06027420958168
30
0
41
1
10
-35.83385540093
20
2.90119143048903
30
0
41
1
10
-36
20
2.74156892624242
30
0
0
SPLINE
5
114
100
AcDbEntity
8
SK1
62
256
6
ByLayer
370
18
48
1
60
0
100
AcDbSpline
70
4
71
3
72
22
73
18
40
0
40
0
40
0
40
0
40
0.0624999999999998
40
0.0624999999999998
40
0.125
40
0.125
40
0.187499999999999
40
0.187499999999999
40
0.249999999999999
40
0.249999999999999
40
0.374999999999998
40
0.374999999999998
40
0.499999999999997
40
0.499999999999997
40
0.749999999999998
40
0.749999999999998
40
1
40
1
40
1
40
1
41
1
10
-35.4
20
3.29556807129274
30
0
41
1
10
-35.4
20
3.29639600761649
30
0
41
1
10
-35.4002593711604
20
3.29695793193505
30
0
41
1
10
-35.4012586213713
20
3.29758818186215
30
0
41
1
10
-35.4019982904561
20
3.2976504250469
30
0
41
1
10
-35.4038577960222
20
3.29733411232067
30
0
41
1
10
-35.4049815019166
20
3.29695799114776
30
0
41
1
10
-35.4075716365044
20
3.29582098547561
30
0
41
1
10
-35.4090489365252
20
3.29505326233834
30
0
41
1
10
-35.4138573413159
20
3.2922769851854
30
0
41
1
10
-35.4175572189291
20
3.28981037214763
30
0
41
1
10
-35.4257321189722
20
3.28392003162313
30
0
41
1
10
-35.4302443207472
20
3.28046334389296
30
0
41
1
10
-35.4443843974886
20
3.26917437090816
30
0
41
1
10
-35.4547260031623
20
3.26036065071821
30
0
41
1
10
-35.476826532951
20
3.24072592567651
30
0
41
1
10
-35.4882298632593
20
3.23022064059418
30
0
41
1
10
-35.5
20
3.21903810065012
30
0
0
SPLINE
5
115
100
AcDbEntity
8
SK1
62
256
6
ByLayer
370
18
48
1
60
0
100
AcDbSpline
70
4
71
3
72
20
73
16
40
0
40
0
40
0
40
0
40
0.250000000000001
40
0.250000000000001
40
0.375000000000001
40
0.375000000000001
40
0.500000000000001
40
0.500000000000001
40
0.625000000000001
40
0.625000000000001
40
0.75
40
0.75
40
0.875
40
0.875
40
1
40
1
40
1
40
1
41
1
10
-35.5
20
2.64760190597562
30
0
41
1
10
-35.4882267853229
20
2.65878737019725
30
0
41
1
10
-35.4768284287078
20
2.67082290191726
30
0
41
1
10
-35.460270322179
20
2.69012711570477
30
0
41
1
10
-35.4548935789763
20
2.69671994200544
30
0
41
1
10
-35.4446281317026
20
2.70998606292846
30
0
41
1
10
-35.4397086144297
20
2.71669425304836
30
0
41
1
10
-35.4303421404714
20
2.73027482481439
30
0
41
1
10
-35.4258783488615
20
2.73717200005805
30
0
41
1
10
-35.4176059338444
20
2.75106215395445
30
0
41
1
10
-35.4138878532275
20
2.75789831514669
30
0
41
1
10
-35.4074805084037
20
2.77129734108146
30
0
41
1
10
-35.4047944770761
20
2.77788451814521
30
0
41
1
10
-35.4010706922354
20
2.78997634711246
30
0
41
1
10
-35.4
20
2.79563440114694
30
0
41
1
10
-35.4
20
2.80032336924154
30
0
0
SPLINE
5
116
100
AcDbEntity
8
SK1
62
256
6
ByLayer
370
18
48
1
60
0
100
AcDbSpline
70
4
71
3
72
8
73
4
40
0
40
0
40
0
40
0
40
1
40
1
40
1
40
1
41
1
10
-36
20
2.170132731568
30
0
41
1
10
-35.8338518727604
20
2.32975862548398
30
0
41
1
10
-35.6671032969881
20
2.48884085378739
30
0
41
1
10
-35.5
20
2.64760190597565
30
0
0
SPLINE
5
117
100
AcDbEntity
8
1
62
256
6
ByLayer
370
18
48
1
60
0
100
AcDbSpline
70
4
71
3
72
26
73
22
40
0
40
0
40
0
40
0
40
0.0843645121462262
40
0.148156133291238
40
0.195253687123772
40
0.22620050481817
40
0.259297617396018
40
0.294999301536218
40
0.333027208930662
40
0.372865636581051
40
0.414503122298015
40
0.491089135144605
40
0.553020886615631
40
0.608248981137123
40
0.666110194789839
40
0.743089876174824
40
0.833162092893155
40
0.901621169146906
40
0.937410978276084
40
0.970064197620447
40
1
40
1
40
1
40
1
41
1
10
20.7910627618623
20
-3.39821252623062
30
0
41
1
10
21.0058920919696
20
-3.39884345697058
30
0
41
1
10
21.3830748662926
20
-3.39983963649988
30
0
41
1
10
21.8799634167599
20
-3.40083192472994
30
0
41
1
10
22.240793128159
20
-3.40149001494848
30
0
41
1
10
22.5237187202322
20
-3.40202601933342
30
0
41
1
10
22.7777310581326
20
-3.40264006346732
30
0
41
1
10
23.0498074750513
20
-3.40346507694565
30
0
41
1
10
23.3390536422439
20
-3.40411323851353
30
0
41
1
10
23.643416692269
20
-3.40460868646298
30
0
41
1
10
24.0459787601078
20
-3.40520874185475
30
0
41
1
10
24.504811675263
20
-3.40555320221034
30
0
41
1
10
24.9982560417438
20
-3.40767107434544
30
0
41
1
10
25.4439790193985
20
-3.40845434906197
30
0
41
1
10
25.928075918692
20
-3.40870046181854
30
0
41
1
10
26.500902200851
20
-3.40876665089883
30
0
41
1
10
27.1007262531419
20
-3.41122409859761
30
0
41
1
10
27.5956383294015
20
-3.41163696543367
30
0
41
1
10
27.9443224946302
20
-3.41262870790447
30
0
41
1
10
28.194830266417
20
-3.41340187414158
30
0
41
1
10
28.354052605511
20
-3.41371051681077
30
0
41
1
10
28.4302385625773
20
-3.41381405596147
30
0
0
SPLINE
5
118
100
AcDbEntity
8
1
62
256
6
ByLayer
370
18
48
1
60
0
100
AcDbSpline
70
4
71
3
72
16
73
12
40
0
40
0
40
0
40
0
40
0.17581964093384
40
0.321721237018193
40
0.439602045772556
40
0.528033073229434
40
0.608758558732182
40
0.681779367878771
40
0.757796942460747
40
0.868653504188839
40
1
40
1
40
1
40
1
41
1
10
42.0725593500295
20
0.553133490484811
30
0
41
1
10
41.8044481614091
20
0.638373399138572
30
0
41
1
10
41.314992594429
20
0.797832746515013
30
0
41
1
10
40.6489309047779
20
1.02457919138962
30
0
41
1
10
40.1173390284512
20
1.21175837842009
30
0
41
1
10
39.6853282535251
20
1.36781697125087
30
0
41
1
10
39.3217112435948
20
1.50187424060906
30
0
41
1
10
38.9775073028938
20
1.63108648178016
30
0
41
1
10
38.5890687065246
20
1.77944550946484
30
0
41
1
10
38.1147167760403
20
1.96436006368734
30
0
41
1
10
37.7550787779237
20
2.10863958728874
30
0
41
1
10
37.5604444966642
20
2.18789304015454
30
0
0
SPLINE
5
119
100
AcDbEntity
8
1
62
256
6
ByLayer
370
18
48
1
60
0
100
AcDbSpline
70
4
71
3
72
16
73
12
40
0
40
0
40
0
40
0
40
0.138281792937447
40
0.244585437146677
40
0.324531994619463
40
0.3908305635088
40
0.47030172383021
40
0.594921148625039
40
0.734912657147276
40
0.879570492529847
40
1
40
1
40
1
40
1
41
1
10
22.1454326776599
20
0.006492344898362
30
0
41
1
10
21.8537396871646
20
0.0885524550964192
30
0
41
1
10
21.3392802178653
20
0.237706178085943
30
0
41
1
10
20.6597945834903
20
0.445230247775356
30
0
41
1
10
20.1335065405043
20
0.612020915654625
30
0
41
1
10
19.6638782932383
20
0.765145584640749
30
0
41
1
10
19.1026029793144
20
0.95324841690794
30
0
41
1
10
18.3908409719634
20
1.20073502134298
30
0
41
1
10
17.5483556626435
20
1.50752934813423
30
0
41
1
10
16.7186909123027
20
1.82344548091166
30
0
41
1
10
16.1788461483054
20
2.03872861851585
30
0
41
1
10
15.9341936427088
20
2.1382174839828
30
0
0
SPLINE
5
11A
100
AcDbEntity
8
1
62
256
6
ByLayer
370
18
48
1
60
0
100
AcDbSpline
70
4
71
3
72
25
73
21
40
0
40
0
40
0
40
0
40
0.0806229484357121
40
0.142900264485548
40
0.1893624818346
40
0.239432482316127
40
0.297294294076449
40
0.356987565257736
40
0.416033424520568
40
0.466998213291519
40
0.51833919702055
40
0.579695134431612
40
0.6621529369638
40
0.734994848514305
40
0.795483615484107
40
0.850838170536631
40
0.887138139802511
40
0.926217700282491
40
0.969606159140773
40
1
40
1
40
1
40
1
41
1
10
30.2735153751023
20
3.41613295974358
30
0
41
1
10
30.0664671286991
20
3.41517012183411
30
0
41
1
10
29.6994395467048
20
3.41397997266475
30
0
41
1
10
29.2124936938299
20
3.41383378460495
30
0
41
1
10
28.8047494884547
20
3.41416611126522
30
0
41
1
10
28.4080821754065
20
3.41401810435858
30
0
41
1
10
27.9771844344729
20
3.41270371529259
30
0
41
1
10
27.5232470290557
20
3.41151617332392
30
0
41
1
10
27.087032863248
20
3.41110436541805
30
0
41
1
10
26.6722869036726
20
3.40933827636923
30
0
41
1
10
26.2516081271943
20
3.40884991139498
30
0
41
1
10
25.7499668714696
20
3.40854953374276
30
0
41
1
10
25.1930615844943
20
3.4084290681688
30
0
41
1
10
24.6383919111398
20
3.40593505270289
30
0
41
1
10
24.1533737210181
20
3.40534236986349
30
0
41
1
10
23.7623214070613
20
3.40478554107429
30
0
41
1
10
23.4263167163669
20
3.40425055271362
30
0
41
1
10
23.1210235875842
20
3.40363726144582
30
0
41
1
10
22.8309006055469
20
3.40277592321328
30
0
41
1
10
22.6412859411366
20
3.40230590622051
30
0
41
1
10
22.563183909487
20
3.40212540828909
30
0
0
LINE
5
82
100
AcDbEntity
8
81
62
256
6
ByLayer
370
18
48
1
60
0
100
AcDbLine
10
43
20
0
30
0
11
46
21
0
31
0
39
0
210
0
220
0
230
1
0
LINE
5
83
100
AcDbEntity
8
80
62
256
6
ByLayer
370
18
48
1
60
0
100
AcDbLine
10
0
20
0
30
0
11
-3
21
0
31
0
39
0
210
0
220
0
230
1
0
LINE
5
84
100
AcDbEntity
8
SK4
62
256
6
ByLayer
370
18
48
0.05
60
0
100
AcDbLine
10
-39
20
0
30
0
11
46
21
0
31
0
39
0
210
0
220
0
230
1
0
LINE
5
86
100
AcDbEntity
8
4
62
256
6
ByLayer
370
18
48
0.05
60
0
100
AcDbLine
10
0
20
0
30
0
11
43
21
0
31
0
39
0
210
0
220
0
230
1
0
LINE
5
88
100
AcDbEntity
8
1
62
256
6
ByLayer
370
18
48
1
60
0
100
AcDbLine
10
0
20
4
30
0
11
0
21
-4
31
0
39
0
210
0
220
0
230
1
0
LINE
5
89
100
AcDbEntity
8
1
62
256
6
ByLayer
370
13
48
1
60
0
100
AcDbLine
10
42.907877
20
0.381664
30
0
11
42.119524
21
1.172998
31
0
39
0
210
0
220
0
230
1
0
LINE
5
8A
100
AcDbEntity
8
1
62
256
6
ByLayer
370
13
48
1
60
0
100
AcDbLine
10
0.581407
20
-3.749515
30
0
11
0.581407
21
3.749515
31
0
39
0
210
0
220
0
230
1
0
LINE
5
8B
100
AcDbEntity
8
1
62
256
6
ByLayer
370
18
48
1
60
0
100
AcDbLine
10
20.29991
20
-3.525353
30
0
11
20.29991
21
-0.619747
31
0
39
0
210
0
220
0
230
1
0
LINE
5
8C
100
AcDbEntity
8
1
62
256
6
ByLayer
370
18
48
1
60
0
100
AcDbLine
10
20.29991
20
3.52725
30
0
11
20.29991
21
3.521975
31
0
39
0
210
0
220
0
230
1
0
LINE
5
8D
100
AcDbEntity
8
1
62
256
6
ByLayer
370
13
48
1
60
0
100
AcDbLine
10
1.164253
20
-3.49903
30
0
11
1.164253
21
3.49903
31
0
39
0
210
0
220
0
230
1
0
LINE
5
8E
100
AcDbEntity
8
SK1
62
256
6
ByLayer
370
18
48
1
60
0
100
AcDbLine
10
-36
20
2.741569
30
0
11
-36
21
2.170123
31
0
39
0
210
0
220
0
230
1
0
LINE
5
90
100
AcDbEntity
8
SK1
62
256
6
ByLayer
370
13
48
1
60
0
100
AcDbLine
10
-35.5
20
2.647591
30
0
11
-35.5
21
3.219038
31
0
39
0
210
0
220
0
230
1
0
LINE
5
91
100
AcDbEntity
8
SK1
62
256
6
ByLayer
370
18
48
1
60
0
100
AcDbLine
10
-35.4
20
2.800323
30
0
11
-35.4
21
3.295568
31
0
39
0
210
0
220
0
230
1
0
LINE
5
92
100
AcDbEntity
8
SK1
62
256
6
ByLayer
370
18
48
1
60
0
100
AcDbLine
10
-36
20
-2.76
30
0
11
-36
21
2.170133
31
0
39
0
210
0
220
0
230
1
0
LINE
5
93
100
AcDbEntity
8
SK1
62
256
6
ByLayer
370
18
48
1
60
0
100
AcDbLine
10
-36
20
2.741569
30
0
11
-36
21
2.76
31
0
39
0
210
0
220
0
230
1
0
LINE
5
94
100
AcDbEntity
8
SK1
62
256
6
ByLayer
370
18
48
1
60
0
100
AcDbLine
10
-34.76
20
-4
30
0
11
-34.76
21
4
31
0
39
0
210
0
220
0
230
1
0
LINE
5
95
100
AcDbEntity
8
SK1
62
256
6
ByLayer
370
18
48
1
60
0
100
AcDbLine
10
0
20
4
30
0
11
0
21
-4
31
0
39
0
210
0
220
0
230
1
0
LINE
5
96
100
AcDbEntity
8
1
62
256
6
ByLayer
370
18
48
1
60
0
100
AcDbLine
10
22.141653
20
0.007555
30
0
11
22.14163
21
0.007562
31
0
39
0
210
0
220
0
230
1
0
LINE
5
97
100
AcDbEntity
8
1
62
256
6
ByLayer
370
18
48
1
60
0
100
AcDbLine
10
1.164253
20
-3.49903
30
0
11
9.585389
21
-3.514188
31
0
39
0
210
0
220
0
230
1
0
LINE
5
98
100
AcDbEntity
8
1
62
256
6
ByLayer
370
18
48
1
60
0
100
AcDbLine
10
19.741968
20
-3.53247
30
0
11
20.649173
21
-3.534103
31
0
39
0
210
0
220
0
230
1
0
LINE
5
99
100
AcDbEntity
8
1
62
256
6
ByLayer
370
18
48
1
60
0
100
AcDbLine
10
30.275023
20
-3.55143
30
0
11
31.276329
21
-3.553232
31
0
39
0
210
0
220
0
230
1
0
LINE
5
9A
100
AcDbEntity
8
1
62
256
6
ByLayer
370
18
48
1
60
0
100
AcDbLine
10
31.276329
20
3.553232
30
0
11
30.275023
21
3.55143
31
0
39
0
210
0
220
0
230
1
0
LINE
5
9B
100
AcDbEntity
8
1
62
256
6
ByLayer
370
18
48
1
60
0
100
AcDbLine
10
20.649173
20
3.534103
30
0
11
19.741968
21
3.53247
31
0
39
0
210
0
220
0
230
1
0
LINE
5
9C
100
AcDbEntity
8
1
62
256
6
ByLayer
370
18
48
1
60
0
100
AcDbLine
10
9.585389
20
3.514188
30
0
11
1.164253
21
3.49903
31
0
39
0
210
0
220
0
230
1
0
LINE
5
9D
100
AcDbEntity
8
SK1
62
256
6
ByLayer
370
18
48
1
60
0
100
AcDbLine
10
-36
20
-2.76
30
0
11
-34.76
21
-4
31
0
39
0
210
0
220
0
230
1
0
LINE
5
9E
100
AcDbEntity
8
SK1
62
256
6
ByLayer
370
18
48
1
60
0
100
AcDbLine
10
-34.76
20
4
30
0
11
-36
21
2.76
31
0
39
0
210
0
220
0
230
1
0
LINE
5
9F
100
AcDbEntity
8
SK1
62
256
6
ByLayer
370
18
48
1
60
0
100
AcDbLine
10
-34.76
20
-4
30
0
11
0
21
-4
31
0
39
0
210
0
220
0
230
1
0
LINE
5
A0
100
AcDbEntity
8
SK1
62
256
6
ByLayer
370
18
48
1
60
0
100
AcDbLine
10
0
20
4
30
0
11
-34.76
21
4
31
0
39
0
210
0
220
0
230
1
0
LINE
5
A1
100
AcDbEntity
8
2
62
256
6
ByLayer
370
13
48
1
60
0
100
AcDbLine
10
50.5
20
-3.572
30
0
11
50.5
21
32.236627
31
0
39
0
210
0
220
0
230
1
0
LINE
5
A3
100
AcDbEntity
8
2
62
256
6
ByLayer
370
13
48
1
60
0
100
AcDbLine
10
44.5875
20
3.572
30
0
11
52.5
21
3.572
31
0
39
0
210
0
220
0
230
1
0
LINE
5
A4
100
AcDbEntity
8
2
62
256
6
ByLayer
370
13
48
1
60
0
100
AcDbLine
10
44.5875
20
-3.572
30
0
11
52.5
21
-3.572
31
0
39
0
210
0
220
0
230
1
0
LINE
5
A5
100
AcDbEntity
8
1
62
256
6
ByLayer
370
18
48
1
60
1
100
AcDbLine
10
50.5
20
3.572
30
0
11
50.960784
21
0.072002
31
0
39
0
210
0
220
0
230
1
0
LINE
5
A6
100
AcDbEntity
8
1
62
256
6
ByLayer
370
18
48
1
60
1
100
AcDbLine
10
50.960784
20
0.072002
30
0
11
50.039216
21
0.071998
31
0
39
0
210
0
220
0
230
1
0
LINE
5
A7
100
AcDbEntity
8
1
62
256
6
ByLayer
370
18
48
1
60
1
100
AcDbLine
10
50.039216
20
0.071998
30
0
11
50.5
21
3.572
31
0
39
0
210
0
220
0
230
1
0
LINE
5
A8
100
AcDbEntity
8
1
62
256
6
ByLayer
370
18
48
1
60
1
100
AcDbLine
10
50.5
20
-3.572
30
0
11
50.039216
21
-0.072002
31
0
39
0
210
0
220
0
230
1
0
LINE
5
A9
100
AcDbEntity
8
1
62
256
6
ByLayer
370
18
48
1
60
1
100
AcDbLine
10
50.039216
20
-0.072002
30
0
11
50.960784
21
-0.071998
31
0
39
0
210
0
220
0
230
1
0
LINE
5
AA
100
AcDbEntity
8
1
62
256
6
ByLayer
370
18
48
1
60
1
100
AcDbLine
10
50.960784
20
-0.071998
30
0
11
50.5
21
-3.572
31
0
39
0
210
0
220
0
230
1
0
LINE
5
AB
100
AcDbEntity
8
SK2
62
256
6
ByLayer
370
13
48
1
60
0
100
AcDbLine
10
-44.5
20
-4
30
0
11
-44.5
21
13.841828
31
0
39
0
210
0
220
0
230
1
0
LINE
5
AD
100
AcDbEntity
8
SK2
62
256
6
ByLayer
370
13
48
1
60
0
100
AcDbLine
10
-37.5875
20
4
30
0
11
-46.5
21
4
31
0
39
0
210
0
220
0
230
1
0
LINE
5
AE
100
AcDbEntity
8
SK2
62
256
6
ByLayer
370
13
48
1
60
0
100
AcDbLine
10
-37.5875
20
-4
30
0
11
-46.5
21
-4
31
0
39
0
210
0
220
0
230
1
0
LINE
5
AF
100
AcDbEntity
8
1
62
256
6
ByLayer
370
18
48
1
60
1
100
AcDbLine
10
-44.5
20
4
30
0
11
-44.039216
21
0.500002
31
0
39
0
210
0
220
0
230
1
0
LINE
5
B0
100
AcDbEntity
8
1
62
256
6
ByLayer
370
18
48
1
60
1
100
AcDbLine
10
-44.039216
20
0.500002
30
0
11
-44.960784
21
0.499998
31
0
39
0
210
0
220
0
230
1
0
LINE
5
B1
100
AcDbEntity
8
1
62
256
6
ByLayer
370
18
48
1
60
1
100
AcDbLine
10
-44.960784
20
0.499998
30
0
11
-44.5
21
4
31
0
39
0
210
0
220
0
230
1
0
LINE
5
B2
100
AcDbEntity
8
1
62
256
6
ByLayer
370
18
48
1
60
1
100
AcDbLine
10
-44.5
20
-4
30
0
11
-44.960784
21
-0.500002
31
0
39
0
210
0
220
0
230
1
0
LINE
5
B3
100
AcDbEntity
8
1
62
256
6
ByLayer
370
18
48
1
60
1
100
AcDbLine
10
-44.960784
20
-0.500002
30
0
11
-44.039216
21
-0.499998
31
0
39
0
210
0
220
0
230
1
0
LINE
5
B4
100
AcDbEntity
8
1
62
256
6
ByLayer
370
18
48
1
60
1
100
AcDbLine
10
-44.039216
20
-0.499998
30
0
11
-44.5
21
-4
31
0
39
0
210
0
220
0
230
1
0
LINE
5
B5
100
AcDbEntity
8
SK2
62
256
6
ByLayer
370
13
48
1
60
0
100
AcDbLine
10
43.542919
20
1.491776
30
0
11
50.293049
21
20.039054
31
0
39
0
210
0
220
0
230
1
0
LINE
5
B6
100
AcDbEntity
8
SK2
62
256
6
ByLayer
370
13
48
1
60
0
100
AcDbLine
10
43.542919
20
-1.491776
30
0
11
50.293049
21
-20.039054
31
0
39
0
210
0
220
0
230
1
0
LINE
5
B7
100
AcDbEntity
8
1
62
256
6
ByLayer
370
18
48
1
60
1
100
AcDbLine
10
49.609056
20
18.159651
30
0
11
53.017595
21
17.240866
31
0
39
0
210
0
220
0
230
1
0
LINE
5
B8
100
AcDbEntity
8
1
62
256
6
ByLayer
370
18
48
1
60
1
100
AcDbLine
10
53.017595
20
17.240866
30
0
11
52.663656
21
16.389976
31
0
39
0
210
0
220
0
230
1
0
LINE
5
B9
100
AcDbEntity
8
1
62
256
6
ByLayer
370
18
48
1
60
1
100
AcDbLine
10
52.663656
20
16.389976
30
0
11
49.609056
21
18.159651
31
0
39
0
210
0
220
0
230
1
0
LINE
5
BA
100
AcDbEntity
8
1
62
256
6
ByLayer
370
18
48
1
60
1
100
AcDbLine
10
49.609056
20
-18.159651
30
0
11
52.663653
21
-16.389977
31
0
39
0
210
0
220
0
230
1
0
LINE
5
BB
100
AcDbEntity
8
1
62
256
6
ByLayer
370
18
48
1
60
1
100
AcDbLine
10
52.663653
20
-16.389977
30
0
11
53.017598
21
-17.240864
31
0
39
0
210
0
220
0
230
1
0
LINE
5
BC
100
AcDbEntity
8
1
62
256
6
ByLayer
370
18
48
1
60
1
100
AcDbLine
10
53.017598
20
-17.240864
30
0
11
49.609056
21
-18.159651
31
0
39
0
210
0
220
0
230
1
0
LINE
5
11B
100
AcDbEntity
8
1
62
256
6
ByLayer
370
13
48
0.05
60
0
100
AcDbLine
10
-42.5
20
0
30
0
11
48.187404
21
0
31
0
39
0
210
0
220
0
230
1
0
LINE
5
120
100
AcDbEntity
8
1
62
256
6
ByLayer
370
18
48
1
60
1
100
AcDbLine
10
50.5
20
3.572
30
0
11
50.960784
21
0.072002
31
0
39
0
210
0
220
0
230
1
0
LINE
5
121
100
AcDbEntity
8
1
62
256
6
ByLayer
370
18
48
1
60
1
100
AcDbLine
10
50.960784
20
0.072002
30
0
11
50.039216
21
0.071998
31
0
39
0
210
0
220
0
230
1
0
LINE
5
122
100
AcDbEntity
8
1
62
256
6
ByLayer
370
18
48
1
60
1
100
AcDbLine
10
50.039216
20
0.071998
30
0
11
50.5
21
3.572
31
0
39
0
210
0
220
0
230
1
0
LINE
5
124
100
AcDbEntity
8
1
62
256
6
ByLayer
370
18
48
1
60
1
100
AcDbLine
10
50.5
20
-3.572
30
0
11
50.039216
21
-0.072002
31
0
39
0
210
0
220
0
230
1
0
LINE
5
125
100
AcDbEntity
8
1
62
256
6
ByLayer
370
18
48
1
60
1
100
AcDbLine
10
50.039216
20
-0.072002
30
0
11
50.960784
21
-0.071998
31
0
39
0
210
0
220
0
230
1
0
LINE
5
126
100
AcDbEntity
8
1
62
256
6
ByLayer
370
18
48
1
60
1
100
AcDbLine
10
50.960784
20
-0.071998
30
0
11
50.5
21
-3.572
31
0
39
0
210
0
220
0
230
1
0
LINE
5
12A
100
AcDbEntity
8
1
62
256
6
ByLayer
370
18
48
1
60
1
100
AcDbLine
10
-44.5
20
4
30
0
11
-44.039216
21
0.500002
31
0
39
0
210
0
220
0
230
1
0
LINE
5
12B
100
AcDbEntity
8
1
62
256
6
ByLayer
370
18
48
1
60
1
100
AcDbLine
10
-44.039216
20
0.500002
30
0
11
-44.960784
21
0.499998
31
0
39
0
210
0
220
0
230
1
0
LINE
5
12C
100
AcDbEntity
8
1
62
256
6
ByLayer
370
18
48
1
60
1
100
AcDbLine
10
-44.960784
20
0.499998
30
0
11
-44.5
21
4
31
0
39
0
210
0
220
0
230
1
0
LINE
5
12E
100
AcDbEntity
8
1
62
256
6
ByLayer
370
18
48
1
60
1
100
AcDbLine
10
-44.5
20
-4
30
0
11
-44.960784
21
-0.500002
31
0
39
0
210
0
220
0
230
1
0
LINE
5
12F
100
AcDbEntity
8
1
62
256
6
ByLayer
370
18
48
1
60
1
100
AcDbLine
10
-44.960784
20
-0.500002
30
0
11
-44.039216
21
-0.499998
31
0
39
0
210
0
220
0
230
1
0
LINE
5
130
100
AcDbEntity
8
1
62
256
6
ByLayer
370
18
48
1
60
1
100
AcDbLine
10
-44.039216
20
-0.499998
30
0
11
-44.5
21
-4
31
0
39
0
210
0
220
0
230
1
0
LINE
5
133
100
AcDbEntity
8
1
62
256
6
ByLayer
370
18
48
1
60
1
100
AcDbLine
10
49.609056
20
18.159651
30
0
11
53.017595
21
17.240866
31
0
39
0
210
0
220
0
230
1
0
LINE
5
134
100
AcDbEntity
8
1
62
256
6
ByLayer
370
18
48
1
60
1
100
AcDbLine
10
53.017595
20
17.240866
30
0
11
52.663656
21
16.389976
31
0
39
0
210
0
220
0
230
1
0
LINE
5
135
100
AcDbEntity
8
1
62
256
6
ByLayer
370
18
48
1
60
1
100
AcDbLine
10
52.663656
20
16.389976
30
0
11
49.609056
21
18.159651
31
0
39
0
210
0
220
0
230
1
0
LINE
5
137
100
AcDbEntity
8
1
62
256
6
ByLayer
370
18
48
1
60
1
100
AcDbLine
10
49.609056
20
-18.159651
30
0
11
52.663653
21
-16.389977
31
0
39
0
210
0
220
0
230
1
0
LINE
5
138
100
AcDbEntity
8
1
62
256
6
ByLayer
370
18
48
1
60
1
100
AcDbLine
10
52.663653
20
-16.389977
30
0
11
53.017598
21
-17.240864
31
0
39
0
210
0
220
0
230
1
0
LINE
5
139
100
AcDbEntity
8
1
62
256
6
ByLayer
370
18
48
1
60
1
100
AcDbLine
10
53.017598
20
-17.240864
30
0
11
49.609056
21
-18.159651
31
0
39
0
210
0
220
0
230
1
0
MTEXT
5
11C
100
AcDbEntity
8
2
62
256
6
ByLayer
370
18
48
1
60
0
100
AcDbMText
10
49.158886
20
17.230438
30
0
210
0
220
0
230
1
1
%%c
40
3
41
0
44
1.084337
50
90
71
7
72
5
7
iso_b_vert
0
MTEXT
5
11F
100
AcDbEntity
8
2
62
256
6
ByLayer
370
18
48
1
60
0
100
AcDbMText
10
49.158886
20
23.207
30
0
210
0
220
0
230
1
1
\W0.7271;7.144
40
3
41
0
44
1.084337
50
90
71
7
72
5
7
iso_b_vert
0
MTEXT
5
128
100
AcDbEntity
8
SK2
62
256
6
ByLayer
370
18
48
1
60
0
100
AcDbMText
10
-45.841114
20
6.658437
30
0
210
0
220
0
230
1
1
%%c
40
3
41
0
44
1.084337
50
90
71
7
72
5
7
iso_b_vert
0
MTEXT
5
129
100
AcDbEntity
8
SK2
62
256
6
ByLayer
370
18
48
1
60
0
100
AcDbMText
10
-45.841114
20
12.635
30
0
210
0
220
0
230
1
1
\W0.5404;8
40
3
41
0
44
1.084337
50
90
71
7
72
5
7
iso_b_vert
0
MTEXT
5
132
100
AcDbEntity
8
SK2
62
256
6
ByLayer
370
18
48
1
60
0
100
AcDbMText
10
58.884264
20
-2.114886
30
0
210
0
220
0
230
1
1
\W0.7071;140%%d
40
3
41
0
44
1.084337
50
0
71
7
72
5
7
iso_b_vert
0
MTEXT
5
13B
100
AcDbEntity
8
SK6
62
256
6
ByLayer
370
18
48
1
60
0
100
AcDbMText
10
-20.911307
20
-51.87081
30
0
210
0
220
0
230
1
1
\W0.7455;860.1-0714-022A1-SD S2BM
40
3
41
0
44
1.084337
50
0
71
7
72
5
7
iso_b_vert
0
HATCH
5
123
100
AcDbEntity
8
2
62
256
6
ByLayer
370
13
48
1
60
0
100
AcDbHatch
10
0
20
0
30
0
210
0
220
0
230
1
2
ANSI31
70
0
71
0
91
1
92
5
93
3
72
1
10
50.5
20
3.572
11
50.9607837415528
21
0.0720016925531866
72
1
10
50.9607837415528
20
0.0720016925531866
11
50.0392162584472
21
0.0719983074468189
72
1
10
50.0392162584472
20
0.0719983074468189
11
50.5
21
3.572
97
0
75
0
76
1
52
0
41
0.0062
77
0
78
1
53
45
43
0
44
0
45
-0.0139193969876572
46
0.0139193969876572
79
0
47
0
98
1
10
0
20
0
0
HATCH
5
127
100
AcDbEntity
8
2
62
256
6
ByLayer
370
13
48
1
60
0
100
AcDbHatch
10
0
20
0
30
0
210
0
220
0
230
1
2
ANSI31
70
0
71
0
91
1
92
5
93
3
72
1
10
50.5
20
-3.572
11
50.0392162584472
21
-0.0720016925531866
72
1
10
50.0392162584472
20
-0.0720016925531866
11
50.9607837415528
21
-0.0719983074468189
72
1
10
50.9607837415528
20
-0.0719983074468189
11
50.5
21
-3.572
97
0
75
0
76
1
52
0
41
0.0062
77
0
78
1
53
45
43
0
44
0
45
-0.0139193969876572
46
0.0139193969876572
79
0
47
0
98
1
10
0
20
0
0
HATCH
5
12D
100
AcDbEntity
8
SK2
62
256
6
ByLayer
370
13
48
1
60
0
100
AcDbHatch
10
0
20
0
30
0
210
0
220
0
230
1
2
ANSI31
70
0
71
0
91
1
92
5
93
3
72
1
10
-44.5
20
4
11
-44.0392162584472
21
0.500001692553184
72
1
10
-44.0392162584472
20
0.500001692553184
11
-44.9607837415528
21
0.499998307446816
72
1
10
-44.9607837415528
20
0.499998307446816
11
-44.5
21
4
97
0
75
0
76
1
52
0
41
0.0062
77
0
78
1
53
45
43
0
44
0
45
-0.0139193969876572
46
0.0139193969876572
79
0
47
0
98
1
10
0
20
0
0
HATCH
5
131
100
AcDbEntity
8
SK2
62
256
6
ByLayer
370
13
48
1
60
0
100
AcDbHatch
10
0
20
0
30
0
210
0
220
0
230
1
2
ANSI31
70
0
71
0
91
1
92
5
93
3
72
1
10
-44.5
20
-4
11
-44.9607837415528
21
-0.500001692553184
72
1
10
-44.9607837415528
20
-0.500001692553184
11
-44.0392162584472
21
-0.499998307446816
72
1
10
-44.0392162584472
20
-0.499998307446816
11
-44.5
21
-4
97
0
75
0
76
1
52
0
41
0.0062
77
0
78
1
53
45
43
0
44
0
45
-0.0139193969876572
46
0.0139193969876572
79
0
47
0
98
1
10
0
20
0
0
HATCH
5
136
100
AcDbEntity
8
SK2
62
256
6
ByLayer
370
13
48
1
60
0
100
AcDbHatch
10
0
20
0
30
0
210
0
220
0
230
1
2
ANSI31
70
0
71
0
91
1
92
5
93
3
72
1
10
49.6090556348909
20
18.1596513291006
11
53.0175953249999
21
17.2408657232266
72
1
10
53.0175953249999
20
17.2408657232266
11
52.6636558423284
21
16.3899759133598
72
1
10
52.6636558423284
20
16.3899759133598
11
49.6090556348909
21
18.1596513291006
97
0
75
0
76
1
52
0
41
0.0062
77
0
78
1
53
45
43
0
44
0
45
-0.0139193969876572
46
0.0139193969876572
79
0
47
0
98
1
10
0
20
0
0
HATCH
5
13A
100
AcDbEntity
8
SK2
62
256
6
ByLayer
370
13
48
1
60
0
100
AcDbHatch
10
0
20
0
30
0
210
0
220
0
230
1
2
ANSI31
70
0
71
0
91
1
92
5
93
3
72
1
10
49.6090556348909
20
-18.1596513291006
11
52.6636527168404
21
-16.3899772134636
72
1
10
52.6636527168404
20
-16.3899772134636
11
53.017598450488
21
-17.2408644231228
72
1
10
53.017598450488
20
-17.2408644231228
11
49.6090556348909
21
-18.1596513291006
97
0
75
0
76
1
52
0
41
0.0062
77
0
78
1
53
45
43
0
44
0
45
-0.0139193969876572
46
0.0139193969876572
79
0
47
0
98
1
10
0
20
0
0
DIMENSION
5
13E
100
AcDbEntity
8
SK2
62
256
6
ByLayer
370
18
48
1
60
0
100
AcDbDimension
2
_U0
10
20.3
20
-19.536929
30
0
11
31.65
21
-19.536929
31
0
70
32
71
1
72
1
41
1
210
0
220
0
230
1
3
Standard
100
AcDbAlignedDimension
13
43
23
-3.572
33
0
14
20.3
24
-3.572
34
0
50
0
100
AcDbRotatedDimension
1001
ACAD
1000
DSTYLE
1002
{
1070
   371
1070
    13
1070
   372
1070
    13
1070
   170
1070
     0
1070
   144
1040
1.0
1070
   277
1070
     2
1070
   284
1070
     8
1070
   278
1070
    46
1070
   146
1040
1.166667
1070
   345
1005
16
1070
   347
1005
16
1070
   346
1005
16
1070
   344
1005
0
1070
   343
1005
0
1070
   172
1070
     1
1070
    76
1070
     0
1070
    75
1070
     0
1070
   282
1070
     0
1070
   281
1070
     0
1070
     3
1000

1070
    71
1070
     0
1070
    74
1070
     0
1070
   279
1070
     0
1070
   173
1070
     1
1070
   340
1005
11D
1070
   271
1070
     2
1070
   272
1070
     2
1070
    77
1070
     1
1070
    73
1070
     1
1070
   171
1070
     3
1070
   274
1070
     4
1070
   177
1070
     2
1070
   176
1070
     2
1070
   178
1070
     2
1070
    78
1070
     8
1070
    48
1040
-0.1
1070
    41
1040
3.5
1070
   147
1040
1.5
1070
    42
1040
1.5875
1070
    44
1040
2.0
1070
   140
1040
3.0
1002
}
1001
ACAD_DSTYLE_DIM_LINETYPE
1070
   380
1005
16
1001
ACAD_DSTYLE_DIM_EXT1_LINETYPE
1070
   381
1005
16
1001
ACAD_DSTYLE_DIM_EXT2_LINETYPE
1070
   382
1005
16
0
DIMENSION
5
159
100
AcDbEntity
8
SK2
62
256
6
ByLayer
370
18
48
1
60
0
100
AcDbDimension
2
_U1
10
2
20
-29.536929
30
0
11
22.5
21
-29.536929
31
0
70
32
71
1
72
1
41
1
210
0
220
0
230
1
3
Standard
100
AcDbAlignedDimension
13
43
23
-3.572
33
0
14
2
24
-3.572
34
0
50
0
100
AcDbRotatedDimension
1001
ACAD
1000
DSTYLE
1002
{
1070
   371
1070
    13
1070
   372
1070
    13
1070
     3
1000

1070
   170
1070
     0
1070
   144
1040
1.0
1070
   277
1070
     2
1070
   284
1070
     8
1070
   278
1070
    46
1070
   146
1040
1.166667
1070
   345
1005
16
1070
   347
1005
16
1070
   346
1005
16
1070
   344
1005
0
1070
   343
1005
0
1070
   172
1070
     1
1070
    76
1070
     0
1070
    75
1070
     0
1070
   282
1070
     0
1070
   281
1070
     0
1070
    71
1070
     0
1070
    74
1070
     0
1070
   279
1070
     0
1070
   173
1070
     1
1070
   340
1005
11D
1070
   271
1070
     2
1070
   272
1070
     2
1070
    77
1070
     1
1070
    73
1070
     1
1070
   171
1070
     3
1070
   274
1070
     4
1070
   177
1070
     2
1070
   176
1070
     2
1070
   178
1070
     2
1070
    78
1070
     8
1070
    48
1040
-0.1
1070
    41
1040
3.5
1070
   147
1040
1.5
1070
    42
1040
1.5875
1070
    44
1040
2.0
1070
   140
1040
3.0
1002
}
1001
ACAD_DSTYLE_DIM_LINETYPE
1070
   380
1005
16
1001
ACAD_DSTYLE_DIM_EXT1_LINETYPE
1070
   381
1005
16
1001
ACAD_DSTYLE_DIM_EXT2_LINETYPE
1070
   382
1005
16
0
DIMENSION
5
171
100
AcDbEntity
8
SK2
62
256
6
ByLayer
370
18
48
1
60
0
100
AcDbDimension
2
_U2
10
0
20
-37.536929
30
0
11
-18
21
-37.536929
31
0
70
32
71
1
72
1
41
1
210
0
220
0
230
1
3
Standard
100
AcDbAlignedDimension
13
-36
23
-4
33
0
14
0
24
-4
34
0
50
0
100
AcDbRotatedDimension
1001
ACAD
1000
DSTYLE
1002
{
1070
   371
1070
    13
1070
   372
1070
    13
1070
     3
1000

1070
   170
1070
     0
1070
   144
1040
1.0
1070
   277
1070
     2
1070
   284
1070
     8
1070
   278
1070
    46
1070
   146
1040
1.166667
1070
   345
1005
16
1070
   347
1005
16
1070
   346
1005
16
1070
   344
1005
0
1070
   343
1005
0
1070
   172
1070
     1
1070
    76
1070
     0
1070
    75
1070
     0
1070
   282
1070
     0
1070
   281
1070
     0
1070
    71
1070
     0
1070
    74
1070
     0
1070
   279
1070
     0
1070
   173
1070
     1
1070
   340
1005
11D
1070
   271
1070
     2
1070
   272
1070
     2
1070
    77
1070
     1
1070
    73
1070
     1
1070
   171
1070
     3
1070
   274
1070
     4
1070
   177
1070
     2
1070
   176
1070
     2
1070
   178
1070
     2
1070
    78
1070
     8
1070
    48
1040
-0.1
1070
    41
1040
3.5
1070
   147
1040
1.5
1070
    42
1040
1.5875
1070
    44
1040
2.0
1070
   140
1040
3.0
1002
}
1001
ACAD_DSTYLE_DIM_LINETYPE
1070
   380
1005
16
1001
ACAD_DSTYLE_DIM_EXT1_LINETYPE
1070
   381
1005
16
1001
ACAD_DSTYLE_DIM_EXT2_LINETYPE
1070
   382
1005
16
0
DIMENSION
5
189
100
AcDbEntity
8
SK2
62
256
6
ByLayer
370
18
48
1
60
0
100
AcDbDimension
2
_U3
10
43
20
-45.536929
30
0
11
3.5
21
-45.536929
31
0
70
32
71
1
72
1
41
1
210
0
220
0
230
1
3
Standard
100
AcDbAlignedDimension
13
-36
23
-4
33
0
14
43
24
-3.572
34
0
50
0
100
AcDbRotatedDimension
1001
ACAD
1000
DSTYLE
1002
{
1070
   371
1070
    13
1070
   372
1070
    13
1070
     3
1000

1070
   170
1070
     0
1070
   144
1040
1.0
1070
   277
1070
     2
1070
   284
1070
     8
1070
   278
1070
    46
1070
   146
1040
1.166667
1070
   345
1005
16
1070
   347
1005
16
1070
   346
1005
16
1070
   344
1005
0
1070
   343
1005
0
1070
   172
1070
     1
1070
    76
1070
     0
1070
    75
1070
     0
1070
   282
1070
     0
1070
   281
1070
     0
1070
    71
1070
     0
1070
    74
1070
     0
1070
   279
1070
     0
1070
   173
1070
     1
1070
   340
1005
11D
1070
   271
1070
     2
1070
   272
1070
     2
1070
    77
1070
     1
1070
    73
1070
     1
1070
   171
1070
     3
1070
   274
1070
     4
1070
   177
1070
     2
1070
   176
1070
     2
1070
   178
1070
     2
1070
    78
1070
     8
1070
    48
1040
-0.1
1070
    41
1040
3.5
1070
   147
1040
1.5
1070
    42
1040
1.5875
1070
    44
1040
2.0
1070
   140
1040
3.0
1002
}
1001
ACAD_DSTYLE_DIM_LINETYPE
1070
   380
1005
16
1001
ACAD_DSTYLE_DIM_EXT1_LINETYPE
1070
   381
1005
16
1001
ACAD_DSTYLE_DIM_EXT2_LINETYPE
1070
   382
1005
16
0
DIMENSION
5
1A1
100
AcDbEntity
8
2
62
256
6
ByLayer
370
18
48
1
60
0
100
AcDbDimension
2
_U4
10
0
20
-37.536929
30
0
11
21.5
21
-37.536929
31
0
70
32
71
1
72
1
41
1
210
0
220
0
230
1
3
Standard
100
AcDbAlignedDimension
13
43
23
-3.572
33
0
14
0
24
-3.572
34
0
50
0
100
AcDbRotatedDimension
1001
ACAD
1000
DSTYLE
1002
{
1070
   371
1070
    13
1070
   372
1070
    13
1070
     3
1000

1070
   170
1070
     0
1070
   144
1040
1.0
1070
   277
1070
     2
1070
   284
1070
     8
1070
   278
1070
    46
1070
   146
1040
1.166667
1070
   345
1005
16
1070
   347
1005
16
1070
   346
1005
16
1070
   344
1005
0
1070
   343
1005
0
1070
   172
1070
     1
1070
    76
1070
     0
1070
    75
1070
     0
1070
   282
1070
     0
1070
   281
1070
     0
1070
    71
1070
     0
1070
    74
1070
     0
1070
   279
1070
     0
1070
   173
1070
     1
1070
   340
1005
11D
1070
   271
1070
     2
1070
   272
1070
     2
1070
    77
1070
     1
1070
    73
1070
     1
1070
   171
1070
     3
1070
   274
1070
     4
1070
   177
1070
     2
1070
   176
1070
     2
1070
   178
1070
     2
1070
    78
1070
     8
1070
    48
1040
-0.1
1070
    41
1040
3.5
1070
   147
1040
1.5
1070
    42
1040
1.5875
1070
    44
1040
2.0
1070
   140
1040
3.0
1002
}
1001
ACAD_DSTYLE_DIM_LINETYPE
1070
   380
1005
16
1001
ACAD_DSTYLE_DIM_EXT1_LINETYPE
1070
   381
1005
16
1001
ACAD_DSTYLE_DIM_EXT2_LINETYPE
1070
   382
1005
16
0
ENDSEC
0
SECTION
2
OBJECTS
0
DICTIONARY
5
229
330
0
100
AcDbDictionary
280
0
281
1
3
ACAD_GROUP
350
22a
3
ACAD_MLINESTYLE
350
22b
0
DICTIONARY
5
22a
330
0
100
AcDbDictionary
280
0
281
1
0
DICTIONARY
5
22b
330
0
100
AcDbDictionary
280
0
281
1
3
Standard
350
18
0
MLINESTYLE
5
18
330
22b
100
AcDbMlineStyle
2
Standard
70
0
3

62
256
51
90
52
90
71
2
49
-0.5
62
256
6
ByLayer
49
0.5
62
256
6
ByLayer
0
RASTERVARIABLES
5
217
330

100
AcDbRasterVariables
90
0
70
1
71
1
72
1
0
ENDSEC
0
EOF
