0
SECTION
2
HEADER
9
$ACADVER
1
AC1015
9
$DWGCODEPAGE
3
ANSI_1252
9
$HANDSEED
5
24e
9
$ANGBASE
50
0
9
$ANGDIR
70
0
9
$ATTMODE
70
1
9
$AUNITS
70
0
9
$AUPREC
70
0
9
$CECOLOR
62
256
9
$CELTSCALE
40
1
9
$CELTYPE
6
ByLayer
9
$CELWEIGHT
370
18
9
$CLAYER
8
0
9
$CMLJUST
70
0
9
$CMLSCALE
40
1
9
$CMLSTYLE
2
Standard
9
$DIMSTYLE
2
Standard
9
$TEXTSIZE
40
0.2
9
$TEXTSTYLE
7
Standard
9
$LUNITS
70
2
9
$LUPREC
70
4
9
$EXTNAMES
290
1
9
$INSUNITS
70
4
9
$LTSCALE
40
1
9
$LWDISPLAY
290
1
9
$PDMODE
70
0
9
$PDSIZE
40
0
9
$PLINEGEN
70
0
0
ENDSEC
0
SECTION
2
CLASSES
0
CLASS
1
RASTERVARIABLES
2
AcDbRasterVariables
3
ISM
90
0
280
0
281
0
0
ENDSEC
0
SECTION
2
TABLES
0
TABLE
2
VPORT
5
244
100
AcDbSymbolTable
0
VPORT
5
1
100
AcDbSymbolTableRecord
100
AcDbViewportTableRecord
2
*Active
70
0
10
0
20
0
11
1
21
1
12
-1
22
1
13
0
23
0
14
0.5
24
0.5
15
10
25
10
16
0
26
0
36
1
17
0
27
0
37
0
0
ENDTAB
0
TABLE
2
LTYPE
5
245
100
AcDbSymbolTable
0
LTYPE
5
14
100
AcDbSymbolTableRecord
100
AcDbLinetypeTableRecord
70
0
2
ByBlock
3

72
65
73
0
40
0
0
LTYPE
5
15
100
AcDbSymbolTableRecord
100
AcDbLinetypeTableRecord
70
0
2
ByLayer
3

72
65
73
0
40
0
0
LTYPE
5
16
100
AcDbSymbolTableRecord
100
AcDbLinetypeTableRecord
70
0
2
Continuous
3
Solid line
72
65
73
0
40
0
0
LTYPE
5
6E
100
AcDbSymbolTableRecord
100
AcDbLinetypeTableRecord
70
0
2
CENTER
3
____ _ ____ _ ____ _ ____
72
65
73
4
40
47.5
49
22
74
0
49
-8.5
74
0
49
8.5
74
0
49
-8.5
74
0
0
LTYPE
5
6F
100
AcDbSymbolTableRecord
100
AcDbLinetypeTableRecord
70
0
2
DASHED
3
__ __ __ __ __ __ __ __ __
72
65
73
2
40
25.72
49
12.86
74
0
49
-12.86
74
0
0
ENDTAB
0
TABLE
2
LAYER
5
246
100
AcDbSymbolTable
0
LAYER
5
10
100
AcDbSymbolTableRecord
100
AcDbLayerTableRecord
2
0
70
0
62
7
6
Continuous
290
1
370
-3
390
0
0
LAYER
5
71
100
AcDbSymbolTableRecord
100
AcDbLayerTableRecord
2
80
70
0
62
-6
6
Continuous
290
1
370
-3
390
0
0
LAYER
5
73
100
AcDbSymbolTableRecord
100
AcDbLayerTableRecord
2
81
70
0
62
-3
6
Continuous
290
1
370
-3
390
0
0
LAYER
5
75
100
AcDbSymbolTableRecord
100
AcDbLayerTableRecord
2
1
70
0
62
4
6
Continuous
290
1
370
-3
390
0
0
LAYER
5
87
100
AcDbSymbolTableRecord
100
AcDbLayerTableRecord
2
4
70
0
62
-2
6
CENTER
290
1
370
-3
390
0
0
LAYER
5
A8
100
AcDbSymbolTableRecord
100
AcDbLayerTableRecord
2
2
70
0
62
7
6
Continuous
290
1
370
-3
390
0
0
LAYER
5
159
100
AcDbSymbolTableRecord
100
AcDbLayerTableRecord
2
Defpoints
70
0
62
7
6
Continuous
290
0
370
-3
390
0
0
LAYER
5
230
100
AcDbSymbolTableRecord
100
AcDbLayerTableRecord
2
SK4
70
0
62
2
6
CENTER
290
1
370
-3
390
0
0
LAYER
5
231
100
AcDbSymbolTableRecord
100
AcDbLayerTableRecord
2
SK1
70
0
62
4
6
Continuous
290
1
370
-3
390
0
0
LAYER
5
232
100
AcDbSymbolTableRecord
100
AcDbLayerTableRecord
2
SK2
70
0
62
7
6
Continuous
290
1
370
-3
390
0
0
LAYER
5
233
100
AcDbSymbolTableRecord
100
AcDbLayerTableRecord
2
SK6
70
0
62
5
6
Continuous
290
1
370
-3
390
0
0
ENDTAB
0
TABLE
2
STYLE
5
247
100
AcDbSymbolTable
0
STYLE
5
11
100
AcDbSymbolTableRecord
100
AcDbTextStyleTableRecord
2
Standard
3
txt
70
0
71
0
40
0
41
1
42
0
50
0
0
STYLE
5
135
100
AcDbSymbolTableRecord
100
AcDbTextStyleTableRecord
2
iso_b_vert
3
simplex.shx
70
0
71
0
40
0
41
1
42
0
50
0
0
STYLE
5
136
100
AcDbSymbolTableRecord
100
AcDbTextStyleTableRecord
2
DWGDirectTextStyle
3
simplex
70
0
71
0
40
0
41
1
42
0
50
0
0
ENDTAB
0
TABLE
2
DIMSTYLE
5
248
100
AcDbSymbolTable
100
AcDbDimStyleTable
0
DIMSTYLE
105
27
100
AcDbSymbolTableRecord
100
AcDbDimStyleTableRecord
2
Standard
70
0
3
<>
41
0.18
42
0.0625
44
0.18
140
0.18
147
0.09
73
0
74
0
77
1
271
2
275
0
278
52
280
0
340
11
0
ENDTAB
0
TABLE
2
VIEW
5
249
100
AcDbSymbolTable
0
ENDTAB
0
TABLE
2
UCS
5
24a
100
AcDbSymbolTable
0
ENDTAB
0
TABLE
2
APPID
5
24b
100
AcDbSymbolTable
0
APPID
5
12
100
AcDbSymbolTableRecord
100
AcDbRegAppTableRecord
2
ACAD
70
0
0
APPID
5
155
100
AcDbSymbolTableRecord
100
AcDbRegAppTableRecord
2
ACAD_DSTYLE_DIMBREAK
70
0
0
APPID
5
1EF
100
AcDbSymbolTableRecord
100
AcDbRegAppTableRecord
2
ACAD_DSTYLE_DIM_LINETYPE
70
0
0
APPID
5
1F0
100
AcDbSymbolTableRecord
100
AcDbRegAppTableRecord
2
ACAD_DSTYLE_DIM_EXT1_LINETYPE
70
0
0
APPID
5
1F1
100
AcDbSymbolTableRecord
100
AcDbRegAppTableRecord
2
ACAD_DSTYLE_DIM_EXT2_LINETYPE
70
0
0
APPID
5
22C
100
AcDbSymbolTableRecord
100
AcDbRegAppTableRecord
2
ACAD_MLEADERVER
70
0
0
ENDTAB
0
TABLE
2
BLOCK_RECORD
5
24c
100
AcDbSymbolTable
0
BLOCK_RECORD
5
1F
100
AcDbSymbolTableRecord
100
AcDbBlockTableRecord
2
*Model_Space
340
0
70
0
0
BLOCK_RECORD
5
1B
100
AcDbSymbolTableRecord
100
AcDbBlockTableRecord
2
*Paper_Space
340
0
70
0
0
BLOCK_RECORD
5
23
100
AcDbSymbolTableRecord
100
AcDbBlockTableRecord
2
*Paper_Space0
340
0
70
0
0
BLOCK_RECORD
5
15A
100
AcDbSymbolTableRecord
100
AcDbBlockTableRecord
2
*D1
340
0
70
0
0
BLOCK_RECORD
5
166
100
AcDbSymbolTableRecord
100
AcDbBlockTableRecord
2
_U0
340
0
70
0
0
BLOCK_RECORD
5
174
100
AcDbSymbolTableRecord
100
AcDbBlockTableRecord
2
*D3
340
0
70
0
0
BLOCK_RECORD
5
180
100
AcDbSymbolTableRecord
100
AcDbBlockTableRecord
2
_U1
340
0
70
0
0
BLOCK_RECORD
5
18C
100
AcDbSymbolTableRecord
100
AcDbBlockTableRecord
2
*D5
340
0
70
0
0
BLOCK_RECORD
5
198
100
AcDbSymbolTableRecord
100
AcDbBlockTableRecord
2
_U2
340
0
70
0
0
BLOCK_RECORD
5
1A4
100
AcDbSymbolTableRecord
100
AcDbBlockTableRecord
2
*D7
340
0
70
0
0
BLOCK_RECORD
5
1B0
100
AcDbSymbolTableRecord
100
AcDbBlockTableRecord
2
_U3
340
0
70
0
0
BLOCK_RECORD
5
1BC
100
AcDbSymbolTableRecord
100
AcDbBlockTableRecord
2
*D9
340
0
70
0
0
BLOCK_RECORD
5
1C8
100
AcDbSymbolTableRecord
100
AcDbBlockTableRecord
2
_U4
340
0
70
0
0
ENDTAB
0
ENDSEC
0
SECTION
2
BLOCKS
0
BLOCK
5
20
100
AcDbEntity
8
0
100
AcDbBlockBegin
2
*Model_Space
70
0
10
0
20
0
30
0
3
*Model_Space
0
ENDBLK
5
21
100
AcDbEntity
8
0
100
AcDbBlockEnd
0
BLOCK
5
1C
100
AcDbEntity
8
0
100
AcDbBlockBegin
2
*Paper_Space
70
0
10
0
20
0
30
0
3
*Paper_Space
0
ENDBLK
5
1D
100
AcDbEntity
8
0
100
AcDbBlockEnd
0
BLOCK
5
24
100
AcDbEntity
8
0
100
AcDbBlockBegin
2
*Paper_Space0
70
0
10
0
20
0
30
0
3
*Paper_Space0
0
ENDBLK
5
25
100
AcDbEntity
8
0
100
AcDbBlockEnd
0
BLOCK
5
15B
100
AcDbEntity
8
0
100
AcDbBlockBegin
2
*D1
70
1
10
0
20
0
30
0
3
*D1
0
LINE
5
15D
100
AcDbEntity
8
0
62
256
6
ByLayer
370
-2
48
1
60
0
100
AcDbLine
10
90
20
-5.1375
30
0
11
90
21
-21.368089
31
0
39
0
210
0
220
0
230
1
0
LINE
5
15E
100
AcDbEntity
8
0
62
256
6
ByLayer
370
-2
48
1
60
0
100
AcDbLine
10
32
20
-5.1375
30
0
11
32
21
-21.368089
31
0
39
0
210
0
220
0
230
1
0
LINE
5
15F
100
AcDbEntity
8
0
62
256
6
ByLayer
370
-2
48
1
60
0
100
AcDbLine
10
86.5
20
-19.368089
30
0
11
35.5
21
-19.368089
31
0
39
0
210
0
220
0
230
1
0
SOLID
5
160
100
AcDbEntity
8
0
62
256
6
ByLayer
370
-1
48
1
60
0
100
AcDbTrace
10
86.5
20
-19.951422
30
0
11
86.5
21
-18.784756
31
0
12
90
22
-19.368089
32
0
13
90
23
-19.368089
33
0
39
0
210
0
220
0
230
1
0
SOLID
5
161
100
AcDbEntity
8
0
62
256
6
ByLayer
370
-1
48
1
60
0
100
AcDbTrace
10
35.5
20
-18.784756
30
0
11
35.5
21
-19.951422
31
0
12
32
22
-19.368089
32
0
13
32
23
-19.368089
33
0
39
0
210
0
220
0
230
1
0
MTEXT
5
162
100
AcDbEntity
8
0
62
256
6
ByLayer
370
18
48
1
60
0
100
AcDbMText
10
61
20
-13.368089
30
0
210
0
220
0
230
1
1
\A1;58
40
3
41
0
44
1
50
0
71
5
72
5
7
iso_b_vert
0
POINT
5
163
100
AcDbEntity
8
Defpoints
62
0
6
ByLayer
370
-1
48
1
60
0
100
AcDbPoint
10
90
20
-3.55
30
0
39
0
210
0
220
0
230
1
50
360
0
POINT
5
164
100
AcDbEntity
8
Defpoints
62
0
6
ByLayer
370
-1
48
1
60
0
100
AcDbPoint
10
32
20
-3.55
30
0
39
0
210
0
220
0
230
1
50
360
0
POINT
5
165
100
AcDbEntity
8
Defpoints
62
0
6
ByLayer
370
-1
48
1
60
0
100
AcDbPoint
10
32
20
-19.368089
30
0
39
0
210
0
220
0
230
1
50
360
0
ENDBLK
5
15C
100
AcDbEntity
8
0
100
AcDbBlockEnd
0
BLOCK
5
16F
100
AcDbEntity
8
0
100
AcDbBlockBegin
2
_U0
70
0
10
0
20
0
30
0
3
_U0
0
MTEXT
5
167
100
AcDbEntity
8
SK2
62
256
6
ByLayer
370
18
48
1
60
0
100
AcDbMText
10
59.367172
20
-17.170475
30
0
210
0
220
0
230
1
1
\W0.6740;58
40
3
41
0
44
1.084337
50
0
71
7
72
5
7
iso_b_vert
0
MTEXT
5
168
100
AcDbEntity
8
SK2
62
256
6
ByLayer
370
18
48
1
60
0
100
AcDbMText
10
57.267172
20
-17.170475
30
0
210
0
220
0
230
1
1
\W1.1313;{\H1.88x;(}
40
3
41
0
44
1.084337
50
0
71
7
72
5
7
iso_b_vert
0
MTEXT
5
169
100
AcDbEntity
8
SK2
62
256
6
ByLayer
370
18
48
1
60
0
100
AcDbMText
10
62.950828
20
-17.170475
30
0
210
0
220
0
230
1
1
\W1.1313;{\H1.88x;)}
40
3
41
0
44
1.084337
50
0
71
7
72
5
7
iso_b_vert
0
LINE
5
16A
100
AcDbEntity
8
SK2
62
256
6
ByLayer
370
13
48
1
60
0
100
AcDbLine
10
90
20
-5.1375
30
0
11
90
21
-21.368089
31
0
39
0
210
0
220
0
230
1
0
LINE
5
16B
100
AcDbEntity
8
SK2
62
256
6
ByLayer
370
13
48
1
60
0
100
AcDbLine
10
32
20
-5.1375
30
0
11
32
21
-21.368089
31
0
39
0
210
0
220
0
230
1
0
LINE
5
16C
100
AcDbEntity
8
SK2
62
256
6
ByLayer
370
13
48
1
60
0
100
AcDbLine
10
90
20
-19.368089
30
0
11
32
21
-19.368089
31
0
39
0
210
0
220
0
230
1
0
SOLID
5
16D
100
AcDbEntity
8
SK2
62
256
6
ByLayer
370
18
48
1
60
0
100
AcDbTrace
10
90
20
-19.368089
30
0
11
86.500002
21
-19.828873
31
0
12
86.499998
22
-18.907305
32
0
13
86.499998
23
-18.907305
33
0
39
0
210
0
220
0
230
1
0
SOLID
5
16E
100
AcDbEntity
8
SK2
62
256
6
ByLayer
370
18
48
1
60
0
100
AcDbTrace
10
32
20
-19.368089
30
0
11
35.499998
21
-18.907305
31
0
12
35.500002
22
-19.828873
32
0
13
35.500002
23
-19.828873
33
0
39
0
210
0
220
0
230
1
0
ENDBLK
5
170
100
AcDbEntity
8
0
100
AcDbBlockEnd
0
BLOCK
5
175
100
AcDbEntity
8
0
100
AcDbBlockBegin
2
*D3
70
1
10
0
20
0
30
0
3
*D3
0
LINE
5
177
100
AcDbEntity
8
0
62
256
6
ByLayer
370
-2
48
1
60
0
100
AcDbLine
10
90
20
-5.1375
30
0
11
90
21
-31.368089
31
0
39
0
210
0
220
0
230
1
0
LINE
5
178
100
AcDbEntity
8
0
62
256
6
ByLayer
370
-2
48
1
60
0
100
AcDbLine
10
6
20
-5.1375
30
0
11
6
21
-31.368089
31
0
39
0
210
0
220
0
230
1
0
LINE
5
179
100
AcDbEntity
8
0
62
256
6
ByLayer
370
-2
48
1
60
0
100
AcDbLine
10
86.5
20
-29.368089
30
0
11
9.5
21
-29.368089
31
0
39
0
210
0
220
0
230
1
0
SOLID
5
17A
100
AcDbEntity
8
0
62
256
6
ByLayer
370
-1
48
1
60
0
100
AcDbTrace
10
86.5
20
-29.951422
30
0
11
86.5
21
-28.784756
31
0
12
90
22
-29.368089
32
0
13
90
23
-29.368089
33
0
39
0
210
0
220
0
230
1
0
SOLID
5
17B
100
AcDbEntity
8
0
62
256
6
ByLayer
370
-1
48
1
60
0
100
AcDbTrace
10
9.5
20
-28.784756
30
0
11
9.5
21
-29.951422
31
0
12
6
22
-29.368089
32
0
13
6
23
-29.368089
33
0
39
0
210
0
220
0
230
1
0
MTEXT
5
17C
100
AcDbEntity
8
0
62
256
6
ByLayer
370
18
48
1
60
0
100
AcDbMText
10
48
20
-23.368089
30
0
210
0
220
0
230
1
1
\A1;84
40
3
41
0
44
1
50
0
71
5
72
5
7
iso_b_vert
0
POINT
5
17D
100
AcDbEntity
8
Defpoints
62
0
6
ByLayer
370
-1
48
1
60
0
100
AcDbPoint
10
90
20
-3.55
30
0
39
0
210
0
220
0
230
1
50
360
0
POINT
5
17E
100
AcDbEntity
8
Defpoints
62
0
6
ByLayer
370
-1
48
1
60
0
100
AcDbPoint
10
6
20
-3.55
30
0
39
0
210
0
220
0
230
1
50
360
0
POINT
5
17F
100
AcDbEntity
8
Defpoints
62
0
6
ByLayer
370
-1
48
1
60
0
100
AcDbPoint
10
6
20
-29.368089
30
0
39
0
210
0
220
0
230
1
50
360
0
ENDBLK
5
176
100
AcDbEntity
8
0
100
AcDbBlockEnd
0
BLOCK
5
187
100
AcDbEntity
8
0
100
AcDbBlockBegin
2
_U1
70
0
10
0
20
0
30
0
3
_U1
0
MTEXT
5
181
100
AcDbEntity
8
SK2
62
256
6
ByLayer
370
18
48
1
60
0
100
AcDbMText
10
46.209229
20
-28.482975
30
0
210
0
220
0
230
1
1
\W0.7167;84
40
3
41
0
44
1.084337
50
0
71
7
72
5
7
iso_b_vert
0
LINE
5
182
100
AcDbEntity
8
SK2
62
256
6
ByLayer
370
13
48
1
60
0
100
AcDbLine
10
90
20
-5.1375
30
0
11
90
21
-31.368089
31
0
39
0
210
0
220
0
230
1
0
LINE
5
183
100
AcDbEntity
8
SK2
62
256
6
ByLayer
370
13
48
1
60
0
100
AcDbLine
10
6
20
-5.1375
30
0
11
6
21
-31.368089
31
0
39
0
210
0
220
0
230
1
0
LINE
5
184
100
AcDbEntity
8
SK2
62
256
6
ByLayer
370
13
48
1
60
0
100
AcDbLine
10
90
20
-29.368089
30
0
11
6
21
-29.368089
31
0
39
0
210
0
220
0
230
1
0
SOLID
5
185
100
AcDbEntity
8
SK2
62
256
6
ByLayer
370
18
48
1
60
0
100
AcDbTrace
10
90
20
-29.368089
30
0
11
86.500002
21
-29.828873
31
0
12
86.499998
22
-28.907305
32
0
13
86.499998
23
-28.907305
33
0
39
0
210
0
220
0
230
1
0
SOLID
5
186
100
AcDbEntity
8
SK2
62
256
6
ByLayer
370
18
48
1
60
0
100
AcDbTrace
10
6
20
-29.368089
30
0
11
9.499998
21
-28.907305
31
0
12
9.500002
22
-29.828873
32
0
13
9.500002
23
-29.828873
33
0
39
0
210
0
220
0
230
1
0
ENDBLK
5
188
100
AcDbEntity
8
0
100
AcDbBlockEnd
0
BLOCK
5
18D
100
AcDbEntity
8
0
100
AcDbBlockBegin
2
*D5
70
1
10
0
20
0
30
0
3
*D5
0
LINE
5
18F
100
AcDbEntity
8
0
62
256
6
ByLayer
370
-2
48
1
60
0
100
AcDbLine
10
-36
20
-5.5875
30
0
11
-36
21
-39.368089
31
0
39
0
210
0
220
0
230
1
0
LINE
5
190
100
AcDbEntity
8
0
62
256
6
ByLayer
370
-2
48
1
60
0
100
AcDbLine
10
0
20
-5.5875
30
0
11
0
21
-39.368089
31
0
39
0
210
0
220
0
230
1
0
LINE
5
191
100
AcDbEntity
8
0
62
256
6
ByLayer
370
-2
48
1
60
0
100
AcDbLine
10
-32.5
20
-37.368089
30
0
11
-3.5
21
-37.368089
31
0
39
0
210
0
220
0
230
1
0
SOLID
5
192
100
AcDbEntity
8
0
62
256
6
ByLayer
370
-1
48
1
60
0
100
AcDbTrace
10
-32.5
20
-36.784756
30
0
11
-32.5
21
-37.951422
31
0
12
-36
22
-37.368089
32
0
13
-36
23
-37.368089
33
0
39
0
210
0
220
0
230
1
0
SOLID
5
193
100
AcDbEntity
8
0
62
256
6
ByLayer
370
-1
48
1
60
0
100
AcDbTrace
10
-3.5
20
-37.951422
30
0
11
-3.5
21
-36.784756
31
0
12
0
22
-37.368089
32
0
13
0
23
-37.368089
33
0
39
0
210
0
220
0
230
1
0
MTEXT
5
194
100
AcDbEntity
8
0
62
256
6
ByLayer
370
18
48
1
60
0
100
AcDbMText
10
-18
20
-31.368089
30
0
210
0
220
0
230
1
1
\A1;36
40
3
41
0
44
1
50
0
71
5
72
5
7
iso_b_vert
0
POINT
5
195
100
AcDbEntity
8
Defpoints
62
0
6
ByLayer
370
-1
48
1
60
0
100
AcDbPoint
10
-36
20
-4
30
0
39
0
210
0
220
0
230
1
50
360
0
POINT
5
196
100
AcDbEntity
8
Defpoints
62
0
6
ByLayer
370
-1
48
1
60
0
100
AcDbPoint
10
0
20
-4
30
0
39
0
210
0
220
0
230
1
50
360
0
POINT
5
197
100
AcDbEntity
8
Defpoints
62
0
6
ByLayer
370
-1
48
1
60
0
100
AcDbPoint
10
0
20
-37.368089
30
0
39
0
210
0
220
0
230
1
50
360
0
ENDBLK
5
18E
100
AcDbEntity
8
0
100
AcDbBlockEnd
0
BLOCK
5
19F
100
AcDbEntity
8
0
100
AcDbBlockBegin
2
_U2
70
0
10
0
20
0
30
0
3
_U2
0
MTEXT
5
199
100
AcDbEntity
8
SK2
62
256
6
ByLayer
370
18
48
1
60
0
100
AcDbMText
10
-19.632828
20
-36.482975
30
0
210
0
220
0
230
1
1
\W0.6740;36
40
3
41
0
44
1.084337
50
0
71
7
72
5
7
iso_b_vert
0
LINE
5
19A
100
AcDbEntity
8
SK2
62
256
6
ByLayer
370
13
48
1
60
0
100
AcDbLine
10
-36
20
-5.5875
30
0
11
-36
21
-39.368089
31
0
39
0
210
0
220
0
230
1
0
LINE
5
19B
100
AcDbEntity
8
SK2
62
256
6
ByLayer
370
13
48
1
60
0
100
AcDbLine
10
0
20
-5.5875
30
0
11
0
21
-39.368089
31
0
39
0
210
0
220
0
230
1
0
LINE
5
19C
100
AcDbEntity
8
SK2
62
256
6
ByLayer
370
13
48
1
60
0
100
AcDbLine
10
-36
20
-37.368089
30
0
11
0
21
-37.368089
31
0
39
0
210
0
220
0
230
1
0
SOLID
5
19D
100
AcDbEntity
8
SK2
62
256
6
ByLayer
370
18
48
1
60
0
100
AcDbTrace
10
-36
20
-37.368089
30
0
11
-32.500002
21
-36.907305
31
0
12
-32.499998
22
-37.828873
32
0
13
-32.499998
23
-37.828873
33
0
39
0
210
0
220
0
230
1
0
SOLID
5
19E
100
AcDbEntity
8
SK2
62
256
6
ByLayer
370
18
48
1
60
0
100
AcDbTrace
10
0
20
-37.368089
30
0
11
-3.499998
21
-37.828873
31
0
12
-3.500002
22
-36.907305
32
0
13
-3.500002
23
-36.907305
33
0
39
0
210
0
220
0
230
1
0
ENDBLK
5
1A0
100
AcDbEntity
8
0
100
AcDbBlockEnd
0
BLOCK
5
1A5
100
AcDbEntity
8
0
100
AcDbBlockBegin
2
*D7
70
1
10
0
20
0
30
0
3
*D7
0
LINE
5
1A7
100
AcDbEntity
8
0
62
256
6
ByLayer
370
-2
48
1
60
0
100
AcDbLine
10
-36
20
-5.5875
30
0
11
-36
21
-47.368089
31
0
39
0
210
0
220
0
230
1
0
LINE
5
1A8
100
AcDbEntity
8
0
62
256
6
ByLayer
370
-2
48
1
60
0
100
AcDbLine
10
90
20
-5.1375
30
0
11
90
21
-47.368089
31
0
39
0
210
0
220
0
230
1
0
LINE
5
1A9
100
AcDbEntity
8
0
62
256
6
ByLayer
370
-2
48
1
60
0
100
AcDbLine
10
-32.5
20
-45.368089
30
0
11
86.5
21
-45.368089
31
0
39
0
210
0
220
0
230
1
0
SOLID
5
1AA
100
AcDbEntity
8
0
62
256
6
ByLayer
370
-1
48
1
60
0
100
AcDbTrace
10
-32.5
20
-44.784756
30
0
11
-32.5
21
-45.951422
31
0
12
-36
22
-45.368089
32
0
13
-36
23
-45.368089
33
0
39
0
210
0
220
0
230
1
0
SOLID
5
1AB
100
AcDbEntity
8
0
62
256
6
ByLayer
370
-1
48
1
60
0
100
AcDbTrace
10
86.5
20
-45.951422
30
0
11
86.5
21
-44.784756
31
0
12
90
22
-45.368089
32
0
13
90
23
-45.368089
33
0
39
0
210
0
220
0
230
1
0
MTEXT
5
1AC
100
AcDbEntity
8
0
62
256
6
ByLayer
370
18
48
1
60
0
100
AcDbMText
10
27
20
-39.368089
30
0
210
0
220
0
230
1
1
\A1;126
40
3
41
0
44
1
50
0
71
5
72
5
7
iso_b_vert
0
POINT
5
1AD
100
AcDbEntity
8
Defpoints
62
0
6
ByLayer
370
-1
48
1
60
0
100
AcDbPoint
10
-36
20
-4
30
0
39
0
210
0
220
0
230
1
50
360
0
POINT
5
1AE
100
AcDbEntity
8
Defpoints
62
0
6
ByLayer
370
-1
48
1
60
0
100
AcDbPoint
10
90
20
-3.55
30
0
39
0
210
0
220
0
230
1
50
360
0
POINT
5
1AF
100
AcDbEntity
8
Defpoints
62
0
6
ByLayer
370
-1
48
1
60
0
100
AcDbPoint
10
90
20
-45.368089
30
0
39
0
210
0
220
0
230
1
50
360
0
ENDBLK
5
1A6
100
AcDbEntity
8
0
100
AcDbBlockEnd
0
BLOCK
5
1B7
100
AcDbEntity
8
0
100
AcDbBlockBegin
2
_U3
70
0
10
0
20
0
30
0
3
_U3
0
MTEXT
5
1B1
100
AcDbEntity
8
SK2
62
256
6
ByLayer
370
18
48
1
60
0
100
AcDbMText
10
24.621201
20
-44.482975
30
0
210
0
220
0
230
1
1
\W0.6217;126
40
3
41
0
44
1.084337
50
0
71
7
72
5
7
iso_b_vert
0
LINE
5
1B2
100
AcDbEntity
8
SK2
62
256
6
ByLayer
370
13
48
1
60
0
100
AcDbLine
10
-36
20
-5.5875
30
0
11
-36
21
-47.368089
31
0
39
0
210
0
220
0
230
1
0
LINE
5
1B3
100
AcDbEntity
8
SK2
62
256
6
ByLayer
370
13
48
1
60
0
100
AcDbLine
10
90
20
-5.1375
30
0
11
90
21
-47.368089
31
0
39
0
210
0
220
0
230
1
0
LINE
5
1B4
100
AcDbEntity
8
SK2
62
256
6
ByLayer
370
13
48
1
60
0
100
AcDbLine
10
-36
20
-45.368089
30
0
11
90
21
-45.368089
31
0
39
0
210
0
220
0
230
1
0
SOLID
5
1B5
100
AcDbEntity
8
SK2
62
256
6
ByLayer
370
18
48
1
60
0
100
AcDbTrace
10
-36
20
-45.368089
30
0
11
-32.500002
21
-44.907305
31
0
12
-32.499998
22
-45.828873
32
0
13
-32.499998
23
-45.828873
33
0
39
0
210
0
220
0
230
1
0
SOLID
5
1B6
100
AcDbEntity
8
SK2
62
256
6
ByLayer
370
18
48
1
60
0
100
AcDbTrace
10
90
20
-45.368089
30
0
11
86.500002
21
-45.828873
31
0
12
86.499998
22
-44.907305
32
0
13
86.499998
23
-44.907305
33
0
39
0
210
0
220
0
230
1
0
ENDBLK
5
1B8
100
AcDbEntity
8
0
100
AcDbBlockEnd
0
BLOCK
5
1BD
100
AcDbEntity
8
0
100
AcDbBlockBegin
2
*D9
70
1
10
0
20
0
30
0
3
*D9
0
LINE
5
1BF
100
AcDbEntity
8
0
62
256
6
ByLayer
370
-2
48
1
60
0
100
AcDbLine
10
90
20
-5.1375
30
0
11
90
21
-39.368089
31
0
39
0
210
0
220
0
230
1
0
LINE
5
1C0
100
AcDbEntity
8
0
62
256
6
ByLayer
370
-2
48
1
60
0
100
AcDbLine
10
0
20
-5.1375
30
0
11
0
21
-39.368089
31
0
39
0
210
0
220
0
230
1
0
LINE
5
1C1
100
AcDbEntity
8
0
62
256
6
ByLayer
370
-2
48
1
60
0
100
AcDbLine
10
86.5
20
-37.368089
30
0
11
3.5
21
-37.368089
31
0
39
0
210
0
220
0
230
1
0
SOLID
5
1C2
100
AcDbEntity
8
0
62
256
6
ByLayer
370
-1
48
1
60
0
100
AcDbTrace
10
86.5
20
-37.951422
30
0
11
86.5
21
-36.784756
31
0
12
90
22
-37.368089
32
0
13
90
23
-37.368089
33
0
39
0
210
0
220
0
230
1
0
SOLID
5
1C3
100
AcDbEntity
8
0
62
256
6
ByLayer
370
-1
48
1
60
0
100
AcDbTrace
10
3.5
20
-36.784756
30
0
11
3.5
21
-37.951422
31
0
12
0
22
-37.368089
32
0
13
0
23
-37.368089
33
0
39
0
210
0
220
0
230
1
0
MTEXT
5
1C4
100
AcDbEntity
8
0
62
256
6
ByLayer
370
18
48
1
60
0
100
AcDbMText
10
45
20
-31.368089
30
0
210
0
220
0
230
1
1
\A1;90
40
3
41
0
44
1
50
0
71
5
72
5
7
iso_b_vert
0
POINT
5
1C5
100
AcDbEntity
8
Defpoints
62
0
6
ByLayer
370
-1
48
1
60
0
100
AcDbPoint
10
90
20
-3.55
30
0
39
0
210
0
220
0
230
1
50
360
0
POINT
5
1C6
100
AcDbEntity
8
Defpoints
62
0
6
ByLayer
370
-1
48
1
60
0
100
AcDbPoint
10
0
20
-3.55
30
0
39
0
210
0
220
0
230
1
50
360
0
POINT
5
1C7
100
AcDbEntity
8
Defpoints
62
0
6
ByLayer
370
-1
48
1
60
0
100
AcDbPoint
10
0
20
-37.368089
30
0
39
0
210
0
220
0
230
1
50
360
0
ENDBLK
5
1BE
100
AcDbEntity
8
0
100
AcDbBlockEnd
0
BLOCK
5
1CF
100
AcDbEntity
8
0
100
AcDbBlockBegin
2
_U4
70
0
10
0
20
0
30
0
3
_U4
0
MTEXT
5
1C9
100
AcDbEntity
8
2
62
256
6
ByLayer
370
18
48
1
60
0
100
AcDbMText
10
43.367172
20
-36.482975
30
0
210
0
220
0
230
1
1
\W0.6740;90
40
3
41
0
44
1.084337
50
0
71
7
72
5
7
iso_b_vert
0
LINE
5
1CA
100
AcDbEntity
8
2
62
256
6
ByLayer
370
13
48
1
60
0
100
AcDbLine
10
90
20
-5.1375
30
0
11
90
21
-39.368089
31
0
39
0
210
0
220
0
230
1
0
LINE
5
1CB
100
AcDbEntity
8
2
62
256
6
ByLayer
370
13
48
1
60
0
100
AcDbLine
10
0
20
-5.1375
30
0
11
0
21
-39.368089
31
0
39
0
210
0
220
0
230
1
0
LINE
5
1CC
100
AcDbEntity
8
2
62
256
6
ByLayer
370
13
48
1
60
0
100
AcDbLine
10
90
20
-37.368089
30
0
11
0
21
-37.368089
31
0
39
0
210
0
220
0
230
1
0
SOLID
5
1CD
100
AcDbEntity
8
2
62
256
6
ByLayer
370
18
48
1
60
0
100
AcDbTrace
10
90
20
-37.368089
30
0
11
86.500002
21
-37.828873
31
0
12
86.499998
22
-36.907305
32
0
13
86.499998
23
-36.907305
33
0
39
0
210
0
220
0
230
1
0
SOLID
5
1CE
100
AcDbEntity
8
2
62
256
6
ByLayer
370
18
48
1
60
0
100
AcDbTrace
10
0
20
-37.368089
30
0
11
3.499998
21
-36.907305
31
0
12
3.500002
22
-37.828873
32
0
13
3.500002
23
-37.828873
33
0
39
0
210
0
220
0
230
1
0
ENDBLK
5
1D0
100
AcDbEntity
8
0
100
AcDbBlockEnd
0
ENDSEC
0
SECTION
2
ENTITIES
0
ARC
5
C3
100
AcDbEntity
8
1
62
256
6
ByLayer
370
18
48
1
60
0
100
AcDbCircle
39
0
10
1.254904
20
-4.19258
30
0
40
0.799999999999994
210
0
220
0
230
1
100
AcDbArc
50
89.896868
51
141.657367
0
ARC
5
C4
100
AcDbEntity
8
1
62
256
6
ByLayer
370
18
48
1
60
0
100
AcDbCircle
39
0
10
1.254904
20
4.19258
30
0
40
0.799999999999994
210
0
220
0
230
1
100
AcDbArc
50
218.342633
51
270.103132
0
ARC
5
C5
100
AcDbEntity
8
1
62
256
6
ByLayer
370
18
48
1
60
0
100
AcDbCircle
39
0
10
0
20
-3.2
30
0
40
0.8
210
0
220
0
230
1
100
AcDbArc
50
270
51
321.657367
0
ARC
5
C6
100
AcDbEntity
8
1
62
256
6
ByLayer
370
18
48
1
60
0
100
AcDbCircle
39
0
10
0
20
3.2
30
0
40
0.8
210
0
220
0
230
1
100
AcDbArc
50
38.342633
51
90
0
ARC
5
C7
100
AcDbEntity
8
SK2
62
256
6
ByLayer
370
13
48
1
60
0
100
AcDbCircle
39
0
10
90
20
0
30
0
40
19.5353064254929
210
0
220
0
230
1
100
AcDbArc
50
8.833761
51
70.001344
0
ARC
5
C8
100
AcDbEntity
8
SK2
62
256
6
ByLayer
370
13
48
1
60
0
100
AcDbCircle
39
0
10
90
20
0
30
0
40
19.5353064254929
210
0
220
0
230
1
100
AcDbArc
50
289.998656
51
351.166239
0
ELLIPSE
5
C9
100
AcDbEntity
8
1
62
256
6
ByLayer
370
13
48
1
60
0
100
AcDbEllipse
10
12.224471
20
-61.382551
30
0
11
-50.4952943583488
21
55.4216775966278
31
0
210
0
220
0
230
1
40
0.697191
41
-0.894378047488061
42
-0.876729283430886
0
ELLIPSE
5
CA
100
AcDbEntity
8
1
62
256
6
ByLayer
370
13
48
1
60
0
100
AcDbEllipse
10
12.190422
20
-61.413573
30
0
11
-50.4967576271457
21
55.4232836237344
31
0
210
0
220
0
230
1
40
0.697191
41
-0.903446347870479
42
-0.875377593764079
0
ELLIPSE
5
CB
100
AcDbEntity
8
1
62
256
6
ByLayer
370
18
48
1
60
0
100
AcDbEllipse
10
54.599917
20
3.454396
30
0
11
-0.1
21
1.22460635382238E-17
31
0
210
0
220
0
230
1
40
1
41
0.000533848803736365
42
1.5929455880057
0
POINT
5
70
100
AcDbEntity
8
80
62
256
6
ByLayer
370
18
48
1
60
0
100
AcDbPoint
10
0
20
0
30
0
39
0
210
0
220
0
230
1
50
360
0
POINT
5
72
100
AcDbEntity
8
81
62
256
6
ByLayer
370
18
48
1
60
0
100
AcDbPoint
10
90
20
0
30
0
39
0
210
0
220
0
230
1
50
360
0
POINT
5
74
100
AcDbEntity
8
1
62
256
6
ByLayer
370
18
48
1
60
0
100
AcDbPoint
10
-191.407347
20
-173.463754
30
0
39
0
210
0
220
0
230
1
50
360
0
POINT
5
76
100
AcDbEntity
8
1
62
256
6
ByLayer
370
13
48
1
60
1
100
AcDbPoint
10
-37.5
20
0
30
0
39
0
210
0
220
0
230
1
50
360
0
POINT
5
77
100
AcDbEntity
8
1
62
256
6
ByLayer
370
13
48
1
60
1
100
AcDbPoint
10
90.195688
20
0
30
0
39
0
210
0
220
0
230
1
50
360
0
POINT
5
78
100
AcDbEntity
8
1
62
256
6
ByLayer
370
18
48
1
60
1
100
AcDbPoint
10
90
20
-3.55
30
0
39
0
210
0
220
0
230
1
50
360
0
POINT
5
79
100
AcDbEntity
8
1
62
256
6
ByLayer
370
18
48
1
60
1
100
AcDbPoint
10
32
20
-3.55
30
0
39
0
210
0
220
0
230
1
50
360
0
POINT
5
7A
100
AcDbEntity
8
1
62
256
6
ByLayer
370
18
48
1
60
1
100
AcDbPoint
10
90
20
-3.55
30
0
39
0
210
0
220
0
230
1
50
360
0
POINT
5
7B
100
AcDbEntity
8
1
62
256
6
ByLayer
370
18
48
1
60
1
100
AcDbPoint
10
6
20
-3.55
30
0
39
0
210
0
220
0
230
1
50
360
0
POINT
5
7C
100
AcDbEntity
8
1
62
256
6
ByLayer
370
18
48
1
60
1
100
AcDbPoint
10
-36
20
-4
30
0
39
0
210
0
220
0
230
1
50
360
0
POINT
5
7D
100
AcDbEntity
8
1
62
256
6
ByLayer
370
18
48
1
60
1
100
AcDbPoint
10
0
20
-4
30
0
39
0
210
0
220
0
230
1
50
360
0
POINT
5
7E
100
AcDbEntity
8
1
62
256
6
ByLayer
370
18
48
1
60
1
100
AcDbPoint
10
-36
20
-4
30
0
39
0
210
0
220
0
230
1
50
360
0
POINT
5
7F
100
AcDbEntity
8
1
62
256
6
ByLayer
370
18
48
1
60
1
100
AcDbPoint
10
90
20
-3.55
30
0
39
0
210
0
220
0
230
1
50
360
0
POINT
5
80
100
AcDbEntity
8
1
62
256
6
ByLayer
370
18
48
1
60
1
100
AcDbPoint
10
90
20
-3.55
30
0
39
0
210
0
220
0
230
1
50
360
0
POINT
5
81
100
AcDbEntity
8
1
62
256
6
ByLayer
370
18
48
1
60
1
100
AcDbPoint
10
0
20
-3.55
30
0
39
0
210
0
220
0
230
1
50
360
0
SPLINE
5
CC
100
AcDbEntity
8
1
62
256
6
ByLayer
370
18
48
1
60
0
100
AcDbSpline
70
4
71
3
72
8
73
4
40
0
40
0
40
0
40
0
40
1
40
1
40
1
40
1
41
1
10
89.6076092450446
20
1.23161980352739
30
0
41
1
10
89.7088114901067
20
0.94784101493687
30
0
41
1
10
89.8090967071391
20
0.663741273178488
30
0
41
1
10
89.9084448117803
20
0.379313548871238
30
0
0
SPLINE
5
CD
100
AcDbEntity
8
1
62
256
6
ByLayer
370
18
48
1
60
0
100
AcDbSpline
70
4
71
3
72
8
73
4
40
0
40
0
40
0
40
0
40
1
40
1
40
1
40
1
41
1
10
89.9084448117803
20
0.379313548871238
30
0
41
1
10
89.9379447563938
20
0.294856959146472
30
0
41
1
10
89.9681302117496
20
0.210785361789704
30
0
41
1
10
89.9990013291904
20
0.127083387275263
30
0
0
SPLINE
5
CE
100
AcDbEntity
8
1
62
256
6
ByLayer
370
13
48
1
60
0
100
AcDbSpline
70
4
71
3
72
46
73
42
40
0
40
0
40
0
40
0
40
0.0271934901142442
40
0.0437643157239263
40
0.0603351413336084
40
0.0934767925529726
40
0.126618443772337
40
0.159760094991701
40
0.176330920601383
40
0.192901746211065
40
0.226043397430429
40
0.259185048649794
40
0.292326699869158
40
0.30889752547884
40
0.325468351088522
40
0.358610002307886
40
0.39175165352725
40
0.424893304746614
40
0.441464130356296
40
0.458034955965978
40
0.491176607185343
40
0.524318258404707
40
0.557459909624071
40
0.574030735233753
40
0.590601560843435
40
0.623743212062799
40
0.656884863282164
40
0.690026514501528
40
0.70659734011121
40
0.723168165720892
40
0.756309816940256
40
0.78945146815962
40
0.822593119378984
40
0.839163944988667
40
0.855734770598349
40
0.888876421817713
40
0.922018073037077
40
0.955159724256441
40
0.971730549866122
40
0.988301375475806
40
1
40
1
40
1
40
1
41
1
10
81.3465836706047
20
-1.72259348915875
30
0
41
1
10
81.2342551200052
20
-1.72812769250552
30
0
41
1
10
81.0533810478942
20
-1.73624442689206
30
0
41
1
10
80.8040951425889
20
-1.74541811348263
30
0
41
1
10
80.5311904922951
20
-1.75140224919147
30
0
41
1
10
80.1900141451523
20
-1.75429114444583
30
0
41
1
10
79.7797866589177
20
-1.75295308306414
30
0
41
1
10
79.4373512723811
20
-1.74860857733117
30
0
41
1
10
79.1634884563164
20
-1.74254799449918
30
0
41
1
10
78.8905788229059
20
-1.73188518501763
30
0
41
1
10
78.5493914008418
20
-1.71406873578476
30
0
41
1
10
78.1391496177403
20
-1.68829769714969
30
0
41
1
10
77.7967069864505
20
-1.66408513173391
30
0
41
1
10
77.5228451426005
20
-1.64222476025697
30
0
41
1
10
77.2499404923103
20
-1.61552139761417
30
0
41
1
10
76.9087641451709
20
-1.57802107705183
30
0
41
1
10
76.4985366589345
20
-1.52928927201856
30
0
41
1
10
76.1561012723843
20
-1.48657883988562
30
0
41
1
10
75.8822384563069
20
-1.45014359016724
30
0
41
1
10
75.6093288228914
20
-1.40888906167939
30
0
41
1
10
75.2681414008238
20
-1.3537905110224
30
0
41
1
10
74.8578996177243
20
-1.28480868756648
30
0
41
1
10
74.515456986444
20
-1.2259784316492
30
0
41
1
10
74.2415951426003
20
-1.17699878541899
30
0
41
1
10
73.96869049231
20
-1.12349474857348
30
0
41
1
10
73.6275141451675
20
-1.05387225316795
30
0
41
1
10
73.2172866589246
20
-0.96848975477576
30
0
41
1
10
72.8748512723711
20
-0.89682901958227
30
0
41
1
10
72.6009884562951
20
-0.838051346390444
30
0
41
1
10
72.3280788228825
20
-0.775299764544201
30
0
41
1
10
71.9868914008204
20
-0.695065727954244
30
0
41
1
10
71.576649617726
20
-0.59808033791137
30
0
41
1
10
71.2342069864411
20
-0.517601670878832
30
0
41
1
10
70.9603451425903
20
-0.452300437361799
30
0
41
1
10
70.6874404922972
20
-0.383790827191575
30
0
41
1
10
70.3462641451519
20
-0.297394612980071
30
0
41
1
10
69.9360366589111
20
-0.194184209974083
30
0
41
1
10
69.5936012723696
20
-0.109370962883702
30
0
41
1
10
69.319738456305
20
-0.0412085536249549
30
0
41
1
10
69.1351166471194
20
0.0064267171991617
30
0
41
1
10
69.0187124713049
20
0.0363929015900908
30
0
41
1
10
68.9705343625246
20
0.0487746353899752
30
0
0
SPLINE
5
CF
100
AcDbEntity
8
1
62
256
6
ByLayer
370
13
48
1
60
0
100
AcDbSpline
70
4
71
3
72
45
73
41
40
0
40
0
40
0
40
0
40
0.019513597584018
40
0.0530121651533851
40
0.0865107327227543
40
0.103260016507438
40
0.120009300292122
40
0.153507867861491
40
0.187006435430858
40
0.220505003000227
40
0.23725428678491
40
0.254003570569595
40
0.287502138138962
40
0.32100070570833
40
0.354499273277699
40
0.371248557062383
40
0.387997840847067
40
0.421496408416435
40
0.454994975985804
40
0.488493543555171
40
0.505242827339856
40
0.52199211112454
40
0.555490678693908
40
0.588989246263276
40
0.622487813832644
40
0.639237097617329
40
0.655986381402012
40
0.68948494897138
40
0.722983516540748
40
0.756482084110117
40
0.773231367894801
40
0.789980651679484
40
0.823479219248853
40
0.856977786818221
40
0.890476354387589
40
0.907225638172274
40
0.923974921956957
40
0.957473489526326
40
0.990972057095693
40
1
40
1
40
1
40
1
41
1
10
37.7722424525074
20
-1.72695977749888
30
0
41
1
10
37.6927341800009
20
-1.73027150876962
30
0
41
1
10
37.4766769371739
20
-1.73830200703367
30
0
41
1
10
37.1235366589207
20
-1.74805989254921
30
0
41
1
10
36.7811012723754
20
-1.75409460661029
30
0
41
1
10
36.5072384563051
20
-1.75634774508924
30
0
41
1
10
36.2343288228938
20
-1.75422573290555
30
0
41
1
10
35.8931414008311
20
-1.74699527778671
30
0
41
1
10
35.4828996177337
20
-1.73368199544615
30
0
41
1
10
35.140456986446
20
-1.71958094741663
30
0
41
1
10
34.8665951425947
20
-1.7057482498621
30
0
41
1
10
34.5936904923024
20
-1.6871658114454
30
0
41
1
10
34.252514145159
20
-1.659600979896
30
0
41
1
10
33.8422866589196
20
-1.62242398493746
30
0
41
1
10
33.4998512723748
20
-1.5889957751622
30
0
41
1
10
33.2259884563052
20
-1.55985183490372
30
0
41
1
10
32.9530788228947
20
-1.52584067976335
30
0
41
1
10
32.6118914008332
20
-1.47946381720004
30
0
41
1
10
32.2016496177366
20
-1.42047824338712
30
0
41
1
10
31.8592069864487
20
-1.36957807635056
30
0
41
1
10
31.5853451425968
20
-1.32674734102358
30
0
41
1
10
31.3124404923038
20
-1.27920806935057
30
0
41
1
10
30.9712641451594
20
-1.2166141191307
30
0
41
1
10
30.5610366589189
20
-1.1391205869885
30
0
41
1
10
30.2186012723742
20
-1.07359878716929
30
0
41
1
10
29.944738456305
20
-1.01948262386239
30
0
41
1
10
29.6718288228942
20
-0.961080171342815
30
0
41
1
10
29.3306414008322
20
-0.885780798536615
30
0
41
1
10
28.9203996177351
20
-0.794126452888946
30
0
41
1
10
28.5779569864466
20
-0.717648238014789
30
0
41
1
10
28.3040951425947
20
-0.655261609359371
30
0
41
1
10
28.0311904923025
20
-0.589245657676003
30
0
41
1
10
27.6900141451597
20
-0.505421584172581
30
0
41
1
10
27.2797866589211
20
-0.404695160929265
30
0
41
1
10
26.9373512723766
20
-0.321524218336066
30
0
41
1
10
26.6634884563066
20
-0.254365877699826
30
0
41
1
10
26.3905788231394
20
-0.184447096223011
30
0
41
1
10
26.049391402348
20
-0.0968251478212494
30
0
41
1
10
25.7390431747814
20
-0.0180600280804697
30
0
41
1
10
25.5652570378973
20
0.0254936936243837
30
0
41
1
10
25.528358525793
20
0.0347232706240561
30
0
0
SPLINE
5
D0
100
AcDbEntity
8
1
62
256
6
ByLayer
370
18
48
1
60
0
100
AcDbSpline
70
4
71
3
72
30
73
26
40
0
40
0
40
0
40
0
40
0.0151587251428438
40
0.0151587251428438
40
0.155850335836715
40
0.155850335836715
40
0.22619614118365
40
0.22619614118365
40
0.261369043857117
40
0.261369043857117
40
0.296541946530585
40
0.296541946530585
40
0.437233557224455
40
0.437233557224455
40
0.50757936257139
40
0.50757936257139
40
0.542752265244858
40
0.542752265244858
40
0.577925167918325
40
0.577925167918325
40
0.718616778612231
40
0.718616778612231
40
0.859308389306136
40
0.859308389306136
40
1
40
1
40
1
40
1
41
1
10
88.3781410381878
20
0.76461263508574
30
0
41
1
10
88.3804083355841
20
0.766806193939999
30
0
41
1
10
88.3826964135015
20
0.769016465400142
30
0
41
1
10
88.4064362399215
20
0.791908370937591
30
0
41
1
10
88.4297434510323
20
0.81389207567733
30
0
41
1
10
88.4681002406066
20
0.84820795961798
30
0
41
1
10
88.4814495841065
20
0.859875419224835
30
0
41
1
10
88.5024119114854
20
0.87764771215106
30
0
41
1
10
88.5095733587506
20
0.88363102175478
30
0
41
1
10
88.5241302448694
20
0.895594025264131
30
0
41
1
10
88.5315218170827
20
0.901571260065907
30
0
41
1
10
88.5690545763573
20
0.931407692146564
30
0
41
1
10
88.6009045014679
20
0.955130011635106
30
0
41
1
10
88.6517841716515
20
0.989811244773193
30
0
41
1
10
88.6692634536147
20
1.00122056687414
30
0
41
1
10
88.696349990838
20
1.01797907242585
30
0
41
1
10
88.7055237315832
20
1.02350567494702
30
0
41
1
10
88.7241785906377
20
1.03441528996333
30
0
41
1
10
88.7336857377215
20
1.03981240733219
30
0
41
1
10
88.7816961960656
20
1.06618732230956
30
0
41
1
10
88.8214045225907
20
1.08518448156127
30
0
41
1
10
88.9036177799823
20
1.11815708882139
30
0
41
1
10
88.9461153041316
20
1.13221294353386
30
0
41
1
10
89.0340154914022
20
1.15452758240988
30
0
41
1
10
89.0784135046879
20
1.16250273274866
30
0
41
1
10
89.1232615735549
20
1.1674660479336
30
0
0
SPLINE
5
D1
100
AcDbEntity
8
1
62
256
6
ByLayer
370
18
48
1
60
0
100
AcDbSpline
70
4
71
3
72
10
73
6
40
0
40
0
40
0
40
0
40
0.5
40
0.5
40
1
40
1
40
1
40
1
41
1
10
89.1232615735549
20
1.16746604793337
30
0
41
1
10
89.2042150949568
20
1.17642513696884
30
0
41
1
10
89.2850758430702
20
1.18608756508652
30
0
41
1
10
89.4465618520636
20
1.2071977129423
30
0
41
1
10
89.5272018716649
20
1.21864389859445
30
0
41
1
10
89.6076092450445
20
1.23161980352737
30
0
0
SPLINE
5
D2
100
AcDbEntity
8
1
62
256
6
ByLayer
370
18
48
1
60
0
100
AcDbSpline
70
4
71
3
72
14
73
10
40
0
40
0
40
0
40
0
40
0.49999999999998
40
0.49999999999998
40
0.74999999999997
40
0.74999999999997
40
0.874999999999985
40
0.874999999999985
40
1
40
1
40
1
40
1
41
1
10
89.2809367104647
20
1.9714057446846
30
0
41
1
10
89.3308587589771
20
1.84026867611573
30
0
41
1
10
89.3826369778172
20
1.7129446743989
30
0
41
1
10
89.4640406194148
20
1.52792115985017
30
0
41
1
10
89.4917859671873
20
1.46721987653606
30
0
41
1
10
89.5344348849244
20
1.37767994312532
30
0
41
1
10
89.5488231673236
20
1.34808575383462
30
0
41
1
10
89.5779635349115
20
1.28941386881814
30
0
41
1
10
89.5927397856268
20
1.26029151863031
30
0
41
1
10
89.6076092450446
20
1.23161980352739
30
0
0
SPLINE
5
D3
100
AcDbEntity
8
1
62
256
6
ByLayer
370
13
48
1
60
0
100
AcDbSpline
70
4
71
3
72
46
73
42
40
0
40
0
40
0
40
0
40
0.0121302753039976
40
0.0287476147855222
40
0.0619822937485756
40
0.095216972711627
40
0.128451651674677
40
0.145068991156202
40
0.161686330637727
40
0.194921009600779
40
0.228155688563833
40
0.261390367526882
40
0.278007707008408
40
0.294625046489933
40
0.327859725452985
40
0.361094404416033
40
0.394329083379087
40
0.410946422860617
40
0.427563762342139
40
0.460798441305191
40
0.494033120268242
40
0.527267799231293
40
0.543885138712817
40
0.560502478194345
40
0.593737157157397
40
0.626971836120447
40
0.660206515083499
40
0.676823854565024
40
0.69344119404655
40
0.726675873009601
40
0.759910551972651
40
0.793145230935704
40
0.80976257041723
40
0.826379909898755
40
0.859614588861807
40
0.892849267824858
40
0.92608394678791
40
0.942701286269435
40
0.959318625750961
40
0.992553304714013
40
1
40
1
40
1
40
1
41
1
10
59.6259287370813
20
-1.72246825718878
30
0
41
1
10
59.5759539194813
20
-1.72510894030293
30
0
41
1
10
59.4575654855107
20
-1.73100797070955
30
0
41
1
10
59.203078822892
20
-1.74055389482288
30
0
41
1
10
58.8618914008279
20
-1.74876219029434
30
0
41
1
10
58.45164961773
20
-1.75374304499215
30
0
41
1
10
58.1092069864449
20
-1.75457683017825
30
0
41
1
10
57.8353451425956
20
-1.75267005172287
30
0
41
1
10
57.5624404923032
20
-1.74627202118248
30
0
41
1
10
57.2212641451587
20
-1.73374038116199
30
0
41
1
10
56.8110366589169
20
-1.71418056320019
30
0
41
1
10
56.46860127237
20
-1.69499774199312
30
0
41
1
10
56.1947384562996
20
-1.6771191737474
30
0
41
1
10
55.921828822889
20
-1.65443156275504
30
0
41
1
10
55.5806414008283
20
-1.62183107837177
30
0
41
1
10
55.1703996177334
20
-1.57878755027318
30
0
41
1
10
54.8279569864465
20
-1.54064165326184
30
0
41
1
10
54.5540951425955
20
-1.50778836438551
30
0
41
1
10
54.2811904923045
20
-1.47008434550742
30
0
41
1
10
53.9400141451629
20
-1.41925160890034
30
0
41
1
10
53.5297866589252
20
-1.35514824646137
30
0
41
1
10
53.1873512723803
20
-1.30018265755206
30
0
41
1
10
52.9134884563095
20
-1.25419624801398
30
0
41
1
10
52.6405788228971
20
-1.2035855884059
30
0
41
1
10
52.2993914008329
20
-1.13736318380208
30
0
41
1
10
51.8891496177336
20
-1.05578432808676
30
0
41
1
10
51.5467069864465
20
-0.987068108843033
30
0
41
1
10
51.2728451425958
20
-0.930510900589638
30
0
41
1
10
50.9999404923026
20
-0.869812840167583
30
0
41
1
10
50.6587641451574
20
-0.791885212949182
30
0
41
1
10
50.2485366589155
20
-0.697370055190618
30
0
41
1
10
49.906101272369
20
-0.618739002337094
30
0
41
1
10
49.632238456299
20
-0.554782572349893
30
0
41
1
10
49.3593288228889
20
-0.487406112640855
30
0
41
1
10
49.0181414008286
20
-0.402160685176454
30
0
41
1
10
48.6078996177339
20
-0.300030767861841
30
0
41
1
10
48.2654569864462
20
-0.215892891512908
30
0
41
1
10
47.9915951425942
20
-0.14809994414756
30
0
41
1
10
47.7186904923026
20
-0.0777888838317153
30
0
41
1
10
47.4834065484644
20
-0.0172099817952471
30
0
41
1
10
47.316154133356
20
0.0254704117151618
30
0
41
1
10
47.285532103128
20
0.0332704442274121
30
0
0
SPLINE
5
D4
100
AcDbEntity
8
1
62
256
6
ByLayer
370
13
48
1
60
0
100
AcDbSpline
70
4
71
3
72
19
73
15
40
0
40
0
40
0
40
0
40
0.0439977209413635
40
0.102595007568093
40
0.161192294194823
40
0.278386867448282
40
0.395581440701741
40
0.5127760139552
40
0.57137330058193
40
0.62997058720866
40
0.747165160462119
40
0.864359733715578
40
0.981554306969037
40
1
40
1
40
1
40
1
41
1
10
89.2809367104647
20
1.9714057446846
30
0
41
1
10
89.2295957815354
20
1.97125913219639
30
0
41
1
10
89.1098809685051
20
1.97047809889884
30
0
41
1
10
88.9218192644868
20
1.96769700820732
30
0
41
1
10
88.6484799912728
20
1.96240586111685
30
0
41
1
10
88.3067857650824
20
1.95193470005455
30
0
41
1
10
87.8965673550443
20
1.93260968871778
30
0
41
1
10
87.5546555275676
20
1.90944494237658
30
0
41
1
10
87.2811963487301
20
1.88718532855827
30
0
41
1
10
87.007856993601
20
1.86385977247912
30
0
41
1
10
86.6661621124338
20
1.83099161000862
30
0
41
1
10
86.2559423913879
20
1.78523475057966
30
0
41
1
10
85.9608857742495
20
1.74658114560566
30
0
41
1
10
85.8026260560557
20
1.72433397781842
30
0
41
1
10
85.7811052187381
20
1.72128619509388
30
0
0
SPLINE
5
D5
100
AcDbEntity
8
1
62
256
6
ByLayer
370
13
48
1
60
0
100
AcDbSpline
70
4
71
3
72
47
73
43
40
0
40
0
40
0
40
0
40
0.0234017933690729
40
0.0395417965687299
40
0.0556817997683855
40
0.0879618061676997
40
0.120241812567012
40
0.152521818966323
40
0.168661822165979
40
0.184801825365635
40
0.217081831764948
40
0.249361838164262
40
0.281641844563573
40
0.29778184776323
40
0.313921850962886
40
0.346201857362198
40
0.378481863761507
40
0.410761870160823
40
0.426901873360483
40
0.443041876560136
40
0.475321882959449
40
0.507601889358761
40
0.539881895758073
40
0.556021898957728
40
0.572161902157386
40
0.604441908556699
40
0.636721914956011
40
0.669001921355324
40
0.68514192455498
40
0.701281927754636
40
0.733561934153949
40
0.765841940553259
40
0.798121946952574
40
0.81426195015223
40
0.830401953351886
40
0.862681959751199
40
0.894961966150511
40
0.927241972549824
40
0.94338197574948
40
0.959521978949136
40
0.991801985348449
40
1
40
1
40
1
40
1
41
1
10
54.971216731136
20
0.480876339029607
30
0
41
1
10
54.8720735303435
20
0.508271986906465
30
0
41
1
10
54.7045497598618
20
0.554336853559846
30
0
41
1
10
54.468696348728
20
0.618405625347862
30
0
41
1
10
54.1953569935942
20
0.691787066888708
30
0
41
1
10
53.8536621124224
20
0.782380797378295
30
0
41
1
10
53.4434423913754
20
0.888305866387867
30
0
41
1
10
53.101529125052
20
0.973913224431243
30
0
41
1
10
52.8280692644956
20
1.0404193695116
30
0
41
1
10
52.5547299912884
20
1.10579853513335
30
0
41
1
10
52.2130357651046
20
1.18554885934861
30
0
41
1
10
51.8028173550679
20
1.27707212060577
30
0
41
1
10
51.4609055275842
20
1.3492116294928
30
0
41
1
10
51.1874463487397
20
1.40422632415323
30
0
41
1
10
50.9141069936068
20
1.45796220909833
30
0
41
1
10
50.572412112435
20
1.52244346884478
30
0
41
1
10
50.1621923913853
20
1.594492016076
30
0
41
1
10
49.8202791250546
20
1.64915411676895
30
0
41
1
10
49.5468192644917
20
1.68960239162229
30
0
41
1
10
49.2734799912811
20
1.72868061247746
30
0
41
1
10
48.9317857650939
20
1.77425845219537
30
0
41
1
10
48.5215673550553
20
1.82276177341316
30
0
41
1
10
48.1796555275714
20
1.85686475119709
30
0
41
1
10
47.9061963487269
20
1.88048176142607
30
0
41
1
10
47.6328569935943
20
1.90272587739267
30
0
41
1
10
47.2911621124236
20
1.92687960882847
30
0
41
1
10
46.880942391377
20
1.94916834894823
30
0
41
1
10
46.539029125053
20
1.96083479327427
30
0
41
1
10
46.2655692644962
20
1.96630827291352
30
0
41
1
10
45.992229991289
20
1.97047065590499
30
0
41
1
10
45.6505357651052
20
1.97182826054072
30
0
41
1
10
45.2403173550688
20
1.96661896130811
30
0
41
1
10
44.8984055275853
20
1.95516731987519
30
0
41
1
10
44.6249463487408
20
1.94218021574827
30
0
41
1
10
44.3516069936077
20
1.928028790843
30
0
41
1
10
44.0099121124357
20
1.90653024249502
30
0
41
1
10
43.5996923913856
20
1.87414556611347
30
0
41
1
10
43.257779125054
20
1.84024445678676
30
0
41
1
10
42.9843192644905
20
1.80953649872532
30
0
41
1
10
42.7109799912797
20
1.77786543594979
30
0
41
1
10
42.4712520092561
20
1.74758362645019
30
0
41
1
10
42.299814300471
20
1.7243672176763
30
0
41
1
10
42.2650913236202
20
1.71959648539485
30
0
0
SPLINE
5
D6
100
AcDbEntity
8
1
62
256
6
ByLayer
370
18
48
1
60
0
100
AcDbSpline
70
4
71
3
72
8
73
4
40
0
40
0
40
0
40
0
40
1
40
1
40
1
40
1
41
1
10
89.2054732307926
20
2.17616056574562
30
0
41
1
10
89.2299659593569
20
2.10764180505001
30
0
41
1
10
89.2550936984707
20
2.03929111671061
30
0
41
1
10
89.2809367104647
20
1.9714057446846
30
0
0
SPLINE
5
D7
100
AcDbEntity
8
1
62
256
6
ByLayer
370
13
48
1
60
0
100
AcDbSpline
70
4
71
3
72
47
73
43
40
0
40
0
40
0
40
0
40
0.024684834073682
40
0.0569771132029132
40
0.0731232527675288
40
0.0892693923321444
40
0.121561671461376
40
0.153853950590607
40
0.186146229719838
40
0.202292369284454
40
0.21843850884907
40
0.250730787978301
40
0.283023067107532
40
0.315315346236763
40
0.331461485801379
40
0.347607625365994
40
0.379899904495226
40
0.412192183624457
40
0.444484462753688
40
0.460630602318304
40
0.476776741882919
40
0.509069021012151
40
0.541361300141382
40
0.573653579270613
40
0.589799718835229
40
0.605945858399844
40
0.638238137529076
40
0.670530416658307
40
0.702822695787538
40
0.718968835352154
40
0.735114974916769
40
0.767407254046001
40
0.799699533175232
40
0.831991812304463
40
0.848137951869079
40
0.864284091433694
40
0.896576370562926
40
0.928868649692157
40
0.961160928821388
40
0.977307068386002
40
0.99345320795062
40
1
40
1
40
1
40
1
41
1
10
76.7257581673368
20
0.479670829279655
30
0
41
1
10
76.6212448724787
20
0.508525210491086
30
0
41
1
10
76.379973093686
20
0.574749379639002
30
0
41
1
10
76.0702791250569
20
0.658567079986994
30
0
41
1
10
75.7968192644867
20
0.73123134358147
30
0
41
1
10
75.5234799912726
20
0.802926983413585
30
0
41
1
10
75.1817857650822
20
0.891184293816593
30
0
41
1
10
74.7715673550439
20
0.993929578361559
30
0
41
1
10
74.4296555275671
20
1.07649830643805
30
0
41
1
10
74.1561963487295
20
1.14038373992065
30
0
41
1
10
73.8828569936003
20
1.20310031748724
30
0
41
1
10
73.541162112433
20
1.27933216111856
30
0
41
1
10
73.1309423913873
20
1.36631361486079
30
0
41
1
10
72.7890291250601
20
1.43431716962678
30
0
41
1
10
72.5155692644996
20
1.48585000317783
30
0
41
1
10
72.2422299912898
20
1.53606928096625
30
0
41
1
10
71.9005357651023
20
1.59598308809771
30
0
41
1
10
71.4903173550612
20
1.66229582974262
30
0
41
1
10
71.1484055275702
20
1.71190948090356
30
0
41
1
10
70.8749463487197
20
1.74820826241697
30
0
41
1
10
70.6016069935848
20
1.7831334015012
30
0
41
1
10
70.2599121124128
20
1.82340985396465
30
0
41
1
10
69.8496923913684
20
1.8653905934446
30
0
41
1
10
69.5077791250521
20
1.89386839438595
30
0
41
1
10
69.2343192645017
20
1.91290925378121
30
0
41
1
10
68.9609799912971
20
1.93058120212172
30
0
41
1
10
68.6192857651149
20
1.94894335495036
30
0
41
1
10
68.2090673550766
20
1.96420474128416
30
0
41
1
10
67.867155527586
20
1.96992586004541
30
0
41
1
10
67.5936963487354
20
1.97063583095388
30
0
41
1
10
67.3203569935999
20
1.97007019588759
30
0
41
1
10
66.9786621124259
20
1.96551221089169
30
0
41
1
10
66.5684423913765
20
1.95323747542767
30
0
41
1
10
66.2265291250492
20
1.93591151897172
30
0
41
1
10
65.9530692644893
20
1.91826279837486
30
0
41
1
10
65.6797299912803
20
1.89949159134812
30
0
41
1
10
65.338035765095
20
1.87225410660653
30
0
41
1
10
64.9278173550593
20
1.83309972620444
30
0
41
1
10
64.5859055275812
20
1.79366707738433
30
0
41
1
10
64.3124463487425
20
1.7586317227954
30
0
41
1
10
64.148068872825
20
1.73702354868976
30
0
41
1
10
64.0520235113866
20
1.72394094897697
30
0
41
1
10
64.0243144881868
20
1.72012834115642
30
0
0
SPLINE
5
D8
100
AcDbEntity
8
1
62
256
6
ByLayer
370
13
48
1
60
0
100
AcDbSpline
70
4
71
3
72
47
73
43
40
0
40
0
40
0
40
0
40
0.0020025921458551
40
0.0181825647992723
40
0.0505425101061073
40
0.0829024554129416
40
0.115262400719779
40
0.131442373373197
40
0.147622346026614
40
0.17998229133345
40
0.212342236640286
40
0.244702181947121
40
0.260882154600539
40
0.277062127253957
40
0.309422072560792
40
0.341782017867628
40
0.374141963174464
40
0.390321935827882
40
0.4065019084813
40
0.438861853788136
40
0.471221799094971
40
0.503581744401807
40
0.519761717055225
40
0.535941689708643
40
0.568301635015478
40
0.600661580322314
40
0.63302152562915
40
0.649201498282569
40
0.665381470935985
40
0.697741416242821
40
0.730101361549656
40
0.762461306856492
40
0.77864127950991
40
0.794821252163328
40
0.827181197470164
40
0.859541142776999
40
0.891901088083835
40
0.908081060737253
40
0.924261033390671
40
0.956620978697506
40
0.988980924004343
40
1
40
1
40
1
40
1
41
1
10
33.1659639726354
20
0.496241714323503
30
0
41
1
10
33.1575038750857
20
0.498571752948436
30
0
41
1
10
33.0806922336892
20
0.51971324629983
30
0
41
1
10
32.8672299912846
20
0.578111677098804
30
0
41
1
10
32.5255357650986
20
0.67067285659499
30
0
41
1
10
32.1153173550609
20
0.779343830352218
30
0
41
1
10
31.7734055275773
20
0.867654015368259
30
0
41
1
10
31.4999463487332
20
0.936538064328744
30
0
41
1
10
31.2266069936006
20
1.00435079394433
30
0
41
1
10
30.8849121124296
20
1.08735633830725
30
0
41
1
10
30.4746923913815
20
1.18312552502067
30
0
41
1
10
30.1327791250538
20
1.25915642863819
30
0
41
1
10
29.8593192644935
20
1.31744879927405
30
0
41
1
10
29.5859799912843
20
1.37449066885537
30
0
41
1
10
29.2442857650984
20
1.44326898311445
30
0
41
1
10
28.8340673550608
20
1.52074130448585
30
0
41
1
10
28.4921555275777
20
1.58022181508869
30
0
41
1
10
28.2186963487341
20
1.62466530723091
30
0
41
1
10
27.9453569936022
20
1.66775956292855
30
0
41
1
10
27.6036621124319
20
1.71849717055355
30
0
41
1
10
27.1934423913845
20
1.77338584376648
30
0
41
1
10
26.8515291250566
20
1.81301692513824
30
0
41
1
10
26.5780692644957
20
1.84113041492912
30
0
41
1
10
26.304729991286
20
1.8678596998441
30
0
41
1
10
25.9630357650994
20
1.89769279471
30
0
41
1
10
25.552817355061
20
1.92688749357737
30
0
41
1
10
25.2109055275782
20
1.94442570005251
30
0
41
1
10
24.937446348735
20
1.95463095459405
30
0
41
1
10
24.6641069936028
20
1.96350649819522
30
0
41
1
10
24.3224121124321
20
1.9707909345496
30
0
41
1
10
23.9121923913838
20
1.97269874677289
30
0
41
1
10
23.5702791250547
20
1.9671932333018
30
0
41
1
10
23.2968192644931
20
1.95893015198121
30
0
41
1
10
23.0234799912833
20
1.94945431344527
30
0
41
1
10
22.6817857650968
20
1.9337654073419
30
0
41
1
10
22.2715673550588
20
1.90824643815046
30
0
41
1
10
21.9296555275757
20
1.87997599831488
30
0
41
1
10
21.6561963487318
20
1.85369324096146
30
0
41
1
10
21.3828569936617
20
1.82639343643501
30
0
41
1
10
21.0411621128076
20
1.78861882957662
30
0
41
1
10
20.7211201867746
20
1.74844494394174
30
0
41
1
10
20.537795346483
20
1.72309339826836
30
0
41
1
10
20.4912273968594
20
1.71651085997729
30
0
0
SPLINE
5
D9
100
AcDbEntity
8
1
62
256
6
ByLayer
370
18
48
1
60
0
100
AcDbSpline
70
4
71
3
72
18
73
14
40
0
40
0
40
0
40
0
40
0.125000000000022
40
0.125000000000022
40
0.250000000000044
40
0.250000000000044
40
0.500000000000088
40
0.500000000000088
40
0.625000000000067
40
0.625000000000067
40
0.750000000000045
40
0.750000000000045
40
1
40
1
40
1
40
1
41
1
10
89.3747183945932
20
-0.504522489782431
30
0
41
1
10
89.372696257414
20
-0.505895511439974
30
0
41
1
10
89.3712174573094
20
-0.507624758623422
30
0
41
1
10
89.3693444538213
20
-0.51179670081666
30
0
41
1
10
89.3689520313774
20
-0.514257494570586
30
0
41
1
10
89.3693968606639
20
-0.522591896011733
30
0
41
1
10
89.3718020552951
20
-0.529290150351869
30
0
41
1
10
89.3778981584604
20
-0.540709723493279
30
0
41
1
10
89.3803372030878
20
-0.544722431788813
30
0
41
1
10
89.3858371115331
20
-0.552997107961289
30
0
41
1
10
89.3889068647512
20
-0.557275467531667
30
0
41
1
10
89.3989274667882
20
-0.570474914557366
30
0
41
1
10
89.4066823955588
20
-0.579757337755382
30
0
41
1
10
89.4152493456635
20
-0.589421111701995
30
0
0
SPLINE
5
DA
100
AcDbEntity
8
1
62
256
6
ByLayer
370
18
48
1
60
0
100
AcDbSpline
70
4
71
3
72
8
73
4
40
0
40
0
40
0
40
0
40
1
40
1
40
1
40
1
41
1
10
88.7417632051663
20
-3.39981279585854
30
0
41
1
10
88.7722744053209
20
-3.34683209181111
30
0
41
1
10
88.8028033383982
20
-3.29384031627379
30
0
41
1
10
88.8333456782558
20
-3.24084608290346
30
0
0
SPLINE
5
DB
100
AcDbEntity
8
1
62
256
6
ByLayer
370
18
48
1
60
0
100
AcDbSpline
70
4
71
3
72
48
73
44
40
0
40
0
40
0
40
0
40
0.0055663046248413
40
0.037437601171103
40
0.0693088977173646
40
0.0852445459904955
40
0.101180194263626
40
0.133051490809888
40
0.164922787356149
40
0.196794083902411
40
0.212729732175542
40
0.228665380448673
40
0.260536676994934
40
0.292407973541196
40
0.324279270087457
40
0.340214918360588
40
0.356150566633719
40
0.388021863179981
40
0.419893159726243
40
0.451764456272504
40
0.467700104545635
40
0.483635752818766
40
0.515507049365027
40
0.547378345911289
40
0.57924964245755
40
0.595185290730681
40
0.611120939003812
40
0.642992235550074
40
0.674863532096335
40
0.706734828642597
40
0.722670476915728
40
0.738606125188859
40
0.77047742173512
40
0.802348718281382
40
0.834220014827644
40
0.850155663100774
40
0.866091311373905
40
0.897962607920167
40
0.929833904466428
40
0.96170520101269
40
0.977640849285819
40
0.993576497558953
40
1
40
1
40
1
40
1
41
1
10
76.5495828588456
20
0.563777230414047
30
0
41
1
10
76.5257068889483
20
0.571019151991379
30
0
41
1
10
76.3651187864335
20
0.6196612022176
30
0
41
1
10
76.0677588054694
20
0.70883949389335
30
0
41
1
10
75.7258822560173
20
0.809588767428323
30
0
41
1
10
75.4524498503987
20
0.888580753894018
30
0
41
1
10
75.1790804116193
20
0.966273499992695
30
0
41
1
10
74.8373503348547
20
1.06164129977492
30
0
41
1
10
74.4271329420328
20
1.17241069256744
30
0
41
1
10
74.0852574299486
20
1.26126482368912
30
0
41
1
10
73.8118258176337
20
1.32987019894668
30
0
41
1
10
73.5384566342493
20
1.39692092053042
30
0
41
1
10
73.1967266178761
20
1.47812702070041
30
0
41
1
10
72.786508805461
20
1.57048983030552
30
0
41
1
10
72.4446322560206
20
1.64250087582312
30
0
41
1
10
72.1711998504117
20
1.69688187263662
30
0
41
1
10
71.8978304116366
20
1.74953001256364
30
0
41
1
10
71.5561003348749
20
1.81200365339501
30
0
41
1
10
71.14588294205
20
1.8807537895415
30
0
41
1
10
70.8040074299516
20
1.93187275044437
30
0
41
1
10
70.530575817624
20
1.96898886447428
30
0
41
1
10
70.2572066342338
20
2.00430221583551
30
0
41
1
10
69.9154766178558
20
2.04458205765644
30
0
41
1
10
69.505258805442
20
2.08592169276352
30
0
41
1
10
69.1633822560124
20
2.11331949227454
30
0
41
1
10
68.8899498504139
20
2.13110107049357
30
0
41
1
10
68.6165804116444
20
2.14709818801387
30
0
41
1
10
68.2748503348886
20
2.16290519701988
30
0
41
1
10
67.8646329420671
20
2.17447993430002
30
0
41
1
10
67.5227574299695
20
2.17659442014437
30
0
41
1
10
67.2493258176416
20
2.1740389312817
30
0
41
1
10
66.9759566342505
20
2.16982999436951
30
0
41
1
10
66.6342266178699
20
2.16030378435659
30
0
41
1
10
66.2240088054505
20
2.14150681737033
30
0
41
1
10
65.8821322560095
20
2.11825145636064
30
0
41
1
10
65.6086998504013
20
2.09551362188355
30
0
41
1
10
65.3353304116274
20
2.07133311178759
30
0
41
1
10
64.9936003348685
20
2.03698879364876
30
0
41
1
10
64.5833829420497
20
1.98883645178856
30
0
41
1
10
64.2415074299645
20
1.94148031878277
30
0
41
1
10
63.9680758176484
20
1.89981659103878
30
0
41
1
10
63.803843121438
20
1.8741015115092
30
0
41
1
10
63.7079502881825
20
1.8585979935531
30
0
41
1
10
63.6804011309258
20
1.85410344640564
30
0
0
SPLINE
5
DC
100
AcDbEntity
8
1
62
256
6
ByLayer
370
18
48
1
60
0
100
AcDbSpline
70
4
71
3
72
47
73
43
40
0
40
0
40
0
40
0
40
0.0146046548667587
40
0.0305854348732786
40
0.0625469948863204
40
0.0945085548993616
40
0.126470114912405
40
0.142450894918926
40
0.158431674925447
40
0.190393234938489
40
0.222354794951532
40
0.254316354964574
40
0.270297134971094
40
0.286277914977616
40
0.318239474990658
40
0.3502010350037
40
0.382162595016743
40
0.398143375023264
40
0.414124155029785
40
0.446085715042827
40
0.47804727505587
40
0.510008835068912
40
0.525989615075434
40
0.541970395081954
40
0.573931955094997
40
0.605893515108039
40
0.637855075121081
40
0.653835855127604
40
0.669816635134123
40
0.701778195147166
40
0.733739755160207
40
0.76570131517325
40
0.781682095179772
40
0.797662875186293
40
0.829624435199335
40
0.861585995212377
40
0.89354755522542
40
0.90952833523194
40
0.925509115238462
40
0.957470675251504
40
0.989432235264546
40
1
40
1
40
1
40
1
41
1
10
32.983619330685
20
0.583879824457512
30
0
41
1
10
32.9211433067661
20
0.602831378904227
30
0
41
1
10
32.7903148035403
20
0.642350064142164
30
0
41
1
10
32.5228304116315
20
0.722101847320573
30
0
41
1
10
32.1811003348717
20
0.822724154187597
30
0
41
1
10
31.7708829420507
20
0.940612245430856
30
0
41
1
10
31.42900742996
20
1.03624993118143
30
0
41
1
10
31.1555758176385
20
1.11071986074194
30
0
41
1
10
30.8822066342505
20
1.1837584017436
30
0
41
1
10
30.5404766178732
20
1.27287933755133
30
0
41
1
10
30.1302588054553
20
1.37543615303559
30
0
41
1
10
29.7883822560142
20
1.45668230306495
30
0
41
1
10
29.5149498504055
20
1.51881217736081
30
0
41
1
10
29.2415804116313
20
1.57928667123008
30
0
41
1
10
28.8998503348716
20
1.65189313787158
30
0
41
1
10
28.4896329420506
20
1.73334445793671
30
0
41
1
10
28.1477574299604
20
1.79563657177488
30
0
41
1
10
27.8743258176395
20
1.84195486003327
30
0
41
1
10
27.6009566342521
20
1.88649691491892
30
0
41
1
10
27.2592266178755
20
1.93856206400324
30
0
41
1
10
26.8490088054583
20
1.9943997527777
30
0
41
1
10
26.5071322560169
20
2.0342822765717
30
0
41
1
10
26.2336998504077
20
2.06220294209808
30
0
41
1
10
25.960330411633
20
2.08831373522611
30
0
41
1
10
25.6186003348726
20
2.11689808156535
30
0
41
1
10
25.208382942051
20
2.14395647996091
30
0
41
1
10
24.866507429961
20
2.15917056709404
30
0
41
1
10
24.5930758176404
20
2.16712622969982
30
0
41
1
10
24.3197066342528
20
2.17335238928075
30
0
41
1
10
23.9779766178757
20
2.17688385722067
30
0
41
1
10
23.5677588054577
20
2.17369285890402
30
0
41
1
10
23.225882256015
20
2.16341955274473
30
0
41
1
10
22.9524498504051
20
2.15097582783417
30
0
41
1
10
22.6790804116302
20
2.13696672952247
30
0
41
1
10
22.3373503348698
20
2.11522746376917
30
0
41
1
10
21.9271329420485
20
2.08192784780781
30
0
41
1
10
21.5852574299581
20
2.04670992406781
30
0
41
1
10
21.3118258176369
20
2.01454911498564
30
0
41
1
10
21.0384566342985
20
1.98108680663327
30
0
41
1
10
20.6967266181709
20
1.93530607271131
30
0
41
1
10
20.3780366281551
20
1.88751535493026
30
0
41
1
10
20.1960758616583
20
1.857786315092
30
0
41
1
10
20.1508623303046
20
1.8502556201436
30
0
0
SPLINE
5
DD
100
AcDbEntity
8
1
62
256
6
ByLayer
370
18
48
1
60
0
100
AcDbSpline
70
4
71
3
72
8
73
4
40
0
40
0
40
0
40
0
40
1
40
1
40
1
40
1
41
1
10
88.7417632051663
20
3.39981279585845
30
0
41
1
10
88.772274405321
20
3.34683209181099
30
0
41
1
10
88.8028033383983
20
3.29384031627362
30
0
41
1
10
88.8333456782559
20
3.24084608290326
30
0
0
SPLINE
5
DE
100
AcDbEntity
8
1
62
256
6
ByLayer
370
18
48
1
60
0
100
AcDbSpline
70
4
71
3
72
20
73
16
40
0
40
0
40
0
40
0
40
0.0033422390725485
40
0.111132358330468
40
0.165027417959427
40
0.218922477588387
40
0.326712596846305
40
0.434502716104225
40
0.542292835362144
40
0.596187894991103
40
0.650082954620062
40
0.757873073877982
40
0.865663193135901
40
0.973453312393819
40
1
40
1
40
1
40
1
41
1
10
89.2054732307926
20
2.17616056574562
30
0
41
1
10
89.201233203335
20
2.17615542601749
30
0
41
1
10
89.060248400541
20
2.17593628846296
30
0
41
1
10
88.8508822560173
20
2.17321536847479
30
0
41
1
10
88.5774498503987
20
2.16541525900362
30
0
41
1
10
88.3040804116195
20
2.1560026016181
30
0
41
1
10
87.9623503348549
20
2.13998041734359
30
0
41
1
10
87.5521329420333
20
2.1134539756946
30
0
41
1
10
87.2102574299492
20
2.08380952374105
30
0
41
1
10
86.9368258176344
20
2.056034034351
30
0
41
1
10
86.6634566342501
20
2.02689116679352
30
0
41
1
10
86.3217266178769
20
1.98642845214783
30
0
41
1
10
85.9115088054616
20
1.93111671815285
30
0
41
1
10
85.6043284494169
20
1.8833529841425
30
0
41
1
10
85.4339343511658
20
1.85495963580163
30
0
41
1
10
85.4002639240069
20
1.84929544017976
30
0
0
SPLINE
5
DF
100
AcDbEntity
8
1
62
256
6
ByLayer
370
18
48
1
60
0
100
AcDbSpline
70
4
71
3
72
48
73
44
40
0
40
0
40
0
40
0
40
0.0052906636920689
40
0.0371200137492273
40
0.0530346887778085
40
0.0689493638063877
40
0.10077871386355
40
0.13260806392071
40
0.164437413977868
40
0.180352089006448
40
0.196266764035027
40
0.228096114092188
40
0.25992546414935
40
0.291754814206509
40
0.307669489235089
40
0.323584164263669
40
0.355413514320829
40
0.387242864377986
40
0.41907221443515
40
0.434986889463733
40
0.450901564492309
40
0.48273091454947
40
0.51456026460663
40
0.54638961466379
40
0.562304289692368
40
0.57821896472095
40
0.610048314778111
40
0.64187766483527
40
0.673707014892431
40
0.68962168992101
40
0.705536364949591
40
0.737365715006751
40
0.769195065063909
40
0.801024415121071
40
0.816939090149651
40
0.832853765178232
40
0.864683115235391
40
0.896512465292552
40
0.928341815349712
40
0.944256490378292
40
0.960171165406872
40
0.992000515464032
40
1
40
1
40
1
40
1
41
1
10
54.8078158193715
20
0.561165151735167
30
0
41
1
10
54.7850865560789
20
0.568065380625143
30
0
41
1
10
54.6256133095416
20
0.616427381311752
30
0
41
1
10
54.3977574299575
20
0.685015559461988
30
0
41
1
10
54.124325817633
20
0.765987113378486
30
0
41
1
10
53.8509566342437
20
0.845742265305233
30
0
41
1
10
53.5092266178658
20
0.943935405710619
30
0
41
1
10
53.0990088054491
20
1.05849649690975
30
0
41
1
10
52.7571322560123
20
1.15092262037462
30
0
41
1
10
52.4836998504077
20
1.22259116165355
30
0
41
1
10
52.2103304116357
20
1.29275920286159
30
0
41
1
10
51.8686003348782
20
1.37806470112687
30
0
41
1
10
51.4583829420584
20
1.47568372359868
30
0
41
1
10
51.1165074299677
20
1.55244313450942
30
0
41
1
10
50.8430758176458
20
1.61080695766208
30
0
41
1
10
50.5697066342574
20
1.66747919444538
30
0
41
1
10
50.2279766178791
20
1.73516081356558
30
0
41
1
10
49.8177588054594
20
1.81042423114553
30
0
41
1
10
49.475882256015
20
1.86724922514446
30
0
41
1
10
49.2024498504036
20
1.90904601022544
30
0
41
1
10
48.9290804116278
20
1.94904362515302
30
0
41
1
10
48.5873503348665
20
1.99528729765797
30
0
41
1
10
48.1771329420444
20
2.04394352906129
30
0
41
1
10
47.8352574299533
20
2.07763067552543
30
0
41
1
10
47.5618258176315
20
2.10052031479464
30
0
41
1
10
47.2884566342435
20
2.12161609782728
30
0
41
1
10
46.9467266178666
20
2.14386561073883
30
0
41
1
10
46.5365088054505
20
2.16323934303006
30
0
41
1
10
46.1946322560133
20
2.17193599322243
30
0
41
1
10
45.9211998504083
20
2.17464681461303
30
0
41
1
10
45.6478304116363
20
2.17565642740451
30
0
41
1
10
45.306100334879
20
2.17264373903563
30
0
41
1
10
44.8958829420595
20
2.16161078952157
30
0
41
1
10
44.5540074299689
20
2.14479925449697
30
0
41
1
10
44.280575817647
20
2.12716863073456
30
0
41
1
10
44.0072066342585
20
2.10803734103604
30
0
41
1
10
43.6654766178799
20
2.07994978607729
30
0
41
1
10
43.2552588054596
20
2.03916284457173
30
0
41
1
10
42.9133822560144
20
1.99781395233435
30
0
41
1
10
42.6399498504023
20
1.96084120257871
30
0
41
1
10
42.3665804116264
20
1.92264024153235
30
0
41
1
10
42.1271883563345
20
1.88648948225367
30
0
41
1
10
41.9561054413342
20
1.85899889310903
30
0
41
1
10
41.921742824306
20
1.85340608580762
30
0
0
SPLINE
5
E0
100
AcDbEntity
8
1
62
256
6
ByLayer
370
18
48
1
60
0
100
AcDbSpline
70
4
71
3
72
12
73
8
40
0
40
0
40
0
40
0
40
0.25
40
0.25
40
0.5
40
0.5
40
1
40
1
40
1
40
1
41
1
10
88.833345678256
20
3.24084608290326
30
0
41
1
10
88.8637003829823
20
3.15250598946588
30
0
41
1
10
88.8942133063744
20
3.06390102095884
30
0
41
1
10
88.955537952239
20
2.88654632973231
30
0
41
1
10
88.9863464813072
20
2.79781091211004
30
0
41
1
10
89.0792952017067
20
2.53150111658954
30
0
41
1
10
89.141964824119
20
2.3538266238094
30
0
41
1
10
89.2054732307926
20
2.17616056574562
30
0
0
SPLINE
5
E1
100
AcDbEntity
8
1
62
256
6
ByLayer
370
18
48
1
60
0
100
AcDbSpline
70
4
71
3
72
10
73
6
40
0
40
0
40
0
40
0
40
0.608874096750709
40
0.608874096750709
40
1
40
1
40
1
40
1
41
1
10
89.236587663559
20
0.487789499299026
30
0
41
1
10
89.2125396309307
20
0.497062834204627
30
0
41
1
10
89.1885851726266
20
0.505882714569367
30
0
41
1
10
89.1494340389758
20
0.519442283438963
30
0
41
1
10
89.1341685167906
20
0.52451559884193
30
0
41
1
10
89.1189479820569
20
0.529370908245056
30
0
0
SPLINE
5
E2
100
AcDbEntity
8
1
62
256
6
ByLayer
370
18
48
1
60
0
100
AcDbSpline
70
4
71
3
72
46
73
42
40
0
40
0
40
0
40
0
40
0.0139218571103914
40
0.0302829893299227
40
0.0630052537689887
40
0.0957275182080529
40
0.128449782647115
40
0.144810914866647
40
0.161172047086178
40
0.193894311525243
40
0.226616575964309
40
0.259338840403372
40
0.275699972622904
40
0.292061104842436
40
0.3247833692815
40
0.35750563372056
40
0.390227898159628
40
0.406589030379164
40
0.422950162598693
40
0.455672427037758
40
0.488394691476821
40
0.521116955915885
40
0.537478088135415
40
0.553839220354949
40
0.586561484794014
40
0.619283749233078
40
0.652006013672142
40
0.668367145891674
40
0.684728278111206
40
0.71745054255027
40
0.750172806989332
40
0.782895071428398
40
0.79925620364793
40
0.815617335867463
40
0.848339600306527
40
0.881061864745591
40
0.913784129184655
40
0.930145261404187
40
0.946506393623719
40
0.979228658062783
40
1
40
1
40
1
40
1
41
1
10
59.9565527260385
20
-1.87630721976581
30
0
41
1
10
59.8982871899389
20
-1.88050598355653
30
0
41
1
10
59.7715863891407
20
-1.8892082358885
30
0
41
1
10
59.508873951909
20
-1.90352731898483
30
0
41
1
10
59.1677175171424
20
-1.91715296536003
30
0
41
1
10
58.757474728069
20
-1.92811969312362
30
0
41
1
10
58.4149998299347
20
-1.93353944743146
30
0
41
1
10
58.1411131016429
20
-1.93500019189577
30
0
41
1
10
57.8682349256945
20
-1.93161071937052
30
0
41
1
10
57.5270902079583
20
-1.9224207684023
30
0
41
1
10
57.1168625157104
20
-1.90630492032153
30
0
41
1
10
56.7743952170561
20
-1.88953549181849
30
0
41
1
10
56.500507412512
20
-1.87325136908319
30
0
41
1
10
56.227623951905
20
-1.85177638626502
30
0
41
1
10
55.886467517142
20
-1.8202555127458
30
0
41
1
10
55.4762247280719
20
-1.77792223640549
30
0
41
1
10
55.1337498299363
20
-1.73988266269936
30
0
41
1
10
54.859863101643
20
-1.70676149069701
30
0
41
1
10
54.5869849256964
20
-1.66840596445368
30
0
41
1
10
54.2458402079634
20
-1.61632923474104
30
0
41
1
10
53.8356125157199
20
-1.55016083707287
30
0
41
1
10
53.4931452170679
20
-1.49298744093255
30
0
41
1
10
53.2192574125232
20
-1.44488584700562
30
0
41
1
10
52.9463739519144
20
-1.39179664343024
30
0
41
1
10
52.6052175171477
20
-1.32207810669297
30
0
41
1
10
52.1949747280727
20
-1.23577730462475
30
0
41
1
10
51.8524998299364
20
-1.16266432362806
30
0
41
1
10
51.578613101643
20
-1.1022628817197
30
0
41
1
10
51.3057349256939
20
-1.03739687500712
30
0
41
1
10
50.9645902079569
20
-0.953913813967716
30
0
41
1
10
50.5543625157089
20
-0.852279858134636
30
0
41
1
10
50.211895217055
20
-0.767306514829983
30
0
41
1
10
49.9380074125113
20
-0.697991568327865
30
0
41
1
10
49.6651239519048
20
-0.624991793825529
30
0
41
1
10
49.3239675171424
20
-0.532445222442192
30
0
41
1
10
48.9137247280725
20
-0.421202125734965
30
0
41
1
10
48.5712498299361
20
-0.329133679875554
30
0
41
1
10
48.2973631016418
20
-0.254767619404077
30
0
41
1
10
48.0244849256945
20
-0.177691008223121
30
0
41
1
10
47.7331777623406
20
-0.0953011335658118
30
0
41
1
10
47.5097191434855
20
-0.0326930984678313
30
0
41
1
10
47.4228989059794
20
-0.008488017417335
30
0
0
SPLINE
5
E3
100
AcDbEntity
8
1
62
256
6
ByLayer
370
18
48
1
60
0
100
AcDbSpline
70
4
71
3
72
47
73
43
40
0
40
0
40
0
40
0
40
0.0311045949446463
40
0.0472022304462793
40
0.0632998659479124
40
0.0954951369511784
40
0.127690407954444
40
0.15988567895771
40
0.175983314459344
40
0.192080949960976
40
0.224276220964242
40
0.256471491967509
40
0.288666762970775
40
0.304764398472408
40
0.320862033974041
40
0.353057304977307
40
0.385252575980573
40
0.417447846983839
40
0.433545482485472
40
0.449643117987105
40
0.481838388990371
40
0.514033659993637
40
0.546228930996903
40
0.562326566498536
40
0.578424202000169
40
0.610619473003435
40
0.642814744006701
40
0.675010015009967
40
0.6911076505116
40
0.707205286013233
40
0.739400557016499
40
0.771595828019765
40
0.803791099023031
40
0.819888734524664
40
0.835986370026298
40
0.868181641029564
40
0.90037691203283
40
0.932572183036096
40
0.948669818537727
40
0.964767454039363
40
0.996962725042628
40
1
40
1
40
1
40
1
41
1
10
81.7121930645827
20
-1.87459059692162
30
0
41
1
10
81.5799532134703
20
-1.88370584105289
30
0
41
1
10
81.3791106129334
20
-1.89643437450024
30
0
41
1
10
81.1098631016364
20
-1.91083238837217
30
0
41
1
10
80.836984925687
20
-1.92105577014985
30
0
41
1
10
80.4958402079529
20
-1.92885298003333
30
0
41
1
10
80.0856125157127
20
-1.93287390315544
30
0
41
1
10
79.743145217069
20
-1.93257665405974
30
0
41
1
10
79.4692574125303
20
-1.92944188924395
30
0
41
1
10
79.1963739519234
20
-1.92133804799022
30
0
41
1
10
78.8552175171566
20
-1.90629465741111
30
0
41
1
10
78.4449747280792
20
-1.88327728638478
30
0
41
1
10
78.1024998299403
20
-1.86089281969146
30
0
41
1
10
77.8286131016478
20
-1.84015234620389
30
0
41
1
10
77.555734925702
20
-1.81418442261415
30
0
41
1
10
77.2145902079715
20
-1.77716632833224
30
0
41
1
10
76.8043625157294
20
-1.72842796551507
30
0
41
1
10
76.4618952170722
20
-1.68522370443324
30
0
41
1
10
76.188007412521
20
-1.6480399487142
30
0
41
1
10
75.9151239519089
20
-1.60565671906539
30
0
41
1
10
75.5739675171386
20
-1.54872399172652
30
0
41
1
10
75.1637247280634
20
-1.47697791245705
30
0
41
1
10
74.8212498299338
20
-1.41536079609202
30
0
41
1
10
74.5473631016475
20
-1.36380604313158
30
0
41
1
10
74.2744849257013
20
-1.30737150891491
30
0
41
1
10
73.933340207967
20
-1.23369884343299
30
0
41
1
10
73.5231125157179
20
-1.1429456906514
30
0
41
1
10
73.1806452170572
20
-1.0663589067714
30
0
41
1
10
72.9067574125074
20
-1.00332341361275
30
0
41
1
10
72.6338739518986
20
-0.936004286255979
30
0
41
1
10
72.2927175171343
20
-0.849733186558211
30
0
41
1
10
71.8824747280647
20
-0.745075004496556
30
0
41
1
10
71.5399998299309
20
-0.657808888312758
30
0
41
1
10
71.2661131016378
20
-0.586805232167961
30
0
41
1
10
70.9932349256887
20
-0.512345223794398
30
0
41
1
10
70.6520902079517
20
-0.41825931343439
30
0
41
1
10
70.2418625157048
20
-0.305498133839876
30
0
41
1
10
69.8993952170559
20
-0.212412578274666
30
0
41
1
10
69.6255074125175
20
-0.137421682313601
30
0
41
1
10
69.3526239519144
20
-0.0600073299422945
30
0
41
1
10
69.1350563258935
20
0.0015920611094771
30
0
41
1
10
68.9855493184857
20
0.0435916990313672
30
0
41
1
10
68.9726595901738
20
0.0472101542729035
30
0
0
SPLINE
5
E4
100
AcDbEntity
8
1
62
256
6
ByLayer
370
18
48
1
60
0
100
AcDbSpline
70
4
71
3
72
45
73
41
40
0
40
0
40
0
40
0
40
0.0228530222324371
40
0.0562830844934726
40
0.08971314675451
40
0.106428177885028
40
0.123143209015547
40
0.156573271276583
40
0.19000333353762
40
0.223433395798656
40
0.240148426929173
40
0.256863458059693
40
0.290293520320728
40
0.323723582581764
40
0.357153644842802
40
0.37386867597332
40
0.390583707103838
40
0.424013769364875
40
0.457443831625911
40
0.490873893886947
40
0.507588925017466
40
0.524303956147984
40
0.55773401840902
40
0.591164080670057
40
0.624594142931093
40
0.641309174061613
40
0.65802420519213
40
0.691454267453166
40
0.724884329714201
40
0.758314391975239
40
0.775029423105757
40
0.791744454236276
40
0.825174516497312
40
0.858604578758349
40
0.892034641019385
40
0.908749672149903
40
0.925464703280421
40
0.958894765541458
40
0.992324827802494
40
1
40
1
40
1
40
1
41
1
10
38.119432367839
20
-1.88191761739188
30
0
41
1
10
38.0261430737707
20
-1.88759218637566
30
0
41
1
10
37.7963258083126
20
-1.90020877359675
30
0
41
1
10
37.4293625157148
20
-1.91624458074875
30
0
41
1
10
37.0868952170622
20
-1.9273872996113
30
0
41
1
10
36.8130074125181
20
-1.93343737129513
30
0
41
1
10
36.5401239519105
20
-1.93476248927553
30
0
41
1
10
36.1989675171454
20
-1.93143032347689
30
0
41
1
10
35.7887247280725
20
-1.92223923033146
30
0
41
1
10
35.4462498299359
20
-1.91112832273345
30
0
41
1
10
35.1723631016421
20
-1.89935856501316
30
0
41
1
10
34.899484925694
20
-1.8824610042447
30
0
41
1
10
34.558340207959
20
-1.85656794702314
30
0
41
1
10
34.1481125157136
20
-1.82081345675096
30
0
41
1
10
33.8056452170616
20
-1.78809017955666
30
0
41
1
10
33.5317574125182
20
-1.7591600291675
30
0
41
1
10
33.2588739519114
20
-1.72497768070477
30
0
41
1
10
32.9177175171475
20
-1.67795361124018
30
0
41
1
10
32.5074747280755
20
-1.61761291997743
30
0
41
1
10
32.1649998299386
20
-1.56509401445444
30
0
41
1
10
31.8911131016441
20
-1.52061589495651
30
0
41
1
10
31.6182349256953
20
-1.47105830711297
30
0
41
1
10
31.2770902079594
20
-1.40553259531208
30
0
41
1
10
30.8668625157129
20
-1.32397937921274
30
0
41
1
10
30.524395217061
20
-1.25460403557503
30
0
41
1
10
30.2505074125179
20
-1.19707138828181
30
0
41
1
10
29.9776239519108
20
-1.13491715895631
30
0
41
1
10
29.6364675171465
20
-1.05456776143333
30
0
41
1
10
29.2262247280739
20
-0.956379730776291
30
0
41
1
10
28.8837498299364
20
-0.874030753510681
30
0
41
1
10
28.6098631016421
20
-0.806649586705873
30
0
41
1
10
28.3369849256942
20
-0.735357067961758
30
0
41
1
10
27.9958402079598
20
-0.644644011259004
30
0
41
1
10
27.5856125157154
20
-0.535270683059565
30
0
41
1
10
27.2431452170637
20
-0.444537243775755
30
0
41
1
10
26.9692574125198
20
-0.371085317874332
30
0
41
1
10
26.6963739521672
20
-0.294661264806081
30
0
41
1
10
26.3552175187308
20
-0.198699764478533
30
0
41
1
10
26.0503265955075
20
-0.113685848517122
30
0
41
1
10
25.8820000554424
20
-0.0671947699392206
30
0
41
1
10
25.8505655672318
20
-0.0585236612632798
30
0
0
SPLINE
5
E5
100
AcDbEntity
8
1
62
256
6
ByLayer
370
18
48
1
60
0
100
AcDbSpline
70
4
71
3
72
37
73
33
40
0
40
0
40
0
40
0
40
0.124999999999985
40
0.124999999999985
40
0.156249999999976
40
0.156249999999976
40
0.187499999999967
40
0.249999999999971
40
0.312499999999975
40
0.312499999999975
40
0.343749999999977
40
0.343749999999977
40
0.374999999999979
40
0.374999999999979
40
0.49999999999994
40
0.49999999999994
40
0.531249999999947
40
0.531249999999947
40
0.562499999999955
40
0.562499999999955
40
0.62499999999997
40
0.687499999999986
40
0.687499999999986
40
0.718749999999983
40
0.718749999999983
40
0.749999999999981
40
0.749999999999981
40
0.87499999999999
40
0.87499999999999
40
0.937499999999995
40
0.937499999999995
40
1
40
1
40
1
40
1
41
1
10
89.9990013291904
20
0.127083387275292
30
0
41
1
10
89.9775890797411
20
0.0664642322782072
30
0
41
1
10
89.9543767405224
20
0.0067000874025211
30
0
41
1
10
89.9230443048507
20
-0.0668808352341159
30
0
41
1
10
89.9166534279152
20
-0.0815548218193953
30
0
41
1
10
89.9037887436543
20
-0.110440072754073
30
0
41
1
10
89.8843134250743
20
-0.153201794773082
30
0
41
1
10
89.8509974359313
20
-0.221660050160637
30
0
41
1
10
89.8234677361475
20
-0.273381458556088
30
0
41
1
10
89.8024903783598
20
-0.310973752618423
30
0
41
1
10
89.795442735239
20
-0.32330424034069
30
0
41
1
10
89.7812345867491
20
-0.347548964605693
30
0
41
1
10
89.7740549714492
20
-0.359492399565909
30
0
41
1
10
89.7383702354058
20
-0.41731510732248
30
0
41
1
10
89.7101794923663
20
-0.458159117033915
30
0
41
1
10
89.6753849799933
20
-0.502306175033112
30
0
41
1
10
89.6684480777786
20
-0.51078630165938
30
0
41
1
10
89.6546173811425
20
-0.527027995982053
30
0
41
1
10
89.6477027107859
20
-0.534811769754185
30
0
41
1
10
89.6271710675389
20
-0.556884223992654
30
0
41
1
10
89.6005801236831
20
-0.582695374573859
30
0
41
1
10
89.5754454995835
20
-0.601491332268438
30
0
41
1
10
89.5571114168964
20
-0.612945762691481
30
0
41
1
10
89.5510863280545
20
-0.616322529785151
30
0
41
1
10
89.5392052264054
20
-0.622179713484087
30
0
41
1
10
89.5333354190487
20
-0.624662756371862
30
0
41
1
10
89.5047658456072
20
-0.634677640329812
30
0
41
1
10
89.4841212742093
20
-0.635246637284382
30
0
41
1
10
89.4559334981416
20
-0.625635455895008
30
0
41
1
10
89.4469730962202
20
-0.620629414742154
30
0
41
1
10
89.4302846333447
20
-0.607395381924761
30
0
41
1
10
89.422510818499
20
-0.599167532609641
30
0
41
1
10
89.4152493456635
20
-0.589421111702023
30
0
0
SPLINE
5
E6
100
AcDbEntity
8
1
62
256
6
ByLayer
370
18
48
1
60
0
100
AcDbSpline
70
4
71
3
72
103
73
99
40
0
40
0
40
0
40
0
40
0.0312500000000214
40
0.0312500000000214
40
0.0390625000000273
40
0.0390625000000273
40
0.0468750000000331
40
0.0625000000000449
40
0.0781250000000567
40
0.0781250000000567
40
0.0859375000000627
40
0.0859375000000627
40
0.0937500000000686
40
0.0937500000000686
40
0.125000000000088
40
0.125000000000088
40
0.140625000000095
40
0.140625000000095
40
0.156250000000101
40
0.156250000000101
40
0.187500000000114
40
0.187500000000114
40
0.218750000000127
40
0.218750000000127
40
0.234375000000134
40
0.234375000000134
40
0.250000000000141
40
0.250000000000141
40
0.281250000000154
40
0.281250000000154
40
0.296875000000155
40
0.296875000000155
40
0.312500000000156
40
0.312500000000156
40
0.328125000000158
40
0.328125000000158
40
0.343750000000159
40
0.343750000000159
40
0.375000000000162
40
0.375000000000162
40
0.390625000000158
40
0.390625000000158
40
0.406250000000155
40
0.406250000000155
40
0.437500000000157
40
0.437500000000157
40
0.453125000000157
40
0.453125000000157
40
0.468750000000158
40
0.468750000000158
40
0.500000000000154
40
0.500000000000154
40
0.515625000000149
40
0.515625000000149
40
0.531250000000145
40
0.531250000000145
40
0.562500000000136
40
0.562500000000136
40
0.578125000000132
40
0.578125000000132
40
0.593750000000127
40
0.593750000000127
40
0.625000000000117
40
0.625000000000117
40
0.640625000000111
40
0.640625000000111
40
0.656250000000105
40
0.656250000000105
40
0.687500000000097
40
0.687500000000097
40
0.695312500000095
40
0.695312500000095
40
0.703125000000093
40
0.718750000000088
40
0.734375000000084
40
0.734375000000084
40
0.75000000000008
40
0.75000000000008
40
0.781250000000072
40
0.781250000000072
40
0.796875000000073
40
0.796875000000073
40
0.812500000000073
40
0.812500000000073
40
0.843750000000075
40
0.843750000000075
40
0.875000000000076
40
0.875000000000076
40
0.890625000000072
40
0.890625000000072
40
0.906250000000067
40
0.906250000000067
40
0.937500000000048
40
0.968750000000028
40
0.968750000000028
40
0.984375000000014
40
0.984375000000014
40
1
40
1
40
1
40
1
41
1
10
89.4152493456635
20
-0.589421111701995
30
0
41
1
10
89.4187349878249
20
-0.60720987444526
30
0
41
1
10
89.4209877420045
20
-0.627215230165604
30
0
41
1
10
89.4220604337611
20
-0.655347549347738
30
0
41
1
10
89.422186898692
20
-0.661152654412945
30
0
41
1
10
89.4222557299669
20
-0.672958639104252
30
0
41
1
10
89.4220852729923
20
-0.690971758321467
30
0
41
1
10
89.4204480486909
20
-0.722500512236024
30
0
41
1
10
89.4176958213561
20
-0.749342340395799
30
0
41
1
10
89.4150776200783
20
-0.770102526731733
30
0
41
1
10
89.4141124056047
20
-0.777127576779662
30
0
41
1
10
89.4119929535343
20
-0.791393737016563
30
0
41
1
10
89.41083433727
20
-0.798659886369364
30
0
41
1
10
89.4046135264132
20
-0.835213715526095
30
0
41
1
10
89.3983190179074
20
-0.864993790737742
30
0
41
1
10
89.3870420823154
20
-0.910456824032707
30
0
41
1
10
89.3829708857627
20
-0.9257590075309
30
0
41
1
10
89.374227615821
20
-0.956579323749224
30
0
41
1
10
89.3696285119401
20
-0.971842784946858
30
0
41
1
10
89.3552049621858
20
-1.01722331921164
30
0
41
1
10
89.3447586494909
20
-1.04693777962845
30
0
41
1
10
89.3223473054873
20
-1.10532408017013
30
0
41
1
10
89.3107326778025
20
-1.13308782383046
30
0
41
1
10
89.2928063018236
20
-1.17281015809525
30
0
41
1
10
89.286745753904
20
-1.18572759255852
30
0
41
1
10
89.2744622032475
20
-1.21092313098575
30
0
41
1
10
89.2682667786274
20
-1.22314061477951
30
0
41
1
10
89.2497717174592
20
-1.25823790211561
30
0
41
1
10
89.2374680720819
20
-1.27977267709611
30
0
41
1
10
89.2190608046475
20
-1.30941513961565
30
0
41
1
10
89.2129142571225
20
-1.3188764560002
30
0
41
1
10
89.2007351689356
20
-1.33675164930639
30
0
41
1
10
89.1947113441837
20
-1.34515598668602
30
0
41
1
10
89.182790045046
20
-1.36091858077017
30
0
41
1
10
89.1768720516358
20
-1.3682992155166
30
0
41
1
10
89.1653033738332
20
-1.38184642951762
30
0
41
1
10
89.1596369994018
20
-1.38803621046159
30
0
41
1
10
89.1429725364991
20
-1.40490836986893
30
0
41
1
10
89.1323073281405
20
-1.41390572936047
30
0
41
1
10
89.1169359747712
20
-1.42400783254664
30
0
41
1
10
89.111913963995
20
-1.42680788399744
30
0
41
1
10
89.1020911344224
20
-1.43122288602231
30
0
41
1
10
89.0973504584871
20
-1.43281141906482
30
0
41
1
10
89.0836150821933
20
-1.43576112557068
30
0
41
1
10
89.0751037356948
20
-1.43531959613588
30
0
41
1
10
89.0632665615723
20
-1.43096618178024
30
0
41
1
10
89.059476635365
20
-1.42889663691324
30
0
41
1
10
89.052212560492
20
-1.42346413476312
30
0
41
1
10
89.0487494654807
20
-1.42010064045607
30
0
41
1
10
89.039029003459
20
-1.40823314832085
30
0
41
1
10
89.0333654462517
20
-1.39792018811309
30
0
41
1
10
89.0260820362278
20
-1.37874086922901
30
0
41
1
10
89.0238574871486
20
-1.37172604093698
30
0
41
1
10
89.0198298428762
20
-1.35638742572493
30
0
41
1
10
89.0180228752754
20
-1.3480238199495
30
0
41
1
10
89.0133682424167
20
-1.3214367927381
30
0
41
1
10
89.0112344161799
20
-1.30160462867059
30
0
41
1
10
89.009521844082
20
-1.26859973511421
30
0
41
1
10
89.0092007949971
20
-1.25705203021943
30
0
41
1
10
89.0090889212215
20
-1.23280206067156
30
0
41
1
10
89.0093029492546
20
-1.22006351446112
30
0
41
1
10
89.0107573148737
20
-1.1810187673567
30
0
41
1
10
89.0127932265106
20
-1.1536041010196
30
0
41
1
10
89.0175385280081
20
-1.11035401657074
30
0
41
1
10
89.0194092976421
20
-1.09554581115606
30
0
41
1
10
89.0237432282001
20
-1.06531951133306
30
0
41
1
10
89.0261724280275
20
-1.05013126525824
30
0
41
1
10
89.0342412219579
20
-1.00435189050023
30
0
41
1
10
89.0406540698997
20
-0.973548017960724
30
0
41
1
10
89.0500629956044
20
-0.934692957217351
30
0
41
1
10
89.0520156185515
20
-0.926904304879116
30
0
41
1
10
89.0560141937464
20
-0.911484887951531
30
0
41
1
10
89.0621695968712
20
-0.888519275762974
30
0
41
1
10
89.0732075836142
20
-0.851042541199831
30
0
41
1
10
89.0828703090094
20
-0.821897472664006
30
0
41
1
10
89.0929600468706
20
-0.793173603455926
30
0
41
1
10
89.0982083880345
20
-0.77906124305747
30
0
41
1
10
89.1142561715806
20
-0.738235666504437
30
0
41
1
10
89.1254625213397
20
-0.712713628141643
30
0
41
1
10
89.1430235813007
20
-0.676833567243278
30
0
41
1
10
89.149020398916
20
-0.665250408184193
30
0
41
1
10
89.1610484893881
20
-0.643281594055793
30
0
41
1
10
89.1671038618552
20
-0.63284308211891
30
0
41
1
10
89.1853893926156
20
-0.603084832111392
30
0
41
1
10
89.1977615572979
20
-0.585282614062976
30
0
41
1
10
89.2227096671245
20
-0.553806483498761
30
0
41
1
10
89.2350242447249
20
-0.540452397829085
30
0
41
1
10
89.2532503212618
20
-0.523712522183416
30
0
41
1
10
89.2592843331287
20
-0.518684781515276
30
0
41
1
10
89.2712641200054
20
-0.509726370575748
30
0
41
1
10
89.2772285498707
20
-0.50578542735505
30
0
41
1
10
89.2948434129397
20
-0.495708586305028
30
0
41
1
10
89.3173914878512
20
-0.486986452192752
30
0
41
1
10
89.3380104674979
20
-0.487315130906978
30
0
41
1
10
89.3526574141838
20
-0.491139588267203
30
0
41
1
10
89.3573692659028
20
-0.493009870849505
30
0
41
1
10
89.3663539283143
20
-0.497898192766257
30
0
41
1
10
89.3706414244649
20
-0.500919748506476
30
0
41
1
10
89.3747183945882
20
-0.504522489781777
30
0
0
SPLINE
5
E7
100
AcDbEntity
8
1
62
256
6
ByLayer
370
18
48
1
60
0
100
AcDbSpline
70
4
71
3
72
10
73
6
40
0
40
0
40
0
40
0
40
0.5
40
0.5
40
1
40
1
40
1
40
1
41
1
10
89.3747183945893
20
-0.504522489779617
30
0
41
1
10
89.3663427459596
20
-0.478381388623404
30
0
41
1
10
89.3593129623851
20
-0.449018247415637
30
0
41
1
10
89.3476082525096
20
-0.38436254601379
30
0
41
1
10
89.3429312307681
20
-0.348942148110552
30
0
41
1
10
89.339410744276
20
-0.311178781336992
30
0
0
SPLINE
5
E8
100
AcDbEntity
8
1
62
256
6
ByLayer
370
18
48
1
60
0
100
AcDbSpline
70
4
71
3
72
8
73
4
40
0
40
0
40
0
40
0
40
1
40
1
40
1
40
1
41
1
10
89.339410744276
20
-0.31117878133702
30
0
41
1
10
89.314998730986
20
-0.0493172989480115
30
0
41
1
10
89.280662284836
20
0.217033546110287
30
0
41
1
10
89.236587663559
20
0.487789499299026
30
0
0
SPLINE
5
E9
100
AcDbEntity
8
1
62
256
6
ByLayer
370
18
48
1
60
0
100
AcDbSpline
70
4
71
3
72
26
73
22
40
0
40
0
40
0
40
0
40
0.0624999999999771
40
0.0624999999999771
40
0.124999999999954
40
0.124999999999954
40
0.156249999999954
40
0.156249999999954
40
0.187499999999953
40
0.187499999999953
40
0.249999999999953
40
0.249999999999953
40
0.499999999999929
40
0.499999999999929
40
0.562499999999932
40
0.562499999999932
40
0.624999999999935
40
0.624999999999935
40
0.749999999999952
40
0.749999999999952
40
1
40
1
40
1
40
1
41
1
10
89.236587663559
20
0.487789499299026
30
0
41
1
10
89.2258752083706
20
0.488982898127034
30
0
41
1
10
89.2149695036951
20
0.489489704179448
30
0
41
1
10
89.1930007815557
20
0.48938152197735
30
0
41
1
10
89.1819460608398
20
0.488747692296528
30
0
41
1
10
89.1652996900292
20
0.48719075926175
30
0
41
1
10
89.1597430644449
20
0.486595298182152
30
0
41
1
10
89.1486313501836
20
0.48539421325404
30
0
41
1
10
89.14307424472
20
0.484772082767449
30
0
41
1
10
89.1263738000388
20
0.482609376316901
30
0
41
1
10
89.1151969236662
20
0.480732519591498
30
0
41
1
10
89.0590882381983
20
0.468831536694807
30
0
41
1
10
89.0134821352192
20
0.451086770371631
30
0
41
1
10
88.9563322253964
20
0.421877391647485
30
0
41
1
10
88.9448976159853
20
0.415719340094853
30
0
41
1
10
88.9220489419541
20
0.403031842312799
30
0
41
1
10
88.9106282128469
20
0.396431401342028
30
0
41
1
10
88.8763529305024
20
0.375449913297018
30
0
41
1
10
88.8534789061929
20
0.359955161563278
30
0
41
1
10
88.7850044187577
20
0.308859335694876
30
0
41
1
10
88.7399456843179
20
0.269131013626975
30
0
41
1
10
88.6956880949456
20
0.224572250238907
30
0
0
SPLINE
5
EA
100
AcDbEntity
8
1
62
256
6
ByLayer
370
18
48
1
60
0
100
AcDbSpline
70
4
71
3
72
14
73
10
40
0
40
0
40
0
40
0
40
0.250000000000005
40
0.250000000000005
40
0.375000000000008
40
0.375000000000008
40
0.500000000000011
40
0.500000000000011
40
1
40
1
40
1
40
1
41
1
10
88.833345678256
20
-3.24084608290315
30
0
41
1
10
88.8208270702567
20
-3.25963587709484
30
0
41
1
10
88.8087373776826
20
-3.27714408550136
30
0
41
1
10
88.7912577126647
20
-3.3013456446628
30
0
41
1
10
88.7855402924822
20
-3.30906914656964
30
0
41
1
10
88.7743255084953
20
-3.32380265807546
30
0
41
1
10
88.7688611752058
20
-3.33076875604641
30
0
41
1
10
88.7423196648216
20
-3.36349788972993
30
0
41
1
10
88.7234886847599
20
-3.38309028957718
30
0
41
1
10
88.7067598583458
20
-3.39625348121086
30
0
0
SPLINE
5
EB
100
AcDbEntity
8
1
62
256
6
ByLayer
370
18
48
1
60
0
100
AcDbSpline
70
4
71
3
72
12
73
8
40
0
40
0
40
0
40
0
40
0.25
40
0.25
40
0.500000000000001
40
0.500000000000001
40
1
40
1
40
1
40
1
41
1
10
88.8333456782558
20
-3.24084608290349
30
0
41
1
10
88.8637003829822
20
-3.15250598946611
30
0
41
1
10
88.8942133063743
20
-3.06390102095904
30
0
41
1
10
88.9555379522389
20
-2.88654632973248
30
0
41
1
10
88.9863464813072
20
-2.79781091211021
30
0
41
1
10
89.0792952017067
20
-2.53150111658962
30
0
41
1
10
89.1419648241189
20
-2.35382662380945
30
0
41
1
10
89.2054732307926
20
-2.17616056574562
30
0
0
SPLINE
5
EC
100
AcDbEntity
8
1
62
256
6
ByLayer
370
18
48
1
60
0
100
AcDbSpline
70
4
71
3
72
8
73
4
40
0
40
0
40
0
40
0
40
1
40
1
40
1
40
1
41
1
10
89.2054732307926
20
-2.17616056574562
30
0
41
1
10
89.2299659593588
20
-2.10764180505069
30
0
41
1
10
89.2550936984707
20
-2.03929111671064
30
0
41
1
10
89.2809367104647
20
-1.9714057446846
30
0
0
SPLINE
5
ED
100
AcDbEntity
8
1
62
256
6
ByLayer
370
18
48
1
60
0
100
AcDbSpline
70
4
71
3
72
14
73
10
40
0
40
0
40
0
40
0
40
0.500000000000021
40
0.500000000000021
40
0.750000000000031
40
0.750000000000031
40
0.875000000000016
40
0.875000000000016
40
1
40
1
40
1
40
1
41
1
10
89.2809367104646
20
-1.9714057446846
30
0
41
1
10
89.330858758977
20
-1.84026867611573
30
0
41
1
10
89.3826369778172
20
-1.7129446743989
30
0
41
1
10
89.4640406194147
20
-1.52792115985017
30
0
41
1
10
89.4917859671873
20
-1.46721987653606
30
0
41
1
10
89.5344348849243
20
-1.37767994312532
30
0
41
1
10
89.5488231673236
20
-1.34808575383462
30
0
41
1
10
89.5779635349115
20
-1.28941386881817
30
0
41
1
10
89.5927397856268
20
-1.26029151863031
30
0
41
1
10
89.6076092450446
20
-1.23161980352739
30
0
0
SPLINE
5
EE
100
AcDbEntity
8
1
62
256
6
ByLayer
370
18
48
1
60
0
100
AcDbSpline
70
4
71
3
72
8
73
4
40
0
40
0
40
0
40
0
40
1
40
1
40
1
40
1
41
1
10
89.6076092450446
20
-1.23161980352737
30
0
41
1
10
89.7088114901068
20
-0.947841014936841
30
0
41
1
10
89.8090967071391
20
-0.663741273178459
30
0
41
1
10
89.9084448117804
20
-0.379313548871181
30
0
0
SPLINE
5
EF
100
AcDbEntity
8
1
62
256
6
ByLayer
370
18
48
1
60
0
100
AcDbSpline
70
4
71
3
72
8
73
4
40
0
40
0
40
0
40
0
40
1
40
1
40
1
40
1
41
1
10
89.9084448117804
20
-0.379313548871181
30
0
41
1
10
89.9379447563939
20
-0.294856959146472
30
0
41
1
10
89.9681302117496
20
-0.210785361789732
30
0
41
1
10
89.9990013291904
20
-0.12708338727532
30
0
0
SPLINE
5
F0
100
AcDbEntity
8
1
62
256
6
ByLayer
370
18
48
1
60
0
100
AcDbSpline
70
4
71
3
72
8
73
4
40
0
40
0
40
0
40
0
40
1
40
1
40
1
40
1
41
1
10
89.9990013291904
20
0.127083387275263
30
0
41
1
10
90.000331127607
20
0.0424732808436374
30
0
41
1
10
90.0003346576148
20
-0.0422486796281589
30
0
41
1
10
89.9990013291904
20
-0.12708338727532
30
0
0
SPLINE
5
F1
100
AcDbEntity
8
1
62
256
6
ByLayer
370
18
48
1
60
0
100
AcDbSpline
70
4
71
3
72
32
73
28
40
0
40
0
40
0
40
0
40
0.329708999069424
40
0.329708999069424
40
0.554530033704545
40
0.554530033704545
40
0.704736139545883
40
0.704736139545883
40
0.805090793033101
40
0.805090793033101
40
0.872150030489909
40
0.872150030489909
40
0.916965395360329
40
0.916965395360329
40
0.946917414215121
40
0.946917414215121
40
0.966936557813348
40
0.966936557813348
40
0.980317239265474
40
0.980317239265474
40
0.98926099243214
40
0.98926099243214
40
0.995239148476118
40
0.995239148476118
40
0.999235905885916
40
0.999235905885916
40
1
40
1
40
1
40
1
41
1
10
88.6500422170479
20
3.54987326448196
30
0
41
1
10
88.660117163175
20
3.53351058745568
30
0
41
1
10
88.670194060975
20
3.51710490113467
30
0
41
1
10
88.6871449460001
20
3.48944126800433
30
0
41
1
10
88.6940181170536
20
3.47820588269002
30
0
41
1
10
88.7054845150179
20
3.45943137993581
30
0
41
1
10
88.7100773690147
20
3.45190306159901
30
0
41
1
10
88.717739214632
20
3.43933058469099
30
0
41
1
10
88.7208080636601
20
3.43429119333925
30
0
41
1
10
88.7259277660437
20
3.42587798491411
30
0
41
1
10
88.7279785614999
20
3.42250628270651
30
0
41
1
10
88.7313999678074
20
3.41687845061219
30
0
41
1
10
88.7327705545453
20
3.41462326116951
30
0
41
1
10
88.735057194151
20
3.4108595688308
30
0
41
1
10
88.7359732367735
20
3.409351484799
30
0
41
1
10
88.7375015517052
20
3.40683487360502
30
0
41
1
10
88.7381138195954
20
3.40582653319782
30
0
41
1
10
88.739135329702
20
3.40414397247
30
0
41
1
10
88.7395445699914
20
3.40346983547448
30
0
41
1
10
88.7402273522874
20
3.4023449877966
30
0
41
1
10
88.7405008934473
20
3.40189431430929
30
0
41
1
10
88.7409572752812
20
3.40114235293859
30
0
41
1
10
88.7411401155812
20
3.40084108166363
30
0
41
1
10
88.7414451835846
20
3.40033839070307
30
0
41
1
10
88.7415676524431
20
3.40013650078885
30
0
41
1
10
88.7417156634755
20
3.39989150023024
30
0
41
1
10
88.7417394424024
20
3.39985213095676
30
0
41
1
10
88.7417632051664
20
3.39981279585854
30
0
0
SPLINE
5
F2
100
AcDbEntity
8
1
62
256
6
ByLayer
370
18
48
1
60
0
100
AcDbSpline
70
4
71
3
72
36
73
32
40
0
40
0
40
0
40
0
40
0.0788456965576026
40
0.0788456965576026
40
0.157691393115206
40
0.157691393115206
40
0.197114241394007
40
0.197114241394007
40
0.236537089672809
40
0.236537089672809
40
0.315382786230408
40
0.315382786230408
40
0.473074179345605
40
0.473074179345605
40
0.512497027624401
40
0.512497027624401
40
0.551919875903198
40
0.551919875903198
40
0.630765572460791
40
0.630765572460791
40
0.709611269018385
40
0.709611269018385
40
0.749034117297181
40
0.749034117297181
40
0.788456965575978
40
0.788456965575978
40
0.94614835869117
40
0.94614835869117
40
0.98557120696997
40
0.98557120696997
40
1
40
1
40
1
40
1
41
1
10
54.4999174894778
20
0.705497979146202
30
0
41
1
10
54.6788056419943
20
0.619540550453735
30
0
41
1
10
54.8576997751388
20
0.532785277015392
30
0
41
1
10
55.215509716915
20
0.358506414881333
30
0
41
1
10
55.3944319374715
20
0.27097153403767
30
0
41
1
10
55.6628158798358
20
0.139395929384165
30
0
41
1
10
55.7522765916536
20
0.0954906882992361
30
0
41
1
10
55.9311971439503
20
0.007653873093318
30
0
41
1
10
56.0206976736536
20
-0.0362963912771193
30
0
41
1
10
56.2888463383547
20
-0.167908482288993
30
0
41
1
10
56.4670894581361
20
-0.255385199873729
30
0
41
1
10
57.0007483673536
20
-0.516185670942207
30
0
41
1
10
57.3550974017323
20
-0.687843641619395
30
0
41
1
10
57.7970818445968
20
-0.898120055368253
30
0
41
1
10
57.8854317816673
20
-0.939955508154213
30
0
41
1
10
58.0620477430216
20
-1.02311596529566
30
0
41
1
10
58.1503196424392
20
-1.06444308973207
30
0
41
1
10
58.4150851159076
20
-1.18759925747639
30
0
41
1
10
58.591526743823
20
-1.26860708016909
30
0
41
1
10
58.9444580029228
20
-1.42799564909825
30
0
41
1
10
59.120942731055
20
-1.5063640795172
30
0
41
1
10
59.3858677785097
20
-1.6215988758949
30
0
41
1
10
59.4742099154179
20
-1.65962874917739
30
0
41
1
10
59.6509806495442
20
-1.73482699199729
30
0
41
1
10
59.7394109404842
20
-1.77199740312051
30
0
41
1
10
60.1818622260382
20
-1.95572140242697
30
0
41
1
10
60.5367841966391
20
-2.09586656755909
30
0
41
1
10
60.9824842591542
20
-2.26092694612902
30
0
41
1
10
61.0717268275784
20
-2.2934420341671
30
0
41
1
10
61.1937881835493
20
-2.33711989954665
30
0
41
1
10
61.2265130821177
20
-2.34875069481771
30
0
41
1
10
61.2592455233554
20
-2.36030517532245
30
0
0
SPLINE
5
F3
100
AcDbEntity
8
1
62
256
6
ByLayer
370
18
48
1
60
0
100
AcDbSpline
70
4
71
3
72
36
73
32
40
0
40
0
40
0
40
0
40
0.0689976668576467
40
0.0689976668576467
40
0.120720018698888
40
0.120720018698888
40
0.172442370540129
40
0.172442370540129
40
0.224164722381372
40
0.224164722381372
40
0.275887074222613
40
0.275887074222613
40
0.379331777905096
40
0.379331777905096
40
0.431054129746337
40
0.431054129746337
40
0.482776481587579
40
0.482776481587579
40
0.586221185270062
40
0.586221185270062
40
0.689665888952545
40
0.689665888952545
40
0.741388240793786
40
0.741388240793786
40
0.793110592635028
40
0.793110592635028
40
0.844832944476269
40
0.844832944476269
40
0.896555296317511
40
0.896555296317511
40
1
40
1
40
1
40
1
41
1
10
83.5670304912477
20
2.55009377734965
30
0
41
1
10
83.6859769431657
20
2.58873426784342
30
0
41
1
10
83.8049252690928
20
2.62625770335725
30
0
41
1
10
84.0130965443598
20
2.68990367394969
30
0
41
1
10
84.1023057223386
20
2.71653592291949
30
0
41
1
10
84.2807745004098
20
2.76839262598912
30
0
41
1
10
84.3700374003117
20
2.79363010041178
30
0
41
1
10
84.5486569322138
20
2.84275764828101
30
0
41
1
10
84.6380126151455
20
2.86664219770569
30
0
41
1
10
84.8168416912143
20
2.91303129497103
30
0
41
1
10
84.9063309285804
20
2.93554151658839
30
0
41
1
10
85.17445501788
20
3.00077769082648
30
0
41
1
10
85.3529184335093
20
3.04123101549712
30
0
41
1
10
85.6203501109047
20
3.09722459706217
30
0
41
1
10
85.7094527582561
20
3.1151242455866
30
0
41
1
10
85.887580213771
20
3.14924515024742
30
0
41
1
10
85.9766061400361
20
3.16546814071091
30
0
41
1
10
86.2436433195332
20
3.21179527105525
30
0
41
1
10
86.4216108357079
20
3.23954053720814
30
0
41
1
10
86.7776332872631
20
3.28857456070219
30
0
41
1
10
86.9556782668396
20
3.30982978865387
30
0
41
1
10
87.2229393001653
20
3.33681079001329
30
0
41
1
10
87.3120599096937
20
3.34500576382206
30
0
41
1
10
87.4903851029058
20
3.35968336605569
30
0
41
1
10
87.5795890416746
20
3.36614194335371
30
0
41
1
10
87.7581154485696
20
3.37742711582072
30
0
41
1
10
87.8474373871728
20
3.38224988480579
30
0
41
1
10
88.0262239485097
20
3.39026353625977
30
0
41
1
10
88.1157068982221
20
3.39345864169837
30
0
41
1
10
88.3840388173475
20
3.40054121740172
30
0
41
1
10
88.5628747568546
20
3.40188926982034
30
0
41
1
10
88.7417632051663
20
3.39981279585851
30
0
0
SPLINE
5
F4
100
AcDbEntity
8
1
62
256
6
ByLayer
370
18
48
1
60
0
100
AcDbSpline
70
4
71
3
72
32
73
28
40
0
40
0
40
0
40
0
40
0.329708999067659
40
0.329708999067659
40
0.554530033704574
40
0.554530033704574
40
0.70473613954514
40
0.70473613954514
40
0.805090793032418
40
0.805090793032418
40
0.872150030489097
40
0.872150030489097
40
0.916965395359769
40
0.916965395359769
40
0.946917414214921
40
0.946917414214921
40
0.966936557813342
40
0.966936557813342
40
0.980317239265525
40
0.980317239265525
40
0.989260992432283
40
0.989260992432283
40
0.995239148476327
40
0.995239148476327
40
0.999235905886221
40
0.999235905886221
40
1
40
1
40
1
40
1
41
1
10
88.6500422170479
20
-3.54987326448196
30
0
41
1
10
88.6601171631749
20
-3.53351058745577
30
0
41
1
10
88.6701940609748
20
-3.51710490113482
30
0
41
1
10
88.6871449459999
20
-3.4894412680045
30
0
41
1
10
88.6940181170536
20
-3.47820588269016
30
0
41
1
10
88.7054845150179
20
-3.45943137993589
30
0
41
1
10
88.7100773690147
20
-3.45190306159913
30
0
41
1
10
88.7177392146319
20
-3.43933058469114
30
0
41
1
10
88.72080806366
20
-3.43429119333942
30
0
41
1
10
88.7259277660436
20
-3.42587798491428
30
0
41
1
10
88.7279785614998
20
-3.42250628270668
30
0
41
1
10
88.7313999678073
20
-3.41687845061233
30
0
41
1
10
88.7327705545452
20
-3.41462326116962
30
0
41
1
10
88.7350571941508
20
-3.41085956883089
30
0
41
1
10
88.7359732367735
20
-3.40935148479912
30
0
41
1
10
88.7375015517052
20
-3.40683487360511
30
0
41
1
10
88.7381138195954
20
-3.40582653319794
30
0
41
1
10
88.739135329702
20
-3.40414397247008
30
0
41
1
10
88.7395445699914
20
-3.40346983547454
30
0
41
1
10
88.7402273522874
20
-3.40234498779662
30
0
41
1
10
88.7405008934473
20
-3.40189431430935
30
0
41
1
10
88.7409572752812
20
-3.40114235293862
30
0
41
1
10
88.7411401155812
20
-3.40084108166368
30
0
41
1
10
88.7414451835846
20
-3.4003383907031
30
0
41
1
10
88.7415676524431
20
-3.40013650078885
30
0
41
1
10
88.7417156634755
20
-3.39989150023024
30
0
41
1
10
88.7417394424023
20
-3.39985213095676
30
0
41
1
10
88.7417632051663
20
-3.39981279585857
30
0
0
SPLINE
5
F5
100
AcDbEntity
8
1
62
256
6
ByLayer
370
18
48
1
60
0
100
AcDbSpline
70
4
71
3
72
108
73
104
40
0
40
0
40
0
40
0
40
0.0058905836480708
40
0.0058905836480708
40
0.0524563576355612
40
0.0524563576355612
40
0.0757392446293064
40
0.0757392446293064
40
0.087380688126179
40
0.087380688126179
40
0.0990221316230517
40
0.0990221316230517
40
0.122305018616798
40
0.122305018616798
40
0.145587905610545
40
0.145587905610545
40
0.168870792604292
40
0.168870792604292
40
0.192153679598039
40
0.192153679598039
40
0.215436566591785
40
0.215436566591785
40
0.238719453585532
40
0.238719453585532
40
0.262002340579279
40
0.262002340579279
40
0.285285227573025
40
0.285285227573025
40
0.308568114566772
40
0.308568114566772
40
0.320209558063645
40
0.320209558063645
40
0.331851001560517
40
0.331851001560517
40
0.355133888554262
40
0.355133888554262
40
0.378416775548008
40
0.378416775548008
40
0.401699662541753
40
0.401699662541753
40
0.424982549535498
40
0.424982549535498
40
0.43662399303237
40
0.43662399303237
40
0.448265436529242
40
0.448265436529242
40
0.471548323522987
40
0.471548323522987
40
0.494831210516732
40
0.494831210516732
40
0.518114097510478
40
0.518114097510478
40
0.541396984504223
40
0.541396984504223
40
0.553038428001095
40
0.553038428001095
40
0.564679871497968
40
0.564679871497968
40
0.587962758491713
40
0.587962758491713
40
0.611245645485458
40
0.611245645485458
40
0.634528532479204
40
0.634528532479204
40
0.657811419472949
40
0.657811419472949
40
0.681094306466694
40
0.681094306466694
40
0.704377193460439
40
0.704377193460439
40
0.727660080454184
40
0.727660080454184
40
0.75094296744793
40
0.75094296744793
40
0.762584410944802
40
0.762584410944802
40
0.774225854441675
40
0.774225854441675
40
0.79750874143542
40
0.79750874143542
40
0.820791628429165
40
0.820791628429165
40
0.844074515422911
40
0.844074515422911
40
0.867357402416656
40
0.867357402416656
40
0.878998845913527
40
0.878998845913527
40
0.890640289410399
40
0.890640289410399
40
0.913923176404143
40
0.913923176404143
40
0.937206063397887
40
0.937206063397887
40
0.960488950391631
40
0.960488950391631
40
0.972130393888502
40
0.972130393888502
40
0.983771837385373
40
0.983771837385373
40
0.995413280882244
40
0.995413280882244
40
1
40
1
40
1
40
1
41
1
10
61.8297245050383
20
2.55364874679861
30
0
41
1
10
61.8748946338526
20
2.56831013045832
30
0
41
1
10
61.9200557931909
20
2.58281133438399
30
0
41
1
10
62.3221550699474
20
2.71050339862657
30
0
41
1
10
62.6785891329551
20
2.81363781513085
30
0
41
1
10
63.2137128291447
20
2.9504497249664
30
0
41
1
10
63.3921820838089
20
2.9931922306038
30
0
41
1
10
63.6601983832157
20
3.05280516408206
30
0
41
1
10
63.749588307389
20
3.07191827794242
30
0
41
1
10
63.9284918925813
20
3.1085963702723
30
0
41
1
10
64.0179685658176
20
3.12615306943511
30
0
41
1
10
64.2861306940381
20
3.17640762309802
30
0
41
1
10
64.4646987866264
20
3.20673238304994
30
0
41
1
10
64.8215688516568
20
3.26075125361228
30
0
41
1
10
64.9999053232117
20
3.2845650027796
30
0
41
1
10
65.3565907068601
20
3.32580200818521
30
0
41
1
10
65.5349261359967
20
3.34319739917936
30
0
41
1
10
65.8917747398929
20
3.37131164957523
30
0
41
1
10
66.0702930157159
20
3.38209414605413
30
0
41
1
10
66.427719437108
20
3.39650081315489
30
0
41
1
10
66.6067579086004
20
3.40030122823882
30
0
41
1
10
66.964209947253
20
3.40123758640175
30
0
41
1
10
67.1427449518121
20
3.39833265013357
30
0
41
1
10
67.4996121803188
20
3.38571985113165
30
0
41
1
10
67.677955995098
20
3.37610956013358
30
0
41
1
10
68.0346160116519
20
3.34983057061277
30
0
41
1
10
68.2129554850666
20
3.33334527546273
30
0
41
1
10
68.569875867855
20
3.29399949142947
30
0
41
1
10
68.7484497465853
20
3.27107615442429
30
0
41
1
10
69.0166283070168
20
3.23169951935
30
0
41
1
10
69.1061156659163
20
3.21774270873792
30
0
41
1
10
69.2850037072736
20
3.18824874107773
30
0
41
1
10
69.3743869837727
20
3.17270099985956
30
0
41
1
10
69.642367919396
20
3.12354201632078
30
0
41
1
10
69.820831796538
20
3.08761008852289
30
0
41
1
10
70.1776391928129
20
3.00992055995988
30
0
41
1
10
70.3559724215147
20
2.96812174589223
30
0
41
1
10
70.7126591088732
20
2.87865640083811
30
0
41
1
10
70.8910255708592
20
2.83108404596624
30
0
41
1
10
71.2479689794237
20
2.730046992354
30
0
41
1
10
71.4265560470282
20
2.67666118580607
30
0
41
1
10
71.6947971839529
20
2.59270775702339
30
0
41
1
10
71.784298438891
20
2.56406030175802
30
0
41
1
10
71.9631214747196
20
2.50555445982363
30
0
41
1
10
72.0524766552838
20
2.47568472415844
30
0
41
1
10
72.3204089362804
20
2.38426423768007
30
0
41
1
10
72.4988657634701
20
2.32096572180743
30
0
41
1
10
72.8556030045335
20
2.18973034949721
30
0
41
1
10
73.0338870188091
20
2.12179447676417
30
0
41
1
10
73.3905574120142
20
1.98205053995054
30
0
41
1
10
73.5689342192613
20
1.91020606049497
30
0
41
1
10
73.9259443600532
20
1.7626757453915
30
0
41
1
10
74.1045840326154
20
1.68704461770727
30
0
41
1
10
74.3728990595199
20
1.57093002014972
30
0
41
1
10
74.4623627570055
20
1.5317655711527
30
0
41
1
10
74.6411103416933
20
1.45279716515893
30
0
41
1
10
74.7304335113514
20
1.41297114933764
30
0
41
1
10
74.9982944868147
20
1.29255961014385
30
0
41
1
10
75.1767261222384
20
1.21104892121744
30
0
41
1
10
75.533463230474
20
1.04578822370971
30
0
41
1
10
75.7117754834917
20
0.962065969880513
30
0
41
1
10
76.0684795976769
20
0.792791475007306
30
0
41
1
10
76.2468561459587
20
0.707167588193869
30
0
41
1
10
76.6039373754367
20
0.534677291502902
30
0
41
1
10
76.7826387067689
20
0.447790730306337
30
0
41
1
10
77.1405435436788
20
0.273026262136511
30
0
41
1
10
77.3192475167355
20
0.185405233241994
30
0
41
1
10
77.6763528473103
20
0.0101196191461383
30
0
41
1
10
77.8547241587235
20
-0.0776000099024259
30
0
41
1
10
78.2114167578703
20
-0.252602367709784
30
0
41
1
10
78.3897308192778
20
-0.339899922289874
30
0
41
1
10
78.7464504192407
20
-0.51375331516968
30
0
41
1
10
78.924858015063
20
-0.600303074279765
30
0
41
1
10
79.1927062722326
20
-0.7292258812233
30
0
41
1
10
79.2820254864869
20
-0.772052378803778
30
0
41
1
10
79.4607685398547
20
-0.857345988633256
30
0
41
1
10
79.5502311235099
20
-0.899829536047349
30
0
41
1
10
79.8185466988996
20
-1.02652518139291
30
0
41
1
10
79.9972016446843
20
-1.10992692145675
30
0
41
1
10
80.3542386127509
20
-1.27418048448575
30
0
41
1
10
80.5326175328312
20
-1.35502884400569
30
0
41
1
10
80.8893145074685
20
-1.513847453235
30
0
41
1
10
81.0676078807128
20
-1.59176913822574
30
0
41
1
10
81.4243490223927
20
-1.74439470275766
30
0
41
1
10
81.60279894414
20
-1.81910472547799
30
0
41
1
10
81.8707286679528
20
-1.92846056034142
30
0
41
1
10
81.9600804520012
20
-1.96445936360141
30
0
41
1
10
82.1388940452021
20
-2.03550168119398
30
0
41
1
10
82.2283946922148
20
-2.07056020162455
30
0
41
1
10
82.4966656393947
20
-2.17407132097639
30
0
41
1
10
82.6752515043485
20
-2.24084335962164
30
0
41
1
10
83.0321795738123
20
-2.3697194820773
30
0
41
1
10
83.2105374047445
20
-2.43179549968607
30
0
41
1
10
83.5672152343267
20
-2.55098140333342
30
0
41
1
10
83.7455243208302
20
-2.60809654735033
30
0
41
1
10
84.0130965443598
20
-2.68990367394971
30
0
41
1
10
84.1023057223385
20
-2.71653592291952
30
0
41
1
10
84.2807745004098
20
-2.76839262598912
30
0
41
1
10
84.3700374003117
20
-2.79363010041178
30
0
41
1
10
84.5486569322138
20
-2.84275764828104
30
0
41
1
10
84.6380126151454
20
-2.86664219770569
30
0
41
1
10
84.7626564072769
20
-2.8989753793326
30
0
41
1
10
84.7978972573508
20
-2.90800778058391
30
0
41
1
10
84.8331381289751
20
-2.916929026308
30
0
0
SPLINE
5
F6
100
AcDbEntity
8
1
62
256
6
ByLayer
370
13
48
1
60
0
100
AcDbSpline
70
4
71
3
72
40
73
36
40
0
40
0
40
0
40
0
40
0.005390726309767
40
0.005390726309767
40
0.147477765408371
40
0.147477765408371
40
0.218521284957673
40
0.218521284957673
40
0.289564804506976
40
0.289564804506976
40
0.360608324056278
40
0.360608324056278
40
0.396130083830929
40
0.396130083830929
40
0.43165184360558
40
0.43165184360558
40
0.502695363154882
40
0.502695363154882
40
0.538217122929533
40
0.538217122929533
40
0.573738882704184
40
0.573738882704184
40
0.644782402253486
40
0.644782402253486
40
0.680304162028137
40
0.680304162028137
40
0.715825921802789
40
0.715825921802789
40
0.857912960901394
40
0.857912960901394
40
0.928956480450697
40
0.928956480450697
40
0.964478240225349
40
0.964478240225349
40
1
40
1
40
1
40
1
41
1
10
54.6007443020472
20
3.35204197200162
30
0
41
1
10
54.6007437029198
20
3.35176834247287
30
0
41
1
10
54.6007431005275
20
3.35147099723599
30
0
41
1
10
54.600726532028
20
3.34268892575912
30
0
41
1
10
54.6007083523587
20
3.31790031345827
30
0
41
1
10
54.6006782656591
20
3.2562584194923
30
0
41
1
10
54.6006677615236
20
3.23161277527939
30
0
41
1
10
54.600645818774
20
3.17385028751997
30
0
41
1
10
54.6006345185854
20
3.14109670127388
30
0
41
1
10
54.6006112972166
20
3.06801302743725
30
0
41
1
10
54.600599375263
20
3.02768079193641
30
0
41
1
10
54.6005810175046
20
2.96148541917765
30
0
41
1
10
54.6005748187855
20
2.93846947811068
30
0
41
1
10
54.60056225706
20
2.89051795397455
30
0
41
1
10
54.6005558844601
20
2.86554308706508
30
0
41
1
10
54.6005365998524
20
2.78806878066348
30
0
41
1
10
54.6005235166002
20
2.73301247656136
30
0
41
1
10
54.6005035047543
20
2.64534964207897
30
0
41
1
10
54.6004967693612
20
2.6152811070256
30
0
41
1
10
54.6004831577153
20
2.55343978434013
30
0
41
1
10
54.6004762758224
20
2.52163950819104
30
0
41
1
10
54.6004554951157
20
2.42411515178955
30
0
41
1
10
54.6004414353672
20
2.35615302004442
30
0
41
1
10
54.6004199533385
20
2.24981028234976
30
0
41
1
10
54.6004127270269
20
2.21362841591576
30
0
41
1
10
54.6003981261984
20
2.1397868713629
30
0
41
1
10
54.6003907535762
20
2.10213526308777
30
0
41
1
10
54.6003537472849
20
1.91157239345949
30
0
41
1
10
54.6003234813959
20
1.75073426950459
30
0
41
1
10
54.6002762309152
20
1.49723362938832
30
0
41
1
10
54.6002601701985
20
1.41068140322764
30
0
41
1
10
54.600235482263
20
1.27771384907817
30
0
41
1
10
54.600227153279
20
1.23286740318821
30
0
41
1
10
54.600210271393
20
1.14210720195643
30
0
41
1
10
54.6002017347487
20
1.09628118151616
30
0
41
1
10
54.6001931179777
20
1.05014905473976
30
0
0
SPLINE
5
F7
100
AcDbEntity
8
1
62
256
6
ByLayer
370
18
48
1
60
0
100
AcDbSpline
70
4
71
3
72
48
73
44
40
0
40
0
40
0
40
0
40
0.046574211231947
40
0.046574211231947
40
0.0929628561945239
40
0.0929628561945239
40
0.139351501157101
40
0.139351501157101
40
0.232128791082255
40
0.232128791082255
40
0.278517436044832
40
0.278517436044832
40
0.324906081007408
40
0.324906081007408
40
0.371294725969985
40
0.371294725969985
40
0.417683370932562
40
0.417683370932562
40
0.464072015895139
40
0.464072015895139
40
0.510460660857716
40
0.510460660857716
40
0.603237950782867
40
0.603237950782867
40
0.696015240708018
40
0.696015240708018
40
0.742403885670593
40
0.742403885670593
40
0.754001046911237
40
0.754001046911237
40
0.76559820815188
40
0.76559820815188
40
0.788792530633166
40
0.788792530633166
40
0.835181175595741
40
0.835181175595741
40
0.881569820558317
40
0.881569820558317
40
0.927958465520893
40
0.927958465520893
40
0.974347110483468
40
0.974347110483468
40
1
40
1
40
1
40
1
41
1
10
56.2010567240597
20
0.292868071266128
30
0
41
1
10
56.3791236636934
20
0.206860842269918
30
0
41
1
10
56.557039454753
20
0.1205947511217
30
0
41
1
10
56.9120725562786
20
-0.0516640911383774
30
0
41
1
10
57.0891897026372
20
-0.137657496647336
30
0
41
1
10
57.4435327200262
20
-0.309294963679662
30
0
41
1
10
57.6207589991493
20
-0.394938366801711
30
0
41
1
10
58.152913978212
20
-0.650690528872246
30
0
41
1
10
58.5083228997826
20
-0.819610895230966
30
0
41
1
10
59.0435280064267
20
-1.06823295359734
30
0
41
1
10
59.2222768213572
20
-1.15031733615206
30
0
41
1
10
59.5806612276241
20
-1.31250181512536
30
0
41
1
10
59.7593837720997
20
-1.39218738969359
30
0
41
1
10
60.1159076153091
20
-1.54832751134955
30
0
41
1
10
60.2937405656465
20
-1.62479230474136
30
0
41
1
10
60.6488388634583
20
-1.77406767969833
30
0
41
1
10
60.8260990072222
20
-1.84688285285145
30
0
41
1
10
61.1801545926914
20
-1.98860617009308
30
0
41
1
10
61.3569534779156
20
-2.05751557690604
30
0
41
1
10
61.7103114597459
20
-2.1911947121682
30
0
41
1
10
61.8868696105913
20
-2.25596109038793
30
0
41
1
10
62.4164723690944
20
-2.44349314322986
30
0
41
1
10
62.7694454349682
20
-2.55947585475008
30
0
41
1
10
63.4767693971056
20
-2.7709885103547
30
0
41
1
10
63.8311036185979
20
-2.86652420429854
30
0
41
1
10
64.3648137539483
20
-2.99308721408454
30
0
41
1
10
64.5430875004108
20
-3.0324833969691
30
0
41
1
10
64.7665062406156
20
-3.07797081587776
30
0
41
1
10
64.8112189204689
20
-3.08688092054146
30
0
41
1
10
64.9007056849418
20
-3.10432499532857
30
0
41
1
10
64.9454964140899
20
-3.11286193201437
30
0
41
1
10
65.0797279454186
20
-3.13786271890587
30
0
41
1
10
65.1690901067871
20
-3.15372965709636
30
0
41
1
10
65.436854936536
20
-3.19894747796343
30
0
41
1
10
65.6149302530754
20
-3.22590336324785
30
0
41
1
10
65.9703110836502
20
-3.27313055917162
30
0
41
1
10
66.1476235369296
20
-3.2934208476845
30
0
41
1
10
66.5017800164921
20
-3.32755466319972
30
0
41
1
10
66.6786197161502
20
-3.34138896843922
30
0
41
1
10
67.031970015428
20
-3.3624962980731
30
0
41
1
10
67.20848285036
20
-3.36977615020095
30
0
41
1
10
67.4825250934901
20
-3.37605614969635
30
0
41
1
10
67.5800903569013
20
-3.3772990045025
30
0
41
1
10
67.6776508456275
20
-3.37751846040243
30
0
0
SPLINE
5
F8
100
AcDbEntity
8
1
62
256
6
ByLayer
370
18
48
1
60
0
100
AcDbSpline
70
4
71
3
72
54
73
50
40
0
40
0
40
0
40
0
40
0.0052426176801148
40
0.0052426176801148
40
0.0516377186142309
40
0.0516377186142309
40
0.074835269081287
40
0.074835269081287
40
0.0980328195483438
40
0.0980328195483438
40
0.144427920482457
40
0.144427920482457
40
0.19082302141657
40
0.19082302141657
40
0.237218122350683
40
0.237218122350683
40
0.283613223284796
40
0.283613223284796
40
0.330008324218909
40
0.330008324218909
40
0.376403425153022
40
0.376403425153022
40
0.422798526087135
40
0.422798526087135
40
0.469193627021248
40
0.469193627021248
40
0.515588727955361
40
0.515588727955361
40
0.52718750318889
40
0.52718750318889
40
0.538786278422419
40
0.538786278422419
40
0.561983828889477
40
0.561983828889477
40
0.608378929823591
40
0.608378929823591
40
0.701169131691817
40
0.701169131691817
40
0.747564232625928
40
0.747564232625928
40
0.79395933356004
40
0.79395933356004
40
0.840354434494152
40
0.840354434494152
40
0.886749535428263
40
0.886749535428263
40
0.979539737296487
40
0.979539737296487
40
1
40
1
40
1
40
1
41
1
10
66.9389678226673
20
-0.266960158975508
30
0
41
1
10
66.9188913308972
20
-0.257246709214741
30
0
41
1
10
66.898810052664
20
-0.247528403670998
30
0
41
1
10
66.700969806944
20
-0.151758507419942
30
0
41
1
10
66.5228384492577
20
-0.0653331256712306
30
0
41
1
10
66.2550167993032
20
0.0650586458154976
30
0
41
1
10
66.1656125503013
20
0.108675503885621
30
0
41
1
10
65.9872726391942
20
0.195687540212589
30
0
41
1
10
65.8982436880626
20
0.239124501413073
30
0
41
1
10
65.6314353333665
20
0.369008834018189
30
0
41
1
10
65.4539009667951
20
0.454986183320131
30
0
41
1
10
65.0995540046555
20
0.625593732005569
30
0
41
1
10
64.9227711916075
20
0.710255835420469
30
0
41
1
10
64.5694261785793
20
0.877558470210744
30
0
41
1
10
64.3928369213972
20
0.960168231230568
30
0
41
1
10
64.0398035211771
20
1.12314914620504
30
0
41
1
10
63.863363760255
20
1.20352922563791
30
0
41
1
10
63.5106110784348
20
1.36182733016133
30
0
41
1
10
63.3342955627119
20
1.43975021021234
30
0
41
1
10
62.9818156849638
20
1.59279802613781
30
0
41
1
10
62.8056894787602
20
1.66793365436706
30
0
41
1
10
62.4529269110248
20
1.81482218920851
30
0
41
1
10
62.2762485217507
20
1.88654878054618
30
0
41
1
10
61.9222138671649
20
2.02635565600107
30
0
41
1
10
61.7448599728836
20
2.09445092243729
30
0
41
1
10
61.3894998398958
20
2.22664418521097
30
0
41
1
10
61.211504341364
20
2.29075021567576
30
0
41
1
10
60.9885093743932
20
2.36803656552971
30
0
41
1
10
60.943885526208
20
2.38335081634563
30
0
41
1
10
60.8545828086442
20
2.41368818606577
30
0
41
1
10
60.8098822139849
20
2.42871900353992
30
0
41
1
10
60.6758925574443
20
2.47330788763563
30
0
41
1
10
60.5866987642131
20
2.50236903804353
30
0
41
1
10
60.3193361451508
20
2.58761282864481
30
0
41
1
10
60.1413411981247
20
2.64187833355368
30
0
41
1
10
59.6081510939557
20
2.7966066661269
30
0
41
1
10
59.253803038849
20
2.88900921428794
30
0
41
1
10
58.7234836839837
20
3.00943470849416
30
0
41
1
10
58.5469229900539
20
3.04653192018628
30
0
41
1
10
58.1938880996019
20
3.11464782980596
30
0
41
1
10
58.0173999781914
20
3.14568850267821
30
0
41
1
10
57.6643918198178
20
3.20133097884582
30
0
41
1
10
57.4878969078471
20
3.22586887937845
30
0
41
1
10
57.1344097071141
20
3.26907395642954
30
0
41
1
10
56.957382401085
20
3.28782183766117
30
0
41
1
10
56.4254441839329
20
3.33476810254723
30
0
41
1
10
56.0697519655663
20
3.35358638892149
30
0
41
1
10
55.6336626848187
20
3.35919486885899
30
0
41
1
10
55.5547746961613
20
3.35951548666296
30
0
41
1
10
55.4758450132099
20
3.3591263809131
30
0
0
SPLINE
5
F9
100
AcDbEntity
8
1
62
256
6
ByLayer
370
18
48
1
60
0
100
AcDbSpline
70
4
71
3
72
48
73
44
40
0
40
0
40
0
40
0
40
9.55745036418E-05
40
9.55745036418E-05
40
0.0478647552200918
40
0.0478647552200918
40
0.0956339359365423
40
0.0956339359365423
40
0.143403116652993
40
0.143403116652993
40
0.191172297369443
40
0.191172297369443
40
0.238941478085893
40
0.238941478085893
40
0.262826068444118
40
0.262826068444118
40
0.274768363623232
40
0.274768363623232
40
0.286710658802346
40
0.286710658802346
40
0.3344798395188
40
0.3344798395188
40
0.43001820095171
40
0.43001820095171
40
0.525556562384619
40
0.525556562384619
40
0.573325743101074
40
0.573325743101074
40
0.621094923817529
40
0.621094923817529
40
0.668864104533984
40
0.668864104533984
40
0.716633285250439
40
0.716633285250439
40
0.764402465966894
40
0.764402465966894
40
0.812171646683348
40
0.812171646683348
40
0.907710008116261
40
0.907710008116261
40
0.955479188832718
40
0.955479188832718
40
1
40
1
40
1
40
1
41
1
10
67.9105515852364
20
-3.38568140212496
30
0
41
1
10
67.9101986320358
20
-3.38568715985349
30
0
41
1
10
67.9098456789291
20
-3.38569290398758
30
0
41
1
10
67.7330829542523
20
-3.38856281831835
30
0
41
1
10
67.5566884660906
20
-3.38799248000751
30
0
41
1
10
67.2037890553719
20
-3.38033388785044
30
0
41
1
10
67.0272860692551
20
-3.37325761630126
30
0
41
1
10
66.6739532393131
20
-3.35253729415817
30
0
41
1
10
66.4971215018577
20
-3.33888646701135
30
0
41
1
10
66.1429806648828
20
-3.30509828135928
30
0
41
1
10
65.9656756050795
20
-3.28497010724072
30
0
41
1
10
65.6103036820287
20
-3.2380465807791
30
0
41
1
10
65.4322305532671
20
-3.21123217908507
30
0
41
1
10
65.1644675808037
20
-3.16620578877269
30
0
41
1
10
65.0751056902865
20
-3.15039921239176
30
0
41
1
10
64.940873411013
20
-3.12548413272495
30
0
41
1
10
64.8960822853114
20
-3.11697496763023
30
0
41
1
10
64.8065952878746
20
-3.09958496307726
30
0
41
1
10
64.7618825917806
20
-3.09070113466112
30
0
41
1
10
64.5384640692427
20
-3.04534149928088
30
0
41
1
10
64.3601919738277
20
-3.00603567150557
30
0
41
1
10
63.8264937248824
20
-2.87970321541181
30
0
41
1
10
63.4721736662591
20
-2.78427016746801
30
0
41
1
10
62.7648876843508
20
-2.57286645323211
30
0
41
1
10
62.4119386576743
20
-2.45688717630065
30
0
41
1
10
61.8823661919926
20
-2.2692850078856
30
0
41
1
10
61.7058175820754
20
-2.20448291600314
30
0
41
1
10
61.3524787779681
20
-2.07070494263962
30
0
41
1
10
61.1756892869542
20
-2.00173278297905
30
0
41
1
10
60.8216507135829
20
-1.85985828182069
30
0
41
1
10
60.64439872321
20
-1.78695376725702
30
0
41
1
10
60.2893136693306
20
-1.63747265031921
30
0
41
1
10
60.1114853944448
20
-1.56089223384583
30
0
41
1
10
59.754965772191
20
-1.40449544234349
30
0
41
1
10
59.5762428126658
20
-1.32466820121226
30
0
41
1
10
59.2178534402514
20
-1.1621734311199
30
0
41
1
10
59.039103914658
20
-1.07992303268426
30
0
41
1
10
58.5039010623246
20
-0.830770365498267
30
0
41
1
10
58.148498354055
20
-0.661455083355833
30
0
41
1
10
57.6163579693037
20
-0.405045303762762
30
0
41
1
10
57.4391374466874
20
-0.319171858803401
30
0
41
1
10
57.0968510108015
20
-0.152911786825655
30
0
41
1
10
56.931777966043
20
-0.0725491568089183
30
0
41
1
10
56.7666712451641
20
0.0078028156086134
30
0
0
SPLINE
5
FA
100
AcDbEntity
8
1
62
256
6
ByLayer
370
18
48
1
60
0
100
AcDbSpline
70
4
71
3
72
8
73
4
40
0
40
0
40
0
40
0
40
1
40
1
40
1
40
1
41
1
10
88.6762784792584
20
-0.252090812222889
30
0
41
1
10
88.6781766057414
20
-0.252636826120522
30
0
41
1
10
88.6791904462565
20
-0.257767058952084
30
0
41
1
10
88.6785109829883
20
-0.263537562714561
30
0
0
SPLINE
5
FB
100
AcDbEntity
8
1
62
256
6
ByLayer
370
18
48
1
60
0
100
AcDbSpline
70
4
71
3
72
48
73
44
40
0
40
0
40
0
40
0
40
0.0932705270985811
40
0.0932705270985811
40
0.139905790647872
40
0.139905790647872
40
0.163223422422517
40
0.163223422422517
40
0.186541054197162
40
0.186541054197162
40
0.233176317746453
40
0.233176317746453
40
0.279811581295744
40
0.279811581295744
40
0.373082108394328
40
0.373082108394328
40
0.41971737194362
40
0.41971737194362
40
0.466352635492913
40
0.466352635492913
40
0.559623162591497
40
0.559623162591497
40
0.606258426140789
40
0.606258426140789
40
0.629576057915437
40
0.629576057915437
40
0.652893689690084
40
0.652893689690084
40
0.746164216788671
40
0.746164216788671
40
0.792799480337967
40
0.792799480337967
40
0.839434743887262
40
0.839434743887262
40
0.862752375661911
40
0.862752375661911
40
0.88607000743656
40
0.88607000743656
40
0.932705270985855
40
0.932705270985855
40
0.97934053453515
40
0.97934053453515
40
1
40
1
40
1
40
1
41
1
10
88.6785109829621
20
-0.263537562701515
30
0
41
1
10
88.322861444108
20
-0.0867210847748936
30
0
41
1
10
87.9672224035048
20
0.0896159723749577
30
0
41
1
10
87.4330209790268
20
0.351854034538064
30
0
41
1
10
87.2548298007838
20
0.438888423566283
30
0
41
1
10
86.9872728692224
20
0.568692399210875
30
0
41
1
10
86.8979862096213
20
0.611862596446116
30
0
41
1
10
86.7196653330358
20
0.697751294077108
30
0
41
1
10
86.6306221974683
20
0.740474343702061
30
0
41
1
10
86.3638332792494
20
0.867934225175134
30
0
41
1
10
86.1864272179475
20
0.951963712280843
30
0
41
1
10
85.8325822659683
20
1.11783693193092
30
0
41
1
10
85.6561574476622
20
1.19968697489409
30
0
41
1
10
85.1272158133314
20
1.44096410653989
30
0
41
1
10
84.7749548426842
20
1.5960616132806
30
0
41
1
10
84.2467128542872
20
1.81854569737263
30
0
41
1
10
84.0706561172368
20
1.89102282009759
30
0
41
1
10
83.7185793894803
20
2.03214905774752
30
0
41
1
10
83.5425798938382
20
2.10078686318531
30
0
41
1
10
83.013894511874
20
2.30059058414054
30
0
41
1
10
82.660428975132
20
2.42567116645435
30
0
41
1
10
82.1280696097233
20
2.5989897735858
30
0
41
1
10
81.9502600770802
20
2.65438951864977
30
0
41
1
10
81.6828897922619
20
2.7334788626776
30
0
41
1
10
81.593659269575
20
2.75916459656648
30
0
41
1
10
81.4154596405729
20
2.80905390071419
30
0
41
1
10
81.3264208833083
20
2.8332802487769
30
0
41
1
10
80.8813257973919
20
2.95093726445177
30
0
41
1
10
80.5254578532064
20
3.03407483931275
30
0
41
1
10
79.9916343555541
20
3.14013883079278
30
0
41
1
10
79.8136938592345
20
3.17239394715773
30
0
41
1
10
79.4577017942262
20
3.23008743810794
30
0
41
1
10
79.2796665194976
20
3.25546150587741
30
0
41
1
10
79.0121146316931
20
3.28909835838473
30
0
41
1
10
78.9228585130379
20
3.29958348979429
30
0
41
1
10
78.7446175090144
20
3.31899413911484
30
0
41
1
10
78.6555790654573
20
3.32792423304656
30
0
41
1
10
78.3887277708743
20
3.35228885149437
30
0
41
1
10
78.2111790876768
20
3.36529672478415
30
0
41
1
10
77.8568783192108
20
3.38433184716439
30
0
41
1
10
77.6801321814694
20
3.39036151751947
30
0
41
1
10
77.4256090128085
20
3.39366113550056
30
0
41
1
10
77.3475422657824
20
3.39393258723493
30
0
41
1
10
77.2695092470476
20
3.39354950948047
30
0
0
SPLINE
5
FC
100
AcDbEntity
8
1
62
256
6
ByLayer
370
18
48
1
60
0
100
AcDbSpline
70
4
71
3
72
8
73
4
40
0
40
0
40
0
40
0
40
1
40
1
40
1
40
1
41
1
10
88.7069010943792
20
-3.39649841653286
30
0
41
1
10
88.7068540140065
20
-3.39641703609271
30
0
41
1
10
88.7068069353321
20
-3.39633539097542
30
0
41
1
10
88.7067598583458
20
-3.39625348121078
30
0
0
SPLINE
5
FD
100
AcDbEntity
8
1
62
256
6
ByLayer
370
18
48
1
60
0
100
AcDbSpline
70
4
71
3
72
46
73
42
40
0
40
0
40
0
40
0
40
0.0624999999999998
40
0.0624999999999998
40
0.0937499999999997
40
0.0937499999999997
40
0.125
40
0.125
40
0.187499999999999
40
0.249999999999999
40
0.312499999999999
40
0.312499999999999
40
0.343749999999999
40
0.343749999999999
40
0.374999999999999
40
0.374999999999999
40
0.437499999999999
40
0.437499999999999
40
0.468749999999998
40
0.468749999999998
40
0.499999999999998
40
0.499999999999998
40
0.562499999999998
40
0.562499999999998
40
0.593749999999998
40
0.593749999999998
40
0.624999999999998
40
0.624999999999998
40
0.687499999999999
40
0.687499999999999
40
0.718749999999999
40
0.718749999999999
40
0.749999999999999
40
0.749999999999999
40
0.812499999999999
40
0.812499999999999
40
0.843749999999999
40
0.843749999999999
40
0.874999999999999
40
0.874999999999999
40
1
40
1
40
1
40
1
41
1
10
88.6785109829896
20
-0.263537562704101
30
0
41
1
10
88.666926013442
20
-0.361925677975989
30
0
41
1
10
88.6567937109612
20
-0.459784549981208
30
0
41
1
10
88.6434237945091
20
-0.60574737480448
30
0
41
1
10
88.6392725125663
20
-0.654263913199941
30
0
41
1
10
88.6315289220948
20
-0.751014282220893
30
0
41
1
10
88.6279306517573
20
-0.79933813228871
30
0
41
1
10
88.6179554481952
20
-0.943089192204837
30
0
41
1
10
88.6068272268931
20
-1.13144100091324
30
0
41
1
10
88.5953078943634
20
-1.40422643276182
30
0
41
1
10
88.5903815615334
20
-1.57958801737499
30
0
41
1
10
88.5875234147383
20
-1.70862134884749
30
0
41
1
10
88.5867107843304
20
-1.7512172689236
30
0
41
1
10
88.5853408055501
20
-1.8355630361495
30
0
41
1
10
88.5847838991505
20
-1.87731965007288
30
0
41
1
10
88.5834730669621
20
-2.00039384767032
30
0
41
1
10
88.5830701300852
20
-2.07983194646897
30
0
41
1
10
88.583065166066
20
-2.19508110390967
30
0
41
1
10
88.5831642157117
20
-2.23284524345448
30
0
41
1
10
88.5835553643533
20
-2.30705942984207
30
0
41
1
10
88.5838472178347
20
-2.34343493458016
30
0
41
1
10
88.585001154639
20
-2.45012221319772
30
0
41
1
10
88.5861389681189
20
-2.51810857898229
30
0
41
1
10
88.5884197272536
20
-2.6153813089052
30
0
41
1
10
88.5892770639965
20
-2.64703950720232
30
0
41
1
10
88.5911952359696
20
-2.70868599901203
30
0
41
1
10
88.5922538170238
20
-2.73860669455411
30
0
41
1
10
88.5957508782985
20
-2.82568112920706
30
0
41
1
10
88.5985075316095
20
-2.88015226061222
30
0
41
1
10
88.6034273099974
20
-2.95647912303147
30
0
41
1
10
88.6052012565644
20
-2.98105142860513
30
0
41
1
10
88.6090321202719
20
-3.02821391959111
30
0
41
1
10
88.6110886104036
20
-3.05080710258895
30
0
41
1
10
88.6177320272639
20
-3.11564126588016
30
0
41
1
10
88.622789887339
20
-3.15494229510892
30
0
41
1
10
88.6315748931094
20
-3.20798745907311
30
0
41
1
10
88.6347070423731
20
-3.22469326556731
30
0
41
1
10
88.6413813432662
20
-3.25593620275029
30
0
41
1
10
88.6449272232428
20
-3.27049976979427
30
0
41
1
10
88.6638115848983
20
-3.33808899763702
30
0
41
1
10
88.6825660053818
20
-3.37553803297413
30
0
41
1
10
88.7067598583459
20
-3.39625348121078
30
0
0
SPLINE
5
FE
100
AcDbEntity
8
1
62
256
6
ByLayer
370
18
48
1
60
0
100
AcDbSpline
70
4
71
3
72
8
73
4
40
0
40
0
40
0
40
0
40
1
40
1
40
1
40
1
41
1
10
88.6274439546131
20
-3.52735043519249
30
0
41
1
10
88.6521535350595
20
-3.48749863653526
30
0
41
1
10
88.6768890830273
20
-3.44748610503427
30
0
41
1
10
88.701653887719
20
-3.40731355843155
30
0
0
SPLINE
5
FF
100
AcDbEntity
8
1
62
256
6
ByLayer
370
18
48
1
60
0
100
AcDbSpline
70
4
71
3
72
14
73
10
40
0
40
0
40
0
40
0
40
0.25
40
0.25
40
0.5
40
0.5
40
0.75
40
0.75
40
1
40
1
40
1
40
1
41
1
10
88.701653887719
20
-3.40731355843152
30
0
41
1
10
88.7023488672677
20
-3.40618618841364
30
0
41
1
10
88.7030553143185
20
-3.40499370150513
30
0
41
1
10
88.7044220956585
20
-3.40256429490572
30
0
41
1
10
88.7050746225539
20
-3.4013372170555
30
0
41
1
10
88.706118726619
20
-3.39920147914751
30
0
41
1
10
88.7065122344293
20
-3.39828614891181
30
0
41
1
10
88.7069408253278
20
-3.39701427160236
30
0
41
1
10
88.7069857754655
20
-3.39664479141612
30
0
41
1
10
88.7069010943791
20
-3.39649841653272
30
0
0
SPLINE
5
100
100
AcDbEntity
8
1
62
256
6
ByLayer
370
18
48
1
60
0
100
AcDbSpline
70
4
71
3
72
8
73
4
40
0
40
0
40
0
40
0
40
1
40
1
40
1
40
1
41
1
10
67.6358391536607
20
3.37736183981943
30
0
41
1
10
67.6499531743711
20
3.37743579948176
30
0
41
1
10
67.6640670586287
20
3.37748843070423
30
0
41
1
10
67.6781808434221
20
3.37751964252999
30
0
0
SPLINE
5
101
100
AcDbEntity
8
1
62
256
6
ByLayer
370
18
48
1
60
0
100
AcDbSpline
70
4
71
3
72
36
73
32
40
0
40
0
40
0
40
0
40
0.0459452304180281
40
0.0710519348807127
40
0.0710519348807127
40
0.0961586393433973
40
0.0961586393433973
40
0.196585457194135
40
0.196585457194135
40
0.297012275044872
40
0.322118979507557
40
0.322118979507557
40
0.347225683970241
40
0.347225683970241
40
0.397439092895607
40
0.397439092895607
40
0.497865910746338
40
0.497865910746338
40
0.598292728597069
40
0.598292728597069
40
0.698719546447801
40
0.698719546447801
40
0.799146364298531
40
0.799146364298531
40
0.824253068761214
40
0.824253068761214
40
0.849359773223897
40
0.849359773223897
40
0.899573182149266
40
0.899573182149266
40
1
40
1
40
1
40
1
41
1
10
78.0874227326595
20
0.229355714233606
30
0
41
1
10
78.2497787732398
20
0.1499180407952
30
0
41
1
10
78.5012636349201
20
0.0265331692194195
30
0
41
1
10
78.753571779771
20
-0.0972922233471252
30
0
41
1
10
78.9321140469715
20
-0.184856893186065
30
0
41
1
10
79.021564912249
20
-0.228698056845729
30
0
41
1
10
79.4685218019034
20
-0.447442025645273
30
0
41
1
10
79.825120496883
20
-0.620967836792175
30
0
41
1
10
80.5380304312327
20
-0.961778245009668
30
0
41
1
10
80.9834164295267
20
-1.17088226563587
30
0
41
1
10
81.4298623503335
20
-1.37254002581636
30
0
41
1
10
81.6085515130488
20
-1.4525600744266
30
0
41
1
10
81.6980063169304
20
-1.49227241544588
30
0
41
1
10
81.9659038264295
20
-1.61007780326048
30
0
41
1
10
82.1440244837401
20
-1.68690445310111
30
0
41
1
10
82.6772469923432
20
-1.91173338940348
30
0
41
1
10
83.031215187864
20
-2.05409002491123
30
0
41
1
10
83.7377133758573
20
-2.32120105873472
30
0
41
1
10
84.0902426787352
20
-2.44603703311381
30
0
41
1
10
84.7954648601912
20
-2.67603218532543
30
0
41
1
10
85.148157618752
20
-2.78115954578018
30
0
41
1
10
85.8552614074175
20
-2.96931525545068
30
0
41
1
10
86.2096727535402
20
-3.05241305379431
30
0
41
1
10
86.6547937005734
20
-3.14135574983047
30
0
41
1
10
86.743923284087
20
-3.15839495780057
30
0
41
1
10
86.9224182854342
20
-3.19094073098268
30
0
41
1
10
87.0118264255709
20
-3.20645353570814
30
0
41
1
10
87.2797901583279
20
-3.25053769038487
30
0
41
1
10
87.4582609163192
20
-3.27669010652647
30
0
41
1
10
87.9934400757689
20
-3.34522360113766
30
0
41
1
10
88.3499200649593
20
-3.37769202329315
30
0
41
1
10
88.7069010943819
20
-3.39649841653284
30
0
0
SPLINE
5
102
100
AcDbEntity
8
1
62
256
6
ByLayer
370
18
48
1
60
0
100
AcDbSpline
70
4
71
3
72
38
73
34
40
0
40
0
40
0
40
0
40
0.104876766155019
40
0.104876766155019
40
0.157315149232531
40
0.157315149232531
40
0.183534340771285
40
0.183534340771285
40
0.209753532310039
40
0.209753532310039
40
0.314630298465062
40
0.314630298465062
40
0.419507064620085
40
0.419507064620085
40
0.524383830775108
40
0.524383830775108
40
0.629260596930131
40
0.629260596930131
40
0.681698980007642
40
0.681698980007642
40
0.707918171546398
40
0.707918171546398
40
0.734137363085154
40
0.734137363085154
40
0.83901412924017
40
0.83901412924017
40
0.943890895395186
40
0.943890895395186
40
0.970110086933941
40
0.970110086933941
40
0.996329278472696
40
0.996329278472696
40
1
40
1
40
1
40
1
41
1
10
88.701653887719
20
-3.40731355843152
30
0
41
1
10
88.3446826976663
20
-3.38889789652365
30
0
41
1
10
87.9882109927207
20
-3.3567713798702
30
0
41
1
10
87.4530359251326
20
-3.28867985931947
30
0
41
1
10
87.2745652344657
20
-3.26266291187383
30
0
41
1
10
87.006599425324
20
-3.2187637484931
30
0
41
1
10
86.917190500197
20
-3.20330963017861
30
0
41
1
10
86.7386964500968
20
-3.17087543300946
30
0
41
1
10
86.6495678602247
20
-3.15388902041522
30
0
41
1
10
86.2044543104453
20
-3.06519538154794
30
0
41
1
10
85.8500586058165
20
-2.98224802830293
30
0
41
1
10
85.1429924192533
20
-2.79429285021331
30
0
41
1
10
84.7903199863994
20
-2.68921695822851
30
0
41
1
10
84.0851382718377
20
-2.45922721660412
30
0
41
1
10
83.73263097965
20
-2.33434275624702
30
0
41
1
10
83.0261691775443
20
-2.06702906864058
30
0
41
1
10
82.6722134779258
20
-1.92452125436685
30
0
41
1
10
82.1389990435643
20
-1.69938647172066
30
0
41
1
10
81.960879338524
20
-1.62244465370418
30
0
41
1
10
81.6929805140188
20
-1.5044444903867
30
0
41
1
10
81.6035251894641
20
-1.46466364083946
30
0
41
1
10
81.4248365919315
20
-1.38450134683816
30
0
41
1
10
81.3355478859909
20
-1.34409572041602
30
0
41
1
10
80.8893169482662
20
-1.14056544435954
30
0
41
1
10
80.5330114832965
20
-0.972933175767224
30
0
41
1
10
79.8201065290249
20
-0.631338284853513
30
0
41
1
10
79.4635118846817
20
-0.457372384139575
30
0
41
1
10
79.0165524560213
20
-0.238028076383841
30
0
41
1
10
78.9271014210248
20
-0.194065009809805
30
0
41
1
10
78.7485603380907
20
-0.106253741656786
30
0
41
1
10
78.6594064577498
20
-0.0623742834044378
30
0
41
1
10
78.5578886216376
20
-0.0124124066460922
30
0
41
1
10
78.54542343806
20
-0.0062777323993259
30
0
41
1
10
78.5329602413955
20
-0.0001441771579209
30
0
0
SPLINE
5
103
100
AcDbEntity
8
1
62
256
6
ByLayer
370
13
48
1
60
0
100
AcDbSpline
70
4
71
3
72
8
73
4
40
0
40
0
40
0
40
0
40
1
40
1
40
1
40
1
41
1
10
54.6454464995613
20
3.45969929015271
30
0
41
1
10
54.6450804592361
20
3.42464603266907
30
0
41
1
10
54.644710983999
20
3.38959330588233
30
0
41
1
10
54.6443380746575
20
3.3545411318637
30
0
0
SPLINE
5
104
100
AcDbEntity
8
1
62
256
6
ByLayer
370
18
48
1
60
0
100
AcDbSpline
70
4
71
3
72
54
73
50
40
0
40
0
40
0
40
0
40
0.0225645979738662
40
0.0225645979738662
40
0.0462668970447254
40
0.0462668970447254
40
0.141076093328159
40
0.141076093328159
40
0.188480691469876
40
0.188480691469876
40
0.235885289611593
40
0.235885289611593
40
0.28328988775331
40
0.28328988775331
40
0.330694485895027
40
0.330694485895027
40
0.425503682178458
40
0.425503682178458
40
0.472908280320174
40
0.472908280320174
40
0.496610579391031
40
0.496610579391031
40
0.508461728926458
40
0.508461728926458
40
0.520312878461886
40
0.520312878461886
40
0.567717476603596
40
0.567717476603596
40
0.615122074745307
40
0.615122074745307
40
0.662526672887018
40
0.662526672887018
40
0.709931271028729
40
0.709931271028729
40
0.75733586917044
40
0.75733586917044
40
0.80474046731215
40
0.80474046731215
40
0.852145065453861
40
0.852145065453861
40
0.899549663595572
40
0.899549663595572
40
0.946954261737283
40
0.946954261737283
40
0.97065656080814
40
0.97065656080814
40
0.994358859878997
40
0.994358859878997
40
1
40
1
40
1
40
1
41
1
10
55.192935636591
20
3.36410682566523
30
0
41
1
10
55.2780408174593
20
3.36651747462554
30
0
41
1
10
55.3631853014927
20
3.36808560383943
30
0
41
1
10
55.5378656475834
20
3.36959895263803
30
0
41
1
10
55.6273105474254
20
3.36945652385293
30
0
41
1
10
56.0738729041856
20
3.36427968870822
30
0
41
1
10
56.4295037587629
20
3.34587490776397
30
0
41
1
10
56.9613365261329
20
3.2994863114036
30
0
41
1
10
57.1383255199683
20
3.28091341922371
30
0
41
1
10
57.4917338297167
20
3.2380402011803
30
0
41
1
10
57.6681902257376
20
3.21366038130651
30
0
41
1
10
58.0211226933078
20
3.15831191699766
30
0
41
1
10
58.1975719420963
20
3.12740587180659
30
0
41
1
10
58.5505289942437
20
3.05953698863456
30
0
41
1
10
58.7270515787899
20
3.02255305514819
30
0
41
1
10
59.2572604468314
20
2.90243298474252
30
0
41
1
10
59.6115372109058
20
2.81018505163595
30
0
41
1
10
60.1446222878974
20
2.65560677028259
30
0
41
1
10
60.3225820397393
20
2.60137639975758
30
0
41
1
10
60.5898936058493
20
2.51616653892069
30
0
41
1
10
60.6790710919779
20
2.48711443855751
30
0
41
1
10
60.8130379254769
20
2.4425359500658
30
0
41
1
10
60.8577322669346
20
2.42750770472762
30
0
41
1
10
60.9470226800788
20
2.39717459119726
30
0
41
1
10
60.9916405098829
20
2.38186215812078
30
0
41
1
10
61.2146044789381
20
2.3045801530817
30
0
41
1
10
61.3925731064891
20
2.24046414436529
30
0
41
1
10
61.7478741506755
20
2.10822170820165
30
0
41
1
10
61.9251953046585
20
2.040086366048
30
0
41
1
10
62.2791582927909
20
1.90017196018391
30
0
41
1
10
62.4557978400935
20
1.82837788906738
30
0
41
1
10
62.8084798819323
20
1.68133356840104
30
0
41
1
10
62.9845672536132
20
1.60611535469977
30
0
41
1
10
63.3369743388395
20
1.45288512459632
30
0
41
1
10
63.5132528860709
20
1.37485624498831
30
0
41
1
10
63.8659296403067
20
1.216317676736
30
0
41
1
10
64.0423308875233
20
1.13580406864634
30
0
41
1
10
64.3952853956058
20
0.972528329032457
30
0
41
1
10
64.5718342899076
20
0.889757250942807
30
0
41
1
10
64.9250987923759
20
0.7221101265161
30
0
41
1
10
65.1018426532615
20
0.637267818165981
30
0
41
1
10
65.4561151403874
20
0.46627702309334
30
0
41
1
10
65.6336125460786
20
0.380092830512126
30
0
41
1
10
65.9003673978879
20
0.249881645709507
30
0
41
1
10
65.9893790819548
20
0.206333644560232
30
0
41
1
10
66.1676860904424
20
0.119095353664846
30
0
41
1
10
66.2570761186722
20
0.0753629415274304
30
0
41
1
10
66.3675837618181
20
0.0214066792828191
30
0
41
1
10
66.3888224004705
20
0.0110408083432105
30
0
41
1
10
66.4100551616928
20
0.0006817003506114
30
0
0
SPLINE
5
105
100
AcDbEntity
8
1
62
256
6
ByLayer
370
18
48
1
60
0
100
AcDbSpline
70
4
71
3
72
54
73
50
40
0
40
0
40
0
40
0
40
0.0713622525995853
40
0.0713622525995853
40
0.089220670818825
40
0.089220670818825
40
0.107079089038064
40
0.107079089038064
40
0.142795925476546
40
0.142795925476546
40
0.214229598353509
40
0.214229598353509
40
0.232088016572749
40
0.232088016572749
40
0.24994643479199
40
0.24994643479199
40
0.285663271230467
40
0.285663271230467
40
0.321380107668945
40
0.321380107668945
40
0.357096944107424
40
0.357096944107424
40
0.428530616984378
40
0.428530616984378
40
0.499964289861332
40
0.499964289861332
40
0.535681126299809
40
0.535681126299809
40
0.553539544519047
40
0.562468753628666
40
0.562468753628666
40
0.571397962738286
40
0.571397962738286
40
0.607114799176763
40
0.607114799176763
40
0.64283163561524
40
0.64283163561524
40
0.714265308492192
40
0.714265308492192
40
0.785698981369144
40
0.785698981369144
40
0.857132654246096
40
0.857132654246096
40
0.892849490684572
40
0.91070790890381
40
0.91070790890381
40
0.928566327123048
40
0.928566327123048
40
1
40
1
40
1
40
1
41
1
10
69.4730003036406
20
-3.39520929075437
30
0
41
1
10
69.120009591315
20
-3.44107038759799
30
0
41
1
10
68.7674466743988
20
-3.47357279091597
30
0
41
1
10
68.3261318501438
20
-3.49720438103506
30
0
41
1
10
68.2377735932815
20
-3.50108403209191
30
0
41
1
10
68.0610244275155
20
-3.50713876099235
30
0
41
1
10
67.9726314888142
20
-3.50931237593352
30
0
41
1
10
67.7072858497277
20
-3.51324989443651
30
0
41
1
10
67.5301720356562
20
-3.51243424176155
30
0
41
1
10
66.997930650149
20
-3.4996031214624
30
0
41
1
10
66.6418649415118
20
-3.477206641587
30
0
41
1
10
66.1942496636959
20
-3.43168975346265
30
0
41
1
10
66.1047310017827
20
-3.42172135488849
30
0
41
1
10
65.9260423675915
20
-3.40012225837501
30
0
41
1
10
65.8368147209204
20
-3.38848583397075
30
0
41
1
10
65.5694297218296
20
-3.35111369950664
30
0
41
1
10
65.3915726874553
20
-3.32291535051368
30
0
41
1
10
65.0365037867708
20
-3.26012822540781
30
0
41
1
10
64.8592888444023
20
-3.22553881824973
30
0
41
1
10
64.505222474817
20
-3.15024200339351
30
0
41
1
10
64.3283738596693
20
-3.10953470768158
30
0
41
1
10
63.7981418826771
20
-2.97851154620236
30
0
41
1
10
63.4450429026786
20
-2.87931730838082
30
0
41
1
10
62.7380001668668
20
-2.65905083333621
30
0
41
1
10
62.3840567047094
20
-2.53797237010409
30
0
41
1
10
61.8511790396308
20
-2.34154153332147
30
0
41
1
10
61.6732315015842
20
-2.27358945990974
30
0
41
1
10
61.4056686984412
20
-2.16814675900761
30
0
41
1
10
61.2717266318569
20
-2.11454726276898
30
0
41
1
10
61.137511164551
20
-2.0596728786046
30
0
41
1
10
61.0479699318312
20
-2.02281127031026
30
0
41
1
10
61.0031478767245
20
-2.00423300670116
30
0
41
1
10
60.7792531866598
20
-1.910817638477
30
0
41
1
10
60.6006368389676
20
-1.83433014102965
30
0
41
1
10
60.2442441575037
20
-1.678156856849
30
0
41
1
10
60.066465162132
20
-1.5984750286982
30
0
41
1
10
59.5339322916344
20
-1.3555035546938
30
0
41
1
10
59.1799882886265
20
-1.1882803277191
30
0
41
1
10
58.4727357807752
20
-0.846353600344997
30
0
41
1
10
58.1194305561187
20
-0.67164266123919
30
0
41
1
10
57.4118731414504
20
-0.317861635682391
30
0
41
1
10
57.057603715218
20
-0.138824702878338
30
0
41
1
10
56.5241575443901
20
0.130339905887922
30
0
41
1
10
56.2569252984466
20
0.265076836122887
30
0
41
1
10
55.9886735260761
20
0.399528184260788
30
0
41
1
10
55.8095846475736
20
0.489042345220724
30
0
41
1
10
55.7198817597826
20
0.533754704139653
30
0
41
1
10
55.2717108311674
20
0.756357473863886
30
0
41
1
10
54.9135023009134
20
0.93173057071769
30
0
41
1
10
54.5549059561285
20
1.10300943571832
30
0
0
SPLINE
5
106
100
AcDbEntity
8
1
62
256
6
ByLayer
370
18
48
1
60
0
100
AcDbSpline
70
4
71
3
72
16
73
12
40
0
40
0
40
0
40
0
40
0.250000000000208
40
0.250000000000208
40
0.375000000000172
40
0.375000000000172
40
0.500000000000136
40
0.500000000000136
40
0.750000000000068
40
0.750000000000068
40
1
40
1
40
1
40
1
41
1
10
54.5549059561285
20
1.10300943571832
30
0
41
1
10
54.5466178874097
20
1.10696812359637
30
0
41
1
10
54.5390932200026
20
1.11190676306009
30
0
41
1
10
54.5289222586236
20
1.12074067598149
30
0
41
1
10
54.5257105574225
20
1.12394458264831
30
0
41
1
10
54.5198625178521
20
1.1306482925358
30
0
41
1
10
54.5172000804755
20
1.13416712679265
30
0
41
1
10
54.5099899614062
20
1.14521803001327
30
0
41
1
10
54.5062123436697
20
1.15332697168483
30
0
41
1
10
54.5012174847388
20
1.16992617722397
30
0
41
1
10
54.4999174894776
20
1.17860553941833
30
0
41
1
10
54.4999174894776
20
1.18733283844509
30
0
0
SPLINE
5
107
100
AcDbEntity
8
1
62
256
6
ByLayer
370
18
48
1
60
0
100
AcDbSpline
70
4
71
3
72
27
73
23
40
0
40
0
40
0
40
0
40
0.12500000000014
40
0.12500000000014
40
0.18750000000021
40
0.18750000000021
40
0.250000000000279
40
0.312500000000349
40
0.312500000000349
40
0.375000000000419
40
0.375000000000419
40
0.500000000000417
40
0.500000000000417
40
0.625000000000415
40
0.625000000000415
40
0.687500000000414
40
0.687500000000414
40
0.750000000000413
40
0.750000000000413
40
0.875000000000207
40
0.875000000000207
40
1
40
1
40
1
40
1
41
1
10
54.4999174894778
20
3.46976527464267
30
0
41
1
10
54.4999174894778
20
3.4688772365644
30
0
41
1
10
54.5010076688364
20
3.46797873772545
30
0
41
1
10
54.5042280424444
20
3.46662021248184
30
0
41
1
10
54.5055820623221
20
3.46616235770119
30
0
41
1
10
54.5087768458675
20
3.46526560805626
30
0
41
1
10
54.5124517317383
20
3.46438665491547
30
0
41
1
10
54.5170654859493
20
3.46354701739847
30
0
41
1
10
54.5221612439949
20
3.46273029173688
30
0
41
1
10
54.524947740645
20
3.46233467015082
30
0
41
1
10
54.5337943614299
20
3.46122043568937
30
0
41
1
10
54.5404271686428
20
3.46055959126986
30
0
41
1
10
54.5550741153722
20
3.45944316493652
30
0
41
1
10
54.5628164674819
20
3.45900752409508
30
0
41
1
10
54.5750434696229
20
3.45854663637255
30
0
41
1
10
54.5792512498981
20
3.45842513064829
30
0
41
1
10
54.5876651444214
20
3.45825571544702
30
0
41
1
10
54.5918865431944
20
3.45820672999068
30
0
41
1
10
54.6045932900522
20
3.45816583783122
30
0
41
1
10
54.6132418921988
20
3.45828429940792
30
0
41
1
10
54.6298140310337
20
3.45879467494066
30
0
41
1
10
54.6377909969281
20
3.45918205961269
30
0
41
1
10
54.6454464995613
20
3.45969929015271
30
0
0
SPLINE
5
108
100
AcDbEntity
8
1
62
256
6
ByLayer
370
18
48
1
60
0
100
AcDbSpline
70
4
71
3
72
99
73
95
40
0
40
0
40
0
40
0
40
0.046926326556045
40
0.046926326556045
40
0.0703894898340668
40
0.0703894898340668
40
0.0821210714730777
40
0.0821210714730777
40
0.0938526531120886
40
0.0938526531120886
40
0.11731581639011
40
0.11731581639011
40
0.140778979668132
40
0.140778979668132
40
0.164242142946154
40
0.164242142946154
40
0.187705306224176
40
0.187705306224176
40
0.234631632780218
40
0.234631632780218
40
0.25809479605824
40
0.25809479605824
40
0.281557959336261
40
0.281557959336261
40
0.305021122614283
40
0.305021122614283
40
0.310886913433788
40
0.310886913433788
40
0.316752704253293
40
0.316752704253293
40
0.328484285892304
40
0.328484285892304
40
0.351947449170323
40
0.351947449170323
40
0.375410612448342
40
0.375410612448342
40
0.39887377572636
40
0.39887377572636
40
0.422336939004379
40
0.422336939004379
40
0.445800102282398
40
0.445800102282398
40
0.469263265560417
40
0.469263265560417
40
0.492726428838436
40
0.492726428838436
40
0.516189592116455
40
0.516189592116455
40
0.539652755394474
40
0.539652755394474
40
0.551384337033484
40
0.551384337033484
40
0.563115918672494
40
0.563115918672494
40
0.586579081950516
40
0.586579081950516
40
0.598310663589527
40
0.598310663589527
40
0.610042245228538
40
0.610042245228538
40
0.63350540850656
40
0.63350540850656
40
0.656968571784582
40
0.656968571784582
40
0.680431735062604
40
0.680431735062604
40
0.703894898340625
40
0.703894898340625
40
0.727358061618647
40
0.727358061618647
40
0.750821224896669
40
0.750821224896669
40
0.774284388174691
40
0.774284388174691
40
0.780150178994196
40
0.780150178994196
40
0.7860159698137
40
0.79774755145271
40
0.79774755145271
40
0.821210714730727
40
0.821210714730727
40
0.844673878008745
40
0.844673878008745
40
0.868137041286763
40
0.868137041286763
40
0.89160020456478
40
0.89160020456478
40
0.915063367842798
40
0.915063367842798
40
0.938526531120815
40
0.938526531120815
40
0.98545285767685
40
0.98545285767685
40
1
40
1
40
1
40
1
41
1
10
54.6454464995613
20
3.45969929015271
30
0
41
1
10
55.001961744449
20
3.48378661419701
30
0
41
1
10
55.3585519729828
20
3.49349987937208
30
0
41
1
10
55.8942021271874
20
3.48733073028632
30
0
41
1
10
56.0728747089578
20
3.48181055837904
30
0
41
1
10
56.3411213354801
20
3.46835727501224
30
0
41
1
10
56.4305768212041
20
3.46301007163669
30
0
41
1
10
56.6095808703004
20
3.45058803645696
30
0
41
1
10
56.6989997672534
20
3.44352224751631
30
0
41
1
10
56.966805607285
20
3.41979440620261
30
0
41
1
10
57.1448140829312
20
3.40059138530867
30
0
41
1
10
57.4997995117213
20
3.35541618587209
30
0
41
1
10
57.6768327437739
20
3.32946075800075
30
0
41
1
10
58.0305774883868
20
3.27123847097937
30
0
41
1
10
58.2072482913242
20
3.23895596181802
30
0
41
1
10
58.5602705164925
20
3.16816883930576
30
0
41
1
10
58.736642871739
20
3.12967571557124
30
0
41
1
10
59.2658373551515
20
3.00541382135637
30
0
41
1
10
59.6186509404042
20
2.91082662785121
30
0
41
1
10
60.1484791346095
20
2.75187425620601
30
0
41
1
10
60.3251804645419
20
2.69602795432974
30
0
41
1
10
60.6788349901141
20
2.57857028534181
30
0
41
1
10
60.8558422596007
20
2.51701687211826
30
0
41
1
10
61.2109367788719
20
2.38926245149554
30
0
41
1
10
61.3889842833302
20
2.32301778442863
30
0
41
1
10
61.6121989232503
20
2.23729490933761
30
0
41
1
10
61.6568739502714
20
2.22000319612738
30
0
41
1
10
61.7462858350294
20
2.18512013566126
30
0
41
1
10
61.7910342451244
20
2.16752407846681
30
0
41
1
10
61.9251186074069
20
2.1143787790426
30
0
41
1
10
62.0143699175919
20
2.07844147158937
30
0
41
1
10
62.2816987125041
20
1.96909198846919
30
0
41
1
10
62.459348479451
20
1.89413749850806
30
0
41
1
10
62.8136638515878
20
1.74038034540533
30
0
41
1
10
62.9903954465167
20
1.66169036940522
30
0
41
1
10
63.3438313447209
20
1.5022217397767
30
0
41
1
10
63.5204724697786
20
1.42133431556505
30
0
41
1
10
63.8735129787489
20
1.2571263106139
30
0
41
1
10
64.0499182742479
20
1.17381572946886
30
0
41
1
10
64.4025467850559
20
1.00487255906609
30
0
41
1
10
64.5787639920098
20
0.919228141005817
30
0
41
1
10
64.9310899498262
20
0.745733489705003
30
0
41
1
10
65.1072360268507
20
0.657953477004071
30
0
41
1
10
65.4600160961151
20
0.48135653529522
30
0
41
1
10
65.6366113787798
20
0.392465539641052
30
0
41
1
10
65.9902235068467
20
0.213500175523166
30
0
41
1
10
66.1672846521253
20
0.123512453968857
30
0
41
1
10
66.5225112391229
20
-0.0562365733131855
30
0
41
1
10
66.7006332421729
20
-0.146083811221672
30
0
41
1
10
66.9685047896196
20
-0.280985313405495
30
0
41
1
10
67.0579822482773
20
-0.326006078520805
30
0
41
1
10
67.236539764387
20
-0.415759860132852
30
0
41
1
10
67.3256783548752
20
-0.460522269493026
30
0
41
1
10
67.5926836765118
20
-0.594446778209289
30
0
41
1
10
67.7701278698872
20
-0.683271863262036
30
0
41
1
10
68.0355498935801
20
-0.815611905573775
30
0
41
1
10
68.1239254348998
20
-0.859522656846963
30
0
41
1
10
68.3006690944839
20
-0.946568439340041
30
0
41
1
10
68.3890197311914
20
-0.989739535012717
30
0
41
1
10
68.6539725998813
20
-1.11828419516132
30
0
41
1
10
68.8304789492001
20
-1.20268439815473
30
0
41
1
10
69.1832073152552
20
-1.36897843109495
30
0
41
1
10
69.3594277645632
20
-1.45087431002432
30
0
41
1
10
69.7116263217476
20
-1.61206322510674
30
0
41
1
10
69.8876189831292
20
-1.69132662681815
30
0
41
1
10
70.2397198147746
20
-1.84658025519977
30
0
41
1
10
70.4158388921709
20
-1.92254956318683
30
0
41
1
10
70.7687016679751
20
-2.07034892163324
30
0
41
1
10
70.9454207255598
20
-2.142226827781
30
0
41
1
10
71.2993628582866
20
-2.28204529082106
30
0
41
1
10
71.4765842797614
20
-2.34998757144669
30
0
41
1
10
71.8315560042745
20
-2.48181942508316
30
0
41
1
10
72.0093303957289
20
-2.54566596947572
30
0
41
1
10
72.2322293958457
20
-2.62236712086275
30
0
41
1
10
72.2768637938772
20
-2.63755975030764
30
0
41
1
10
72.3660598322634
20
-2.66757692618268
30
0
41
1
10
72.4997680733363
20
-2.71205976129249
30
0
41
1
10
72.6332504782981
20
-2.75488226939689
30
0
41
1
10
72.8999840005583
20
-2.83825866111698
30
0
41
1
10
73.077482842236
20
-2.89084521794857
30
0
41
1
10
73.4317908843549
20
-2.99019517820312
30
0
41
1
10
73.608598081547
20
-3.03695845631728
30
0
41
1
10
73.9615511111584
20
-3.12462260313856
30
0
41
1
10
74.1377196168145
20
-3.16549101328261
30
0
41
1
10
74.4898862352057
20
-3.24090108699863
30
0
41
1
10
74.6658663526864
20
-3.27546658161833
30
0
41
1
10
75.0177064417074
20
-3.33824651334683
30
0
41
1
10
75.1935850537458
20
-3.36643892215199
30
0
41
1
10
75.5457225125699
20
-3.41615680806493
30
0
41
1
10
75.721967604634
20
-3.43769789563064
30
0
41
1
10
76.2514232711884
20
-3.49230776727734
30
0
41
1
10
76.6053490308273
20
-3.51543538918398
30
0
41
1
10
77.0703149640603
20
-3.52767844346911
30
0
41
1
10
77.1804420138719
20
-3.52923705073025
30
0
41
1
10
77.2907628517899
20
-3.52944079149117
30
0
0
SPLINE
5
109
100
AcDbEntity
8
1
62
256
6
ByLayer
370
18
48
1
60
0
100
AcDbSpline
70
4
71
3
72
8
73
4
40
0
40
0
40
0
40
0
40
1
40
1
40
1
40
1
41
1
10
83.9953826983981
20
-2.39852672580648
30
0
41
1
10
83.9836134371086
20
-2.40295023372599
30
0
41
1
10
83.9718433737835
20
-2.40736469092386
30
0
41
1
10
83.9600725557312
20
-2.41177015968199
30
0
0
SPLINE
5
10A
100
AcDbEntity
8
1
62
256
6
ByLayer
370
18
48
1
60
0
100
AcDbSpline
70
4
71
3
72
145
73
141
40
0
40
0
40
0
40
0
40
0.0014422885100172
40
0.0014422885100172
40
0.0070762182086972
40
0.0070762182086972
40
0.0127101479073773
40
0.0127101479073773
40
0.035245866702095
40
0.035245866702095
40
0.0465137260994539
40
0.0465137260994539
40
0.0577815854968129
40
0.0577815854968129
40
0.0803173042915295
40
0.0803173042915295
40
0.102853023086246
40
0.102853023086246
40
0.114120882483604
40
0.114120882483604
40
0.125388741880961
40
0.125388741880961
40
0.147924460675677
40
0.147924460675677
40
0.159192320073035
40
0.159192320073035
40
0.170460179470392
40
0.170460179470392
40
0.18172803886775
40
0.18172803886775
40
0.192995898265108
40
0.192995898265108
40
0.215531617059824
40
0.215531617059824
40
0.226799476457182
40
0.226799476457182
40
0.23806733585454
40
0.23806733585454
40
0.260603054649255
40
0.260603054649255
40
0.28313877344397
40
0.28313877344397
40
0.305674492238686
40
0.305674492238686
40
0.328210211033401
40
0.328210211033401
40
0.339478070430758
40
0.339478070430758
40
0.350745929828115
40
0.350745929828115
40
0.362013789225472
40
0.362013789225472
40
0.373281648622829
40
0.373281648622829
40
0.395817367417542
40
0.395817367417542
40
0.407085226814898
40
0.407085226814898
40
0.418353086212254
40
0.418353086212254
40
0.440888805006967
40
0.440888805006967
40
0.46342452380168
40
0.46342452380168
40
0.474692383199036
40
0.474692383199036
40
0.485960242596392
40
0.485960242596392
40
0.508495961391103
40
0.508495961391103
40
0.519763820788457
40
0.519763820788457
40
0.531031680185812
40
0.531031680185812
40
0.542299539583166
40
0.542299539583166
40
0.553567398980521
40
0.564835258377876
40
0.564835258377876
40
0.57610311777523
40
0.57610311777523
40
0.587370977172585
40
0.587370977172585
40
0.59863883656994
40
0.59863883656994
40
0.621174555364648
40
0.621174555364648
40
0.643710274159356
40
0.643710274159356
40
0.65497813355671
40
0.65497813355671
40
0.666245992954064
40
0.666245992954064
40
0.688781711748772
40
0.688781711748772
40
0.700049571146126
40
0.700049571146126
40
0.71131743054348
40
0.71131743054348
40
0.722585289940834
40
0.722585289940834
40
0.733853149338188
40
0.733853149338188
40
0.756388868132897
40
0.756388868132897
40
0.762022797831574
40
0.762022797831574
40
0.767656727530252
40
0.767656727530252
40
0.778924586927607
40
0.778924586927607
40
0.801460305722317
40
0.801460305722317
40
0.823996024517026
40
0.823996024517026
40
0.83526388391438
40
0.83526388391438
40
0.846531743311735
40
0.846531743311735
40
0.869067462106444
40
0.869067462106444
40
0.880335321503798
40
0.880335321503798
40
0.891603180901152
40
0.891603180901152
40
0.902871040298506
40
0.902871040298506
40
0.91413889969586
40
0.91413889969586
40
0.936674618490567
40
0.936674618490567
40
0.94794247788792
40
0.94794247788792
40
0.953576407586598
40
0.953576407586598
40
0.959210337285275
40
0.959210337285275
40
0.981746056079983
40
0.981746056079983
40
1
40
1
40
1
40
1
41
1
10
83.566350750972
20
-2.5554225328722
30
0
41
1
10
83.5533284769734
20
-2.56003898069093
30
0
41
1
10
83.5403037836002
20
-2.56464214112575
30
0
41
1
10
83.4763891070647
20
-2.58716041854223
30
0
41
1
10
83.4254646292934
20
-2.60488602501513
30
0
41
1
10
83.3235338318681
20
-2.63991951593383
30
0
41
1
10
83.2725017620629
20
-2.65723576855436
30
0
41
1
10
83.0174988806164
20
-2.74262063416276
30
0
41
1
10
82.8139899607806
20
-2.80706433280784
30
0
41
1
10
82.5093015137596
20
-2.89788426979859
30
0
41
1
10
82.4078265548815
20
-2.92717594282101
30
0
41
1
10
82.2052247719297
20
-2.98399187023054
30
0
41
1
10
82.1040753346451
20
-3.01148534965526
30
0
41
1
10
81.8007517140429
20
-3.09086927229475
30
0
41
1
10
81.5987732691697
20
-3.1397427844768
30
0
41
1
10
81.194837698167
20
-3.22907672739501
30
0
41
1
10
80.9928368686967
20
-3.26951442007299
30
0
41
1
10
80.6898742770218
20
-3.3239292880584
30
0
41
1
10
80.588960114491
20
-3.34106980286788
30
0
41
1
10
80.3870881514598
20
-3.37320254022524
30
0
41
1
10
80.2861151104053
20
-3.38818700795312
30
0
41
1
10
79.982999304238
20
-3.42984387663381
30
0
41
1
10
79.7806500782847
20
-3.45321259461872
30
0
41
1
10
79.4764164594254
20
-3.48153246045595
30
0
41
1
10
79.3748928052974
20
-3.48985367685177
30
0
41
1
10
79.1716195524746
20
-3.50425097082652
30
0
41
1
10
79.0698868304897
20
-3.51033337149602
30
0
41
1
10
78.8663173345495
20
-3.5202465349852
30
0
41
1
10
78.7644185506524
20
-3.52406212039603
30
0
41
1
10
78.5602862955394
20
-3.52937034910826
30
0
41
1
10
78.4583806679317
20
-3.53085697044133
30
0
41
1
10
78.1530529797701
20
-3.53185407559261
30
0
41
1
10
77.9499979039371
20
-3.52790501806001
30
0
41
1
10
77.6459758413512
20
-3.51524240765329
30
0
41
1
10
77.5447194529254
20
-3.50990201459726
30
0
41
1
10
77.3425268334307
20
-3.49695160648363
30
0
41
1
10
77.2416004087368
20
-3.48933329002702
30
0
41
1
10
76.9389495333037
20
-3.46315380181798
30
0
41
1
10
76.7374258334028
20
-3.44125218366426
30
0
41
1
10
76.3344119827284
20
-3.38885847682849
30
0
41
1
10
76.1328855487963
20
-3.35839775497294
30
0
41
1
10
75.7298184521272
20
-3.2889952460969
30
0
41
1
10
75.5285345510335
20
-3.24985004912682
30
0
41
1
10
75.1253438564308
20
-3.16339772687897
30
0
41
1
10
74.9234927696205
20
-3.11606349693594
30
0
41
1
10
74.6200196628594
20
-3.03919898160621
30
0
41
1
10
74.5187501471991
20
-3.01259740231785
30
0
41
1
10
74.3159868206071
20
-2.95742896900282
30
0
41
1
10
74.2144895976828
20
-2.92886821092554
30
0
41
1
10
74.0114175810577
20
-2.86958062395081
30
0
41
1
10
73.9097948575644
20
-2.83890550483272
30
0
41
1
10
73.7061991176346
20
-2.77568622092207
30
0
41
1
10
73.604234380084
20
-2.74312155761797
30
0
41
1
10
73.2978135780399
20
-2.64268500254386
30
0
41
1
10
73.0941198360302
20
-2.57252829061787
30
0
41
1
10
72.7892420390234
20
-2.4629026958313
30
0
41
1
10
72.6877201236898
20
-2.42563959437055
30
0
41
1
10
72.4849972890007
20
-2.34950575823677
30
0
41
1
10
72.3838366329558
20
-2.31057097307129
30
0
41
1
10
72.0805719368068
20
-2.19175227742801
30
0
41
1
10
71.8787246513879
20
-2.10979651157555
30
0
41
1
10
71.4752304265842
20
-1.94120409970205
30
0
41
1
10
71.2735523949654
20
-1.85462453821367
30
0
41
1
10
70.971100457806
20
-1.72143051528556
30
0
41
1
10
70.8703395363285
20
-1.67639858885721
30
0
41
1
10
70.668920304268
20
-1.58507129193234
30
0
41
1
10
70.5682081347488
20
-1.53887124851352
30
0
41
1
10
70.265934894589
20
-1.39889436922701
30
0
41
1
10
70.0642500748105
20
-1.30371654109936
30
0
41
1
10
69.7611453816364
20
-1.15877602834908
30
0
41
1
10
69.6600164917974
20
-1.1100966961948
30
0
41
1
10
69.4575707502756
20
-1.01200545839495
30
0
41
1
10
69.3562396653711
20
-0.962622638523072
30
0
41
1
10
69.1535366510652
20
-0.862820822475101
30
0
41
1
10
69.0521412345986
20
-0.812445698776855
30
0
41
1
10
68.8490380143645
20
-0.711187229297394
30
0
41
1
10
68.645660913191
20
-0.609344413423798
30
0
41
1
10
68.4416145793738
20
-0.506572221023418
30
0
41
1
10
68.237180678445
20
-0.403442473301538
30
0
41
1
10
68.135042919139
20
-0.351847424268243
30
0
41
1
10
67.9311007258985
20
-0.248713324565529
30
0
41
1
10
67.8292567454639
20
-0.19717728887062
30
0
41
1
10
67.6258977695975
20
-0.0940049694237644
30
0
41
1
10
67.5244374558339
20
-0.0422548118747841
30
0
41
1
10
67.2203934831131
20
0.112813621857214
30
0
41
1
10
67.018116575111
20
0.215888625413356
30
0
41
1
10
66.6139352518666
20
0.420514138858351
30
0
41
1
10
66.4120018452261
20
0.522008376873032
30
0
41
1
10
66.1092614908632
20
0.672893173514012
30
0
41
1
10
66.0084024134834
20
0.723017250166919
30
0
41
1
10
65.8068670279831
20
0.823064017668599
30
0
41
1
10
65.7061309470009
20
0.87286841878452
30
0
41
1
10
65.4038384374592
20
1.0212744683767
30
0
41
1
10
65.202230068322
20
1.11893199242957
30
0
41
1
10
64.8993702940717
20
1.26287973178077
30
0
41
1
10
64.7983422700651
20
1.3104391891008
30
0
41
1
10
64.5961371969343
20
1.40471335924639
30
0
41
1
10
64.4949439711106
20
1.45139827574135
30
0
41
1
10
64.2925315220254
20
1.54414803435566
30
0
41
1
10
64.1913238052367
20
1.59023263377637
30
0
41
1
10
63.9886414522102
20
1.681327178494
30
0
41
1
10
63.8871863135146
20
1.72637363756516
30
0
41
1
10
63.5823890681951
20
1.85984337047145
30
0
41
1
10
63.3786002153169
20
1.94657004298307
30
0
41
1
10
63.1229157860223
20
2.05177759429458
30
0
41
1
10
63.0717385851153
20
2.0726600890678
30
0
41
1
10
62.9695190012433
20
2.11402076321605
30
0
41
1
10
62.9184466513612
20
2.13450742209474
30
0
41
1
10
62.7653664008736
20
2.19543108603483
30
0
41
1
10
62.6635407274711
20
2.23540668080878
30
0
41
1
10
62.3585409072484
20
2.35305961498142
30
0
41
1
10
62.1557214009772
20
2.42826720066225
30
0
41
1
10
61.7506370662593
20
2.57166356099518
30
0
41
1
10
61.5483437728535
20
2.63981979023615
30
0
41
1
10
61.2451770749716
20
2.73670534216765
30
0
41
1
10
61.1441772211779
20
2.76812336289905
30
0
41
1
10
60.9424281543676
20
2.82936349746166
30
0
41
1
10
60.8416224895725
20
2.85911307180598
30
0
41
1
10
60.5391758019036
20
2.9454714105047
30
0
41
1
10
60.3375559019759
20
2.99925023982428
30
0
41
1
10
60.0348112275322
20
3.07392271354189
30
0
41
1
10
59.933841823885
20
3.09781359221753
30
0
41
1
10
59.7317929177447
20
3.14359973707505
30
0
41
1
10
59.630699025053
20
3.16548339368896
30
0
41
1
10
59.4284980694334
20
3.20732936308215
30
0
41
1
10
59.3274289436108
20
3.22731864688183
30
0
41
1
10
59.1250840671858
20
3.26518718437225
30
0
41
1
10
59.0238210671665
20
3.2830788931204
30
0
41
1
10
58.719672520275
20
3.33355434282799
30
0
41
1
10
58.5164139698583
20
3.36292849101341
30
0
41
1
10
58.2105178856311
20
3.40039037968782
30
0
41
1
10
58.1083890851432
20
3.41178145965085
30
0
41
1
10
57.9549647254991
20
3.42721882919349
30
0
41
1
10
57.9037604042744
20
3.43209351963728
30
0
41
1
10
57.8014969960822
20
3.44128514609238
30
0
41
1
10
57.7504282489405
20
3.44560243439435
30
0
41
1
10
57.4953006534876
20
3.46575722344761
30
0
41
1
10
57.2918211247451
20
3.47727429525108
30
0
41
1
10
56.9241865205439
20
3.48985633350276
30
0
41
1
10
56.7598903584923
20
3.49249616660074
30
0
41
1
10
56.5957754656082
20
3.49219303631102
30
0
0
SPLINE
5
10B
100
AcDbEntity
8
1
62
256
6
ByLayer
370
18
48
1
60
0
100
AcDbSpline
70
4
71
3
72
148
73
144
40
0
40
0
40
0
40
0
40
0.0192158539844933
40
0.0192158539844933
40
0.0420375258238529
40
0.0420375258238529
40
0.0534483617435324
40
0.0534483617435324
40
0.0648591976632118
40
0.0648591976632118
40
0.0762700335828913
40
0.0762700335828913
40
0.0876808695025704
40
0.0876808695025704
40
0.110502541341929
40
0.110502541341929
40
0.116207959301769
40
0.116207959301769
40
0.121913377261608
40
0.121913377261608
40
0.133324213181287
40
0.133324213181287
40
0.156145885020642
40
0.156145885020642
40
0.178967556859998
40
0.178967556859998
40
0.190378392779676
40
0.190378392779676
40
0.201789228699355
40
0.201789228699355
40
0.224610900538711
40
0.224610900538711
40
0.23602173645839
40
0.23602173645839
40
0.247432572378069
40
0.247432572378069
40
0.258843408297748
40
0.258843408297748
40
0.270254244217426
40
0.270254244217426
40
0.293075916056782
40
0.293075916056782
40
0.30448675197646
40
0.30448675197646
40
0.315897587896137
40
0.315897587896137
40
0.338719259735491
40
0.338719259735491
40
0.361540931574845
40
0.361540931574845
40
0.372951767494521
40
0.372951767494521
40
0.384362603414197
40
0.384362603414197
40
0.407184275253548
40
0.407184275253548
40
0.418595111173224
40
0.418595111173224
40
0.4300059470929
40
0.4300059470929
40
0.441416783012576
40
0.441416783012576
40
0.452827618932252
40
0.452827618932252
40
0.475649290771605
40
0.475649290771605
40
0.48706012669128
40
0.48706012669128
40
0.498470962610956
40
0.498470962610956
40
0.504176380570793
40
0.504176380570793
40
0.50988179853063
40
0.50988179853063
40
0.521292634450305
40
0.521292634450305
40
0.544114306289655
40
0.544114306289655
40
0.55552514220933
40
0.55552514220933
40
0.566935978129005
40
0.566935978129005
40
0.589757649968354
40
0.589757649968354
40
0.60116848588803
40
0.60116848588803
40
0.612579321807705
40
0.612579321807705
40
0.62399015772738
40
0.62399015772738
40
0.635400993647055
40
0.635400993647055
40
0.658222665486406
40
0.658222665486406
40
0.669633501406082
40
0.669633501406082
40
0.681044337325757
40
0.681044337325757
40
0.703866009165108
40
0.703866009165108
40
0.715276845084783
40
0.715276845084783
40
0.726687681004458
40
0.726687681004458
40
0.738098516924134
40
0.738098516924134
40
0.749509352843809
40
0.749509352843809
40
0.772331024683159
40
0.772331024683159
40
0.783741860602835
40
0.783741860602835
40
0.79515269652251
40
0.79515269652251
40
0.806563532442185
40
0.806563532442185
40
0.81797436836186
40
0.81797436836186
40
0.84079604020121
40
0.84079604020121
40
0.852206876120884
40
0.852206876120884
40
0.863617712040559
40
0.863617712040559
40
0.886439383879908
40
0.886439383879908
40
0.897850219799583
40
0.897850219799583
40
0.909261055719258
40
0.909261055719258
40
0.920671891638933
40
0.920671891638933
40
0.932082727558608
40
0.932082727558608
40
0.954904399397957
40
0.954904399397957
40
0.966315235317633
40
0.966315235317633
40
0.977726071237308
40
0.977726071237308
40
0.989136907156983
40
0.989136907156983
40
1
40
1
40
1
40
1
41
1
10
39.9491778221581
20
-2.5783081682732
30
0
41
1
10
39.7789038035452
20
-2.63502561485743
30
0
41
1
10
39.6088670106412
20
-2.68959818140655
30
0
41
1
10
39.2366422433669
20
-2.80323675698477
30
0
41
1
10
39.0344648117765
20
-2.86131224822452
30
0
41
1
10
38.7307327385832
20
-2.94266785282764
30
0
41
1
10
38.6294155750471
20
-2.96883305082335
30
0
41
1
10
38.4266393822508
20
-3.0192617214459
30
0
41
1
10
38.3251756273029
20
-3.04352238627874
30
0
41
1
10
38.122272127613
20
-3.09028423490565
30
0
41
1
10
38.020781510987
20
-3.11273185890647
30
0
41
1
10
37.8175317746592
20
-3.15556845497264
30
0
41
1
10
37.7157899386057
20
-3.17597440696724
30
0
41
1
10
37.4101214903384
20
-3.2340683325364
30
0
41
1
10
37.2057320155783
20
-3.26861811219339
30
0
41
1
10
36.9493192034188
20
-3.30643396487025
30
0
41
1
10
36.89800875591
20
-3.31372708373795
30
0
41
1
10
36.7955207387569
20
-3.32774880594573
30
0
41
1
10
36.7443173233228
20
-3.33448181232569
30
0
41
1
10
36.5908732867702
20
-3.35387328039798
30
0
41
1
10
36.4888266558441
20
-3.36573454919369
30
0
41
1
10
36.1830254703355
20
-3.39790470003794
30
0
41
1
10
35.9796561935517
20
-3.41483203677549
30
0
41
1
10
35.5734439859899
20
-3.43967838069247
30
0
41
1
10
35.3705650980579
20
-3.44760220227849
30
0
41
1
10
35.066586538753
20
-3.45284841657548
30
0
41
1
10
34.9653730213182
20
-3.45349269267911
30
0
41
1
10
34.7631260434351
20
-3.45254499918434
30
0
41
1
10
34.6620394187828
20
-3.45095310526946
30
0
41
1
10
34.3587744501014
20
-3.44284009188166
30
0
41
1
10
34.1565968187035
20
-3.43297925941201
30
0
41
1
10
33.8530069790668
20
-3.41164074640397
30
0
41
1
10
33.7517600644365
20
-3.40343737049673
30
0
41
1
10
33.5491706107191
20
-3.38485225683951
30
0
41
1
10
33.4478169572566
20
-3.37447750458517
30
0
41
1
10
33.2451846359621
20
-3.35145396191601
30
0
41
1
10
33.1438656108974
20
-3.33881752981756
30
0
41
1
10
32.9410062024362
20
-3.31138666823978
30
0
41
1
10
32.8394853299191
20
-3.29658380784056
30
0
41
1
10
32.5345576354708
20
-3.24896209831704
30
0
41
1
10
32.3307670808939
20
-3.21294408265624
30
0
41
1
10
32.0241171377796
20
-3.15264644086702
30
0
41
1
10
31.9217351613549
20
-3.1315083396438
30
0
41
1
10
31.7167434377988
20
-3.08703513995334
30
0
41
1
10
31.6141320897291
20
-3.06362938617781
30
0
41
1
10
31.3070552929047
20
-2.99059286007301
30
0
41
1
10
31.1029428582924
20
-2.93805258539894
30
0
41
1
10
30.6954493694939
20
-2.82595616910669
30
0
41
1
10
30.4920340533957
20
-2.76644931645146
30
0
41
1
10
30.1873805296246
20
-2.67212592762181
30
0
41
1
10
30.0859564972083
20
-2.63977662300042
30
0
41
1
10
29.8833603144444
20
-2.57324963831462
30
0
41
1
10
29.7821290800007
20
-2.53915117390375
30
0
41
1
10
29.4785013959477
20
-2.43454667808575
30
0
41
1
10
29.2761849536522
20
-2.36171098326716
30
0
41
1
10
28.9725370936839
20
-2.24834869407542
30
0
41
1
10
28.8712949502498
20
-2.2098734997532
30
0
41
1
10
28.66876371373
20
-2.13154441651767
30
0
41
1
10
28.567459663125
20
-2.09171631607418
30
0
41
1
10
28.36497413695
20
-2.01039292669617
30
0
41
1
10
28.2637637447205
20
-1.96894111850151
30
0
41
1
10
28.061170780938
20
-1.88484525878152
30
0
41
1
10
27.9598091382246
20
-1.84216707985698
30
0
41
1
10
27.6554369657142
20
-1.71240137804682
30
0
41
1
10
27.4521212200231
20
-1.62361550695527
30
0
41
1
10
27.146330320715
20
-1.48742336913332
30
0
41
1
10
27.0442611211386
20
-1.44153025058469
30
0
41
1
10
26.8399324655233
20
-1.34856963597252
30
0
41
1
10
26.7377320082809
20
-1.30138266003456
30
0
41
1
10
26.5841995565689
20
-1.22987246549116
30
0
41
1
10
26.5329817781973
20
-1.20591803146002
30
0
41
1
10
26.4304585188486
20
-1.15778690626291
30
0
41
1
10
26.3791321316057
20
-1.13360026086403
30
0
41
1
10
26.2253284599823
20
-1.06088018758541
30
0
41
1
10
26.1229398212865
20
-1.0121485386986
30
0
41
1
10
25.8161301857011
20
-0.865374670326787
30
0
41
1
10
25.6120290555966
20
-0.766829260186825
30
0
41
1
10
25.3064857960298
20
-0.618062578118156
30
0
41
1
10
25.2047809962171
20
-0.568229111921994
30
0
41
1
10
25.0016919433403
20
-0.468001917980558
30
0
41
1
10
24.9002448685125
20
-0.417738830381921
30
0
41
1
10
24.596040960575
20
-0.266822085294223
30
0
41
1
10
24.3934432219137
20
-0.165995807548882
30
0
41
1
10
24.089521524939
20
-0.0151164140925175
30
0
41
1
10
23.988211978827
20
0.0351206528456203
30
0
41
1
10
23.7855939355557
20
0.135494928388994
30
0
41
1
10
23.684268413245
20
0.185597185908676
30
0
41
1
10
23.4817846528424
20
0.28604338694467
30
0
41
1
10
23.3806081981912
20
0.336349547263211
30
0
41
1
10
23.1781330910407
20
0.436607366046587
30
0
41
1
10
23.0768561820058
20
0.486603787335412
30
0
41
1
10
22.7728162592031
20
0.636008924541272
30
0
41
1
10
22.5698265746493
20
0.734797768895106
30
0
41
1
10
22.2646753313476
20
0.881306364322455
30
0
41
1
10
22.1628460252468
20
0.929861284591254
30
0
41
1
10
21.959038930335
20
1.02656263107406
30
0
41
1
10
21.8571230438567
20
1.07483482903586
30
0
41
1
10
21.5510226716562
20
1.21877094968141
30
0
41
1
10
21.3464207221862
20
1.31342314651343
30
0
41
1
10
21.0383611504276
20
1.45272317427543
30
0
41
1
10
20.9357322908948
20
1.49859299989657
30
0
41
1
10
20.7308016408535
20
1.58903972475926
30
0
41
1
10
20.6284632652659
20
1.63364315354932
30
0
41
1
10
20.424046058056
20
1.72163980392727
30
0
41
1
10
20.3219971305874
20
1.7650901774814
30
0
41
1
10
20.1182848690688
20
1.85100534215388
30
0
41
1
10
20.0165566718454
20
1.89335015143399
30
0
41
1
10
19.7115823072227
20
2.01825305083494
30
0
41
1
10
19.5085751683561
20
2.09873017396126
30
0
41
1
10
19.2041925318469
20
2.21479134592843
30
0
41
1
10
19.1027541327061
20
2.25270580194231
30
0
41
1
10
18.8999281344013
20
2.32701018234599
30
0
41
1
10
18.7985225735472
20
2.36337448140603
30
0
41
1
10
18.5959235849739
20
2.43481429279828
30
0
41
1
10
18.4947212514858
20
2.46987154625793
30
0
41
1
10
18.2922451304089
20
2.53826699141592
30
0
41
1
10
18.1909934802156
20
2.57163868265525
30
0
41
1
10
17.8871063492984
20
2.6691562219485
30
0
41
1
10
17.6843213099749
20
2.73068173728785
30
0
41
1
10
17.3796250775882
20
2.81748338911012
30
0
41
1
10
17.2779732650636
20
2.84550420830683
30
0
41
1
10
17.0745653504559
20
2.89979273963931
30
0
41
1
10
16.97287219145
20
2.9261295495962
30
0
41
1
10
16.6675443077876
20
3.00235864162809
30
0
41
1
10
16.4635649551353
20
3.04936877054249
30
0
41
1
10
16.1566038833236
20
3.11378648443903
30
0
41
1
10
16.0541171390408
20
3.13424287472711
30
0
41
1
10
15.8487712587328
20
3.17308471311659
30
0
41
1
10
15.7458655401059
20
3.19148074264072
30
0
41
1
10
15.5405535882325
20
3.2260669388406
30
0
41
1
10
15.438068974561
20
3.24229648435519
30
0
41
1
10
15.2335362131601
20
3.27268012421473
30
0
41
1
10
15.1314219303898
20
3.28678705420504
30
0
41
1
10
14.8253423215936
20
3.325760780298
30
0
41
1
10
14.6216754742909
20
3.34730126317066
30
0
41
1
10
14.3164119451395
20
3.3729407876281
30
0
41
1
10
14.2146974906741
20
3.38037754666709
30
0
41
1
10
14.0113547776025
20
3.39305239185006
30
0
41
1
10
13.9097082408556
20
3.39828835439633
30
0
41
1
10
13.7066593471549
20
3.40658957898333
30
0
41
1
10
13.6052560618965
20
3.40964771668345
30
0
41
1
10
13.4072994581011
20
3.41343563132304
30
0
41
1
10
13.3107635992372
20
3.41427387588681
30
0
41
1
10
13.2141942489557
20
3.41410586769416
30
0
0
SPLINE
5
10C
100
AcDbEntity
8
1
62
256
6
ByLayer
370
18
48
1
60
0
100
AcDbSpline
70
4
71
3
72
112
73
108
40
0
40
0
40
0
40
0
40
0.0205635330633553
40
0.0205635330633553
40
0.0329214173429998
40
0.0329214173429998
40
0.0452793016226442
40
0.0452793016226442
40
0.0699950701819332
40
0.0699950701819332
40
0.0947108387412222
40
0.0947108387412222
40
0.119426607300511
40
0.119426607300511
40
0.131784491580155
40
0.131784491580155
40
0.144142375859799
40
0.144142375859799
40
0.168858144419087
40
0.168858144419087
40
0.193573912978375
40
0.193573912978375
40
0.218289681537663
40
0.218289681537663
40
0.224468623677485
40
0.224468623677485
40
0.230647565817307
40
0.243005450096952
40
0.243005450096952
40
0.255363334376596
40
0.255363334376596
40
0.267721218656241
40
0.267721218656241
40
0.317152755774818
40
0.317152755774818
40
0.341868524334106
40
0.341868524334106
40
0.366584292893395
40
0.366584292893395
40
0.378942177173039
40
0.378942177173039
40
0.391300061452683
40
0.391300061452683
40
0.416015830011973
40
0.416015830011973
40
0.422194772151795
40
0.422194772151795
40
0.428373714291617
40
0.428373714291617
40
0.440731598571262
40
0.440731598571262
40
0.465447367130555
40
0.465447367130555
40
0.490163135689847
40
0.490163135689847
40
0.502521019969492
40
0.502521019969492
40
0.514878904249138
40
0.514878904249138
40
0.52105784638896
40
0.52105784638896
40
0.527236788528783
40
0.539594672808428
40
0.539594672808428
40
0.564310441367721
40
0.564310441367721
40
0.589026209927013
40
0.589026209927013
40
0.613741978486305
40
0.613741978486305
40
0.638457747045597
40
0.638457747045597
40
0.663173515604889
40
0.663173515604889
40
0.687889284164181
40
0.687889284164181
40
0.712605052723473
40
0.712605052723473
40
0.72496293700312
40
0.72496293700312
40
0.737320821282766
40
0.737320821282766
40
0.762036589842058
40
0.762036589842058
40
0.78675235840135
40
0.78675235840135
40
0.811468126960642
40
0.811468126960642
40
0.836183895519934
40
0.836183895519934
40
0.860899664079226
40
0.860899664079226
40
0.885615432638519
40
0.885615432638519
40
0.897973316918165
40
0.897973316918165
40
0.910331201197812
40
0.910331201197812
40
0.935046969757105
40
0.935046969757105
40
0.959762738316399
40
0.959762738316399
40
0.984478506875692
40
0.984478506875692
40
0.996836391155339
40
0.996836391155339
40
1
40
1
40
1
40
1
41
1
10
18.2583730873789
20
2.55244820409763
30
0
41
1
10
18.4425070453802
20
2.61342120010215
30
0
41
1
10
18.6267380033679
20
2.6717413229776
30
0
41
1
10
18.9220022189194
20
2.76062200662005
30
0
41
1
10
19.0329865015353
20
2.79297508767317
30
0
41
1
10
19.2548077795175
20
2.85544232775447
30
0
41
1
10
19.365634616183
20
2.88555628556478
30
0
41
1
10
19.697909562292
20
2.9725044405549
30
0
41
1
10
19.9191625496995
20
3.02593329272392
30
0
41
1
10
20.3614954440797
20
3.12339516102247
30
0
41
1
10
20.5825390867809
20
3.16745268985633
30
0
41
1
10
21.0250039029198
20
3.24570112819347
30
0
41
1
10
21.2463863366443
20
3.2799282020531
30
0
41
1
10
21.5789418088491
20
3.32371132945144
30
0
41
1
10
21.6899352290943
20
3.33704583230127
30
0
41
1
10
21.9116273526375
20
3.36111629225508
30
0
41
1
10
22.0223663704635
20
3.37186054210289
30
0
41
1
10
22.354424960176
20
3.40016677177457
30
0
41
1
10
22.5755836507462
20
3.41380855332852
30
0
41
1
10
23.0178049207917
20
3.43060753877418
30
0
41
1
10
23.2388756809278
20
3.43376400101161
30
0
41
1
10
23.6812535542933
20
3.42953718180337
30
0
41
1
10
23.9025523622368
20
3.42214460056709
30
0
41
1
10
24.1796824237406
20
3.40631172559858
30
0
41
1
10
24.2351564382635
20
3.40281378973552
30
0
41
1
10
24.3460066817365
20
3.39516881821538
30
0
41
1
10
24.5121388182383
20
3.38272882018549
30
0
41
1
10
24.6778615873548
20
3.36739055670009
30
0
41
1
10
24.8985174278052
20
3.34440667290744
30
0
41
1
10
25.0086979022143
20
3.33165215106101
30
0
41
1
10
25.2287636774496
20
3.30363204310714
30
0
41
1
10
25.3386527658017
20
3.28836709042878
30
0
41
1
10
25.8876186862136
20
3.20594296831874
30
0
41
1
10
26.3252494585239
20
3.12051266771681
30
0
41
1
10
26.9812895891771
20
2.96499036637638
30
0
41
1
10
27.1999024443928
20
2.90857743133779
30
0
41
1
10
27.6375346947221
20
2.78717440145567
30
0
41
1
10
27.8565152385619
20
2.72214468054361
30
0
41
1
10
28.1854962180198
20
2.61838354201726
30
0
41
1
10
28.2952505416587
20
2.58277300551788
30
0
41
1
10
28.5149460177734
20
2.5094867209732
30
0
41
1
10
28.6248920323105
20
2.47181646047213
30
0
41
1
10
28.9551668589277
20
2.35590582746124
30
0
41
1
10
29.1759296947453
20
2.27476602578156
30
0
41
1
10
29.4528088664181
20
2.16873202895621
30
0
41
1
10
29.5082528026269
20
2.14728549550483
30
0
41
1
10
29.6190660085675
20
2.10400710220259
30
0
41
1
10
29.6744484321906
20
2.08217039831987
30
0
41
1
10
29.84053430597
20
2.01608690526459
30
0
41
1
10
29.9511821671778
20
1.97127666124291
30
0
41
1
10
30.2828920081006
20
1.83457639031886
30
0
41
1
10
30.503777367709
20
1.74050889484798
30
0
41
1
10
30.9455819710238
20
1.54746386088021
30
0
41
1
10
31.1664608390006
20
1.44841714310257
30
0
41
1
10
31.4980276944266
20
1.29656658660528
30
0
41
1
10
31.6085989403811
20
1.24541744828411
30
0
41
1
10
31.8298363235951
20
1.14204247362119
30
0
41
1
10
31.9405140180987
20
1.08983803607077
30
0
41
1
10
32.1066851482319
20
1.01087929957899
30
0
41
1
10
32.1620999275452
20
0.984449583915165
30
0
41
1
10
32.2727896568172
20
0.931477806492268
30
0
41
1
10
32.4386896993557
20
0.851819460146885
30
0
41
1
10
32.6042029653963
20
0.771593186937196
30
0
41
1
10
32.934769358761
20
0.610497146473676
30
0
41
1
10
33.1545607665999
20
0.502298747706703
30
0
41
1
10
33.5932352525734
20
0.284841080964583
30
0
41
1
10
33.8121553582424
20
0.175659291419862
30
0
41
1
10
34.2496527336978
20
-0.0426011093379373
30
0
41
1
10
34.4681934103431
20
-0.15175542481947
30
0
41
1
10
34.9052299726591
20
-0.369351849150633
30
0
41
1
10
35.1236947935064
20
-0.477857258090268
30
0
41
1
10
35.5609861660857
20
-0.693323644746215
30
0
41
1
10
35.7798419545388
20
-0.800225698326045
30
0
41
1
10
36.2182718080487
20
-1.01175910818282
30
0
41
1
10
36.4378695105613
20
-1.11634294775081
30
0
41
1
10
36.8780978462805
20
-1.32259525735054
30
0
41
1
10
37.0987667270581
20
-1.42418664761337
30
0
41
1
10
37.4309768119719
20
-1.57351441862247
30
0
41
1
10
37.5416998402623
20
-1.62269899406235
30
0
41
1
10
37.7629032618233
20
-1.71970828222214
30
0
41
1
10
37.8734248806051
20
-1.76754986275634
30
0
41
1
10
38.2048373222124
20
-1.90893907328783
30
0
41
1
10
38.4255297406251
20
-2.00042809677797
30
0
41
1
10
38.8669240094013
20
-2.17702573526265
30
0
41
1
10
39.0876506886335
20
-2.26209846374562
30
0
41
1
10
39.5294697061757
20
-2.42530551983376
30
0
41
1
10
39.7506339104271
20
-2.50341589347778
30
0
41
1
10
40.1934670503399
20
-2.65210259123992
30
0
41
1
10
40.4144879510333
20
-2.72236680603447
30
0
41
1
10
40.8562150192828
20
-2.85420939622728
30
0
41
1
10
41.0768853955166
20
-2.91583226724183
30
0
41
1
10
41.5182478043234
20
-3.03004060662562
30
0
41
1
10
41.7388927608638
20
-3.08267090497145
30
0
41
1
10
42.070212368279
20
-3.15448412577513
30
0
41
1
10
42.1807138259565
20
-3.1772318352416
30
0
41
1
10
42.4018827309484
20
-3.22030585149713
30
0
41
1
10
42.5126122376171
20
-3.24064495673326
30
0
41
1
10
42.8445683625263
20
-3.29788002063549
30
0
41
1
10
43.0655153751237
20
-3.33097357406385
30
0
41
1
10
43.5069667629953
20
-3.38691780799999
30
0
41
1
10
43.7275330564166
20
-3.4097321178854
30
0
41
1
10
44.168790621702
20
-3.44489577145282
30
0
41
1
10
44.3894488701087
20
-3.4572560728509
30
0
41
1
10
44.7207961628581
20
-3.46785935083659
30
0
41
1
10
44.8312981410543
20
-3.47007226383999
30
0
41
1
10
44.9701783374491
20
-3.47117932198393
30
0
41
1
10
44.9984949126301
20
-3.4713174527823
30
0
41
1
10
45.0268144930491
20
-3.47136819639584
30
0
0
SPLINE
5
10D
100
AcDbEntity
8
1
62
256
6
ByLayer
370
18
48
1
60
0
100
AcDbSpline
70
4
71
3
72
59
73
55
40
0
40
0
40
0
40
0
40
0.0201122042063178
40
0.0201122042063178
40
0.0691065939960098
40
0.0691065939960098
40
0.0936037888908558
40
0.0936037888908558
40
0.105852386338278
40
0.105852386338278
40
0.1181009837857
40
0.167095373575386
40
0.167095373575386
40
0.216089763365072
40
0.216089763365072
40
0.314078542944444
40
0.314078542944444
40
0.326327140391867
40
0.332451439115577
40
0.332451439115577
40
0.338575737839287
40
0.338575737839287
40
0.363072932734127
40
0.363072932734127
40
0.412067322523806
40
0.412067322523806
40
0.461061712313485
40
0.461061712313485
40
0.510056102103165
40
0.510056102103165
40
0.559050491892844
40
0.559050491892844
40
0.571299089340264
40
0.571299089340264
40
0.583547686787684
40
0.583547686787684
40
0.608044881682525
40
0.608044881682525
40
0.657039271472207
40
0.657039271472207
40
0.706033661261889
40
0.706033661261889
40
0.804022440841254
40
0.804022440841254
40
0.816271038288675
40
0.816271038288675
40
0.828519635736097
40
0.853016830630939
40
0.853016830630939
40
0.902011220420626
40
0.902011220420626
40
0.951005610210313
40
0.951005610210313
40
1
40
1
40
1
40
1
41
1
10
66.8956011162731
20
3.51073242845234
30
0
41
1
10
67.0425354745786
20
3.51100099978049
30
0
41
1
10
67.1893550045613
20
3.5089036488439
30
0
41
1
10
67.6936347610591
20
3.49360387674062
30
0
41
1
10
68.0508043088236
20
3.46877305484301
30
0
41
1
10
68.587347410219
20
3.41083610585167
30
0
41
1
10
68.7663276095143
20
3.38807666906561
30
0
41
1
10
69.0351666618804
20
3.34881650108227
30
0
41
1
10
69.1248142800467
20
3.33487887895274
30
0
41
1
10
69.3037448379825
20
3.30539906841347
30
0
41
1
10
69.7504736873312
20
3.22764381305268
30
0
41
1
10
70.1945608010396
20
3.13000099043305
30
0
41
1
10
70.9033439264593
20
2.95021643550751
30
0
41
1
10
71.2568602340546
20
2.84854375357909
30
0
41
1
10
72.3173689007346
20
2.51132282948751
30
0
41
1
10
73.0243597475199
20
2.2436017339779
30
0
41
1
10
73.8271392585167
20
1.90387918999866
30
0
41
1
10
73.9610919900099
20
1.84645957730703
30
0
41
1
10
74.0953106283288
20
1.78788528776394
30
0
41
1
10
74.1848523828077
20
1.74858422299701
30
0
41
1
10
74.2296664517013
20
1.72880255120168
30
0
41
1
10
74.4534797624366
20
1.62946661703418
30
0
41
1
10
74.6320185716915
20
1.54849500349201
30
0
41
1
10
75.1664362142089
20
1.30173316483553
30
0
41
1
10
75.5211223358668
20
1.13210747548089
30
0
41
1
10
76.228968455202
20
0.785898079687229
30
0
41
1
10
76.5821259271694
20
0.609308883468088
30
0
41
1
10
77.2886127148121
20
0.252542228306368
30
0
41
1
10
77.6419528762585
20
0.0723873798282852
30
0
41
1
10
78.3504062666708
20
-0.288315830727811
30
0
41
1
10
78.7055112518807
20
-0.468882121323276
30
0
41
1
10
79.1515973370974
20
-0.692638667433101
30
0
41
1
10
79.2409252885713
20
-0.737291328824028
30
0
41
1
10
79.4198319691963
20
-0.826340170560627
30
0
41
1
10
79.5094229973665
20
-0.870741853509003
30
0
41
1
10
79.7775688611375
20
-1.00295866908769
30
0
41
1
10
79.9558447480517
20
-1.08995834700727
30
0
41
1
10
80.4895542053687
20
-1.34692270210374
30
0
41
1
10
80.8438609363866
20
-1.51287163155621
30
0
41
1
10
81.5510744564987
20
-1.83134236397109
30
0
41
1
10
81.9039842434818
20
-1.98385497163781
30
0
41
1
10
82.9631746301696
20
-2.41696416148542
30
0
41
1
10
83.6699384237432
20
-2.67308123191523
30
0
41
1
10
84.4732687535994
20
-2.91243558714939
30
0
41
1
10
84.5626591295303
20
-2.93835612683151
30
0
41
1
10
84.741634561524
20
-2.98877626931002
30
0
41
1
10
85.0097603882518
20
-3.06209872167594
30
0
41
1
10
85.2770063673602
20
-3.12840371555146
30
0
41
1
10
85.8106716793482
20
-3.25143140219987
30
0
41
1
10
86.1653524788449
20
-3.32066466746949
30
0
41
1
10
86.8742669424868
20
-3.43258290998955
30
0
41
1
10
87.228479409127
20
-3.47528841949193
30
0
41
1
10
87.9379891954652
20
-3.53333395490981
30
0
41
1
10
88.2932910853285
20
-3.54866279895535
30
0
41
1
10
88.6500422170487
20
-3.54987326448259
30
0
0
SPLINE
5
10E
100
AcDbEntity
8
1
62
256
6
ByLayer
370
18
48
1
60
0
100
AcDbSpline
70
4
71
3
72
10
73
6
40
0
40
0
40
0
40
0
40
0.5
40
0.5
40
1
40
1
40
1
40
1
41
1
10
88.6274439546015
20
-3.52735043521275
30
0
41
1
10
88.6312026336391
20
-3.5346403277305
30
0
41
1
10
88.6349729598666
20
-3.54017755679482
30
0
41
1
10
88.6425137648897
20
-3.54768982920805
30
0
41
1
10
88.6462797652029
20
-3.54966532078063
30
0
41
1
10
88.6500422170476
20
-3.54987326448256
30
0
0
SPLINE
5
10F
100
AcDbEntity
8
1
62
256
6
ByLayer
370
18
48
1
60
0
100
AcDbSpline
70
4
71
3
72
66
73
62
40
0
40
0
40
0
40
0
40
0.0507266602425175
40
0.0507266602425175
40
0.0760899903637762
40
0.0760899903637762
40
0.101453320485035
40
0.101453320485035
40
0.152179980727552
40
0.152179980727552
40
0.20290664097007
40
0.20290664097007
40
0.253633301212587
40
0.253633301212587
40
0.304359961455105
40
0.304359961455105
40
0.317041626515734
40
0.317041626515734
40
0.329723291576363
40
0.329723291576363
40
0.355086621697621
40
0.355086621697621
40
0.405813281940136
40
0.405813281940136
40
0.456539942182652
40
0.456539942182652
40
0.507266602425168
40
0.507266602425168
40
0.557993262667684
40
0.557993262667684
40
0.570674927728314
40
0.570674927728314
40
0.583356592788943
40
0.608719922910202
40
0.608719922910202
40
0.659446583152719
40
0.659446583152719
40
0.684809913273979
40
0.684809913273979
40
0.710173243395238
40
0.710173243395238
40
0.760899903637758
40
0.760899903637758
40
0.786263233759018
40
0.786263233759018
40
0.811626563880278
40
0.811626563880278
40
0.824308228940908
40
0.824308228940908
40
0.836989894001537
40
0.862353224122794
40
0.862353224122794
40
0.913079884365308
40
0.913079884365308
40
0.963806544607823
40
0.963806544607823
40
0.976488209668451
40
0.976488209668451
40
0.989169874729079
40
0.989169874729079
40
1
40
1
40
1
40
1
41
1
10
88.6274439546124
20
-3.52735043521267
30
0
41
1
10
88.2707062737853
20
-3.50610998685735
30
0
41
1
10
87.9143162981005
20
-3.47083102504917
30
0
41
1
10
87.3790214963016
20
-3.39745442138442
30
0
41
1
10
87.2004498268419
20
-3.3695817026003
30
0
41
1
10
86.8429631756724
20
-3.30712092690382
30
0
41
1
10
86.6647352469178
20
-3.27265388588151
30
0
41
1
10
86.1312869419479
20
-3.15992052007522
30
0
41
1
10
85.7773117359065
20
-3.07230441212351
30
0
41
1
10
85.070820356148
20
-2.87441966106078
30
0
41
1
10
84.7183062196911
20
-2.76415797682458
30
0
41
1
10
84.013152119294
20
-2.52308070012794
30
0
41
1
10
83.6605082778699
20
-2.39226386938341
30
0
41
1
10
82.9533304091134
20
-2.11247096798013
30
0
41
1
10
82.5988061129412
20
-1.96348433789316
30
0
41
1
10
82.1534347605315
20
-1.76736228509509
30
0
41
1
10
82.0642493972883
20
-1.72764402765796
30
0
41
1
10
81.8856285345113
20
-1.64726035978114
30
0
41
1
10
81.7961542532574
20
-1.60657638483033
30
0
41
1
10
81.5283404246511
20
-1.48364351857208
30
0
41
1
10
81.3502838076404
20
-1.40037027023246
30
0
41
1
10
80.8172252142809
20
-1.14728243984311
30
0
41
1
10
80.46333668513
20
-0.974195671514849
30
0
41
1
10
79.7568837659413
20
-0.622567317030473
30
0
41
1
10
79.4043226409298
20
-0.444018581198577
30
0
41
1
10
78.6987816516418
20
-0.0849414375165622
30
0
41
1
10
78.3458066850635
20
0.0955961250958239
30
0
41
1
10
77.6378174350602
20
0.455404514935935
30
0
41
1
10
77.2827939964343
20
0.634656936521651
30
0
41
1
10
76.8366594336628
20
0.8557587724965
30
0
41
1
10
76.7472968413349
20
0.899841464793155
30
0
41
1
10
76.5683846690575
20
0.987616275208381
30
0
41
1
10
76.3004044779363
20
1.11836518352774
30
0
41
1
10
76.0334535692782
20
1.24613984420714
30
0
41
1
10
75.500591105383
20
1.49716250980941
30
0
41
1
10
75.1467764250918
20
1.65854985640593
30
0
41
1
10
74.6168504047402
20
1.88945551280179
30
0
41
1
10
74.4403369132434
20
1.96455670011176
30
0
41
1
10
74.0874248704578
20
2.11079603641355
30
0
41
1
10
73.911022763363
20
2.18192619118852
30
0
41
1
10
73.3815572961446
20
2.38867578117041
30
0
41
1
10
73.0282432643708
20
2.51767253390994
30
0
41
1
10
72.49658192658
20
2.69608690972154
30
0
41
1
10
72.3190806584784
20
2.75304679518234
30
0
41
1
10
71.9633544970308
20
2.86167861191527
30
0
41
1
10
71.7851270437112
20
2.91334512822314
30
0
41
1
10
71.5170184806771
20
2.98655464337159
30
0
41
1
10
71.4274477643917
20
3.0102615581807
30
0
41
1
10
71.2486561801208
20
3.05605114116275
30
0
41
1
10
70.9808297861599
20
3.12234776332298
30
0
41
1
10
70.7139677571757
20
3.18142900872593
30
0
41
1
10
70.1812212455284
20
3.28983889478911
30
0
41
1
10
69.8274049861629
20
3.34913779459444
30
0
41
1
10
69.1207152900686
20
3.44100531631278
30
0
41
1
10
68.767799942614
20
3.47355387405844
30
0
41
1
10
68.3261318501436
20
3.49720438103509
30
0
41
1
10
68.2377735932812
20
3.50108403209191
30
0
41
1
10
68.0610244275152
20
3.50713876099235
30
0
41
1
10
67.972631488814
20
3.50931237593352
30
0
41
1
10
67.8086480002693
20
3.51174576064094
30
0
41
1
10
67.733073543622
20
3.5122393081036
30
0
41
1
10
67.6574530903952
20
3.51210391116385
30
0
0
SPLINE
5
110
100
AcDbEntity
8
1
62
256
6
ByLayer
370
18
48
1
60
0
100
AcDbSpline
70
4
71
3
72
27
73
23
40
0
40
0
40
0
40
0
40
0.125000000000067
40
0.125000000000067
40
0.1875000000001
40
0.1875000000001
40
0.250000000000133
40
0.312500000000167
40
0.312500000000167
40
0.3750000000002
40
0.3750000000002
40
0.500000000000125
40
0.500000000000125
40
0.62500000000005
40
0.62500000000005
40
0.687500000000109
40
0.687500000000109
40
0.750000000000169
40
0.750000000000169
40
0.875000000000085
40
0.875000000000085
40
1
40
1
40
1
40
1
41
1
10
54.4999174894778
20
-3.46976527464267
30
0
41
1
10
54.4999174894778
20
-3.4688772365644
30
0
41
1
10
54.5010076688364
20
-3.46797873772545
30
0
41
1
10
54.5042280424444
20
-3.46662021248184
30
0
41
1
10
54.505582062322
20
-3.46616235770119
30
0
41
1
10
54.5087768458675
20
-3.46526560805626
30
0
41
1
10
54.5124517317382
20
-3.46438665491547
30
0
41
1
10
54.5170654859492
20
-3.46354701739847
30
0
41
1
10
54.5221612439949
20
-3.4627302917369
30
0
41
1
10
54.524947740645
20
-3.46233467015082
30
0
41
1
10
54.5337943614299
20
-3.46122043568937
30
0
41
1
10
54.5404271686428
20
-3.46055959126986
30
0
41
1
10
54.5550741153722
20
-3.45944316493652
30
0
41
1
10
54.5628164674819
20
-3.45900752409508
30
0
41
1
10
54.5750434696229
20
-3.45854663637255
30
0
41
1
10
54.5792512498981
20
-3.45842513064829
30
0
41
1
10
54.5876651444213
20
-3.45825571544702
30
0
41
1
10
54.5918865431943
20
-3.45820672999068
30
0
41
1
10
54.6045932900521
20
-3.45816583783122
30
0
41
1
10
54.6132418921987
20
-3.45828429940792
30
0
41
1
10
54.6298140310337
20
-3.45879467494066
30
0
41
1
10
54.6377909969281
20
-3.45918205961269
30
0
41
1
10
54.6454464995613
20
-3.45969929015271
30
0
0
SPLINE
5
111
100
AcDbEntity
8
1
62
256
6
ByLayer
370
18
48
1
60
0
100
AcDbSpline
70
4
71
3
72
12
73
8
40
0
40
0
40
0
40
0
40
0.499999999999994
40
0.499999999999994
40
0.749999999999997
40
0.749999999999997
40
1
40
1
40
1
40
1
41
1
10
88.6325278938511
20
-0.238709574354601
30
0
41
1
10
88.6411909607901
20
-0.16188695785516
30
0
41
1
10
88.6507132829739
20
-0.0848001455703127
30
0
41
1
10
88.6664693724492
20
0.0312161481095927
30
0
41
1
10
88.6719702030953
20
0.0699737247023222
30
0
41
1
10
88.6834837812391
20
0.147528803986148
30
0
41
1
10
88.689468002687
20
0.186135550006014
30
0
41
1
10
88.6956880949403
20
0.224572250242886
30
0
0
SPLINE
5
112
100
AcDbEntity
8
1
62
256
6
ByLayer
370
18
48
1
60
0
100
AcDbSpline
70
4
71
3
72
62
73
58
40
0
40
0
40
0
40
0
40
0.0584316919781764
40
0.0584316919781764
40
0.0876475379672646
40
0.0876475379672646
40
0.116863383956353
40
0.116863383956353
40
0.146079229945441
40
0.146079229945441
40
0.175295075934529
40
0.175295075934529
40
0.233726767912708
40
0.233726767912708
40
0.2629426139018
40
0.2629426139018
40
0.292158459890891
40
0.292158459890891
40
0.321374305879983
40
0.321374305879983
40
0.350590151869074
40
0.350590151869074
40
0.40902184384726
40
0.40902184384726
40
0.467453535825446
40
0.467453535825446
40
0.496669381814537
40
0.496669381814537
40
0.511277304809085
40
0.511277304809085
40
0.525885227803632
40
0.525885227803632
40
0.584316919781827
40
0.584316919781827
40
0.613532765770926
40
0.613532765770926
40
0.642748611760025
40
0.642748611760025
40
0.701180303738227
40
0.701180303738227
40
0.759611995716429
40
0.759611995716429
40
0.78882784170553
40
0.78882784170553
40
0.818043687694631
40
0.818043687694631
40
0.876475379672829
40
0.876475379672829
40
0.90569122566193
40
0.90569122566193
40
0.934907071651031
40
0.934907071651031
40
0.964122917640132
40
0.964122917640132
40
0.993338763629232
40
0.993338763629232
40
1
40
1
40
1
40
1
41
1
10
88.6956880949406
20
0.22457225023075
30
0
41
1
10
88.4918990295329
20
0.3293828998695
30
0
41
1
10
88.2881733850575
20
0.433834769403234
30
0
41
1
10
87.9822966480277
20
0.589236405582994
30
0
41
1
10
87.8802264973437
20
0.640859270789889
30
0
41
1
10
87.6763192377722
20
0.743396834472549
30
0
41
1
10
87.574489756431
20
0.794315903969419
30
0
41
1
10
87.371074566399
20
0.895458838710397
30
0
41
1
10
87.2694840249769
20
0.945674212515286
30
0
41
1
10
87.0666920700489
20
1.04569701919988
30
0
41
1
10
86.9654458531257
20
1.09541413863784
30
0
41
1
10
86.6618902901766
20
1.24317318462474
30
0
41
1
10
86.4598221513953
20
1.33993615366819
30
0
41
1
10
86.1568337865401
20
1.4818865364156
30
0
41
1
10
86.0558540461167
20
1.52866699685768
30
0
41
1
10
85.853920180184
20
1.62114999764407
30
0
41
1
10
85.7529542450785
20
1.66683224181054
30
0
41
1
10
85.5511220334586
20
1.75724846491985
30
0
41
1
10
85.4503022570814
20
1.80206085301035
30
0
41
1
10
85.2486121604061
20
1.89046576633544
30
0
41
1
10
85.1477461982726
20
1.93406701666899
30
0
41
1
10
84.8449992389635
20
2.06292420639403
30
0
41
1
10
84.642957709856
20
2.14621405878265
30
0
41
1
10
84.2380754224513
20
2.30697008605614
30
0
41
1
10
84.0352183655616
20
2.38442391877794
30
0
41
1
10
83.7306726231355
20
2.49669722571431
30
0
41
1
10
83.6290514969295
20
2.53337474313281
30
0
41
1
10
83.4763891070647
20
2.58716041854223
30
0
41
1
10
83.4254646292933
20
2.60488602501513
30
0
41
1
10
83.3235338318681
20
2.6399195159338
30
0
41
1
10
83.272501762063
20
2.65723576855436
30
0
41
1
10
83.0174988806164
20
2.74262063416276
30
0
41
1
10
82.8139899607806
20
2.80706433280784
30
0
41
1
10
82.5093015137596
20
2.89788426979859
30
0
41
1
10
82.4078265548816
20
2.92717594282101
30
0
41
1
10
82.2052247719298
20
2.98399187023054
30
0
41
1
10
82.1040753346451
20
3.01148534965523
30
0
41
1
10
81.8007517140429
20
3.09086927229473
30
0
41
1
10
81.5987732691697
20
3.1397427844768
30
0
41
1
10
81.194837698167
20
3.22907672739501
30
0
41
1
10
80.9928368686967
20
3.26951442007299
30
0
41
1
10
80.6898742770218
20
3.3239292880584
30
0
41
1
10
80.588960114491
20
3.34106980286785
30
0
41
1
10
80.3870881514598
20
3.37320254022524
30
0
41
1
10
80.2861151104054
20
3.38818700795312
30
0
41
1
10
79.9829993042381
20
3.42984387663381
30
0
41
1
10
79.7806500782847
20
3.45321259461872
30
0
41
1
10
79.4764164594254
20
3.48153246045595
30
0
41
1
10
79.3748928052974
20
3.48985367685177
30
0
41
1
10
79.1716195524746
20
3.50425097082652
30
0
41
1
10
79.0698868304897
20
3.51033337149602
30
0
41
1
10
78.8663173345495
20
3.5202465349852
30
0
41
1
10
78.7644185506524
20
3.52406212039603
30
0
41
1
10
78.5602862955394
20
3.52937034910823
30
0
41
1
10
78.4583806679318
20
3.53085697044133
30
0
41
1
10
78.3333997857648
20
3.53126511908377
30
0
41
1
10
78.3102012550218
20
3.53128093804892
30
0
41
1
10
78.2870089973943
20
3.53123697515457
30
0
0
SPLINE
5
113
100
AcDbEntity
8
1
62
256
6
ByLayer
370
18
48
1
60
0
100
AcDbSpline
70
4
71
3
72
148
73
144
40
0
40
0
40
0
40
0
40
0.0110398899966943
40
0.0110398899966943
40
0.0332977249451388
40
0.0332977249451388
40
0.0444266424193611
40
0.0444266424193611
40
0.0555555598935832
40
0.0555555598935832
40
0.0778133948420278
40
0.0778133948420278
40
0.0889423123162494
40
0.0889423123162494
40
0.100071229790471
40
0.100071229790471
40
0.111200147264693
40
0.111200147264693
40
0.122329064738914
40
0.122329064738914
40
0.144586899687356
40
0.144586899687356
40
0.155715817161577
40
0.155715817161577
40
0.161280275898686
40
0.161280275898686
40
0.166844734635796
40
0.166844734635796
40
0.189102569584236
40
0.189102569584236
40
0.211360404532675
40
0.211360404532675
40
0.222489322006895
40
0.222489322006895
40
0.233618239481115
40
0.233618239481115
40
0.255876074429553
40
0.255876074429553
40
0.267004991903773
40
0.267004991903773
40
0.278133909377993
40
0.278133909377993
40
0.289262826852213
40
0.289262826852213
40
0.300391744326433
40
0.300391744326433
40
0.322649579274874
40
0.322649579274874
40
0.344907414223315
40
0.344907414223315
40
0.356036331697535
40
0.356036331697535
40
0.367165249171756
40
0.367165249171756
40
0.389423084120197
40
0.389423084120197
40
0.400552001594419
40
0.400552001594419
40
0.41168091906864
40
0.41168091906864
40
0.433938754017081
40
0.433938754017081
40
0.456196588965524
40
0.456196588965524
40
0.467325506439745
40
0.467325506439745
40
0.478454423913967
40
0.478454423913967
40
0.50071225886241
40
0.50071225886241
40
0.511841176336632
40
0.511841176336632
40
0.522970093810853
40
0.522970093810853
40
0.534099011285075
40
0.534099011285075
40
0.539663470022185
40
0.539663470022185
40
0.545227928759295
40
0.545227928759295
40
0.567485763707733
40
0.567485763707733
40
0.578614681181951
40
0.578614681181951
40
0.589743598656169
40
0.589743598656169
40
0.612001433604604
40
0.612001433604604
40
0.634259268553039
40
0.634259268553039
40
0.645388186027256
40
0.645388186027256
40
0.656517103501473
40
0.656517103501473
40
0.678774938449905
40
0.678774938449905
40
0.689903855924121
40
0.689903855924121
40
0.701032773398337
40
0.701032773398337
40
0.712161690872554
40
0.712161690872554
40
0.72329060834677
40
0.72329060834677
40
0.728855067083877
40
0.728855067083877
40
0.734419525820985
40
0.734419525820985
40
0.7455484432952
40
0.7455484432952
40
0.756677360769415
40
0.756677360769415
40
0.76780627824363
40
0.76780627824363
40
0.790064113192059
40
0.790064113192059
40
0.81232194814049
40
0.81232194814049
40
0.834579783088919
40
0.834579783088919
40
0.856837618037349
40
0.856837618037349
40
0.867966535511564
40
0.867966535511564
40
0.879095452985778
40
0.879095452985778
40
0.890224370459992
40
0.890224370459992
40
0.901353287934207
40
0.901353287934207
40
0.923611122882637
40
0.923611122882637
40
0.929175581619744
40
0.929175581619744
40
0.934740040356852
40
0.934740040356852
40
0.945868957831065
40
0.945868957831065
40
0.968126792779493
40
0.968126792779493
40
0.99038462772792
40
0.99038462772792
40
1
40
1
40
1
40
1
41
1
10
62.2547956162793
20
-2.39072271427563
30
0
41
1
10
62.1541693637878
20
-2.42797739070977
30
0
41
1
10
62.0536401837743
20
-2.46440307102481
30
0
41
1
10
61.7506370662594
20
-2.57166356099518
30
0
41
1
10
61.5483437728536
20
-2.63981979023612
30
0
41
1
10
61.2451770749717
20
-2.73670534216763
30
0
41
1
10
61.1441772211779
20
-2.76812336289902
30
0
41
1
10
60.9424281543676
20
-2.82936349746166
30
0
41
1
10
60.8416224895726
20
-2.85911307180598
30
0
41
1
10
60.5391758019036
20
-2.9454714105047
30
0
41
1
10
60.337555901976
20
-2.99925023982425
30
0
41
1
10
60.0348112275323
20
-3.07392271354189
30
0
41
1
10
59.933841823885
20
-3.09781359221753
30
0
41
1
10
59.7317929177448
20
-3.14359973707505
30
0
41
1
10
59.6306990250532
20
-3.16548339368893
30
0
41
1
10
59.4284980694335
20
-3.20732936308215
30
0
41
1
10
59.3274289436108
20
-3.22731864688183
30
0
41
1
10
59.1250840671858
20
-3.26518718437225
30
0
41
1
10
59.0238210671666
20
-3.2830788931204
30
0
41
1
10
58.7196725202751
20
-3.33355434282799
30
0
41
1
10
58.5164139698584
20
-3.36292849101341
30
0
41
1
10
58.2105178856311
20
-3.40039037968782
30
0
41
1
10
58.1083890851432
20
-3.41178145965085
30
0
41
1
10
57.9549647254991
20
-3.42721882919349
30
0
41
1
10
57.9037604042744
20
-3.43209351963728
30
0
41
1
10
57.8014969960821
20
-3.44128514609238
30
0
41
1
10
57.7504282489405
20
-3.44560243439435
30
0
41
1
10
57.4953006534877
20
-3.46575722344761
30
0
41
1
10
57.2918211247452
20
-3.47727429525108
30
0
41
1
10
56.8855951592388
20
-3.49117709596251
30
0
41
1
10
56.6828258117663
20
-3.4935700433914
30
0
41
1
10
56.3790625161497
20
-3.49045681796574
30
0
41
1
10
56.2778713965887
20
-3.48830412418329
30
0
41
1
10
56.0757923275545
20
-3.48174155857336
30
0
41
1
10
55.9748603008843
20
-3.47733157528694
30
0
41
1
10
55.6720941672239
20
-3.46076380276742
30
0
41
1
10
55.470355889273
20
-3.44525922525656
30
0
41
1
10
55.1675728252526
20
-3.41548572985596
30
0
41
1
10
55.0666128825169
20
-3.40447784473986
30
0
41
1
10
54.8646237278784
20
-3.38030718096454
30
0
41
1
10
54.7635832268871
20
-3.36715122928464
30
0
41
1
10
54.5615075312672
20
-3.33863895953303
30
0
41
1
10
54.4605251774149
20
-3.32324804696421
30
0
41
1
10
54.258426687131
20
-3.29031410810541
30
0
41
1
10
54.1573107075439
20
-3.27277371690988
30
0
41
1
10
53.8536757740078
20
-3.21698721699551
30
0
41
1
10
53.6508578550404
20
-3.1755831120004
30
0
41
1
10
53.2440528426274
20
-3.0846572281252
30
0
41
1
10
53.0400478285733
20
-3.03518200191783
30
0
41
1
10
52.7335348623552
20
-2.95435191894279
30
0
41
1
10
52.6311314423426
20
-2.92634564562428
30
0
41
1
10
52.426784454587
20
-2.86860061197859
30
0
41
1
10
52.3247587079282
20
-2.83883390908238
30
0
41
1
10
52.0190336671254
20
-2.74699133095439
30
0
41
1
10
51.8156599290517
20
-2.68240969215839
30
0
41
1
10
51.5111146434191
20
-2.58080318913497
30
0
41
1
10
51.4096770387183
20
-2.54615839335187
30
0
41
1
10
51.2071435337141
20
-2.47505028459875
30
0
41
1
10
51.1060234755236
20
-2.43861780100704
30
0
41
1
10
50.8027577306345
20
-2.32718790914328
30
0
41
1
10
50.6007819835162
20
-2.24995012560729
30
0
41
1
10
50.196780153002
20
-2.09034027369495
30
0
41
1
10
49.9947075402013
20
-2.00805264898295
30
0
41
1
10
49.6916092845124
20
-1.8807219537014
30
0
41
1
10
49.5906494266474
20
-1.83750474601945
30
0
41
1
10
49.3886754767335
20
-1.74984911909749
30
0
41
1
10
49.2876455617682
20
-1.70543955743111
30
0
41
1
10
48.9843418413822
20
-1.57061585914715
30
0
41
1
10
48.7818435733027
20
-1.47862435378013
30
0
41
1
10
48.4773559487134
20
-1.33803040510386
30
0
41
1
10
48.3757429562975
20
-1.29072024164935
30
0
41
1
10
48.1722855591169
20
-1.19519879498986
30
0
41
1
10
48.0704600369151
20
-1.14695138882146
30
0
41
1
10
47.8667078143471
20
-1.04927163739893
30
0
41
1
10
47.7647191013309
20
-0.999962211801829
30
0
41
1
10
47.6114689994316
20
-0.925485241763681
30
0
41
1
10
47.5603437431052
20
-0.900568892608192
30
0
41
1
10
47.4580016674401
20
-0.850570014719523
30
0
41
1
10
47.4067804424594
20
-0.825485619309546
30
0
41
1
10
47.1509930994355
20
-0.699962767951433
30
0
41
1
10
46.9469056923819
20
-0.599057767269954
30
0
41
1
10
46.6414141009277
20
-0.447311300589661
30
0
41
1
10
46.5396802039856
20
-0.396684846046924
30
0
41
1
10
46.3365793187837
20
-0.294980180510748
30
0
41
1
10
46.2352137510731
20
-0.243899939548925
30
0
41
1
10
45.9312808699646
20
-0.0907884814603221
30
0
41
1
10
45.7289563663333
20
0.0112784380677056
30
0
41
1
10
45.324444906338
20
0.214475257730555
30
0
41
1
10
45.122215898272
20
0.315521259191172
30
0
41
1
10
44.8189825469763
20
0.466412210088777
30
0
41
1
10
44.7179913188828
20
0.516733569523581
30
0
41
1
10
44.5160360794584
20
0.617126678968731
30
0
41
1
10
44.4150398758389
20
0.667133855879484
30
0
41
1
10
44.1119079316552
20
0.816412038157381
30
0
41
1
10
43.9096208382568
20
0.91492333495836
30
0
41
1
10
43.6055839715488
20
1.06057242410921
30
0
41
1
10
43.5041427581291
20
1.10878011021546
30
0
41
1
10
43.3010728441368
20
1.20451824608858
30
0
41
1
10
43.1994492012697
20
1.25205892670013
30
0
41
1
10
42.9961682271116
20
1.34675889559756
30
0
41
1
10
42.8944520503561
20
1.39380282129005
30
0
41
1
10
42.6907067441837
20
1.48696195351133
30
0
41
1
10
42.5886917751857
20
1.53310479209577
30
0
41
1
10
42.4354101186311
20
1.60157467137313
30
0
41
1
10
42.3842732130584
20
1.62427425950162
30
0
41
1
10
42.2819067226059
20
1.66941313627299
30
0
41
1
10
42.2306509360449
20
1.69186378703881
30
0
41
1
10
42.0769369815887
20
1.7587174438996
30
0
41
1
10
41.9745982123479
20
1.80258973358144
30
0
41
1
10
41.7701931437395
20
1.88896384312426
30
0
41
1
10
41.6681106033689
20
1.93143780654771
30
0
41
1
10
41.4643345415337
20
2.01523173989077
30
0
41
1
10
41.3626662285108
20
2.05659048043014
30
0
41
1
10
41.0579055166566
20
2.17833567919567
30
0
41
1
10
40.8551273117076
20
2.25651675897365
30
0
41
1
10
40.4498968062876
20
2.40630244619578
30
0
41
1
10
40.2474058898269
20
2.47785980264618
30
0
41
1
10
39.8427140254764
20
2.6144522395376
30
0
41
1
10
39.6407950246134
20
2.6798506999173
30
0
41
1
10
39.2366422433668
20
2.80323675698477
30
0
41
1
10
39.0344648117764
20
2.86131224822452
30
0
41
1
10
38.7307327385832
20
2.94266785282764
30
0
41
1
10
38.6294155750471
20
2.96883305082335
30
0
41
1
10
38.4266393822507
20
3.0192617214459
30
0
41
1
10
38.325175627303
20
3.04352238627874
30
0
41
1
10
38.122272127613
20
3.09028423490565
30
0
41
1
10
38.020781510987
20
3.11273185890647
30
0
41
1
10
37.8175317746591
20
3.15556845497264
30
0
41
1
10
37.7157899386058
20
3.17597440696727
30
0
41
1
10
37.4101214903384
20
3.2340683325364
30
0
41
1
10
37.2057320155782
20
3.26861811219339
30
0
41
1
10
36.9493192034187
20
3.30643396487025
30
0
41
1
10
36.89800875591
20
3.31372708373797
30
0
41
1
10
36.7955207387569
20
3.32774880594576
30
0
41
1
10
36.7443173233229
20
3.33448181232569
30
0
41
1
10
36.5908732867702
20
3.35387328039798
30
0
41
1
10
36.4888266558441
20
3.36573454919369
30
0
41
1
10
36.1830254703356
20
3.39790470003794
30
0
41
1
10
35.9796561935517
20
3.41483203677549
30
0
41
1
10
35.57344398599
20
3.43967838069247
30
0
41
1
10
35.3705650980579
20
3.44760220227849
30
0
41
1
10
35.0803670132408
20
3.45261058624152
30
0
41
1
10
34.9929054080341
20
3.45329701967577
30
0
41
1
10
34.9055133071192
20
3.45315016793649
30
0
0
SPLINE
5
114
100
AcDbEntity
8
1
62
256
6
ByLayer
370
18
48
1
60
0
100
AcDbSpline
70
4
71
3
72
44
73
40
40
0
40
0
40
0
40
0
40
0.0228013612399347
40
0.0228013612399347
40
0.104234581136609
40
0.104234581136609
40
0.144951191084944
40
0.144951191084944
40
0.18566780103328
40
0.18566780103328
40
0.267101020929955
40
0.267101020929955
40
0.30781763087829
40
0.30781763087829
40
0.348534240826626
40
0.348534240826626
40
0.389250850774962
40
0.389250850774962
40
0.429967460723297
40
0.429967460723297
40
0.511400680619971
40
0.511400680619971
40
0.552117290568308
40
0.552117290568308
40
0.592833900516644
40
0.592833900516644
40
0.633550510464981
40
0.633550510464981
40
0.674267120413318
40
0.674267120413318
40
0.755700340309991
40
0.755700340309991
40
0.796416950258326
40
0.796416950258326
40
0.837133560206661
40
0.837133560206661
40
0.918566780103331
40
0.918566780103331
40
1
40
1
40
1
40
1
41
1
10
18.2598389077313
20
-2.54872696505134
30
0
41
1
10
18.2031354450199
20
-2.56746635545801
30
0
41
1
10
18.1464235161267
20
-2.58594120744866
30
0
41
1
10
17.8871063492984
20
-2.6691562219485
30
0
41
1
10
17.6843213099749
20
-2.73068173728788
30
0
41
1
10
17.3796250775882
20
-2.81748338911012
30
0
41
1
10
17.2779732650636
20
-2.84550420830683
30
0
41
1
10
17.0745653504558
20
-2.89979273963931
30
0
41
1
10
16.9728721914499
20
-2.9261295495962
30
0
41
1
10
16.6675443077875
20
-3.00235864162812
30
0
41
1
10
16.4635649551353
20
-3.04936877054249
30
0
41
1
10
16.1566038833236
20
-3.11378648443903
30
0
41
1
10
16.0541171390408
20
-3.13424287472711
30
0
41
1
10
15.8487712587328
20
-3.17308471311659
30
0
41
1
10
15.745865540106
20
-3.19148074264075
30
0
41
1
10
15.5405535882325
20
-3.2260669388406
30
0
41
1
10
15.4380689745609
20
-3.24229648435519
30
0
41
1
10
15.2335362131601
20
-3.27268012421473
30
0
41
1
10
15.1314219303897
20
-3.28678705420504
30
0
41
1
10
14.8253423215937
20
-3.32576078029803
30
0
41
1
10
14.6216754742909
20
-3.34730126317066
30
0
41
1
10
14.3164119451395
20
-3.3729407876281
30
0
41
1
10
14.2146974906741
20
-3.38037754666709
30
0
41
1
10
14.0113547776025
20
-3.39305239185006
30
0
41
1
10
13.9097082408557
20
-3.39828835439633
30
0
41
1
10
13.7066593471549
20
-3.40658957898333
30
0
41
1
10
13.6052560618965
20
-3.40964771668345
30
0
41
1
10
13.4024314637583
20
-3.41352878076432
30
0
41
1
10
13.3010284837458
20
-3.41435584282138
30
0
41
1
10
12.9967016821097
20
-3.4135066513532
30
0
41
1
10
12.7936461726372
20
-3.40851000286713
30
0
41
1
10
12.4887482302256
20
-3.39443108105866
30
0
41
1
10
12.3870821043717
20
-3.38863719684446
30
0
41
1
10
12.1837420661233
20
-3.37480774316577
30
0
41
1
10
12.0820545848209
20
-3.36677348583871
30
0
41
1
10
11.776790243246
20
-3.33932035608063
30
0
41
1
10
11.5729775566095
20
-3.31654737166292
30
0
41
1
10
11.1638344221275
20
-3.26251952567503
30
0
41
1
10
10.958576898616
20
-3.2312475588067
30
0
41
1
10
10.7525524689075
20
-3.19579694465654
30
0
0
SPLINE
5
115
100
AcDbEntity
8
1
62
256
6
ByLayer
370
18
48
1
60
0
100
AcDbSpline
70
4
71
3
72
20
73
16
40
0
40
0
40
0
40
0
40
0.0075243666572769
40
0.0075243666572769
40
0.0150487334812868
40
0.0150487334812868
40
0.0451463143046804
40
0.0451463143046804
40
0.16554216014515
40
0.16554216014515
40
0.64746268259619
40
0.64746268259619
40
0.888286246226744
40
0.888286246226744
40
1
40
1
40
1
40
1
41
1
10
9.50449194857458
20
1.1270731273942
30
0
41
1
10
9.50451036942761
20
1.12708287518979
30
0
41
1
10
9.50452879438393
20
1.12709261606258
30
0
41
1
10
9.50456565313237
20
1.12711208286063
30
0
41
1
10
9.50458408692862
20
1.12712180878657
30
0
41
1
10
9.50467627983247
20
1.12717039817454
30
0
41
1
10
9.50475011664051
20
1.12720913033138
30
0
41
1
10
9.5051197102444
20
1.12740210425065
30
0
41
1
10
9.50541652984975
20
1.1275545459566
30
0
41
1
10
9.5069068022774
20
1.12830669988009
30
0
41
1
10
9.50811757636779
20
1.12887665658749
30
0
41
1
10
9.50995462882295
20
1.12968706089984
30
0
41
1
10
9.51057053775605
20
1.12994980795034
30
0
41
1
10
9.51147689192999
20
1.13032408241176
30
0
41
1
10
9.51176482895755
20
1.13044116970065
30
0
41
1
10
9.51205343059067
20
1.13055676443705
30
0
0
SPLINE
5
116
100
AcDbEntity
8
1
62
256
6
ByLayer
370
18
48
1
60
0
100
AcDbSpline
70
4
71
3
72
14
73
10
40
0
40
0
40
0
40
0
40
0.130010955544858
40
0.130010955544858
40
0.478063201023069
40
0.478063201023069
40
0.826115446500595
40
0.826115446500595
40
1
40
1
40
1
40
1
41
1
10
9.61337981106772
20
1.13231375276959
30
0
41
1
10
9.61386127158121
20
1.13217892209983
30
0
41
1
10
9.61434272410406
20
1.13204406304013
30
0
41
1
10
9.61611304309929
20
1.13154806848004
30
0
41
1
10
9.61740186030949
20
1.13118675795951
30
0
41
1
10
9.61997937992362
20
1.13046372970092
30
0
41
1
10
9.62126808247831
20
1.13010201233016
30
0
41
1
10
9.62320052587557
20
1.12955927771986
30
0
41
1
10
9.62384430999302
20
1.12937841376379
30
0
41
1
10
9.62448807971751
20
1.12919749883181
30
0
0
SPLINE
5
117
100
AcDbEntity
8
1
62
256
6
ByLayer
370
18
48
1
60
0
100
AcDbSpline
70
4
71
3
72
16
73
12
40
0
40
0
40
0
40
0
40
0.250000000000005
40
0.250000000000005
40
0.375000000000005
40
0.375000000000005
40
0.500000000000004
40
0.500000000000004
40
0.750000000000002
40
0.750000000000002
40
1
40
1
40
1
40
1
41
1
10
9.62448809554974
20
1.12919749438237
30
0
41
1
10
9.84501051664625
20
1.0672253581387
30
0
41
1
10
10.0635789602021
20
0.999349848003391
30
0
41
1
10
10.3887688351245
20
0.888995745080706
30
0
41
1
10
10.4967226016946
20
0.850789953938886
30
0
41
1
10
10.7118012875178
20
0.771621333692536
30
0
41
1
10
10.818940186834
20
0.730651500435101
30
0
41
1
10
11.1386590399805
20
0.604002701280081
30
0
41
1
10
11.3497208272276
20
0.514506868830324
30
0
41
1
10
11.7684022022762
20
0.32673580127684
30
0
41
1
10
11.9760229142563
20
0.228462518412726
30
0
41
1
10
12.1823591088193
20
0.126655650182982
30
0
0
SPLINE
5
118
100
AcDbEntity
8
1
62
256
6
ByLayer
370
18
48
1
60
0
100
AcDbSpline
70
4
71
3
72
42
73
38
40
0
40
0
40
0
40
0
40
0.119324626744453
40
0.119324626744453
40
0.17898694011668
40
0.17898694011668
40
0.238649253488906
40
0.238649253488906
40
0.298311566861133
40
0.298311566861133
40
0.35797388023336
40
0.35797388023336
40
0.387805036919473
40
0.387805036919473
40
0.417636193605586
40
0.417636193605586
40
0.477298506977814
40
0.477298506977814
40
0.596623133722272
40
0.596623133722272
40
0.626454290408385
40
0.626454290408385
40
0.656285447094498
40
0.656285447094498
40
0.715947760466725
40
0.715947760466725
40
0.775610073838952
40
0.775610073838952
40
0.835272387211178
40
0.835272387211178
40
0.865103543897292
40
0.865103543897292
40
0.894934700583406
40
0.894934700583406
40
0.954597013955636
40
0.954597013955636
40
1
40
1
40
1
40
1
41
1
10
12.1823591088193
20
0.126655650182982
30
0
41
1
10
12.626573676933
20
-0.0922821341695226
30
0
41
1
10
13.0682461793916
20
-0.310872289910833
30
0
41
1
10
13.7292163016516
20
-0.633635375520441
30
0
41
1
10
13.9492931211164
20
-0.740348865750946
30
0
41
1
10
14.3893987166885
20
-0.951140114290411
30
0
41
1
10
14.609410121969
20
-1.05525324086898
30
0
41
1
10
15.0497061499761
20
-1.26020728403097
30
0
41
1
10
15.270008484998
20
-1.36101431075656
30
0
41
1
10
15.7112264878166
20
-1.55867936781817
30
0
41
1
10
15.9322073872644
20
-1.65541374290314
30
0
41
1
10
16.2645091903039
20
-1.79683833348588
30
0
41
1
10
16.3754771447343
20
-1.84340276147424
30
0
41
1
10
16.5974163575352
20
-1.935093134097
30
0
41
1
10
16.708293694168
20
-1.9801711512701
30
0
41
1
10
17.0406971006806
20
-2.11303291893327
30
0
41
1
10
17.2619521837887
20
-2.19850763473011
30
0
41
1
10
17.9256347669133
20
-2.44415224087143
30
0
41
1
10
18.3678278694846
20
-2.5938039757155
30
0
41
1
10
18.9220022189194
20
-2.76062200662005
30
0
41
1
10
19.0329865015354
20
-2.79297508767317
30
0
41
1
10
19.2548077795175
20
-2.85544232775447
30
0
41
1
10
19.365634616183
20
-2.88555628556478
30
0
41
1
10
19.6979095622921
20
-2.9725044405549
30
0
41
1
10
19.9191625496995
20
-3.02593329272392
30
0
41
1
10
20.3614954440797
20
-3.12339516102247
30
0
41
1
10
20.5825390867809
20
-3.16745268985633
30
0
41
1
10
21.0250039029198
20
-3.24570112819347
30
0
41
1
10
21.2463863366444
20
-3.2799282020531
30
0
41
1
10
21.5789418088492
20
-3.32371132945144
30
0
41
1
10
21.6899352290943
20
-3.33704583230127
30
0
41
1
10
21.9116273526375
20
-3.36111629225508
30
0
41
1
10
22.0223663704636
20
-3.37186054210289
30
0
41
1
10
22.3544249601761
20
-3.40016677177457
30
0
41
1
10
22.5755836507462
20
-3.41380855332849
30
0
41
1
10
22.9649593514154
20
-3.42860005516596
30
0
41
1
10
23.1332013247127
20
-3.43195571982813
30
0
41
1
10
23.3014898605203
20
-3.43226321078171
30
0
0
SPLINE
5
119
100
AcDbEntity
8
1
62
256
6
ByLayer
370
18
48
1
60
0
100
AcDbSpline
70
4
71
3
72
58
73
54
40
0
40
0
40
0
40
0
40
0.0015884040208031
40
0.0015884040208031
40
0.0469707492925864
40
0.0469707492925864
40
0.0923530945643696
40
0.0923530945643696
40
0.137735439836153
40
0.137735439836153
40
0.160426612472044
40
0.160426612472044
40
0.183117785107936
40
0.183117785107936
40
0.22850013037972
40
0.22850013037972
40
0.273882475651503
40
0.273882475651503
40
0.319264820923286
40
0.319264820923286
40
0.341955993559176
40
0.341955993559176
40
0.364647166195067
40
0.364647166195067
40
0.455411856738631
40
0.455411856738631
40
0.546176547282195
40
0.546176547282195
40
0.591558892553979
40
0.591558892553979
40
0.636941237825762
40
0.636941237825762
40
0.682323583097545
40
0.682323583097545
40
0.705014755733436
40
0.705014755733436
40
0.716360342051382
40
0.716360342051382
40
0.727705928369328
40
0.727705928369328
40
0.773088273641107
40
0.773088273641107
40
0.818470618912885
40
0.818470618912885
40
0.863852964184664
40
0.863852964184664
40
0.886544136820555
40
0.886544136820555
40
0.8978897231385
40
0.8978897231385
40
0.909235309456445
40
0.909235309456445
40
1
40
1
40
1
40
1
41
1
10
39.9488023470318
20
2.56993925046547
30
0
41
1
10
39.9565514155926
20
2.57255052133428
30
0
41
1
10
39.9643007934098
20
2.57515718921297
30
0
41
1
10
40.19346705034
20
2.65210259123992
30
0
41
1
10
40.4144879510333
20
2.7223668060345
30
0
41
1
10
40.8562150192829
20
2.8542093962273
30
0
41
1
10
41.0768853955167
20
2.91583226724183
30
0
41
1
10
41.5182478043234
20
3.03004060662565
30
0
41
1
10
41.7388927608638
20
3.08267090497148
30
0
41
1
10
42.070212368279
20
3.15448412577513
30
0
41
1
10
42.1807138259566
20
3.1772318352416
30
0
41
1
10
42.4018827309485
20
3.22030585149713
30
0
41
1
10
42.5126122376171
20
3.24064495673329
30
0
41
1
10
42.8445683625264
20
3.29788002063549
30
0
41
1
10
43.0655153751238
20
3.33097357406388
30
0
41
1
10
43.5069667629953
20
3.38691780799999
30
0
41
1
10
43.7275330564166
20
3.4097321178854
30
0
41
1
10
44.168790621702
20
3.44489577145279
30
0
41
1
10
44.3894488701088
20
3.4572560728509
30
0
41
1
10
44.7207961628582
20
3.46785935083662
30
0
41
1
10
44.8312981410544
20
3.47007226383999
30
0
41
1
10
45.0524450863948
20
3.47183509636184
30
0
41
1
10
45.1631688812663
20
3.47138119139612
30
0
41
1
10
45.7154991160979
20
3.46247198577356
30
0
41
1
10
46.1545447776683
20
3.4341644436968
30
0
41
1
10
47.0296361953655
20
3.3369769300883
30
0
41
1
10
47.4659194396397
20
3.26818553737087
30
0
41
1
10
48.1206355659461
20
3.13634224915347
30
0
41
1
10
48.3388721090666
20
3.08757096824817
30
0
41
1
10
48.775899018636
20
2.98083134694124
30
0
41
1
10
48.9946912912547
20
2.92287288664656
30
0
41
1
10
49.4331309981772
20
2.79801377853767
30
0
41
1
10
49.6528037801252
20
2.73114420510447
30
0
41
1
10
49.9832042798014
20
2.62431655538578
30
0
41
1
10
50.0934989816105
20
2.58763653084975
30
0
41
1
10
50.2592310254555
20
2.53106167992061
30
0
41
1
10
50.3145476188244
20
2.51193542496
30
0
41
1
10
50.4251273032321
20
2.473226445146
30
0
41
1
10
50.4803945292164
20
2.45364216895783
30
0
41
1
10
50.7566271748955
20
2.35458819158956
30
0
41
1
10
50.9772714197326
20
2.2717042091559
30
0
41
1
10
51.4183037592421
20
2.09933005729837
30
0
41
1
10
51.6386305716757
20
2.00974129260317
30
0
41
1
10
52.0794982788955
20
1.82470947453629
30
0
41
1
10
52.3000359279204
20
1.72926626664119
30
0
41
1
10
52.6312310997951
20
1.58209074872693
30
0
41
1
10
52.7416971731992
20
1.53236853876311
30
0
41
1
10
52.9075403781013
20
1.45686106548746
30
0
41
1
10
52.9628379217477
20
1.4315386510965
30
0
41
1
10
53.0732806240597
20
1.38066770273636
30
0
41
1
10
53.1284504315184
20
1.35510884244644
30
0
41
1
10
53.624583619986
20
1.12410571022426
30
0
41
1
10
54.0628659686237
20
0.912015904339228
30
0
41
1
10
54.4999174894781
20
0.696190138191668
30
0
0
SPLINE
5
11A
100
AcDbEntity
8
1
62
256
6
ByLayer
370
18
48
1
60
0
100
AcDbSpline
70
4
71
3
72
39
73
35
40
0
40
0
40
0
40
0
40
0.0214915103389352
40
0.0214915103389352
40
0.0429830206778704
40
0.0859660413557433
40
0.171932082711489
40
0.171932082711489
40
0.193423593050426
40
0.193423593050426
40
0.214915103389362
40
0.257898124067238
40
0.257898124067238
40
0.343864165422992
40
0.343864165422992
40
0.429830206778746
40
0.429830206778746
40
0.5157962481345
40
0.5157962481345
40
0.53728775847344
40
0.53728775847344
40
0.558779268812381
40
0.601762289490259
40
0.601762289490259
40
0.687728330846016
40
0.687728330846016
40
0.859660413557532
40
0.859660413557532
40
0.94562645491329
40
0.94562645491329
40
0.967117965252229
40
0.967117965252229
40
0.988609475591169
40
1
40
1
40
1
40
1
41
1
10
54.4999174894778
20
0.752745585674091
30
0
41
1
10
54.5896893474154
20
0.70867010682673
30
0
41
1
10
54.6794910086051
20
0.664393030249954
30
0
41
1
10
54.8589836131238
20
0.575580486348599
30
0
41
1
10
55.1280773646855
20
0.441964321598022
30
0
41
1
10
55.7552115516754
20
0.12793947145525
30
0
41
1
10
56.292401774176
20
-0.143227075262132
30
0
41
1
10
56.7409141300986
20
-0.368218605918401
30
0
41
1
10
56.8307137538867
20
-0.413195225134217
30
0
41
1
10
57.0100899514827
20
-0.502833727310048
30
0
41
1
10
57.2788291039686
20
-0.636824065381546
30
0
41
1
10
57.5467102458026
20
-0.769186427590853
30
0
41
1
10
58.0816604912728
20
-1.03110588464037
30
0
41
1
10
58.4372098178733
20
-1.2019763290705
30
0
41
1
10
59.1480070175695
20
-1.53274758760537
30
0
41
1
10
59.5032688272032
20
-1.69262417365951
30
0
41
1
10
60.2153002074865
20
-1.99816853825178
30
0
41
1
10
60.5720142289107
20
-2.14393974221562
30
0
41
1
10
61.0196979840368
20
-2.3157281880089
30
0
41
1
10
61.1093296421926
20
-2.34956438077799
30
0
41
1
10
61.2887834349524
20
-2.41613556983466
30
0
41
1
10
61.5575590625028
20
-2.51408426876728
30
0
41
1
10
61.8252423692519
20
-2.6061677781355
30
0
41
1
10
62.3594915863911
20
-2.78213959393526
30
0
41
1
10
62.7141681621631
20
-2.88851652438959
30
0
41
1
10
63.7765076139898
20
-3.17206162334742
30
0
41
1
10
64.4826086915178
20
-3.31357110040153
30
0
41
1
10
65.547817820379
20
-3.44659675973549
30
0
41
1
10
65.9039129577488
20
-3.47771011349536
30
0
41
1
10
66.351454275913
20
-3.4992192026655
30
0
41
1
10
66.4411488395837
20
-3.50265368533451
30
0
41
1
10
66.6203961027801
20
-3.50775655359149
30
0
41
1
10
66.7574295292654
20
-3.51031247393331
30
0
41
1
10
66.8943525333364
20
-3.51081222153331
30
0
41
1
10
66.9417720978726
20
-3.51073895754769
30
0
0
SPLINE
5
11B
100
AcDbEntity
8
1
62
256
6
ByLayer
370
18
48
1
60
0
100
AcDbSpline
70
4
71
3
72
19
73
15
40
0
40
0
40
0
40
0
40
0.0837246269821302
40
0.0837246269821302
40
0.140991837795751
40
0.140991837795751
40
0.19825904860937
40
0.312793470236602
40
0.312793470236602
40
0.541862313491068
40
0.541862313491068
40
0.770931156745534
40
0.770931156745534
40
1
40
1
40
1
40
1
41
1
10
83.9932117997234
20
2.76491675842479
30
0
41
1
10
84.1232608957766
20
2.80662908259453
30
0
41
1
10
84.2535133338275
20
2.84695888988821
30
0
41
1
10
84.4732687535991
20
2.9124355871493
30
0
41
1
10
84.5626591295299
20
2.93835612683142
30
0
41
1
10
84.7416345615237
20
2.98877626930994
30
0
41
1
10
85.0097603882515
20
3.06209872167585
30
0
41
1
10
85.2770063673599
20
3.1284037155514
30
0
41
1
10
85.810671679348
20
3.25143140219984
30
0
41
1
10
86.1653524788448
20
3.32066466746946
30
0
41
1
10
86.8742669424867
20
3.43258290998955
30
0
41
1
10
87.2284794091269
20
3.4752884194919
30
0
41
1
10
87.9379891954652
20
3.53333395490978
30
0
41
1
10
88.2932910853285
20
3.54866279895535
30
0
41
1
10
88.6500422170487
20
3.54987326448256
30
0
0
SPLINE
5
11C
100
AcDbEntity
8
1
62
256
6
ByLayer
370
18
48
1
60
0
100
AcDbSpline
70
4
71
3
72
49
73
45
40
0
40
0
40
0
40
0
40
0.0010821155540982
40
0.0010821155540982
40
0.048132082395349
40
0.048132082395349
40
0.0951820492366005
40
0.0951820492366005
40
0.142232016077852
40
0.165756999498476
40
0.165756999498476
40
0.1892819829191
40
0.1892819829191
40
0.236331949760345
40
0.236331949760345
40
0.28338191660159
40
0.28338191660159
40
0.377481850284081
40
0.377481850284081
40
0.401006833704703
40
0.401006833704703
40
0.424531817125326
40
0.424531817125326
40
0.471581783966568
40
0.471581783966568
40
0.565681717649056
40
0.565681717649056
40
0.6127316844903
40
0.6127316844903
40
0.659781651331543
40
0.659781651331543
40
0.753881585014028
40
0.753881585014028
40
0.800931551855271
40
0.800931551855271
40
0.847981518696513
40
0.847981518696513
40
0.871506502117134
40
0.871506502117134
40
0.895031485537755
40
0.895031485537755
40
0.942081452378998
40
0.942081452378998
40
1
40
1
40
1
40
1
41
1
10
76.9631191336891
20
3.39832755319745
30
0
41
1
10
76.96716819194
20
3.39843529744064
30
0
41
1
10
76.9712172182158
20
3.3985415559076
30
0
41
1
10
77.1513149063458
20
3.40320197369098
30
0
41
1
10
77.3272904216487
20
3.4049783122023
30
0
41
1
10
77.6799761869251
20
3.40097499858786
30
0
41
1
10
77.8566809373694
20
3.39521940089872
30
0
41
1
10
78.2109011949032
20
3.37670939229173
30
0
41
1
10
78.4771662181071
20
3.35757419235981
30
0
41
1
10
78.7442257574618
20
3.33113187172654
30
0
41
1
10
78.9224298363249
20
3.31194692987805
30
0
41
1
10
79.0116668812228
20
3.30157094309081
30
0
41
1
10
79.279180957215
20
3.26825215723861
30
0
41
1
10
79.4571891339335
20
3.24308705555805
30
0
41
1
10
79.8131269079972
20
3.18579613000764
30
0
41
1
10
79.9910385993136
20
3.15372693968612
30
0
41
1
10
80.5247726737358
20
3.04817677244304
30
0
41
1
10
80.8805786684457
20
2.96532482520834
30
0
41
1
10
81.325590778494
20
2.84795683716794
30
0
41
1
10
81.4146126692879
20
2.82378620996209
30
0
41
1
10
81.592778538965
20
2.77400423072129
30
0
41
1
10
81.6819923775183
20
2.74837074150966
30
0
41
1
10
81.9493352341788
20
2.66942052636068
30
0
41
1
10
82.127122870132
20
2.61409668079924
30
0
41
1
10
82.6594079475748
20
2.44096035200738
30
0
41
1
10
83.0128140798868
20
2.31594342027157
30
0
41
1
10
83.5413952169018
20
2.11615410861626
30
0
41
1
10
83.7173581928383
20
2.04751301454243
30
0
41
1
10
84.0693614264668
20
1.90635738358748
30
0
41
1
10
84.2453801263396
20
1.83384824514945
30
0
41
1
10
84.7735046128261
20
1.61122092185573
30
0
41
1
10
85.1256850418478
20
1.45597272886997
30
0
41
1
10
85.6545001735263
20
1.21438411246618
30
0
41
1
10
85.8308811824177
20
1.13241972839626
30
0
41
1
10
86.1846404295646
20
0.96629634657549
30
0
41
1
10
86.3620048941973
20
0.882124970961428
30
0
41
1
10
86.6287330045282
20
0.754427583361291
30
0
41
1
10
86.7177561964322
20
0.711621821218671
30
0
41
1
10
86.8960378410084
20
0.625560523695526
30
0
41
1
10
86.9853123093674
20
0.582296988168821
30
0
41
1
10
87.2528334528309
20
0.452202899403886
30
0
41
1
10
87.4309988967188
20
0.364962863118336
30
0
41
1
10
87.8282051693676
20
0.169459004539448
30
0
41
1
10
88.0471820206966
20
0.0609957745641907
30
0
41
1
10
88.2660871798028
20
-0.0478167752030174
30
0
0
SPLINE
5
11D
100
AcDbEntity
8
1
62
256
6
ByLayer
370
18
48
1
60
0
100
AcDbSpline
70
4
71
3
72
8
73
4
40
0
40
0
40
0
40
0
40
1
40
1
40
1
40
1
41
1
10
88.6325278938586
20
-0.238709574352555
30
0
41
1
10
88.6471023822674
20
-0.243432701818307
30
0
41
1
10
88.6616841228794
20
-0.247892608635681
30
0
41
1
10
88.6762784792585
20
-0.252090812222889
30
0
0
SPLINE
5
11E
100
AcDbEntity
8
1
62
256
6
ByLayer
370
18
48
1
60
0
100
AcDbSpline
70
4
71
3
72
8
73
4
40
0
40
0
40
0
40
0
40
1
40
1
40
1
40
1
41
1
10
54.6454464995613
20
-3.45969929015271
30
0
41
1
10
54.941175921486
20
-3.47967972722373
30
0
41
1
10
55.236956937436
20
-3.48976980025657
30
0
41
1
10
55.5330377631587
20
-3.49028229844981
30
0
0
SPLINE
5
11F
100
AcDbEntity
8
1
62
256
6
ByLayer
370
18
48
1
60
0
100
AcDbSpline
70
4
71
3
72
52
73
48
40
0
40
0
40
0
40
0
40
0.0316333326732623
40
0.0316333326732623
40
0.112330554950481
40
0.112330554950481
40
0.152679166089091
40
0.152679166089091
40
0.193027777227702
40
0.193027777227702
40
0.233376388366313
40
0.233376388366313
40
0.273724999504923
40
0.273724999504923
40
0.314073610643534
40
0.314073610643534
40
0.354422221782144
40
0.354422221782144
40
0.435119444059368
40
0.435119444059368
40
0.475468055197981
40
0.475468055197981
40
0.515816666336594
40
0.515816666336594
40
0.535990971905901
40
0.535990971905901
40
0.556165277475209
40
0.556165277475209
40
0.596513888613824
40
0.596513888613824
40
0.63686249975244
40
0.63686249975244
40
0.677211110891056
40
0.677211110891056
40
0.757908333168289
40
0.757908333168289
40
0.798256944306907
40
0.798256944306907
40
0.838605555445525
40
0.838605555445525
40
0.919302777722759
40
0.919302777722759
40
0.939477083292069
40
0.939477083292069
40
0.959651388861379
40
0.959651388861379
40
1
40
1
40
1
40
1
41
1
10
75.4837713654576
20
3.40694182807857
30
0
41
1
10
75.621871407616
20
3.42530680740555
30
0
41
1
10
75.7600883184071
20
3.44162979667115
30
0
41
1
10
76.2514232711884
20
3.49230776727731
30
0
41
1
10
76.6053490308273
20
3.51543538918398
30
0
41
1
10
77.1377529349378
20
3.52945415794477
30
0
41
1
10
77.3154733819141
20
3.53064475863963
30
0
41
1
10
77.6722310211283
20
3.52592481982302
30
0
41
1
10
77.8502230665047
20
3.52004869630451
30
0
41
1
10
78.205530116546
20
3.50148319936912
30
0
41
1
10
78.3828396969557
20
3.48879539345123
30
0
41
1
10
78.7367303143218
20
3.45667733515657
30
0
41
1
10
78.9133092486774
20
3.43724402780043
30
0
41
1
10
79.2657700342843
20
3.39160621971095
30
0
41
1
10
79.4416838587372
20
3.36540261546804
30
0
41
1
10
79.7935804727026
20
3.3066793682126
30
0
41
1
10
79.9695382630762
20
3.2741582541737
30
0
41
1
10
80.4975319551843
20
3.16728223567213
30
0
41
1
10
80.849661182591
20
3.08362541168043
30
0
41
1
10
81.3785152961693
20
2.93960633417097
30
0
41
1
10
81.5549345082176
20
2.88851635486151
30
0
41
1
10
81.9086377993083
20
2.78081288872156
30
0
41
1
10
82.0859047258099
20
2.72419156752369
30
0
41
1
10
82.3524694721157
20
2.63513194395074
30
0
41
1
10
82.4414357213043
20
2.60475759729678
30
0
41
1
10
82.6196011772303
20
2.54263470587657
30
0
41
1
10
82.7088855309374
20
2.51085466526016
30
0
41
1
10
82.9762625400202
20
2.41376514090538
30
0
41
1
10
83.1539643002335
20
2.34668004857352
30
0
41
1
10
83.5083949163325
20
2.20800467966649
30
0
41
1
10
83.685142508703
20
2.13643872194112
30
0
41
1
10
84.0383375741117
20
1.98993022833179
30
0
41
1
10
84.2147643419443
20
1.91496046206405
30
0
41
1
10
84.7434886272437
20
1.68489430477771
30
0
41
1
10
85.0952257163448
20
1.52463837364846
30
0
41
1
10
85.6223482258085
20
1.27498378314709
30
0
41
1
10
85.7979889743468
20
1.19023710050735
30
0
41
1
10
86.1498290802433
20
1.01898980531121
30
0
41
1
10
86.3260231187552
20
0.932486564956065
30
0
41
1
10
86.8553756239783
20
0.670256455812989
30
0
41
1
10
87.2092875495568
20
0.491781073302263
30
0
41
1
10
87.6535380553151
20
0.265104963531684
30
0
41
1
10
87.7424828305901
20
0.219593123025504
30
0
41
1
10
87.9205868422771
20
0.128259291815738
30
0
41
1
10
88.0097149548773
20
0.082453296961063
30
0
41
1
10
88.2768158470692
20
-0.0550286231888606
30
0
41
1
10
88.4547083831669
20
-0.146873459799792
30
0
41
1
10
88.6325278938584
20
-0.238709574353805
30
0
0
SPLINE
5
120
100
AcDbEntity
8
1
62
256
6
ByLayer
370
18
48
1
60
0
100
AcDbSpline
70
4
71
5
72
12
73
6
40
0
40
0
40
0
40
0
40
0
40
0
40
1
40
1
40
1
40
1
40
1
40
1
41
1
10
16.6476602066635
20
-1.95160244129121
30
0
41
1
10
15.4517166326865
20
-2.21071076066099
30
0
41
1
10
14.2636354049756
20
-2.46718724723985
30
0
41
1
10
13.0840830640719
20
-2.7182876490746
30
0
41
1
10
11.9136035820553
20
-2.96167921545555
30
0
41
1
10
10.7525524689074
20
-3.19579694465645
30
0
0
SPLINE
5
121
100
AcDbEntity
8
1
62
256
6
ByLayer
370
18
48
1
60
0
100
AcDbSpline
70
4
71
3
72
78
73
74
40
0
40
0
40
0
40
0
40
0.0625000000000064
40
0.0625000000000064
40
0.125000000000013
40
0.125000000000013
40
0.187500000000019
40
0.187500000000019
40
0.250000000000026
40
0.250000000000026
40
0.265625000000028
40
0.265625000000028
40
0.281250000000031
40
0.281250000000031
40
0.312500000000034
40
0.312500000000034
40
0.375000000000041
40
0.375000000000041
40
0.390625000000043
40
0.390625000000043
40
0.406250000000044
40
0.406250000000044
40
0.437500000000048
40
0.437500000000048
40
0.468750000000051
40
0.468750000000051
40
0.500000000000054
40
0.500000000000054
40
0.507812500000054
40
0.507812500000054
40
0.515625000000055
40
0.515625000000055
40
0.531250000000054
40
0.531250000000054
40
0.562500000000053
40
0.562500000000053
40
0.570312500000052
40
0.570312500000052
40
0.578125000000052
40
0.578125000000052
40
0.593750000000051
40
0.593750000000051
40
0.625000000000051
40
0.625000000000051
40
0.63281250000005
40
0.63281250000005
40
0.64062500000005
40
0.65625000000005
40
0.671875000000049
40
0.671875000000049
40
0.679687500000049
40
0.679687500000049
40
0.687500000000049
40
0.687500000000049
40
0.718750000000044
40
0.718750000000044
40
0.75000000000004
40
0.75000000000004
40
0.765625000000037
40
0.765625000000037
40
0.781250000000033
40
0.781250000000033
40
0.812500000000029
40
0.812500000000029
40
0.843750000000025
40
0.843750000000025
40
0.87500000000002
40
0.87500000000002
40
0.906250000000016
40
0.906250000000016
40
0.937500000000011
40
0.937500000000011
40
1
40
1
40
1
40
1
41
1
10
10.7525524690187
20
-3.19579694467581
30
0
41
1
10
10.6080200447458
20
-3.17069450902738
30
0
41
1
10
10.464613198061
20
-3.14294527762601
30
0
41
1
10
10.1803037803927
20
-3.08138846957925
30
0
41
1
10
10.0393997791903
20
-3.04758475229954
30
0
41
1
10
9.76044380533963
20
-2.97289818880506
30
0
41
1
10
9.62238920570564
20
-2.93202241570145
30
0
41
1
10
9.34963403408909
20
-2.84175422588262
30
0
41
1
10
9.2149281364905
20
-2.79237611212591
30
0
41
1
10
9.04912207422549
20
-2.72398373766126
30
0
41
1
10
9.01609059471113
20
-2.70996930564465
30
0
41
1
10
8.95030352579815
20
-2.68122295418746
30
0
41
1
10
8.91753793813945
20
-2.66648575567808
30
0
41
1
10
8.81996669163843
20
-2.62125579420436
30
0
41
1
10
8.75579584999889
20
-2.58971001696193
30
0
41
1
10
8.56624604341863
20
-2.49034048190953
30
0
41
1
10
8.44377604080111
20
-2.41787138464221
30
0
41
1
10
8.29726251762378
20
-2.31669649582497
30
0
41
1
10
8.26829276497668
20
-2.29592522053977
30
0
41
1
10
8.21108258815454
20
-2.25320616890912
30
0
41
1
10
8.1829443477088
20
-2.23133326447783
30
0
41
1
10
8.10019555527583
20
-2.16418485880803
30
0
41
1
10
8.04717582384961
20
-2.11733706487138
30
0
41
1
10
7.94616213911831
20
-2.01875835433637
30
0
41
1
10
7.89816310789416
20
-1.96703230455827
30
0
41
1
10
7.80822589018092
20
-1.85768863381063
30
0
41
1
10
7.76627761397822
20
-1.80008066988296
30
0
41
1
10
7.71860293294787
20
-1.72344567894126
30
0
41
1
10
7.70930780723492
20
-1.7078857250124
30
0
41
1
10
7.69123000803472
20
-1.67626817491276
30
0
41
1
10
7.68242961922903
20
-1.66017600404899
30
0
41
1
10
7.65699103742202
20
-1.61136786573132
30
0
41
1
10
7.64135414280071
20
-1.57821126901538
30
0
41
1
10
7.59868134693804
20
-1.47676357375002
30
0
41
1
10
7.57586062897215
20
-1.40650469243892
30
0
41
1
10
7.55555620124503
20
-1.31485683671661
30
0
41
1
10
7.55190816273429
20
-1.29633526221946
30
0
41
1
10
7.54547535424297
20
-1.25889107265419
30
0
41
1
10
7.54269864856678
20
-1.23999780924487
30
0
41
1
10
7.53577680397285
20
-1.18332783602017
30
0
41
1
10
7.53300416724716
20
-1.14536701476882
30
0
41
1
10
7.53019296492261
20
-1.03094843570892
30
0
41
1
10
7.53565271319681
20
-0.953955175112924
30
0
41
1
10
7.55170893570355
20
-0.85683260427453
30
0
41
1
10
7.55539173295236
20
-0.837321303568473
30
0
41
1
10
7.56364156281552
20
-0.798415415883483
30
0
41
1
10
7.57730170288394
20
-0.740394824412931
30
0
41
1
10
7.60622353198116
20
-0.645315800510474
30
0
41
1
10
7.63543795895626
20
-0.570858829996382
30
0
41
1
10
7.65947439209404
20
-0.515579743472529
30
0
41
1
10
7.6678410867824
20
-0.497247394483139
30
0
41
1
10
7.68526107580425
20
-0.460765060657081
30
0
41
1
10
7.69433214840313
20
-0.44258152845714
30
0
41
1
10
7.74111174830745
20
-0.352562992686416
30
0
41
1
10
7.78293710928443
20
-0.283581042904388
30
0
41
1
10
7.87357588550526
20
-0.150436611331486
30
0
41
1
10
7.92240091052224
20
-0.0862821054475944
30
0
41
1
10
7.99999077455414
20
0.0069450020905606
30
0
41
1
10
8.02658309142291
20
0.0375174281876696
30
0
41
1
10
8.08111033843997
20
0.0977349410412671
30
0
41
1
10
8.10907063025681
20
0.127400998748442
30
0
41
1
10
8.19409317813484
20
0.214395375818668
30
0
41
1
10
8.25251892644283
20
0.269992607337173
30
0
41
1
10
8.37222813964667
20
0.377265265378725
30
0
41
1
10
8.43351466331217
20
0.428936441623961
30
0
41
1
10
8.55850688763923
20
0.528966678317431
30
0
41
1
10
8.62221426629765
20
0.577323407194768
30
0
41
1
10
8.75172351829335
20
0.671176256259002
30
0
41
1
10
8.81752638105252
20
0.716671001689747
30
0
41
1
10
8.95097800418176
20
0.805145692078924
30
0
41
1
10
9.01867504243151
20
0.84815369489769
30
0
41
1
10
9.22391431371943
20
0.973614933957919
30
0
41
1
10
9.36321036713514
20
1.05231091748391
30
0
41
1
10
9.50449194904169
20
1.12707312764124
30
0
0
SPLINE
5
122
100
AcDbEntity
8
SK1
62
256
6
ByLayer
370
18
48
1
60
0
100
AcDbSpline
70
4
71
3
72
20
73
16
40
0
40
0
40
0
40
0
40
0.25
40
0.25
40
0.375
40
0.375
40
0.5
40
0.5
40
0.625
40
0.625
40
0.75
40
0.75
40
0.875
40
0.875
40
1
40
1
40
1
40
1
41
1
10
-35.5
20
3.23897595404662
30
0
41
1
10
-35.4882267853229
20
3.25098882275412
30
0
41
1
10
-35.4768284287078
20
3.2628520521437
30
0
41
1
10
-35.460270322179
20
3.28040507644127
30
0
41
1
10
-35.4548935789763
20
3.28616164672687
30
0
41
1
10
-35.4446281317026
20
3.29726350831669
30
0
41
1
10
-35.4397086144297
20
3.30264134329511
30
0
41
1
10
-35.4303421404714
20
3.31300432573448
30
0
41
1
10
-35.4258783488615
20
3.31800821801616
30
0
41
1
10
-35.4176059338444
20
3.32744181526249
30
0
41
1
10
-35.4138878532275
20
3.33176751215694
30
0
41
1
10
-35.4074805084037
20
3.33944714193007
30
0
41
1
10
-35.4047944770761
20
3.3428014065924
30
0
41
1
10
-35.4010706922354
20
3.34785828251754
30
0
41
1
10
-35.4
20
3.34961180319172
30
0
41
1
10
-35.4
20
3.35025747567403
30
0
0
SPLINE
5
123
100
AcDbEntity
8
SK1
62
256
6
ByLayer
370
18
48
1
60
0
100
AcDbSpline
70
4
71
3
72
8
73
4
40
0
40
0
40
0
40
0
40
1
40
1
40
1
40
1
41
1
10
-36
20
2.72618771474035
30
0
41
1
10
-35.8338566081703
20
2.89761647399089
30
0
41
1
10
-35.6671073075208
20
3.06846703185636
30
0
41
1
10
-35.5
20
3.2389759540466
30
0
0
SPLINE
5
124
100
AcDbEntity
8
SK1
62
256
6
ByLayer
370
18
48
1
60
0
100
AcDbSpline
70
4
71
3
72
8
73
4
40
0
40
0
40
0
40
0
40
1
40
1
40
1
40
1
41
1
10
-35.5
20
-3.06162764695696
30
0
41
1
10
-35.6671086258437
20
-2.89111737960826
30
0
41
1
10
-35.8338581646628
20
-2.72026656089358
30
0
41
1
10
-36
20
-2.54883940765075
30
0
0
SPLINE
5
125
100
AcDbEntity
8
SK1
62
256
6
ByLayer
370
18
48
1
60
0
100
AcDbSpline
70
4
71
3
72
22
73
18
40
0
40
0
40
0
40
0
40
0.0624999999999977
40
0.0624999999999977
40
0.124999999999995
40
0.124999999999995
40
0.187499999999993
40
0.187499999999993
40
0.249999999999991
40
0.249999999999991
40
0.374999999999991
40
0.374999999999991
40
0.499999999999991
40
0.499999999999991
40
0.749999999999995
40
0.749999999999995
40
1
40
1
40
1
40
1
41
1
10
-35.4
20
-3.1965556095297
30
0
41
1
10
-35.4
20
-3.19524679927096
30
0
41
1
10
-35.4002593711604
20
-3.19368944862012
30
0
41
1
10
-35.4012586213713
20
-3.19011355456243
30
0
41
1
10
-35.4019982904561
20
-3.18810517226987
30
0
41
1
10
-35.4038577960222
20
-3.1838026334521
30
0
41
1
10
-35.4049815019166
20
-3.18149465969722
30
0
41
1
10
-35.4075716365044
20
-3.17660213390459
30
0
41
1
10
-35.4090489365252
20
-3.17400033428748
30
0
41
1
10
-35.4138573413159
20
-3.1659736900402
30
0
41
1
10
-35.4175572189291
20
-3.16032366169242
30
0
41
1
10
-35.4257321189722
20
-3.14856075139258
30
0
41
1
10
-35.4302443207472
20
-3.14240453821014
30
0
41
1
10
-35.4443843974886
20
-3.12389501821647
30
0
41
1
10
-35.4547260031623
20
-3.11131407111753
30
0
41
1
10
-35.476826532951
20
-3.08598176001993
30
0
41
1
10
-35.4882298632593
20
-3.07363737507393
30
0
41
1
10
-35.5
20
-3.06162764695696
30
0
0
SPLINE
5
126
100
AcDbEntity
8
SK1
62
256
6
ByLayer
370
18
48
1
60
0
100
AcDbSpline
70
4
71
3
72
20
73
16
40
0
40
0
40
0
40
0
40
0.250000000000001
40
0.250000000000001
40
0.375000000000001
40
0.375000000000001
40
0.500000000000001
40
0.500000000000001
40
0.625
40
0.625
40
0.75
40
0.75
40
0.875
40
0.875
40
1
40
1
40
1
40
1
41
1
10
-35.5
20
-3.23897595404662
30
0
41
1
10
-35.4882267853229
20
-3.25098882275412
30
0
41
1
10
-35.4768284287078
20
-3.2628520521437
30
0
41
1
10
-35.460270322179
20
-3.28040507644127
30
0
41
1
10
-35.4548935789763
20
-3.28616164672687
30
0
41
1
10
-35.4446281317026
20
-3.29726350831669
30
0
41
1
10
-35.4397086144297
20
-3.30264134329511
30
0
41
1
10
-35.4303421404714
20
-3.31300432573448
30
0
41
1
10
-35.4258783488615
20
-3.31800821801616
30
0
41
1
10
-35.4176059338444
20
-3.32744181526249
30
0
41
1
10
-35.4138878532275
20
-3.33176751215694
30
0
41
1
10
-35.4074805084037
20
-3.33944714193007
30
0
41
1
10
-35.4047944770761
20
-3.3428014065924
30
0
41
1
10
-35.4010706922354
20
-3.34785828251754
30
0
41
1
10
-35.4
20
-3.34961180319172
30
0
41
1
10
-35.4
20
-3.35025747567403
30
0
0
SPLINE
5
127
100
AcDbEntity
8
SK1
62
256
6
ByLayer
370
18
48
1
60
0
100
AcDbSpline
70
4
71
3
72
8
73
4
40
0
40
0
40
0
40
0
40
1
40
1
40
1
40
1
41
1
10
-36
20
-2.72618771474035
30
0
41
1
10
-35.8338566081703
20
-2.89761647399089
30
0
41
1
10
-35.6671073075208
20
-3.06846703185636
30
0
41
1
10
-35.5
20
-3.2389759540466
30
0
0
SPLINE
5
128
100
AcDbEntity
8
1
62
256
6
ByLayer
370
18
48
1
60
0
100
AcDbSpline
70
4
71
3
72
8
73
4
40
0
40
0
40
0
40
0
40
1
40
1
40
1
40
1
41
1
10
75.6305552680053
20
1.00106190892828
30
0
41
1
10
75.6239758582348
20
1.00419031928604
30
0
41
1
10
75.6173950875009
20
1.00732526859338
30
0
41
1
10
75.6108129454798
20
1.01046669713969
30
0
0
SPLINE
5
129
100
AcDbEntity
8
1
62
256
6
ByLayer
370
18
48
1
60
0
100
AcDbSpline
70
4
71
3
72
8
73
4
40
0
40
0
40
0
40
0
40
1
40
1
40
1
40
1
41
1
10
32.0729010623146
20
1.02777969148357
30
0
41
1
10
32.0615811420057
20
1.03317894699524
30
0
41
1
10
32.0502578423952
20
1.0385959777866
30
0
41
1
10
32.0389311701748
20
1.04403070505739
30
0
0
SPLINE
5
12A
100
AcDbEntity
8
1
62
256
6
ByLayer
370
18
48
1
60
0
100
AcDbSpline
70
4
71
3
72
17
73
13
40
0
40
0
40
0
40
0
40
0.113074415668646
40
0.20641380508668
40
0.28001891343893
40
0.334332909698764
40
0.396554077683252
40
0.482766651818706
40
0.592966217609246
40
0.727145560351188
40
0.885293564493378
40
1
40
1
40
1
40
1
41
1
10
25.8709783671006
20
-0.0641560571465902
30
0
41
1
10
25.6340412613428
20
0.0014699649329657
30
0
41
1
10
25.2022722722023
20
0.12409956663771
30
0
41
1
10
24.6183709894642
20
0.297523163539893
30
0
41
1
10
24.1582321254731
20
0.438959480451416
30
0
41
1
10
23.7636702418575
20
0.563362316200966
30
0
41
1
10
23.343834945547
20
0.6987442850278
30
0
41
1
10
22.8096465413512
20
0.875875895993914
30
0
41
1
10
22.1291586075823
20
1.10959414576098
30
0
41
1
10
21.3043340261681
20
1.4054148234485
30
0
41
1
10
20.4742541112327
20
1.71619206302924
30
0
41
1
10
19.9217337807154
20
1.93505832404304
30
0
41
1
10
19.6900577451376
20
2.02871985364698
30
0
0
SPLINE
5
12B
100
AcDbEntity
8
1
62
256
6
ByLayer
370
18
48
1
60
0
100
AcDbSpline
70
4
71
3
72
10
73
6
40
0
40
0
40
0
40
0
40
0.434432549436583
40
0.956915211062138
40
1
40
1
40
1
40
1
41
1
10
83.9841876099119
20
2.71901635412127
30
0
41
1
10
84.3155442265094
20
2.8221220698837
30
0
41
1
10
85.0457351221432
20
3.01911404119531
30
0
41
1
10
85.8093254405416
20
3.20079710419941
30
0
41
1
10
86.2415617910904
20
3.25273958742744
30
0
41
1
10
86.2744910664987
20
3.25652075303904
30
0
0
SPLINE
5
12C
100
AcDbEntity
8
1
62
256
6
ByLayer
370
18
48
1
60
0
100
AcDbSpline
70
4
71
3
72
14
73
10
40
0
40
0
40
0
40
0
40
0.0604219728053684
40
0.137984314204217
40
0.256912807900326
40
0.401790898198557
40
0.576593693312888
40
0.78130868092446
40
1
40
1
40
1
40
1
41
1
10
89.1209169031312
20
0.528896674587486
30
0
41
1
10
89.028945702424
20
0.55799182821707
30
0
41
1
10
88.8190813169131
20
0.624991197864915
30
0
41
1
10
88.4290843634396
20
0.75222507042983
30
0
41
1
10
87.9121203950386
20
0.925328698251917
30
0
41
1
10
87.2502346176495
20
1.15478876475757
30
0
41
1
10
86.4622707430343
20
1.43910744452222
30
0
41
1
10
85.5679440107618
20
1.77645656698016
30
0
41
1
10
84.9388899932873
20
2.0257125472603
30
0
41
1
10
84.6150018258857
20
2.15723293757765
30
0
0
SPLINE
5
12D
100
AcDbEntity
8
1
62
256
6
ByLayer
370
18
48
1
60
0
100
AcDbSpline
70
4
71
3
72
13
73
9
40
0
40
0
40
0
40
0
40
0.166100976246474
40
0.319285877105596
40
0.468082200628745
40
0.638643268311647
40
0.832780346373262
40
1
40
1
40
1
40
1
41
1
10
47.4793975502384
20
-0.0242561942575321
30
0
41
1
10
47.132895821259
20
0.0726389601646531
30
0
41
1
10
46.4686781548253
20
0.265149408078003
30
0
41
1
10
45.4999607896519
20
0.565256677811789
30
0
41
1
10
44.5272576890222
20
0.884545323140571
30
0
41
1
10
43.4763984307106
20
1.2502188777637
30
0
41
1
10
42.394802420725
20
1.6490813193596
30
0
41
1
10
41.6662649382771
20
1.936251199026
30
0
41
1
10
41.3303509266221
20
2.07240876473517
30
0
0
SPLINE
5
12E
100
AcDbEntity
8
1
62
256
6
ByLayer
370
18
48
1
60
0
100
AcDbSpline
70
4
71
3
72
16
73
12
40
0
40
0
40
0
40
0
40
0.142846600925038
40
0.266340993422806
40
0.370484430554835
40
0.455283149562872
40
0.521599545652497
40
0.612909833388602
40
0.728133848438347
40
0.867263296249198
40
1
40
1
40
1
40
1
41
1
10
69.1193830083525
20
0.0059187216407395
30
0
41
1
10
68.8223376651686
20
0.0895390554968287
30
0
41
1
10
68.2698887852873
20
0.249901603433784
30
0
41
1
10
67.505106746077
20
0.484568904807475
30
0
41
1
10
66.8626848376379
20
0.690697465841424
30
0
41
1
10
66.339477982539
20
0.864746699254709
30
0
41
1
10
65.8432493020355
20
1.03451957265486
30
0
41
1
10
65.2860794770762
20
1.23049315067502
30
0
41
1
10
64.5830253229624
20
1.48664245563418
30
0
41
1
10
63.7992174276132
20
1.78357049344899
30
0
41
1
10
63.2520252742577
20
2.00082974043988
30
0
41
1
10
62.9855955736751
20
2.10889018082372
30
0
0
SPLINE
5
12F
100
AcDbEntity
8
1
62
256
6
ByLayer
370
18
48
1
60
0
100
AcDbSpline
70
4
71
3
72
21
73
17
40
0
40
0
40
0
40
0
40
0.0986331973977117
40
0.191940557363887
40
0.259485375040558
40
0.334373649244136
40
0.424946032631238
40
0.505282492041397
40
0.573415544909117
40
0.664194877257732
40
0.732380845533316
40
0.800348696249929
40
0.887679794288178
40
0.932004130237706
40
0.975961770564823
40
1
40
1
40
1
40
1
41
1
10
67.6584057504483
20
-3.37748219687
30
0
41
1
10
67.9148254031409
20
-3.37754602087279
30
0
41
1
10
68.4141065634439
20
-3.37788778641937
30
0
41
1
10
69.0873528245095
20
-3.38044511970568
30
0
41
1
10
69.7034691004164
20
-3.38081907783965
30
0
41
1
10
70.3116082642311
20
-3.38233498602889
30
0
41
1
10
70.9534560278682
20
-3.38341158954319
30
0
41
1
10
71.5775713739606
20
-3.38363581424429
30
0
41
1
10
72.2022484797067
20
-3.38560143273153
30
0
41
1
10
72.7951965846904
20
-3.38699344721636
30
0
41
1
10
73.387716650893
20
-3.38670557694479
30
0
41
1
10
73.9712288769035
20
-3.38739388970549
30
0
41
1
10
74.4924363781847
20
-3.38888978902398
30
0
41
1
10
74.9509565559051
20
-3.39003351212264
30
0
41
1
10
75.2442213563344
20
-3.39106087821995
30
0
41
1
10
75.4217557193356
20
-3.39140665185261
30
0
41
1
10
75.4845144292218
20
-3.39149975333859
30
0
0
SPLINE
5
130
100
AcDbEntity
8
1
62
256
6
ByLayer
370
18
48
1
60
0
100
AcDbSpline
70
4
71
2
72
6
73
3
40
0
40
0
40
0
40
1
40
1
40
1
41
1
10
55.5301822475271
20
3.35930100454917
30
0
41
1
10
55.0653725901452
20
3.35834127247776
30
0
41
1
10
54.6006965660997
20
3.35421922852433
30
0
0
SPLINE
5
131
100
AcDbEntity
8
1
62
256
6
ByLayer
370
18
48
1
60
0
100
AcDbSpline
70
4
71
2
72
6
73
3
40
0
40
0
40
0
40
1
40
1
40
1
41
1
10
56.7662062712161
20
0.008028038184591
30
0
41
1
10
56.7662057930122
20
0.0081176993087411
30
0
41
1
10
56.7662053148317
20
0.0082073320432983
30
0
0
SPLINE
5
132
100
AcDbEntity
8
1
62
256
6
ByLayer
370
18
48
1
60
0
100
AcDbSpline
70
4
71
3
72
24
73
20
40
0
40
0
40
0
40
0
40
0.084225801002862
40
0.144454391330853
40
0.181663451403353
40
0.215796313969391
40
0.25480970088113
40
0.341510873452267
40
0.41964302185821
40
0.467076621024784
40
0.505618777014923
40
0.547000878793599
40
0.600974352626022
40
0.658491653188812
40
0.726740218771948
40
0.807212880541798
40
0.897938820264717
40
0.972954059979774
40
1
40
1
40
1
40
1
41
1
10
77.2921521966348
20
3.39364781049394
30
0
41
1
10
77.072618692149
20
3.39257760097888
30
0
41
1
10
76.6961022427921
20
3.39132992499265
30
0
41
1
10
76.222605521311
20
3.39167696386485
30
0
41
1
10
75.8796763219058
20
3.39178814731221
30
0
41
1
10
75.5921243196328
20
3.39169933162233
30
0
41
1
10
75.1754768496517
20
3.39097554426178
30
0
41
1
10
74.6441352923039
20
3.389126632857
30
0
41
1
10
74.0908553599268
20
3.38787906541975
30
0
41
1
10
73.6630996946974
20
3.38689092169116
30
0
41
1
10
73.3311347715691
20
3.38683381020587
30
0
41
1
10
72.9821214699922
20
3.38685996374628
30
0
41
1
10
72.5836476777804
20
3.38656295071513
30
0
41
1
10
72.1151476875742
20
3.38530844562908
30
0
41
1
10
71.5775712620271
20
3.38364230681077
30
0
41
1
10
70.9534560646865
20
3.38340945394356
30
0
41
1
10
70.3116082558138
20
3.38233547425929
30
0
41
1
10
69.80928975457
20
3.38108285444534
30
0
41
1
10
69.5431038111884
20
3.38077851427408
30
0
41
1
10
69.4725887222247
20
3.38069800669368
30
0
0
LINE
5
82
100
AcDbEntity
8
81
62
256
6
ByLayer
370
18
48
1
60
0
100
AcDbLine
10
90
20
0
30
0
11
93
21
0
31
0
39
0
210
0
220
0
230
1
0
LINE
5
83
100
AcDbEntity
8
80
62
256
6
ByLayer
370
18
48
1
60
0
100
AcDbLine
10
0
20
0
30
0
11
-3
21
0
31
0
39
0
210
0
220
0
230
1
0
LINE
5
84
100
AcDbEntity
8
SK4
62
256
6
ByLayer
370
18
48
0.05
60
0
100
AcDbLine
10
-39
20
0
30
0
11
93
21
0
31
0
39
0
210
0
220
0
230
1
0
LINE
5
86
100
AcDbEntity
8
4
62
256
6
ByLayer
370
18
48
0.05
60
0
100
AcDbLine
10
0
20
0
30
0
11
90
21
0
31
0
39
0
210
0
220
0
230
1
0
LINE
5
88
100
AcDbEntity
8
1
62
256
6
ByLayer
370
18
48
1
60
0
100
AcDbLine
10
0
20
4
30
0
11
0
21
-4
31
0
39
0
210
0
220
0
230
1
0
LINE
5
89
100
AcDbEntity
8
1
62
256
6
ByLayer
370
13
48
1
60
0
100
AcDbLine
10
89.908445
20
0.379314
30
0
11
89.123262
21
1.167466
31
0
39
0
210
0
220
0
230
1
0
LINE
5
8A
100
AcDbEntity
8
1
62
256
6
ByLayer
370
13
48
1
60
0
100
AcDbLine
10
0.627452
20
-3.69629
30
0
11
0.627452
21
3.69629
31
0
39
0
210
0
220
0
230
1
0
LINE
5
8B
100
AcDbEntity
8
1
62
256
6
ByLayer
370
18
48
1
60
0
100
AcDbLine
10
54.499917
20
3.48842
30
0
11
54.499917
21
1.187333
31
0
39
0
210
0
220
0
230
1
0
LINE
5
8C
100
AcDbEntity
8
1
62
256
6
ByLayer
370
18
48
1
60
0
100
AcDbLine
10
54.499917
20
-3.469765
30
0
11
54.499917
21
-3.48842
31
0
39
0
210
0
220
0
230
1
0
LINE
5
8D
100
AcDbEntity
8
1
62
256
6
ByLayer
370
18
48
1
60
0
100
AcDbLine
10
54.499917
20
0.752746
30
0
11
54.499917
21
0.69619
31
0
39
0
210
0
220
0
230
1
0
LINE
5
8E
100
AcDbEntity
8
1
62
256
6
ByLayer
370
13
48
1
60
0
100
AcDbLine
10
1.256344
20
-3.392582
30
0
11
1.256344
21
3.392582
31
0
39
0
210
0
220
0
230
1
0
LINE
5
8F
100
AcDbEntity
8
SK1
62
256
6
ByLayer
370
18
48
1
60
0
100
AcDbLine
10
-36
20
-2.548815
30
0
11
-36
21
-2.726188
31
0
39
0
210
0
220
0
230
1
0
LINE
5
91
100
AcDbEntity
8
SK1
62
256
6
ByLayer
370
13
48
1
60
0
100
AcDbLine
10
-35.5
20
-3.238976
30
0
11
-35.5
21
-3.061575
31
0
39
0
210
0
220
0
230
1
0
LINE
5
92
100
AcDbEntity
8
SK1
62
256
6
ByLayer
370
18
48
1
60
0
100
AcDbLine
10
-35.4
20
3.36
30
0
11
-35.4
21
3.350257
31
0
39
0
210
0
220
0
230
1
0
LINE
5
93
100
AcDbEntity
8
SK1
62
256
6
ByLayer
370
18
48
1
60
0
100
AcDbLine
10
-36
20
2.726188
30
0
11
-36
21
-2.548839
31
0
39
0
210
0
220
0
230
1
0
LINE
5
94
100
AcDbEntity
8
SK1
62
256
6
ByLayer
370
18
48
1
60
0
100
AcDbLine
10
-35.4
20
-3.36
30
0
11
-35.4
21
-3.196556
31
0
39
0
210
0
220
0
230
1
0
LINE
5
95
100
AcDbEntity
8
SK1
62
256
6
ByLayer
370
18
48
1
60
0
100
AcDbLine
10
-34.76
20
-4
30
0
11
-34.76
21
4
31
0
39
0
210
0
220
0
230
1
0
LINE
5
96
100
AcDbEntity
8
SK1
62
256
6
ByLayer
370
18
48
1
60
0
100
AcDbLine
10
0
20
4
30
0
11
0
21
-4
31
0
39
0
210
0
220
0
230
1
0
LINE
5
97
100
AcDbEntity
8
1
62
256
6
ByLayer
370
18
48
1
60
0
100
AcDbLine
10
1.256344
20
-3.392582
30
0
11
13.213282
21
-3.414104
31
0
39
0
210
0
220
0
230
1
0
LINE
5
98
100
AcDbEntity
8
1
62
256
6
ByLayer
370
18
48
1
60
0
100
AcDbLine
10
23.301195
20
-3.432263
30
0
11
34.904852
21
-3.453149
31
0
39
0
210
0
220
0
230
1
0
LINE
5
99
100
AcDbEntity
8
1
62
256
6
ByLayer
370
18
48
1
60
0
100
AcDbLine
10
45.02687
20
-3.471369
30
0
11
54.499917
21
-3.48842
31
0
39
0
210
0
220
0
230
1
0
LINE
5
9A
100
AcDbEntity
8
1
62
256
6
ByLayer
370
18
48
1
60
0
100
AcDbLine
10
55.532796
20
-3.490279
30
0
11
56.596545
21
-3.492194
31
0
39
0
210
0
220
0
230
1
0
LINE
5
9B
100
AcDbEntity
8
1
62
256
6
ByLayer
370
18
48
1
60
0
100
AcDbLine
10
66.895563
20
-3.510732
30
0
11
67.657092
21
-3.512103
31
0
39
0
210
0
220
0
230
1
0
LINE
5
9C
100
AcDbEntity
8
1
62
256
6
ByLayer
370
18
48
1
60
0
100
AcDbLine
10
77.290755
20
-3.529444
30
0
11
78.287616
21
-3.531238
31
0
39
0
210
0
220
0
230
1
0
LINE
5
9D
100
AcDbEntity
8
1
62
256
6
ByLayer
370
18
48
1
60
0
100
AcDbLine
10
78.287616
20
3.531238
30
0
11
77.290755
21
3.529444
31
0
39
0
210
0
220
0
230
1
0
LINE
5
9E
100
AcDbEntity
8
1
62
256
6
ByLayer
370
18
48
1
60
0
100
AcDbLine
10
67.657092
20
3.512103
30
0
11
66.895563
21
3.510732
31
0
39
0
210
0
220
0
230
1
0
LINE
5
9F
100
AcDbEntity
8
1
62
256
6
ByLayer
370
18
48
1
60
0
100
AcDbLine
10
56.596545
20
3.492194
30
0
11
55.532796
21
3.490279
31
0
39
0
210
0
220
0
230
1
0
LINE
5
A0
100
AcDbEntity
8
1
62
256
6
ByLayer
370
18
48
1
60
0
100
AcDbLine
10
54.499917
20
3.48842
30
0
11
45.02687
21
3.471369
31
0
39
0
210
0
220
0
230
1
0
LINE
5
A1
100
AcDbEntity
8
1
62
256
6
ByLayer
370
18
48
1
60
0
100
AcDbLine
10
34.904852
20
3.453149
30
0
11
23.301195
21
3.432263
31
0
39
0
210
0
220
0
230
1
0
LINE
5
A2
100
AcDbEntity
8
1
62
256
6
ByLayer
370
18
48
1
60
0
100
AcDbLine
10
13.213282
20
3.414104
30
0
11
1.256344
21
3.392582
31
0
39
0
210
0
220
0
230
1
0
LINE
5
A3
100
AcDbEntity
8
SK1
62
256
6
ByLayer
370
18
48
1
60
0
100
AcDbLine
10
-35.4
20
-3.36
30
0
11
-34.76
21
-4
31
0
39
0
210
0
220
0
230
1
0
LINE
5
A4
100
AcDbEntity
8
SK1
62
256
6
ByLayer
370
18
48
1
60
0
100
AcDbLine
10
-34.76
20
4
30
0
11
-35.4
21
3.36
31
0
39
0
210
0
220
0
230
1
0
LINE
5
A5
100
AcDbEntity
8
SK1
62
256
6
ByLayer
370
18
48
1
60
0
100
AcDbLine
10
-34.76
20
-4
30
0
11
0
21
-4
31
0
39
0
210
0
220
0
230
1
0
LINE
5
A6
100
AcDbEntity
8
SK1
62
256
6
ByLayer
370
18
48
1
60
0
100
AcDbLine
10
0
20
4
30
0
11
-34.76
21
4
31
0
39
0
210
0
220
0
230
1
0
LINE
5
A7
100
AcDbEntity
8
2
62
256
6
ByLayer
370
13
48
1
60
0
100
AcDbLine
10
97.5
20
-3.55
30
0
11
97.5
21
27.099199
31
0
39
0
210
0
220
0
230
1
0
LINE
5
A9
100
AcDbEntity
8
2
62
256
6
ByLayer
370
13
48
1
60
0
100
AcDbLine
10
91.5875
20
3.55
30
0
11
99.5
21
3.55
31
0
39
0
210
0
220
0
230
1
0
LINE
5
AA
100
AcDbEntity
8
2
62
256
6
ByLayer
370
13
48
1
60
0
100
AcDbLine
10
91.5875
20
-3.55
30
0
11
99.5
21
-3.55
31
0
39
0
210
0
220
0
230
1
0
LINE
5
AB
100
AcDbEntity
8
1
62
256
6
ByLayer
370
18
48
1
60
1
100
AcDbLine
10
97.5
20
3.55
30
0
11
97.960784
21
0.050002
31
0
39
0
210
0
220
0
230
1
0
LINE
5
AC
100
AcDbEntity
8
1
62
256
6
ByLayer
370
18
48
1
60
1
100
AcDbLine
10
97.960784
20
0.050002
30
0
11
97.039216
21
0.049998
31
0
39
0
210
0
220
0
230
1
0
LINE
5
AD
100
AcDbEntity
8
1
62
256
6
ByLayer
370
18
48
1
60
1
100
AcDbLine
10
97.039216
20
0.049998
30
0
11
97.5
21
3.55
31
0
39
0
210
0
220
0
230
1
0
LINE
5
AE
100
AcDbEntity
8
1
62
256
6
ByLayer
370
18
48
1
60
1
100
AcDbLine
10
97.5
20
-3.55
30
0
11
97.039216
21
-0.050002
31
0
39
0
210
0
220
0
230
1
0
LINE
5
AF
100
AcDbEntity
8
1
62
256
6
ByLayer
370
18
48
1
60
1
100
AcDbLine
10
97.039216
20
-0.050002
30
0
11
97.960784
21
-0.049998
31
0
39
0
210
0
220
0
230
1
0
LINE
5
B0
100
AcDbEntity
8
1
62
256
6
ByLayer
370
18
48
1
60
1
100
AcDbLine
10
97.960784
20
-0.049998
30
0
11
97.5
21
-3.55
31
0
39
0
210
0
220
0
230
1
0
LINE
5
B1
100
AcDbEntity
8
SK2
62
256
6
ByLayer
370
13
48
1
60
0
100
AcDbLine
10
-44.5
20
-4
30
0
11
-44.5
21
13.841828
31
0
39
0
210
0
220
0
230
1
0
LINE
5
B3
100
AcDbEntity
8
SK2
62
256
6
ByLayer
370
13
48
1
60
0
100
AcDbLine
10
-37.5875
20
4
30
0
11
-46.5
21
4
31
0
39
0
210
0
220
0
230
1
0
LINE
5
B4
100
AcDbEntity
8
SK2
62
256
6
ByLayer
370
13
48
1
60
0
100
AcDbLine
10
-37.5875
20
-4
30
0
11
-46.5
21
-4
31
0
39
0
210
0
220
0
230
1
0
LINE
5
B5
100
AcDbEntity
8
1
62
256
6
ByLayer
370
18
48
1
60
1
100
AcDbLine
10
-44.5
20
4
30
0
11
-44.039216
21
0.500002
31
0
39
0
210
0
220
0
230
1
0
LINE
5
B6
100
AcDbEntity
8
1
62
256
6
ByLayer
370
18
48
1
60
1
100
AcDbLine
10
-44.039216
20
0.500002
30
0
11
-44.960784
21
0.499998
31
0
39
0
210
0
220
0
230
1
0
LINE
5
B7
100
AcDbEntity
8
1
62
256
6
ByLayer
370
18
48
1
60
1
100
AcDbLine
10
-44.960784
20
0.499998
30
0
11
-44.5
21
4
31
0
39
0
210
0
220
0
230
1
0
LINE
5
B8
100
AcDbEntity
8
1
62
256
6
ByLayer
370
18
48
1
60
1
100
AcDbLine
10
-44.5
20
-4
30
0
11
-44.960784
21
-0.500002
31
0
39
0
210
0
220
0
230
1
0
LINE
5
B9
100
AcDbEntity
8
1
62
256
6
ByLayer
370
18
48
1
60
1
100
AcDbLine
10
-44.960784
20
-0.500002
30
0
11
-44.039216
21
-0.499998
31
0
39
0
210
0
220
0
230
1
0
LINE
5
BA
100
AcDbEntity
8
1
62
256
6
ByLayer
370
18
48
1
60
1
100
AcDbLine
10
-44.039216
20
-0.499998
30
0
11
-44.5
21
-4
31
0
39
0
210
0
220
0
230
1
0
LINE
5
BB
100
AcDbEntity
8
SK2
62
256
6
ByLayer
370
13
48
1
60
0
100
AcDbLine
10
90.542922
20
1.491775
30
0
11
97.365034
21
20.236741
31
0
39
0
210
0
220
0
230
1
0
LINE
5
BC
100
AcDbEntity
8
SK2
62
256
6
ByLayer
370
13
48
1
60
0
100
AcDbLine
10
90.542922
20
-1.491775
30
0
11
97.365034
21
-20.236741
31
0
39
0
210
0
220
0
230
1
0
LINE
5
BD
100
AcDbEntity
8
1
62
256
6
ByLayer
370
18
48
1
60
1
100
AcDbLine
10
96.681038
20
18.35734
30
0
11
100.09002
21
17.440198
31
0
39
0
210
0
220
0
230
1
0
LINE
5
BE
100
AcDbEntity
8
1
62
256
6
ByLayer
370
18
48
1
60
1
100
AcDbLine
10
100.09002
20
17.440198
30
0
11
99.73649
21
16.589137
31
0
39
0
210
0
220
0
230
1
0
LINE
5
BF
100
AcDbEntity
8
1
62
256
6
ByLayer
370
18
48
1
60
1
100
AcDbLine
10
99.73649
20
16.589137
30
0
11
96.681038
21
18.35734
31
0
39
0
210
0
220
0
230
1
0
LINE
5
C0
100
AcDbEntity
8
1
62
256
6
ByLayer
370
18
48
1
60
1
100
AcDbLine
10
96.681038
20
-18.35734
30
0
11
99.736487
21
-16.589139
31
0
39
0
210
0
220
0
230
1
0
LINE
5
C1
100
AcDbEntity
8
1
62
256
6
ByLayer
370
18
48
1
60
1
100
AcDbLine
10
99.736487
20
-16.589139
30
0
11
100.090023
21
-17.440196
31
0
39
0
210
0
220
0
230
1
0
LINE
5
C2
100
AcDbEntity
8
1
62
256
6
ByLayer
370
18
48
1
60
1
100
AcDbLine
10
100.090023
20
-17.440196
30
0
11
96.681038
21
-18.35734
31
0
39
0
210
0
220
0
230
1
0
LINE
5
133
100
AcDbEntity
8
1
62
256
6
ByLayer
370
13
48
0.05
60
0
100
AcDbLine
10
-42.5
20
0
30
0
11
95.195688
21
0
31
0
39
0
210
0
220
0
230
1
0
LINE
5
138
100
AcDbEntity
8
1
62
256
6
ByLayer
370
18
48
1
60
1
100
AcDbLine
10
97.5
20
3.55
30
0
11
97.960784
21
0.050002
31
0
39
0
210
0
220
0
230
1
0
LINE
5
139
100
AcDbEntity
8
1
62
256
6
ByLayer
370
18
48
1
60
1
100
AcDbLine
10
97.960784
20
0.050002
30
0
11
97.039216
21
0.049998
31
0
39
0
210
0
220
0
230
1
0
LINE
5
13A
100
AcDbEntity
8
1
62
256
6
ByLayer
370
18
48
1
60
1
100
AcDbLine
10
97.039216
20
0.049998
30
0
11
97.5
21
3.55
31
0
39
0
210
0
220
0
230
1
0
LINE
5
13C
100
AcDbEntity
8
1
62
256
6
ByLayer
370
18
48
1
60
1
100
AcDbLine
10
97.5
20
-3.55
30
0
11
97.039216
21
-0.050002
31
0
39
0
210
0
220
0
230
1
0
LINE
5
13D
100
AcDbEntity
8
1
62
256
6
ByLayer
370
18
48
1
60
1
100
AcDbLine
10
97.039216
20
-0.050002
30
0
11
97.960784
21
-0.049998
31
0
39
0
210
0
220
0
230
1
0
LINE
5
13E
100
AcDbEntity
8
1
62
256
6
ByLayer
370
18
48
1
60
1
100
AcDbLine
10
97.960784
20
-0.049998
30
0
11
97.5
21
-3.55
31
0
39
0
210
0
220
0
230
1
0
LINE
5
142
100
AcDbEntity
8
1
62
256
6
ByLayer
370
18
48
1
60
1
100
AcDbLine
10
-44.5
20
4
30
0
11
-44.039216
21
0.500002
31
0
39
0
210
0
220
0
230
1
0
LINE
5
143
100
AcDbEntity
8
1
62
256
6
ByLayer
370
18
48
1
60
1
100
AcDbLine
10
-44.039216
20
0.500002
30
0
11
-44.960784
21
0.499998
31
0
39
0
210
0
220
0
230
1
0
LINE
5
144
100
AcDbEntity
8
1
62
256
6
ByLayer
370
18
48
1
60
1
100
AcDbLine
10
-44.960784
20
0.499998
30
0
11
-44.5
21
4
31
0
39
0
210
0
220
0
230
1
0
LINE
5
146
100
AcDbEntity
8
1
62
256
6
ByLayer
370
18
48
1
60
1
100
AcDbLine
10
-44.5
20
-4
30
0
11
-44.960784
21
-0.500002
31
0
39
0
210
0
220
0
230
1
0
LINE
5
147
100
AcDbEntity
8
1
62
256
6
ByLayer
370
18
48
1
60
1
100
AcDbLine
10
-44.960784
20
-0.500002
30
0
11
-44.039216
21
-0.499998
31
0
39
0
210
0
220
0
230
1
0
LINE
5
148
100
AcDbEntity
8
1
62
256
6
ByLayer
370
18
48
1
60
1
100
AcDbLine
10
-44.039216
20
-0.499998
30
0
11
-44.5
21
-4
31
0
39
0
210
0
220
0
230
1
0
LINE
5
14B
100
AcDbEntity
8
1
62
256
6
ByLayer
370
18
48
1
60
1
100
AcDbLine
10
96.681038
20
18.35734
30
0
11
100.09002
21
17.440198
31
0
39
0
210
0
220
0
230
1
0
LINE
5
14C
100
AcDbEntity
8
1
62
256
6
ByLayer
370
18
48
1
60
1
100
AcDbLine
10
100.09002
20
17.440198
30
0
11
99.73649
21
16.589137
31
0
39
0
210
0
220
0
230
1
0
LINE
5
14D
100
AcDbEntity
8
1
62
256
6
ByLayer
370
18
48
1
60
1
100
AcDbLine
10
99.73649
20
16.589137
30
0
11
96.681038
21
18.35734
31
0
39
0
210
0
220
0
230
1
0
LINE
5
14F
100
AcDbEntity
8
1
62
256
6
ByLayer
370
18
48
1
60
1
100
AcDbLine
10
96.681038
20
-18.35734
30
0
11
99.736487
21
-16.589139
31
0
39
0
210
0
220
0
230
1
0
LINE
5
150
100
AcDbEntity
8
1
62
256
6
ByLayer
370
18
48
1
60
1
100
AcDbLine
10
99.736487
20
-16.589139
30
0
11
100.090023
21
-17.440196
31
0
39
0
210
0
220
0
230
1
0
LINE
5
151
100
AcDbEntity
8
1
62
256
6
ByLayer
370
18
48
1
60
1
100
AcDbLine
10
100.090023
20
-17.440196
30
0
11
96.681038
21
-18.35734
31
0
39
0
210
0
220
0
230
1
0
MTEXT
5
134
100
AcDbEntity
8
2
62
256
6
ByLayer
370
18
48
1
60
0
100
AcDbMText
10
96.158886
20
17.208438
30
0
210
0
220
0
230
1
1
%%c
40
3
41
0
44
1.084337
50
90
71
7
72
5
7
iso_b_vert
0
MTEXT
5
137
100
AcDbEntity
8
2
62
256
6
ByLayer
370
18
48
1
60
0
100
AcDbMText
10
96.158886
20
23.185
30
0
210
0
220
0
230
1
1
\W0.6883;7.1
40
3
41
0
44
1.084337
50
90
71
7
72
5
7
iso_b_vert
0
MTEXT
5
140
100
AcDbEntity
8
SK2
62
256
6
ByLayer
370
18
48
1
60
0
100
AcDbMText
10
-45.841114
20
6.658437
30
0
210
0
220
0
230
1
1
%%c
40
3
41
0
44
1.084337
50
90
71
7
72
5
7
iso_b_vert
0
MTEXT
5
141
100
AcDbEntity
8
SK2
62
256
6
ByLayer
370
18
48
1
60
0
100
AcDbMText
10
-45.841114
20
12.635
30
0
210
0
220
0
230
1
1
\W0.5404;8
40
3
41
0
44
1.084337
50
90
71
7
72
5
7
iso_b_vert
0
MTEXT
5
14A
100
AcDbEntity
8
SK2
62
256
6
ByLayer
370
18
48
1
60
0
100
AcDbMText
10
106.09465
20
-2.114886
30
0
210
0
220
0
230
1
1
\W0.7071;140%%d
40
3
41
0
44
1.084337
50
0
71
7
72
5
7
iso_b_vert
0
MTEXT
5
153
100
AcDbEntity
8
SK6
62
256
6
ByLayer
370
18
48
1
60
0
100
AcDbMText
10
2.851829
20
-50.578639
30
0
210
0
220
0
230
1
1
\W0.7415;860.1-0710-058A1-SD S2BM
40
3
41
0
44
1.084337
50
0
71
7
72
5
7
iso_b_vert
0
HATCH
5
13B
100
AcDbEntity
8
2
62
256
6
ByLayer
370
13
48
1
60
0
100
AcDbHatch
10
0
20
0
30
0
210
0
220
0
230
1
2
ANSI31
70
0
71
0
91
1
92
5
93
3
72
1
10
97.5
20
3.55000000000001
11
97.9607837415528
21
0.0500016925531952
72
1
10
97.9607837415528
20
0.0500016925531952
11
97.0392162584472
21
0.0499983074468275
72
1
10
97.0392162584472
20
0.0499983074468275
11
97.5
21
3.55000000000001
97
0
75
0
76
1
52
0
41
0.0062
77
0
78
1
53
45
43
0
44
0
45
-0.0139193969876572
46
0.0139193969876572
79
0
47
0
98
1
10
0
20
0
0
HATCH
5
13F
100
AcDbEntity
8
2
62
256
6
ByLayer
370
13
48
1
60
0
100
AcDbHatch
10
0
20
0
30
0
210
0
220
0
230
1
2
ANSI31
70
0
71
0
91
1
92
5
93
3
72
1
10
97.5
20
-3.55000000000001
11
97.0392162584472
21
-0.0500016925531952
72
1
10
97.0392162584472
20
-0.0500016925531952
11
97.9607837415528
21
-0.0499983074468275
72
1
10
97.9607837415528
20
-0.0499983074468275
11
97.5
21
-3.55000000000001
97
0
75
0
76
1
52
0
41
0.0062
77
0
78
1
53
45
43
0
44
0
45
-0.0139193969876572
46
0.0139193969876572
79
0
47
0
98
1
10
0
20
0
0
HATCH
5
145
100
AcDbEntity
8
SK2
62
256
6
ByLayer
370
13
48
1
60
0
100
AcDbHatch
10
0
20
0
30
0
210
0
220
0
230
1
2
ANSI31
70
0
71
0
91
1
92
5
93
3
72
1
10
-44.5
20
4
11
-44.0392162584472
21
0.500001692553184
72
1
10
-44.0392162584472
20
0.500001692553184
11
-44.9607837415528
21
0.499998307446816
72
1
10
-44.9607837415528
20
0.499998307446816
11
-44.5
21
4
97
0
75
0
76
1
52
0
41
0.0062
77
0
78
1
53
45
43
0
44
0
45
-0.0139193969876572
46
0.0139193969876572
79
0
47
0
98
1
10
0
20
0
0
HATCH
5
149
100
AcDbEntity
8
SK2
62
256
6
ByLayer
370
13
48
1
60
0
100
AcDbHatch
10
0
20
0
30
0
210
0
220
0
230
1
2
ANSI31
70
0
71
0
91
1
92
5
93
3
72
1
10
-44.5
20
-4
11
-44.9607837415528
21
-0.500001692553184
72
1
10
-44.9607837415528
20
-0.500001692553184
11
-44.0392162584472
21
-0.499998307446816
72
1
10
-44.0392162584472
20
-0.499998307446816
11
-44.5
21
-4
97
0
75
0
76
1
52
0
41
0.0062
77
0
78
1
53
45
43
0
44
0
45
-0.0139193969876572
46
0.0139193969876572
79
0
47
0
98
1
10
0
20
0
0
HATCH
5
14E
100
AcDbEntity
8
SK2
62
256
6
ByLayer
370
13
48
1
60
0
100
AcDbHatch
10
0
20
0
30
0
210
0
220
0
230
1
2
ANSI31
70
0
71
0
91
1
92
5
93
3
72
1
10
96.6810375664428
20
18.357340062593
11
100.090019743303
21
17.4401975837722
72
1
10
100.090019743303
20
17.4401975837722
11
99.7364904566468
21
16.5891372631103
72
1
10
99.7364904566468
20
16.5891372631103
11
96.6810375664428
21
18.357340062593
97
0
75
0
76
1
52
0
41
0.0062
77
0
78
1
53
45
43
0
44
0
45
-0.0139193969876572
46
0.0139193969876572
79
0
47
0
98
1
10
0
20
0
0
HATCH
5
152
100
AcDbEntity
8
SK2
62
256
6
ByLayer
370
13
48
1
60
0
100
AcDbHatch
10
0
20
0
30
0
210
0
220
0
230
1
2
ANSI31
70
0
71
0
91
1
92
5
93
3
72
1
10
96.6810375664428
20
-18.357340062593
11
99.7364873305325
21
-16.5891385617074
72
1
10
99.7364873305325
20
-16.5891385617074
11
100.090022869418
21
-17.4401962851752
72
1
10
100.090022869418
20
-17.4401962851752
11
96.6810375664428
21
-18.357340062593
97
0
75
0
76
1
52
0
41
0.0062
77
0
78
1
53
45
43
0
44
0
45
-0.0139193969876572
46
0.0139193969876572
79
0
47
0
98
1
10
0
20
0
0
DIMENSION
5
156
100
AcDbEntity
8
SK2
62
256
6
ByLayer
370
18
48
1
60
0
100
AcDbDimension
2
_U0
10
32
20
-19.368089
30
0
11
61
21
-19.368089
31
0
70
32
71
1
72
1
41
1
210
0
220
0
230
1
3
Standard
100
AcDbAlignedDimension
13
90
23
-3.55
33
0
14
32
24
-3.55
34
0
50
0
100
AcDbRotatedDimension
1001
ACAD
1000
DSTYLE
1002
{
1070
   371
1070
    13
1070
   372
1070
    13
1070
   170
1070
     0
1070
   144
1040
1.0
1070
   277
1070
     2
1070
   284
1070
     8
1070
   278
1070
    46
1070
   146
1040
1.166667
1070
   345
1005
16
1070
   347
1005
16
1070
   346
1005
16
1070
   344
1005
0
1070
   343
1005
0
1070
   172
1070
     1
1070
    76
1070
     0
1070
    75
1070
     0
1070
   282
1070
     0
1070
   281
1070
     0
1070
     3
1000

1070
    71
1070
     0
1070
    74
1070
     0
1070
   279
1070
     0
1070
   173
1070
     1
1070
   340
1005
135
1070
   271
1070
     2
1070
   272
1070
     2
1070
    77
1070
     1
1070
    73
1070
     1
1070
   171
1070
     3
1070
   274
1070
     4
1070
   177
1070
     2
1070
   176
1070
     2
1070
   178
1070
     2
1070
    78
1070
     8
1070
    48
1040
-0.1
1070
    41
1040
3.5
1070
   147
1040
1.5
1070
    42
1040
1.5875
1070
    44
1040
2.0
1070
   140
1040
3.0
1002
}
1001
ACAD_DSTYLE_DIM_LINETYPE
1070
   380
1005
16
1001
ACAD_DSTYLE_DIM_EXT1_LINETYPE
1070
   381
1005
16
1001
ACAD_DSTYLE_DIM_EXT2_LINETYPE
1070
   382
1005
16
0
DIMENSION
5
171
100
AcDbEntity
8
SK2
62
256
6
ByLayer
370
18
48
1
60
0
100
AcDbDimension
2
_U1
10
6
20
-29.368089
30
0
11
48
21
-29.368089
31
0
70
32
71
1
72
1
41
1
210
0
220
0
230
1
3
Standard
100
AcDbAlignedDimension
13
90
23
-3.55
33
0
14
6
24
-3.55
34
0
50
0
100
AcDbRotatedDimension
1001
ACAD
1000
DSTYLE
1002
{
1070
   371
1070
    13
1070
   372
1070
    13
1070
     3
1000

1070
   170
1070
     0
1070
   144
1040
1.0
1070
   277
1070
     2
1070
   284
1070
     8
1070
   278
1070
    46
1070
   146
1040
1.166667
1070
   345
1005
16
1070
   347
1005
16
1070
   346
1005
16
1070
   344
1005
0
1070
   343
1005
0
1070
   172
1070
     1
1070
    76
1070
     0
1070
    75
1070
     0
1070
   282
1070
     0
1070
   281
1070
     0
1070
    71
1070
     0
1070
    74
1070
     0
1070
   279
1070
     0
1070
   173
1070
     1
1070
   340
1005
135
1070
   271
1070
     2
1070
   272
1070
     2
1070
    77
1070
     1
1070
    73
1070
     1
1070
   171
1070
     3
1070
   274
1070
     4
1070
   177
1070
     2
1070
   176
1070
     2
1070
   178
1070
     2
1070
    78
1070
     8
1070
    48
1040
-0.1
1070
    41
1040
3.5
1070
   147
1040
1.5
1070
    42
1040
1.5875
1070
    44
1040
2.0
1070
   140
1040
3.0
1002
}
1001
ACAD_DSTYLE_DIM_LINETYPE
1070
   380
1005
16
1001
ACAD_DSTYLE_DIM_EXT1_LINETYPE
1070
   381
1005
16
1001
ACAD_DSTYLE_DIM_EXT2_LINETYPE
1070
   382
1005
16
0
DIMENSION
5
189
100
AcDbEntity
8
SK2
62
256
6
ByLayer
370
18
48
1
60
0
100
AcDbDimension
2
_U2
10
0
20
-37.368089
30
0
11
-18
21
-37.368089
31
0
70
32
71
1
72
1
41
1
210
0
220
0
230
1
3
Standard
100
AcDbAlignedDimension
13
-36
23
-4
33
0
14
0
24
-4
34
0
50
0
100
AcDbRotatedDimension
1001
ACAD
1000
DSTYLE
1002
{
1070
   371
1070
    13
1070
   372
1070
    13
1070
     3
1000

1070
   170
1070
     0
1070
   144
1040
1.0
1070
   277
1070
     2
1070
   284
1070
     8
1070
   278
1070
    46
1070
   146
1040
1.166667
1070
   345
1005
16
1070
   347
1005
16
1070
   346
1005
16
1070
   344
1005
0
1070
   343
1005
0
1070
   172
1070
     1
1070
    76
1070
     0
1070
    75
1070
     0
1070
   282
1070
     0
1070
   281
1070
     0
1070
    71
1070
     0
1070
    74
1070
     0
1070
   279
1070
     0
1070
   173
1070
     1
1070
   340
1005
135
1070
   271
1070
     2
1070
   272
1070
     2
1070
    77
1070
     1
1070
    73
1070
     1
1070
   171
1070
     3
1070
   274
1070
     4
1070
   177
1070
     2
1070
   176
1070
     2
1070
   178
1070
     2
1070
    78
1070
     8
1070
    48
1040
-0.1
1070
    41
1040
3.5
1070
   147
1040
1.5
1070
    42
1040
1.5875
1070
    44
1040
2.0
1070
   140
1040
3.0
1002
}
1001
ACAD_DSTYLE_DIM_LINETYPE
1070
   380
1005
16
1001
ACAD_DSTYLE_DIM_EXT1_LINETYPE
1070
   381
1005
16
1001
ACAD_DSTYLE_DIM_EXT2_LINETYPE
1070
   382
1005
16
0
DIMENSION
5
1A1
100
AcDbEntity
8
SK2
62
256
6
ByLayer
370
18
48
1
60
0
100
AcDbDimension
2
_U3
10
90
20
-45.368089
30
0
11
27
21
-45.368089
31
0
70
32
71
1
72
1
41
1
210
0
220
0
230
1
3
Standard
100
AcDbAlignedDimension
13
-36
23
-4
33
0
14
90
24
-3.55
34
0
50
0
100
AcDbRotatedDimension
1001
ACAD
1000
DSTYLE
1002
{
1070
   371
1070
    13
1070
   372
1070
    13
1070
     3
1000

1070
   170
1070
     0
1070
   144
1040
1.0
1070
   277
1070
     2
1070
   284
1070
     8
1070
   278
1070
    46
1070
   146
1040
1.166667
1070
   345
1005
16
1070
   347
1005
16
1070
   346
1005
16
1070
   344
1005
0
1070
   343
1005
0
1070
   172
1070
     1
1070
    76
1070
     0
1070
    75
1070
     0
1070
   282
1070
     0
1070
   281
1070
     0
1070
    71
1070
     0
1070
    74
1070
     0
1070
   279
1070
     0
1070
   173
1070
     1
1070
   340
1005
135
1070
   271
1070
     2
1070
   272
1070
     2
1070
    77
1070
     1
1070
    73
1070
     1
1070
   171
1070
     3
1070
   274
1070
     4
1070
   177
1070
     2
1070
   176
1070
     2
1070
   178
1070
     2
1070
    78
1070
     8
1070
    48
1040
-0.1
1070
    41
1040
3.5
1070
   147
1040
1.5
1070
    42
1040
1.5875
1070
    44
1040
2.0
1070
   140
1040
3.0
1002
}
1001
ACAD_DSTYLE_DIM_LINETYPE
1070
   380
1005
16
1001
ACAD_DSTYLE_DIM_EXT1_LINETYPE
1070
   381
1005
16
1001
ACAD_DSTYLE_DIM_EXT2_LINETYPE
1070
   382
1005
16
0
DIMENSION
5
1B9
100
AcDbEntity
8
2
62
256
6
ByLayer
370
18
48
1
60
0
100
AcDbDimension
2
_U4
10
0
20
-37.368089
30
0
11
45
21
-37.368089
31
0
70
32
71
1
72
1
41
1
210
0
220
0
230
1
3
Standard
100
AcDbAlignedDimension
13
90
23
-3.55
33
0
14
0
24
-3.55
34
0
50
0
100
AcDbRotatedDimension
1001
ACAD
1000
DSTYLE
1002
{
1070
   371
1070
    13
1070
   372
1070
    13
1070
     3
1000

1070
   170
1070
     0
1070
   144
1040
1.0
1070
   277
1070
     2
1070
   284
1070
     8
1070
   278
1070
    46
1070
   146
1040
1.166667
1070
   345
1005
16
1070
   347
1005
16
1070
   346
1005
16
1070
   344
1005
0
1070
   343
1005
0
1070
   172
1070
     1
1070
    76
1070
     0
1070
    75
1070
     0
1070
   282
1070
     0
1070
   281
1070
     0
1070
    71
1070
     0
1070
    74
1070
     0
1070
   279
1070
     0
1070
   173
1070
     1
1070
   340
1005
135
1070
   271
1070
     2
1070
   272
1070
     2
1070
    77
1070
     1
1070
    73
1070
     1
1070
   171
1070
     3
1070
   274
1070
     4
1070
   177
1070
     2
1070
   176
1070
     2
1070
   178
1070
     2
1070
    78
1070
     8
1070
    48
1040
-0.1
1070
    41
1040
3.5
1070
   147
1040
1.5
1070
    42
1040
1.5875
1070
    44
1040
2.0
1070
   140
1040
3.0
1002
}
1001
ACAD_DSTYLE_DIM_LINETYPE
1070
   380
1005
16
1001
ACAD_DSTYLE_DIM_EXT1_LINETYPE
1070
   381
1005
16
1001
ACAD_DSTYLE_DIM_EXT2_LINETYPE
1070
   382
1005
16
0
ENDSEC
0
SECTION
2
OBJECTS
0
DICTIONARY
5
241
330
0
100
AcDbDictionary
280
0
281
1
3
ACAD_GROUP
350
242
3
ACAD_MLINESTYLE
350
243
0
DICTIONARY
5
242
330
0
100
AcDbDictionary
280
0
281
1
0
DICTIONARY
5
243
330
0
100
AcDbDictionary
280
0
281
1
3
Standard
350
18
0
MLINESTYLE
5
18
330
243
100
AcDbMlineStyle
2
Standard
70
0
3

62
256
51
90
52
90
71
2
49
-0.5
62
256
6
ByLayer
49
0.5
62
256
6
ByLayer
0
RASTERVARIABLES
5
22f
330

100
AcDbRasterVariables
90
0
70
1
71
1
72
1
0
ENDSEC
0
EOF
