0
SECTION
2
HEADER
9
$ACADVER
1
AC1015
9
$DWGCODEPAGE
3
ANSI_1252
9
$HANDSEED
5
231
9
$ANGBASE
50
0
9
$ANGDIR
70
0
9
$ATTMODE
70
1
9
$AUNITS
70
0
9
$AUPREC
70
0
9
$CECOLOR
62
256
9
$CELTSCALE
40
1
9
$CELTYPE
6
ByLayer
9
$CELWEIGHT
370
18
9
$CLAYER
8
0
9
$CMLJUST
70
0
9
$CMLSCALE
40
1
9
$CMLSTYLE
2
Standard
9
$DIMSTYLE
2
Standard
9
$TEXTSIZE
40
0.2
9
$TEXTSTYLE
7
Standard
9
$LUNITS
70
2
9
$LUPREC
70
4
9
$EXTNAMES
290
1
9
$INSUNITS
70
4
9
$LTSCALE
40
1
9
$LWDISPLAY
290
1
9
$PDMODE
70
0
9
$PDSIZE
40
0
9
$PLINEGEN
70
0
0
ENDSEC
0
SECTION
2
CLASSES
0
CLASS
1
RASTERVARIABLES
2
AcDbRasterVariables
3
ISM
90
0
280
0
281
0
0
ENDSEC
0
SECTION
2
TABLES
0
TABLE
2
VPORT
5
227
100
AcDbSymbolTable
0
VPORT
5
1
100
AcDbSymbolTableRecord
100
AcDbViewportTableRecord
2
*Active
70
0
10
0
20
0
11
1
21
1
12
-1
22
1
13
0
23
0
14
0.5
24
0.5
15
10
25
10
16
0
26
0
36
1
17
0
27
0
37
0
0
ENDTAB
0
TABLE
2
LTYPE
5
228
100
AcDbSymbolTable
0
LTYPE
5
14
100
AcDbSymbolTableRecord
100
AcDbLinetypeTableRecord
70
0
2
ByBlock
3

72
65
73
0
40
0
0
LTYPE
5
15
100
AcDbSymbolTableRecord
100
AcDbLinetypeTableRecord
70
0
2
ByLayer
3

72
65
73
0
40
0
0
LTYPE
5
16
100
AcDbSymbolTableRecord
100
AcDbLinetypeTableRecord
70
0
2
Continuous
3
Solid line
72
65
73
0
40
0
0
LTYPE
5
6E
100
AcDbSymbolTableRecord
100
AcDbLinetypeTableRecord
70
0
2
CENTER
3
____ _ ____ _ ____ _ ____
72
65
73
4
40
47.5
49
22
74
0
49
-8.5
74
0
49
8.5
74
0
49
-8.5
74
0
0
LTYPE
5
6F
100
AcDbSymbolTableRecord
100
AcDbLinetypeTableRecord
70
0
2
DASHED
3
__ __ __ __ __ __ __ __ __
72
65
73
2
40
25.72
49
12.86
74
0
49
-12.86
74
0
0
ENDTAB
0
TABLE
2
LAYER
5
229
100
AcDbSymbolTable
0
LAYER
5
10
100
AcDbSymbolTableRecord
100
AcDbLayerTableRecord
2
0
70
0
62
7
6
Continuous
290
1
370
-3
390
0
0
LAYER
5
71
100
AcDbSymbolTableRecord
100
AcDbLayerTableRecord
2
81
70
0
62
-3
6
Continuous
290
1
370
-3
390
0
0
LAYER
5
73
100
AcDbSymbolTableRecord
100
AcDbLayerTableRecord
2
80
70
0
62
-6
6
Continuous
290
1
370
-3
390
0
0
LAYER
5
75
100
AcDbSymbolTableRecord
100
AcDbLayerTableRecord
2
1
70
0
62
4
6
Continuous
290
1
370
-3
390
0
0
LAYER
5
83
100
AcDbSymbolTableRecord
100
AcDbLayerTableRecord
2
4
70
0
62
-2
6
CENTER
290
1
370
-3
390
0
0
LAYER
5
A3
100
AcDbSymbolTableRecord
100
AcDbLayerTableRecord
2
2
70
0
62
7
6
Continuous
290
1
370
-3
390
0
0
LAYER
5
13C
100
AcDbSymbolTableRecord
100
AcDbLayerTableRecord
2
Defpoints
70
0
62
7
6
Continuous
290
0
370
-3
390
0
0
LAYER
5
213
100
AcDbSymbolTableRecord
100
AcDbLayerTableRecord
2
SK4
70
0
62
2
6
CENTER
290
1
370
-3
390
0
0
LAYER
5
214
100
AcDbSymbolTableRecord
100
AcDbLayerTableRecord
2
SK1
70
0
62
4
6
Continuous
290
1
370
-3
390
0
0
LAYER
5
215
100
AcDbSymbolTableRecord
100
AcDbLayerTableRecord
2
SK2
70
0
62
7
6
Continuous
290
1
370
-3
390
0
0
LAYER
5
216
100
AcDbSymbolTableRecord
100
AcDbLayerTableRecord
2
SK6
70
0
62
5
6
Continuous
290
1
370
-3
390
0
0
ENDTAB
0
TABLE
2
STYLE
5
22a
100
AcDbSymbolTable
0
STYLE
5
11
100
AcDbSymbolTableRecord
100
AcDbTextStyleTableRecord
2
Standard
3
txt
70
0
71
0
40
0
41
1
42
0
50
0
0
STYLE
5
118
100
AcDbSymbolTableRecord
100
AcDbTextStyleTableRecord
2
iso_b_vert
3
simplex.shx
70
0
71
0
40
0
41
1
42
0
50
0
0
STYLE
5
119
100
AcDbSymbolTableRecord
100
AcDbTextStyleTableRecord
2
DWGDirectTextStyle
3
simplex
70
0
71
0
40
0
41
1
42
0
50
0
0
ENDTAB
0
TABLE
2
DIMSTYLE
5
22b
100
AcDbSymbolTable
100
AcDbDimStyleTable
0
DIMSTYLE
105
27
100
AcDbSymbolTableRecord
100
AcDbDimStyleTableRecord
2
Standard
70
0
3
<>
41
0.18
42
0.0625
44
0.18
140
0.18
147
0.09
73
0
74
0
77
1
271
2
275
0
278
52
280
0
340
11
0
ENDTAB
0
TABLE
2
VIEW
5
22c
100
AcDbSymbolTable
0
ENDTAB
0
TABLE
2
UCS
5
22d
100
AcDbSymbolTable
0
ENDTAB
0
TABLE
2
APPID
5
22e
100
AcDbSymbolTable
0
APPID
5
12
100
AcDbSymbolTableRecord
100
AcDbRegAppTableRecord
2
ACAD
70
0
0
APPID
5
138
100
AcDbSymbolTableRecord
100
AcDbRegAppTableRecord
2
ACAD_DSTYLE_DIMBREAK
70
0
0
APPID
5
1D2
100
AcDbSymbolTableRecord
100
AcDbRegAppTableRecord
2
ACAD_DSTYLE_DIM_LINETYPE
70
0
0
APPID
5
1D3
100
AcDbSymbolTableRecord
100
AcDbRegAppTableRecord
2
ACAD_DSTYLE_DIM_EXT1_LINETYPE
70
0
0
APPID
5
1D4
100
AcDbSymbolTableRecord
100
AcDbRegAppTableRecord
2
ACAD_DSTYLE_DIM_EXT2_LINETYPE
70
0
0
APPID
5
20F
100
AcDbSymbolTableRecord
100
AcDbRegAppTableRecord
2
ACAD_MLEADERVER
70
0
0
ENDTAB
0
TABLE
2
BLOCK_RECORD
5
22f
100
AcDbSymbolTable
0
BLOCK_RECORD
5
1F
100
AcDbSymbolTableRecord
100
AcDbBlockTableRecord
2
*Model_Space
340
0
70
0
0
BLOCK_RECORD
5
1B
100
AcDbSymbolTableRecord
100
AcDbBlockTableRecord
2
*Paper_Space
340
0
70
0
0
BLOCK_RECORD
5
23
100
AcDbSymbolTableRecord
100
AcDbBlockTableRecord
2
*Paper_Space0
340
0
70
0
0
BLOCK_RECORD
5
13D
100
AcDbSymbolTableRecord
100
AcDbBlockTableRecord
2
*D1
340
0
70
0
0
BLOCK_RECORD
5
149
100
AcDbSymbolTableRecord
100
AcDbBlockTableRecord
2
_U0
340
0
70
0
0
BLOCK_RECORD
5
157
100
AcDbSymbolTableRecord
100
AcDbBlockTableRecord
2
*D3
340
0
70
0
0
BLOCK_RECORD
5
163
100
AcDbSymbolTableRecord
100
AcDbBlockTableRecord
2
_U1
340
0
70
0
0
BLOCK_RECORD
5
16F
100
AcDbSymbolTableRecord
100
AcDbBlockTableRecord
2
*D5
340
0
70
0
0
BLOCK_RECORD
5
17B
100
AcDbSymbolTableRecord
100
AcDbBlockTableRecord
2
_U2
340
0
70
0
0
BLOCK_RECORD
5
187
100
AcDbSymbolTableRecord
100
AcDbBlockTableRecord
2
*D7
340
0
70
0
0
BLOCK_RECORD
5
193
100
AcDbSymbolTableRecord
100
AcDbBlockTableRecord
2
_U3
340
0
70
0
0
BLOCK_RECORD
5
19F
100
AcDbSymbolTableRecord
100
AcDbBlockTableRecord
2
*D9
340
0
70
0
0
BLOCK_RECORD
5
1AB
100
AcDbSymbolTableRecord
100
AcDbBlockTableRecord
2
_U4
340
0
70
0
0
ENDTAB
0
ENDSEC
0
SECTION
2
BLOCKS
0
BLOCK
5
20
100
AcDbEntity
8
0
100
AcDbBlockBegin
2
*Model_Space
70
0
10
0
20
0
30
0
3
*Model_Space
0
ENDBLK
5
21
100
AcDbEntity
8
0
100
AcDbBlockEnd
0
BLOCK
5
1C
100
AcDbEntity
8
0
100
AcDbBlockBegin
2
*Paper_Space
70
0
10
0
20
0
30
0
3
*Paper_Space
0
ENDBLK
5
1D
100
AcDbEntity
8
0
100
AcDbBlockEnd
0
BLOCK
5
24
100
AcDbEntity
8
0
100
AcDbBlockBegin
2
*Paper_Space0
70
0
10
0
20
0
30
0
3
*Paper_Space0
0
ENDBLK
5
25
100
AcDbEntity
8
0
100
AcDbBlockEnd
0
BLOCK
5
13E
100
AcDbEntity
8
0
100
AcDbBlockBegin
2
*D1
70
1
10
0
20
0
30
0
3
*D1
0
LINE
5
140
100
AcDbEntity
8
0
62
256
6
ByLayer
370
-2
48
1
60
0
100
AcDbLine
10
43
20
-4.9875
30
0
11
43
21
-21.907742
31
0
39
0
210
0
220
0
230
1
0
LINE
5
141
100
AcDbEntity
8
0
62
256
6
ByLayer
370
-2
48
1
60
0
100
AcDbLine
10
21.4
20
-4.9875
30
0
11
21.4
21
-21.907742
31
0
39
0
210
0
220
0
230
1
0
LINE
5
142
100
AcDbEntity
8
0
62
256
6
ByLayer
370
-2
48
1
60
0
100
AcDbLine
10
39.5
20
-19.907742
30
0
11
24.9
21
-19.907742
31
0
39
0
210
0
220
0
230
1
0
SOLID
5
143
100
AcDbEntity
8
0
62
256
6
ByLayer
370
-1
48
1
60
0
100
AcDbTrace
10
39.5
20
-20.491075
30
0
11
39.5
21
-19.324408
31
0
12
43
22
-19.907742
32
0
13
43
23
-19.907742
33
0
39
0
210
0
220
0
230
1
0
SOLID
5
144
100
AcDbEntity
8
0
62
256
6
ByLayer
370
-1
48
1
60
0
100
AcDbTrace
10
24.9
20
-19.324408
30
0
11
24.9
21
-20.491075
31
0
12
21.4
22
-19.907742
32
0
13
21.4
23
-19.907742
33
0
39
0
210
0
220
0
230
1
0
MTEXT
5
145
100
AcDbEntity
8
0
62
256
6
ByLayer
370
18
48
1
60
0
100
AcDbMText
10
32.2
20
-13.907742
30
0
210
0
220
0
230
1
1
\A1;21.6
40
3
41
0
44
1
50
0
71
5
72
5
7
iso_b_vert
0
POINT
5
146
100
AcDbEntity
8
Defpoints
62
0
6
ByLayer
370
-1
48
1
60
0
100
AcDbPoint
10
43
20
-3.4
30
0
39
0
210
0
220
0
230
1
50
360
0
POINT
5
147
100
AcDbEntity
8
Defpoints
62
0
6
ByLayer
370
-1
48
1
60
0
100
AcDbPoint
10
21.4
20
-3.4
30
0
39
0
210
0
220
0
230
1
50
360
0
POINT
5
148
100
AcDbEntity
8
Defpoints
62
0
6
ByLayer
370
-1
48
1
60
0
100
AcDbPoint
10
21.4
20
-19.907742
30
0
39
0
210
0
220
0
230
1
50
360
0
ENDBLK
5
13F
100
AcDbEntity
8
0
100
AcDbBlockEnd
0
BLOCK
5
152
100
AcDbEntity
8
0
100
AcDbBlockBegin
2
_U0
70
0
10
0
20
0
30
0
3
_U0
0
MTEXT
5
14A
100
AcDbEntity
8
SK2
62
256
6
ByLayer
370
18
48
1
60
0
100
AcDbMText
10
29.213486
20
-17.710127
30
0
210
0
220
0
230
1
1
\W0.6563;21.6
40
3
41
0
44
1.084337
50
0
71
7
72
5
7
iso_b_vert
0
MTEXT
5
14B
100
AcDbEntity
8
SK2
62
256
6
ByLayer
370
18
48
1
60
0
100
AcDbMText
10
27.113486
20
-17.710127
30
0
210
0
220
0
230
1
1
\W1.1313;{\H1.88x;(}
40
3
41
0
44
1.084337
50
0
71
7
72
5
7
iso_b_vert
0
MTEXT
5
14C
100
AcDbEntity
8
SK2
62
256
6
ByLayer
370
18
48
1
60
0
100
AcDbMText
10
35.504514
20
-17.710127
30
0
210
0
220
0
230
1
1
\W1.1313;{\H1.88x;)}
40
3
41
0
44
1.084337
50
0
71
7
72
5
7
iso_b_vert
0
LINE
5
14D
100
AcDbEntity
8
SK2
62
256
6
ByLayer
370
13
48
1
60
0
100
AcDbLine
10
43
20
-4.9875
30
0
11
43
21
-21.907742
31
0
39
0
210
0
220
0
230
1
0
LINE
5
14E
100
AcDbEntity
8
SK2
62
256
6
ByLayer
370
13
48
1
60
0
100
AcDbLine
10
21.4
20
-4.9875
30
0
11
21.4
21
-21.907742
31
0
39
0
210
0
220
0
230
1
0
LINE
5
14F
100
AcDbEntity
8
SK2
62
256
6
ByLayer
370
13
48
1
60
0
100
AcDbLine
10
43
20
-19.907742
30
0
11
21.4
21
-19.907742
31
0
39
0
210
0
220
0
230
1
0
SOLID
5
150
100
AcDbEntity
8
SK2
62
256
6
ByLayer
370
18
48
1
60
0
100
AcDbTrace
10
43
20
-19.907742
30
0
11
39.500002
21
-20.368526
31
0
12
39.499998
22
-19.446958
32
0
13
39.499998
23
-19.446958
33
0
39
0
210
0
220
0
230
1
0
SOLID
5
151
100
AcDbEntity
8
SK2
62
256
6
ByLayer
370
18
48
1
60
0
100
AcDbTrace
10
21.4
20
-19.907742
30
0
11
24.899998
21
-19.446958
31
0
12
24.900002
22
-20.368526
32
0
13
24.900002
23
-20.368526
33
0
39
0
210
0
220
0
230
1
0
ENDBLK
5
153
100
AcDbEntity
8
0
100
AcDbBlockEnd
0
BLOCK
5
158
100
AcDbEntity
8
0
100
AcDbBlockBegin
2
*D3
70
1
10
0
20
0
30
0
3
*D3
0
LINE
5
15A
100
AcDbEntity
8
0
62
256
6
ByLayer
370
-2
48
1
60
0
100
AcDbLine
10
43
20
-4.9875
30
0
11
43
21
-31.907742
31
0
39
0
210
0
220
0
230
1
0
LINE
5
15B
100
AcDbEntity
8
0
62
256
6
ByLayer
370
-2
48
1
60
0
100
AcDbLine
10
9
20
-4.9875
30
0
11
9
21
-31.907742
31
0
39
0
210
0
220
0
230
1
0
LINE
5
15C
100
AcDbEntity
8
0
62
256
6
ByLayer
370
-2
48
1
60
0
100
AcDbLine
10
39.5
20
-29.907742
30
0
11
12.5
21
-29.907742
31
0
39
0
210
0
220
0
230
1
0
SOLID
5
15D
100
AcDbEntity
8
0
62
256
6
ByLayer
370
-1
48
1
60
0
100
AcDbTrace
10
39.5
20
-30.491075
30
0
11
39.5
21
-29.324408
31
0
12
43
22
-29.907742
32
0
13
43
23
-29.907742
33
0
39
0
210
0
220
0
230
1
0
SOLID
5
15E
100
AcDbEntity
8
0
62
256
6
ByLayer
370
-1
48
1
60
0
100
AcDbTrace
10
12.5
20
-29.324408
30
0
11
12.5
21
-30.491075
31
0
12
9
22
-29.907742
32
0
13
9
23
-29.907742
33
0
39
0
210
0
220
0
230
1
0
MTEXT
5
15F
100
AcDbEntity
8
0
62
256
6
ByLayer
370
18
48
1
60
0
100
AcDbMText
10
26
20
-23.907742
30
0
210
0
220
0
230
1
1
\A1;34
40
3
41
0
44
1
50
0
71
5
72
5
7
iso_b_vert
0
POINT
5
160
100
AcDbEntity
8
Defpoints
62
0
6
ByLayer
370
-1
48
1
60
0
100
AcDbPoint
10
43
20
-3.4
30
0
39
0
210
0
220
0
230
1
50
360
0
POINT
5
161
100
AcDbEntity
8
Defpoints
62
0
6
ByLayer
370
-1
48
1
60
0
100
AcDbPoint
10
9
20
-3.4
30
0
39
0
210
0
220
0
230
1
50
360
0
POINT
5
162
100
AcDbEntity
8
Defpoints
62
0
6
ByLayer
370
-1
48
1
60
0
100
AcDbPoint
10
9
20
-29.907742
30
0
39
0
210
0
220
0
230
1
50
360
0
ENDBLK
5
159
100
AcDbEntity
8
0
100
AcDbBlockEnd
0
BLOCK
5
16A
100
AcDbEntity
8
0
100
AcDbBlockBegin
2
_U1
70
0
10
0
20
0
30
0
3
_U1
0
MTEXT
5
164
100
AcDbEntity
8
SK2
62
256
6
ByLayer
370
18
48
1
60
0
100
AcDbMText
10
24.209229
20
-29.022627
30
0
210
0
220
0
230
1
1
\W0.7167;34
40
3
41
0
44
1.084337
50
0
71
7
72
5
7
iso_b_vert
0
LINE
5
165
100
AcDbEntity
8
SK2
62
256
6
ByLayer
370
13
48
1
60
0
100
AcDbLine
10
43
20
-4.9875
30
0
11
43
21
-31.907742
31
0
39
0
210
0
220
0
230
1
0
LINE
5
166
100
AcDbEntity
8
SK2
62
256
6
ByLayer
370
13
48
1
60
0
100
AcDbLine
10
9
20
-4.9875
30
0
11
9
21
-31.907742
31
0
39
0
210
0
220
0
230
1
0
LINE
5
167
100
AcDbEntity
8
SK2
62
256
6
ByLayer
370
13
48
1
60
0
100
AcDbLine
10
43
20
-29.907742
30
0
11
9
21
-29.907742
31
0
39
0
210
0
220
0
230
1
0
SOLID
5
168
100
AcDbEntity
8
SK2
62
256
6
ByLayer
370
18
48
1
60
0
100
AcDbTrace
10
43
20
-29.907742
30
0
11
39.500002
21
-30.368526
31
0
12
39.499998
22
-29.446958
32
0
13
39.499998
23
-29.446958
33
0
39
0
210
0
220
0
230
1
0
SOLID
5
169
100
AcDbEntity
8
SK2
62
256
6
ByLayer
370
18
48
1
60
0
100
AcDbTrace
10
9
20
-29.907742
30
0
11
12.499998
21
-29.446958
31
0
12
12.500002
22
-30.368526
32
0
13
12.500002
23
-30.368526
33
0
39
0
210
0
220
0
230
1
0
ENDBLK
5
16B
100
AcDbEntity
8
0
100
AcDbBlockEnd
0
BLOCK
5
170
100
AcDbEntity
8
0
100
AcDbBlockBegin
2
*D5
70
1
10
0
20
0
30
0
3
*D5
0
LINE
5
172
100
AcDbEntity
8
0
62
256
6
ByLayer
370
-2
48
1
60
0
100
AcDbLine
10
-36
20
-5.5875
30
0
11
-36
21
-39.907742
31
0
39
0
210
0
220
0
230
1
0
LINE
5
173
100
AcDbEntity
8
0
62
256
6
ByLayer
370
-2
48
1
60
0
100
AcDbLine
10
0
20
-5.5875
30
0
11
0
21
-39.907742
31
0
39
0
210
0
220
0
230
1
0
LINE
5
174
100
AcDbEntity
8
0
62
256
6
ByLayer
370
-2
48
1
60
0
100
AcDbLine
10
-32.5
20
-37.907742
30
0
11
-3.5
21
-37.907742
31
0
39
0
210
0
220
0
230
1
0
SOLID
5
175
100
AcDbEntity
8
0
62
256
6
ByLayer
370
-1
48
1
60
0
100
AcDbTrace
10
-32.5
20
-37.324408
30
0
11
-32.5
21
-38.491075
31
0
12
-36
22
-37.907742
32
0
13
-36
23
-37.907742
33
0
39
0
210
0
220
0
230
1
0
SOLID
5
176
100
AcDbEntity
8
0
62
256
6
ByLayer
370
-1
48
1
60
0
100
AcDbTrace
10
-3.5
20
-38.491075
30
0
11
-3.5
21
-37.324408
31
0
12
0
22
-37.907742
32
0
13
0
23
-37.907742
33
0
39
0
210
0
220
0
230
1
0
MTEXT
5
177
100
AcDbEntity
8
0
62
256
6
ByLayer
370
18
48
1
60
0
100
AcDbMText
10
-18
20
-31.907742
30
0
210
0
220
0
230
1
1
\A1;36
40
3
41
0
44
1
50
0
71
5
72
5
7
iso_b_vert
0
POINT
5
178
100
AcDbEntity
8
Defpoints
62
0
6
ByLayer
370
-1
48
1
60
0
100
AcDbPoint
10
-36
20
-4
30
0
39
0
210
0
220
0
230
1
50
360
0
POINT
5
179
100
AcDbEntity
8
Defpoints
62
0
6
ByLayer
370
-1
48
1
60
0
100
AcDbPoint
10
0
20
-4
30
0
39
0
210
0
220
0
230
1
50
360
0
POINT
5
17A
100
AcDbEntity
8
Defpoints
62
0
6
ByLayer
370
-1
48
1
60
0
100
AcDbPoint
10
0
20
-37.907742
30
0
39
0
210
0
220
0
230
1
50
360
0
ENDBLK
5
171
100
AcDbEntity
8
0
100
AcDbBlockEnd
0
BLOCK
5
182
100
AcDbEntity
8
0
100
AcDbBlockBegin
2
_U2
70
0
10
0
20
0
30
0
3
_U2
0
MTEXT
5
17C
100
AcDbEntity
8
SK2
62
256
6
ByLayer
370
18
48
1
60
0
100
AcDbMText
10
-19.632828
20
-37.022627
30
0
210
0
220
0
230
1
1
\W0.6740;36
40
3
41
0
44
1.084337
50
0
71
7
72
5
7
iso_b_vert
0
LINE
5
17D
100
AcDbEntity
8
SK2
62
256
6
ByLayer
370
13
48
1
60
0
100
AcDbLine
10
-36
20
-5.5875
30
0
11
-36
21
-39.907742
31
0
39
0
210
0
220
0
230
1
0
LINE
5
17E
100
AcDbEntity
8
SK2
62
256
6
ByLayer
370
13
48
1
60
0
100
AcDbLine
10
0
20
-5.5875
30
0
11
0
21
-39.907742
31
0
39
0
210
0
220
0
230
1
0
LINE
5
17F
100
AcDbEntity
8
SK2
62
256
6
ByLayer
370
13
48
1
60
0
100
AcDbLine
10
-36
20
-37.907742
30
0
11
0
21
-37.907742
31
0
39
0
210
0
220
0
230
1
0
SOLID
5
180
100
AcDbEntity
8
SK2
62
256
6
ByLayer
370
18
48
1
60
0
100
AcDbTrace
10
-36
20
-37.907742
30
0
11
-32.500002
21
-37.446958
31
0
12
-32.499998
22
-38.368526
32
0
13
-32.499998
23
-38.368526
33
0
39
0
210
0
220
0
230
1
0
SOLID
5
181
100
AcDbEntity
8
SK2
62
256
6
ByLayer
370
18
48
1
60
0
100
AcDbTrace
10
0
20
-37.907742
30
0
11
-3.499998
21
-38.368526
31
0
12
-3.500002
22
-37.446958
32
0
13
-3.500002
23
-37.446958
33
0
39
0
210
0
220
0
230
1
0
ENDBLK
5
183
100
AcDbEntity
8
0
100
AcDbBlockEnd
0
BLOCK
5
188
100
AcDbEntity
8
0
100
AcDbBlockBegin
2
*D7
70
1
10
0
20
0
30
0
3
*D7
0
LINE
5
18A
100
AcDbEntity
8
0
62
256
6
ByLayer
370
-2
48
1
60
0
100
AcDbLine
10
-36
20
-5.5875
30
0
11
-36
21
-47.907742
31
0
39
0
210
0
220
0
230
1
0
LINE
5
18B
100
AcDbEntity
8
0
62
256
6
ByLayer
370
-2
48
1
60
0
100
AcDbLine
10
43
20
-4.9875
30
0
11
43
21
-47.907742
31
0
39
0
210
0
220
0
230
1
0
LINE
5
18C
100
AcDbEntity
8
0
62
256
6
ByLayer
370
-2
48
1
60
0
100
AcDbLine
10
-32.5
20
-45.907742
30
0
11
39.5
21
-45.907742
31
0
39
0
210
0
220
0
230
1
0
SOLID
5
18D
100
AcDbEntity
8
0
62
256
6
ByLayer
370
-1
48
1
60
0
100
AcDbTrace
10
-32.5
20
-45.324408
30
0
11
-32.5
21
-46.491075
31
0
12
-36
22
-45.907742
32
0
13
-36
23
-45.907742
33
0
39
0
210
0
220
0
230
1
0
SOLID
5
18E
100
AcDbEntity
8
0
62
256
6
ByLayer
370
-1
48
1
60
0
100
AcDbTrace
10
39.5
20
-46.491075
30
0
11
39.5
21
-45.324408
31
0
12
43
22
-45.907742
32
0
13
43
23
-45.907742
33
0
39
0
210
0
220
0
230
1
0
MTEXT
5
18F
100
AcDbEntity
8
0
62
256
6
ByLayer
370
18
48
1
60
0
100
AcDbMText
10
3.5
20
-39.907742
30
0
210
0
220
0
230
1
1
\A1;79
40
3
41
0
44
1
50
0
71
5
72
5
7
iso_b_vert
0
POINT
5
190
100
AcDbEntity
8
Defpoints
62
0
6
ByLayer
370
-1
48
1
60
0
100
AcDbPoint
10
-36
20
-4
30
0
39
0
210
0
220
0
230
1
50
360
0
POINT
5
191
100
AcDbEntity
8
Defpoints
62
0
6
ByLayer
370
-1
48
1
60
0
100
AcDbPoint
10
43
20
-3.4
30
0
39
0
210
0
220
0
230
1
50
360
0
POINT
5
192
100
AcDbEntity
8
Defpoints
62
0
6
ByLayer
370
-1
48
1
60
0
100
AcDbPoint
10
43
20
-45.907742
30
0
39
0
210
0
220
0
230
1
50
360
0
ENDBLK
5
189
100
AcDbEntity
8
0
100
AcDbBlockEnd
0
BLOCK
5
19A
100
AcDbEntity
8
0
100
AcDbBlockBegin
2
_U3
70
0
10
0
20
0
30
0
3
_U3
0
MTEXT
5
194
100
AcDbEntity
8
SK2
62
256
6
ByLayer
370
18
48
1
60
0
100
AcDbMText
10
1.867172
20
-45.022627
30
0
210
0
220
0
230
1
1
\W0.6927;79
40
3
41
0
44
1.084337
50
0
71
7
72
5
7
iso_b_vert
0
LINE
5
195
100
AcDbEntity
8
SK2
62
256
6
ByLayer
370
13
48
1
60
0
100
AcDbLine
10
-36
20
-5.5875
30
0
11
-36
21
-47.907742
31
0
39
0
210
0
220
0
230
1
0
LINE
5
196
100
AcDbEntity
8
SK2
62
256
6
ByLayer
370
13
48
1
60
0
100
AcDbLine
10
43
20
-4.9875
30
0
11
43
21
-47.907742
31
0
39
0
210
0
220
0
230
1
0
LINE
5
197
100
AcDbEntity
8
SK2
62
256
6
ByLayer
370
13
48
1
60
0
100
AcDbLine
10
-36
20
-45.907742
30
0
11
43
21
-45.907742
31
0
39
0
210
0
220
0
230
1
0
SOLID
5
198
100
AcDbEntity
8
SK2
62
256
6
ByLayer
370
18
48
1
60
0
100
AcDbTrace
10
-36
20
-45.907742
30
0
11
-32.500002
21
-45.446958
31
0
12
-32.499998
22
-46.368526
32
0
13
-32.499998
23
-46.368526
33
0
39
0
210
0
220
0
230
1
0
SOLID
5
199
100
AcDbEntity
8
SK2
62
256
6
ByLayer
370
18
48
1
60
0
100
AcDbTrace
10
43
20
-45.907742
30
0
11
39.500002
21
-46.368526
31
0
12
39.499998
22
-45.446958
32
0
13
39.499998
23
-45.446958
33
0
39
0
210
0
220
0
230
1
0
ENDBLK
5
19B
100
AcDbEntity
8
0
100
AcDbBlockEnd
0
BLOCK
5
1A0
100
AcDbEntity
8
0
100
AcDbBlockBegin
2
*D9
70
1
10
0
20
0
30
0
3
*D9
0
LINE
5
1A2
100
AcDbEntity
8
0
62
256
6
ByLayer
370
-2
48
1
60
0
100
AcDbLine
10
43
20
-4.9875
30
0
11
43
21
-39.907742
31
0
39
0
210
0
220
0
230
1
0
LINE
5
1A3
100
AcDbEntity
8
0
62
256
6
ByLayer
370
-2
48
1
60
0
100
AcDbLine
10
0
20
-4.9875
30
0
11
0
21
-39.907742
31
0
39
0
210
0
220
0
230
1
0
LINE
5
1A4
100
AcDbEntity
8
0
62
256
6
ByLayer
370
-2
48
1
60
0
100
AcDbLine
10
39.5
20
-37.907742
30
0
11
3.5
21
-37.907742
31
0
39
0
210
0
220
0
230
1
0
SOLID
5
1A5
100
AcDbEntity
8
0
62
256
6
ByLayer
370
-1
48
1
60
0
100
AcDbTrace
10
39.5
20
-38.491075
30
0
11
39.5
21
-37.324408
31
0
12
43
22
-37.907742
32
0
13
43
23
-37.907742
33
0
39
0
210
0
220
0
230
1
0
SOLID
5
1A6
100
AcDbEntity
8
0
62
256
6
ByLayer
370
-1
48
1
60
0
100
AcDbTrace
10
3.5
20
-37.324408
30
0
11
3.5
21
-38.491075
31
0
12
0
22
-37.907742
32
0
13
0
23
-37.907742
33
0
39
0
210
0
220
0
230
1
0
MTEXT
5
1A7
100
AcDbEntity
8
0
62
256
6
ByLayer
370
18
48
1
60
0
100
AcDbMText
10
21.5
20
-31.907742
30
0
210
0
220
0
230
1
1
\A1;43
40
3
41
0
44
1
50
0
71
5
72
5
7
iso_b_vert
0
POINT
5
1A8
100
AcDbEntity
8
Defpoints
62
0
6
ByLayer
370
-1
48
1
60
0
100
AcDbPoint
10
43
20
-3.4
30
0
39
0
210
0
220
0
230
1
50
360
0
POINT
5
1A9
100
AcDbEntity
8
Defpoints
62
0
6
ByLayer
370
-1
48
1
60
0
100
AcDbPoint
10
0
20
-3.4
30
0
39
0
210
0
220
0
230
1
50
360
0
POINT
5
1AA
100
AcDbEntity
8
Defpoints
62
0
6
ByLayer
370
-1
48
1
60
0
100
AcDbPoint
10
0
20
-37.907742
30
0
39
0
210
0
220
0
230
1
50
360
0
ENDBLK
5
1A1
100
AcDbEntity
8
0
100
AcDbBlockEnd
0
BLOCK
5
1B2
100
AcDbEntity
8
0
100
AcDbBlockBegin
2
_U4
70
0
10
0
20
0
30
0
3
_U4
0
MTEXT
5
1AC
100
AcDbEntity
8
2
62
256
6
ByLayer
370
18
48
1
60
0
100
AcDbMText
10
19.709229
20
-37.022627
30
0
210
0
220
0
230
1
1
\W0.7361;43
40
3
41
0
44
1.084337
50
0
71
7
72
5
7
iso_b_vert
0
LINE
5
1AD
100
AcDbEntity
8
2
62
256
6
ByLayer
370
13
48
1
60
0
100
AcDbLine
10
43
20
-4.9875
30
0
11
43
21
-39.907742
31
0
39
0
210
0
220
0
230
1
0
LINE
5
1AE
100
AcDbEntity
8
2
62
256
6
ByLayer
370
13
48
1
60
0
100
AcDbLine
10
0
20
-4.9875
30
0
11
0
21
-39.907742
31
0
39
0
210
0
220
0
230
1
0
LINE
5
1AF
100
AcDbEntity
8
2
62
256
6
ByLayer
370
13
48
1
60
0
100
AcDbLine
10
43
20
-37.907742
30
0
11
0
21
-37.907742
31
0
39
0
210
0
220
0
230
1
0
SOLID
5
1B0
100
AcDbEntity
8
2
62
256
6
ByLayer
370
18
48
1
60
0
100
AcDbTrace
10
43
20
-37.907742
30
0
11
39.500002
21
-38.368526
31
0
12
39.499998
22
-37.446958
32
0
13
39.499998
23
-37.446958
33
0
39
0
210
0
220
0
230
1
0
SOLID
5
1B1
100
AcDbEntity
8
2
62
256
6
ByLayer
370
18
48
1
60
0
100
AcDbTrace
10
0
20
-37.907742
30
0
11
3.499998
21
-37.446958
31
0
12
3.500002
22
-38.368526
32
0
13
3.500002
23
-38.368526
33
0
39
0
210
0
220
0
230
1
0
ENDBLK
5
1B3
100
AcDbEntity
8
0
100
AcDbBlockEnd
0
ENDSEC
0
SECTION
2
ENTITIES
0
ARC
5
BE
100
AcDbEntity
8
1
62
256
6
ByLayer
370
18
48
1
60
0
100
AcDbCircle
39
0
10
1.303977
20
-4.127171
30
0
40
0.799999999999997
210
0
220
0
230
1
100
AcDbArc
50
89.896868
51
144.585912
0
ARC
5
BF
100
AcDbEntity
8
1
62
256
6
ByLayer
370
18
48
1
60
0
100
AcDbCircle
39
0
10
1.303977
20
4.127171
30
0
40
0.799999999999997
210
0
220
0
230
1
100
AcDbArc
50
215.414088
51
270.103132
0
ARC
5
C0
100
AcDbEntity
8
1
62
256
6
ByLayer
370
18
48
1
60
0
100
AcDbCircle
39
0
10
0
20
-3.2
30
0
40
0.800000000000003
210
0
220
0
230
1
100
AcDbArc
50
270
51
324.585912
0
ARC
5
C1
100
AcDbEntity
8
1
62
256
6
ByLayer
370
18
48
1
60
0
100
AcDbCircle
39
0
10
0
20
3.2
30
0
40
0.800000000000003
210
0
220
0
230
1
100
AcDbArc
50
35.414088
51
90
0
ARC
5
C2
100
AcDbEntity
8
SK2
62
256
6
ByLayer
370
13
48
1
60
0
100
AcDbCircle
39
0
10
43
20
0
30
0
40
18.9066458129779
210
0
220
0
230
1
100
AcDbArc
50
9.12996
51
70.007423
0
ARC
5
C3
100
AcDbEntity
8
SK2
62
256
6
ByLayer
370
13
48
1
60
0
100
AcDbCircle
39
0
10
43
20
0
30
0
40
18.9066458129779
210
0
220
0
230
1
100
AcDbArc
50
289.992577
51
350.87004
0
ELLIPSE
5
C4
100
AcDbEntity
8
1
62
256
6
ByLayer
370
13
48
1
60
0
100
AcDbEllipse
10
21.461267
20
-3.234984
30
0
11
-0.00458599160981643
21
0.00888643240871686
31
0
210
0
220
0
230
1
40
0.346921
41
-0.101595717266171
42
1.2852999090767
0
ELLIPSE
5
C5
100
AcDbEntity
8
1
62
256
6
ByLayer
370
13
48
1
60
0
100
AcDbEllipse
10
15.190017
20
-71.813175
30
0
11
35.8230454915659
21
65.8663179576037
31
0
210
0
220
0
230
1
40
0.797572
41
0.637518052675311
42
0.639457619582022
0
ELLIPSE
5
C6
100
AcDbEntity
8
1
62
256
6
ByLayer
370
18
48
1
60
0
100
AcDbEllipse
10
15.192615
20
-71.814588
30
0
11
35.8246387559495
21
65.8692474254097
31
0
210
0
220
0
230
1
40
0.797572
41
0.637772734251626
42
0.639375524047493
0
ELLIPSE
5
C7
100
AcDbEntity
8
1
62
256
6
ByLayer
370
18
48
1
60
0
100
AcDbEllipse
10
21.499514
20
-3.334239
30
0
11
-0.1
21
1.22460635382238E-17
31
0
210
0
220
0
230
1
40
0.999933
41
-1.55430145147953
42
-0.0482458224502452
0
POINT
5
70
100
AcDbEntity
8
81
62
256
6
ByLayer
370
18
48
1
60
0
100
AcDbPoint
10
43
20
0
30
0
39
0
210
0
220
0
230
1
50
360
0
POINT
5
72
100
AcDbEntity
8
80
62
256
6
ByLayer
370
18
48
1
60
0
100
AcDbPoint
10
0
20
0
30
0
39
0
210
0
220
0
230
1
50
360
0
POINT
5
74
100
AcDbEntity
8
1
62
256
6
ByLayer
370
18
48
1
60
0
100
AcDbPoint
10
-215.221677
20
-169.646342
30
0
39
0
210
0
220
0
230
1
50
360
0
POINT
5
76
100
AcDbEntity
8
1
62
256
6
ByLayer
370
13
48
1
60
1
100
AcDbPoint
10
-37.5
20
0
30
0
39
0
210
0
220
0
230
1
50
360
0
POINT
5
77
100
AcDbEntity
8
1
62
256
6
ByLayer
370
13
48
1
60
1
100
AcDbPoint
10
43.251105
20
0
30
0
39
0
210
0
220
0
230
1
50
360
0
POINT
5
78
100
AcDbEntity
8
1
62
256
6
ByLayer
370
18
48
1
60
1
100
AcDbPoint
10
43
20
-3.4
30
0
39
0
210
0
220
0
230
1
50
360
0
POINT
5
79
100
AcDbEntity
8
1
62
256
6
ByLayer
370
18
48
1
60
1
100
AcDbPoint
10
21.4
20
-3.4
30
0
39
0
210
0
220
0
230
1
50
360
0
POINT
5
7A
100
AcDbEntity
8
1
62
256
6
ByLayer
370
18
48
1
60
1
100
AcDbPoint
10
43
20
-3.4
30
0
39
0
210
0
220
0
230
1
50
360
0
POINT
5
7B
100
AcDbEntity
8
1
62
256
6
ByLayer
370
18
48
1
60
1
100
AcDbPoint
10
9
20
-3.4
30
0
39
0
210
0
220
0
230
1
50
360
0
POINT
5
7C
100
AcDbEntity
8
1
62
256
6
ByLayer
370
18
48
1
60
1
100
AcDbPoint
10
-36
20
-4
30
0
39
0
210
0
220
0
230
1
50
360
0
POINT
5
7D
100
AcDbEntity
8
1
62
256
6
ByLayer
370
18
48
1
60
1
100
AcDbPoint
10
0
20
-4
30
0
39
0
210
0
220
0
230
1
50
360
0
POINT
5
7E
100
AcDbEntity
8
1
62
256
6
ByLayer
370
18
48
1
60
1
100
AcDbPoint
10
-36
20
-4
30
0
39
0
210
0
220
0
230
1
50
360
0
POINT
5
7F
100
AcDbEntity
8
1
62
256
6
ByLayer
370
18
48
1
60
1
100
AcDbPoint
10
43
20
-3.4
30
0
39
0
210
0
220
0
230
1
50
360
0
POINT
5
80
100
AcDbEntity
8
1
62
256
6
ByLayer
370
18
48
1
60
1
100
AcDbPoint
10
43
20
-3.4
30
0
39
0
210
0
220
0
230
1
50
360
0
POINT
5
81
100
AcDbEntity
8
1
62
256
6
ByLayer
370
18
48
1
60
1
100
AcDbPoint
10
0
20
-3.4
30
0
39
0
210
0
220
0
230
1
50
360
0
SPLINE
5
C8
100
AcDbEntity
8
1
62
256
6
ByLayer
370
18
48
1
60
0
100
AcDbSpline
70
4
71
3
72
34
73
30
40
0
40
0
40
0
40
0
40
0.328695482059316
40
0.328695482059316
40
0.552550136935858
40
0.552550136935858
40
0.701937640875278
40
0.701937640875278
40
0.801648660606831
40
0.801648660606831
40
0.868190016648593
40
0.868190016648593
40
0.912687532958096
40
0.912687532958096
40
0.94247842856279
40
0.94247842856279
40
0.962398304976112
40
0.962398304976112
40
0.975460751621303
40
0.975460751621303
40
0.983937509247925
40
0.983937509247925
40
0.991976769625651
40
0.991976769625651
40
0.996344964833238
40
0.996344964833238
40
0.999528595360331
40
0.999528595360331
40
1
40
1
40
1
40
1
41
1
10
41.7047065168827
20
3.39987622511606
30
0
41
1
10
41.7143721000682
20
3.38415516122126
30
0
41
1
10
41.7240392294496
20
3.36839512888119
30
0
41
1
10
41.7402922052019
20
3.34183729055982
30
0
41
1
10
41.7468774206216
20
3.33106000030432
30
0
41
1
10
41.7578581314181
20
3.31306103754463
30
0
41
1
10
41.7622521888905
20
3.30585160628229
30
0
41
1
10
41.7695854036755
20
3.29380452431326
30
0
41
1
10
41.7725238884133
20
3.28897240416833
30
0
41
1
10
41.7774277211563
20
3.28090099267362
30
0
41
1
10
41.7793903795867
20
3.27766921088153
30
0
41
1
10
41.7826555616646
20
3.27229476922037
30
0
41
1
10
41.7839614059695
20
3.27014593605207
30
0
41
1
10
41.7861334601306
20
3.26657409034601
30
0
41
1
10
41.7870006168584
20
3.26514947270866
30
0
41
1
10
41.7884501453373
20
3.26276639634494
30
0
41
1
10
41.7890316200722
20
3.26181023767776
30
0
41
1
10
41.7900159781816
20
3.26018103770781
30
0
41
1
10
41.79041334835
20
3.25951966366228
30
0
41
1
10
41.7910702257282
20
3.25842506584891
30
0
41
1
10
41.7913289632533
20
3.25799388605171
30
0
41
1
10
41.7918246301165
20
3.25717178871366
30
0
41
1
10
41.7920644944648
20
3.25677552125853
30
0
41
1
10
41.7924058873776
20
3.25622140540492
30
0
41
1
10
41.792521760937
20
3.25603541943988
30
0
41
1
10
41.7926946792283
20
3.255765314435
30
0
41
1
10
41.7927600835731
20
3.25566592329363
30
0
41
1
10
41.7928149672685
20
3.25558813440958
30
0
41
1
10
41.7928217275943
20
3.25557870032429
30
0
41
1
10
41.792828072179
20
3.25557000879016
30
0
0
SPLINE
5
C9
100
AcDbEntity
8
1
62
256
6
ByLayer
370
18
48
1
60
0
100
AcDbSpline
70
4
71
3
72
8
73
4
40
0
40
0
40
0
40
0
40
1
40
1
40
1
40
1
41
1
10
42.6194766799493
20
1.19279143346961
30
0
41
1
10
42.7180022982018
20
0.916609329267743
30
0
41
1
10
42.8156212452375
20
0.640109944010391
30
0
41
1
10
42.9123133408546
20
0.363286215825781
30
0
0
SPLINE
5
CA
100
AcDbEntity
8
1
62
256
6
ByLayer
370
18
48
1
60
0
100
AcDbSpline
70
4
71
3
72
10
73
6
40
0
40
0
40
0
40
0
40
0.5
40
0.5
40
1
40
1
40
1
40
1
41
1
10
21.4955075102079
20
-3.22353268251808
30
0
41
1
10
21.488867606939
20
-3.22386814002075
30
0
41
1
10
21.4823359327745
20
-3.22491511461948
30
0
41
1
10
21.4694875629788
20
-3.2283929413548
30
0
41
1
10
21.4631275844492
20
-3.23084817494538
30
0
41
1
10
21.4570171628013
20
-3.23400818288872
30
0
0
SPLINE
5
CB
100
AcDbEntity
8
1
62
256
6
ByLayer
370
13
48
1
60
0
100
AcDbSpline
70
4
71
3
72
8
73
4
40
0
40
0
40
0
40
0
40
1
40
1
40
1
40
1
41
1
10
21.4558237387584
20
-3.34394696591323
30
0
41
1
10
21.4561800635148
20
-3.310809160621
30
0
41
1
10
21.4565394589752
20
-3.2776717707616
30
0
41
1
10
21.4569019173389
20
-3.2445348125986
30
0
0
SPLINE
5
CC
100
AcDbEntity
8
1
62
256
6
ByLayer
370
18
48
1
60
0
100
AcDbSpline
70
4
71
3
72
8
73
4
40
0
40
0
40
0
40
0
40
1
40
1
40
1
40
1
41
1
10
42.9123133408545
20
0.363286215825781
30
0
41
1
10
42.9405668202463
20
0.282398182015953
30
0
41
1
10
42.9694768338677
20
0.201878907277063
30
0
41
1
10
42.999043526545
20
0.121713666686418
30
0
0
SPLINE
5
CD
100
AcDbEntity
8
1
62
256
6
ByLayer
370
18
48
1
60
0
100
AcDbSpline
70
4
71
3
72
8
73
4
40
0
40
0
40
0
40
0
40
1
40
1
40
1
40
1
41
1
10
42.2036469233518
20
2.17919902780738
30
0
41
1
10
42.2284456413524
20
2.10890026396069
30
0
41
1
10
42.2539179338949
20
2.03871538778313
30
0
41
1
10
42.2801166390389
20
1.96894529957944
30
0
0
SPLINE
5
CE
100
AcDbEntity
8
1
62
256
6
ByLayer
370
18
48
1
60
0
100
AcDbSpline
70
4
71
3
72
29
73
25
40
0
40
0
40
0
40
0
40
0.0089849764106612
40
0.0089849764106612
40
0.0750526446499723
40
0.0750526446499723
40
0.207187981128595
40
0.207187981128595
40
0.339323317607217
40
0.339323317607217
40
0.47145865408584
40
0.47145865408584
40
0.603593990564462
40
0.603593990564462
40
0.636627824684109
40
0.636627824684109
40
0.669661658803756
40
0.735729327043012
40
0.735729327043012
40
0.867864663521486
40
0.867864663521486
40
0.933932331760743
40
0.933932331760743
40
1
40
1
40
1
40
1
41
1
10
41.4175032980445
20
0.699623213950929
30
0
41
1
10
41.4186119772254
20
0.700979691690407
30
0
41
1
10
41.4197318294111
20
0.702343629636516
30
0
41
1
10
41.4291801246818
20
0.713798913952473
30
0
41
1
10
41.4381411652739
20
0.724316748740478
30
0
41
1
10
41.4665029624643
20
0.75649941074812
30
0
41
1
10
41.4874626655393
20
0.778942304766645
30
0
41
1
10
41.5337301725805
20
0.82541421956148
30
0
41
1
10
41.5590412233954
20
0.849442657882946
30
0
41
1
10
41.6149190941628
20
0.898417078403043
30
0
41
1
10
41.6446665125833
20
0.92262513935961
30
0
41
1
10
41.7083372534489
20
0.969427459152399
30
0
41
1
10
41.7422524662564
20
0.992035636585143
30
0
41
1
10
41.7878891642375
20
1.01836293866396
30
0
41
1
10
41.7972070747712
20
1.02354577429321
30
0
41
1
10
41.8160408558959
20
1.03361725393305
30
0
41
1
10
41.8445375498866
20
1.04826007800696
30
0
41
1
10
41.8737785999234
20
1.06146775887646
30
0
41
1
10
41.9332662378568
20
1.08587602350505
30
0
41
1
10
41.9742617900574
20
1.09947985259041
30
0
41
1
10
42.0378450464778
20
1.1154671050937
30
0
41
1
10
42.0593230215482
20
1.12003804227624
30
0
41
1
10
42.1023319909608
20
1.12759236121684
30
0
41
1
10
42.1239363817081
20
1.13059525208243
30
0
41
1
10
42.145638845758
20
1.13285997881562
30
0
0
SPLINE
5
CF
100
AcDbEntity
8
1
62
256
6
ByLayer
370
18
48
1
60
0
100
AcDbSpline
70
4
71
3
72
8
73
4
40
0
40
0
40
0
40
0
40
1
40
1
40
1
40
1
41
1
10
42.145638845758
20
1.13285997881553
30
0
41
1
10
42.3040195906067
20
1.14938755402809
30
0
41
1
10
42.4621241839532
20
1.1686638367236
30
0
41
1
10
42.6194766799493
20
1.19279143346958
30
0
0
SPLINE
5
D0
100
AcDbEntity
8
1
62
256
6
ByLayer
370
18
48
1
60
0
100
AcDbSpline
70
4
71
3
72
14
73
10
40
0
40
0
40
0
40
0
40
0.5
40
0.5
40
0.75
40
0.75
40
0.875
40
0.875
40
1
40
1
40
1
40
1
41
1
10
42.2801166390388
20
1.96894529957947
30
0
41
1
10
42.3317178301002
20
1.83152554418876
30
0
41
1
10
42.3853098569442
20
1.69796097817152
30
0
41
1
10
42.4698323526332
20
1.50371401009286
30
0
41
1
10
42.4986957198256
20
1.43998551390177
30
0
41
1
10
42.543156062112
20
1.34596950571151
30
0
41
1
10
42.5581697282288
20
1.31489262129418
30
0
41
1
10
42.588603513307
20
1.25326786015447
30
0
41
1
10
42.6040099680168
20
1.2227513285336
30
0
41
1
10
42.6194766799493
20
1.19279143346961
30
0
0
SPLINE
5
D1
100
AcDbEntity
8
1
62
256
6
ByLayer
370
13
48
1
60
0
100
AcDbSpline
70
4
71
3
72
16
73
12
40
0
40
0
40
0
40
0
40
0.016497659652309
40
0.200150870480683
40
0.29197747589487
40
0.383804081309057
40
0.567457292137432
40
0.659283897551619
40
0.751110502965806
40
0.93476371379418
40
1
40
1
40
1
40
1
41
1
10
42.2801166390388
20
1.96894529957942
30
0
41
1
10
42.2602371051105
20
1.96893604327525
30
0
41
1
10
42.019052868588
20
1.96852293895174
30
0
41
1
10
41.6670773308904
20
1.96223633147991
30
0
41
1
10
41.2242798157982
20
1.94434168844063
30
0
41
1
10
40.7817363818309
20
1.92224232073985
30
0
41
1
10
40.3389514854888
20
1.89046269592575
30
0
41
1
10
39.8961539009414
20
1.84915504997366
30
0
41
1
10
39.4536110588687
20
1.80382643877726
30
0
41
1
10
39.0428816593011
20
1.75326843885142
30
0
41
1
10
38.7428397512277
20
1.71100522196733
30
0
41
1
10
38.6642071553173
20
1.69965666083459
30
0
0
SPLINE
5
D2
100
AcDbEntity
8
1
62
256
6
ByLayer
370
13
48
1
60
0
100
AcDbSpline
70
4
71
3
72
37
73
33
40
0
40
0
40
0
40
0
40
0.0162375468824109
40
0.0425969088149377
40
0.0953156326799937
40
0.121674994612521
40
0.148034356545049
40
0.200753080410104
40
0.227112442342632
40
0.253471804275159
40
0.306190528140214
40
0.332549890072742
40
0.358909252005269
40
0.411627975870325
40
0.437987337802852
40
0.46434669973538
40
0.517065423600435
40
0.543424785532962
40
0.56978414746549
40
0.622502871330545
40
0.648862233263073
40
0.6752215951956
40
0.727940319060656
40
0.754299680993183
40
0.780659042925711
40
0.833377766790766
40
0.859737128723293
40
0.886096490655821
40
0.938815214520876
40
0.965174576453404
40
0.991533938385931
40
1
40
1
40
1
40
1
41
1
10
34.5340942552609
20
-1.69269650075415
30
0
41
1
10
34.4657886193904
20
-1.69724557628268
30
0
41
1
10
34.2866587876716
20
-1.70843478318335
30
0
41
1
10
33.8875670704706
20
-1.7252717014812
30
0
41
1
10
33.4447683676939
20
-1.73837885379976
30
0
41
1
10
33.0009209541163
20
-1.74750276202559
30
0
41
1
10
32.5594409017336
20
-1.74437513380877
30
0
41
1
10
32.1166335698657
20
-1.73615033969494
30
0
41
1
10
31.6727893755743
20
-1.72422131555388
30
0
41
1
10
31.2313170704665
20
-1.69947987529977
30
0
41
1
10
30.7885183676914
20
-1.67024989087983
30
0
41
1
10
30.3446709541173
20
-1.63770020803591
30
0
41
1
10
29.903190901736
20
-1.59223678053337
30
0
41
1
10
29.4603835698633
20
-1.54305696747193
30
0
41
1
10
29.0165393755686
20
-1.49108208890826
30
0
41
1
10
28.5750670704618
20
-1.42657191059393
30
0
41
1
10
28.1322683676935
20
-1.35925503149809
30
0
41
1
10
27.688420954126
20
-1.28976470678967
30
0
41
1
10
27.2469409024551
20
-1.20857617649059
30
0
41
1
10
26.804133573656
20
-1.12559242640452
30
0
41
1
10
26.3602893870436
20
-1.0411291909675
30
0
41
1
10
25.9188170889255
20
-0.94623048912888
30
0
41
1
10
25.4760183773926
20
-0.850615068861543
30
0
41
1
10
25.0321709323273
20
-0.754288519902673
30
0
41
1
10
24.5906908063775
20
-0.649180389908537
30
0
41
1
10
24.1478833364252
20
-0.544459243309348
30
0
41
1
10
23.7040387971402
20
-0.439789959745554
30
0
41
1
10
23.2625662688968
20
-0.328301362232594
30
0
41
1
10
22.8197677168732
20
-0.218295344237362
30
0
41
1
10
22.3759225071383
20
-0.1091218079047
30
0
41
1
10
22.1190407794182
20
-0.0441457432443428
30
0
41
1
10
21.9728105496927
20
-0.0071460100550951
30
0
41
1
10
21.9372612549995
20
0.0018446432239898
30
0
0
SPLINE
5
D3
100
AcDbEntity
8
1
62
256
6
ByLayer
370
18
48
1
60
0
100
AcDbSpline
70
4
71
3
72
8
73
4
40
0
40
0
40
0
40
0
40
1
40
1
40
1
40
1
41
1
10
41.7928280711718
20
3.25557000967521
30
0
41
1
10
41.8239638769237
20
3.20148259598781
30
0
41
1
10
41.8551158839187
20
3.14738326434039
30
0
41
1
10
41.8862802972725
20
3.09327989089033
30
0
0
SPLINE
5
D4
100
AcDbEntity
8
1
62
256
6
ByLayer
370
18
48
1
60
0
100
AcDbSpline
70
4
71
3
72
26
73
22
40
0
40
0
40
0
40
0
40
0.0099010384925563
40
0.0099010384925563
40
0.133663408680989
40
0.133663408680989
40
0.257425778869422
40
0.257425778869422
40
0.381188149057855
40
0.381188149057855
40
0.443069334152071
40
0.443069334152071
40
0.504950519246288
40
0.504950519246288
40
0.752475259623147
40
0.752475259623147
40
0.876237629811577
40
0.876237629811577
40
0.938118814905788
40
0.938118814905788
40
1
40
1
40
1
40
1
41
1
10
36.6412991781611
20
2.44914620858361
30
0
41
1
10
36.6582819052269
20
2.45441648439805
30
0
41
1
10
36.6752656976047
20
2.45966461065382
30
0
41
1
10
36.904561370306
20
2.53021288915519
30
0
41
1
10
37.117056282846
20
2.59206720002231
30
0
41
1
10
37.5427427454495
20
2.70841717634988
30
0
41
1
10
37.7554940409809
20
2.7627925463002
30
0
41
1
10
38.1808610643983
20
2.86356511691312
30
0
41
1
10
38.3935266030229
20
2.90996441839792
30
0
41
1
10
38.7127581373011
20
2.97329162103108
30
0
41
1
10
38.8192079400435
20
2.99335137476751
30
0
41
1
10
39.0318762442903
20
3.03128837818551
30
0
41
1
10
39.1381357639378
20
3.04917533874044
30
0
41
1
10
39.6691656962167
20
3.1331671898258
30
0
41
1
10
40.0931690573013
20
3.18297903131949
30
0
41
1
10
40.7298019636561
20
3.23072676466552
30
0
41
1
10
40.9421168782656
20
3.24214106933431
30
0
41
1
10
41.2610074561152
20
3.25237529114475
30
0
41
1
10
41.3674110430202
20
3.25463863096005
30
0
41
1
10
41.5802362548297
20
3.25684374728169
30
0
41
1
10
41.6865654737242
20
3.25678384686856
30
0
41
1
10
41.7928280711718
20
3.25557000967513
30
0
0
SPLINE
5
D5
100
AcDbEntity
8
1
62
256
6
ByLayer
370
13
48
1
60
0
100
AcDbSpline
70
4
71
3
72
17
73
13
40
0
40
0
40
0
40
0
40
0.0007493038665302
40
0.085381796879245
40
0.254646782904675
40
0.339279275917389
40
0.423911768930104
40
0.593176754955534
40
0.677809247968248
40
0.762441740980963
40
0.931706727006393
40
1
40
1
40
1
40
1
41
1
10
42.2036469233539
20
2.1791990278073
30
0
41
1
10
42.2026671104914
20
2.1791969403767
30
0
41
1
10
42.0910193572928
20
2.17895318614083
30
0
41
1
10
41.7580766145399
20
2.17622946811687
30
0
41
1
10
41.3152944150131
20
2.16201544274816
30
0
41
1
10
40.8725695372822
20
2.13703892257857
30
0
41
1
10
40.4299520402149
20
2.10695786785777
30
0
41
1
10
39.9871691914424
20
2.06651790467049
30
0
41
1
10
39.5444440162328
20
2.01584348376369
30
0
41
1
10
39.1018266145399
20
1.96039583986357
30
0
41
1
10
38.6804153906309
20
1.89833871429713
30
0
41
1
10
38.3697373526971
20
1.84646677259605
30
0
41
1
10
38.2804312513129
20
1.83117758669161
30
0
0
SPLINE
5
D6
100
AcDbEntity
8
1
62
256
6
ByLayer
370
18
48
1
60
0
100
AcDbSpline
70
4
71
3
72
10
73
6
40
0
40
0
40
0
40
0
40
0.5
40
0.5
40
1
40
1
40
1
40
1
41
1
10
41.8862802972724
20
3.09327989089039
30
0
41
1
10
41.9383576845742
20
2.94161229996396
30
0
41
1
10
41.9908096839801
20
2.78926603446215
30
0
41
1
10
42.0965130001087
20
2.48443751785496
30
0
41
1
10
42.1497964312012
20
2.33185147006966
30
0
41
1
10
42.203646923352
20
2.17919902780736
30
0
0
SPLINE
5
D7
100
AcDbEntity
8
1
62
256
6
ByLayer
370
13
48
1
60
0
100
AcDbSpline
70
4
71
3
72
38
73
34
40
0
40
0
40
0
40
0
40
0.0075364867022106
40
0.0334363007276493
40
0.0593361147530873
40
0.111135742803966
40
0.137035556829404
40
0.162935370854843
40
0.21473499890572
40
0.240634812931159
40
0.266534626956598
40
0.318334255007475
40
0.344234069032914
40
0.370133883058353
40
0.42193351110923
40
0.447833325134669
40
0.473733139160108
40
0.525532767210985
40
0.551432581236424
40
0.577332395261863
40
0.62913202331274
40
0.655031837338179
40
0.680931651363618
40
0.732731279414495
40
0.758631093439934
40
0.784530907465372
40
0.83633053551625
40
0.862230349541688
40
0.888130163567127
40
0.939929791618005
40
0.965829605643444
40
0.991729419668882
40
1
40
1
40
1
40
1
41
1
10
29.6998855728108
20
0.49304040643662
30
0
41
1
10
29.6676743053113
20
0.501902401452668
30
0
41
1
10
29.5247646823105
20
0.541132273354265
30
0
41
1
10
29.2711539009467
20
0.610005229593867
30
0
41
1
10
28.8286110588772
20
0.729018662183194
30
0
41
1
10
28.3858273308939
20
0.844803124749689
30
0
41
1
10
27.9430298157949
20
0.955799876793748
30
0
41
1
10
27.5004863818244
20
1.06481312230645
30
0
41
1
10
27.0577014854862
20
1.16888488565931
30
0
41
1
10
26.6149039009444
20
1.26654605602022
30
0
41
1
10
26.1723610588748
20
1.36153739471288
30
0
41
1
10
25.7295773308948
20
1.45005413759554
30
0
41
1
10
25.2867798157989
20
1.5308046903649
30
0
41
1
10
24.844236381829
20
1.60831087926604
30
0
41
1
10
24.4014514854849
20
1.67805091191471
30
0
41
1
10
23.958653900937
20
1.73892231830578
30
0
41
1
10
23.5161110588648
20
1.79607916489738
30
0
41
1
10
23.073327330888
20
1.84445724092501
30
0
41
1
10
22.6305298157995
20
1.88321990505244
30
0
41
1
10
22.187986382003
20
1.91794910040872
30
0
41
1
10
21.7452014864508
20
1.94321671704401
30
0
41
1
10
21.3024039036239
20
1.95844723064096
30
0
41
1
10
20.8598610639985
20
1.96945858361514
30
0
41
1
10
20.4170773321202
20
1.97066348230183
30
0
41
1
10
19.9742798128749
20
1.96180193120856
30
0
41
1
10
19.5317363667418
20
1.94870430452028
30
0
41
1
10
19.0889514661591
20
1.92582580222012
30
0
41
1
10
18.6461538101952
20
1.89320074308085
30
0
41
1
10
18.2036108703901
20
1.85646711990199
30
0
41
1
10
17.7608270926584
20
1.81031294132143
30
0
41
1
10
17.3180300647984
20
1.75513908185675
30
0
41
1
10
17.0613508349172
20
1.72075925648338
30
0
41
1
10
16.915326754544
20
1.70011204024914
30
0
41
1
10
16.8799825859105
20
1.69504414102761
30
0
0
SPLINE
5
D8
100
AcDbEntity
8
1
62
256
6
ByLayer
370
13
48
1
60
0
100
AcDbSpline
70
4
71
3
72
34
73
30
40
0
40
0
40
0
40
0
40
0.058227549215385
40
0.058227549215385
40
0.128360115445202
40
0.198492681675019
40
0.198492681675019
40
0.268625247904836
40
0.268625247904836
40
0.40889038036447
40
0.40889038036447
40
0.479022946594287
40
0.479022946594287
40
0.514089229709195
40
0.514089229709195
40
0.549155512824104
40
0.549155512824104
40
0.689420645283737
40
0.689420645283737
40
0.759553211513555
40
0.777086353071009
40
0.777086353071009
40
0.794619494628463
40
0.794619494628463
40
0.829685777743372
40
0.829685777743372
40
0.969950910203006
40
0.969950910203006
40
1
40
1
40
1
40
1
41
1
10
21.5003074398622
20
-1.00107167048276
30
0
41
1
10
21.5003023322053
20
-1.0752258786595
30
0
41
1
10
21.5002967456442
20
-1.14850093466407
30
0
41
1
10
21.5002835607308
20
-1.30709656427194
30
0
41
1
10
21.5002679987806
20
-1.47676428497832
30
0
41
1
10
21.5002504258949
20
-1.6392211730653
30
0
41
1
10
21.5002319506564
20
-1.7980226697039
30
0
41
1
10
21.5002222582904
20
-1.87558420712622
30
0
41
1
10
21.5001922948381
20
-2.09999422904608
30
0
41
1
10
21.5001712962515
20
-2.2377728512096
30
0
41
1
10
21.5001385841741
20
-2.42735526332064
30
0
41
1
10
21.500127472495
20
-2.48768536329771
30
0
41
1
10
21.5001104874475
20
-2.57382104863768
30
0
41
1
10
21.5001047725298
20
-2.60180536409217
30
0
41
1
10
21.5000932312861
20
-2.65629562310917
30
0
41
1
10
21.500087391663
20
-2.68285741525577
30
0
41
1
10
21.5000581326954
20
-2.81087608408075
30
0
41
1
10
21.5000344657303
20
-2.89854490270696
30
0
41
1
10
21.4999981215649
20
-3.00850323120377
30
0
41
1
10
21.4999827977246
20
-3.04980534422296
30
0
41
1
10
21.4999671500976
20
-3.08534792835923
30
0
41
1
10
21.499960862473
20
-3.09909870591778
30
0
41
1
10
21.4999577012742
20
-3.10574720323027
30
0
41
1
10
21.4999482173313
20
-3.12489715544615
30
0
41
1
10
21.4999418823726
20
-3.13663159018387
30
0
41
1
10
21.4999101018259
20
-3.19025408009546
30
0
41
1
10
21.4998843481163
20
-3.2171048203096
30
0
41
1
10
21.4998519138837
20
-3.23080635128264
30
0
41
1
10
21.4998461477832
20
-3.23250963353522
30
0
41
1
10
21.4998403301741
20
-3.23348955315109
30
0
0
SPLINE
5
D9
100
AcDbEntity
8
1
62
256
6
ByLayer
370
18
48
1
60
0
100
AcDbSpline
70
4
71
3
72
8
73
4
40
0
40
0
40
0
40
0
40
1
40
1
40
1
40
1
41
1
10
41.7928280711718
20
-3.25557000967521
30
0
41
1
10
41.8239638769237
20
-3.20148259598776
30
0
41
1
10
41.8551158839188
20
-3.14738326434028
30
0
41
1
10
41.8862802972726
20
-3.09327989089013
30
0
0
SPLINE
5
DA
100
AcDbEntity
8
1
62
256
6
ByLayer
370
18
48
1
60
0
100
AcDbSpline
70
4
71
3
72
8
73
4
40
0
40
0
40
0
40
0
40
1
40
1
40
1
40
1
41
1
10
21.3995139041949
20
3.27443804595896
30
0
41
1
10
21.3995139041949
20
3.24239554566293
30
0
41
1
10
21.3995139041949
20
3.21007605821527
30
0
41
1
10
21.3995139041949
20
3.17748245456835
30
0
0
SPLINE
5
DB
100
AcDbEntity
8
1
62
256
6
ByLayer
370
18
48
1
60
0
100
AcDbSpline
70
4
71
5
72
14
73
8
40
0
40
0
40
0
40
0
40
0
40
0
40
0.367777586922642
40
0.743624359727909
40
1
40
1
40
1
40
1
40
1
40
1
41
1
10
15.1008490946622
20
2.6055810824613
30
0
41
1
10
15.0959399340667
20
2.58828825357654
30
0
41
1
10
15.0858976934221
20
2.55339549083092
30
0
41
1
10
15.0720813329858
20
2.50667304017497
30
0
41
1
10
15.0578559792859
20
2.4602292313979
30
0
41
1
10
15.0432350585494
20
2.41407680197366
30
0
41
1
10
15.0338364588829
20
2.38501788233984
30
0
41
1
10
15.0299999174341
20
2.37325395065906
30
0
0
SPLINE
5
DC
100
AcDbEntity
8
1
62
256
6
ByLayer
370
13
48
1
60
0
100
AcDbSpline
70
4
71
3
72
38
73
34
40
0
40
0
40
0
40
0
40
0.0217569547850955
40
0.0472927452990852
40
0.0728285358130742
40
0.123900116841054
40
0.149435907355044
40
0.174971697869034
40
0.226043278897013
40
0.251579069411003
40
0.277114859924993
40
0.328186440952972
40
0.353722231466962
40
0.379258021980952
40
0.430329603008931
40
0.455865393522921
40
0.48140118403691
40
0.53247276506489
40
0.55800855557888
40
0.583544346092869
40
0.634615927120849
40
0.660151717634839
40
0.685687508148828
40
0.736759089176808
40
0.762294879690797
40
0.787830670204787
40
0.838902251232767
40
0.864438041746756
40
0.889973832260746
40
0.941045413288725
40
0.966581203802715
40
0.992116994316705
40
1
40
1
40
1
40
1
41
1
10
29.5344170925233
20
0.571863401581709
30
0
41
1
10
29.4401093057588
20
0.600526521203079
30
0
41
1
10
29.2351090654551
20
0.662469607194026
30
0
41
1
10
28.919444016238
20
0.756345288713504
30
0
41
1
10
28.4768266145485
20
0.885947388171189
30
0
41
1
10
28.0340444150168
20
1.01177475108926
30
0
41
1
10
27.5913195372791
20
1.13226549065158
30
0
41
1
10
27.1487020402084
20
1.24981537770063
30
0
41
1
10
26.7059191914397
20
1.36177333904069
30
0
41
1
10
26.2631940162358
20
1.46666241387453
30
0
41
1
10
25.8205766145462
20
1.56782547282387
30
0
41
1
10
25.377794415018
20
1.66178264791193
30
0
41
1
10
24.9350695372833
20
1.74722996235806
30
0
41
1
10
24.4924520402132
20
1.82831674731068
30
0
41
1
10
24.0496691914385
20
1.90085223256995
30
0
41
1
10
23.6069440162282
20
1.96371667116327
30
0
41
1
10
23.1643266145358
20
2.02173088054991
30
0
41
1
10
22.7215444150106
20
2.07015584413173
30
0
41
1
10
22.2788195372833
20
2.10813510243304
30
0
41
1
10
21.8362020403485
20
2.14096820483107
30
0
41
1
10
21.3934191922031
20
2.16353405020342
30
0
41
1
10
20.9506940182916
20
2.17523292209862
30
0
41
1
10
20.5080766187155
20
2.18166261308289
30
0
41
1
10
20.0652944156446
20
2.17751403758385
30
0
41
1
10
19.6225695356916
20
2.16250283081121
30
0
41
1
10
19.1799520308458
20
2.14230813841414
30
0
41
1
10
18.7371691872323
20
2.11162353007205
30
0
41
1
10
18.2944439599445
20
2.07045572954192
30
0
41
1
10
17.8518264695896
20
2.02436770517267
30
0
41
1
10
17.4090442064176
20
1.96823778691396
30
0
41
1
10
16.9663196934194
20
1.90244248463841
30
0
41
1
10
16.7108161244748
20
1.86177806462953
30
0
41
1
10
16.565968324801
20
1.83756590146433
30
0
41
1
10
16.5318002941636
20
1.83178398755629
30
0
0
SPLINE
5
DD
100
AcDbEntity
8
1
62
256
6
ByLayer
370
18
48
1
60
0
100
AcDbSpline
70
4
71
5
72
12
73
6
40
0
40
0
40
0
40
0
40
0
40
0
40
1
40
1
40
1
40
1
40
1
40
1
41
1
10
14.6084082536011
20
-2.44985833899563
30
0
41
1
10
14.4646013882903
20
-2.506738799441
30
0
41
1
10
14.3209352541209
20
-2.56394591137578
30
0
41
1
10
14.1774106158619
20
-2.62147497063725
30
0
41
1
10
14.0340281958219
20
-2.67932131548193
30
0
41
1
10
13.8907886719161
20
-2.73748033844689
30
0
0
SPLINE
5
DE
100
AcDbEntity
8
1
62
256
6
ByLayer
370
18
48
1
60
0
100
AcDbSpline
70
4
71
3
72
37
73
33
40
0
40
0
40
0
40
0
40
0.0186465782580925
40
0.0445359341376088
40
0.0963146458966435
40
0.122204001776161
40
0.148093357655677
40
0.199872069414712
40
0.225761425294229
40
0.251650781173746
40
0.30342949293278
40
0.329318848812297
40
0.355208204691814
40
0.406986916450848
40
0.432876272330365
40
0.458765628209882
40
0.510544339968916
40
0.536433695848433
40
0.56232305172795
40
0.614101763486984
40
0.639991119366501
40
0.665880475246018
40
0.717659187005052
40
0.743548542884569
40
0.769437898764086
40
0.82121661052312
40
0.847105966402637
40
0.872995322282154
40
0.924774034041188
40
0.950663389920705
40
0.976552745800222
40
1
40
1
40
1
40
1
41
1
10
34.8810330973838
20
-1.84434217546112
30
0
41
1
10
34.8011545491371
20
-1.85131474677056
30
0
41
1
10
34.6103972934726
20
-1.86710509242187
30
0
41
1
10
34.1998632128811
20
-1.89161841911755
30
0
41
1
10
33.7570640150214
20
-1.91185103197554
30
0
41
1
10
33.31315102978
20
-1.92749339699944
30
0
41
1
10
32.8717369502724
20
-1.92996512493991
30
0
41
1
10
32.4289286600414
20
-1.92666522672727
30
0
41
1
10
31.9850190993523
20
-1.9189838857103
30
0
41
1
10
31.5436132128769
20
-1.89750385569494
30
0
41
1
10
31.1008140150187
20
-1.87081740308938
30
0
41
1
10
30.6569010297808
20
-1.84008899990602
30
0
41
1
10
30.2154869502746
20
-1.79542990121746
30
0
41
1
10
29.7726786600388
20
-1.74631967158197
30
0
41
1
10
29.3287690993467
20
-1.69367251873169
30
0
41
1
10
28.8873632128725
20
-1.62747909618309
30
0
41
1
10
28.4445640150213
20
-1.55775397304222
30
0
41
1
10
28.00065102979
20
-1.48512292418613
30
0
41
1
10
27.5592369510269
20
-1.39982674030583
30
0
41
1
10
27.1164286640033
20
-1.31204714292281
30
0
41
1
10
26.6725191113576
20
-1.22208942817278
30
0
41
1
10
26.231113232142
20
-1.12080758221126
30
0
41
1
10
25.7883140252398
20
-1.01818231801357
30
0
41
1
10
25.3444010068333
20
-0.914209729137724
30
0
41
1
10
24.9029868500338
20
-0.800679254981475
30
0
41
1
10
24.4601784134552
20
-0.686994214020501
30
0
41
1
10
24.0162684910266
20
-0.572807225896753
30
0
41
1
10
23.5748623739463
20
-0.451163832870066
30
0
41
1
10
23.1320633394166
20
-0.330565217766178
30
0
41
1
10
22.688152662143
20
-0.210352634872066
30
0
41
1
10
22.3665859054056
20
-0.120719773844399
30
0
41
1
10
22.1556519101474
20
-0.0617789653037448
30
0
41
1
10
22.0554038923095
20
-0.0338398702613745
30
0
0
SPLINE
5
DF
100
AcDbEntity
8
1
62
256
6
ByLayer
370
18
48
1
60
0
100
AcDbSpline
70
2053
71
3
72
103
73
99
40
0
40
0
40
0
40
0
40
0.0312500000000025
40
0.0312500000000025
40
0.062500000000005
40
0.062500000000005
40
0.0937500000000075
40
0.0937500000000075
40
0.12500000000001
40
0.12500000000001
40
0.156250000000012
40
0.156250000000012
40
0.171875000000013
40
0.171875000000013
40
0.187500000000013
40
0.187500000000013
40
0.218750000000015
40
0.218750000000015
40
0.234375000000016
40
0.234375000000016
40
0.250000000000017
40
0.250000000000017
40
0.281250000000019
40
0.281250000000019
40
0.289062500000019
40
0.289062500000019
40
0.29687500000002
40
0.29687500000002
40
0.312500000000021
40
0.328125000000022
40
0.328125000000022
40
0.343750000000024
40
0.343750000000024
40
0.375000000000027
40
0.375000000000027
40
0.382812500000027
40
0.382812500000027
40
0.390625000000028
40
0.390625000000028
40
0.406250000000025
40
0.421875000000022
40
0.421875000000022
40
0.437500000000019
40
0.437500000000019
40
0.468750000000009
40
0.468750000000009
40
0.484375000000006
40
0.484375000000006
40
0.500000000000004
40
0.500000000000004
40
0.531249999999998
40
0.531249999999998
40
0.546874999999998
40
0.546874999999998
40
0.562499999999998
40
0.562499999999998
40
0.593749999999997
40
0.593749999999997
40
0.609374999999997
40
0.609374999999997
40
0.624999999999997
40
0.624999999999997
40
0.656249999999996
40
0.656249999999996
40
0.671874999999995
40
0.671874999999995
40
0.687499999999995
40
0.687499999999995
40
0.718749999999994
40
0.718749999999994
40
0.726562499999993
40
0.726562499999993
40
0.734374999999992
40
0.734374999999992
40
0.749999999999991
40
0.749999999999991
40
0.781249999999988
40
0.781249999999988
40
0.796874999999988
40
0.796874999999988
40
0.812499999999988
40
0.812499999999988
40
0.828124999999987
40
0.828124999999987
40
0.843749999999987
40
0.859374999999986
40
0.859374999999986
40
0.874999999999986
40
0.874999999999986
40
0.90624999999999
40
0.90624999999999
40
0.921874999999991
40
0.921874999999991
40
0.937499999999993
40
0.937499999999993
40
0.968749999999996
40
0.968749999999996
40
1
40
1
40
1
40
1
41
1
10
42.1794230913969
20
-1.34536858615414
30
0
41
1
10
42.1670874559717
20
-1.3601089981087
30
0
41
1
10
42.1553115698246
20
-1.37213203438873
30
0
41
1
10
42.1327590940062
20
-1.39102386277975
30
0
41
1
10
42.1219774247543
20
-1.39789425925378
30
0
41
1
10
42.1014003652082
20
-1.40620244902627
30
0
41
1
10
42.0918906466298
20
-1.40752663173277
30
0
41
1
10
42.0742965872486
20
-1.40463289794582
30
0
41
1
10
42.0662040750253
20
-1.40040976977929
30
0
41
1
10
42.0514928424243
20
-1.38598766273213
30
0
41
1
10
42.0450881584491
20
-1.37600552413298
30
0
41
1
10
42.0368389551049
20
-1.3568805376336
30
0
41
1
10
42.0343172090255
20
-1.34980916012213
30
0
41
1
10
42.0297395856494
20
-1.33421662405587
30
0
41
1
10
42.0276774519577
20
-1.32566346067793
30
0
41
1
10
42.0222705068759
20
-1.29788713189711
30
0
41
1
10
42.0197650926973
20
-1.27697855978701
30
0
41
1
10
42.0176604669032
20
-1.24198650655467
30
0
41
1
10
42.017236801744
20
-1.22971341779092
30
0
41
1
10
42.0169771283779
20
-1.20388447080148
30
0
41
1
10
42.0171463894724
20
-1.19024007798288
30
0
41
1
10
42.0185719853963
20
-1.14828719367938
30
0
41
1
10
42.0207180687878
20
-1.11878593388369
30
0
41
1
10
42.0249862875276
20
-1.07995096246421
30
0
41
1
10
42.0259201253388
20
-1.0720850683108
30
0
41
1
10
42.0279543793207
20
-1.05615025463007
30
0
41
1
10
42.0290590358297
20
-1.04805294531826
30
0
41
1
10
42.0326003371332
20
-1.02367923673543
30
0
41
1
10
42.0379109760198
20
-0.991040147218541
30
0
41
1
10
42.0443978907555
20
-0.958133933716084
30
0
41
1
10
42.0514923496648
20
-0.925097101656235
30
0
41
1
10
42.0553592408559
20
-0.908450273141426
30
0
41
1
10
42.0678263752431
20
-0.85872986478293
30
0
41
1
10
42.0770839378138
20
-0.826637344577449
30
0
41
1
10
42.0898376518831
20
-0.787775818925809
30
0
41
1
10
42.0924479992525
20
-0.780066847732115
30
0
41
1
10
42.097789912037
20
-0.764776404698267
30
0
41
1
10
42.1005293001795
20
-0.757174580043483
30
0
41
1
10
42.1088483437463
20
-0.734788097560795
30
0
41
1
10
42.1202345187976
20
-0.705969727759566
30
0
41
1
10
42.13219384279
20
-0.679099141244166
30
0
41
1
10
42.1444383025142
20
-0.65317638309287
30
0
41
1
10
42.1507320538413
20
-0.640635860932207
30
0
41
1
10
42.1698292783217
20
-0.60483862849631
30
0
41
1
10
42.1827497768781
20
-0.583540098817764
30
0
41
1
10
42.2023903651301
20
-0.55509653787621
30
0
41
1
10
42.2089805807925
20
-0.546204058927003
30
0
41
1
10
42.2222441093645
20
-0.529589192193868
30
0
41
1
10
42.2288352715956
20
-0.521970001285808
30
0
41
1
10
42.2484590821545
20
-0.501093803804082
30
0
41
1
10
42.2613564212574
20
-0.489786443156305
30
0
41
1
10
42.2803900197357
20
-0.47660151377778
30
0
41
1
10
42.2867082468976
20
-0.472828817712355
30
0
41
1
10
42.2990659753694
20
-0.466651271757684
30
0
41
1
10
42.305108529133
20
-0.464237775264678
30
0
41
1
10
42.3228230606645
20
-0.458966657163387
30
0
41
1
10
42.3340859815373
20
-0.45806107490489
30
0
41
1
10
42.3500728613147
20
-0.460707361333675
30
0
41
1
10
42.3552729957123
20
-0.462273792943478
30
0
41
1
10
42.3652054193159
20
-0.466753911317994
30
0
41
1
10
42.3699363846339
20
-0.469657728525988
30
0
41
1
10
42.3834104231878
20
-0.480349566157685
30
0
41
1
10
42.3914418343171
20
-0.490097742146475
30
0
41
1
10
42.4018928989819
20
-0.508945785318133
30
0
41
1
10
42.4051193756417
20
-0.515965913368319
30
0
41
1
10
42.4109367054126
20
-0.531418398514717
30
0
41
1
10
42.4134996032083
20
-0.539765966403451
30
0
41
1
10
42.4201394413077
20
-0.566676534969758
30
0
41
1
10
42.4231782132455
20
-0.587086058136293
30
0
41
1
10
42.4250605638597
20
-0.615986206566504
30
0
41
1
10
42.425340375497
20
-0.621937353262041
30
0
41
1
10
42.4256982878415
20
-0.634197106412813
30
0
41
1
10
42.4257757967132
20
-0.640526587352809
30
0
41
1
10
42.4256943123112
20
-0.659810752210177
30
0
41
1
10
42.4252263035828
20
-0.67311590998446
30
0
41
1
10
42.4225961234249
20
-0.714372813880573
30
0
41
1
10
42.4192203057835
20
-0.743649813037479
30
0
41
1
10
42.411574082742
20
-0.790467328260775
30
0
41
1
10
42.4086296791953
20
-0.806315266118588
30
0
41
1
10
42.4020422017553
20
-0.838190490282017
30
0
41
1
10
42.3983913607247
20
-0.854265220736636
30
0
41
1
10
42.3903969915021
20
-0.886690437040699
30
0
41
1
10
42.3860511922574
20
-0.903048899275234
30
0
41
1
10
42.3766759106224
20
-0.936020094542755
30
0
41
1
10
42.3667936911832
20
-0.968630307215733
30
0
41
1
10
42.3559863643667
20
-1.00056958771643
30
0
41
1
10
42.344743220995
20
-1.0321867350298
30
0
41
1
10
42.338877114968
20
-1.04790150113271
30
0
41
1
10
42.3208297151424
20
-1.09408933558561
30
0
41
1
10
42.308366747395
20
-1.12323364106882
30
0
41
1
10
42.2891411458602
20
-1.16471073172988
30
0
41
1
10
42.2826179819221
20
-1.17820863201359
30
0
41
1
10
42.2695156421661
20
-1.20422156663687
30
0
41
1
10
42.2629756763712
20
-1.21666358717408
30
0
41
1
10
42.2433940445573
20
-1.25238959913514
30
0
41
1
10
42.2303914305686
20
-1.27408800830276
30
0
41
1
10
42.2044931062001
20
-1.31334090919398
30
0
41
1
10
42.1917587268221
20
-1.33062817419957
30
0
41
1
10
42.1794230913969
20
-1.34536858615414
30
0
0
SPLINE
5
E0
100
AcDbEntity
8
1
62
256
6
ByLayer
370
18
48
1
60
0
100
AcDbSpline
70
4
71
3
72
14
73
10
40
0
40
0
40
0
40
0
40
0.249999999999989
40
0.249999999999989
40
0.374999999999984
40
0.374999999999984
40
0.499999999999979
40
0.499999999999979
40
1
40
1
40
1
40
1
41
1
10
41.8862802972724
20
-3.09327989089044
30
0
41
1
10
41.8732471346964
20
-3.11282210350728
30
0
41
1
10
41.8606982143698
20
-3.13091758055484
30
0
41
1
10
41.8426148935061
20
-3.15572126286185
30
0
41
1
10
41.8367104487345
20
-3.16359893475769
30
0
41
1
10
41.8251503274458
20
-3.17854147404967
30
0
41
1
10
41.8195328566614
20
-3.18555629258628
30
0
41
1
10
41.792328342051
20
-3.21824359590093
30
0
41
1
10
41.7732817814895
20
-3.23690857431313
30
0
41
1
10
41.7565725151902
20
-3.24830370895265
30
0
0
SPLINE
5
E1
100
AcDbEntity
8
1
62
256
6
ByLayer
370
18
48
1
60
0
100
AcDbSpline
70
4
71
3
72
10
73
6
40
0
40
0
40
0
40
0
40
0.5
40
0.5
40
1
40
1
40
1
40
1
41
1
10
41.8862802972725
20
-3.09327989089019
30
0
41
1
10
41.9383576845743
20
-2.94161229996379
30
0
41
1
10
41.9908096839801
20
-2.789266034462
30
0
41
1
10
42.0965130001087
20
-2.4844375178549
30
0
41
1
10
42.1497964312012
20
-2.33185147006964
30
0
41
1
10
42.203646923352
20
-2.17919902780736
30
0
0
SPLINE
5
E2
100
AcDbEntity
8
1
62
256
6
ByLayer
370
18
48
1
60
0
100
AcDbSpline
70
4
71
3
72
8
73
4
40
0
40
0
40
0
40
0
40
1
40
1
40
1
40
1
41
1
10
42.2036469233518
20
-2.17919902780738
30
0
41
1
10
42.2284456413528
20
-2.10890026396081
30
0
41
1
10
42.2539179338949
20
-2.03871538778313
30
0
41
1
10
42.2801166390389
20
-1.96894529957944
30
0
0
SPLINE
5
E3
100
AcDbEntity
8
1
62
256
6
ByLayer
370
18
48
1
60
0
100
AcDbSpline
70
4
71
3
72
14
73
10
40
0
40
0
40
0
40
0
40
0.5
40
0.5
40
0.75
40
0.75
40
0.875
40
0.875
40
1
40
1
40
1
40
1
41
1
10
42.2801166390389
20
-1.96894529957947
30
0
41
1
10
42.3317178301002
20
-1.83152554418876
30
0
41
1
10
42.3853098569442
20
-1.69796097817149
30
0
41
1
10
42.4698323526333
20
-1.50371401009284
30
0
41
1
10
42.4986957198256
20
-1.43998551390177
30
0
41
1
10
42.543156062112
20
-1.34596950571148
30
0
41
1
10
42.5581697282288
20
-1.31489262129418
30
0
41
1
10
42.588603513307
20
-1.25326786015447
30
0
41
1
10
42.6040099680167
20
-1.2227513285336
30
0
41
1
10
42.6194766799493
20
-1.19279143346961
30
0
0
SPLINE
5
E4
100
AcDbEntity
8
1
62
256
6
ByLayer
370
18
48
1
60
0
100
AcDbSpline
70
4
71
3
72
8
73
4
40
0
40
0
40
0
40
0
40
1
40
1
40
1
40
1
41
1
10
42.6194766799494
20
-1.19279143346958
30
0
41
1
10
42.7180022982018
20
-0.916609329267715
30
0
41
1
10
42.8156212452376
20
-0.640109944010334
30
0
41
1
10
42.9123133408546
20
-0.363286215825724
30
0
0
SPLINE
5
E5
100
AcDbEntity
8
1
62
256
6
ByLayer
370
18
48
1
60
0
100
AcDbSpline
70
4
71
3
72
8
73
4
40
0
40
0
40
0
40
0
40
1
40
1
40
1
40
1
41
1
10
42.9123133408546
20
-0.363286215825724
30
0
41
1
10
42.9405668202464
20
-0.282398182015953
30
0
41
1
10
42.9694768338677
20
-0.201878907277063
30
0
41
1
10
42.999043526545
20
-0.121713666686475
30
0
0
SPLINE
5
E6
100
AcDbEntity
8
1
62
256
6
ByLayer
370
18
48
1
60
0
100
AcDbSpline
70
4
71
3
72
8
73
4
40
0
40
0
40
0
40
0
40
1
40
1
40
1
40
1
41
1
10
42.999043526545
20
0.121713666686446
30
0
41
1
10
43.0003171834578
20
0.0406756344494852
30
0
41
1
10
43.0003204697397
20
-0.0404665406043705
30
0
41
1
10
42.999043526545
20
-0.121713666686446
30
0
0
SPLINE
5
E7
100
AcDbEntity
8
1
62
256
6
ByLayer
370
18
48
1
60
0
100
AcDbSpline
70
4
71
3
72
50
73
46
40
0
40
0
40
0
40
0
40
0.0624999999999871
40
0.0624999999999871
40
0.0937499999999806
40
0.0937499999999806
40
0.124999999999974
40
0.124999999999974
40
0.187499999999961
40
0.187499999999961
40
0.249999999999948
40
0.249999999999948
40
0.281249999999946
40
0.281249999999946
40
0.312499999999944
40
0.312499999999944
40
0.374999999999931
40
0.374999999999931
40
0.406249999999929
40
0.406249999999929
40
0.421874999999928
40
0.421874999999928
40
0.437499999999927
40
0.437499999999927
40
0.499999999999941
40
0.499999999999941
40
0.531249999999948
40
0.531249999999948
40
0.562499999999954
40
0.562499999999954
40
0.624999999999961
40
0.624999999999961
40
0.656249999999964
40
0.656249999999964
40
0.687499999999967
40
0.687499999999967
40
0.749999999999974
40
0.749999999999974
40
0.812499999999981
40
0.812499999999981
40
0.874999999999987
40
0.874999999999987
40
0.937499999999994
40
0.937499999999994
40
1
40
1
40
1
40
1
41
1
10
42.999043526545
20
0.121713666686418
30
0
41
1
10
42.9852745900571
20
0.0827331150597672
30
0
41
1
10
42.9707241213295
20
0.0441238250365075
30
0
41
1
10
42.9477185447622
20
-0.0132215399344489
30
0
41
1
10
42.9398527832396
20
-0.0322416150179095
30
0
41
1
10
42.9237172295878
20
-0.0700856875964746
30
0
41
1
10
42.9154581575528
20
-0.0888790000932431
30
0
41
1
10
42.8904717219823
20
-0.144062507748117
30
0
41
1
10
42.8734121491649
20
-0.179557872804594
30
0
41
1
10
42.8385383673227
20
-0.247921906828623
30
0
41
1
10
42.8207245507003
20
-0.280792083968578
30
0
41
1
10
42.79342715775
20
-0.327974668365016
30
0
41
1
10
42.784190187962
20
-0.343410280277794
30
0
41
1
10
42.7658425282358
20
-0.373005806168322
30
0
41
1
10
42.7567069606729
20
-0.387213530578265
30
0
41
1
10
42.7294161703749
20
-0.428080928381291
30
0
41
1
10
42.7113773569588
20
-0.452994687747065
30
0
41
1
10
42.6845475266634
20
-0.486753200830094
30
0
41
1
10
42.6756421954177
20
-0.497401639993939
30
0
41
1
10
42.6623393707349
20
-0.512429146045235
30
0
41
1
10
42.6579050130693
20
-0.517289941828608
30
0
41
1
10
42.6491355248359
20
-0.526603005097797
30
0
41
1
10
42.6447929820763
20
-0.531064281722394
30
0
41
1
10
42.6232856362722
20
-0.552407881567177
30
0
41
1
10
42.6067347895367
20
-0.566417307912786
30
0
41
1
10
42.5828106758617
20
-0.582899338678089
30
0
41
1
10
42.5749867568715
20
-0.587634953091936
30
0
41
1
10
42.5596317221508
20
-0.595564130391182
30
0
41
1
10
42.5520771114238
20
-0.598760241273311
30
0
41
1
10
42.5302146570679
20
-0.605870157119597
30
0
41
1
10
42.516590559882
20
-0.60739529198608
30
0
41
1
10
42.497410665796
20
-0.605112945470694
30
0
41
1
10
42.4912276622421
20
-0.603587409775344
30
0
41
1
10
42.479263454421
20
-0.599015420602569
30
0
41
1
10
42.4734624852437
20
-0.595952188983262
30
0
41
1
10
42.4568525188904
20
-0.58462676971385
30
0
41
1
10
42.4467903341308
20
-0.574251129949431
30
0
41
1
10
42.4284121634696
20
-0.548292317629972
30
0
41
1
10
42.420087537391
20
-0.532681912114839
30
0
41
1
10
42.4050702056453
20
-0.496516096121468
30
0
41
1
10
42.3984945104272
20
-0.476259911287485
30
0
41
1
10
42.386956456127
20
-0.431806111594767
30
0
41
1
10
42.3819954436144
20
-0.407606181820569
30
0
41
1
10
42.3735501372243
20
-0.355464228380242
30
0
41
1
10
42.3700683920876
20
-0.327479868569924
30
0
41
1
10
42.3673229663458
20
-0.298030382122533
30
0
0
SPLINE
5
E8
100
AcDbEntity
8
1
62
256
6
ByLayer
370
18
48
1
60
0
100
AcDbSpline
70
4
71
3
72
8
73
4
40
0
40
0
40
0
40
0
40
1
40
1
40
1
40
1
41
1
10
42.3673229663457
20
-0.298030382122562
30
0
41
1
10
42.3453372298032
20
-0.0621949557682626
30
0
41
1
10
42.3149467884803
20
0.177444244145704
30
0
41
1
10
42.2762986126306
20
0.420820702306912
30
0
0
SPLINE
5
E9
100
AcDbEntity
8
1
62
256
6
ByLayer
370
18
48
1
60
0
100
AcDbSpline
70
4
71
3
72
29
73
25
40
0
40
0
40
0
40
0
40
0.0312499999999993
40
0.0312499999999993
40
0.0624999999999986
40
0.124999999999998
40
0.124999999999998
40
0.187499999999998
40
0.187499999999998
40
0.249999999999997
40
0.249999999999997
40
0.374999999999996
40
0.374999999999996
40
0.499999999999995
40
0.499999999999995
40
0.5625
40
0.5625
40
0.625000000000006
40
0.625000000000006
40
0.750000000000004
40
0.750000000000004
40
0.875000000000002
40
0.875000000000002
40
1
40
1
40
1
40
1
41
1
10
42.2762986126306
20
0.420820702306912
30
0
41
1
10
42.271335789479
20
0.422537960581707
30
0
41
1
10
42.2663374570157
20
0.424120169597529
30
0
41
1
10
42.2562306618558
20
0.426835356341485
30
0
41
1
10
42.2409199591774
20
0.430296992043424
30
0
41
1
10
42.2252009723158
20
0.432059462413861
30
0
41
1
10
42.2039342405802
20
0.433054022634622
30
0
41
1
10
42.1931377166626
20
0.432829558397543
30
0
41
1
10
42.1714819390842
20
0.432070970531555
30
0
41
1
10
42.1606191533515
20
0.431603247994332
30
0
41
1
10
42.1278956257872
20
0.428617155794996
30
0
41
1
10
42.1058808875007
20
0.424357397623481
30
0
41
1
10
42.0616224048575
20
0.411936955707659
30
0
41
1
10
42.0393687734289
20
0.403630085744453
30
0
41
1
10
42.0060275853819
20
0.390096273756484
30
0
41
1
10
41.9949135546008
20
0.385334628732181
30
0
41
1
10
41.9726683046165
20
0.374986799074435
30
0
41
1
10
41.9615368570348
20
0.369394349404018
30
0
41
1
10
41.9281336980398
20
0.351393400729108
30
0
41
1
10
41.9058544613293
20
0.337775554297622
30
0
41
1
10
41.8613653465039
20
0.30752077700518
30
0
41
1
10
41.8391590179732
20
0.290924587770235
30
0
41
1
10
41.7949401174764
20
0.255800773075123
30
0
41
1
10
41.7729010125533
20
0.237019077482756
30
0
41
1
10
41.751080399375
20
0.216815115401261
30
0
0
SPLINE
5
EA
100
AcDbEntity
8
1
62
256
6
ByLayer
370
18
48
1
60
0
100
AcDbSpline
70
4
71
3
72
34
73
30
40
0
40
0
40
0
40
0
40
0.328695482059727
40
0.328695482059727
40
0.55255013693653
40
0.55255013693653
40
0.701937640875667
40
0.701937640875667
40
0.801648660606965
40
0.801648660606965
40
0.868190016648697
40
0.868190016648697
40
0.912687532958177
40
0.912687532958177
40
0.942478428562756
40
0.942478428562756
40
0.962398304976145
40
0.962398304976145
40
0.975460751621267
40
0.975460751621267
40
0.98393750924785
40
0.98393750924785
40
0.991976769625522
40
0.991976769625522
40
0.996344964833074
40
0.996344964833074
40
0.999528595359873
40
0.999528595359873
40
1
40
1
40
1
40
1
41
1
10
41.7047065168828
20
-3.39987622511606
30
0
41
1
10
41.7143721000682
20
-3.38415516122123
30
0
41
1
10
41.7240392294497
20
-3.36839512888113
30
0
41
1
10
41.7402922052019
20
-3.34183729055974
30
0
41
1
10
41.7468774206216
20
-3.33106000030421
30
0
41
1
10
41.7578581314181
20
-3.31306103754451
30
0
41
1
10
41.7622521888906
20
-3.3058516062822
30
0
41
1
10
41.7695854036756
20
-3.2938045243132
30
0
41
1
10
41.7725238884133
20
-3.28897240416828
30
0
41
1
10
41.7774277211563
20
-3.28090099267357
30
0
41
1
10
41.7793903795867
20
-3.27766921088147
30
0
41
1
10
41.7826555616646
20
-3.27229476922034
30
0
41
1
10
41.7839614059694
20
-3.27014593605205
30
0
41
1
10
41.7861334601305
20
-3.26657409034596
30
0
41
1
10
41.7870006168584
20
-3.26514947270863
30
0
41
1
10
41.7884501453373
20
-3.26276639634492
30
0
41
1
10
41.7890316200722
20
-3.26181023767774
30
0
41
1
10
41.7900159781816
20
-3.26018103770781
30
0
41
1
10
41.79041334835
20
-3.25951966366225
30
0
41
1
10
41.7910702257282
20
-3.25842506584891
30
0
41
1
10
41.7913289632533
20
-3.25799388605174
30
0
41
1
10
41.7918246301166
20
-3.25717178871366
30
0
41
1
10
41.7920644944648
20
-3.25677552125853
30
0
41
1
10
41.7924058873776
20
-3.25622140540492
30
0
41
1
10
41.792521760937
20
-3.25603541943991
30
0
41
1
10
41.7926946792283
20
-3.25576531443502
30
0
41
1
10
41.7927600835731
20
-3.25566592329366
30
0
41
1
10
41.7928149672685
20
-3.25558813440961
30
0
41
1
10
41.7928217275943
20
-3.25557870032429
30
0
41
1
10
41.792828072179
20
-3.25557000879013
30
0
0
SPLINE
5
EB
100
AcDbEntity
8
1
62
256
6
ByLayer
370
18
48
1
60
0
100
AcDbSpline
70
4
71
3
72
54
73
50
40
0
40
0
40
0
40
0
40
0.0799424434143532
40
0.0799424434143532
40
0.159884886828706
40
0.159884886828706
40
0.179870497682295
40
0.179870497682295
40
0.199856108535883
40
0.199856108535883
40
0.239827330243061
40
0.239827330243061
40
0.279798551950239
40
0.279798551950239
40
0.319769773657417
40
0.319769773657417
40
0.359740995364595
40
0.359740995364595
40
0.399712217071774
40
0.399712217071774
40
0.479654660486128
40
0.479654660486128
40
0.499640271339716
40
0.499640271339716
40
0.519625882193305
40
0.519625882193305
40
0.559597103900482
40
0.559597103900482
40
0.639539547314834
40
0.639539547314834
40
0.659525158168422
40
0.659525158168422
40
0.67951076902201
40
0.67951076902201
40
0.719481990729185
40
0.719481990729185
40
0.799424434143539
40
0.799424434143539
40
0.819410044997128
40
0.819410044997128
40
0.839395655850717
40
0.839395655850717
40
0.879366877557893
40
0.879366877557893
40
0.959309320972245
40
0.959309320972245
40
0.999280542679421
40
0.999280542679421
40
1
40
1
40
1
40
1
41
1
10
21.399513904195
20
3.17748245456789
30
0
41
1
10
21.8247809547476
20
3.13367509349314
30
0
41
1
10
22.248690757626
20
3.07205252333662
30
0
41
1
10
23.0963562568045
20
2.91537266525654
30
0
41
1
10
23.5200935388183
20
2.82034825090557
30
0
41
1
10
24.0512611011927
20
2.68196699982681
30
0
41
1
10
24.1575719268028
20
2.65331397834382
30
0
41
1
10
24.3703906091736
20
2.59408485811119
30
0
41
1
10
24.4768132811878
20
2.56352501204793
30
0
41
1
10
24.7959435065792
20
2.46914047858553
30
0
41
1
10
25.0086217440717
20
2.40258535528338
30
0
41
1
10
25.4341760989024
20
2.26278988069413
30
0
41
1
10
25.6470885787916
20
2.18955576555297
30
0
41
1
10
26.0728469807998
20
2.03707861085269
30
0
41
1
10
26.2857215473474
20
1.95783747755922
30
0
41
1
10
26.7114813923894
20
1.7940726351602
30
0
41
1
10
26.9240665893741
20
1.70967367345821
30
0
41
1
10
27.3488140742959
20
1.53642399288418
30
0
41
1
10
27.5609990606511
20
1.44756436379234
30
0
41
1
10
28.1974989695405
20
1.17536926642526
30
0
41
1
10
28.6217342498046
20
0.98638898081947
30
0
41
1
10
29.1534395567598
20
0.743807343116202
30
0
41
1
10
29.259902424893
20
0.694951562936296
30
0
41
1
10
29.4726091987354
20
0.596883355240379
30
0
41
1
10
29.5788875001337
20
0.547659761402969
30
0
41
1
10
29.8975431205015
20
0.399517838404961
30
0
41
1
10
30.1097366884459
20
0.300118801039332
30
0
41
1
10
30.746158250716
20
0.0012241380622697
30
0
41
1
10
31.1702434553441
20
-0.198934493328238
30
0
41
1
10
31.7016197698024
20
-0.44699554504885
30
0
41
1
10
31.8079606318825
20
-0.496496412724184
30
0
41
1
10
32.0208118395481
20
-0.59519348449669
30
0
41
1
10
32.1271758230362
20
-0.644317706630204
30
0
41
1
10
32.4460350183526
20
-0.790845213994402
30
0
41
1
10
32.658328496079
20
-0.887452406989951
30
0
41
1
10
33.294903005565
20
-1.17290887926512
30
0
41
1
10
33.7189308126678
20
-1.35723706164387
30
0
41
1
10
34.2500264959472
20
-1.5773854183243
30
0
41
1
10
34.3562999690774
20
-1.62090047119824
30
0
41
1
10
34.5689935682194
20
-1.70682971113436
30
0
41
1
10
34.675463547741
20
-1.74926406726968
30
0
41
1
10
34.9945541931715
20
-1.87456324032354
30
0
41
1
10
35.2069676695267
20
-1.95549264741447
30
0
41
1
10
35.8437264009002
20
-2.18966076986715
30
0
41
1
10
36.2676291790466
20
-2.3342455205341
30
0
41
1
10
36.904561370306
20
-2.53021288915519
30
0
41
1
10
37.117056282846
20
-2.59206720002231
30
0
41
1
10
37.3337305609449
20
-2.6512893020676
30
0
41
1
10
37.3375615779568
20
-2.65233518495719
30
0
41
1
10
37.3413925653244
20
-2.65337983575009
30
0
0
SPLINE
5
EC
100
AcDbEntity
8
1
62
256
6
ByLayer
370
18
48
1
60
0
100
AcDbSpline
70
4
71
3
72
8
73
4
40
0
40
0
40
0
40
0
40
1
40
1
40
1
40
1
41
1
10
41.7590772072205
20
-3.25290652767359
30
0
41
1
10
41.7582417917695
20
-3.25145920128202
30
0
41
1
10
41.7574069166477
20
-3.24992487478684
30
0
41
1
10
41.7565725151903
20
-3.24830370895259
30
0
0
SPLINE
5
ED
100
AcDbEntity
8
1
62
256
6
ByLayer
370
18
48
1
60
0
100
AcDbSpline
70
4
71
3
72
43
73
39
40
0
40
0
40
0
40
0
40
0.124999999999999
40
0.124999999999999
40
0.187499999999999
40
0.187499999999999
40
0.218749999999999
40
0.234374999999999
40
0.234374999999999
40
0.25
40
0.25
40
0.3125
40
0.375
40
0.4375
40
0.4375
40
0.46875
40
0.46875
40
0.484375000000001
40
0.484375000000001
40
0.500000000000001
40
0.500000000000001
40
0.624999999999999
40
0.624999999999999
40
0.687499999999999
40
0.687499999999999
40
0.718749999999998
40
0.718749999999998
40
0.734374999999998
40
0.734374999999998
40
0.749999999999998
40
0.749999999999998
40
0.874999999999999
40
0.874999999999999
40
0.9375
40
0.9375
40
0.96875
40
0.96875
40
1
40
1
40
1
40
1
41
1
10
41.7341365435617
20
-0.253929201067592
30
0
41
1
10
41.71205607263
20
-0.441512335810785
30
0
41
1
10
41.695619320537
20
-0.625629121672489
30
0
41
1
10
41.6767019155916
20
-0.896566719963687
30
0
41
1
10
41.6713633079318
20
-0.986002193950327
30
0
41
1
10
41.6645501112887
20
-1.11879662427094
30
0
41
1
10
41.6614429748265
20
-1.18485373167664
30
0
41
1
10
41.6587438693739
20
-1.25038856928342
30
0
41
1
10
41.6570310268787
20
-1.29396075183308
30
0
41
1
10
41.6562184491075
20
-1.31567599349375
30
0
41
1
10
41.6523791966528
20
-1.423425946587
30
0
41
1
10
41.6476252097374
20
-1.59138154560625
30
0
41
1
10
41.6437435263666
20
-1.83032520290254
30
0
41
1
10
41.6429061320943
20
-1.98099787997199
30
0
41
1
10
41.6428453159642
20
-2.09071142760621
30
0
41
1
10
41.642920264451
20
-2.1267333703027
30
0
41
1
10
41.643170637135
20
-2.17992814005899
30
0
41
1
10
41.643277307643
20
-2.19754124826437
30
0
41
1
10
41.6435354325793
20
-2.23235769079989
30
0
41
1
10
41.6436868103127
20
-2.2495613030764
30
0
41
1
10
41.6452460952417
20
-2.40257045547921
30
0
41
1
10
41.6479717168891
20
-2.52570803401068
30
0
41
1
10
41.6543679223678
20
-2.69163808158424
30
0
41
1
10
41.6568957734061
20
-2.74380106744573
30
0
41
1
10
41.6614232494664
20
-2.81723225605762
30
0
41
1
10
41.6630557789603
20
-2.84090599349554
30
0
41
1
10
41.6657147136433
20
-2.87518941818493
30
0
41
1
10
41.6666355317205
20
-2.88640335084548
30
0
41
1
10
41.6685422169387
20
-2.9083136632926
30
0
41
1
10
41.6695290945643
20
-2.91902336253051
30
0
41
1
10
41.6787288179223
20
-3.01322236944014
30
0
41
1
10
41.689118934331
20
-3.08150379871643
30
0
41
1
10
41.7098706168744
20
-3.16135324433606
30
0
41
1
10
41.7176576698387
20
-3.18418725741435
30
0
41
1
10
41.7309649130646
20
-3.21265774827657
30
0
41
1
10
41.7356753217934
20
-3.22118745027132
30
0
41
1
10
41.7456907553089
20
-3.23626569886875
30
0
41
1
10
41.7509786219905
20
-3.24278986640297
30
0
41
1
10
41.7565725151903
20
-3.24830370895259
30
0
0
SPLINE
5
EE
100
AcDbEntity
8
1
62
256
6
ByLayer
370
18
48
1
60
0
100
AcDbSpline
70
4
71
3
72
8
73
4
40
0
40
0
40
0
40
0
40
1
40
1
40
1
40
1
41
1
10
41.6831032540458
20
-3.37845932745407
30
0
41
1
10
41.7066560235041
20
-3.34035516902242
30
0
41
1
10
41.7302313002048
20
-3.30210974723116
30
0
41
1
10
41.7538318885424
20
-3.26372376941964
30
0
0
SPLINE
5
EF
100
AcDbEntity
8
1
62
256
6
ByLayer
370
18
48
1
60
0
100
AcDbSpline
70
4
71
3
72
8
73
4
40
0
40
0
40
0
40
0
40
1
40
1
40
1
40
1
41
1
10
22.5589239129452
20
-3.24617350089608
30
0
41
1
10
22.1917377655046
20
-3.29263593516572
30
0
41
1
10
21.8243012950557
20
-3.32536437761084
30
0
41
1
10
21.4558237387584
20
-3.34394696591335
30
0
0
SPLINE
5
F0
100
AcDbEntity
8
1
62
256
6
ByLayer
370
18
48
1
60
0
100
AcDbSpline
70
4
71
3
72
16
73
12
40
0
40
0
40
0
40
0
40
0.25000000000005
40
0.25000000000005
40
0.375000000000074
40
0.375000000000074
40
0.500000000000099
40
0.500000000000099
40
0.75000000000005
40
0.75000000000005
40
1
40
1
40
1
40
1
41
1
10
21.4558237387583
20
-3.34394696591335
30
0
41
1
10
21.4473641199926
20
-3.34437359057483
30
0
41
1
10
21.4396721741183
20
-3.34490997209426
30
0
41
1
10
21.4292578911673
20
-3.34585312258216
30
0
41
1
10
21.4259697087129
20
-3.34619245926237
30
0
41
1
10
21.4199807658956
20
-3.34689362093715
30
0
41
1
10
21.4172517222718
20
-3.34725770531827
30
0
41
1
10
21.4098552206786
20
-3.34838450241455
30
0
41
1
10
21.4059802828715
20
-3.34918743522462
30
0
41
1
10
21.4008518090761
20
-3.35076563184759
30
0
41
1
10
21.399513904195
20
-3.35156031710898
30
0
41
1
10
21.3995139041949
20
-3.35232101659992
30
0
0
SPLINE
5
F1
100
AcDbEntity
8
1
62
256
6
ByLayer
370
18
48
1
60
0
100
AcDbSpline
70
4
71
3
72
28
73
24
40
0
40
0
40
0
40
0
40
0.125000000000023
40
0.125000000000023
40
0.187500000000025
40
0.187500000000025
40
0.250000000000026
40
0.312500000000027
40
0.312500000000027
40
0.375000000000028
40
0.375000000000028
40
0.500000000000102
40
0.500000000000102
40
0.625000000000175
40
0.625000000000175
40
0.687500000000163
40
0.687500000000163
40
0.750000000000151
40
0.812500000000138
40
0.812500000000138
40
0.875000000000126
40
0.875000000000126
40
1
40
1
40
1
40
1
41
1
10
21.3995139041949
20
-1.07901418053629
30
0
41
1
10
21.399513904195
20
-1.07093561052579
30
0
41
1
10
21.4005868818706
20
-1.06302037253224
30
0
41
1
10
21.4037556851771
20
-1.05138630017558
30
0
41
1
10
21.4050877081122
20
-1.04752157736792
30
0
41
1
10
21.4082337642898
20
-1.04004231789545
30
0
41
1
10
21.4118528178649
20
-1.03280816625602
30
0
41
1
10
21.4163957863552
20
-1.02605419900058
30
0
41
1
10
21.4214121503403
20
-1.01954712052989
30
0
41
1
10
21.424160110194
20
-1.01642119546904
30
0
41
1
10
21.4328839039288
20
-1.00768331766622
30
0
41
1
10
21.4394053831506
20
-1.0026015742923
30
0
41
1
10
21.453880503648
20
-0.993999185800305
30
0
41
1
10
21.461532033994
20
-0.990656689922446
30
0
41
1
10
21.4736114556378
20
-0.987041430184348
30
0
41
1
10
21.4777702632396
20
-0.986068329721348
30
0
41
1
10
21.4861115906708
20
-0.984649098771683
30
0
41
1
10
21.494481485341
20
-0.983745736180481
30
0
41
1
10
21.5029072106753
20
-0.983850999730834
30
0
41
1
10
21.5113615604715
20
-0.984473361377042
30
0
41
1
10
21.5155981620937
20
-0.98504751612731
30
0
41
1
10
21.5279889688441
20
-0.987499330486941
30
0
41
1
10
21.5359520494372
20
-0.990099816369337
30
0
41
1
10
21.5436075473686
20
-0.993696959650464
30
0
0
SPLINE
5
F2
100
AcDbEntity
8
1
62
256
6
ByLayer
370
18
48
1
60
0
100
AcDbSpline
70
4
71
3
72
40
73
36
40
0
40
0
40
0
40
0
40
0.071599898748429
40
0.071599898748429
40
0.143199797496858
40
0.143199797496858
40
0.214799696245287
40
0.214799696245287
40
0.250599645619502
40
0.250599645619502
40
0.286399594993718
40
0.286399594993718
40
0.429599392490583
40
0.429599392490583
40
0.4653993418648
40
0.4653993418648
40
0.501199291239016
40
0.501199291239016
40
0.536999240613233
40
0.536999240613233
40
0.572799189987449
40
0.572799189987449
40
0.644399088735882
40
0.644399088735882
40
0.715998987484315
40
0.715998987484315
40
0.787598886232747
40
0.787598886232747
40
0.823398835606964
40
0.823398835606964
40
0.85919878498118
40
0.85919878498118
40
0.930798683729613
40
0.930798683729613
40
1
40
1
40
1
40
1
41
1
10
21.5436075473686
20
-0.993696959650464
30
0
41
1
10
21.7536089579628
20
-1.09237181658523
30
0
41
1
10
21.9636491160872
20
-1.18899811098808
30
0
41
1
10
22.3838449313897
20
-1.37819192765056
30
0
41
1
10
22.5940030969285
20
-1.47075351742529
30
0
41
1
10
23.0145488270498
20
-1.65163546707035
30
0
41
1
10
23.2249195086412
20
-1.73998737392793
30
0
41
1
10
23.5406704138037
20
-1.86925759607365
30
0
41
1
10
23.6458456353346
20
-1.91175941005531
30
0
41
1
10
23.8559761376916
20
-1.99540778082462
30
0
41
1
10
23.9609640363944
20
-2.03654497394336
30
0
41
1
10
24.4857863125567
20
-2.2383677748345
30
0
41
1
10
24.9053346643497
20
-2.38743999443898
30
0
41
1
10
25.4298935042394
20
-2.55754488192065
30
0
41
1
10
25.5347973482509
20
-2.59076892639459
30
0
41
1
10
25.7446362466872
20
-2.65553923272094
30
0
41
1
10
25.8496021163444
20
-2.68704357330583
30
0
41
1
10
26.0598202169597
20
-2.74804914281322
30
0
41
1
10
26.1650966992277
20
-2.77758725834491
30
0
41
1
10
26.3754635517685
20
-2.83460415354759
30
0
41
1
10
26.4805983106705
20
-2.86209554291875
30
0
41
1
10
26.79586421442
20
-2.94153635082449
30
0
41
1
10
27.0058397464775
20
-2.99047759752739
30
0
41
1
10
27.4253874032523
20
-3.08029030493842
30
0
41
1
10
27.6350046734537
20
-3.12110466706352
30
0
41
1
10
28.0545064722943
20
-3.19403217001332
30
0
41
1
10
28.2643957472174
20
-3.22616117097383
30
0
41
1
10
28.5793721015232
20
-3.26780049844274
30
0
41
1
10
28.684435520786
20
-3.28058247497759
30
0
41
1
10
28.8945867928635
20
-3.30384036050094
30
0
41
1
10
28.9995914880837
20
-3.31430440488643
30
0
41
1
10
29.3145972331991
20
-3.34216378627281
30
0
41
1
10
29.5245438085217
20
-3.3560593805457
30
0
41
1
10
29.9372912543336
20
-3.37435395778684
30
0
41
1
10
30.1400957740033
20
-3.37905196485082
30
0
41
1
10
30.3428970437831
20
-3.37943922000832
30
0
0
SPLINE
5
F3
100
AcDbEntity
8
1
62
256
6
ByLayer
370
18
48
1
60
0
100
AcDbSpline
70
4
71
3
72
142
73
138
40
0
40
0
40
0
40
0
40
0.0054509051065719
40
0.0054509051065719
40
0.0245768492391385
40
0.0245768492391385
40
0.0437027933717052
40
0.0437027933717052
40
0.0628287375042719
40
0.0628287375042719
40
0.0819546816368386
40
0.0819546816368386
40
0.101080625769405
40
0.101080625769405
40
0.120206569901972
40
0.120206569901972
40
0.139332514034539
40
0.139332514034539
40
0.158458458167105
40
0.158458458167105
40
0.177584402299672
40
0.177584402299672
40
0.196710346432239
40
0.196710346432239
40
0.206273318498522
40
0.206273318498522
40
0.215836290564805
40
0.215836290564805
40
0.225399262631089
40
0.225399262631089
40
0.234962234697372
40
0.234962234697372
40
0.254088178829937
40
0.254088178829937
40
0.26365115089622
40
0.26365115089622
40
0.273214122962504
40
0.273214122962504
40
0.29234006709507
40
0.29234006709507
40
0.311466011227637
40
0.311466011227637
40
0.32102898329392
40
0.32102898329392
40
0.330591955360204
40
0.330591955360204
40
0.34971789949277
40
0.34971789949277
40
0.368843843625337
40
0.368843843625337
40
0.37840681569162
40
0.37840681569162
40
0.387969787757902
40
0.387969787757902
40
0.407095731890467
40
0.407095731890467
40
0.426221676023033
40
0.426221676023033
40
0.435784648089315
40
0.435784648089315
40
0.445347620155598
40
0.445347620155598
40
0.464473564288164
40
0.464473564288164
40
0.48359950842073
40
0.48359950842073
40
0.493162480487013
40
0.493162480487013
40
0.502725452553295
40
0.502725452553295
40
0.521851396685862
40
0.521851396685862
40
0.540977340818429
40
0.540977340818429
40
0.550540312884712
40
0.550540312884712
40
0.560103284950995
40
0.560103284950995
40
0.57922922908356
40
0.57922922908356
40
0.598355173216125
40
0.598355173216125
40
0.607918145282408
40
0.607918145282408
40
0.61748111734869
40
0.61748111734869
40
0.636607061481254
40
0.636607061481254
40
0.655733005613819
40
0.655733005613819
40
0.665295977680101
40
0.665295977680101
40
0.674858949746384
40
0.674858949746384
40
0.693984893878949
40
0.693984893878949
40
0.703547865945232
40
0.703547865945232
40
0.713110838011514
40
0.713110838011514
40
0.722673810077797
40
0.722673810077797
40
0.732236782144079
40
0.732236782144079
40
0.751362726276644
40
0.751362726276644
40
0.770488670409208
40
0.770488670409208
40
0.78005164247549
40
0.78005164247549
40
0.789614614541773
40
0.789614614541773
40
0.808740558674338
40
0.808740558674338
40
0.827866502806903
40
0.827866502806903
40
0.837429474873185
40
0.837429474873185
40
0.846992446939468
40
0.846992446939468
40
0.866118391072034
40
0.866118391072034
40
0.8852443352046
40
0.8852443352046
40
0.904370279337166
40
0.904370279337166
40
0.923496223469731
40
0.923496223469731
40
0.933059195536015
40
0.933059195536015
40
0.942622167602298
40
0.942622167602298
40
0.961748111734866
40
0.961748111734866
40
0.980874055867433
40
0.980874055867433
40
1
40
1
40
1
40
1
41
1
10
36.641120731945
20
-2.44153185523118
30
0
41
1
10
36.5995159881551
20
-2.45565039930767
30
0
41
1
10
36.5579329761235
20
-2.46962022225344
30
0
41
1
10
36.3705373985125
20
-2.53193305156199
30
0
41
1
10
36.2249202703335
20
-2.57853733603167
30
0
41
1
10
35.9343267244197
20
-2.66832701254916
30
0
41
1
10
35.7894460482032
20
-2.71162752030563
30
0
41
1
10
35.4999478660868
20
-2.79428716654445
30
0
41
1
10
35.3553318835906
20
-2.83365858161392
30
0
41
1
10
35.0662700812535
20
-2.90844108104704
30
0
41
1
10
34.9217891607747
20
-2.94381835446575
30
0
41
1
10
34.6331155948552
20
-3.01077377856859
30
0
41
1
10
34.4890304952783
20
-3.04244519476919
30
0
41
1
10
34.2008309726498
20
-3.10163736878954
30
0
41
1
10
34.0566999089354
20
-3.12915241967176
30
0
41
1
10
33.7682844659748
20
-3.17998722834031
30
0
41
1
10
33.6239683726073
20
-3.20328766115239
30
0
41
1
10
33.3352691974251
20
-3.2457652347874
30
0
41
1
10
33.1910018880099
20
-3.26500400745797
30
0
41
1
10
32.9021602810671
20
-3.29913890410697
30
0
41
1
10
32.757545593352
20
-3.31402181714162
30
0
41
1
10
32.4678376628302
20
-3.33939222489764
30
0
41
1
10
32.3227164134318
20
-3.34987312863663
30
0
41
1
10
32.1047183191981
20
-3.36230238169316
30
0
41
1
10
32.032014834287
20
-3.36589991198605
30
0
41
1
10
31.8865424845927
20
-3.37198884986873
30
0
41
1
10
31.8137640695863
20
-3.37447729291799
30
0
41
1
10
31.6680369801756
20
-3.37831856663598
30
0
41
1
10
31.5950843480907
20
-3.37967168969408
30
0
41
1
10
31.4489869800771
20
-3.38124035154533
30
0
41
1
10
31.3758309022266
20
-3.38145484806356
30
0
41
1
10
31.1567304957061
20
-3.38039785237464
30
0
41
1
10
31.0109050510507
20
-3.37743460202631
30
0
41
1
10
30.7925957069091
20
-3.36965302377501
30
0
41
1
10
30.7199120143559
20
-3.36650005727128
30
0
41
1
10
30.5747358329057
20
-3.35906653214005
30
0
41
1
10
30.5022337520104
20
-3.35478692671558
30
0
41
1
10
30.2848583623345
20
-3.34029358472671
30
0
41
1
10
30.1400926833991
20
-3.32843512238821
30
0
41
1
10
29.8507578645973
20
-3.30043800307604
30
0
41
1
10
29.7061665934993
20
-3.28431210136921
30
0
41
1
10
29.4894475341159
20
-3.25694104519573
30
0
41
1
10
29.4172488330287
20
-3.24727956996361
30
0
41
1
10
29.2729670713894
20
-3.2268533884087
30
0
41
1
10
29.2008745307204
20
-3.21609315471525
30
0
41
1
10
28.9846152805249
20
-3.18224589191937
30
0
41
1
10
28.8404347089768
20
-3.1576162384535
30
0
41
1
10
28.5519416549334
20
-3.10435557626684
30
0
41
1
10
28.4076139161483
20
-3.07573965012233
30
0
41
1
10
28.1910297899499
20
-3.02982845657746
30
0
41
1
10
28.1188305695323
20
-3.01401688149983
30
0
41
1
10
27.9744704888591
20
-2.98132248322716
30
0
41
1
10
27.9023019391713
20
-2.96444574173645
30
0
41
1
10
27.6857046610116
20
-2.91234049085813
30
0
41
1
10
27.5411448707745
20
-2.87567960765227
30
0
41
1
10
27.2515622727549
20
-2.79867828516524
30
0
41
1
10
27.1065318256825
20
-2.75834984565626
30
0
41
1
10
26.8886342736682
20
-2.69510493781567
30
0
41
1
10
26.815952569504
20
-2.67355260763941
30
0
41
1
10
26.6705440513394
20
-2.6294217839845
30
0
41
1
10
26.5978124067891
20
-2.6068482836026
30
0
41
1
10
26.3794097724223
20
-2.53775703114849
30
0
41
1
10
26.2334886308953
20
-2.48993045836556
30
0
41
1
10
25.9408469520865
20
-2.39097070498227
30
0
41
1
10
25.7947410560609
20
-2.34005367081494
30
0
41
1
10
25.5760216253544
20
-2.26161213409054
30
0
41
1
10
25.5031902644699
20
-2.23510383904932
30
0
41
1
10
25.3577340724057
20
-2.18127090376541
30
0
41
1
10
25.2851063937178
20
-2.15395032238808
30
0
41
1
10
25.0674017259385
20
-2.07098071696782
30
0
41
1
10
24.9224587254216
20
-2.01439959471261
30
0
41
1
10
24.6327818998247
20
-1.89903951805292
30
0
41
1
10
24.4880492181188
20
-1.84025995880037
30
0
41
1
10
24.271090746785
20
-1.75049257344801
30
0
41
1
10
24.1988030630088
20
-1.72028879397618
30
0
41
1
10
24.054349429134
20
-1.6592106915368
30
0
41
1
10
23.9821853026731
20
-1.6283324028729
30
0
41
1
10
23.7657582037978
20
-1.53490179322139
30
0
41
1
10
23.6215134908736
20
-1.4716413854627
30
0
41
1
10
23.3329009101228
20
-1.34357498305437
30
0
41
1
10
23.1885422257013
20
-1.27875283106999
30
0
41
1
10
22.9718918303713
20
-1.180412151567
30
0
41
1
10
22.8996638249425
20
-1.14743277245935
30
0
41
1
10
22.755242442633
20
-1.08095970713768
30
0
41
1
10
22.6830560627253
20
-1.04745149938563
30
0
41
1
10
22.4664544608169
20
-0.946335676529429
30
0
41
1
10
22.3219457841297
20
-0.878239579397814
30
0
41
1
10
22.0324724697807
20
-0.741173702367121
30
0
41
1
10
21.8875250639385
20
-0.672169829992043
30
0
41
1
10
21.6697400086679
20
-0.568060513435341
30
0
41
1
10
21.5970907429898
20
-0.53324343431305
30
0
41
1
10
21.4517390177893
20
-0.463258463698111
30
0
41
1
10
21.3790459461442
20
-0.428069748199448
30
0
41
1
10
21.1608125329699
20
-0.322126815492851
30
0
41
1
10
21.0150626540838
20
-0.251116080960799
30
0
41
1
10
20.795844512556
20
-0.144467726502398
30
0
41
1
10
20.7226286800525
20
-0.108857799620779
30
0
41
1
10
20.576255372679
20
-0.0377165282995122
30
0
41
1
10
20.5031366235942
20
-0.0022086346292269
30
0
41
1
10
20.357032575453
20
0.0686809963271742
30
0
41
1
10
20.2840511457877
20
0.104071693883469
30
0
41
1
10
20.138284468969
20
0.174868418878532
30
0
41
1
10
20.0655093981283
20
0.210296567588955
30
0
41
1
10
19.8474167554008
20
0.316463240839283
30
0
41
1
10
19.7022746271943
20
0.386957716785673
30
0
41
1
10
19.4122077050206
20
0.526779920629622
30
0
41
1
10
19.2673076089592
20
0.596162393697199
30
0
41
1
10
19.0500945519385
20
0.699329243624703
30
0
41
1
10
18.9777178493357
20
0.733577358313852
30
0
41
1
10
18.8330754265528
20
0.80190755988508
30
0
41
1
10
18.7608206885713
20
0.836011997297589
30
0
41
1
10
18.5441800400759
20
0.937981754724035
30
0
41
1
10
18.3998555503933
20
1.00537498544404
30
0
41
1
10
18.1110912768609
20
1.13835262887508
30
0
41
1
10
17.9666823422739
20
1.20400062959712
30
0
41
1
10
17.749961339795
20
1.30108956898388
30
0
41
1
10
17.6777059556748
20
1.33322792421151
30
0
41
1
10
17.5332199528085
20
1.39716065470901
30
0
41
1
10
17.4610001290822
20
1.42897553844168
30
0
41
1
10
17.2443608034424
20
1.52386363913678
30
0
41
1
10
17.099893347294
20
1.58624857912147
30
0
41
1
10
16.8105125054485
20
1.70858784811418
30
0
41
1
10
16.6656355577365
20
1.76861209777437
30
0
41
1
10
16.3754150400911
20
1.88620359737254
30
0
41
1
10
16.2300854461359
20
1.94379827020291
30
0
41
1
10
15.9391404914476
20
2.05683581990485
30
0
41
1
10
15.7934758515808
20
2.11218837825234
30
0
41
1
10
15.5744925718797
20
2.1931089359054
30
0
41
1
10
15.5014181958086
20
2.21973331040493
30
0
41
1
10
15.3550964041679
20
2.27225987096432
30
0
41
1
10
15.2818186394136
20
2.29817498749753
30
0
41
1
10
15.0621027698031
20
2.37469934284735
30
0
41
1
10
14.9157220930378
20
2.42414748940431
30
0
41
1
10
14.6232028851967
20
2.51995031943847
30
0
41
1
10
14.476963933845
20
2.56615703070304
30
0
41
1
10
14.1841130436629
20
2.65466765166468
30
0
41
1
10
14.0375437101895
20
2.69703227552338
30
0
41
1
10
13.8907886719171
20
2.73748033844652
30
0
0
SPLINE
5
F4
100
AcDbEntity
8
1
62
256
6
ByLayer
370
18
48
1
60
0
100
AcDbSpline
70
4
71
3
72
30
73
26
40
0
40
0
40
0
40
0
40
0.13507577984772
40
0.13507577984772
40
0.270151559695439
40
0.270151559695439
40
0.405227339543159
40
0.405227339543159
40
0.540303119390879
40
0.540303119390879
40
0.574072064352809
40
0.574072064352809
40
0.607841009314739
40
0.607841009314739
40
0.675378899238599
40
0.675378899238599
40
0.810454679086318
40
0.810454679086318
40
0.844223624048249
40
0.844223624048249
40
0.877992569010181
40
0.877992569010181
40
0.945530458934042
40
0.945530458934042
40
1
40
1
40
1
40
1
41
1
10
13.8907886743517
20
2.7374803392199
30
0
41
1
10
13.744703157677
20
2.7780769633624
30
0
41
1
10
13.5997151928937
20
2.81775759549001
30
0
41
1
10
13.3121757188143
20
2.89490425233745
30
0
41
1
10
13.1696228527571
20
2.93237193969677
30
0
41
1
10
12.8872850254233
20
3.00459899677537
30
0
41
1
10
12.7474975783304
20
3.03936139638199
30
0
41
1
10
12.471168623395
20
3.10550403382658
30
0
41
1
10
12.3346220933041
20
3.13689035660798
30
0
41
1
10
12.1664240494576
20
3.17339545518894
30
0
41
1
10
12.132909564789
20
3.18055902613168
30
0
41
1
10
12.0661464351967
20
3.19459083178174
30
0
41
1
10
12.0328749544974
20
3.20146361817729
30
0
41
1
10
11.9337252360478
20
3.22155636927064
30
0
41
1
10
11.8684771331179
20
3.23425986680004
30
0
41
1
10
11.675608507666
20
3.26999766868974
30
0
41
1
10
11.5508119991936
20
3.29070349974873
30
0
41
1
10
11.4011844420093
20
3.31120443308939
30
0
41
1
10
11.3715814221035
20
3.31503205482372
30
0
41
1
10
11.3130813845337
20
3.32208801189751
30
0
41
1
10
11.2842562648681
20
3.32530704181613
30
0
41
1
10
11.1994316176622
20
3.3339319122808
30
0
41
1
10
11.1449640228601
20
3.33832406572722
30
0
41
1
10
11.0509837301774
20
3.34336613065455
30
0
41
1
10
11.0106132573888
20
3.34457784464544
30
0
41
1
10
10.9721013883999
20
3.344570201979
30
0
0
SPLINE
5
F5
100
AcDbEntity
8
1
62
256
6
ByLayer
370
18
48
1
60
0
100
AcDbSpline
70
4
71
3
72
8
73
4
40
0
40
0
40
0
40
0
40
1
40
1
40
1
40
1
41
1
10
14.7019865107206
20
2.48257169450088
30
0
41
1
10
14.8355791277001
20
2.52388084058356
30
0
41
1
10
14.9684955546493
20
2.56500142014278
30
0
41
1
10
15.1008490946611
20
2.60558108245985
30
0
0
SPLINE
5
F6
100
AcDbEntity
8
1
62
256
6
ByLayer
370
18
48
1
60
0
100
AcDbSpline
70
4
71
3
72
24
73
20
40
0
40
0
40
0
40
0
40
0.124999999999998
40
0.124999999999998
40
0.249999999999997
40
0.249999999999997
40
0.374999999999995
40
0.374999999999995
40
0.499999999999993
40
0.499999999999993
40
0.624999999999992
40
0.624999999999992
40
0.656249999999992
40
0.656249999999992
40
0.687499999999992
40
0.687499999999992
40
0.749999999999993
40
0.749999999999993
40
1
40
1
40
1
40
1
41
1
10
15.1008490946617
20
2.60558108245956
30
0
41
1
10
15.3645489079276
20
2.68632285250757
30
0
41
1
10
15.627381370656
20
2.76115389440267
30
0
41
1
10
16.1519317339017
20
2.89841110797661
30
0
41
1
10
16.4135848102337
20
2.96090065362401
30
0
41
1
10
16.9365384229805
20
3.07276756330052
30
0
41
1
10
17.197848115637
20
3.12215280741231
30
0
41
1
10
17.7205833274743
20
3.20748488317099
30
0
41
1
10
17.9820360664713
20
3.24340621668838
30
0
41
1
10
18.5057432633359
20
3.30128804424544
30
0
41
1
10
18.768007489403
20
3.32324326219506
30
0
41
1
10
19.0967608686563
20
3.34169028049715
30
0
41
1
10
19.1625564657048
20
3.34493026227577
30
0
41
1
10
19.2942473986369
20
3.35050483405908
30
0
41
1
10
19.3601570569208
20
3.3528394298165
30
0
41
1
10
19.5577376431879
20
3.35846839966879
30
0
41
1
10
19.6893577449649
20
3.36039272898773
30
0
41
1
10
20.3471757525481
20
3.36088884765533
30
0
41
1
10
20.8725053842229
20
3.33205888290883
30
0
41
1
10
21.3995139041922
20
3.27443804597269
30
0
0
SPLINE
5
F7
100
AcDbEntity
8
1
62
256
6
ByLayer
370
18
48
1
60
0
100
AcDbSpline
70
4
71
3
72
61
73
57
40
0
40
0
40
0
40
0
40
0.0312499999999981
40
0.0312499999999981
40
0.0624999999999961
40
0.0624999999999961
40
0.124999999999993
40
0.124999999999993
40
0.18749999999999
40
0.18749999999999
40
0.249999999999987
40
0.249999999999987
40
0.265624999999986
40
0.265624999999986
40
0.281249999999985
40
0.312499999999983
40
0.312499999999983
40
0.343749999999981
40
0.343749999999981
40
0.374999999999979
40
0.406249999999977
40
0.406249999999977
40
0.421874999999977
40
0.421874999999977
40
0.437499999999976
40
0.453124999999975
40
0.453124999999975
40
0.468749999999974
40
0.468749999999974
40
0.499999999999972
40
0.499999999999972
40
0.562499999999969
40
0.562499999999969
40
0.624999999999967
40
0.624999999999967
40
0.656249999999965
40
0.656249999999965
40
0.671874999999965
40
0.671874999999965
40
0.687499999999965
40
0.687499999999965
40
0.749999999999969
40
0.749999999999969
40
0.765624999999972
40
0.765624999999972
40
0.781249999999974
40
0.812499999999977
40
0.812499999999977
40
0.874999999999983
40
0.874999999999983
40
0.890624999999985
40
0.890624999999985
40
0.906249999999988
40
0.937499999999992
40
0.937499999999992
40
1
40
1
40
1
40
1
41
1
10
21.3995138881798
20
3.29003536296247
30
0
41
1
10
21.6117730894752
20
3.26904773820343
30
0
41
1
10
21.8239885036413
20
3.24342392208021
30
0
41
1
10
22.2481818150863
20
3.18311740424815
30
0
41
1
10
22.4602318369318
20
3.14842673599554
30
0
41
1
10
23.0966126959386
20
3.03107977319223
30
0
41
1
10
23.5186201620082
20
2.93560675692089
30
0
41
1
10
24.36105321275
20
2.71360654035587
30
0
41
1
10
24.7815023208453
20
2.58711454466172
30
0
41
1
10
25.6235826102246
20
2.30681098383707
30
0
41
1
10
26.0451616082397
20
2.15293333000267
30
0
41
1
10
26.5744039848671
20
1.9456501000154
30
0
41
1
10
26.6803981934607
20
1.9034351953112
30
0
41
1
10
26.8925174302369
20
1.81763151530976
30
0
41
1
10
27.2105961227289
20
1.68698683380299
30
0
41
1
10
27.528561562213
20
1.55085503094108
30
0
41
1
10
27.9527303573539
20
1.36502625300111
30
0
41
1
10
28.1645682015773
20
1.27010719293375
30
0
41
1
10
28.5879370868073
20
1.07698923213823
30
0
41
1
10
29.0110510456823
20
0.880569987196708
30
0
41
1
10
29.4343730824794
20
0.678949617863992
30
0
41
1
10
29.7522164535888
20
0.526326285934459
30
0
41
1
10
29.8582416837611
20
0.475207973345618
30
0
41
1
10
30.0701899016761
20
0.372720550218332
30
0
41
1
10
30.2820960246989
20
0.269952659081042
30
0
41
1
10
30.4940080206964
20
0.166808235264455
30
0
41
1
10
30.7059608150423
20
0.0635531125958551
30
0
41
1
10
30.8119908388561
20
0.0118535331669136
30
0
41
1
10
31.1298692128376
20
-0.143131593603442
30
0
41
1
10
31.3415382391555
20
-0.246321136144587
30
0
41
1
10
31.9762963975422
20
-0.554462441443917
30
0
41
1
10
32.399132324555
20
-0.757992863612287
30
0
41
1
10
33.2470209934516
20
-1.15538518304638
30
0
41
1
10
33.6699410839796
20
-1.3481532642933
30
0
41
1
10
34.3046160011603
20
-1.624960321202
30
0
41
1
10
34.5162235884083
20
-1.71517146061495
30
0
41
1
10
34.8339626728484
20
-1.84692584886304
30
0
41
1
10
34.9399421429563
20
-1.89025391841164
30
0
41
1
10
35.1516935945619
20
-1.97549647821654
30
0
41
1
10
35.2575101476416
20
-2.01742964977583
30
0
41
1
10
35.7864096929519
20
-2.22347392426741
30
0
41
1
10
36.2089480678683
20
-2.37669905231286
30
0
41
1
10
36.738190010624
20
-2.55096741468498
30
0
41
1
10
36.8441380450159
20
-2.58497557899
30
0
41
1
10
37.0559324428962
20
-2.65113569924733
30
0
41
1
10
37.3733769556619
20
-2.74756470654685
30
0
41
1
10
37.6902643940447
20
-2.83535474137409
30
0
41
1
10
38.3238115975305
20
-2.99886005686653
30
0
41
1
10
38.7458874046868
20
-3.09173924243009
30
0
41
1
10
39.2748373262105
20
-3.18598398025153
30
0
41
1
10
39.3807365700026
20
-3.20374863108188
30
0
41
1
10
39.5925098772948
20
-3.23702547391898
30
0
41
1
10
39.9099071285988
20
-3.28352988015766
30
0
41
1
10
40.2267061739977
20
-3.31972108223772
30
0
41
1
10
40.8600232203466
20
-3.37815884598763
30
0
41
1
10
41.2818649497188
20
-3.39851305824081
30
0
41
1
10
41.7047065168777
20
-3.39987622511217
30
0
0
SPLINE
5
F8
100
AcDbEntity
8
1
62
256
6
ByLayer
370
18
48
1
60
0
100
AcDbSpline
70
4
71
3
72
10
73
6
40
0
40
0
40
0
40
0
40
0.5
40
0.5
40
1
40
1
40
1
40
1
41
1
10
41.6831032540351
20
-3.37845932747263
30
0
41
1
10
41.6866935092584
20
-3.38539740384263
30
0
41
1
10
41.6902893671258
20
-3.39065973288382
30
0
41
1
10
41.6975000087075
20
-3.39781150201452
30
0
41
1
10
41.7011068994584
20
-3.39969008279388
30
0
41
1
10
41.7047065168851
20
-3.3998762251122
30
0
0
SPLINE
5
F9
100
AcDbEntity
8
1
62
256
6
ByLayer
370
18
48
1
60
0
100
AcDbSpline
70
4
71
3
72
70
73
66
40
0
40
0
40
0
40
0
40
0.0625000000000043
40
0.0625000000000043
40
0.0781250000000041
40
0.0781250000000041
40
0.0937500000000039
40
0.0937500000000039
40
0.125000000000002
40
0.125000000000002
40
0.187499999999998
40
0.187499999999998
40
0.203124999999996
40
0.203124999999996
40
0.218749999999995
40
0.218749999999995
40
0.249999999999992
40
0.249999999999992
40
0.281249999999989
40
0.281249999999989
40
0.312499999999987
40
0.312499999999987
40
0.343749999999984
40
0.343749999999984
40
0.359374999999983
40
0.359374999999983
40
0.374999999999982
40
0.374999999999982
40
0.437499999999978
40
0.437499999999978
40
0.468749999999976
40
0.468749999999976
40
0.484374999999975
40
0.484374999999975
40
0.499999999999974
40
0.499999999999974
40
0.562499999999972
40
0.562499999999972
40
0.593749999999972
40
0.593749999999972
40
0.609374999999972
40
0.609374999999972
40
0.624999999999973
40
0.624999999999973
40
0.687499999999979
40
0.687499999999979
40
0.718749999999982
40
0.718749999999982
40
0.734374999999983
40
0.734374999999983
40
0.749999999999985
40
0.749999999999985
40
0.812499999999989
40
0.812499999999989
40
0.843749999999992
40
0.843749999999992
40
0.859374999999992
40
0.859374999999992
40
0.874999999999993
40
0.874999999999993
40
0.906249999999995
40
0.906249999999995
40
0.937499999999997
40
0.937499999999997
40
1
40
1
40
1
40
1
41
1
10
41.6831032540451
20
-3.37845932747251
30
0
41
1
10
41.2617498827687
20
-3.35449747771384
30
0
41
1
10
40.8410270045333
20
-3.31179182268926
30
0
41
1
10
40.3143099947224
20
-3.2357927505378
30
0
41
1
10
40.208925694365
20
-3.21946232843106
30
0
41
1
10
39.9980345515923
20
-3.18456173738898
30
0
41
1
10
39.8924936391496
20
-3.16598427626283
30
0
41
1
10
39.5762266066023
20
-3.10704347262737
30
0
41
1
10
39.3656803695422
20
-3.06344660031522
30
0
41
1
10
38.7344332168014
20
-2.92027147840909
30
0
41
1
10
38.314244118438
20
-2.8081671121634
30
0
41
1
10
37.7878886659574
20
-2.64931313161827
30
0
41
1
10
37.682564551686
20
-2.61660434388739
30
0
41
1
10
37.4717707320173
20
-2.54935667999527
30
0
41
1
10
37.3662545781176
20
-2.5148020210284
30
0
41
1
10
37.0497576484282
20
-2.40857610214346
30
0
41
1
10
36.8390890297898
20
-2.33443803731186
30
0
41
1
10
36.4180546330407
20
-2.18009539707848
30
0
41
1
10
36.2076929308255
20
-2.09988566939205
30
0
41
1
10
35.7869875980259
20
-1.93386946805757
30
0
41
1
10
35.5766403000342
20
-1.84806708998369
30
0
41
1
10
35.1555577616731
20
-1.67154563773082
30
0
41
1
10
34.9448254380585
20
-1.58082337145723
30
0
41
1
10
34.6282183729487
20
-1.44142570576472
30
0
41
1
10
34.5226890384487
20
-1.39444776778149
30
0
41
1
10
34.3118433932681
20
-1.29965865716164
30
0
41
1
10
34.2064896803557
20
-1.25183103186802
30
0
41
1
10
33.6799609548249
20
-1.01073581554615
30
0
41
1
10
33.2594639592583
20
-0.811674446621709
30
0
41
1
10
32.627792748642
20
-0.507825404306914
30
0
41
1
10
32.4170903187712
20
-0.405648626357788
30
0
41
1
10
32.1005606877459
20
-0.251561471233998
30
0
41
1
10
31.9949382812952
20
-0.200045990681161
30
0
41
1
10
31.7839467003672
20
-0.0970480955411404
30
0
41
1
10
31.6785258970715
20
-0.0455406292959992
30
0
41
1
10
31.1516944092313
20
0.211828900955936
30
0
41
1
10
30.7311043742739
20
0.417191463809559
30
0
41
1
10
30.0994182747215
20
0.720113456745679
30
0
41
1
10
29.8887222548116
20
0.820233409082192
30
0
41
1
10
29.5722307190068
20
0.968631401473402
30
0
41
1
10
29.466605330875
20
1.01782508744594
30
0
41
1
10
29.2554385080723
20
1.11540884655906
30
0
41
1
10
29.1499349327186
20
1.16378179406874
30
0
41
1
10
28.6227157317017
20
1.40336713401564
30
0
41
1
10
28.2019606337571
20
1.58785554760271
30
0
41
1
10
27.5702119970665
20
1.84990200360437
30
0
41
1
10
27.3595159690455
20
1.93478796392333
30
0
41
1
10
27.0430914550683
20
2.05804751564816
30
0
41
1
10
26.9375532992173
20
2.09845577887882
30
0
41
1
10
26.7263031749671
20
2.17783311163294
30
0
41
1
10
26.6207170476488
20
2.2167544242121
30
0
41
1
10
26.0932330470805
20
2.40722288933577
30
0
41
1
10
25.6723079070836
20
2.54650474086074
30
0
41
1
10
25.040494071781
20
2.73313376468298
30
0
41
1
10
24.8298420090501
20
2.79165793947337
30
0
41
1
10
24.5134929806826
20
2.87354010795502
30
0
41
1
10
24.4079809721082
20
2.89985029025704
30
0
41
1
10
24.1968064947955
20
2.95046875110307
30
0
41
1
10
24.0910994459705
20
2.97478689073321
30
0
41
1
10
23.7743456639652
20
3.04450260046789
30
0
41
1
10
23.5634798241761
20
3.08669946956513
30
0
41
1
10
23.1420701699488
20
3.1623527127494
30
0
41
1
10
22.9315397770597
20
3.19581505621042
30
0
41
1
10
22.2998282892685
20
3.28269987862853
30
0
41
1
10
21.878510985915
20
3.32263054389415
30
0
41
1
10
21.4558237387584
20
3.34394696591332
30
0
0
SPLINE
5
FA
100
AcDbEntity
8
1
62
256
6
ByLayer
370
18
48
1
60
0
100
AcDbSpline
70
4
71
3
72
16
73
12
40
0
40
0
40
0
40
0
40
0.250000000000104
40
0.250000000000104
40
0.375000000000087
40
0.375000000000087
40
0.50000000000007
40
0.50000000000007
40
0.750000000000035
40
0.750000000000035
40
1
40
1
40
1
40
1
41
1
10
21.4558237387583
20
3.34394696591332
30
0
41
1
10
21.4473641199926
20
3.3443735905748
30
0
41
1
10
21.4396721741183
20
3.34490997209426
30
0
41
1
10
21.4292578911673
20
3.34585312258216
30
0
41
1
10
21.4259697087129
20
3.34619245926237
30
0
41
1
10
21.4199807658956
20
3.34689362093715
30
0
41
1
10
21.4172517222718
20
3.34725770531827
30
0
41
1
10
21.4098552206786
20
3.34838450241455
30
0
41
1
10
21.4059802828715
20
3.34918743522459
30
0
41
1
10
21.4008518090761
20
3.35076563184759
30
0
41
1
10
21.3995139041949
20
3.35156031710898
30
0
41
1
10
21.3995139041949
20
3.35232101659992
30
0
0
SPLINE
5
FB
100
AcDbEntity
8
1
62
256
6
ByLayer
370
18
48
1
60
0
100
AcDbSpline
70
4
71
3
72
12
73
8
40
0
40
0
40
0
40
0
40
0.500000000000006
40
0.500000000000006
40
0.750000000000003
40
0.750000000000003
40
1
40
1
40
1
40
1
41
1
10
41.6900620797907
20
-0.230810445777081
30
0
41
1
10
41.6984204244469
20
-0.156549033108576
30
0
41
1
10
41.7076197310781
20
-0.0819968182728417
30
0
41
1
10
41.7228650311764
20
0.0302600265191302
30
0
41
1
10
41.7281990569749
20
0.0678205361321886
30
0
41
1
10
41.7393026580953
20
0.142553276675585
30
0
41
1
10
41.7450763287623
20
0.179762545783376
30
0
41
1
10
41.751080399375
20
0.216815115401261
30
0
0
SPLINE
5
FC
100
AcDbEntity
8
1
62
256
6
ByLayer
370
18
48
1
60
0
100
AcDbSpline
70
4
71
3
72
62
73
58
40
0
40
0
40
0
40
0
40
0.0418375018845626
40
0.0418375018845626
40
0.062756252826844
40
0.062756252826844
40
0.0836750037691253
40
0.0836750037691253
40
0.125512505653688
40
0.125512505653688
40
0.16735000753825
40
0.16735000753825
40
0.209187509422813
40
0.209187509422813
40
0.251025011307376
40
0.251025011307376
40
0.292862513191939
40
0.292862513191939
40
0.334700015076501
40
0.334700015076501
40
0.376537516961064
40
0.376537516961064
40
0.418375018845626
40
0.418375018845626
40
0.460212520730189
40
0.460212520730189
40
0.481131271672469
40
0.481131271672469
40
0.502050022614748
40
0.502050022614748
40
0.543887524499305
40
0.543887524499305
40
0.585725026383861
40
0.585725026383861
40
0.627562528268417
40
0.627562528268417
40
0.669400030152973
40
0.669400030152973
40
0.711237532037529
40
0.711237532037529
40
0.753075033922085
40
0.753075033922085
40
0.794912535806641
40
0.794912535806641
40
0.836750037691197
40
0.836750037691197
40
0.878587539575754
40
0.878587539575754
40
0.92042504146031
40
0.92042504146031
40
0.941343792402588
40
0.941343792402588
40
0.962262543344866
40
0.962262543344866
40
0.983181294287144
40
0.983181294287144
40
1
40
1
40
1
40
1
41
1
10
41.751080399375
20
0.216815115401289
30
0
41
1
10
41.6049957385567
20
0.2884586247269
30
0
41
1
10
41.4588439618956
20
0.359744410956978
30
0
41
1
10
41.2397525884752
20
0.466615628174935
30
0
41
1
10
41.1667568656515
20
0.502253764419862
30
0
41
1
10
41.020754779173
20
0.573396276858062
30
0
41
1
10
40.9477410461755
20
0.608892480030192
30
0
41
1
10
40.7289147424552
20
0.714786366587333
30
0
41
1
10
40.5832264134783
20
0.784694519253947
30
0
41
1
10
40.2921389287863
20
0.922962803053821
30
0
41
1
10
40.1466996871209
20
0.99124465802339
30
0
41
1
10
39.8563194513559
20
1.12669998565559
30
0
41
1
10
39.7114361449761
20
1.19397888936962
30
0
41
1
10
39.4216628098331
20
1.32641908553245
30
0
41
1
10
39.2768018915313
20
1.39164190742929
30
0
41
1
10
38.9870354498596
20
1.51993564967822
30
0
41
1
10
38.8420904062016
20
1.58293632699122
30
0
41
1
10
38.5523432365419
20
1.70713465465621
30
0
41
1
10
38.4076170112452
20
1.76846073627536
30
0
41
1
10
38.1178420070677
20
1.88844768664276
30
0
41
1
10
37.9728133631455
20
1.94714900335345
30
0
41
1
10
37.6823797081784
20
2.06181697432521
30
0
41
1
10
37.5369364928543
20
2.11772262471294
30
0
41
1
10
37.2458345371213
20
2.22705724026989
30
0
41
1
10
37.1002644998169
20
2.28062154130893
30
0
41
1
10
36.8814288408056
20
2.35856399296756
30
0
41
1
10
36.8083654031002
20
2.38416365475294
30
0
41
1
10
36.662266642541
20
2.4344881730849
30
0
41
1
10
36.5892870018407
20
2.45919437294816
30
0
41
1
10
36.3705373985125
20
2.53193305156199
30
0
41
1
10
36.2249202703335
20
2.5785373360317
30
0
41
1
10
35.9343267244197
20
2.66832701254916
30
0
41
1
10
35.7894460482034
20
2.71162752030563
30
0
41
1
10
35.499947866087
20
2.79428716654445
30
0
41
1
10
35.3553318835906
20
2.83365858161392
30
0
41
1
10
35.0662700812535
20
2.90844108104704
30
0
41
1
10
34.9217891607748
20
2.94381835446575
30
0
41
1
10
34.6331155948553
20
3.01077377856859
30
0
41
1
10
34.4890304952784
20
3.04244519476921
30
0
41
1
10
34.2008309726499
20
3.10163736878954
30
0
41
1
10
34.0566999089354
20
3.12915241967176
30
0
41
1
10
33.7682844659748
20
3.17998722834031
30
0
41
1
10
33.6239683726073
20
3.20328766115239
30
0
41
1
10
33.3352691974251
20
3.2457652347874
30
0
41
1
10
33.1910018880099
20
3.26500400745797
30
0
41
1
10
32.9021602810671
20
3.29913890410697
30
0
41
1
10
32.757545593352
20
3.31402181714162
30
0
41
1
10
32.4678376628302
20
3.33939222489764
30
0
41
1
10
32.3227164134319
20
3.34987312863663
30
0
41
1
10
32.1047183191982
20
3.36230238169316
30
0
41
1
10
32.032014834287
20
3.36589991198605
30
0
41
1
10
31.8865424845927
20
3.37198884986873
30
0
41
1
10
31.8137640695864
20
3.37447729291799
30
0
41
1
10
31.6680369801756
20
3.37831856663598
30
0
41
1
10
31.5950843480907
20
3.37967168969408
30
0
41
1
10
31.4633044175381
20
3.38108662380705
30
0
41
1
10
31.4045037496461
20
3.381348875604
30
0
41
1
10
31.3457531977766
20
3.38124433828884
30
0
0
SPLINE
5
FD
100
AcDbEntity
8
1
62
256
6
ByLayer
370
18
48
1
60
0
100
AcDbSpline
70
4
71
3
72
10
73
6
40
0
40
0
40
0
40
0
40
0.455930345712101
40
0.455930345712101
40
1
40
1
40
1
40
1
41
1
10
14.6983810471177
20
-2.49519447976647
30
0
41
1
10
14.5758165574002
20
-2.53487008547268
30
0
41
1
10
14.4532430051248
20
-2.5733263930004
30
0
41
1
10
14.184113043663
20
-2.65466765166465
30
0
41
1
10
14.0375437101895
20
-2.69703227552338
30
0
41
1
10
13.8907886719171
20
-2.73748033844652
30
0
0
SPLINE
5
FE
100
AcDbEntity
8
1
62
256
6
ByLayer
370
18
48
1
60
0
100
AcDbSpline
70
4
71
3
72
78
73
74
40
0
40
0
40
0
40
0
40
0.0625000000000046
40
0.0625000000000046
40
0.125000000000009
40
0.125000000000009
40
0.187500000000014
40
0.187500000000014
40
0.250000000000019
40
0.250000000000019
40
0.265625000000019
40
0.265625000000019
40
0.28125000000002
40
0.28125000000002
40
0.312500000000021
40
0.312500000000021
40
0.375000000000023
40
0.375000000000023
40
0.390625000000024
40
0.390625000000024
40
0.406250000000026
40
0.406250000000026
40
0.437500000000028
40
0.437500000000028
40
0.46875000000003
40
0.46875000000003
40
0.500000000000032
40
0.500000000000032
40
0.507812500000032
40
0.507812500000032
40
0.515625000000033
40
0.515625000000033
40
0.531250000000032
40
0.531250000000032
40
0.56250000000003
40
0.56250000000003
40
0.578125000000028
40
0.578125000000028
40
0.593750000000027
40
0.593750000000027
40
0.625000000000024
40
0.625000000000024
40
0.632812500000023
40
0.632812500000023
40
0.640625000000022
40
0.65625000000002
40
0.671875000000018
40
0.671875000000018
40
0.679687500000017
40
0.679687500000017
40
0.687500000000016
40
0.687500000000016
40
0.718750000000012
40
0.718750000000012
40
0.750000000000009
40
0.750000000000009
40
0.765625000000008
40
0.765625000000008
40
0.781250000000007
40
0.781250000000007
40
0.812500000000005
40
0.812500000000005
40
0.843750000000003
40
0.843750000000003
40
0.875000000000001
40
0.875000000000001
40
0.906249999999999
40
0.906249999999999
40
0.921874999999998
40
0.921874999999998
40
0.937499999999997
40
0.937499999999997
40
1
40
1
40
1
40
1
41
1
10
13.8907886743517
20
-2.73748033921993
30
0
41
1
10
13.744703157677
20
-2.7780769633624
30
0
41
1
10
13.5997151928937
20
-2.81775759549001
30
0
41
1
10
13.3121757188143
20
-2.89490425233745
30
0
41
1
10
13.1696228527571
20
-2.93237193969679
30
0
41
1
10
12.8872850254233
20
-3.00459899677537
30
0
41
1
10
12.7474975783303
20
-3.03936139638199
30
0
41
1
10
12.471168623395
20
-3.10550403382658
30
0
41
1
10
12.3346220933041
20
-3.13689035660798
30
0
41
1
10
12.1664240494577
20
-3.17339545518894
30
0
41
1
10
12.132909564789
20
-3.18055902613168
30
0
41
1
10
12.0661464351967
20
-3.19459083178174
30
0
41
1
10
12.0328749544974
20
-3.20146361817729
30
0
41
1
10
11.9337252360478
20
-3.22155636927064
30
0
41
1
10
11.8684771331179
20
-3.23425986680004
30
0
41
1
10
11.675608507666
20
-3.26999766868974
30
0
41
1
10
11.5508119991936
20
-3.29070349974873
30
0
41
1
10
11.4011844420094
20
-3.31120443308939
30
0
41
1
10
11.3715814221035
20
-3.31503205482372
30
0
41
1
10
11.3130813845337
20
-3.32208801189751
30
0
41
1
10
11.2842562648681
20
-3.32530704181613
30
0
41
1
10
11.1994316176622
20
-3.3339319122808
30
0
41
1
10
11.1449640228601
20
-3.33832406572722
30
0
41
1
10
11.0409173986386
20
-3.34390619172214
30
0
41
1
10
10.9913331873389
20
-3.34509945098887
30
0
41
1
10
10.8980803359086
20
-3.34360384776653
30
0
41
1
10
10.8544012766402
20
-3.34092156983081
30
0
41
1
10
10.8044716483075
20
-3.33450745755951
30
0
41
1
10
10.7947209947819
20
-3.33307042141257
30
0
41
1
10
10.7757232450425
20
-3.32986652276853
30
0
41
1
10
10.7664583722317
20
-3.32809531489974
30
0
41
1
10
10.739671265892
20
-3.32229604930174
30
0
41
1
10
10.7231176145139
20
-3.3177801515765
30
0
41
1
10
10.6776654887596
20
-3.3021412402374
30
0
41
1
10
10.6529494297208
20
-3.28893897395761
30
0
41
1
10
10.6258244623329
20
-3.26422658775172
30
0
41
1
10
10.6184390480375
20
-3.25511894003847
30
0
41
1
10
10.607523085211
20
-3.23554523515301
30
0
41
1
10
10.6039402251177
20
-3.22505136267318
30
0
41
1
10
10.5988458685354
20
-3.19145196905794
30
0
41
1
10
10.6029789273986
20
-3.166231499063
30
0
41
1
10
10.6177945712217
20
-3.13114871163046
30
0
41
1
10
10.6212508917009
20
-3.12393865912401
30
0
41
1
10
10.6290463915832
20
-3.10932126215928
30
0
41
1
10
10.6420790471655
20
-3.08705299685371
30
0
41
1
10
10.6702283215299
20
-3.04830884639881
30
0
41
1
10
10.6991213694728
20
-3.01572146763596
30
0
41
1
10
10.7230295737346
20
-2.99073100580256
30
0
41
1
10
10.7313723232713
20
-2.98230912136384
30
0
41
1
10
10.7487822502826
20
-2.96528891990323
30
0
41
1
10
10.757839928581
20
-2.95670101488375
30
0
41
1
10
10.8044945298495
20
-2.91368316985975
30
0
41
1
10
10.8464231980421
20
-2.87875911762723
30
0
41
1
10
10.9376108822687
20
-2.80817784442786
30
0
41
1
10
10.9868818616052
20
-2.77251890103599
30
0
41
1
10
11.0653648862031
20
-2.71862463061947
30
0
41
1
10
11.0923354772343
20
-2.70056360671481
30
0
41
1
10
11.1474949436754
20
-2.66445151926007
30
0
41
1
10
11.1755859112003
20
-2.64646288939173
30
0
41
1
10
11.2612283896476
20
-2.59268824983275
30
0
41
1
10
11.3201424990488
20
-2.55709300399704
30
0
41
1
10
11.440956622195
20
-2.4863684186769
30
0
41
1
10
11.5028597805445
20
-2.45123929651572
30
0
41
1
10
11.6291975457296
20
-2.38141763847349
30
0
41
1
10
11.6936338809625
20
-2.34672522232489
30
0
41
1
10
11.8247012031054
20
-2.27775590859736
30
0
41
1
10
11.8913332106945
20
-2.24347908189733
30
0
41
1
10
11.9927336503012
20
-2.19236384323295
30
0
41
1
10
12.0267841303198
20
-2.17537184965696
30
0
41
1
10
12.0951830452004
20
-2.14156473500648
30
0
41
1
10
12.1295511925289
20
-2.1247395868391
30
0
41
1
10
12.3021840024151
20
-2.04099055625358
30
0
41
1
10
12.4428071418751
20
-1.97519138708424
30
0
41
1
10
12.5854538683084
20
-1.91044606629057
30
0
0
SPLINE
5
FF
100
AcDbEntity
8
1
62
256
6
ByLayer
370
18
48
1
60
0
100
AcDbSpline
70
4
71
3
72
22
73
18
40
0
40
0
40
0
40
0
40
0.0088357785173265
40
0.0088357785173265
40
0.0176715571462694
40
0.0176715571462694
40
0.0530148299455841
40
0.0530148299455841
40
0.19439823244217
40
0.19439823244217
40
0.477218675243088
40
0.477218675243088
40
0.760031356674233
40
0.760031356674233
40
0.901413065989403
40
0.901413065989403
40
1
40
1
40
1
40
1
41
1
10
12.5854476307019
20
-1.91044889779158
30
0
41
1
10
12.5854696696273
20
-1.91043889222689
30
0
41
1
10
12.5854917149104
20
-1.91042889604563
30
0
41
1
10
12.5855358185423
20
-1.91040892304167
30
0
41
1
10
12.585557876899
20
-1.91039894621852
30
0
41
1
10
12.5856682023809
20
-1.91034911177655
30
0
41
1
10
12.5857565823827
20
-1.91030942157482
30
0
41
1
10
12.5861988744458
20
-1.91011153534293
30
0
41
1
10
12.5865545003834
20
-1.90995588732241
30
0
41
1
10
12.5876258545345
20
-1.90949589354619
30
0
41
1
10
12.5883463984923
20
-1.90919887104891
30
0
41
1
10
12.5897981972498
20
-1.90862340263774
30
0
41
1
10
12.5905295959107
20
-1.9083448305901
30
0
41
1
10
12.5916337493134
20
-1.90794026407883
30
0
41
1
10
12.5920029838265
20
-1.90780760504171
30
0
41
1
10
12.5926315983364
20
-1.90758609138354
30
0
41
1
10
12.5928904115943
20
-1.90749612774934
30
0
41
1
10
12.593149745854
20
-1.90740719182455
30
0
0
SPLINE
5
100
100
AcDbEntity
8
1
62
256
6
ByLayer
370
18
48
1
60
0
100
AcDbSpline
70
4
71
3
72
16
73
12
40
0
40
0
40
0
40
0
40
0.0924125066648342
40
0.0924125066648342
40
0.243692516255181
40
0.243692516255181
40
0.546252539784578
40
0.546252539784578
40
0.848812563294959
40
0.848812563294959
40
1
40
1
40
1
40
1
41
1
10
12.6944611012949
20
-1.90615663476737
30
0
41
1
10
12.6948057837489
20
-1.90624178427294
30
0
41
1
10
12.6951504620706
20
-1.90632694243524
30
0
41
1
10
12.6960593705157
20
-1.90655152797498
30
0
41
1
10
12.6966235936913
20
-1.9066909699055
30
0
41
1
10
12.6983162299892
20
-1.90710936519514
30
0
41
1
10
12.699444609905
20
-1.90738838801576
30
0
41
1
10
12.7017012809052
20
-1.9079466190847
30
0
41
1
10
12.7028295719918
20
-1.90822582739119
30
0
41
1
10
12.7045215971157
20
-1.9086446922642
30
0
41
1
10
12.7050853641928
20
-1.90878428021472
30
0
41
1
10
12.7056491202054
20
-1.90892389117158
30
0
0
SPLINE
5
101
100
AcDbEntity
8
1
62
256
6
ByLayer
370
18
48
1
60
0
100
AcDbSpline
70
4
71
3
72
14
73
10
40
0
40
0
40
0
40
0
40
0.25
40
0.25
40
0.5
40
0.5
40
0.75
40
0.75
40
1
40
1
40
1
40
1
41
1
10
12.7056491327271
20
-1.90892389427265
30
0
41
1
10
12.9117021480054
20
-1.95995173507345
30
0
41
1
10
13.116012151791
20
-2.01401357072331
30
0
41
1
10
13.5214480340864
20
-2.12647427892196
30
0
41
1
10
13.7225817398314
20
-2.18487480887813
30
0
41
1
10
14.1220378697115
20
-2.30402145635756
30
0
41
1
10
14.3199112422729
20
-2.36462775721429
30
0
41
1
10
14.7125401911692
20
-2.4857376583949
30
0
41
1
10
14.9072965339768
20
-2.54623776944783
30
0
41
1
10
15.1008490946611
20
-2.60558108245982
30
0
0
SPLINE
5
102
100
AcDbEntity
8
1
62
256
6
ByLayer
370
18
48
1
60
0
100
AcDbSpline
70
4
71
3
72
22
73
18
40
0
40
0
40
0
40
0
40
0.167199630456128
40
0.167199630456128
40
0.334399260912257
40
0.334399260912257
40
0.501598891368385
40
0.501598891368385
40
0.668798521824513
40
0.668798521824513
40
0.835998152280641
40
0.835998152280641
40
0.877798059894672
40
0.877798059894672
40
0.919597967508702
40
0.919597967508702
40
1
40
1
40
1
40
1
41
1
10
15.1008490946617
20
-2.60558108245956
30
0
41
1
10
15.3645489079276
20
-2.68632285250757
30
0
41
1
10
15.627381370656
20
-2.76115389440267
30
0
41
1
10
16.1519317339017
20
-2.89841110797661
30
0
41
1
10
16.4135848102337
20
-2.96090065362398
30
0
41
1
10
16.9365384229805
20
-3.07276756330052
30
0
41
1
10
17.197848115637
20
-3.12215280741231
30
0
41
1
10
17.7205833274743
20
-3.20748488317099
30
0
41
1
10
17.9820360664713
20
-3.24340621668838
30
0
41
1
10
18.5057432633359
20
-3.30128804424544
30
0
41
1
10
18.768007489403
20
-3.32324326219506
30
0
41
1
10
19.0967608686563
20
-3.34169028049715
30
0
41
1
10
19.1625564657048
20
-3.34493026227574
30
0
41
1
10
19.2942473986369
20
-3.35050483405908
30
0
41
1
10
19.3601570569208
20
-3.3528394298165
30
0
41
1
10
19.5526991967419
20
-3.35832485690639
30
0
41
1
10
19.6792883776646
20
-3.36024283856793
30
0
41
1
10
19.8058237487693
20
-3.36047255511775
30
0
0
SPLINE
5
103
100
AcDbEntity
8
1
62
256
6
ByLayer
370
18
48
1
60
0
100
AcDbSpline
70
4
71
3
72
20
73
16
40
0
40
0
40
0
40
0
40
0.056188345657126
40
0.056188345657126
40
0.119109122613315
40
0.244950676525698
40
0.244950676525698
40
0.496633784350472
40
0.496633784350472
40
0.559554561306664
40
0.559554561306664
40
0.622475338262856
40
0.748316892175239
40
0.748316892175239
40
1
40
1
40
1
40
1
41
1
10
36.6663217294326
20
2.52727247740779
30
0
41
1
10
36.7608619987145
20
2.55823443699907
30
0
41
1
10
36.8554688907417
20
2.58851509714225
30
0
41
1
10
37.0559324428964
20
2.65113569924736
30
0
41
1
10
37.373376955662
20
2.74756470654688
30
0
41
1
10
37.6902643940448
20
2.83535474137412
30
0
41
1
10
38.3238115975306
20
2.99886005686653
30
0
41
1
10
38.7458874046869
20
3.09173924243009
30
0
41
1
10
39.2748373262105
20
3.18598398025153
30
0
41
1
10
39.3807365700026
20
3.20374863108188
30
0
41
1
10
39.5925098772949
20
3.23702547391901
30
0
41
1
10
39.9099071285988
20
3.28352988015769
30
0
41
1
10
40.2267061739977
20
3.31972108223772
30
0
41
1
10
40.8600232203466
20
3.37815884598763
30
0
41
1
10
41.2818649497187
20
3.39851305824081
30
0
41
1
10
41.7047065168777
20
3.39987622511217
30
0
0
SPLINE
5
104
100
AcDbEntity
8
1
62
256
6
ByLayer
370
18
48
1
60
0
100
AcDbSpline
70
4
71
3
72
14
73
10
40
0
40
0
40
0
40
0
40
0.25
40
0.25
40
0.5
40
0.5
40
0.75
40
0.75
40
1
40
1
40
1
40
1
41
1
10
41.7538318885424
20
-3.26372376941964
30
0
41
1
10
41.7545264482544
20
-3.26259407920554
30
0
41
1
10
41.7552305952743
20
-3.26140262651339
30
0
41
1
10
41.7565927599078
20
-3.25897727775194
30
0
41
1
10
41.7572423305826
20
-3.2577545048799
30
0
41
1
10
41.758284606176
20
-3.25562309690673
30
0
41
1
10
41.7586797766483
20
-3.2547070597692
30
0
41
1
10
41.7591146971292
20
-3.25342510922115
30
0
41
1
10
41.7591617044741
20
-3.25305291604229
30
0
41
1
10
41.7590772072203
20
-3.2529065276733
30
0
0
SPLINE
5
105
100
AcDbEntity
8
1
62
256
6
ByLayer
370
18
48
1
60
0
100
AcDbSpline
70
4
71
3
72
38
73
34
40
0
40
0
40
0
40
0
40
0.0009990230869241
40
0.0009990230869241
40
0.0303814047608349
40
0.0303814047608349
40
0.0597637864347456
40
0.0597637864347456
40
0.177293313130385
40
0.177293313130385
40
0.236058076478205
40
0.236058076478205
40
0.294822839826024
40
0.294822839826024
40
0.412352366521667
40
0.427043557358623
40
0.427043557358623
40
0.441734748195579
40
0.441734748195579
40
0.471117129869494
40
0.471117129869494
40
0.529881893217328
40
0.529881893217328
40
0.588646656565162
40
0.588646656565162
40
0.647411419912996
40
0.70617618326083
40
0.70617618326083
40
0.764940946608664
40
0.764940946608664
40
0.882470473304332
40
0.882470473304332
40
1
40
1
40
1
40
1
41
1
10
31.0050629946662
20
0.283275400187136
30
0
41
1
10
31.0086728712913
20
0.281586621511309
30
0
41
1
10
31.0122827823033
20
0.279897710942009
30
0
41
1
10
31.1220652695476
20
0.228532105368686
30
0
41
1
10
31.2282676181095
20
0.178741523317399
30
0
41
1
10
31.4407688264253
20
0.079009405093899
30
0
41
1
10
31.5471228817139
20
0.0290416344066387
30
0
41
1
10
32.0785557352762
20
-0.220661970090788
30
0
41
1
10
32.5016472450538
20
-0.419511918710185
30
0
41
1
10
33.1352095794421
20
-0.712214847922212
30
0
41
1
10
33.3462138326908
20
-0.808860489609685
30
0
41
1
10
33.7681312572792
20
-0.999727392800821
30
0
41
1
10
33.9790481537378
20
-1.09394178164723
30
0
41
1
10
34.6122145159952
20
-1.37179789794317
30
0
41
1
10
35.0876941669634
20
-1.57305237056866
30
0
41
1
10
35.5653677858859
20
-1.76322131461612
30
0
41
1
10
35.6715784941353
20
-1.80519409452219
30
0
41
1
10
35.724740821308
20
-1.82604775076453
30
0
41
1
10
35.8840754233346
20
-1.88806428224842
30
0
41
1
10
35.990109812045
20
-1.92868894531139
30
0
41
1
10
36.3077148118716
20
-2.04829940482526
30
0
41
1
10
36.5187835865624
20
-2.12502595600338
30
0
41
1
10
36.9398321061272
20
-2.27201693069225
30
0
41
1
10
37.1498169142964
20
-2.34228779621617
30
0
41
1
10
37.5690606030176
20
-2.4760768225554
30
0
41
1
10
37.9875732539707
20
-2.60310558290988
30
0
41
1
10
38.4051850000554
20
-2.71577611918443
30
0
41
1
10
38.8226463786447
20
-2.82082263628672
30
0
41
1
10
39.0313344710285
20
-2.86959228614384
30
0
41
1
10
39.6576896406898
20
-3.00411102804099
30
0
41
1
10
40.075580356064
20
-3.07796394071047
30
0
41
1
10
40.9144194431144
20
-3.19161096753555
30
0
41
1
10
41.3353568899632
20
-3.23141495920345
30
0
41
1
10
41.7590772072257
20
-3.25290652767353
30
0
0
SPLINE
5
106
100
AcDbEntity
8
1
62
256
6
ByLayer
370
18
48
1
60
0
100
AcDbSpline
70
4
71
3
72
34
73
30
40
0
40
0
40
0
40
0
40
0.0310819644612599
40
0.0310819644612599
40
0.0621639289225197
40
0.0621639289225197
40
0.124327857845036
40
0.124327857845036
40
0.248655715690073
40
0.248655715690073
40
0.372983573535109
40
0.372983573535109
40
0.435147502457625
40
0.435147502457625
40
0.497311431380142
40
0.497311431380142
40
0.559475360302658
40
0.559475360302658
40
0.590557324763918
40
0.590557324763918
40
0.621639289225178
40
0.621639289225178
40
0.745967147070208
40
0.745967147070208
40
0.870295004915238
40
0.870295004915238
40
0.994622862760268
40
0.994622862760268
40
1
40
1
40
1
40
1
41
1
10
41.7538318885424
20
-3.26372376941964
30
0
41
1
10
41.6477678311876
20
-3.25845952106681
30
0
41
1
10
41.5417086877501
20
-3.2520332511321
30
0
41
1
10
41.3295604647145
20
-3.23687972908928
30
0
41
1
10
41.2234059837598
20
-3.22814595802484
30
0
41
1
10
40.9054132941357
20
-3.1985802646565
30
0
41
1
10
40.6940630790535
20
-3.17439447094372
30
0
41
1
10
40.0614645254983
20
-3.088910038504
30
0
41
1
10
39.6416736455729
20
-3.01469807278633
30
0
41
1
10
38.8034913049472
20
-2.83444344633341
30
0
41
1
10
38.3852123953111
20
-2.72851754805319
30
0
41
1
10
37.7569337011743
20
-2.54794390507195
30
0
41
1
10
37.5473708439512
20
-2.48416456390487
30
0
41
1
10
37.1276874695323
20
-2.34986363920407
30
0
41
1
10
36.9175685490672
20
-2.27934493742771
30
0
41
1
10
36.4964210306591
20
-2.13189236875326
30
0
41
1
10
36.2853894218743
20
-2.0549532680929
30
0
41
1
10
35.9679670294296
20
-1.93506190527057
30
0
41
1
10
35.8620143634288
20
-1.89435017410736
30
0
41
1
10
35.6497722575242
20
-1.81150236404278
30
0
41
1
10
35.5436490640932
20
-1.76943064604009
30
0
41
1
10
35.0138756706504
20
-1.55644107314782
30
0
41
1
10
34.5917786307751
20
-1.37727719275838
30
0
41
1
10
33.7486355345083
20
-1.00621672479838
30
0
41
1
10
33.3275613783576
20
-0.814372581121035
30
0
41
1
10
32.4838275090148
20
-0.423436616723421
30
0
41
1
10
32.0612259099736
20
-0.224234814897983
30
0
41
1
10
31.618187037003
20
-0.0154291943779867
30
0
41
1
10
31.5998187518186
20
-0.0067722467908311
30
0
41
1
10
31.5814498325575
20
0.0018846649650186
30
0
0
SPLINE
5
107
100
AcDbEntity
8
1
62
256
6
ByLayer
370
18
48
1
60
0
100
AcDbSpline
70
4
71
3
72
8
73
4
40
0
40
0
40
0
40
0
40
1
40
1
40
1
40
1
41
1
10
41.6900620798001
20
-0.230810445774182
30
0
41
1
10
41.7039931640672
20
-0.234982070815391
30
0
41
1
10
41.7179311784172
20
-0.238914745757938
30
0
41
1
10
41.731880988454
20
-0.242609782798098
30
0
0
SPLINE
5
108
100
AcDbEntity
8
1
62
256
6
ByLayer
370
18
48
1
60
0
100
AcDbSpline
70
4
71
3
72
60
73
56
40
0
40
0
40
0
40
0
40
0.0222731158260822
40
0.0222731158260822
40
0.0461201130010572
40
0.0461201130010572
40
0.09381410735101
40
0.09381410735101
40
0.141508101700963
40
0.141508101700963
40
0.189202096050915
40
0.189202096050915
40
0.213049093225892
40
0.213049093225892
40
0.236896090400868
40
0.236896090400868
40
0.284590084750818
40
0.284590084750818
40
0.332284079100769
40
0.332284079100769
40
0.379978073450719
40
0.379978073450719
40
0.403825070625693
40
0.403825070625693
40
0.427672067800667
40
0.427672067800667
40
0.475366062150614
40
0.475366062150614
40
0.523060056500562
40
0.523060056500562
40
0.570754050850509
40
0.570754050850509
40
0.594601048025482
40
0.594601048025482
40
0.618448045200454
40
0.618448045200454
40
0.666142039550397
40
0.666142039550397
40
0.71383603390034
40
0.71383603390034
40
0.761530028250282
40
0.761530028250282
40
0.785377025425255
40
0.785377025425255
40
0.809224022600227
40
0.809224022600227
40
0.8330710197752
40
0.8330710197752
40
0.856918016950172
40
0.856918016950172
40
0.904612011300115
40
0.904612011300115
40
0.952306005650057
40
0.952306005650057
40
1
40
1
40
1
40
1
41
1
10
28.4951690672572
20
3.2566545209522
30
0
41
1
10
28.5932403457572
20
3.26948267492278
30
0
41
1
10
28.6913704225923
20
3.28134997522031
30
0
41
1
10
28.8945867928635
20
3.30384036050094
30
0
41
1
10
28.9995914880838
20
3.31430440488643
30
0
41
1
10
29.3145972331991
20
3.34216378627281
30
0
41
1
10
29.5245438085217
20
3.3560593805457
30
0
41
1
10
29.9443225060969
20
3.37466561029925
30
0
41
1
10
30.1541544990805
20
3.37937248143274
30
0
41
1
10
30.5738152617177
20
3.37955541978215
30
0
41
1
10
30.7836307572763
20
3.37503516957182
30
0
41
1
10
31.0983361154902
20
3.36115557570517
30
0
41
1
10
31.2032487123091
20
3.35534393286886
30
0
41
1
10
31.4132675856838
20
3.3413718026442
30
0
41
1
10
31.5183201929589
20
3.33321459862498
30
0
41
1
10
31.8333086788243
20
3.30538143487362
30
0
41
1
10
32.0432323420353
20
3.28233335054625
30
0
41
1
10
32.4628749835103
20
3.22738853201349
30
0
41
1
10
32.6725952980041
20
3.19548891869448
30
0
41
1
10
33.0918773101631
20
3.12280853207224
30
0
41
1
10
33.3014617856114
20
3.08202650766086
30
0
41
1
10
33.6162494759128
20
3.01455536528815
30
0
41
1
10
33.7212430088569
20
2.9910146988168
30
0
41
1
10
33.9313551243288
20
2.9418202659123
30
0
41
1
10
34.0365236809118
20
2.91615277031971
30
0
41
1
10
34.3515978872743
20
2.83611989813019
30
0
41
1
10
34.5612332792529
20
2.77870151111981
30
0
41
1
10
34.9806086076438
20
2.65690561207219
30
0
41
1
10
35.1903250466958
20
2.59252427303258
30
0
41
1
10
35.6096816492074
20
2.45667828384367
30
0
41
1
10
35.8193267255782
20
2.38521385031021
30
0
41
1
10
36.13385606651
20
2.27278461337045
30
0
41
1
10
36.2387098470093
20
2.23443495973206
30
0
41
1
10
36.4485407028853
20
2.15613177435046
30
0
41
1
10
36.5535519044496
20
2.11616528033898
30
0
41
1
10
36.8686795992921
20
1.99415869776527
30
0
41
1
10
37.0784907568338
20
1.91017229463173
30
0
41
1
10
37.4979458195154
20
1.73762114782508
30
0
41
1
10
37.7075900566523
20
1.64906220061891
30
0
41
1
10
38.1267177247777
20
1.46740339131281
30
0
41
1
10
38.3362019745117
20
1.37430148025845
30
0
41
1
10
38.6505024923223
20
1.23155959018359
30
0
41
1
10
38.7552780797915
20
1.18345630315372
30
0
41
1
10
38.9649869923429
20
1.08647061912819
30
0
41
1
10
39.069925222834
20
1.03759871489009
30
0
41
1
10
39.2799838158875
20
0.939125452575212
30
0
41
1
10
39.3850906660949
20
0.889526353764694
30
0
41
1
10
39.595040686426
20
0.789881048049381
30
0
41
1
10
39.6999430039687
20
0.739807505333033
30
0
41
1
10
40.0144848407798
20
0.588942262699419
30
0
41
1
10
40.2239576107825
20
0.487502468562639
30
0
41
1
10
40.642827627004
20
0.283647368518189
30
0
41
1
10
40.8522317525121
20
0.181246811582071
30
0
41
1
10
41.2710754325934
20
-0.0243058703898384
30
0
41
1
10
41.4805130969217
20
-0.127462096124049
30
0
41
1
10
41.6900620797986
20
-0.23081044577512
30
0
0
SPLINE
5
109
100
AcDbEntity
8
1
62
256
6
ByLayer
370
18
48
1
60
0
100
AcDbSpline
70
4
71
3
72
48
73
44
40
0
40
0
40
0
40
0
40
0.0257616587797049
40
0.0257616587797049
40
0.0824429685839769
40
0.0824429685839769
40
0.110783623486114
40
0.110783623486114
40
0.139124278388252
40
0.139124278388252
40
0.195805588192527
40
0.195805588192527
40
0.252486897996802
40
0.252486897996802
40
0.309168207801077
40
0.309168207801077
40
0.365849517605352
40
0.365849517605352
40
0.422530827409627
40
0.422530827409627
40
0.479212137213902
40
0.479212137213902
40
0.507552792116038
40
0.507552792116038
40
0.535893447018173
40
0.535893447018173
40
0.592574756822442
40
0.592574756822442
40
0.649256066626711
40
0.649256066626711
40
0.70593737643098
40
0.70593737643098
40
0.762618686235249
40
0.762618686235249
40
0.790959341137385
40
0.790959341137385
40
0.819299996039521
40
0.819299996039521
40
0.875981305843796
40
0.875981305843796
40
0.932662615648071
40
0.932662615648071
40
1
40
1
40
1
40
1
41
1
10
30.1030686329526
20
3.25824233038574
30
0
41
1
10
30.1993668903187
20
3.25968972349133
30
0
41
1
10
30.2956385023369
20
3.26021344105428
30
0
41
1
10
30.6036624894843
20
3.25907282305917
30
0
41
1
10
30.8153121072712
20
3.25403880543996
30
0
41
1
10
31.1325475044626
20
3.24062983089146
30
0
41
1
10
31.2382705228406
20
3.23514710731737
30
0
41
1
10
31.4498424214469
20
3.22183534430482
30
0
41
1
10
31.5557644234865
20
3.21398998695588
30
0
41
1
10
31.8734139072033
20
3.18654649158375
30
0
41
1
10
32.0847986218582
20
3.16320577964638
30
0
41
1
10
32.5069530166662
20
3.10790515933581
30
0
41
1
10
32.7177155839815
20
3.07591890687328
30
0
41
1
10
33.1386937051773
20
3.00403623841868
30
0
41
1
10
33.3489364543137
20
2.96409306282018
30
0
41
1
10
33.7694973650481
20
2.87590126075111
30
0
41
1
10
33.9797848656481
20
2.82769747977341
30
0
41
1
10
34.4003691850473
20
2.72383285969249
30
0
41
1
10
34.6107091947461
20
2.66813308734433
30
0
41
1
10
35.0324412531499
20
2.54875270154903
30
0
41
1
10
35.2437905066814
20
2.4851158930959
30
0
41
1
10
35.5614009374331
20
2.38448746791329
30
0
41
1
10
35.6674567504918
20
2.350047836362
30
0
41
1
10
35.8790495368356
20
2.27972351861598
30
0
41
1
10
35.9846486194169
20
2.24382020726998
30
0
41
1
10
36.3008925299714
20
2.1339872049721
30
0
41
1
10
36.5109957990438
20
2.05793723807474
30
0
41
1
10
36.9302476252442
20
1.90063981889904
30
0
41
1
10
37.1393927866959
20
1.8194021864567
30
0
41
1
10
37.5571067389155
20
1.65251902188399
30
0
41
1
10
37.7656664050643
20
1.56686422822347
30
0
41
1
10
38.1822789437059
20
1.39164051245058
30
0
41
1
10
38.3903340519497
20
1.30207062474682
30
0
41
1
10
38.7021870093028
20
1.16511115637408
30
0
41
1
10
38.8061027494327
20
1.11902782158654
30
0
41
1
10
39.0139845610892
20
1.02615462682482
30
0
41
1
10
39.1179484872806
20
0.979361966076539
30
0
41
1
10
39.4299338192617
20
0.838000481836247
30
0
41
1
10
39.6380493854535
20
0.742449494452785
30
0
41
1
10
40.0547809763449
20
0.549339359395333
30
0
41
1
10
40.2633964842511
20
0.451780057066145
30
0
41
1
10
40.7207738170293
20
0.236897003731372
30
0
41
1
10
40.9697165883393
20
0.119312150332405
30
0
41
1
10
41.2192788941387
20
0.0009896155499973
30
0
0
SPLINE
5
10A
100
AcDbEntity
8
1
62
256
6
ByLayer
370
18
48
1
60
0
100
AcDbSpline
70
4
71
3
72
47
73
43
40
0
40
0
40
0
40
0
40
0.110439272893141
40
0.110439272893141
40
0.165658909339711
40
0.165658909339711
40
0.220878545786281
40
0.248488364009568
40
0.248488364009568
40
0.276098182232854
40
0.276098182232854
40
0.331317818679431
40
0.331317818679431
40
0.386537455126007
40
0.386537455126007
40
0.441757091572583
40
0.441757091572583
40
0.496976728019159
40
0.496976728019159
40
0.524586546242447
40
0.524586546242447
40
0.552196364465736
40
0.552196364465736
40
0.607416000912312
40
0.607416000912312
40
0.662635637358888
40
0.662635637358888
40
0.717855273805464
40
0.717855273805464
40
0.773074910252041
40
0.773074910252041
40
0.828294546698617
40
0.828294546698617
40
0.883514183145193
40
0.883514183145193
40
0.91112400136848
40
0.91112400136848
40
0.938733819591767
40
0.938733819591767
40
0.99395345603834
40
0.99395345603834
40
1
40
1
40
1
40
1
41
1
10
41.7341365435716
20
-0.253929201068331
30
0
41
1
10
41.3124206052247
20
-0.0537675744968169
30
0
41
1
10
40.8924856922022
20
0.144714974044803
30
0
41
1
10
40.2651433286059
20
0.43866673756537
30
0
41
1
10
40.0564517775712
20
0.536017796286359
30
0
41
1
10
39.6395679017521
20
0.728747511737964
30
0
41
1
10
39.3272801660221
20
0.87181638720287
30
0
41
1
10
39.0152749373396
20
1.01197919791247
30
0
41
1
10
38.8073175648459
20
1.10471850515233
30
0
41
1
10
38.7033641347196
20
1.1507388897642
30
0
41
1
10
38.3913992257604
20
1.28751981446581
30
0
41
1
10
38.1832708829225
20
1.37698724709273
30
0
41
1
10
37.7665157423421
20
1.55204132604158
30
0
41
1
10
37.5578873258732
20
1.63763083722992
30
0
41
1
10
37.1400406187222
20
1.80442422446595
30
0
41
1
10
36.9308312651143
20
1.88563610985406
30
0
41
1
10
36.5114564077214
20
2.0429181331665
30
0
41
1
10
36.301292918158
20
2.11897472322849
30
0
41
1
10
35.9849638722853
20
2.22883870447248
30
0
41
1
10
35.8793374868394
20
2.26475646849551
30
0
41
1
10
35.6676927279631
20
2.33511961721868
30
0
41
1
10
35.5616073327673
20
2.36958502617983
30
0
41
1
10
35.2438963109477
20
2.47030939591215
30
0
41
1
10
35.032479944736
20
2.53403340994532
30
0
41
1
10
34.6106108263139
20
2.65363406688354
30
0
41
1
10
34.4001997807547
20
2.70945842461345
30
0
41
1
10
33.9794747753202
20
2.81359348592997
30
0
41
1
10
33.7691184570057
20
2.86195005372974
30
0
41
1
10
33.3484223915594
20
2.95048783415237
30
0
41
1
10
33.1381124118621
20
2.99061912744466
30
0
41
1
10
32.7170034489238
20
3.06290185991196
30
0
41
1
10
32.5061781838966
20
3.09510399304651
30
0
41
1
10
32.0839036955853
20
3.15087214266904
30
0
41
1
10
31.8724621199354
20
3.17446497327077
30
0
41
1
10
31.5547316373354
20
3.20231558158281
30
0
41
1
10
31.4487771011835
20
3.21030103270886
30
0
41
1
10
31.2371402003646
20
3.22389332895196
30
0
41
1
10
31.1313841270844
20
3.22951766396656
30
0
41
1
10
30.8140501359468
20
3.2433557061255
30
0
41
1
10
30.6023371780098
20
3.24868656964321
30
0
41
1
10
30.3673070622555
20
3.24990224116129
30
0
41
1
10
30.3441100543555
20
3.24997128873778
30
0
41
1
10
30.320911785893
20
3.24998879576847
30
0
0
SPLINE
5
10B
100
AcDbEntity
8
1
62
256
6
ByLayer
370
18
48
1
60
0
100
AcDbSpline
70
4
71
3
72
8
73
4
40
0
40
0
40
0
40
0
40
1
40
1
40
1
40
1
41
1
10
41.731880988454
20
-0.24260978279807
30
0
41
1
10
41.7337778494343
20
-0.243112224878928
30
0
41
1
10
41.7348132287862
20
-0.248180467898038
30
0
41
1
10
41.7341365435621
20
-0.253929201063812
30
0
0
SPLINE
5
10C
100
AcDbEntity
8
1
62
256
6
ByLayer
370
18
48
1
60
0
100
AcDbSpline
70
4
71
3
72
14
73
10
40
0
40
0
40
0
40
0
40
0.25
40
0.25
40
0.5
40
0.5
40
0.75
40
0.75
40
1
40
1
40
1
40
1
41
1
10
12.5931497458603
20
-1.90740719183654
30
0
41
1
10
12.6011440092451
20
-1.90466564427592
30
0
41
1
10
12.6094309539904
20
-1.9029699852648
30
0
41
1
10
12.6263198522249
20
-1.90070835465016
30
0
41
1
10
12.6349554566558
20
-1.90018693408845
30
0
41
1
10
12.6521297222052
20
-1.90016925414952
30
0
41
1
10
12.6607488640653
20
-1.90067288994444
30
0
41
1
10
12.6777644059195
20
-1.90264307730197
30
0
41
1
10
12.6861985523641
20
-1.90411547497968
30
0
41
1
10
12.6944611013084
20
-1.90615663472511
30
0
0
SPLINE
5
10D
100
AcDbEntity
8
SK1
62
256
6
ByLayer
370
18
48
1
60
0
100
AcDbSpline
70
4
71
3
72
8
73
4
40
0
40
0
40
0
40
0
40
1
40
1
40
1
40
1
41
1
10
-35.5
20
3.23085164806864
30
0
41
1
10
-35.6671062653487
20
3.07051042036252
30
0
41
1
10
-35.8338553776803
20
2.90984712117765
30
0
41
1
10
-36
20
2.74863870832229
30
0
0
SPLINE
5
10E
100
AcDbEntity
8
SK1
62
256
6
ByLayer
370
18
48
1
60
0
100
AcDbSpline
70
4
71
3
72
22
73
18
40
0
40
0
40
0
40
0
40
0.0624999999999996
40
0.0624999999999996
40
0.124999999999999
40
0.124999999999999
40
0.187499999999999
40
0.187499999999999
40
0.249999999999998
40
0.249999999999998
40
0.374999999999999
40
0.374999999999999
40
0.5
40
0.5
40
0.75
40
0.75
40
1
40
1
40
1
40
1
41
1
10
-35.4
20
3.31083107233354
30
0
41
1
10
-35.4
20
3.31155515665841
30
0
41
1
10
-35.4002593711603
20
3.31201248034759
30
0
41
1
10
-35.4012586213713
20
3.31243213920555
30
0
41
1
10
-35.4019982904561
20
3.31238918273684
30
0
41
1
10
-35.4038577960222
20
3.31186765877763
30
0
41
1
10
-35.4049815019166
20
3.31139071232718
30
0
41
1
10
-35.4075716365044
20
3.31005520113251
30
0
41
1
10
-35.4090489365252
20
3.30918922483892
30
0
41
1
10
-35.4138573413159
20
3.30612811500228
30
0
41
1
10
-35.4175572189291
20
3.30348397380465
30
0
41
1
10
-35.4257321189722
20
3.29725788078571
30
0
41
1
10
-35.4302443207473
20
3.29364223674833
30
0
41
1
10
-35.4443843974886
20
3.28191550287875
30
0
41
1
10
-35.4547260031623
20
3.27285536593109
30
0
41
1
10
-35.476826532951
20
3.25280909951056
30
0
41
1
10
-35.4882298632593
20
3.24214528910201
30
0
41
1
10
-35.5
20
3.23085164806869
30
0
0
SPLINE
5
10F
100
AcDbEntity
8
SK1
62
256
6
ByLayer
370
18
48
1
60
0
100
AcDbSpline
70
4
71
3
72
20
73
16
40
0
40
0
40
0
40
0
40
0.25
40
0.25
40
0.375
40
0.375
40
0.5
40
0.5
40
0.625
40
0.625
40
0.75
40
0.75
40
0.875
40
0.875
40
1
40
1
40
1
40
1
41
1
10
-35.5
20
2.69407476741799
30
0
41
1
10
-35.4882267853228
20
2.70537136178231
30
0
41
1
10
-35.4768284287078
20
2.71747228685206
30
0
41
1
10
-35.460270322179
20
2.73680618438814
30
0
41
1
10
-35.4548935789762
20
2.74339700306135
30
0
41
1
10
-35.4446281317026
20
2.75663452999328
30
0
41
1
10
-35.4397086144297
20
2.763316228901
30
0
41
1
10
-35.4303421404714
20
2.77681643438908
30
0
41
1
10
-35.4258783488616
20
2.78365957894536
30
0
41
1
10
-35.4176059338444
20
2.79740809843497
30
0
41
1
10
-35.4138878532275
20
2.80415838219048
30
0
41
1
10
-35.4074805084037
20
2.81734835326426
30
0
41
1
10
-35.4047944770761
20
2.82381127995745
30
0
41
1
10
-35.4010706922354
20
2.83561891577728
30
0
41
1
10
-35.4
20
2.84111274629922
30
0
41
1
10
-35.4
20
2.84562444243633
30
0
0
SPLINE
5
110
100
AcDbEntity
8
SK1
62
256
6
ByLayer
370
18
48
1
60
0
100
AcDbSpline
70
4
71
3
72
8
73
4
40
0
40
0
40
0
40
0
40
1
40
1
40
1
40
1
41
1
10
-36
20
2.21186182767167
30
0
41
1
10
-35.8338516982553
20
2.37307381063513
30
0
41
1
10
-35.6671031492036
20
2.53373652970467
30
0
41
1
10
-35.5
20
2.69407476741802
30
0
0
SPLINE
5
111
100
AcDbEntity
8
1
62
256
6
ByLayer
370
18
48
1
60
0
100
AcDbSpline
70
4
71
3
72
11
73
7
40
0
40
0
40
0
40
0
40
0.0043871386793863
40
0.388765112649611
40
0.725311715249834
40
1
40
1
40
1
40
1
41
1
10
42.2675316907027
20
0.424054163398267
30
0
41
1
10
42.2610316150415
20
0.425960246913917
30
0
41
1
10
41.6850780231875
20
0.595037838261931
30
0
41
1
10
40.6241254467384
20
0.960207967097318
30
0
41
1
10
39.1741536455391
20
1.47778211279197
30
0
41
1
10
38.2927219283796
20
1.81980146975991
30
0
41
1
10
37.8979843309131
20
1.97727419549955
30
0
0
SPLINE
5
112
100
AcDbEntity
8
1
62
256
6
ByLayer
370
18
48
1
60
0
100
AcDbSpline
70
4
71
3
72
20
73
16
40
0
40
0
40
0
40
0
40
0.123592355660656
40
0.236046212066931
40
0.325161692401064
40
0.39617321052188
40
0.467089759525077
40
0.561598736612724
40
0.661306794391325
40
0.719673988830398
40
0.769640358149349
40
0.819706063489282
40
0.88087789733148
40
0.956883174716762
40
1
40
1
40
1
40
1
41
1
10
21.4997747630107
20
-3.23334768601447
30
0
41
1
10
21.7870045260889
20
-3.23476402197537
30
0
41
1
10
22.3361256784275
20
-3.23697094870104
30
0
41
1
10
23.09477067897
20
-3.23751456289017
30
0
41
1
10
23.7306101378212
20
-3.23881432483449
30
0
41
1
10
24.26958065596
20
-3.24045161684455
30
0
41
1
10
24.8211318366668
20
-3.24117559524552
30
0
41
1
10
25.4396282676825
20
-3.24170294240113
30
0
41
1
10
26.0288447585465
20
-3.24458072669901
30
0
41
1
10
26.5141568911438
20
-3.24469259250418
30
0
41
1
10
26.8836699768749
20
-3.2445840995197
30
0
41
1
10
27.2596996523404
20
-3.24474730272615
30
0
41
1
10
27.6964917996156
20
-3.24586651852061
30
0
41
1
10
28.1170680765002
20
-3.24660083981291
30
0
41
1
10
28.3949617033697
20
-3.24737602170774
30
0
41
1
10
28.4955217229462
20
-3.24770902376503
30
0
0
SPLINE
5
113
100
AcDbEntity
8
1
62
256
6
ByLayer
370
18
48
1
60
0
100
AcDbSpline
70
4
71
3
72
15
73
11
40
0
40
0
40
0
40
0
40
0.180850740418398
40
0.330078621568406
40
0.447688119545558
40
0.534009760460703
40
0.622473586808562
40
0.735400701606623
40
0.872782255367157
40
1
40
1
40
1
40
1
41
1
10
22.1750055798778
20
-0.0672007975922213
30
0
41
1
10
21.8147175765041
20
0.0334017557370885
30
0
41
1
10
21.1590308609261
20
0.223462827064935
30
0
41
1
10
20.2743464101629
20
0.497368196506642
30
0
41
1
10
19.5795207455331
20
0.723383164920335
30
0
41
1
10
19.0060273875724
20
0.916781968830435
30
0
41
1
10
18.443296316195
20
1.11224304765261
30
0
41
1
10
17.7831400029744
20
1.34932789628024
30
0
41
1
10
17.050563322449
20
1.62237196966001
30
0
41
1
10
16.5400873812015
20
1.82158358251158
30
0
41
1
10
16.2952868456214
20
1.91907378936577
30
0
0
SPLINE
5
114
100
AcDbEntity
8
1
62
256
6
ByLayer
370
18
48
1
60
0
100
AcDbSpline
70
4
71
3
72
23
73
19
40
0
40
0
40
0
40
0
40
0.0836794063612259
40
0.146126779726265
40
0.190197161658275
40
0.237548611769183
40
0.292720317786651
40
0.348902332157717
40
0.401990721541438
40
0.446071817628606
40
0.490189579740673
40
0.541852290444913
40
0.631480182876467
40
0.716434605025947
40
0.78018171802046
40
0.844014199058918
40
0.924120389705114
40
1
40
1
40
1
40
1
41
1
10
30.3431725505473
20
3.24997480750903
30
0
41
1
10
30.1261165464168
20
3.25034949305973
30
0
41
1
10
29.7470619757584
20
3.2505993426858
30
0
41
1
10
29.2533583779565
20
3.25054926193039
30
0
41
1
10
28.8543351275939
20
3.24921594022194
30
0
41
1
10
28.4740905987536
20
3.24739309560587
30
0
41
1
10
28.0622268723816
20
3.24661474764682
30
0
41
1
10
27.635479216168
20
3.24567669716782
30
0
41
1
10
27.2375179525228
20
3.24472476113857
30
0
41
1
10
26.8708792088654
20
3.24458882284094
30
0
41
1
10
26.5079165251082
20
3.24469235657429
30
0
41
1
10
26.0267589297322
20
3.24457146179435
30
0
41
1
10
25.4396282727736
20
3.24170265554204
30
0
41
1
10
24.8211318356998
20
3.24117564973338
30
0
41
1
10
24.2695806561857
20
3.24045160412587
30
0
41
1
10
23.7306101377438
20
3.23881432919595
30
0
41
1
10
23.160179283504
20
3.23764826795551
30
0
41
1
10
22.7553245239003
20
3.23728340890662
30
0
41
1
10
22.558532125179
20
3.23695923816015
30
0
0
SPLINE
5
115
100
AcDbEntity
8
1
62
256
6
ByLayer
370
18
48
1
60
0
100
AcDbSpline
70
4
71
2
72
6
73
3
40
0
40
0
40
0
40
1
40
1
40
1
41
1
10
31.5813356469367
20
0.0019385076319907
30
0
41
1
10
31.5813222962277
20
0.0019451875373875
30
0
41
1
10
31.5813089454965
20
0.0019521248742649
30
0
0
LINE
5
82
100
AcDbEntity
8
4
62
256
6
ByLayer
370
18
48
0.05
60
0
100
AcDbLine
10
0
20
0
30
0
11
43
21
0
31
0
39
0
210
0
220
0
230
1
0
LINE
5
84
100
AcDbEntity
8
81
62
256
6
ByLayer
370
18
48
1
60
0
100
AcDbLine
10
43
20
0
30
0
11
46
21
0
31
0
39
0
210
0
220
0
230
1
0
LINE
5
85
100
AcDbEntity
8
80
62
256
6
ByLayer
370
18
48
1
60
0
100
AcDbLine
10
0
20
0
30
0
11
-3
21
0
31
0
39
0
210
0
220
0
230
1
0
LINE
5
86
100
AcDbEntity
8
SK4
62
256
6
ByLayer
370
18
48
0.05
60
0
100
AcDbLine
10
-39
20
0
30
0
11
46
21
0
31
0
39
0
210
0
220
0
230
1
0
LINE
5
88
100
AcDbEntity
8
1
62
256
6
ByLayer
370
18
48
1
60
0
100
AcDbLine
10
0
20
4
30
0
11
0
21
-4
31
0
39
0
210
0
220
0
230
1
0
LINE
5
89
100
AcDbEntity
8
1
62
256
6
ByLayer
370
13
48
1
60
0
100
AcDbLine
10
42.912313
20
0.363286
30
0
11
42.145639
21
1.13286
31
0
39
0
210
0
220
0
230
1
0
LINE
5
8A
100
AcDbEntity
8
1
62
256
6
ByLayer
370
18
48
1
60
0
100
AcDbLine
10
21.49984
20
-3.23349
30
0
11
21.499823
21
-3.234258
31
0
39
0
210
0
220
0
230
1
0
LINE
5
8B
100
AcDbEntity
8
1
62
256
6
ByLayer
370
13
48
1
60
0
100
AcDbLine
10
0.651988
20
-3.663585
30
0
11
0.651988
21
3.663585
31
0
39
0
210
0
220
0
230
1
0
LINE
5
8C
100
AcDbEntity
8
1
62
256
6
ByLayer
370
18
48
1
60
0
100
AcDbLine
10
21.399514
20
-3.363341
30
0
11
21.399514
21
-1.079014
31
0
39
0
210
0
220
0
230
1
0
LINE
5
8D
100
AcDbEntity
8
1
62
256
6
ByLayer
370
18
48
1
60
0
100
AcDbLine
10
21.399514
20
3.290035
30
0
11
21.399514
21
3.274438
31
0
39
0
210
0
220
0
230
1
0
LINE
5
8E
100
AcDbEntity
8
1
62
256
6
ByLayer
370
18
48
1
60
0
100
AcDbLine
10
21.399514
20
3.363341
30
0
11
21.399514
21
3.352321
31
0
39
0
210
0
220
0
230
1
0
LINE
5
8F
100
AcDbEntity
8
1
62
256
6
ByLayer
370
13
48
1
60
0
100
AcDbLine
10
1.305417
20
-3.327172
30
0
11
1.305417
21
3.327172
31
0
39
0
210
0
220
0
230
1
0
LINE
5
90
100
AcDbEntity
8
SK1
62
256
6
ByLayer
370
18
48
1
60
0
100
AcDbLine
10
-36
20
2.748639
30
0
11
-36
21
2.21182
31
0
39
0
210
0
220
0
230
1
0
LINE
5
92
100
AcDbEntity
8
SK1
62
256
6
ByLayer
370
13
48
1
60
0
100
AcDbLine
10
-35.5
20
2.693998
30
0
11
-35.5
21
3.230852
31
0
39
0
210
0
220
0
230
1
0
LINE
5
93
100
AcDbEntity
8
SK1
62
256
6
ByLayer
370
18
48
1
60
0
100
AcDbLine
10
0
20
4
30
0
11
0
21
-4
31
0
39
0
210
0
220
0
230
1
0
LINE
5
94
100
AcDbEntity
8
SK1
62
256
6
ByLayer
370
18
48
1
60
0
100
AcDbLine
10
-35.4
20
2.845624
30
0
11
-35.4
21
3.310831
31
0
39
0
210
0
220
0
230
1
0
LINE
5
95
100
AcDbEntity
8
SK1
62
256
6
ByLayer
370
18
48
1
60
0
100
AcDbLine
10
-36
20
-2.76
30
0
11
-36
21
2.211862
31
0
39
0
210
0
220
0
230
1
0
LINE
5
96
100
AcDbEntity
8
SK1
62
256
6
ByLayer
370
18
48
1
60
0
100
AcDbLine
10
-36
20
2.748639
30
0
11
-36
21
2.76
31
0
39
0
210
0
220
0
230
1
0
LINE
5
97
100
AcDbEntity
8
SK1
62
256
6
ByLayer
370
18
48
1
60
0
100
AcDbLine
10
-34.76
20
-4
30
0
11
-34.76
21
4
31
0
39
0
210
0
220
0
230
1
0
LINE
5
98
100
AcDbEntity
8
1
62
256
6
ByLayer
370
18
48
1
60
0
100
AcDbLine
10
1.305417
20
-3.327172
30
0
11
10.97757
21
-3.344582
31
0
39
0
210
0
220
0
230
1
0
LINE
5
99
100
AcDbEntity
8
1
62
256
6
ByLayer
370
18
48
1
60
0
100
AcDbLine
10
19.805881
20
-3.360473
30
0
11
21.399514
21
-3.363341
31
0
39
0
210
0
220
0
230
1
0
LINE
5
9A
100
AcDbEntity
8
1
62
256
6
ByLayer
370
18
48
1
60
0
100
AcDbLine
10
30.342457
20
-3.379438
30
0
11
31.34567
21
-3.381244
31
0
39
0
210
0
220
0
230
1
0
LINE
5
9B
100
AcDbEntity
8
1
62
256
6
ByLayer
370
18
48
1
60
0
100
AcDbLine
10
31.34567
20
3.381244
30
0
11
30.342457
21
3.379438
31
0
39
0
210
0
220
0
230
1
0
LINE
5
9C
100
AcDbEntity
8
1
62
256
6
ByLayer
370
18
48
1
60
0
100
AcDbLine
10
21.399514
20
3.363341
30
0
11
19.805881
21
3.360473
31
0
39
0
210
0
220
0
230
1
0
LINE
5
9D
100
AcDbEntity
8
1
62
256
6
ByLayer
370
18
48
1
60
0
100
AcDbLine
10
10.97757
20
3.344582
30
0
11
1.305417
21
3.327172
31
0
39
0
210
0
220
0
230
1
0
LINE
5
9E
100
AcDbEntity
8
SK1
62
256
6
ByLayer
370
18
48
1
60
0
100
AcDbLine
10
-34.76
20
-4
30
0
11
0
21
-4
31
0
39
0
210
0
220
0
230
1
0
LINE
5
9F
100
AcDbEntity
8
SK1
62
256
6
ByLayer
370
18
48
1
60
0
100
AcDbLine
10
0
20
4
30
0
11
-34.76
21
4
31
0
39
0
210
0
220
0
230
1
0
LINE
5
A0
100
AcDbEntity
8
SK1
62
256
6
ByLayer
370
18
48
1
60
0
100
AcDbLine
10
-36
20
-2.76
30
0
11
-34.76
21
-4
31
0
39
0
210
0
220
0
230
1
0
LINE
5
A1
100
AcDbEntity
8
SK1
62
256
6
ByLayer
370
18
48
1
60
0
100
AcDbLine
10
-34.76
20
4
30
0
11
-36
21
2.76
31
0
39
0
210
0
220
0
230
1
0
LINE
5
A2
100
AcDbEntity
8
2
62
256
6
ByLayer
370
13
48
1
60
0
100
AcDbLine
10
50.5
20
27.699084
30
0
11
50.5
21
-10.9
31
0
39
0
210
0
220
0
230
1
0
LINE
5
A4
100
AcDbEntity
8
2
62
256
6
ByLayer
370
13
48
1
60
0
100
AcDbLine
10
44.5875
20
3.4
30
0
11
52.5
21
3.4
31
0
39
0
210
0
220
0
230
1
0
LINE
5
A5
100
AcDbEntity
8
2
62
256
6
ByLayer
370
13
48
1
60
0
100
AcDbLine
10
44.5875
20
-3.4
30
0
11
52.5
21
-3.4
31
0
39
0
210
0
220
0
230
1
0
LINE
5
A6
100
AcDbEntity
8
1
62
256
6
ByLayer
370
18
48
1
60
1
100
AcDbLine
10
50.5
20
3.4
30
0
11
50.039216
21
6.899998
31
0
39
0
210
0
220
0
230
1
0
LINE
5
A7
100
AcDbEntity
8
1
62
256
6
ByLayer
370
18
48
1
60
1
100
AcDbLine
10
50.039216
20
6.899998
30
0
11
50.960784
21
6.900002
31
0
39
0
210
0
220
0
230
1
0
LINE
5
A8
100
AcDbEntity
8
1
62
256
6
ByLayer
370
18
48
1
60
1
100
AcDbLine
10
50.960784
20
6.900002
30
0
11
50.5
21
3.4
31
0
39
0
210
0
220
0
230
1
0
LINE
5
A9
100
AcDbEntity
8
1
62
256
6
ByLayer
370
18
48
1
60
1
100
AcDbLine
10
50.5
20
-3.4
30
0
11
50.960784
21
-6.899998
31
0
39
0
210
0
220
0
230
1
0
LINE
5
AA
100
AcDbEntity
8
1
62
256
6
ByLayer
370
18
48
1
60
1
100
AcDbLine
10
50.960784
20
-6.899998
30
0
11
50.039216
21
-6.900002
31
0
39
0
210
0
220
0
230
1
0
LINE
5
AB
100
AcDbEntity
8
1
62
256
6
ByLayer
370
18
48
1
60
1
100
AcDbLine
10
50.039216
20
-6.900002
30
0
11
50.5
21
-3.4
31
0
39
0
210
0
220
0
230
1
0
LINE
5
AC
100
AcDbEntity
8
SK2
62
256
6
ByLayer
370
13
48
1
60
0
100
AcDbLine
10
-44.5
20
-4
30
0
11
-44.5
21
13.841828
31
0
39
0
210
0
220
0
230
1
0
LINE
5
AE
100
AcDbEntity
8
SK2
62
256
6
ByLayer
370
13
48
1
60
0
100
AcDbLine
10
-37.5875
20
4
30
0
11
-46.5
21
4
31
0
39
0
210
0
220
0
230
1
0
LINE
5
AF
100
AcDbEntity
8
SK2
62
256
6
ByLayer
370
13
48
1
60
0
100
AcDbLine
10
-37.5875
20
-4
30
0
11
-46.5
21
-4
31
0
39
0
210
0
220
0
230
1
0
LINE
5
B0
100
AcDbEntity
8
1
62
256
6
ByLayer
370
18
48
1
60
1
100
AcDbLine
10
-44.5
20
4
30
0
11
-44.039216
21
0.500002
31
0
39
0
210
0
220
0
230
1
0
LINE
5
B1
100
AcDbEntity
8
1
62
256
6
ByLayer
370
18
48
1
60
1
100
AcDbLine
10
-44.039216
20
0.500002
30
0
11
-44.960784
21
0.499998
31
0
39
0
210
0
220
0
230
1
0
LINE
5
B2
100
AcDbEntity
8
1
62
256
6
ByLayer
370
18
48
1
60
1
100
AcDbLine
10
-44.960784
20
0.499998
30
0
11
-44.5
21
4
31
0
39
0
210
0
220
0
230
1
0
LINE
5
B3
100
AcDbEntity
8
1
62
256
6
ByLayer
370
18
48
1
60
1
100
AcDbLine
10
-44.5
20
-4
30
0
11
-44.960784
21
-0.500002
31
0
39
0
210
0
220
0
230
1
0
LINE
5
B4
100
AcDbEntity
8
1
62
256
6
ByLayer
370
18
48
1
60
1
100
AcDbLine
10
-44.960784
20
-0.500002
30
0
11
-44.039216
21
-0.499998
31
0
39
0
210
0
220
0
230
1
0
LINE
5
B5
100
AcDbEntity
8
1
62
256
6
ByLayer
370
18
48
1
60
1
100
AcDbLine
10
-44.039216
20
-0.499998
30
0
11
-44.5
21
-4
31
0
39
0
210
0
220
0
230
1
0
LINE
5
B6
100
AcDbEntity
8
SK2
62
256
6
ByLayer
370
13
48
1
60
0
100
AcDbLine
10
43.542764
20
1.491832
30
0
11
50.147949
21
19.646747
31
0
39
0
210
0
220
0
230
1
0
LINE
5
B7
100
AcDbEntity
8
SK2
62
256
6
ByLayer
370
13
48
1
60
0
100
AcDbLine
10
43.542764
20
-1.491832
30
0
11
50.147949
21
-19.646747
31
0
39
0
210
0
220
0
230
1
0
LINE
5
B8
100
AcDbEntity
8
1
62
256
6
ByLayer
370
18
48
1
60
1
100
AcDbLine
10
49.464152
20
17.767273
30
0
11
52.871874
21
16.845458
31
0
39
0
210
0
220
0
230
1
0
LINE
5
B9
100
AcDbEntity
8
1
62
256
6
ByLayer
370
18
48
1
60
1
100
AcDbLine
10
52.871874
20
16.845458
30
0
11
52.517178
21
15.994883
31
0
39
0
210
0
220
0
230
1
0
LINE
5
BA
100
AcDbEntity
8
1
62
256
6
ByLayer
370
18
48
1
60
1
100
AcDbLine
10
52.517178
20
15.994883
30
0
11
49.464152
21
17.767273
31
0
39
0
210
0
220
0
230
1
0
LINE
5
BB
100
AcDbEntity
8
1
62
256
6
ByLayer
370
18
48
1
60
1
100
AcDbLine
10
49.464152
20
-17.767273
30
0
11
52.517175
21
-15.994884
31
0
39
0
210
0
220
0
230
1
0
LINE
5
BC
100
AcDbEntity
8
1
62
256
6
ByLayer
370
18
48
1
60
1
100
AcDbLine
10
52.517175
20
-15.994884
30
0
11
52.871877
21
-16.845457
31
0
39
0
210
0
220
0
230
1
0
LINE
5
BD
100
AcDbEntity
8
1
62
256
6
ByLayer
370
18
48
1
60
1
100
AcDbLine
10
52.871877
20
-16.845457
30
0
11
49.464152
21
-17.767273
31
0
39
0
210
0
220
0
230
1
0
LINE
5
116
100
AcDbEntity
8
1
62
256
6
ByLayer
370
13
48
0.05
60
0
100
AcDbLine
10
-42.5
20
0
30
0
11
48.251105
21
0
31
0
39
0
210
0
220
0
230
1
0
LINE
5
11B
100
AcDbEntity
8
1
62
256
6
ByLayer
370
18
48
1
60
1
100
AcDbLine
10
50.5
20
3.4
30
0
11
50.039216
21
6.899998
31
0
39
0
210
0
220
0
230
1
0
LINE
5
11C
100
AcDbEntity
8
1
62
256
6
ByLayer
370
18
48
1
60
1
100
AcDbLine
10
50.039216
20
6.899998
30
0
11
50.960784
21
6.900002
31
0
39
0
210
0
220
0
230
1
0
LINE
5
11D
100
AcDbEntity
8
1
62
256
6
ByLayer
370
18
48
1
60
1
100
AcDbLine
10
50.960784
20
6.900002
30
0
11
50.5
21
3.4
31
0
39
0
210
0
220
0
230
1
0
LINE
5
11F
100
AcDbEntity
8
1
62
256
6
ByLayer
370
18
48
1
60
1
100
AcDbLine
10
50.5
20
-3.4
30
0
11
50.960784
21
-6.899998
31
0
39
0
210
0
220
0
230
1
0
LINE
5
120
100
AcDbEntity
8
1
62
256
6
ByLayer
370
18
48
1
60
1
100
AcDbLine
10
50.960784
20
-6.899998
30
0
11
50.039216
21
-6.900002
31
0
39
0
210
0
220
0
230
1
0
LINE
5
121
100
AcDbEntity
8
1
62
256
6
ByLayer
370
18
48
1
60
1
100
AcDbLine
10
50.039216
20
-6.900002
30
0
11
50.5
21
-3.4
31
0
39
0
210
0
220
0
230
1
0
LINE
5
125
100
AcDbEntity
8
1
62
256
6
ByLayer
370
18
48
1
60
1
100
AcDbLine
10
-44.5
20
4
30
0
11
-44.039216
21
0.500002
31
0
39
0
210
0
220
0
230
1
0
LINE
5
126
100
AcDbEntity
8
1
62
256
6
ByLayer
370
18
48
1
60
1
100
AcDbLine
10
-44.039216
20
0.500002
30
0
11
-44.960784
21
0.499998
31
0
39
0
210
0
220
0
230
1
0
LINE
5
127
100
AcDbEntity
8
1
62
256
6
ByLayer
370
18
48
1
60
1
100
AcDbLine
10
-44.960784
20
0.499998
30
0
11
-44.5
21
4
31
0
39
0
210
0
220
0
230
1
0
LINE
5
129
100
AcDbEntity
8
1
62
256
6
ByLayer
370
18
48
1
60
1
100
AcDbLine
10
-44.5
20
-4
30
0
11
-44.960784
21
-0.500002
31
0
39
0
210
0
220
0
230
1
0
LINE
5
12A
100
AcDbEntity
8
1
62
256
6
ByLayer
370
18
48
1
60
1
100
AcDbLine
10
-44.960784
20
-0.500002
30
0
11
-44.039216
21
-0.499998
31
0
39
0
210
0
220
0
230
1
0
LINE
5
12B
100
AcDbEntity
8
1
62
256
6
ByLayer
370
18
48
1
60
1
100
AcDbLine
10
-44.039216
20
-0.499998
30
0
11
-44.5
21
-4
31
0
39
0
210
0
220
0
230
1
0
LINE
5
12E
100
AcDbEntity
8
1
62
256
6
ByLayer
370
18
48
1
60
1
100
AcDbLine
10
49.464152
20
17.767273
30
0
11
52.871874
21
16.845458
31
0
39
0
210
0
220
0
230
1
0
LINE
5
12F
100
AcDbEntity
8
1
62
256
6
ByLayer
370
18
48
1
60
1
100
AcDbLine
10
52.871874
20
16.845458
30
0
11
52.517178
21
15.994883
31
0
39
0
210
0
220
0
230
1
0
LINE
5
130
100
AcDbEntity
8
1
62
256
6
ByLayer
370
18
48
1
60
1
100
AcDbLine
10
52.517178
20
15.994883
30
0
11
49.464152
21
17.767273
31
0
39
0
210
0
220
0
230
1
0
LINE
5
132
100
AcDbEntity
8
1
62
256
6
ByLayer
370
18
48
1
60
1
100
AcDbLine
10
49.464152
20
-17.767273
30
0
11
52.517175
21
-15.994884
31
0
39
0
210
0
220
0
230
1
0
LINE
5
133
100
AcDbEntity
8
1
62
256
6
ByLayer
370
18
48
1
60
1
100
AcDbLine
10
52.517175
20
-15.994884
30
0
11
52.871877
21
-16.845457
31
0
39
0
210
0
220
0
230
1
0
LINE
5
134
100
AcDbEntity
8
1
62
256
6
ByLayer
370
18
48
1
60
1
100
AcDbLine
10
52.871877
20
-16.845457
30
0
11
49.464152
21
-17.767273
31
0
39
0
210
0
220
0
230
1
0
MTEXT
5
117
100
AcDbEntity
8
2
62
256
6
ByLayer
370
18
48
1
60
0
100
AcDbMText
10
49.158886
20
17.058438
30
0
210
0
220
0
230
1
1
%%c
40
3
41
0
44
1.084337
50
90
71
7
72
5
7
iso_b_vert
0
MTEXT
5
11A
100
AcDbEntity
8
2
62
256
6
ByLayer
370
18
48
1
60
0
100
AcDbMText
10
49.158886
20
23.035
30
0
210
0
220
0
230
1
1
\W0.7121;6.8
40
3
41
0
44
1.084337
50
90
71
7
72
5
7
iso_b_vert
0
MTEXT
5
123
100
AcDbEntity
8
SK2
62
256
6
ByLayer
370
18
48
1
60
0
100
AcDbMText
10
-45.841114
20
6.658437
30
0
210
0
220
0
230
1
1
%%c
40
3
41
0
44
1.084337
50
90
71
7
72
5
7
iso_b_vert
0
MTEXT
5
124
100
AcDbEntity
8
SK2
62
256
6
ByLayer
370
18
48
1
60
0
100
AcDbMText
10
-45.841114
20
12.635
30
0
210
0
220
0
230
1
1
\W0.5404;8
40
3
41
0
44
1.084337
50
90
71
7
72
5
7
iso_b_vert
0
MTEXT
5
12D
100
AcDbEntity
8
SK2
62
256
6
ByLayer
370
18
48
1
60
0
100
AcDbMText
10
58.465989
20
-2.114886
30
0
210
0
220
0
230
1
1
\W0.7071;140%%d
40
3
41
0
44
1.084337
50
0
71
7
72
5
7
iso_b_vert
0
MTEXT
5
136
100
AcDbEntity
8
SK6
62
256
6
ByLayer
370
18
48
1
60
0
100
AcDbMText
10
-20.962502
20
-46.761228
30
0
210
0
220
0
230
1
1
\W0.7415;860.1-0680-021A1-SD S2BM
40
3
41
0
44
1.084337
50
0
71
7
72
5
7
iso_b_vert
0
HATCH
5
11E
100
AcDbEntity
8
2
62
256
6
ByLayer
370
13
48
1
60
0
100
AcDbHatch
10
0
20
0
30
0
210
0
220
0
230
1
2
ANSI31
70
0
71
0
91
1
92
5
93
3
72
1
10
50.5
20
3.40000000000001
11
50.0392162584472
21
6.89999830744682
72
1
10
50.0392162584472
20
6.89999830744682
11
50.9607837415528
21
6.90000169255319
72
1
10
50.9607837415528
20
6.90000169255319
11
50.5
21
3.40000000000001
97
0
75
0
76
1
52
0
41
0.0062
77
0
78
1
53
45
43
0
44
0
45
-0.0139193969876572
46
0.0139193969876572
79
0
47
0
98
1
10
0
20
0
0
HATCH
5
122
100
AcDbEntity
8
2
62
256
6
ByLayer
370
13
48
1
60
0
100
AcDbHatch
10
0
20
0
30
0
210
0
220
0
230
1
2
ANSI31
70
0
71
0
91
1
92
5
93
3
72
1
10
50.5
20
-3.40000000000001
11
50.9607837415528
21
-6.89999830744682
72
1
10
50.9607837415528
20
-6.89999830744682
11
50.0392162584472
21
-6.90000169255319
72
1
10
50.0392162584472
20
-6.90000169255319
11
50.5
21
-3.40000000000001
97
0
75
0
76
1
52
0
41
0.0062
77
0
78
1
53
45
43
0
44
0
45
-0.0139193969876572
46
0.0139193969876572
79
0
47
0
98
1
10
0
20
0
0
HATCH
5
128
100
AcDbEntity
8
SK2
62
256
6
ByLayer
370
13
48
1
60
0
100
AcDbHatch
10
0
20
0
30
0
210
0
220
0
230
1
2
ANSI31
70
0
71
0
91
1
92
5
93
3
72
1
10
-44.5
20
4
11
-44.0392162584472
21
0.500001692553184
72
1
10
-44.0392162584472
20
0.500001692553184
11
-44.9607837415528
21
0.499998307446816
72
1
10
-44.9607837415528
20
0.499998307446816
11
-44.5
21
4
97
0
75
0
76
1
52
0
41
0.0062
77
0
78
1
53
45
43
0
44
0
45
-0.0139193969876572
46
0.0139193969876572
79
0
47
0
98
1
10
0
20
0
0
HATCH
5
12C
100
AcDbEntity
8
SK2
62
256
6
ByLayer
370
13
48
1
60
0
100
AcDbHatch
10
0
20
0
30
0
210
0
220
0
230
1
2
ANSI31
70
0
71
0
91
1
92
5
93
3
72
1
10
-44.5
20
-4
11
-44.9607837415528
21
-0.500001692553184
72
1
10
-44.9607837415528
20
-0.500001692553184
11
-44.0392162584472
21
-0.499998307446816
72
1
10
-44.0392162584472
20
-0.499998307446816
11
-44.5
21
-4
97
0
75
0
76
1
52
0
41
0.0062
77
0
78
1
53
45
43
0
44
0
45
-0.0139193969876572
46
0.0139193969876572
79
0
47
0
98
1
10
0
20
0
0
HATCH
5
131
100
AcDbEntity
8
SK2
62
256
6
ByLayer
370
13
48
1
60
0
100
AcDbHatch
10
0
20
0
30
0
210
0
220
0
230
1
2
ANSI31
70
0
71
0
91
1
92
5
93
3
72
1
10
49.4641520191488
20
17.7672731326652
11
52.871873601275
21
16.8454578435095
72
1
10
52.871873601275
20
16.8454578435095
11
52.5171778537263
21
15.9948830069432
72
1
10
52.5171778537263
20
15.9948830069432
11
49.4641520191488
21
17.7672731326652
97
0
75
0
76
1
52
0
41
0.0062
77
0
78
1
53
45
43
0
44
0
45
-0.0139193969876572
46
0.0139193969876572
79
0
47
0
98
1
10
0
20
0
0
HATCH
5
135
100
AcDbEntity
8
SK2
62
256
6
ByLayer
370
13
48
1
60
0
100
AcDbHatch
10
0
20
0
30
0
210
0
220
0
230
1
2
ANSI31
70
0
71
0
91
1
92
5
93
3
72
1
10
49.4641520191488
20
-17.7672731326652
11
52.5171747293952
21
-15.9948843098248
72
1
10
52.5171747293952
20
-15.9948843098248
11
52.871876725606
21
-16.8454565406277
72
1
10
52.871876725606
20
-16.8454565406277
11
49.4641520191488
21
-17.7672731326652
97
0
75
0
76
1
52
0
41
0.0062
77
0
78
1
53
45
43
0
44
0
45
-0.0139193969876572
46
0.0139193969876572
79
0
47
0
98
1
10
0
20
0
0
DIMENSION
5
139
100
AcDbEntity
8
SK2
62
256
6
ByLayer
370
18
48
1
60
0
100
AcDbDimension
2
_U0
10
21.4
20
-19.907742
30
0
11
32.2
21
-19.907742
31
0
70
32
71
1
72
1
41
1
210
0
220
0
230
1
3
Standard
100
AcDbAlignedDimension
13
43
23
-3.4
33
0
14
21.4
24
-3.4
34
0
50
0
100
AcDbRotatedDimension
1001
ACAD
1000
DSTYLE
1002
{
1070
   371
1070
    13
1070
   372
1070
    13
1070
   170
1070
     0
1070
   144
1040
1.0
1070
   277
1070
     2
1070
   284
1070
     8
1070
   278
1070
    46
1070
   146
1040
1.166667
1070
   345
1005
16
1070
   347
1005
16
1070
   346
1005
16
1070
   344
1005
0
1070
   343
1005
0
1070
   172
1070
     1
1070
    76
1070
     0
1070
    75
1070
     0
1070
   282
1070
     0
1070
   281
1070
     0
1070
     3
1000

1070
    71
1070
     0
1070
    74
1070
     0
1070
   279
1070
     0
1070
   173
1070
     1
1070
   340
1005
118
1070
   271
1070
     2
1070
   272
1070
     2
1070
    77
1070
     1
1070
    73
1070
     1
1070
   171
1070
     3
1070
   274
1070
     4
1070
   177
1070
     2
1070
   176
1070
     2
1070
   178
1070
     2
1070
    78
1070
     8
1070
    48
1040
-0.1
1070
    41
1040
3.5
1070
   147
1040
1.5
1070
    42
1040
1.5875
1070
    44
1040
2.0
1070
   140
1040
3.0
1002
}
1001
ACAD_DSTYLE_DIM_LINETYPE
1070
   380
1005
16
1001
ACAD_DSTYLE_DIM_EXT1_LINETYPE
1070
   381
1005
16
1001
ACAD_DSTYLE_DIM_EXT2_LINETYPE
1070
   382
1005
16
0
DIMENSION
5
154
100
AcDbEntity
8
SK2
62
256
6
ByLayer
370
18
48
1
60
0
100
AcDbDimension
2
_U1
10
9
20
-29.907742
30
0
11
26
21
-29.907742
31
0
70
32
71
1
72
1
41
1
210
0
220
0
230
1
3
Standard
100
AcDbAlignedDimension
13
43
23
-3.4
33
0
14
9
24
-3.4
34
0
50
0
100
AcDbRotatedDimension
1001
ACAD
1000
DSTYLE
1002
{
1070
   371
1070
    13
1070
   372
1070
    13
1070
     3
1000

1070
   170
1070
     0
1070
   144
1040
1.0
1070
   277
1070
     2
1070
   284
1070
     8
1070
   278
1070
    46
1070
   146
1040
1.166667
1070
   345
1005
16
1070
   347
1005
16
1070
   346
1005
16
1070
   344
1005
0
1070
   343
1005
0
1070
   172
1070
     1
1070
    76
1070
     0
1070
    75
1070
     0
1070
   282
1070
     0
1070
   281
1070
     0
1070
    71
1070
     0
1070
    74
1070
     0
1070
   279
1070
     0
1070
   173
1070
     1
1070
   340
1005
118
1070
   271
1070
     2
1070
   272
1070
     2
1070
    77
1070
     1
1070
    73
1070
     1
1070
   171
1070
     3
1070
   274
1070
     4
1070
   177
1070
     2
1070
   176
1070
     2
1070
   178
1070
     2
1070
    78
1070
     8
1070
    48
1040
-0.1
1070
    41
1040
3.5
1070
   147
1040
1.5
1070
    42
1040
1.5875
1070
    44
1040
2.0
1070
   140
1040
3.0
1002
}
1001
ACAD_DSTYLE_DIM_LINETYPE
1070
   380
1005
16
1001
ACAD_DSTYLE_DIM_EXT1_LINETYPE
1070
   381
1005
16
1001
ACAD_DSTYLE_DIM_EXT2_LINETYPE
1070
   382
1005
16
0
DIMENSION
5
16C
100
AcDbEntity
8
SK2
62
256
6
ByLayer
370
18
48
1
60
0
100
AcDbDimension
2
_U2
10
0
20
-37.907742
30
0
11
-18
21
-37.907742
31
0
70
32
71
1
72
1
41
1
210
0
220
0
230
1
3
Standard
100
AcDbAlignedDimension
13
-36
23
-4
33
0
14
0
24
-4
34
0
50
0
100
AcDbRotatedDimension
1001
ACAD
1000
DSTYLE
1002
{
1070
   371
1070
    13
1070
   372
1070
    13
1070
     3
1000

1070
   170
1070
     0
1070
   144
1040
1.0
1070
   277
1070
     2
1070
   284
1070
     8
1070
   278
1070
    46
1070
   146
1040
1.166667
1070
   345
1005
16
1070
   347
1005
16
1070
   346
1005
16
1070
   344
1005
0
1070
   343
1005
0
1070
   172
1070
     1
1070
    76
1070
     0
1070
    75
1070
     0
1070
   282
1070
     0
1070
   281
1070
     0
1070
    71
1070
     0
1070
    74
1070
     0
1070
   279
1070
     0
1070
   173
1070
     1
1070
   340
1005
118
1070
   271
1070
     2
1070
   272
1070
     2
1070
    77
1070
     1
1070
    73
1070
     1
1070
   171
1070
     3
1070
   274
1070
     4
1070
   177
1070
     2
1070
   176
1070
     2
1070
   178
1070
     2
1070
    78
1070
     8
1070
    48
1040
-0.1
1070
    41
1040
3.5
1070
   147
1040
1.5
1070
    42
1040
1.5875
1070
    44
1040
2.0
1070
   140
1040
3.0
1002
}
1001
ACAD_DSTYLE_DIM_LINETYPE
1070
   380
1005
16
1001
ACAD_DSTYLE_DIM_EXT1_LINETYPE
1070
   381
1005
16
1001
ACAD_DSTYLE_DIM_EXT2_LINETYPE
1070
   382
1005
16
0
DIMENSION
5
184
100
AcDbEntity
8
SK2
62
256
6
ByLayer
370
18
48
1
60
0
100
AcDbDimension
2
_U3
10
43
20
-45.907742
30
0
11
3.5
21
-45.907742
31
0
70
32
71
1
72
1
41
1
210
0
220
0
230
1
3
Standard
100
AcDbAlignedDimension
13
-36
23
-4
33
0
14
43
24
-3.4
34
0
50
0
100
AcDbRotatedDimension
1001
ACAD
1000
DSTYLE
1002
{
1070
   371
1070
    13
1070
   372
1070
    13
1070
     3
1000

1070
   170
1070
     0
1070
   144
1040
1.0
1070
   277
1070
     2
1070
   284
1070
     8
1070
   278
1070
    46
1070
   146
1040
1.166667
1070
   345
1005
16
1070
   347
1005
16
1070
   346
1005
16
1070
   344
1005
0
1070
   343
1005
0
1070
   172
1070
     1
1070
    76
1070
     0
1070
    75
1070
     0
1070
   282
1070
     0
1070
   281
1070
     0
1070
    71
1070
     0
1070
    74
1070
     0
1070
   279
1070
     0
1070
   173
1070
     1
1070
   340
1005
118
1070
   271
1070
     2
1070
   272
1070
     2
1070
    77
1070
     1
1070
    73
1070
     1
1070
   171
1070
     3
1070
   274
1070
     4
1070
   177
1070
     2
1070
   176
1070
     2
1070
   178
1070
     2
1070
    78
1070
     8
1070
    48
1040
-0.1
1070
    41
1040
3.5
1070
   147
1040
1.5
1070
    42
1040
1.5875
1070
    44
1040
2.0
1070
   140
1040
3.0
1002
}
1001
ACAD_DSTYLE_DIM_LINETYPE
1070
   380
1005
16
1001
ACAD_DSTYLE_DIM_EXT1_LINETYPE
1070
   381
1005
16
1001
ACAD_DSTYLE_DIM_EXT2_LINETYPE
1070
   382
1005
16
0
DIMENSION
5
19C
100
AcDbEntity
8
2
62
256
6
ByLayer
370
18
48
1
60
0
100
AcDbDimension
2
_U4
10
0
20
-37.907742
30
0
11
21.5
21
-37.907742
31
0
70
32
71
1
72
1
41
1
210
0
220
0
230
1
3
Standard
100
AcDbAlignedDimension
13
43
23
-3.4
33
0
14
0
24
-3.4
34
0
50
0
100
AcDbRotatedDimension
1001
ACAD
1000
DSTYLE
1002
{
1070
   371
1070
    13
1070
   372
1070
    13
1070
     3
1000

1070
   170
1070
     0
1070
   144
1040
1.0
1070
   277
1070
     2
1070
   284
1070
     8
1070
   278
1070
    46
1070
   146
1040
1.166667
1070
   345
1005
16
1070
   347
1005
16
1070
   346
1005
16
1070
   344
1005
0
1070
   343
1005
0
1070
   172
1070
     1
1070
    76
1070
     0
1070
    75
1070
     0
1070
   282
1070
     0
1070
   281
1070
     0
1070
    71
1070
     0
1070
    74
1070
     0
1070
   279
1070
     0
1070
   173
1070
     1
1070
   340
1005
118
1070
   271
1070
     2
1070
   272
1070
     2
1070
    77
1070
     1
1070
    73
1070
     1
1070
   171
1070
     3
1070
   274
1070
     4
1070
   177
1070
     2
1070
   176
1070
     2
1070
   178
1070
     2
1070
    78
1070
     8
1070
    48
1040
-0.1
1070
    41
1040
3.5
1070
   147
1040
1.5
1070
    42
1040
1.5875
1070
    44
1040
2.0
1070
   140
1040
3.0
1002
}
1001
ACAD_DSTYLE_DIM_LINETYPE
1070
   380
1005
16
1001
ACAD_DSTYLE_DIM_EXT1_LINETYPE
1070
   381
1005
16
1001
ACAD_DSTYLE_DIM_EXT2_LINETYPE
1070
   382
1005
16
0
ENDSEC
0
SECTION
2
OBJECTS
0
DICTIONARY
5
224
330
0
100
AcDbDictionary
280
0
281
1
3
ACAD_GROUP
350
225
3
ACAD_MLINESTYLE
350
226
0
DICTIONARY
5
225
330
0
100
AcDbDictionary
280
0
281
1
0
DICTIONARY
5
226
330
0
100
AcDbDictionary
280
0
281
1
3
Standard
350
18
0
MLINESTYLE
5
18
330
226
100
AcDbMlineStyle
2
Standard
70
0
3

62
256
51
90
52
90
71
2
49
-0.5
62
256
6
ByLayer
49
0.5
62
256
6
ByLayer
0
RASTERVARIABLES
5
212
330

100
AcDbRasterVariables
90
0
70
1
71
1
72
1
0
ENDSEC
0
EOF
