0
SECTION
2
HEADER
9
$ACADVER
1
AC1015
9
$DWGCODEPAGE
3
ANSI_1252
9
$HANDSEED
5
250
9
$ANGBASE
50
0
9
$ANGDIR
70
0
9
$ATTMODE
70
1
9
$AUNITS
70
0
9
$AUPREC
70
0
9
$CECOLOR
62
256
9
$CELTSCALE
40
1
9
$CELTYPE
6
ByLayer
9
$CELWEIGHT
370
18
9
$CLAYER
8
0
9
$CMLJUST
70
0
9
$CMLSCALE
40
1
9
$CMLSTYLE
2
Standard
9
$DIMSTYLE
2
Standard
9
$TEXTSIZE
40
0.2
9
$TEXTSTYLE
7
Standard
9
$LUNITS
70
2
9
$LUPREC
70
4
9
$EXTNAMES
290
1
9
$INSUNITS
70
4
9
$LTSCALE
40
1
9
$LWDISPLAY
290
1
9
$PDMODE
70
0
9
$PDSIZE
40
0
9
$PLINEGEN
70
0
0
ENDSEC
0
SECTION
2
CLASSES
0
CLASS
1
RASTERVARIABLES
2
AcDbRasterVariables
3
ISM
90
0
280
0
281
0
0
ENDSEC
0
SECTION
2
TABLES
0
TABLE
2
VPORT
5
246
100
AcDbSymbolTable
0
VPORT
5
1
100
AcDbSymbolTableRecord
100
AcDbViewportTableRecord
2
*Active
70
0
10
0
20
0
11
1
21
1
12
-1
22
1
13
0
23
0
14
0.5
24
0.5
15
10
25
10
16
0
26
0
36
1
17
0
27
0
37
0
0
ENDTAB
0
TABLE
2
LTYPE
5
247
100
AcDbSymbolTable
0
LTYPE
5
14
100
AcDbSymbolTableRecord
100
AcDbLinetypeTableRecord
70
0
2
ByBlock
3

72
65
73
0
40
0
0
LTYPE
5
15
100
AcDbSymbolTableRecord
100
AcDbLinetypeTableRecord
70
0
2
ByLayer
3

72
65
73
0
40
0
0
LTYPE
5
16
100
AcDbSymbolTableRecord
100
AcDbLinetypeTableRecord
70
0
2
Continuous
3
Solid line
72
65
73
0
40
0
0
LTYPE
5
6E
100
AcDbSymbolTableRecord
100
AcDbLinetypeTableRecord
70
0
2
CENTER
3
____ _ ____ _ ____ _ ____
72
65
73
4
40
47.5
49
22
74
0
49
-8.5
74
0
49
8.5
74
0
49
-8.5
74
0
0
LTYPE
5
6F
100
AcDbSymbolTableRecord
100
AcDbLinetypeTableRecord
70
0
2
DASHED
3
__ __ __ __ __ __ __ __ __
72
65
73
2
40
25.72
49
12.86
74
0
49
-12.86
74
0
0
ENDTAB
0
TABLE
2
LAYER
5
248
100
AcDbSymbolTable
0
LAYER
5
10
100
AcDbSymbolTableRecord
100
AcDbLayerTableRecord
2
0
70
0
62
7
6
Continuous
290
1
370
-3
390
0
0
LAYER
5
71
100
AcDbSymbolTableRecord
100
AcDbLayerTableRecord
2
80
70
0
62
-6
6
Continuous
290
1
370
-3
390
0
0
LAYER
5
73
100
AcDbSymbolTableRecord
100
AcDbLayerTableRecord
2
81
70
0
62
-3
6
Continuous
290
1
370
-3
390
0
0
LAYER
5
75
100
AcDbSymbolTableRecord
100
AcDbLayerTableRecord
2
1
70
0
62
4
6
Continuous
290
1
370
-3
390
0
0
LAYER
5
83
100
AcDbSymbolTableRecord
100
AcDbLayerTableRecord
2
4
70
0
62
-2
6
CENTER
290
1
370
-3
390
0
0
LAYER
5
A6
100
AcDbSymbolTableRecord
100
AcDbLayerTableRecord
2
2
70
0
62
7
6
Continuous
290
1
370
-3
390
0
0
LAYER
5
15B
100
AcDbSymbolTableRecord
100
AcDbLayerTableRecord
2
Defpoints
70
0
62
7
6
Continuous
290
0
370
-3
390
0
0
LAYER
5
232
100
AcDbSymbolTableRecord
100
AcDbLayerTableRecord
2
SK4
70
0
62
2
6
CENTER
290
1
370
-3
390
0
0
LAYER
5
233
100
AcDbSymbolTableRecord
100
AcDbLayerTableRecord
2
SK1
70
0
62
4
6
Continuous
290
1
370
-3
390
0
0
LAYER
5
234
100
AcDbSymbolTableRecord
100
AcDbLayerTableRecord
2
SK2
70
0
62
7
6
Continuous
290
1
370
-3
390
0
0
LAYER
5
235
100
AcDbSymbolTableRecord
100
AcDbLayerTableRecord
2
SK6
70
0
62
5
6
Continuous
290
1
370
-3
390
0
0
ENDTAB
0
TABLE
2
STYLE
5
249
100
AcDbSymbolTable
0
STYLE
5
11
100
AcDbSymbolTableRecord
100
AcDbTextStyleTableRecord
2
Standard
3
txt
70
0
71
0
40
0
41
1
42
0
50
0
0
STYLE
5
137
100
AcDbSymbolTableRecord
100
AcDbTextStyleTableRecord
2
iso_b_vert
3
simplex.shx
70
0
71
0
40
0
41
1
42
0
50
0
0
STYLE
5
138
100
AcDbSymbolTableRecord
100
AcDbTextStyleTableRecord
2
DWGDirectTextStyle
3
simplex
70
0
71
0
40
0
41
1
42
0
50
0
0
ENDTAB
0
TABLE
2
DIMSTYLE
5
24a
100
AcDbSymbolTable
100
AcDbDimStyleTable
0
DIMSTYLE
105
27
100
AcDbSymbolTableRecord
100
AcDbDimStyleTableRecord
2
Standard
70
0
3
<>
41
0.18
42
0.0625
44
0.18
140
0.18
147
0.09
73
0
74
0
77
1
271
2
275
0
278
52
280
0
340
11
0
ENDTAB
0
TABLE
2
VIEW
5
24b
100
AcDbSymbolTable
0
ENDTAB
0
TABLE
2
UCS
5
24c
100
AcDbSymbolTable
0
ENDTAB
0
TABLE
2
APPID
5
24d
100
AcDbSymbolTable
0
APPID
5
12
100
AcDbSymbolTableRecord
100
AcDbRegAppTableRecord
2
ACAD
70
0
0
APPID
5
157
100
AcDbSymbolTableRecord
100
AcDbRegAppTableRecord
2
ACAD_DSTYLE_DIMBREAK
70
0
0
APPID
5
1F1
100
AcDbSymbolTableRecord
100
AcDbRegAppTableRecord
2
ACAD_DSTYLE_DIM_LINETYPE
70
0
0
APPID
5
1F2
100
AcDbSymbolTableRecord
100
AcDbRegAppTableRecord
2
ACAD_DSTYLE_DIM_EXT1_LINETYPE
70
0
0
APPID
5
1F3
100
AcDbSymbolTableRecord
100
AcDbRegAppTableRecord
2
ACAD_DSTYLE_DIM_EXT2_LINETYPE
70
0
0
APPID
5
22E
100
AcDbSymbolTableRecord
100
AcDbRegAppTableRecord
2
ACAD_MLEADERVER
70
0
0
ENDTAB
0
TABLE
2
BLOCK_RECORD
5
24e
100
AcDbSymbolTable
0
BLOCK_RECORD
5
1F
100
AcDbSymbolTableRecord
100
AcDbBlockTableRecord
2
*Model_Space
340
0
70
0
0
BLOCK_RECORD
5
1B
100
AcDbSymbolTableRecord
100
AcDbBlockTableRecord
2
*Paper_Space
340
0
70
0
0
BLOCK_RECORD
5
23
100
AcDbSymbolTableRecord
100
AcDbBlockTableRecord
2
*Paper_Space0
340
0
70
0
0
BLOCK_RECORD
5
15C
100
AcDbSymbolTableRecord
100
AcDbBlockTableRecord
2
*D1
340
0
70
0
0
BLOCK_RECORD
5
168
100
AcDbSymbolTableRecord
100
AcDbBlockTableRecord
2
_U0
340
0
70
0
0
BLOCK_RECORD
5
176
100
AcDbSymbolTableRecord
100
AcDbBlockTableRecord
2
*D3
340
0
70
0
0
BLOCK_RECORD
5
182
100
AcDbSymbolTableRecord
100
AcDbBlockTableRecord
2
_U1
340
0
70
0
0
BLOCK_RECORD
5
18E
100
AcDbSymbolTableRecord
100
AcDbBlockTableRecord
2
*D5
340
0
70
0
0
BLOCK_RECORD
5
19A
100
AcDbSymbolTableRecord
100
AcDbBlockTableRecord
2
_U2
340
0
70
0
0
BLOCK_RECORD
5
1A6
100
AcDbSymbolTableRecord
100
AcDbBlockTableRecord
2
*D7
340
0
70
0
0
BLOCK_RECORD
5
1B2
100
AcDbSymbolTableRecord
100
AcDbBlockTableRecord
2
_U3
340
0
70
0
0
BLOCK_RECORD
5
1BE
100
AcDbSymbolTableRecord
100
AcDbBlockTableRecord
2
*D9
340
0
70
0
0
BLOCK_RECORD
5
1CA
100
AcDbSymbolTableRecord
100
AcDbBlockTableRecord
2
_U4
340
0
70
0
0
ENDTAB
0
ENDSEC
0
SECTION
2
BLOCKS
0
BLOCK
5
20
100
AcDbEntity
8
0
100
AcDbBlockBegin
2
*Model_Space
70
0
10
0
20
0
30
0
3
*Model_Space
0
ENDBLK
5
21
100
AcDbEntity
8
0
100
AcDbBlockEnd
0
BLOCK
5
1C
100
AcDbEntity
8
0
100
AcDbBlockBegin
2
*Paper_Space
70
0
10
0
20
0
30
0
3
*Paper_Space
0
ENDBLK
5
1D
100
AcDbEntity
8
0
100
AcDbBlockEnd
0
BLOCK
5
24
100
AcDbEntity
8
0
100
AcDbBlockBegin
2
*Paper_Space0
70
0
10
0
20
0
30
0
3
*Paper_Space0
0
ENDBLK
5
25
100
AcDbEntity
8
0
100
AcDbBlockEnd
0
BLOCK
5
15D
100
AcDbEntity
8
0
100
AcDbBlockBegin
2
*D1
70
1
10
0
20
0
30
0
3
*D1
0
LINE
5
15F
100
AcDbEntity
8
0
62
256
6
ByLayer
370
-2
48
1
60
0
100
AcDbLine
10
55
20
-5.1595
30
0
11
55
21
-86.173948
31
0
39
0
210
0
220
0
230
1
0
LINE
5
160
100
AcDbEntity
8
0
62
256
6
ByLayer
370
-2
48
1
60
0
100
AcDbLine
10
18
20
-5.1595
30
0
11
18
21
-86.173948
31
0
39
0
210
0
220
0
230
1
0
LINE
5
161
100
AcDbEntity
8
0
62
256
6
ByLayer
370
-2
48
1
60
0
100
AcDbLine
10
51.5
20
-84.173948
30
0
11
21.5
21
-84.173948
31
0
39
0
210
0
220
0
230
1
0
SOLID
5
162
100
AcDbEntity
8
0
62
256
6
ByLayer
370
-1
48
1
60
0
100
AcDbTrace
10
51.5
20
-84.757281
30
0
11
51.5
21
-83.590614
31
0
12
55
22
-84.173948
32
0
13
55
23
-84.173948
33
0
39
0
210
0
220
0
230
1
0
SOLID
5
163
100
AcDbEntity
8
0
62
256
6
ByLayer
370
-1
48
1
60
0
100
AcDbTrace
10
21.5
20
-83.590614
30
0
11
21.5
21
-84.757281
31
0
12
18
22
-84.173948
32
0
13
18
23
-84.173948
33
0
39
0
210
0
220
0
230
1
0
MTEXT
5
164
100
AcDbEntity
8
0
62
256
6
ByLayer
370
18
48
1
60
0
100
AcDbMText
10
36.5
20
-78.173948
30
0
210
0
220
0
230
1
1
\A1;37
40
3
41
0
44
1
50
0
71
5
72
5
7
iso_b_vert
0
POINT
5
165
100
AcDbEntity
8
Defpoints
62
0
6
ByLayer
370
-1
48
1
60
0
100
AcDbPoint
10
55
20
-3.572
30
0
39
0
210
0
220
0
230
1
50
360
0
POINT
5
166
100
AcDbEntity
8
Defpoints
62
0
6
ByLayer
370
-1
48
1
60
0
100
AcDbPoint
10
18
20
-3.572
30
0
39
0
210
0
220
0
230
1
50
360
0
POINT
5
167
100
AcDbEntity
8
Defpoints
62
0
6
ByLayer
370
-1
48
1
60
0
100
AcDbPoint
10
18
20
-84.173948
30
0
39
0
210
0
220
0
230
1
50
360
0
ENDBLK
5
15E
100
AcDbEntity
8
0
100
AcDbBlockEnd
0
BLOCK
5
171
100
AcDbEntity
8
0
100
AcDbBlockBegin
2
_U0
70
0
10
0
20
0
30
0
3
_U0
0
MTEXT
5
169
100
AcDbEntity
8
SK2
62
256
6
ByLayer
370
18
48
1
60
0
100
AcDbMText
10
34.867172
20
-81.976333
30
0
210
0
220
0
230
1
1
\W0.6740;37
40
3
41
0
44
1.084337
50
0
71
7
72
5
7
iso_b_vert
0
MTEXT
5
16A
100
AcDbEntity
8
SK2
62
256
6
ByLayer
370
18
48
1
60
0
100
AcDbMText
10
32.767172
20
-81.976333
30
0
210
0
220
0
230
1
1
\W1.1313;{\H1.88x;(}
40
3
41
0
44
1.084337
50
0
71
7
72
5
7
iso_b_vert
0
MTEXT
5
16B
100
AcDbEntity
8
SK2
62
256
6
ByLayer
370
18
48
1
60
0
100
AcDbMText
10
38.450828
20
-81.976333
30
0
210
0
220
0
230
1
1
\W1.1313;{\H1.88x;)}
40
3
41
0
44
1.084337
50
0
71
7
72
5
7
iso_b_vert
0
LINE
5
16C
100
AcDbEntity
8
SK2
62
256
6
ByLayer
370
13
48
1
60
0
100
AcDbLine
10
55
20
-5.1595
30
0
11
55
21
-86.173948
31
0
39
0
210
0
220
0
230
1
0
LINE
5
16D
100
AcDbEntity
8
SK2
62
256
6
ByLayer
370
13
48
1
60
0
100
AcDbLine
10
18
20
-5.1595
30
0
11
18
21
-86.173948
31
0
39
0
210
0
220
0
230
1
0
LINE
5
16E
100
AcDbEntity
8
SK2
62
256
6
ByLayer
370
13
48
1
60
0
100
AcDbLine
10
55
20
-84.173948
30
0
11
18
21
-84.173948
31
0
39
0
210
0
220
0
230
1
0
SOLID
5
16F
100
AcDbEntity
8
SK2
62
256
6
ByLayer
370
18
48
1
60
0
100
AcDbTrace
10
55
20
-84.173948
30
0
11
51.500002
21
-84.634731
31
0
12
51.499998
22
-83.713164
32
0
13
51.499998
23
-83.713164
33
0
39
0
210
0
220
0
230
1
0
SOLID
5
170
100
AcDbEntity
8
SK2
62
256
6
ByLayer
370
18
48
1
60
0
100
AcDbTrace
10
18
20
-84.173948
30
0
11
21.499998
21
-83.713164
31
0
12
21.500002
22
-84.634731
32
0
13
21.500002
23
-84.634731
33
0
39
0
210
0
220
0
230
1
0
ENDBLK
5
172
100
AcDbEntity
8
0
100
AcDbBlockEnd
0
BLOCK
5
177
100
AcDbEntity
8
0
100
AcDbBlockBegin
2
*D3
70
1
10
0
20
0
30
0
3
*D3
0
LINE
5
179
100
AcDbEntity
8
0
62
256
6
ByLayer
370
-2
48
1
60
0
100
AcDbLine
10
55
20
-5.1595
30
0
11
55
21
-96.173948
31
0
39
0
210
0
220
0
230
1
0
LINE
5
17A
100
AcDbEntity
8
0
62
256
6
ByLayer
370
-2
48
1
60
0
100
AcDbLine
10
2
20
-5.1595
30
0
11
2
21
-96.173948
31
0
39
0
210
0
220
0
230
1
0
LINE
5
17B
100
AcDbEntity
8
0
62
256
6
ByLayer
370
-2
48
1
60
0
100
AcDbLine
10
51.5
20
-94.173948
30
0
11
5.5
21
-94.173948
31
0
39
0
210
0
220
0
230
1
0
SOLID
5
17C
100
AcDbEntity
8
0
62
256
6
ByLayer
370
-1
48
1
60
0
100
AcDbTrace
10
51.5
20
-94.757281
30
0
11
51.5
21
-93.590614
31
0
12
55
22
-94.173948
32
0
13
55
23
-94.173948
33
0
39
0
210
0
220
0
230
1
0
SOLID
5
17D
100
AcDbEntity
8
0
62
256
6
ByLayer
370
-1
48
1
60
0
100
AcDbTrace
10
5.5
20
-93.590614
30
0
11
5.5
21
-94.757281
31
0
12
2
22
-94.173948
32
0
13
2
23
-94.173948
33
0
39
0
210
0
220
0
230
1
0
MTEXT
5
17E
100
AcDbEntity
8
0
62
256
6
ByLayer
370
18
48
1
60
0
100
AcDbMText
10
28.5
20
-88.173948
30
0
210
0
220
0
230
1
1
\A1;53
40
3
41
0
44
1
50
0
71
5
72
5
7
iso_b_vert
0
POINT
5
17F
100
AcDbEntity
8
Defpoints
62
0
6
ByLayer
370
-1
48
1
60
0
100
AcDbPoint
10
55
20
-3.572
30
0
39
0
210
0
220
0
230
1
50
360
0
POINT
5
180
100
AcDbEntity
8
Defpoints
62
0
6
ByLayer
370
-1
48
1
60
0
100
AcDbPoint
10
2
20
-3.572
30
0
39
0
210
0
220
0
230
1
50
360
0
POINT
5
181
100
AcDbEntity
8
Defpoints
62
0
6
ByLayer
370
-1
48
1
60
0
100
AcDbPoint
10
2
20
-94.173948
30
0
39
0
210
0
220
0
230
1
50
360
0
ENDBLK
5
178
100
AcDbEntity
8
0
100
AcDbBlockEnd
0
BLOCK
5
189
100
AcDbEntity
8
0
100
AcDbBlockBegin
2
_U1
70
0
10
0
20
0
30
0
3
_U1
0
MTEXT
5
183
100
AcDbEntity
8
SK2
62
256
6
ByLayer
370
18
48
1
60
0
100
AcDbMText
10
26.867172
20
-93.288833
30
0
210
0
220
0
230
1
1
\W0.6740;53
40
3
41
0
44
1.084337
50
0
71
7
72
5
7
iso_b_vert
0
LINE
5
184
100
AcDbEntity
8
SK2
62
256
6
ByLayer
370
13
48
1
60
0
100
AcDbLine
10
55
20
-5.1595
30
0
11
55
21
-96.173948
31
0
39
0
210
0
220
0
230
1
0
LINE
5
185
100
AcDbEntity
8
SK2
62
256
6
ByLayer
370
13
48
1
60
0
100
AcDbLine
10
2
20
-5.1595
30
0
11
2
21
-96.173948
31
0
39
0
210
0
220
0
230
1
0
LINE
5
186
100
AcDbEntity
8
SK2
62
256
6
ByLayer
370
13
48
1
60
0
100
AcDbLine
10
55
20
-94.173948
30
0
11
2
21
-94.173948
31
0
39
0
210
0
220
0
230
1
0
SOLID
5
187
100
AcDbEntity
8
SK2
62
256
6
ByLayer
370
18
48
1
60
0
100
AcDbTrace
10
55
20
-94.173948
30
0
11
51.500002
21
-94.634731
31
0
12
51.499998
22
-93.713164
32
0
13
51.499998
23
-93.713164
33
0
39
0
210
0
220
0
230
1
0
SOLID
5
188
100
AcDbEntity
8
SK2
62
256
6
ByLayer
370
18
48
1
60
0
100
AcDbTrace
10
2
20
-94.173948
30
0
11
5.499998
21
-93.713164
31
0
12
5.500002
22
-94.634731
32
0
13
5.500002
23
-94.634731
33
0
39
0
210
0
220
0
230
1
0
ENDBLK
5
18A
100
AcDbEntity
8
0
100
AcDbBlockEnd
0
BLOCK
5
18F
100
AcDbEntity
8
0
100
AcDbBlockBegin
2
*D5
70
1
10
0
20
0
30
0
3
*D5
0
LINE
5
191
100
AcDbEntity
8
0
62
256
6
ByLayer
370
-2
48
1
60
0
100
AcDbLine
10
-36
20
-5.5875
30
0
11
-36
21
-104.173948
31
0
39
0
210
0
220
0
230
1
0
LINE
5
192
100
AcDbEntity
8
0
62
256
6
ByLayer
370
-2
48
1
60
0
100
AcDbLine
10
0
20
-5.5875
30
0
11
0
21
-104.173948
31
0
39
0
210
0
220
0
230
1
0
LINE
5
193
100
AcDbEntity
8
0
62
256
6
ByLayer
370
-2
48
1
60
0
100
AcDbLine
10
-32.5
20
-102.173948
30
0
11
-3.5
21
-102.173948
31
0
39
0
210
0
220
0
230
1
0
SOLID
5
194
100
AcDbEntity
8
0
62
256
6
ByLayer
370
-1
48
1
60
0
100
AcDbTrace
10
-32.5
20
-101.590614
30
0
11
-32.5
21
-102.757281
31
0
12
-36
22
-102.173948
32
0
13
-36
23
-102.173948
33
0
39
0
210
0
220
0
230
1
0
SOLID
5
195
100
AcDbEntity
8
0
62
256
6
ByLayer
370
-1
48
1
60
0
100
AcDbTrace
10
-3.5
20
-102.757281
30
0
11
-3.5
21
-101.590614
31
0
12
0
22
-102.173948
32
0
13
0
23
-102.173948
33
0
39
0
210
0
220
0
230
1
0
MTEXT
5
196
100
AcDbEntity
8
0
62
256
6
ByLayer
370
18
48
1
60
0
100
AcDbMText
10
-18
20
-96.173948
30
0
210
0
220
0
230
1
1
\A1;36
40
3
41
0
44
1
50
0
71
5
72
5
7
iso_b_vert
0
POINT
5
197
100
AcDbEntity
8
Defpoints
62
0
6
ByLayer
370
-1
48
1
60
0
100
AcDbPoint
10
-36
20
-4
30
0
39
0
210
0
220
0
230
1
50
360
0
POINT
5
198
100
AcDbEntity
8
Defpoints
62
0
6
ByLayer
370
-1
48
1
60
0
100
AcDbPoint
10
0
20
-4
30
0
39
0
210
0
220
0
230
1
50
360
0
POINT
5
199
100
AcDbEntity
8
Defpoints
62
0
6
ByLayer
370
-1
48
1
60
0
100
AcDbPoint
10
0
20
-102.173948
30
0
39
0
210
0
220
0
230
1
50
360
0
ENDBLK
5
190
100
AcDbEntity
8
0
100
AcDbBlockEnd
0
BLOCK
5
1A1
100
AcDbEntity
8
0
100
AcDbBlockBegin
2
_U2
70
0
10
0
20
0
30
0
3
_U2
0
MTEXT
5
19B
100
AcDbEntity
8
SK2
62
256
6
ByLayer
370
18
48
1
60
0
100
AcDbMText
10
-19.632828
20
-101.288833
30
0
210
0
220
0
230
1
1
\W0.6740;36
40
3
41
0
44
1.084337
50
0
71
7
72
5
7
iso_b_vert
0
LINE
5
19C
100
AcDbEntity
8
SK2
62
256
6
ByLayer
370
13
48
1
60
0
100
AcDbLine
10
-36
20
-5.5875
30
0
11
-36
21
-104.173948
31
0
39
0
210
0
220
0
230
1
0
LINE
5
19D
100
AcDbEntity
8
SK2
62
256
6
ByLayer
370
13
48
1
60
0
100
AcDbLine
10
0
20
-5.5875
30
0
11
0
21
-104.173948
31
0
39
0
210
0
220
0
230
1
0
LINE
5
19E
100
AcDbEntity
8
SK2
62
256
6
ByLayer
370
13
48
1
60
0
100
AcDbLine
10
-36
20
-102.173948
30
0
11
0
21
-102.173948
31
0
39
0
210
0
220
0
230
1
0
SOLID
5
19F
100
AcDbEntity
8
SK2
62
256
6
ByLayer
370
18
48
1
60
0
100
AcDbTrace
10
-36
20
-102.173948
30
0
11
-32.500002
21
-101.713164
31
0
12
-32.499998
22
-102.634731
32
0
13
-32.499998
23
-102.634731
33
0
39
0
210
0
220
0
230
1
0
SOLID
5
1A0
100
AcDbEntity
8
SK2
62
256
6
ByLayer
370
18
48
1
60
0
100
AcDbTrace
10
0
20
-102.173948
30
0
11
-3.499998
21
-102.634731
31
0
12
-3.500002
22
-101.713164
32
0
13
-3.500002
23
-101.713164
33
0
39
0
210
0
220
0
230
1
0
ENDBLK
5
1A2
100
AcDbEntity
8
0
100
AcDbBlockEnd
0
BLOCK
5
1A7
100
AcDbEntity
8
0
100
AcDbBlockBegin
2
*D7
70
1
10
0
20
0
30
0
3
*D7
0
LINE
5
1A9
100
AcDbEntity
8
0
62
256
6
ByLayer
370
-2
48
1
60
0
100
AcDbLine
10
-36
20
-5.5875
30
0
11
-36
21
-112.173948
31
0
39
0
210
0
220
0
230
1
0
LINE
5
1AA
100
AcDbEntity
8
0
62
256
6
ByLayer
370
-2
48
1
60
0
100
AcDbLine
10
55
20
-5.1595
30
0
11
55
21
-112.173948
31
0
39
0
210
0
220
0
230
1
0
LINE
5
1AB
100
AcDbEntity
8
0
62
256
6
ByLayer
370
-2
48
1
60
0
100
AcDbLine
10
-32.5
20
-110.173948
30
0
11
51.5
21
-110.173948
31
0
39
0
210
0
220
0
230
1
0
SOLID
5
1AC
100
AcDbEntity
8
0
62
256
6
ByLayer
370
-1
48
1
60
0
100
AcDbTrace
10
-32.5
20
-109.590614
30
0
11
-32.5
21
-110.757281
31
0
12
-36
22
-110.173948
32
0
13
-36
23
-110.173948
33
0
39
0
210
0
220
0
230
1
0
SOLID
5
1AD
100
AcDbEntity
8
0
62
256
6
ByLayer
370
-1
48
1
60
0
100
AcDbTrace
10
51.5
20
-110.757281
30
0
11
51.5
21
-109.590614
31
0
12
55
22
-110.173948
32
0
13
55
23
-110.173948
33
0
39
0
210
0
220
0
230
1
0
MTEXT
5
1AE
100
AcDbEntity
8
0
62
256
6
ByLayer
370
18
48
1
60
0
100
AcDbMText
10
9.5
20
-104.173948
30
0
210
0
220
0
230
1
1
\A1;91
40
3
41
0
44
1
50
0
71
5
72
5
7
iso_b_vert
0
POINT
5
1AF
100
AcDbEntity
8
Defpoints
62
0
6
ByLayer
370
-1
48
1
60
0
100
AcDbPoint
10
-36
20
-4
30
0
39
0
210
0
220
0
230
1
50
360
0
POINT
5
1B0
100
AcDbEntity
8
Defpoints
62
0
6
ByLayer
370
-1
48
1
60
0
100
AcDbPoint
10
55
20
-3.572
30
0
39
0
210
0
220
0
230
1
50
360
0
POINT
5
1B1
100
AcDbEntity
8
Defpoints
62
0
6
ByLayer
370
-1
48
1
60
0
100
AcDbPoint
10
55
20
-110.173948
30
0
39
0
210
0
220
0
230
1
50
360
0
ENDBLK
5
1A8
100
AcDbEntity
8
0
100
AcDbBlockEnd
0
BLOCK
5
1B9
100
AcDbEntity
8
0
100
AcDbBlockBegin
2
_U3
70
0
10
0
20
0
30
0
3
_U3
0
MTEXT
5
1B3
100
AcDbEntity
8
SK2
62
256
6
ByLayer
370
18
48
1
60
0
100
AcDbMText
10
8.242115
20
-109.288833
30
0
210
0
220
0
230
1
1
\W0.6351;91
40
3
41
0
44
1.084337
50
0
71
7
72
5
7
iso_b_vert
0
LINE
5
1B4
100
AcDbEntity
8
SK2
62
256
6
ByLayer
370
13
48
1
60
0
100
AcDbLine
10
-36
20
-5.5875
30
0
11
-36
21
-112.173948
31
0
39
0
210
0
220
0
230
1
0
LINE
5
1B5
100
AcDbEntity
8
SK2
62
256
6
ByLayer
370
13
48
1
60
0
100
AcDbLine
10
55
20
-5.1595
30
0
11
55
21
-112.173948
31
0
39
0
210
0
220
0
230
1
0
LINE
5
1B6
100
AcDbEntity
8
SK2
62
256
6
ByLayer
370
13
48
1
60
0
100
AcDbLine
10
-36
20
-110.173948
30
0
11
55
21
-110.173948
31
0
39
0
210
0
220
0
230
1
0
SOLID
5
1B7
100
AcDbEntity
8
SK2
62
256
6
ByLayer
370
18
48
1
60
0
100
AcDbTrace
10
-36
20
-110.173948
30
0
11
-32.500002
21
-109.713164
31
0
12
-32.499998
22
-110.634731
32
0
13
-32.499998
23
-110.634731
33
0
39
0
210
0
220
0
230
1
0
SOLID
5
1B8
100
AcDbEntity
8
SK2
62
256
6
ByLayer
370
18
48
1
60
0
100
AcDbTrace
10
55
20
-110.173948
30
0
11
51.500002
21
-110.634731
31
0
12
51.499998
22
-109.713164
32
0
13
51.499998
23
-109.713164
33
0
39
0
210
0
220
0
230
1
0
ENDBLK
5
1BA
100
AcDbEntity
8
0
100
AcDbBlockEnd
0
BLOCK
5
1BF
100
AcDbEntity
8
0
100
AcDbBlockBegin
2
*D9
70
1
10
0
20
0
30
0
3
*D9
0
LINE
5
1C1
100
AcDbEntity
8
0
62
256
6
ByLayer
370
-2
48
1
60
0
100
AcDbLine
10
55
20
-5.1595
30
0
11
55
21
-104.173948
31
0
39
0
210
0
220
0
230
1
0
LINE
5
1C2
100
AcDbEntity
8
0
62
256
6
ByLayer
370
-2
48
1
60
0
100
AcDbLine
10
0
20
-5.1595
30
0
11
0
21
-104.173948
31
0
39
0
210
0
220
0
230
1
0
LINE
5
1C3
100
AcDbEntity
8
0
62
256
6
ByLayer
370
-2
48
1
60
0
100
AcDbLine
10
51.5
20
-102.173948
30
0
11
3.5
21
-102.173948
31
0
39
0
210
0
220
0
230
1
0
SOLID
5
1C4
100
AcDbEntity
8
0
62
256
6
ByLayer
370
-1
48
1
60
0
100
AcDbTrace
10
51.5
20
-102.757281
30
0
11
51.5
21
-101.590614
31
0
12
55
22
-102.173948
32
0
13
55
23
-102.173948
33
0
39
0
210
0
220
0
230
1
0
SOLID
5
1C5
100
AcDbEntity
8
0
62
256
6
ByLayer
370
-1
48
1
60
0
100
AcDbTrace
10
3.5
20
-101.590614
30
0
11
3.5
21
-102.757281
31
0
12
0
22
-102.173948
32
0
13
0
23
-102.173948
33
0
39
0
210
0
220
0
230
1
0
MTEXT
5
1C6
100
AcDbEntity
8
0
62
256
6
ByLayer
370
18
48
1
60
0
100
AcDbMText
10
27.5
20
-96.173948
30
0
210
0
220
0
230
1
1
\A1;55
40
3
41
0
44
1
50
0
71
5
72
5
7
iso_b_vert
0
POINT
5
1C7
100
AcDbEntity
8
Defpoints
62
0
6
ByLayer
370
-1
48
1
60
0
100
AcDbPoint
10
55
20
-3.572
30
0
39
0
210
0
220
0
230
1
50
360
0
POINT
5
1C8
100
AcDbEntity
8
Defpoints
62
0
6
ByLayer
370
-1
48
1
60
0
100
AcDbPoint
10
0
20
-3.572
30
0
39
0
210
0
220
0
230
1
50
360
0
POINT
5
1C9
100
AcDbEntity
8
Defpoints
62
0
6
ByLayer
370
-1
48
1
60
0
100
AcDbPoint
10
0
20
-102.173948
30
0
39
0
210
0
220
0
230
1
50
360
0
ENDBLK
5
1C0
100
AcDbEntity
8
0
100
AcDbBlockEnd
0
BLOCK
5
1D1
100
AcDbEntity
8
0
100
AcDbBlockBegin
2
_U4
70
0
10
0
20
0
30
0
3
_U4
0
MTEXT
5
1CB
100
AcDbEntity
8
2
62
256
6
ByLayer
370
18
48
1
60
0
100
AcDbMText
10
25.867172
20
-101.288833
30
0
210
0
220
0
230
1
1
\W0.6740;55
40
3
41
0
44
1.084337
50
0
71
7
72
5
7
iso_b_vert
0
LINE
5
1CC
100
AcDbEntity
8
2
62
256
6
ByLayer
370
13
48
1
60
0
100
AcDbLine
10
55
20
-5.1595
30
0
11
55
21
-104.173948
31
0
39
0
210
0
220
0
230
1
0
LINE
5
1CD
100
AcDbEntity
8
2
62
256
6
ByLayer
370
13
48
1
60
0
100
AcDbLine
10
0
20
-5.1595
30
0
11
0
21
-104.173948
31
0
39
0
210
0
220
0
230
1
0
LINE
5
1CE
100
AcDbEntity
8
2
62
256
6
ByLayer
370
13
48
1
60
0
100
AcDbLine
10
55
20
-102.173948
30
0
11
0
21
-102.173948
31
0
39
0
210
0
220
0
230
1
0
SOLID
5
1CF
100
AcDbEntity
8
2
62
256
6
ByLayer
370
18
48
1
60
0
100
AcDbTrace
10
55
20
-102.173948
30
0
11
51.500002
21
-102.634731
31
0
12
51.499998
22
-101.713164
32
0
13
51.499998
23
-101.713164
33
0
39
0
210
0
220
0
230
1
0
SOLID
5
1D0
100
AcDbEntity
8
2
62
256
6
ByLayer
370
18
48
1
60
0
100
AcDbTrace
10
0
20
-102.173948
30
0
11
3.499998
21
-101.713164
31
0
12
3.500002
22
-102.634731
32
0
13
3.500002
23
-102.634731
33
0
39
0
210
0
220
0
230
1
0
ENDBLK
5
1D2
100
AcDbEntity
8
0
100
AcDbBlockEnd
0
ENDSEC
0
SECTION
2
ENTITIES
0
ARC
5
C1
100
AcDbEntity
8
1
62
256
6
ByLayer
370
18
48
1
60
0
100
AcDbCircle
39
0
10
1.182822
20
-4.277465
30
0
40
0.8
210
0
220
0
230
1
100
AcDbArc
50
89.896868
51
137.668758
0
ARC
5
C2
100
AcDbEntity
8
1
62
256
6
ByLayer
370
18
48
1
60
0
100
AcDbCircle
39
0
10
1.182822
20
4.277465
30
0
40
0.8
210
0
220
0
230
1
100
AcDbArc
50
222.331242
51
270.103132
0
ARC
5
C3
100
AcDbEntity
8
1
62
256
6
ByLayer
370
18
48
1
60
0
100
AcDbCircle
39
0
10
0
20
-3.2
30
0
40
0.799999999999995
210
0
220
0
230
1
100
AcDbArc
50
270
51
317.668758
0
ARC
5
C4
100
AcDbEntity
8
1
62
256
6
ByLayer
370
18
48
1
60
0
100
AcDbCircle
39
0
10
0
20
3.2
30
0
40
0.799999999999995
210
0
220
0
230
1
100
AcDbArc
50
42.331242
51
90
0
ARC
5
C5
100
AcDbEntity
8
SK2
62
256
6
ByLayer
370
13
48
1
60
0
100
AcDbCircle
39
0
10
55
20
0
30
0
40
19.3959413561739
210
0
220
0
230
1
100
AcDbArc
50
8.897747
51
70.00144
0
ARC
5
C6
100
AcDbEntity
8
SK2
62
256
6
ByLayer
370
13
48
1
60
0
100
AcDbCircle
39
0
10
55
20
0
30
0
40
19.3959413561739
210
0
220
0
230
1
100
AcDbArc
50
289.99856
51
351.102253
0
ELLIPSE
5
C7
100
AcDbEntity
8
1
62
256
6
ByLayer
370
13
48
1
60
0
100
AcDbEllipse
10
8.224459
20
57.666564
30
0
11
-54.6762710611701
21
51.3014944260945
31
0
210
0
220
0
230
1
40
0.632622
41
2.06362861744091
42
2.09787749591588
0
ELLIPSE
5
C8
100
AcDbEntity
8
1
62
256
6
ByLayer
370
13
48
1
60
0
100
AcDbEllipse
10
8.221729
20
57.663655
30
0
11
-54.6788911935215
21
51.3039528363447
31
0
210
0
220
0
230
1
40
0.632622
41
2.0634994639546
42
2.10331964862084
0
ELLIPSE
5
C9
100
AcDbEntity
8
1
62
256
6
ByLayer
370
13
48
1
60
0
100
AcDbEllipse
10
8.192979
20
57.633013
30
0
11
-54.6802548851103
21
51.3052323569682
31
0
210
0
220
0
230
1
40
0.632622
41
2.06235889604338
42
2.18247051748341
0
ELLIPSE
5
CA
100
AcDbEntity
8
1
62
256
6
ByLayer
370
13
48
1
60
0
100
AcDbEllipse
10
8.190415
20
57.63028
30
0
11
-54.6778513586285
21
51.3029771830506
31
0
210
0
220
0
230
1
40
0.632622
41
2.06227831098886
42
2.18732284706869
0
ELLIPSE
5
CB
100
AcDbEntity
8
1
62
256
6
ByLayer
370
18
48
1
60
0
100
AcDbEllipse
10
19.37991
20
3.475172
30
0
11
-0.1
21
1.22460635382238E-17
31
0
210
0
220
0
230
1
40
1
41
0.00143856945247346
42
1.59830522559039
0
POINT
5
70
100
AcDbEntity
8
80
62
256
6
ByLayer
370
18
48
1
60
0
100
AcDbPoint
10
0
20
0
30
0
39
0
210
0
220
0
230
1
50
360
0
POINT
5
72
100
AcDbEntity
8
81
62
256
6
ByLayer
370
18
48
1
60
0
100
AcDbPoint
10
55
20
0
30
0
39
0
210
0
220
0
230
1
50
360
0
POINT
5
74
100
AcDbEntity
8
1
62
256
6
ByLayer
370
18
48
1
60
0
100
AcDbPoint
10
-208.977029
20
-225.247803
30
0
39
0
210
0
220
0
230
1
50
360
0
POINT
5
76
100
AcDbEntity
8
1
62
256
6
ByLayer
370
13
48
1
60
1
100
AcDbPoint
10
-37.5
20
0
30
0
39
0
210
0
220
0
230
1
50
360
0
POINT
5
77
100
AcDbEntity
8
1
62
256
6
ByLayer
370
13
48
1
60
1
100
AcDbPoint
10
55.187306
20
0
30
0
39
0
210
0
220
0
230
1
50
360
0
POINT
5
78
100
AcDbEntity
8
1
62
256
6
ByLayer
370
18
48
1
60
1
100
AcDbPoint
10
55
20
-3.572
30
0
39
0
210
0
220
0
230
1
50
360
0
POINT
5
79
100
AcDbEntity
8
1
62
256
6
ByLayer
370
18
48
1
60
1
100
AcDbPoint
10
18
20
-3.572
30
0
39
0
210
0
220
0
230
1
50
360
0
POINT
5
7A
100
AcDbEntity
8
1
62
256
6
ByLayer
370
18
48
1
60
1
100
AcDbPoint
10
55
20
-3.572
30
0
39
0
210
0
220
0
230
1
50
360
0
POINT
5
7B
100
AcDbEntity
8
1
62
256
6
ByLayer
370
18
48
1
60
1
100
AcDbPoint
10
2
20
-3.572
30
0
39
0
210
0
220
0
230
1
50
360
0
POINT
5
7C
100
AcDbEntity
8
1
62
256
6
ByLayer
370
18
48
1
60
1
100
AcDbPoint
10
-36
20
-4
30
0
39
0
210
0
220
0
230
1
50
360
0
POINT
5
7D
100
AcDbEntity
8
1
62
256
6
ByLayer
370
18
48
1
60
1
100
AcDbPoint
10
0
20
-4
30
0
39
0
210
0
220
0
230
1
50
360
0
POINT
5
7E
100
AcDbEntity
8
1
62
256
6
ByLayer
370
18
48
1
60
1
100
AcDbPoint
10
-36
20
-4
30
0
39
0
210
0
220
0
230
1
50
360
0
POINT
5
7F
100
AcDbEntity
8
1
62
256
6
ByLayer
370
18
48
1
60
1
100
AcDbPoint
10
55
20
-3.572
30
0
39
0
210
0
220
0
230
1
50
360
0
POINT
5
80
100
AcDbEntity
8
1
62
256
6
ByLayer
370
18
48
1
60
1
100
AcDbPoint
10
55
20
-3.572
30
0
39
0
210
0
220
0
230
1
50
360
0
POINT
5
81
100
AcDbEntity
8
1
62
256
6
ByLayer
370
18
48
1
60
1
100
AcDbPoint
10
0
20
-3.572
30
0
39
0
210
0
220
0
230
1
50
360
0
SPLINE
5
CC
100
AcDbEntity
8
1
62
256
6
ByLayer
370
18
48
1
60
0
100
AcDbSpline
70
4
71
3
72
24
73
20
40
0
40
0
40
0
40
0
40
0.124999999999949
40
0.124999999999949
40
0.187499999999924
40
0.187499999999924
40
0.249999999999899
40
0.249999999999899
40
0.312499999999874
40
0.312499999999874
40
0.374999999999849
40
0.374999999999849
40
0.499999999999882
40
0.499999999999882
40
0.749999999999944
40
0.749999999999944
40
0.874999999999972
40
0.874999999999972
40
1
40
1
40
1
40
1
41
1
10
19.3807792984888
20
3.34066958975348
30
0
41
1
10
19.3729579271139
20
3.34059837785247
30
0
41
1
10
19.3653399579009
20
3.34147690863051
30
0
41
1
10
19.3541945160117
20
3.34410811561727
30
0
41
1
10
19.3505367155121
20
3.34520842270564
30
0
41
1
10
19.3435319593129
20
3.34775910230996
30
0
41
1
10
19.3401548131836
20
3.34921593451997
30
0
41
1
10
19.3336317998084
20
3.35246428169921
30
0
41
1
10
19.330470805393
20
3.35426749971975
30
0
41
1
10
19.3245024679353
20
3.35810282051241
30
0
41
1
10
19.3216801577589
20
3.36014009178973
30
0
41
1
10
19.3136468621112
20
3.36657155107787
30
0
41
1
10
19.3088347777951
20
3.37132008340578
30
0
41
1
10
19.2961397961268
20
3.38642273315776
30
0
41
1
10
19.2900951400204
20
3.39735083666699
30
0
41
1
10
19.2839432332883
20
3.41471402387594
30
0
41
1
10
19.2824342185815
20
3.42055533250459
30
0
41
1
10
19.2804169506613
20
3.43233564533679
30
0
41
1
10
19.2799100203703
20
3.4383180643166
30
0
41
1
10
19.2799100203703
20
3.44424947432296
30
0
0
SPLINE
5
CD
100
AcDbEntity
8
1
62
256
6
ByLayer
370
18
48
1
60
0
100
AcDbSpline
70
4
71
3
72
8
73
4
40
0
40
0
40
0
40
0
40
1
40
1
40
1
40
1
41
1
10
19.2799100203703
20
0.804426624057072
30
0
41
1
10
19.2799100203703
20
0.807018347032596
30
0
41
1
10
19.2799100203703
20
0.809280475563952
30
0
41
1
10
19.2799100203703
20
0.8112160439984
30
0
0
SPLINE
5
CE
100
AcDbEntity
8
1
62
256
6
ByLayer
370
18
48
1
60
0
100
AcDbSpline
70
4
71
3
72
8
73
4
40
0
40
0
40
0
40
0
40
1
40
1
40
1
40
1
41
1
10
54.6059251489107
20
1.23715593791772
30
0
41
1
10
54.7075008429145
20
0.952315758709545
30
0
41
1
10
54.8081582896713
20
0.667154194714982
30
0
41
1
10
54.9078774275124
20
0.381664224388174
30
0
0
SPLINE
5
CF
100
AcDbEntity
8
1
62
256
6
ByLayer
370
18
48
1
60
0
100
AcDbSpline
70
4
71
3
72
8
73
4
40
0
40
0
40
0
40
0
40
1
40
1
40
1
40
1
41
1
10
54.9078774275125
20
0.381664224388203
30
0
41
1
10
54.9375602171909
20
0.296684160099972
30
0
41
1
10
54.9679327374429
20
0.212091559704334
30
0
41
1
10
54.9989951402423
20
0.127870946295815
30
0
0
SPLINE
5
D0
100
AcDbEntity
8
1
62
256
6
ByLayer
370
18
48
1
60
0
100
AcDbSpline
70
4
71
5
72
72
73
66
40
0
40
0
40
0
40
0
40
0
40
0
40
0.125
40
0.125
40
0.125
40
0.249999999999998
40
0.249999999999998
40
0.249999999999998
40
0.374999999999996
40
0.374999999999996
40
0.374999999999996
40
0.5
40
0.5
40
0.5
40
0.562500000000004
40
0.562500000000004
40
0.562500000000004
40
0.625000000000004
40
0.625000000000004
40
0.625000000000004
40
0.687500000000003
40
0.687500000000003
40
0.687500000000003
40
0.75
40
0.75
40
0.75
40
0.812500000000002
40
0.812500000000002
40
0.812500000000002
40
0.843750000000002
40
0.843750000000002
40
0.843750000000002
40
0.875000000000001
40
0.875000000000001
40
0.875000000000001
40
0.906250000000001
40
0.906250000000001
40
0.906250000000001
40
0.937500000000001
40
0.937500000000001
40
0.937500000000001
40
0.953125000000001
40
0.953125000000001
40
0.953125000000001
40
0.96875
40
0.96875
40
0.96875
40
0.976562499999998
40
0.976562499999998
40
0.976562499999998
40
0.984375
40
0.984375
40
0.984375
40
0.992187500000003
40
0.992187500000003
40
0.992187500000003
40
0.996093750000001
40
0.996093750000001
40
0.996093750000001
40
0.998046874999998
40
0.998046874999998
40
0.998046874999998
40
1
40
1
40
1
40
1
40
1
40
1
41
1
10
13.020520929028
20
-0.148425514900936
30
0
41
1
10
13.0281820152934
20
-0.15111930871717
30
0
41
1
10
13.0358424787904
20
-0.153812010746179
30
0
41
1
10
13.043502281022
20
-0.156503619050625
30
0
41
1
10
13.0588204859598
20
-0.161884644335686
30
0
41
1
10
13.0741357378577
20
-0.167261279223794
30
0
41
1
10
13.0817925697428
20
-0.169948496080536
30
0
41
1
10
13.0971045337778
20
-0.175320722643249
30
0
41
1
10
13.1124128751267
20
-0.180688522952181
30
0
41
1
10
13.1200660593428
20
-0.183371312833316
30
0
41
1
10
13.135370293285
20
-0.188734664629152
30
0
41
1
10
13.1506699350996
20
-0.194093545652549
30
0
41
1
10
13.1583184487087
20
-0.196771854879472
30
0
41
1
10
13.1697890192757
20
-0.200787601405068
30
0
41
1
10
13.1812559317233
20
-0.204800741377255
30
0
41
1
10
13.1850778008557
20
-0.206138163601508
30
0
41
1
10
13.1927206119682
20
-0.208812422884904
30
0
41
1
10
13.2003614545397
20
-0.211485505907035
30
0
41
1
10
13.2041813441755
20
-0.212821751023512
30
0
41
1
10
13.2118199811174
20
-0.215493643808884
30
0
41
1
10
13.2194561753412
20
-0.218164332381917
30
0
41
1
10
13.2232736007003
20
-0.21949937207259
30
0
41
1
10
13.2309069857664
20
-0.222168835176575
30
0
41
1
10
13.2385371952352
20
-0.224837051554744
30
0
41
1
10
13.2423514096
20
-0.226170842537727
30
0
41
1
10
13.2499778646497
20
-0.228837779042038
30
0
41
1
10
13.2575999864584
20
-0.231503402524425
30
0
41
1
10
13.2614097705189
20
-0.232835874548044
30
0
41
1
10
13.2671222410433
20
-0.234834055813906
30
0
41
1
10
13.2728309677676
20
-0.23683142113569
30
0
41
1
10
13.2747334172466
20
-0.237497116716383
30
0
41
1
10
13.2785373104436
20
-0.238828317759129
30
0
41
1
10
13.2823390183136
20
-0.240159129766795
30
0
41
1
10
13.2842392502946
20
-0.240824432832795
30
0
41
1
10
13.2880383191041
20
-0.242154821731134
30
0
41
1
10
13.2918342951198
20
-0.243484753445841
30
0
41
1
10
13.2937314017404
20
-0.244149603605763
30
0
41
1
10
13.2975236358294
20
-0.245479069727793
30
0
41
1
10
13.3013114788591
20
-0.246808061848043
30
0
41
1
10
13.3032039224264
20
-0.247472399196226
30
0
41
1
10
13.3060398005823
20
-0.248468606833342
30
0
41
1
10
13.3088706425345
20
-0.249464276416802
30
0
41
1
10
13.3098136738567
20
-0.249796128323368
30
0
41
1
10
13.3116985250094
20
-0.250459799885732
30
0
41
1
10
13.3135808608442
20
-0.251123494263055
30
0
41
1
10
13.314520884063
20
-0.251455222922658
30
0
41
1
10
13.3159284280401
20
-0.251952451769199
30
0
41
1
10
13.3173310750353
20
-0.252448854877599
30
0
41
1
10
13.3177983778149
20
-0.252614369116344
30
0
41
1
10
13.3187330867172
20
-0.252945767235019
30
0
41
1
10
13.3196691938671
20
-0.253278457774513
30
0
41
1
10
13.3201359167184
20
-0.253444528289492
30
0
41
1
10
13.3210633404026
20
-0.253774924090038
30
0
41
1
10
13.3219719989081
20
-0.254099437991869
30
0
41
1
10
13.3224266041109
20
-0.254262318431557
30
0
41
1
10
13.323116376707
20
-0.254510715269362
30
0
41
1
10
13.3238291227915
20
-0.254769937792361
30
0
41
1
10
13.324061548149
20
-0.25485475434084
30
0
41
1
10
13.3243908872582
20
-0.25497540200513
30
0
41
1
10
13.3246739320958
20
-0.25507989785234
30
0
41
1
10
13.3247727772301
20
-0.255116744649371
30
0
41
1
10
13.3249987425349
20
-0.255202086927909
30
0
41
1
10
13.3253198205644
20
-0.255325964552668
30
0
41
1
10
13.3254427551628
20
-0.255376430340846
30
0
41
1
10
13.3254667027476
20
-0.255394316244178
30
0
41
1
10
13.3253302807212
20
-0.255358515401866
30
0
0
SPLINE
5
D1
100
AcDbEntity
8
1
62
256
6
ByLayer
370
18
48
1
60
0
100
AcDbSpline
70
4
71
3
72
32
73
28
40
0
40
0
40
0
40
0
40
0.0066687164837972
40
0.0066687164837972
40
0.148573185557524
40
0.148573185557524
40
0.219525420094387
40
0.219525420094387
40
0.255001537362832
40
0.255001537362832
40
0.290477654631277
40
0.290477654631277
40
0.432382123705
40
0.432382123705
40
0.503334358241844
40
0.503334358241844
40
0.538810475510283
40
0.538810475510283
40
0.574286592778723
40
0.574286592778723
40
0.716191061852482
40
0.716191061852482
40
0.787143296389361
40
0.787143296389361
40
0.858095530926241
40
0.858095530926241
40
1
40
1
40
1
40
1
41
1
10
53.3725674168385
20
0.773902227512195
30
0
41
1
10
53.3735929749666
20
0.774851467896582
30
0
41
1
10
53.3746228409075
20
0.775803554122888
30
0
41
1
10
53.3976634378893
20
0.797078115144615
30
0
41
1
10
53.4216096419367
20
0.818677861452954
30
0
41
1
10
53.4608339660875
20
0.852569399545246
30
0
41
1
10
53.4744535706599
20
0.864124768700407
30
0
41
1
10
53.4957270169172
20
0.881845979305552
30
0
41
1
10
53.5029657494737
20
0.887823385991851
30
0
41
1
10
53.5176056963477
20
0.899796054099028
30
0
41
1
10
53.5250228257697
20
0.905802193522476
30
0
41
1
10
53.5626326560596
20
0.935867878445862
30
0
41
1
10
53.5943792075378
20
0.960050380796758
30
0
41
1
10
53.6453220733777
20
0.995248938857685
30
0
41
1
10
53.6628637813764
20
1.00679470766121
30
0
41
1
10
53.6901464883412
20
1.02365106488739
30
0
41
1
10
53.6994008029545
20
1.02919503086974
30
0
41
1
10
53.7182393980281
20
1.04011984227247
30
0
41
1
10
53.7278460576455
20
1.04551207715363
30
0
41
1
10
53.7762015591138
20
1.07174650344001
30
0
41
1
10
53.8162077310802
20
1.09064682296713
30
0
41
1
10
53.8783321807291
20
1.1152895444794
30
0
41
1
10
53.8993953890474
20
1.12288046549131
30
0
41
1
10
53.9422595191356
20
1.13671248276086
30
0
41
1
10
53.9641158391855
20
1.14296695908663
30
0
41
1
10
54.030455023664
20
1.15948007012912
30
0
41
1
10
54.0751279962692
20
1.16735673844354
30
0
41
1
10
54.120247271955
20
1.17227289408223
30
0
0
SPLINE
5
D2
100
AcDbEntity
8
1
62
256
6
ByLayer
370
18
48
1
60
0
100
AcDbSpline
70
4
71
3
72
12
73
8
40
0
40
0
40
0
40
0
40
0.499999999999958
40
0.499999999999958
40
0.749999999999979
40
0.749999999999979
40
1
40
1
40
1
40
1
41
1
10
54.120247271955
20
1.17227289408223
30
0
41
1
10
54.2014480132514
20
1.18112045371436
30
0
41
1
10
54.282545486464
20
1.19077768761758
30
0
41
1
10
54.4039925744489
20
1.20682475486697
30
0
41
1
10
54.4444420708087
20
1.2124314657965
30
0
41
1
10
54.5252636983729
20
1.22425146980134
30
0
41
1
10
54.5656442737302
20
1.23047592655431
30
0
41
1
10
54.6059251489107
20
1.23715593791775
30
0
0
SPLINE
5
D3
100
AcDbEntity
8
1
62
256
6
ByLayer
370
18
48
1
60
0
100
AcDbSpline
70
4
71
3
72
14
73
10
40
0
40
0
40
0
40
0
40
0.500000000000021
40
0.500000000000021
40
0.750000000000021
40
0.750000000000021
40
0.87500000000001
40
0.87500000000001
40
1
40
1
40
1
40
1
41
1
10
54.28109288044
20
1.97216578361517
30
0
41
1
10
54.3308309599601
20
1.84190880695425
30
0
41
1
10
54.382448462321
20
1.71558117385845
30
0
41
1
10
54.4633642843148
20
1.53169410793115
30
0
41
1
10
54.4909200453077
20
1.47134394908917
30
0
41
1
10
54.5332660696586
20
1.38234074365855
30
0
41
1
10
54.5475497989302
20
1.35292603537763
30
0
41
1
10
54.5764759340419
20
1.29461891402988
30
0
41
1
10
54.5911549154239
20
1.26565851959168
30
0
41
1
10
54.6059251489107
20
1.23715593791772
30
0
0
SPLINE
5
D4
100
AcDbEntity
8
1
62
256
6
ByLayer
370
18
48
1
60
0
100
AcDbSpline
70
4
71
5
72
16
73
10
40
0
40
0
40
0
40
0
40
0
40
0
40
0.33508288600211
40
0.50012371045091
40
0.566797204491375
40
0.66508288600211
40
1
40
1
40
1
40
1
40
1
40
1
41
1
10
8.0209178022445
20
1.8149984264148
30
0
41
1
10
8.35685548102214
20
1.67087120988853
30
0
41
1
10
8.85800037683393
20
1.45845470385621
30
0
41
1
10
9.42532548367086
20
1.22232371273466
30
0
41
1
10
10.0904198485629
20
0.95229134418534
30
0
41
1
10
11.0896244694591
20
0.559755791662468
30
0
41
1
10
11.7537872169289
20
0.308163646226973
30
0
41
1
10
12.2530576295144
20
0.124406488792715
30
0
41
1
10
12.68588162986
20
-0.0307595281734052
30
0
41
1
10
13.020520929028
20
-0.148425514900936
30
0
0
SPLINE
5
D5
100
AcDbEntity
8
1
62
256
6
ByLayer
370
13
48
1
60
0
100
AcDbSpline
70
4
71
3
72
39
73
35
40
0
40
0
40
0
40
0
40
0.0160541449617276
40
0.0607789565543755
40
0.0831413623506998
40
0.105503768147025
40
0.12786617394335
40
0.150228579739674
40
0.194953391332322
40
0.239678202924971
40
0.262040608721296
40
0.28440301451762
40
0.306765420313943
40
0.329127826110269
40
0.373852637702918
40
0.418577449295566
40
0.44093985509189
40
0.463302260888215
40
0.48566466668454
40
0.508027072480864
40
0.552751884073512
40
0.597476695666161
40
0.619839101462486
40
0.64220150725881
40
0.664563913055134
40
0.686926318851459
40
0.731651130444108
40
0.776375942036756
40
0.798738347833081
40
0.821100753629405
40
0.843463159425729
40
0.865825565222054
40
0.910550376814702
40
1
40
1
40
1
40
1
41
1
10
24.5948301834589
20
-1.72463182603002
30
0
41
1
10
24.5329775242235
20
-1.72726506940956
30
0
41
1
10
24.2986929803065
20
-1.73661714489839
30
0
41
1
10
23.9772947816898
20
-1.74725169774519
30
0
41
1
10
23.631463117429
20
-1.75467971021112
30
0
41
1
10
23.3726454248913
20
-1.7568000744337
30
0
41
1
10
23.1138825144304
20
-1.75664463875486
30
0
41
1
10
22.7696337312911
20
-1.75105210138304
30
0
41
1
10
22.3392125207172
20
-1.73655546242804
30
0
41
1
10
21.906983208019
20
-1.718628041367
30
0
41
1
10
21.5611517308744
20
-1.70032532722053
30
0
41
1
10
21.3023342382865
20
-1.68320144521925
30
0
41
1
10
21.0435711958272
20
-1.66386481500515
30
0
41
1
10
20.6993219353905
20
-1.63234346655486
30
0
41
1
10
20.2688996830105
20
-1.58607531849827
30
0
41
1
10
19.8366697299325
20
-1.53750312243167
30
0
41
1
10
19.4908380507647
20
-1.49507497037953
30
0
41
1
10
19.2320203752872
20
-1.46020726236208
30
0
41
1
10
18.9732574895354
20
-1.42338537278221
30
0
41
1
10
18.6290086962344
20
-1.36871209615808
30
0
41
1
10
18.1985874178483
20
-1.29476637032903
30
0
41
1
10
17.7663578928594
20
-1.2198671645661
30
0
41
1
10
17.4205264317915
20
-1.15709738661795
30
0
41
1
10
17.1617093597805
20
-1.10760006577132
30
0
41
1
10
16.9029468404375
20
-1.05658096674648
30
0
41
1
10
16.5586981860209
20
-0.983625531798282
30
0
41
1
10
16.1282775457375
20
-0.888572470619096
30
0
41
1
10
15.6960518647788
20
-0.793978615658375
30
0
41
1
10
15.3502223475149
20
-0.716417728548578
30
0
41
1
10
15.0914024632396
20
-0.656665675278731
30
0
41
1
10
14.8326357904235
20
-0.59596565734094
30
0
41
1
10
14.4883880066935
20
-0.511201014692119
30
0
41
1
10
13.8883143653373
20
-0.35543837404515
30
0
41
1
10
13.368507744955
20
-0.229968404585492
30
0
41
1
10
13.020520929028
20
-0.148425514900936
30
0
0
SPLINE
5
D6
100
AcDbEntity
8
1
62
256
6
ByLayer
370
13
48
1
60
0
100
AcDbSpline
70
4
71
3
72
44
73
40
40
0
40
0
40
0
40
0
40
0.0139160554128441
40
0.0348772300731424
40
0.0558384047334395
40
0.0977607540540351
40
0.139683103374631
40
0.160644278034928
40
0.181605452695226
40
0.202566627355522
40
0.223527802015821
40
0.265450151336417
40
0.307372500657013
40
0.32833367531731
40
0.349294849977608
40
0.370256024637905
40
0.391217199298203
40
0.433139548618799
40
0.475061897939396
40
0.496023072599693
40
0.51698424725999
40
0.537945421920291
40
0.558906596580587
40
0.600828945901182
40
0.642751295221777
40
0.663712469882075
40
0.684673644542373
40
0.70563481920267
40
0.726595993862968
40
0.768518343183564
40
0.81044069250416
40
0.831401867164458
40
0.852363041824755
40
0.873324216485052
40
0.894285391145351
40
0.936207740465946
40
0.978130089786541
40
0.999091264446838
40
1
40
1
40
1
40
1
41
1
10
46.3179397899836
20
-1.7275186651033
30
0
41
1
10
46.2606373202866
20
-1.73024061552778
30
0
41
1
10
46.1170938708457
20
-1.7365136874586
30
0
41
1
10
45.8873212009519
20
-1.74490840255521
30
0
41
1
10
45.5430719453542
20
-1.75248031559752
30
0
41
1
10
45.1126497053114
20
-1.75435729952505
30
0
41
1
10
44.6804197816974
20
-1.75233911428239
30
0
41
1
10
44.3345881174394
20
-1.74668908557564
30
0
41
1
10
44.0757704249022
20
-1.7389881529885
30
0
41
1
10
43.817007514441
20
-1.72901775151499
30
0
41
1
10
43.4727587311269
20
-1.71009854825746
30
0
41
1
10
43.042337519665
20
-1.67918945027966
30
0
41
1
10
42.6101082042743
20
-1.64539209892561
30
0
41
1
10
42.264276726621
20
-1.61455176196367
30
0
41
1
10
42.0054592380887
20
-1.58816703862087
30
0
41
1
10
41.7466962009543
20
-1.55967707262121
30
0
41
1
10
41.4024469453529
20
-1.51596713322021
30
0
41
1
10
40.9720247053053
20
-1.45502810753521
30
0
41
1
10
40.5397947816872
20
-1.39244484520737
30
0
41
1
10
40.1939631174271
20
-1.33913291336918
30
0
41
1
10
39.9351454248896
20
-1.29638673362723
30
0
41
1
10
39.676382514429
20
-1.25188547906956
30
0
41
1
10
39.3321337311156
20
-1.18724426259612
30
0
41
1
10
38.901712519656
20
-1.1016715439068
30
0
41
1
10
38.4694832042695
20
-1.0158629929085
30
0
41
1
10
38.1236517266193
20
-0.944827672156862
30
0
41
1
10
37.8648342380883
20
-0.889532601573535
30
0
41
1
10
37.6060712009547
20
-0.832989351598826
30
0
41
1
10
37.2618219453549
20
-0.753171871451258
30
0
41
1
10
36.8313997053083
20
-0.650572385278679
30
0
41
1
10
36.3991697816896
20
-0.549150407023177
30
0
41
1
10
36.0533381174287
20
-0.466684304663431
30
0
41
1
10
35.7945204248909
20
-0.403732611337972
30
0
41
1
10
35.53575751443
20
-0.34014952780052
30
0
41
1
10
35.1915087311159
20
-0.252227097171982
30
0
41
1
10
34.7610875196553
20
-0.141698122359315
30
0
41
1
10
34.3288582042686
20
-0.0336676076805702
30
0
41
1
10
34.0657363643093
20
0.0321979622274569
30
0
41
1
10
33.9756311605346
20
0.0547935286953418
30
0
41
1
10
33.9718872886786
20
0.0557324405952215
30
0
0
SPLINE
5
D7
100
AcDbEntity
8
1
62
256
6
ByLayer
370
18
48
1
60
0
100
AcDbSpline
70
4
71
5
72
66
73
60
40
0
40
0
40
0
40
0
40
0
40
0
40
0.0039062500000003
40
0.0039062500000003
40
0.0039062500000003
40
0.0078125000000007
40
0.0078125000000007
40
0.0078125000000007
40
0.0156250000000008
40
0.0156250000000008
40
0.0156250000000008
40
0.0234375000000009
40
0.0234375000000009
40
0.0234375000000009
40
0.0312500000000016
40
0.0312500000000016
40
0.0312500000000016
40
0.0468750000000023
40
0.0468750000000023
40
0.0468750000000023
40
0.0624999999999987
40
0.0624999999999987
40
0.0624999999999987
40
0.0937499999999963
40
0.0937499999999963
40
0.0937499999999963
40
0.124999999999998
40
0.124999999999998
40
0.124999999999998
40
0.156249999999999
40
0.156249999999999
40
0.156249999999999
40
0.187500000000001
40
0.187500000000001
40
0.187500000000001
40
0.25
40
0.25
40
0.25
40
0.312499999999999
40
0.312499999999999
40
0.312499999999999
40
0.375000000000002
40
0.375000000000002
40
0.375000000000002
40
0.5
40
0.5
40
0.5
40
0.624999999999998
40
0.624999999999998
40
0.624999999999998
40
0.75
40
0.75
40
0.75
40
0.875
40
0.875
40
0.875
40
1
40
1
40
1
40
1
40
1
40
1
41
1
10
7.67763564581838
20
1.96636929967681
30
0
41
1
10
7.67752463680159
20
1.96606094501342
30
0
41
1
10
7.67769950283693
20
1.96586139757054
30
0
41
1
10
7.67804251426887
20
1.9657264759972
30
0
41
1
10
7.67883296843041
20
1.96550614959844
30
0
41
1
10
7.6793685661965
20
1.96522538671295
30
0
41
1
10
7.67959816078763
20
1.96507649082838
30
0
41
1
10
7.68024886110626
20
1.96462404388873
30
0
41
1
10
7.68101489932332
20
1.96421367120982
30
0
41
1
10
7.68155579623095
20
1.96395196087894
30
0
41
1
10
7.68265588652162
20
1.96343862669448
30
0
41
1
10
7.6837083436622
20
1.96291815259903
30
0
41
1
10
7.68422796707966
20
1.96265741978121
30
0
41
1
10
7.68526460987823
20
1.96213754102072
30
0
41
1
10
7.68631725714292
20
1.96162599284128
30
0
41
1
10
7.68684617047239
20
1.96137178357526
30
0
41
1
10
7.68843644529409
20
1.96061229678367
30
0
41
1
10
7.69002462184108
20
1.95985757261741
30
0
41
1
10
7.69108327441961
20
1.95935641535163
30
0
41
1
10
7.6932019175652
20
1.95835783608894
30
0
41
1
10
7.69532643980943
20
1.95736622918795
30
0
41
1
10
7.6963898150548
20
1.95687191916778
30
0
41
1
10
7.69958221620627
20
1.95539272041805
30
0
41
1
10
7.70277824274109
20
1.95392246865978
30
0
41
1
10
7.70491042114725
20
1.95294571178562
30
0
41
1
10
7.70917753159486
20
1.95099788901459
30
0
41
1
10
7.71344968038551
20
1.94905918629433
30
0
41
1
10
7.71558683603888
20
1.94809186399124
30
0
41
1
10
7.7198629532063
20
1.94616077558786
30
0
41
1
10
7.72414196878418
20
1.9442357957675
30
0
41
1
10
7.72628214494137
20
1.94327469884257
30
0
41
1
10
7.73056372152348
20
1.94135502264211
30
0
41
1
10
7.73484752170356
20
1.93943984509849
30
0
41
1
10
7.7369899268009
20
1.93848329618319
30
0
41
1
10
7.74341850443841
20
1.93561651458364
30
0
41
1
10
7.74985071108267
20
1.93275756515394
30
0
41
1
10
7.75414027019832
20
1.93085470953846
30
0
41
1
10
7.76272184805703
20
1.92705447906275
30
0
41
1
10
7.77130757901432
20
1.92326372892387
30
0
41
1
10
7.77560138958165
20
1.92137053752467
30
0
41
1
10
7.78419071452191
20
1.91758814923864
30
0
41
1
10
7.79278307432963
20
1.91381300432144
30
0
41
1
10
7.79707995031848
20
1.91192711938703
30
0
41
1
10
7.80997247864426
20
1.90627415720212
30
0
41
1
10
7.82287014436096
20
1.90063416301007
30
0
41
1
10
7.8314706055796
20
1.89687940509447
30
0
41
1
10
7.84867503107728
20
1.88937931500809
30
0
41
1
10
7.86588539918642
20
1.88189597505166
30
0
41
1
10
7.87449193571862
20
1.87815822716914
30
0
41
1
10
7.89170744738774
20
1.87069004472187
30
0
41
1
10
7.90892730356532
20
1.86323542716303
30
0
41
1
10
7.91753822984313
20
1.859511344282
30
0
41
1
10
7.93476190290068
20
1.8520692996691
30
0
41
1
10
7.95198886520961
20
1.8446388360596
30
0
41
1
10
7.96060311111557
20
1.84092639189717
30
0
41
1
10
7.97783301730763
20
1.83350686363983
30
0
41
1
10
7.99506552201439
20
1.82609762508329
30
0
41
1
10
8.0036823865363
20
1.8223955006938
30
0
41
1
10
8.0122998257666
20
1.81869579365662
30
0
41
1
10
8.02091780224515
20
1.81499842643529
30
0
0
SPLINE
5
D8
100
AcDbEntity
8
1
62
256
6
ByLayer
370
13
48
1
60
0
100
AcDbSpline
70
4
71
3
72
19
73
15
40
0
40
0
40
0
40
0
40
0.0558352676114864
40
0.129732218471382
40
0.203629169331277
40
0.277526120191173
40
0.351423071051068
40
0.499216972770859
40
0.647010874490649
40
0.720907825350545
40
0.79480477621044
40
0.868701727070335
40
0.942598677930231
40
1
40
1
40
1
40
1
41
1
10
54.2810928804409
20
1.9721657836148
30
0
41
1
10
54.2158980442589
20
1.97221838211166
30
0
41
1
10
54.0644109040355
20
1.97167996641227
30
0
41
1
10
53.8266184375714
20
1.96835588623222
30
0
41
1
10
53.5678045790307
20
1.96095902953331
30
0
41
1
10
53.3090404121249
20
1.95072325013848
30
0
41
1
10
52.9641180605043
20
1.93508481636235
30
0
41
1
10
52.5329085183246
20
1.90968891474409
30
0
41
1
10
52.1014865985549
20
1.87514287804481
30
0
41
1
10
51.7563076915961
20
1.84171855511897
30
0
41
1
10
51.4974936166232
20
1.81290946637489
30
0
41
1
10
51.2387289629764
20
1.78150491132249
30
0
41
1
10
50.999285544437
20
1.75135309412352
30
0
41
1
10
50.8460609241539
20
1.73092844080873
30
0
41
1
10
50.779069900477
20
1.72177289431153
30
0
0
SPLINE
5
D9
100
AcDbEntity
8
1
62
256
6
ByLayer
370
13
48
1
60
0
100
AcDbSpline
70
4
71
3
72
40
73
36
40
0
40
0
40
0
40
0
40
0.0030016471662179
40
0.0463494016372516
40
0.0896971561082853
40
0.111371033343802
40
0.13304491057932
40
0.154718787814837
40
0.176392665050354
40
0.219740419521388
40
0.263088173992422
40
0.284762051227939
40
0.306435928463456
40
0.328109805698972
40
0.34978368293449
40
0.393131437405524
40
0.436479191876558
40
0.458153069112075
40
0.479826946347592
40
0.501500823583109
40
0.523174700818626
40
0.56652245528966
40
0.609870209760694
40
0.631544086996211
40
0.653217964231728
40
0.674891841467245
40
0.696565718702762
40
0.739913473173796
40
0.78326122764483
40
0.804935104880347
40
0.826608982115864
40
0.848282859351381
40
0.869956736586898
40
0.913304491057932
40
1
40
1
40
1
40
1
41
1
10
19.9611728708442
20
0.482164496346797
30
0
41
1
10
19.9492302498533
20
0.485458489263692
30
0
41
1
10
19.764819920931
20
0.536295507023169
30
0
41
1
10
19.4079085183244
20
0.633990221757387
30
0
41
1
10
18.9764865985548
20
0.748884328241928
30
0
41
1
10
18.6313076915961
20
0.838308962009933
30
0
41
1
10
18.3724936166233
20
0.904437226389661
30
0
41
1
10
18.1137289629767
20
0.96916421729324
30
0
41
1
10
17.7688059534688
20
1.05364348041505
30
0
41
1
10
17.3375953922641
20
1.15642331544041
30
0
41
1
10
16.9061726338285
20
1.25356309221419
30
0
41
1
10
16.5609934393502
20
1.32723361703512
30
0
41
1
10
16.3021795788534
20
1.38050138326767
30
0
41
1
10
16.0434154110529
20
1.43169290951818
30
0
41
1
10
15.6984930643754
20
1.49778525238472
30
0
41
1
10
15.2672835320086
20
1.57618452088354
30
0
41
1
10
14.835861624814
20
1.64695311802518
30
0
41
1
10
14.4906827273901
20
1.69834393917844
30
0
41
1
10
14.2318686785289
20
1.73403655079161
30
0
41
1
10
13.9731040446698
20
1.76716298629421
30
0
41
1
10
13.6281810166015
20
1.80901738713374
30
0
41
1
10
13.1969703922193
20
1.85608552787363
30
0
41
1
10
12.7655475064539
20
1.8941941817113
30
0
41
1
10
12.420368158297
20
1.91872632305484
30
0
41
1
10
12.1615544196688
20
1.93365600381119
30
0
41
1
10
11.90279027624
20
1.94575708326619
30
0
41
1
10
11.5578673841737
20
1.95964058954348
30
0
41
1
10
11.1266567305893
20
1.97119209129434
30
0
41
1
10
10.6952332114701
20
1.97326811885932
30
0
41
1
10
10.3500528614963
20
1.96878785322076
30
0
41
1
10
10.0912350246423
20
1.96165807909537
30
0
41
1
10
9.83246648497149
20
1.951685707416
30
0
41
1
10
9.48754549409136
20
1.93637516253173
30
0
41
1
10
8.88413219908512
20
1.90184996097784
30
0
41
1
10
8.36625322020117
20
1.8551985026441
30
0
41
1
10
8.02091780224515
20
1.81499842643529
30
0
0
SPLINE
5
DA
100
AcDbEntity
8
1
62
256
6
ByLayer
370
18
48
1
60
0
100
AcDbSpline
70
4
71
3
72
8
73
4
40
0
40
0
40
0
40
0
40
1
40
1
40
1
40
1
41
1
10
54.2060748702788
20
2.17519934008726
30
0
41
1
10
54.2304031984405
20
2.10724250744479
30
0
41
1
10
54.2553970167078
20
2.03945960666914
30
0
41
1
10
54.2810928804406
20
1.97216578361559
30
0
0
SPLINE
5
DB
100
AcDbEntity
8
1
62
256
6
ByLayer
370
13
48
1
60
0
100
AcDbSpline
70
4
71
3
72
45
73
41
40
0
40
0
40
0
40
0
40
0.0035948303746978
40
0.024024546403565
40
0.0444542624324322
40
0.0648839784612998
40
0.0853136944901663
40
0.126173126547901
40
0.167032558605636
40
0.187462274634501
40
0.207891990663369
40
0.228321706692234
40
0.248751422721103
40
0.289610854778838
40
0.330470286836572
40
0.350900002865438
40
0.371329718894306
40
0.391759434923172
40
0.41218915095204
40
0.453048583009775
40
0.49390801506751
40
0.514337731096377
40
0.534767447125243
40
0.555197163154113
40
0.575626879182979
40
0.616486311240712
40
0.657345743298446
40
0.677775459327313
40
0.69820517535618
40
0.718634891385047
40
0.739064607413914
40
0.779924039471648
40
0.820783471529383
40
0.841213187558251
40
0.861642903587117
40
0.882072619615984
40
0.902502335644852
40
0.943361767702586
40
0.98422119976032
40
1
40
1
40
1
40
1
41
1
10
41.709175799229
20
0.482703300431751
30
0
41
1
10
41.6939921244624
20
0.48688545935434
30
0
41
1
10
41.5925175421942
20
0.514807785180494
30
0
41
1
10
41.4047434375729
20
0.566125112498241
30
0
41
1
10
41.1459295790346
20
0.636489478604005
30
0
41
1
10
40.8871654121315
20
0.705835746461077
30
0
41
1
10
40.5422430605134
20
0.796703600335007
30
0
41
1
10
40.1110335183365
20
0.908266720117609
30
0
41
1
10
39.679611598568
20
1.01538020656858
30
0
41
1
10
39.334432691609
20
1.09776182332266
30
0
41
1
10
39.0756186166343
20
1.1580638204006
30
0
41
1
10
38.8168539629851
20
1.21660381175033
30
0
41
1
10
38.4719309534358
20
1.29263857881571
30
0
41
1
10
38.0407203920319
20
1.38411377665989
30
0
41
1
10
37.6092976330036
20
1.46886331655355
30
0
41
1
10
37.2641184375686
20
1.53196831138124
30
0
41
1
10
37.0053045790285
20
1.57684541338929
30
0
41
1
10
36.7465404121236
20
1.61937218208453
30
0
41
1
10
36.4016180605034
20
1.6738118184748
30
0
41
1
10
35.9704085183243
20
1.73707265737627
30
0
41
1
10
35.5389865985552
20
1.79194217023803
30
0
41
1
10
35.1938076915968
20
1.83018465427207
30
0
41
1
10
34.9349936166236
20
1.85566983385223
30
0
41
1
10
34.6762289629764
20
1.87842564898566
30
0
41
1
10
34.3313059534295
20
1.9064551654354
30
0
41
1
10
33.9000953920287
20
1.93589566028686
30
0
41
1
10
33.468672633003
20
1.9560069881129
30
0
41
1
10
33.1234934375694
20
1.96597447317598
30
0
41
1
10
32.8646795790291
20
1.96978480804194
30
0
41
1
10
32.6059154121238
20
1.97072851458358
30
0
41
1
10
32.2609930605035
20
1.96984070776148
30
0
41
1
10
31.8297835183242
20
1.96283767761742
30
0
41
1
10
31.398361598555
20
1.94641475554971
30
0
41
1
10
31.0531826915964
20
1.92724187311197
30
0
41
1
10
30.7943686166237
20
1.90906281824945
30
0
41
1
10
30.5356039629771
20
1.88813456445627
30
0
41
1
10
30.1906809534304
20
1.85842812315599
30
0
41
1
10
29.7594703920299
20
1.81561337361686
30
0
41
1
10
29.3476906952861
20
1.76644989282903
30
0
41
1
10
29.108453849544
20
1.73441628593938
30
0
41
1
10
29.0418099988317
20
1.72515376645609
30
0
0
SPLINE
5
DC
100
AcDbEntity
8
1
62
256
6
ByLayer
370
18
48
1
60
0
100
AcDbSpline
70
4
71
3
72
18
73
14
40
0
40
0
40
0
40
0
40
0.124999999999991
40
0.124999999999991
40
0.249999999999983
40
0.249999999999983
40
0.499999999999967
40
0.499999999999967
40
0.74999999999995
40
0.74999999999995
40
0.874999999999975
40
0.874999999999975
40
1
40
1
40
1
40
1
41
1
10
54.3705128921267
20
-0.506613663359474
30
0
41
1
10
54.3679370106353
20
-0.507789868834976
30
0
41
1
10
54.3660107883593
20
-0.50939555409704
30
0
41
1
10
54.3634596695077
20
-0.513469255910536
30
0
41
1
10
54.3628351512689
20
-0.515949086024818
30
0
41
1
10
54.3629288474817
20
-0.524623596193464
30
0
41
1
10
54.3655636972678
20
-0.531815210728837
30
0
41
1
10
54.374803126881
20
-0.548411749253347
30
0
41
1
10
54.3812555736544
20
-0.5575522685713
30
0
41
1
10
54.392763515376
20
-0.572083774674439
30
0
41
1
10
54.3969134325638
20
-0.577071852576864
30
0
41
1
10
54.405751077809
20
-0.587300669467538
30
0
41
1
10
54.410454256919
20
-0.592557646639676
30
0
41
1
10
54.4153415243143
20
-0.597873383321826
30
0
0
SPLINE
5
DD
100
AcDbEntity
8
1
62
256
6
ByLayer
370
18
48
1
60
0
100
AcDbSpline
70
4
71
3
72
24
73
20
40
0
40
0
40
0
40
0
40
0.124999999999996
40
0.124999999999996
40
0.249999999999993
40
0.249999999999993
40
0.499999999999956
40
0.499999999999956
40
0.62499999999994
40
0.62499999999994
40
0.687499999999933
40
0.687499999999933
40
0.749999999999925
40
0.749999999999925
40
0.812499999999917
40
0.812499999999917
40
0.874999999999909
40
0.874999999999909
40
1
40
1
40
1
40
1
41
1
10
19.2799100203703
20
3.44424947432296
30
0
41
1
10
19.2799100203703
20
3.43783818739703
30
0
41
1
10
19.2804166041543
20
3.43137254315366
30
0
41
1
10
19.2824331060195
20
3.41864165966314
30
0
41
1
10
19.2839416982751
20
3.41232958385854
30
0
41
1
10
19.2900931003577
20
3.3935688311783
30
0
41
1
10
19.2961383868297
20
3.3817640802491
30
0
41
1
10
19.3088369084436
20
3.36545502920674
30
0
41
1
10
19.3136504706206
20
3.36032829835423
30
0
41
1
10
19.3216857885512
20
3.35338625028251
30
0
41
1
10
19.324508751418
20
3.35118752595776
30
0
41
1
10
19.3304782342635
20
3.34704877353266
30
0
41
1
10
19.333639658468
20
3.34510321595201
30
0
41
1
10
19.3401630948094
20
3.34159893843301
30
0
41
1
10
19.3435402799471
20
3.34002756636497
30
0
41
1
10
19.3505446196689
20
3.33727667886967
30
0
41
1
10
19.354201911042
20
3.33609021504108
30
0
41
1
10
19.3653449376351
20
3.33325325423371
30
0
41
1
10
19.3729607585682
20
3.33230631110851
30
0
41
1
10
19.3807792984888
20
3.33238309989935
30
0
0
SPLINE
5
DE
100
AcDbEntity
8
1
62
256
6
ByLayer
370
18
48
1
60
0
100
AcDbSpline
70
4
71
3
72
8
73
4
40
0
40
0
40
0
40
0
40
1
40
1
40
1
40
1
41
1
10
53.7347818639709
20
-3.4201838001832
30
0
41
1
10
53.7651877639459
20
-3.36739257748903
30
0
41
1
10
53.7956120529018
20
-3.31459038311053
30
0
41
1
10
53.8260499360113
20
-3.26178617489072
30
0
0
SPLINE
5
DF
100
AcDbEntity
8
1
62
256
6
ByLayer
370
18
48
1
60
0
100
AcDbSpline
70
4
71
3
72
45
73
41
40
0
40
0
40
0
40
0
40
0.0174360831600223
40
0.0375596595297069
40
0.0576832358993914
40
0.0778068122690766
40
0.0979303886387607
40
0.13817754137813
40
0.1784246941175
40
0.198548270487183
40
0.218671846856868
40
0.23879542322655
40
0.258918999596236
40
0.299166152335607
40
0.339413305074976
40
0.35953688144466
40
0.379660457814345
40
0.399784034184028
40
0.419907610553713
40
0.460154763293083
40
0.500401916032453
40
0.520525492402137
40
0.540649068771821
40
0.560772645141508
40
0.580896221511191
40
0.62114337425056
40
0.661390526989929
40
0.681514103359613
40
0.701637679729298
40
0.721761256098982
40
0.741884832468667
40
0.782131985208036
40
0.822379137947406
40
0.842502714317091
40
0.862626290686774
40
0.882749867056459
40
0.902873443426144
40
0.943120596165513
40
0.983367748904882
40
1
40
1
40
1
40
1
41
1
10
41.5445350129849
20
0.56405678322588
30
0
41
1
10
41.4697830852838
20
0.586723427046309
30
0
41
1
10
41.3087507318714
20
0.635324467768868
30
0
41
1
10
41.0614231127065
20
0.709085437288934
30
0
41
1
10
40.802609583744
20
0.785657379103583
30
0
41
1
10
40.5438452582368
20
0.861008177254888
30
0
41
1
10
40.198876613673
20
0.95945408614827
30
0
41
1
10
39.7676132377345
20
1.0798663211479
30
0
41
1
10
39.3362465725695
20
1.19530628641817
30
0
41
1
10
38.9911125641299
20
1.28387674449533
30
0
41
1
10
38.7322988185363
20
1.348494537486
30
0
41
1
10
38.4735339645674
20
1.41108638329459
30
0
41
1
10
38.1285645832874
20
1.4920129056928
30
0
41
1
10
37.6973000464086
20
1.58887636810206
30
0
41
1
10
37.2659324419419
20
1.67837820590591
30
0
41
1
10
36.9207981127014
20
1.74471721642837
30
0
41
1
10
36.661984583737
20
1.791635964378
30
0
41
1
10
36.4032202582282
20
1.83590297111797
30
0
41
1
10
36.0582516136623
20
1.89211452889688
30
0
41
1
10
35.6269882377219
20
1.95682495679611
30
0
41
1
10
35.1956215725566
20
2.01245070133629
30
0
41
1
10
34.8504875641177
20
2.05068497977317
30
0
41
1
10
34.5916738185257
20
2.07575609614233
30
0
41
1
10
34.332908964559
20
2.09778571038154
30
0
41
1
10
33.9879395832814
20
2.12430970820446
30
0
41
1
10
33.5566750464057
20
2.15113214994523
30
0
41
1
10
33.1253074419416
20
2.16793642591514
30
0
41
1
10
32.7801731127023
20
2.17465419884715
30
0
41
1
10
32.5213595837378
20
2.17563147352405
30
0
41
1
10
32.2625952582284
20
2.17344698605021
30
0
41
1
10
31.9176266136623
20
2.16790982800779
30
0
41
1
10
31.4863632377216
20
2.15445362234928
30
0
41
1
10
31.0549965725561
20
2.13095415196378
30
0
41
1
10
30.7098625641172
20
2.105578865658
30
0
41
1
10
30.4510488185258
20
2.08239963435267
30
0
41
1
10
30.1922839645596
20
2.05621923170182
30
0
41
1
10
29.8473145832824
20
2.01913265259844
30
0
41
1
10
29.4160500464071
20
1.96660241374209
30
0
41
1
10
28.9996504038244
20
1.90701722512955
30
0
41
1
10
28.7557710090223
20
1.86822551234721
30
0
41
1
10
28.6844607198124
20
1.85645971225341
30
0
0
SPLINE
5
E0
100
AcDbEntity
8
1
62
256
6
ByLayer
370
18
48
1
60
0
100
AcDbSpline
70
4
71
3
72
8
73
4
40
0
40
0
40
0
40
0
40
1
40
1
40
1
40
1
41
1
10
53.7347818639709
20
3.4201838001832
30
0
41
1
10
53.7651877639459
20
3.36739257748909
30
0
41
1
10
53.7956120529017
20
3.3145903831107
30
0
41
1
10
53.8260499360112
20
3.26178617489097
30
0
0
SPLINE
5
E1
100
AcDbEntity
8
1
62
256
6
ByLayer
370
18
48
1
60
0
100
AcDbSpline
70
4
71
5
72
19
73
13
40
0
40
0
40
0
40
0
40
0
40
0
40
0.0736207586944399
40
0.165744891974644
40
0.22885222543434
40
0.343174023610635
40
0.519792030280881
40
0.6963235062473
40
0.873496493922234
40
1
40
1
40
1
40
1
40
1
40
1
41
1
10
8.21701931497822
20
3.37263291761619
30
0
41
1
10
8.21085580701538
20
3.35158421134756
30
0
41
1
10
8.19680831485488
20
3.30419157345185
30
0
41
1
10
8.17688608405416
20
3.23874587592209
30
0
41
1
10
8.14595276244134
20
3.14062338963666
30
0
41
1
10
8.09677615799879
20
2.99214855574834
30
0
41
1
10
8.03439202879136
20
2.81471237250378
30
0
41
1
10
7.95903953796289
20
2.61400099401038
30
0
41
1
10
7.87145386299568
20
2.39724085304718
30
0
41
1
10
7.79247795410663
20
2.21494653773774
30
0
41
1
10
7.73258341526795
20
2.08323312046599
30
0
41
1
10
7.693891737255
20
2.00064516139358
30
0
41
1
10
7.67763564581838
20
1.96636929967681
30
0
0
SPLINE
5
E2
100
AcDbEntity
8
1
62
256
6
ByLayer
370
18
48
1
60
0
100
AcDbSpline
70
4
71
3
72
19
73
15
40
0
40
0
40
0
40
0
40
0.122822330855221
40
0.191343206193645
40
0.259864081532069
40
0.328384956870492
40
0.396905832208916
40
0.533947582885764
40
0.670989333562611
40
0.739510208901035
40
0.808031084239459
40
0.876551959577883
40
0.945072834916307
40
1
40
1
40
1
40
1
41
1
10
54.2060748702801
20
2.17519934008678
30
0
41
1
10
54.0514459792385
20
2.1753423522737
30
0
41
1
10
53.8105269135263
20
2.17299740888416
30
0
41
1
10
53.4832981127046
20
2.16387500673667
30
0
41
1
10
53.2244845837396
20
2.15250482934692
30
0
41
1
10
52.9657202582297
20
2.13801934722653
30
0
41
1
10
52.6207516136633
20
2.116282613257
30
0
41
1
10
52.189488237722
20
2.08269258716621
30
0
41
1
10
51.758121572556
20
2.03938383807917
30
0
41
1
10
51.4129875641168
20
1.99845875536579
30
0
41
1
10
51.1541738185252
20
1.96371180415605
30
0
41
1
10
50.8954089645588
20
1.92614808690178
30
0
41
1
10
50.6537913634725
20
1.8897557356556
30
0
41
1
10
50.4984046802434
20
1.86510418340279
30
0
41
1
10
50.4292640024121
20
1.85387877120664
30
0
0
SPLINE
5
E3
100
AcDbEntity
8
1
62
256
6
ByLayer
370
18
48
1
60
0
100
AcDbSpline
70
4
71
3
72
40
73
36
40
0
40
0
40
0
40
0
40
0.0179661161150591
40
0.0606632415013609
40
0.103360366887662
40
0.124708929580813
40
0.146057492273964
40
0.167406054967116
40
0.188754617660266
40
0.231451743046568
40
0.27414886843287
40
0.295497431126021
40
0.316845993819172
40
0.338194556512322
40
0.359543119205473
40
0.402240244591775
40
0.444937369978077
40
0.466285932671228
40
0.487634495364379
40
0.50898305805753
40
0.53033162075068
40
0.573028746136982
40
0.615725871523284
40
0.637074434216435
40
0.658422996909586
40
0.679771559602737
40
0.701120122295888
40
0.743817247682189
40
0.786514373068491
40
0.807862935761642
40
0.829211498454793
40
0.850560061147944
40
0.871908623841095
40
0.914605749227396
40
1
40
1
40
1
40
1
41
1
10
19.7997316180137
20
0.562619331127053
30
0
41
1
10
19.7271497522117
20
0.584634209489877
30
0
41
1
10
19.482085819378
20
0.658498888803194
30
0
41
1
10
19.0644882377217
20
0.782780422988111
30
0
41
1
10
18.6331215725559
20
0.907544628321517
30
0
41
1
10
18.2879875641169
20
1.00445800602611
30
0
41
1
10
18.0291738185254
20
1.07591780017358
30
0
41
1
10
17.7704089645591
20
1.14574054234143
30
0
41
1
10
17.4254395833113
20
1.23654006642124
30
0
41
1
10
16.9941750465834
20
1.34653842326179
30
0
41
1
10
16.5628074425627
20
1.45031173324369
30
0
41
1
10
16.2176731143
20
1.52876380768032
30
0
41
1
10
15.9588595835362
20
1.58525926307871
30
0
41
1
10
15.7000952574502
20
1.63939282849651
30
0
41
1
10
15.3551266184947
20
1.7088724995763
30
0
41
1
10
14.9238632538996
20
1.79075176156252
30
0
41
1
10
14.4924966042276
20
1.86432838359553
30
0
41
1
10
14.1473626070797
20
1.91736863683227
30
0
41
1
10
13.8885488881461
20
1.9538980822135
30
0
41
1
10
13.6297840535466
20
1.98755117305049
30
0
41
1
10
13.2848146532295
20
2.02955881000213
30
0
41
1
10
12.8535500537027
20
2.07605915887697
30
0
41
1
10
12.4221823283565
20
2.11290108624908
30
0
41
1
10
12.0770478355574
20
2.13580428254033
30
0
41
1
10
11.8182344049374
20
2.14910577024563
30
0
41
1
10
11.5594700676243
20
2.15927148602489
30
0
41
1
10
11.2145008043661
20
2.17006057634524
30
0
41
1
10
10.7832361291636
20
2.17704687344047
30
0
41
1
10
10.3518674590424
20
2.17389340440562
30
0
41
1
10
10.00673175
20
2.16465045439503
30
0
41
1
10
9.74791414415074
20
2.15357249654755
30
0
41
1
10
9.48914541147454
20
2.13937531370198
30
0
41
1
10
9.14417810942888
20
2.11799778088653
30
0
41
1
10
8.54053590798489
20
2.07174482822069
30
0
41
1
10
8.02278919818295
20
2.01429971715541
30
0
41
1
10
7.67763564581838
20
1.96636929967681
30
0
0
SPLINE
5
E4
100
AcDbEntity
8
1
62
256
6
ByLayer
370
18
48
1
60
0
100
AcDbSpline
70
4
71
3
72
12
73
8
40
0
40
0
40
0
40
0
40
0.25
40
0.25
40
0.5
40
0.5
40
1
40
1
40
1
40
1
41
1
10
53.8260499360113
20
3.261786174891
30
0
41
1
10
53.8570443158434
20
3.17162717925757
30
0
41
1
10
53.8882094561751
20
3.0811917099455
30
0
41
1
10
53.9508291046779
20
2.90018556144412
30
0
41
1
10
53.9822808776917
20
2.80962387872359
30
0
41
1
10
54.0771769254127
20
2.53783534103641
30
0
41
1
10
54.1411684343586
20
2.35650835014874
30
0
41
1
10
54.20607487028
20
2.17519934008686
30
0
0
SPLINE
5
E5
100
AcDbEntity
8
1
62
256
6
ByLayer
370
18
48
1
60
0
100
AcDbSpline
70
4
71
3
72
12
73
8
40
0
40
0
40
0
40
0
40
0.39424343231939
40
0.39424343231939
40
0.78848686463878
40
0.78848686463878
40
1
40
1
40
1
40
1
41
1
10
54.2312228704959
20
0.494702066895712
30
0
41
1
10
54.2057562404943
20
0.504533046644696
30
0
41
1
10
54.1803977273893
20
0.513919376576041
30
0
41
1
10
54.1297701232025
20
0.532324272584646
30
0
41
1
10
54.1044749545571
20
0.541450087246204
30
0
41
1
10
54.0657916878659
20
0.554719899739382
30
0
41
1
10
54.0523184329582
20
0.559214120195293
30
0
41
1
10
54.038886412867
20
0.563538755190592
30
0
0
SPLINE
5
E6
100
AcDbEntity
8
1
62
256
6
ByLayer
370
18
48
1
60
0
100
AcDbSpline
70
4
71
3
72
39
73
35
40
0
40
0
40
0
40
0
40
0.0217070209707744
40
0.0661748836539204
40
0.0884088149954936
40
0.110642746337067
40
0.132876677678641
40
0.155110609020214
40
0.199578471703361
40
0.244046334386507
40
0.266280265728081
40
0.288514197069654
40
0.310748128411227
40
0.332982059752801
40
0.377449922435947
40
0.421917785119094
40
0.444151716460667
40
0.466385647802241
40
0.488619579143814
40
0.510853510485387
40
0.555321373168534
40
0.599789235851681
40
0.622023167193254
40
0.644257098534827
40
0.666491029876401
40
0.688724961217974
40
0.73319282390112
40
0.777660686584267
40
0.79989461792584
40
0.822128549267414
40
0.844362480608987
40
0.86659641195056
40
0.911064274633707
40
1
40
1
40
1
40
1
41
1
10
24.9665077711702
20
-1.87626066973505
30
0
41
1
10
24.8824276398508
20
-1.88150570759987
30
0
41
1
10
24.6259528793232
20
-1.8963761770182
30
0
41
1
10
24.2821779982605
20
-1.91340900970769
30
0
41
1
10
23.936306359308
20
-1.9260914938076
30
0
41
1
10
23.6774885256845
20
-1.9318662924149
30
0
41
1
10
23.4187256418255
20
-1.93512233575913
30
0
41
1
10
23.0745181522603
20
-1.93361402776125
30
0
41
1
10
22.644145565941
20
-1.92355825391647
30
0
41
1
10
22.2118665719401
20
-1.90947270657614
30
0
41
1
10
21.8659951497451
20
-1.89372566961231
30
0
41
1
10
21.6071775145137
20
-1.87817570169375
30
0
41
1
10
21.3484144599814
20
-1.86013914426928
30
0
41
1
10
21.0042064233924
20
-1.82985611247682
30
0
41
1
10
20.5738326679759
20
-1.78444256987154
30
0
41
1
10
20.1415529417266
20
-1.73609692278572
30
0
41
1
10
19.7956812864173
20
-1.69329854568835
30
0
41
1
10
19.5368634692192
20
-1.65778424755629
30
0
41
1
10
19.2781006102927
20
-1.62003534054259
30
0
41
1
10
18.9338931111494
20
-1.56364431205779
30
0
41
1
10
18.5035204568258
20
-1.48689084020307
30
0
41
1
10
18.0712412455323
20
-1.40858265253436
30
0
41
1
10
17.7253698505971
20
-1.34254952621825
30
0
41
1
10
17.4665526532848
20
-1.29024236587506
30
0
41
1
10
17.2077901514831
20
-1.23615131388664
30
0
41
1
10
16.863582792279
20
-1.15867436626834
30
0
41
1
10
16.4332108166394
20
-1.05740032947608
30
0
41
1
10
16.0009357222468
20
-0.956064233292722
30
0
41
1
10
15.655066443584
20
-0.872636832247451
30
0
41
1
10
15.3962465249693
20
-0.808161875972985
30
0
41
1
10
15.137479901565
20
-0.742518632190098
30
0
41
1
10
14.7932733397809
20
-0.650830482225786
30
0
41
1
10
14.193405005073
20
-0.482076796846371
30
0
41
1
10
13.6734800306224
20
-0.345015356184007
30
0
41
1
10
13.3253302807212
20
-0.255358515401866
30
0
0
SPLINE
5
E7
100
AcDbEntity
8
1
62
256
6
ByLayer
370
18
48
1
60
0
100
AcDbSpline
70
4
71
5
72
12
73
6
40
0
40
0
40
0
40
0
40
0
40
0
40
1
40
1
40
1
40
1
40
1
40
1
41
1
10
13.325330277602
20
-0.255358511523639
30
0
41
1
10
11.9412087557262
20
0.107846127710246
30
0
41
1
10
10.5672516345885
20
0.518015702906922
30
0
41
1
10
9.20451921714286
20
0.972617388915154
30
0
41
1
10
7.85387569810453
20
1.4683537443704
30
0
41
1
10
6.51584461446026
20
2.00183797391739
30
0
0
SPLINE
5
E8
100
AcDbEntity
8
1
62
256
6
ByLayer
370
18
48
1
60
0
100
AcDbSpline
70
4
71
3
72
43
73
39
40
0
40
0
40
0
40
0
40
0.0179874204280053
40
0.0389985196826982
40
0.0600096189373897
40
0.102031817446774
40
0.144054015956159
40
0.16506511521085
40
0.186076214465543
40
0.207087313720233
40
0.228098412974927
40
0.270120611484312
40
0.312142809993697
40
0.333153909248388
40
0.354165008503081
40
0.375176107757772
40
0.396187207012465
40
0.43820940552185
40
0.480231604031235
40
0.501242703285927
40
0.522253802540618
40
0.543264901795313
40
0.564276001050004
40
0.606298199559387
40
0.648320398068772
40
0.669331497323464
40
0.690342596578156
40
0.711353695832848
40
0.73236479508754
40
0.774386993596925
40
0.81640919210631
40
0.837420291361003
40
0.858431390615694
40
0.879442489870386
40
0.900453589125079
40
0.942475787634463
40
0.984497986143847
40
1
40
1
40
1
40
1
41
1
10
46.6725603494313
20
-1.8804753044877
30
0
41
1
10
46.5986420603051
20
-1.88548533464359
30
0
41
1
10
46.438514767692
20
-1.89543591418294
30
0
41
1
10
46.1921644653432
20
-1.90858206475056
30
0
41
1
10
45.8479564342015
20
-1.92152628170362
30
0
41
1
10
45.4175826924823
20
-1.92949040496274
30
0
41
1
10
44.9853029982677
20
-1.93299441687793
30
0
41
1
10
44.6394313593183
20
-1.93127811246191
30
0
41
1
10
44.3806135256954
20
-1.9262089491815
30
0
41
1
10
44.1218506418361
20
-1.91860882682002
30
0
41
1
10
43.7776431520882
20
-1.90236468575776
30
0
41
1
10
43.3472705648394
20
-1.87411275430298
30
0
41
1
10
42.9149915680191
20
-1.84235199360822
30
0
41
1
10
42.5691201453512
20
-1.8126000717433
30
0
41
1
10
42.3103025142931
20
-1.78667160315118
30
0
41
1
10
42.0515394653463
20
-1.75835759999168
30
0
41
1
10
41.7073314342009
20
-1.71438842783746
30
0
41
1
10
41.2769576924766
20
-1.65244103553169
30
0
41
1
10
40.8446779982576
20
-1.58822801083355
30
0
41
1
10
40.498806359306
20
-1.53306246855436
30
0
41
1
10
40.2399885256827
20
-1.48855643012359
30
0
41
1
10
39.981225641824
20
-1.44202108876928
30
0
41
1
10
39.6370181520767
20
-1.37420926251767
30
0
41
1
10
39.2066455648301
20
-1.28405196974472
30
0
41
1
10
38.7743665680141
20
-1.19309177708553
30
0
41
1
10
38.4284951453494
20
-1.11742513247759
30
0
41
1
10
38.1696775142926
20
-1.05831002954147
30
0
41
1
10
37.9109144653467
20
-0.99770295257116
30
0
41
1
10
37.5667064342029
20
-0.91208469806574
30
0
41
1
10
37.1363326924798
20
-0.801731403163785
30
0
41
1
10
36.7040529982602
20
-0.692093490163387
30
0
41
1
10
36.3581813593077
20
-0.602629940722494
30
0
41
1
10
36.0993635256841
20
-0.534137712012324
30
0
41
1
10
35.8406006418251
20
-0.464822327905438
30
0
41
1
10
35.4963931520768
20
-0.368984322176857
30
0
41
1
10
35.0660205648293
20
-0.248220610175309
30
0
41
1
10
34.6564101764527
20
-0.135857071147143
30
0
41
1
10
34.4196812639075
20
-0.0706468336047692
30
0
41
1
10
34.3559246025147
20
-0.0530484937155791
30
0
0
SPLINE
5
E9
100
AcDbEntity
8
1
62
256
6
ByLayer
370
18
48
1
60
0
100
AcDbSpline
70
4
71
3
72
22
73
18
40
0
40
0
40
0
40
0
40
0.499999999999958
40
0.499999999999958
40
0.749999999999935
40
0.749999999999935
40
0.874999999999923
40
0.874999999999923
40
0.937499999999917
40
0.937499999999917
40
0.968749999999961
40
0.968749999999961
40
0.984374999999981
40
0.984374999999981
40
0.99218749999999
40
0.99218749999999
40
1
40
1
40
1
40
1
41
1
10
53.6420139519079
20
3.57187220878012
30
0
41
1
10
53.6575209957933
20
3.5466890678151
30
0
41
1
10
53.6730389129573
20
3.52139145126446
30
0
41
1
10
53.6962739346757
20
3.48339599482455
30
0
41
1
10
53.704006761227
20
3.47073313342807
30
0
41
1
10
53.7156695926984
20
3.45157039109412
30
0
41
1
10
53.7195807068232
20
3.44512787245614
30
0
41
1
10
53.7253853394553
20
3.43558588621144
30
0
41
1
10
53.7272929277466
20
3.43246031050478
30
0
41
1
10
53.7301732148007
20
3.42773041407861
30
0
41
1
10
53.731143815405
20
3.42613185922201
30
0
41
1
10
53.7326281320319
20
3.42367325362534
30
0
41
1
10
53.7331314911307
20
3.42283514289377
30
0
41
1
10
53.7338764009181
20
3.42159982834502
30
0
41
1
10
53.734124716607
20
3.42118887373962
30
0
41
1
10
53.7345698367308
20
3.42047009511688
30
0
41
1
10
53.7347419492133
20
3.42021053024476
30
0
41
1
10
53.7347818639691
20
3.42018380018399
30
0
0
SPLINE
5
EA
100
AcDbEntity
8
1
62
256
6
ByLayer
370
18
48
1
60
0
100
AcDbSpline
70
4
71
3
72
46
73
42
40
0
40
0
40
0
40
0
40
0.053285020346563
40
0.053285020346563
40
0.106570040693126
40
0.106570040693126
40
0.159855061039689
40
0.159855061039689
40
0.186497571212972
40
0.186497571212972
40
0.213140081386255
40
0.213140081386255
40
0.26642510173282
40
0.26642510173282
40
0.319710122079385
40
0.319710122079385
40
0.346352632252667
40
0.346352632252667
40
0.37299514242595
40
0.37299514242595
40
0.426280162772515
40
0.426280162772515
40
0.479565183119079
40
0.479565183119079
40
0.532850203465644
40
0.532850203465644
40
0.586135223812209
40
0.586135223812209
40
0.639420244158774
40
0.639420244158774
40
0.745990284851904
40
0.745990284851904
40
0.852560325545033
40
0.852560325545033
40
0.879202835718315
40
0.879202835718315
40
0.905845345891598
40
0.905845345891598
40
0.959130366238159
40
0.959130366238159
40
1
40
1
40
1
40
1
41
1
10
19.279910020362
20
0.811216043996893
30
0
41
1
10
19.4601578999445
20
0.724730689141978
30
0
41
1
10
19.6402606150406
20
0.637467158967866
30
0
41
1
10
20.0004020868719
20
0.461837489654925
30
0
41
1
10
20.1804602503065
20
0.373511078636767
30
0
41
1
10
20.5406567828706
20
0.196044199956702
30
0
41
1
10
20.7207813112016
20
0.106875439724036
30
0
41
1
10
20.9913535127429
20
-0.0268282869172651
30
0
41
1
10
21.0815843247181
20
-0.0713874812701647
30
0
41
1
10
21.2618988020021
20
-0.160394145774433
30
0
41
1
10
21.3520149430016
20
-0.20485327171275
30
0
41
1
10
21.6222780215854
20
-0.338020480528002
30
0
41
1
10
21.8023394454251
20
-0.426518566208699
30
0
41
1
10
22.1624707116873
20
-0.602473567390859
30
0
41
1
10
22.3425570008348
20
-0.689898651719517
30
0
41
1
10
22.6127892971362
20
-0.820052498652274
30
0
41
1
10
22.7028892180672
20
-0.863262768491637
30
0
41
1
10
22.8831894026119
20
-0.949226618679035
30
0
41
1
10
22.9734496185018
20
-0.991996039034575
30
0
41
1
10
23.2438145918101
20
-1.11922654263512
30
0
41
1
10
23.4235817430224
20
-1.20273993683816
30
0
41
1
10
23.7823239403404
20
-1.36690569461288
30
0
41
1
10
23.9613054218514
20
-1.44754372632866
30
0
41
1
10
24.3187169980072
20
-1.60552979885881
30
0
41
1
10
24.4971477540425
20
-1.6828743029516
30
0
41
1
10
24.8535743976445
20
-1.83406675909268
30
0
41
1
10
25.0316243823992
20
-1.90782399594465
30
0
41
1
10
25.3876701818102
20
-2.05123252598142
30
0
41
1
10
25.5656153278256
20
-2.12097381750098
30
0
41
1
10
26.0994943452865
20
-2.32382460127204
30
0
41
1
10
26.4555213615739
20
-2.4504833825651
30
0
41
1
10
27.1692888838034
20
-2.68391831752845
30
0
41
1
10
27.5272786864755
20
-2.79044550431624
30
0
41
1
10
27.9768750091477
20
-2.90978004147956
30
0
41
1
10
28.0669032468927
20
-2.93294946443129
30
0
41
1
10
28.2472077679309
20
-2.97784722316055
30
0
41
1
10
28.3374576292931
20
-2.9995671343531
30
0
41
1
10
28.6078605997363
20
-3.06232465844846
30
0
41
1
10
28.7878680107007
20
-3.10104184566566
30
0
41
1
10
29.1057486427129
20
-3.16374504248247
30
0
41
1
10
29.2437019612013
20
-3.18904170703175
30
0
41
1
10
29.3816442640632
20
-3.21242317516331
30
0
0
SPLINE
5
EB
100
AcDbEntity
8
1
62
256
6
ByLayer
370
18
48
1
60
0
100
AcDbSpline
70
4
71
3
72
26
73
22
40
0
40
0
40
0
40
0
40
0.061032891862482
40
0.061032891862482
40
0.16536257054443
40
0.16536257054443
40
0.269692249226379
40
0.269692249226379
40
0.374021927908328
40
0.374021927908328
40
0.478351606590276
40
0.478351606590276
40
0.582681285272225
40
0.582681285272225
40
0.634846124613199
40
0.634846124613199
40
0.687010963954174
40
0.687010963954174
40
0.791340642636115
40
0.791340642636115
40
1
40
1
40
1
40
1
41
1
10
48.5647664242341
20
2.56774812850801
30
0
41
1
10
48.6700197437593
20
2.6021138346172
30
0
41
1
10
48.7752988518877
20
2.63560657013463
30
0
41
1
10
49.0606750216221
20
2.72389126133379
30
0
41
1
10
49.2408841850238
20
2.7769198458364
30
0
41
1
10
49.6017249670862
20
2.87739821845207
30
0
41
1
10
49.7819313624817
20
2.92469486029964
30
0
41
1
10
50.1420998440132
20
3.01302616287464
30
0
41
1
10
50.3220416579413
20
3.05414046739858
30
0
41
1
10
50.6817836384522
20
3.13017174099883
30
0
41
1
10
50.8615920635596
20
3.16507759247634
30
0
41
1
10
51.2213170837639
20
3.22846177404907
30
0
41
1
10
51.4012365491782
20
3.25693954923875
30
0
41
1
10
51.6712974842818
20
3.29468221038007
30
0
41
1
10
51.761355365789
20
3.30643229371896
30
0
41
1
10
51.94160551802
20
3.32823987744712
30
0
41
1
10
52.0318522495576
20
3.33830082828848
30
0
41
1
10
52.3024551110938
20
3.36590493764777
30
0
41
1
10
52.4823521693462
20
3.38084942631647
30
0
41
1
10
53.0208225501526
20
3.41536937722978
30
0
41
1
10
53.3782276368046
20
3.42462018596058
30
0
41
1
10
53.7347818639596
20
3.42018380018283
30
0
0
SPLINE
5
EC
100
AcDbEntity
8
1
62
256
6
ByLayer
370
18
48
1
60
0
100
AcDbSpline
70
4
71
3
72
38
73
34
40
0
40
0
40
0
40
0
40
0.125000000000012
40
0.125000000000012
40
0.156250000000012
40
0.156250000000012
40
0.187500000000012
40
0.250000000000002
40
0.312499999999992
40
0.312499999999992
40
0.343749999999987
40
0.343749999999987
40
0.374999999999982
40
0.374999999999982
40
0.499999999999985
40
0.499999999999985
40
0.562499999999987
40
0.562499999999987
40
0.624999999999988
40
0.624999999999988
40
0.68749999999999
40
0.68749999999999
40
0.718749999999996
40
0.718749999999996
40
0.750000000000002
40
0.750000000000002
40
0.874999999999997
40
0.874999999999997
40
0.906249999999998
40
0.906249999999998
40
0.937499999999999
40
0.937499999999999
40
1
40
1
40
1
40
1
41
1
10
54.9989951402424
20
0.127870946295786
30
0
41
1
10
54.977675786471
20
0.0675147836346923
30
0
41
1
10
54.9545825243325
20
0.0080012001732257
30
0
41
1
10
54.923434811756
20
-0.0652841682248493
30
0
41
1
10
54.9170789870884
20
-0.0799087389532076
30
0
41
1
10
54.9042825096893
20
-0.108708002037105
30
0
41
1
10
54.8849117700989
20
-0.151348886398068
30
0
41
1
10
54.8517809465303
20
-0.219646730743364
30
0
41
1
10
54.8244116344649
20
-0.271289033031053
30
0
41
1
10
54.8035598246037
20
-0.308843412671479
30
0
41
1
10
54.7965549252052
20
-0.321164894809556
30
0
41
1
10
54.782434292742
20
-0.345399758458768
30
0
41
1
10
54.7752930547965
20
-0.357353759659389
30
0
41
1
10
54.7397354975793
20
-0.415354423977391
30
0
41
1
10
54.7116405808529
20
-0.45641019250553
30
0
41
1
10
54.6700242469386
20
-0.509855248510775
30
0
41
1
10
54.6562392484699
20
-0.526302626141842
30
0
41
1
10
54.6288355101955
20
-0.556286553075097
30
0
41
1
10
54.6155221827046
20
-0.569488120508197
30
0
41
1
10
54.589618888424
20
-0.592429219692406
30
0
41
1
10
54.5770284670913
20
-0.60216893822539
30
0
41
1
10
54.5586548348164
20
-0.614180806006345
30
0
41
1
10
54.5526157467162
20
-0.617750886226133
30
0
41
1
10
54.5407048932426
20
-0.624011856345248
30
0
41
1
10
54.5348147912893
20
-0.626709309063642
30
0
41
1
10
54.5060169753353
20
-0.637862699861444
30
0
41
1
10
54.4851893468498
20
-0.639389442504722
30
0
41
1
10
54.4614578214745
20
-0.632701962118915
30
0
41
1
10
54.4568279740405
20
-0.630930178267334
30
0
41
1
10
54.4477944464055
20
-0.626517354857299
30
0
41
1
10
54.4433932563413
20
-0.623874002073364
30
0
41
1
10
54.4306600780349
20
-0.614753822822479
30
0
41
1
10
54.422744375958
20
-0.607067555620262
30
0
41
1
10
54.4153415243142
20
-0.597873383321712
30
0
0
SPLINE
5
ED
100
AcDbEntity
8
1
62
256
6
ByLayer
370
18
48
1
60
0
100
AcDbSpline
70
4
71
3
72
105
73
101
40
0
40
0
40
0
40
0
40
0.031250000000005
40
0.031250000000005
40
0.0390625000000062
40
0.0390625000000062
40
0.0468750000000074
40
0.0625000000000096
40
0.0781250000000118
40
0.0781250000000118
40
0.085937500000012
40
0.085937500000012
40
0.0937500000000123
40
0.0937500000000123
40
0.125000000000014
40
0.125000000000014
40
0.140625000000014
40
0.140625000000014
40
0.156250000000015
40
0.171875000000015
40
0.171875000000015
40
0.187500000000016
40
0.187500000000016
40
0.218750000000022
40
0.218750000000022
40
0.234375000000023
40
0.234375000000023
40
0.250000000000023
40
0.250000000000023
40
0.281250000000025
40
0.281250000000025
40
0.296875000000025
40
0.296875000000025
40
0.312500000000026
40
0.312500000000026
40
0.328125000000027
40
0.328125000000027
40
0.343750000000027
40
0.343750000000027
40
0.375000000000024
40
0.375000000000024
40
0.390625000000022
40
0.390625000000022
40
0.40625000000002
40
0.40625000000002
40
0.437500000000021
40
0.437500000000021
40
0.453125000000021
40
0.453125000000021
40
0.468750000000021
40
0.468750000000021
40
0.500000000000019
40
0.500000000000019
40
0.515625000000018
40
0.515625000000018
40
0.531250000000016
40
0.531250000000016
40
0.562500000000013
40
0.562500000000013
40
0.578125000000011
40
0.578125000000011
40
0.593750000000009
40
0.593750000000009
40
0.625000000000006
40
0.625000000000006
40
0.640625000000005
40
0.640625000000005
40
0.656250000000003
40
0.656250000000003
40
0.687499999999998
40
0.687499999999998
40
0.695312499999998
40
0.695312499999998
40
0.703124999999998
40
0.718749999999999
40
0.734374999999999
40
0.734374999999999
40
0.75
40
0.75
40
0.781249999999996
40
0.781249999999996
40
0.796874999999994
40
0.796874999999994
40
0.812499999999992
40
0.812499999999992
40
0.843749999999989
40
0.843749999999989
40
0.85937499999999
40
0.85937499999999
40
0.874999999999991
40
0.874999999999991
40
0.906249999999993
40
0.906249999999993
40
0.937499999999996
40
0.937499999999996
40
0.968749999999998
40
0.968749999999998
40
0.984374999999999
40
0.984374999999999
40
1
40
1
40
1
40
1
41
1
10
54.4153415243143
20
-0.597873383321996
30
0
41
1
10
54.4186408998668
20
-0.615819824816612
30
0
41
1
10
54.4207171549808
20
-0.635969233268952
30
0
41
1
10
54.4215709850821
20
-0.664286641869921
30
0
41
1
10
54.4216530949973
20
-0.670111471477981
30
0
41
1
10
54.421636191535
20
-0.681923020245762
30
0
41
1
10
54.4213413339933
20
-0.699941221988098
30
0
41
1
10
54.4195151622449
20
-0.731465185096994
30
0
41
1
10
54.416626677105
20
-0.758294626846634
30
0
41
1
10
54.4139102538149
20
-0.779044294633991
30
0
41
1
10
54.4129129613603
20
-0.78606563345221
30
0
41
1
10
54.4107304057016
20
-0.800324305331657
30
0
41
1
10
54.4095413157117
20
-0.8075813198719
30
0
41
1
10
54.403199686162
20
-0.843944374223582
30
0
41
1
10
54.3968312438801
20
-0.873571628977601
30
0
41
1
10
54.3854631598916
20
-0.918809851951806
30
0
41
1
10
54.3813531785634
20
-0.934078291053396
30
0
41
1
10
54.3725909771755
20
-0.964648565505513
30
0
41
1
10
54.3633819484949
20
-0.994935283021306
30
0
41
1
10
54.3533494923181
20
-1.02469198095542
30
0
41
1
10
54.3429267638284
20
-1.05419376303556
30
0
41
1
10
54.337508090239
20
-1.0688484999167
30
0
41
1
10
54.3207585919156
20
-1.11223385698179
30
0
41
1
10
54.3091887907827
20
-1.13976033712717
30
0
41
1
10
54.2913330880057
20
-1.17916180434364
30
0
41
1
10
54.2852967091433
20
-1.19197824762077
30
0
41
1
10
54.2730622562274
20
-1.21698263406219
30
0
41
1
10
54.2669053528238
20
-1.2290834331269
30
0
41
1
10
54.2485093226178
20
-1.26388640929926
30
0
41
1
10
54.2362689984803
20
-1.28525762775189
30
0
41
1
10
54.2179525360822
20
-1.31469540845322
30
0
41
1
10
54.2118351910876
20
-1.32409573928732
30
0
41
1
10
54.1997208587075
20
-1.34185180594477
30
0
41
1
10
54.1937279270421
20
-1.35020502225464
30
0
41
1
10
54.1818656673641
20
-1.36588118801964
30
0
41
1
10
54.1759772250017
20
-1.37322470350583
30
0
41
1
10
54.1644672050954
20
-1.38671129539588
30
0
41
1
10
54.1588280661864
20
-1.39287971604045
30
0
41
1
10
54.1422396654499
20
-1.40971289626097
30
0
41
1
10
54.1316176916735
20
-1.41871740867805
30
0
41
1
10
54.1163013571925
20
-1.42887965968353
30
0
41
1
10
54.1112967267135
20
-1.43170779357337
30
0
41
1
10
54.1015025510195
20
-1.43619782619606
30
0
41
1
10
54.0967739366794
20
-1.43783224572817
30
0
41
1
10
54.0830684695343
20
-1.44094428944112
30
0
41
1
10
54.0745687868292
20
-1.44064351718245
30
0
41
1
10
54.0627370543895
20
-1.43655479347339
30
0
41
1
10
54.0589469109168
20
-1.43458249112507
30
0
41
1
10
54.0516780836322
20
-1.42936460595882
30
0
41
1
10
54.0482059519837
20
-1.42611445688703
30
0
41
1
10
54.0384538917979
20
-1.41460769826784
30
0
41
1
10
54.0327607613451
20
-1.40456418756011
30
0
41
1
10
54.0254177476096
20
-1.38584226510909
30
0
41
1
10
54.0231707559393
20
-1.37898886563443
30
0
41
1
10
54.0190920899006
20
-1.363994280024
30
0
41
1
10
54.017254141096
20
-1.35580609898096
30
0
41
1
10
54.012494048465
20
-1.3297272629506
30
0
41
1
10
54.0102809697755
20
-1.31025437417736
30
0
41
1
10
54.0084285895063
20
-1.27783290037954
30
0
41
1
10
54.0080574009267
20
-1.26648717306386
30
0
41
1
10
54.007835974472
20
-1.24266018252916
30
0
41
1
10
54.0079902831203
20
-1.23011390605617
30
0
41
1
10
54.0092606569533
20
-1.19159910482884
30
0
41
1
10
54.0111636438818
20
-1.16454530186326
30
0
41
1
10
54.0156809433406
20
-1.12186048049085
30
0
41
1
10
54.0174658988153
20
-1.10727923890437
30
0
41
1
10
54.021636039737
20
-1.07737307115471
30
0
41
1
10
54.0239901554838
20
-1.06227951181464
30
0
41
1
10
54.0318120764804
20
-1.01687051490038
30
0
41
1
10
54.038048627297
20
-0.98630717726013
30
0
41
1
10
54.0472098215903
20
-0.947746962993392
30
0
41
1
10
54.049117081456
20
-0.939993613000667
30
0
41
1
10
54.0530331611304
20
-0.924608857333965
30
0
41
1
10
54.0590636694067
20
-0.901692677089812
30
0
41
1
10
54.0698862651932
20
-0.864284327282803
30
0
41
1
10
54.0793657567655
20
-0.835176128485301
30
0
41
1
10
54.0892650745967
20
-0.806478575677261
30
0
41
1
10
54.0944402048564
20
-0.792302946603201
30
0
41
1
10
54.1102721495955
20
-0.751272040849074
30
0
41
1
10
54.1213311116866
20
-0.725599822204771
30
0
41
1
10
54.1386613597296
20
-0.689456296513924
30
0
41
1
10
54.1445902320617
20
-0.677755500294353
30
0
41
1
10
54.1565204291862
20
-0.655477388425112
30
0
41
1
10
54.1625267672709
20
-0.644882379859638
30
0
41
1
10
54.1806649517139
20
-0.614642667077391
30
0
41
1
10
54.1929158638118
20
-0.596532192508676
30
0
41
1
10
54.2115150698299
20
-0.572325514506645
30
0
41
1
10
54.2177092807869
20
-0.564810924242664
30
0
41
1
10
54.2299884228449
20
-0.550953284302636
30
0
41
1
10
54.2360887505432
20
-0.544590171652118
30
0
41
1
10
54.2542691559099
20
-0.527140870794028
30
0
41
1
10
54.2662301127713
20
-0.517682841856782
30
0
41
1
10
54.2897838089812
20
-0.503113448126584
30
0
41
1
10
54.301120739984
20
-0.498163382329238
30
0
41
1
10
54.3228293786566
20
-0.492742311657054
30
0
41
1
10
54.3332129143873
20
-0.492264248305616
30
0
41
1
10
54.3480000623786
20
-0.495034991687788
30
0
41
1
10
54.3528024948865
20
-0.496552140334387
30
0
41
1
10
54.3619615236962
20
-0.50072588846723
30
0
41
1
10
54.366339938374
20
-0.503384053521103
30
0
41
1
10
54.3705128921267
20
-0.506613663359417
30
0
0
SPLINE
5
EE
100
AcDbEntity
8
1
62
256
6
ByLayer
370
18
48
1
60
0
100
AcDbSpline
70
4
71
3
72
10
73
6
40
0
40
0
40
0
40
0
40
0.5
40
0.5
40
1
40
1
40
1
40
1
41
1
10
54.3705128921267
20
-0.506613663359474
30
0
41
1
10
54.36217603735
20
-0.480398022119715
30
0
41
1
10
54.3551728245847
20
-0.450987279732487
30
0
41
1
10
54.3435038168308
20
-0.386278929448366
30
0
41
1
10
54.3388360519868
20
-0.35085571049936
30
0
41
1
10
54.3353169517017
20
-0.313107213217677
30
0
0
SPLINE
5
EF
100
AcDbEntity
8
1
62
256
6
ByLayer
370
18
48
1
60
0
100
AcDbSpline
70
4
71
3
72
8
73
4
40
0
40
0
40
0
40
0
40
1
40
1
40
1
40
1
41
1
10
54.3353169517017
20
-0.313107213217734
30
0
41
1
10
54.3106367195897
20
-0.0483686154770453
30
0
41
1
10
54.2758752595664
20
0.220929836005723
30
0
41
1
10
54.2312228704959
20
0.494702066895712
30
0
0
SPLINE
5
F0
100
AcDbEntity
8
1
62
256
6
ByLayer
370
18
48
1
60
0
100
AcDbSpline
70
4
71
3
72
26
73
22
40
0
40
0
40
0
40
0
40
0.125000000000017
40
0.125000000000017
40
0.187500000000025
40
0.187500000000025
40
0.250000000000033
40
0.250000000000033
40
0.375000000000038
40
0.375000000000038
40
0.437500000000034
40
0.437500000000034
40
0.500000000000031
40
0.500000000000031
40
0.625000000000023
40
0.625000000000023
40
0.750000000000015
40
0.750000000000015
40
0.875000000000008
40
0.875000000000008
40
1
40
1
40
1
40
1
41
1
10
54.231222870496
20
0.494702066895712
30
0
41
1
10
54.2097527382469
20
0.497120043069628
30
0
41
1
10
54.1878356313831
20
0.497682534299571
30
0
41
1
10
54.1542542554586
20
0.495223202525153
30
0
41
1
10
54.1429430407334
20
0.493834380323477
30
0
41
1
10
54.1202840590635
20
0.489920189539958
30
0
41
1
10
54.1089132221599
20
0.487400988599404
30
0
41
1
10
54.0747246696071
20
0.478488907035484
30
0
41
1
10
54.0518231087029
20
0.470625429761981
30
0
41
1
10
54.0174754837625
20
0.457373767418034
30
0
41
1
10
54.0060251234431
20
0.452699306134292
30
0
41
1
10
53.9831112485588
20
0.442586390682237
30
0
41
1
10
53.9716487119804
20
0.437158626644049
30
0
41
1
10
53.9372627693313
20
0.419840925096196
30
0
41
1
10
53.9143402623427
20
0.406910490610869
30
0
41
1
10
53.8685527361644
20
0.378079311225804
30
0
41
1
10
53.8456872512812
20
0.362166567022968
30
0
41
1
10
53.8000817471808
20
0.327350717705457
30
0
41
1
10
53.7773444578135
20
0.308493408367639
30
0
41
1
10
53.7320756888029
20
0.268132956923779
30
0
41
1
10
53.709570469741
20
0.246654496181151
30
0
41
1
10
53.687306402629
20
0.224117420389405
30
0
0
SPLINE
5
F1
100
AcDbEntity
8
1
62
256
6
ByLayer
370
18
48
1
60
0
100
AcDbSpline
70
4
71
3
72
14
73
10
40
0
40
0
40
0
40
0
40
0.25
40
0.25
40
0.375000000000001
40
0.375000000000001
40
0.500000000000001
40
0.500000000000001
40
1
40
1
40
1
40
1
41
1
10
53.8260499360113
20
-3.26178617489089
30
0
41
1
10
53.8135306618772
20
-3.28059544407299
30
0
41
1
10
53.8014375172403
20
-3.29813291518892
30
0
41
1
10
53.7839482770071
20
-3.3223956242401
30
0
41
1
10
53.7782269323501
20
-3.33014239163785
30
0
41
1
10
53.7670027987797
20
-3.34492871593954
30
0
41
1
10
53.7615277820872
20
-3.35193100199004
30
0
41
1
10
53.7349384857494
20
-3.38484259990452
30
0
41
1
10
53.7160537872988
20
-3.4046303870426
30
0
41
1
10
53.69926018645
20
-3.41803708126628
30
0
0
SPLINE
5
F2
100
AcDbEntity
8
1
62
256
6
ByLayer
370
18
48
1
60
0
100
AcDbSpline
70
4
71
3
72
12
73
8
40
0
40
0
40
0
40
0
40
0.25
40
0.25
40
0.500000000000001
40
0.500000000000001
40
1
40
1
40
1
40
1
41
1
10
53.8260499360113
20
-3.26178617489072
30
0
41
1
10
53.8570443158434
20
-3.17162717925731
30
0
41
1
10
53.8882094561752
20
-3.0811917099453
30
0
41
1
10
53.950829104678
20
-2.90018556144395
30
0
41
1
10
53.9822808776918
20
-2.80962387872344
30
0
41
1
10
54.0771769254127
20
-2.53783534103636
30
0
41
1
10
54.1411684343587
20
-2.35650835014872
30
0
41
1
10
54.20607487028
20
-2.17519934008686
30
0
0
SPLINE
5
F3
100
AcDbEntity
8
1
62
256
6
ByLayer
370
18
48
1
60
0
100
AcDbSpline
70
4
71
3
72
8
73
4
40
0
40
0
40
0
40
0
40
1
40
1
40
1
40
1
41
1
10
54.2060748702788
20
-2.17519934008726
30
0
41
1
10
54.2304031984403
20
-2.10724250744471
30
0
41
1
10
54.2553970167078
20
-2.03945960666914
30
0
41
1
10
54.2810928804406
20
-1.97216578361559
30
0
0
SPLINE
5
F4
100
AcDbEntity
8
1
62
256
6
ByLayer
370
18
48
1
60
0
100
AcDbSpline
70
4
71
3
72
14
73
10
40
0
40
0
40
0
40
0
40
0.500000000000001
40
0.500000000000001
40
0.750000000000011
40
0.750000000000011
40
0.875000000000006
40
0.875000000000006
40
1
40
1
40
1
40
1
41
1
10
54.28109288044
20
-1.97216578361517
30
0
41
1
10
54.33083095996
20
-1.84190880695425
30
0
41
1
10
54.382448462321
20
-1.71558117385845
30
0
41
1
10
54.4633642843148
20
-1.53169410793115
30
0
41
1
10
54.4909200453076
20
-1.47134394908917
30
0
41
1
10
54.5332660696586
20
-1.38234074365852
30
0
41
1
10
54.5475497989302
20
-1.35292603537763
30
0
41
1
10
54.5764759340419
20
-1.29461891402988
30
0
41
1
10
54.5911549154239
20
-1.26565851959168
30
0
41
1
10
54.6059251489107
20
-1.23715593791769
30
0
0
SPLINE
5
F5
100
AcDbEntity
8
1
62
256
6
ByLayer
370
18
48
1
60
0
100
AcDbSpline
70
4
71
3
72
8
73
4
40
0
40
0
40
0
40
0
40
1
40
1
40
1
40
1
41
1
10
54.6059251489107
20
-1.23715593791772
30
0
41
1
10
54.7075008429144
20
-0.952315758709574
30
0
41
1
10
54.8081582896713
20
-0.667154194715039
30
0
41
1
10
54.9078774275124
20
-0.38166422438826
30
0
0
SPLINE
5
F6
100
AcDbEntity
8
1
62
256
6
ByLayer
370
18
48
1
60
0
100
AcDbSpline
70
4
71
3
72
8
73
4
40
0
40
0
40
0
40
0
40
1
40
1
40
1
40
1
41
1
10
54.9078774275124
20
-0.381664224388288
30
0
41
1
10
54.9375602171908
20
-0.2966841601
30
0
41
1
10
54.9679327374429
20
-0.212091559704334
30
0
41
1
10
54.9989951402423
20
-0.127870946295786
30
0
0
SPLINE
5
F7
100
AcDbEntity
8
1
62
256
6
ByLayer
370
18
48
1
60
0
100
AcDbSpline
70
4
71
3
72
8
73
4
40
0
40
0
40
0
40
0
40
1
40
1
40
1
40
1
41
1
10
54.9989951402423
20
0.127870946295815
30
0
41
1
10
55.0003331727228
20
0.0427369371301722
30
0
41
1
10
55.0003367385245
20
-0.0425100584915015
30
0
41
1
10
54.9989951402423
20
-0.127870946295786
30
0
0
SPLINE
5
F8
100
AcDbEntity
8
1
62
256
6
ByLayer
370
18
48
1
60
0
100
AcDbSpline
70
4
71
3
72
22
73
18
40
0
40
0
40
0
40
0
40
0.499999999999901
40
0.499999999999901
40
0.749999999999854
40
0.749999999999854
40
0.87499999999988
40
0.87499999999988
40
0.937499999999893
40
0.937499999999893
40
0.968749999999944
40
0.968749999999944
40
0.984374999999972
40
0.984374999999972
40
0.992187499999986
40
0.992187499999986
40
1
40
1
40
1
40
1
41
1
10
53.6420139519079
20
-3.57187220878009
30
0
41
1
10
53.6575209957933
20
-3.54668906781507
30
0
41
1
10
53.6730389129573
20
-3.52139145126446
30
0
41
1
10
53.6962739346757
20
-3.48339599482455
30
0
41
1
10
53.704006761227
20
-3.47073313342804
30
0
41
1
10
53.7156695926984
20
-3.45157039109412
30
0
41
1
10
53.7195807068232
20
-3.44512787245614
30
0
41
1
10
53.7253853394553
20
-3.43558588621144
30
0
41
1
10
53.7272929277466
20
-3.43246031050478
30
0
41
1
10
53.7301732148007
20
-3.42773041407861
30
0
41
1
10
53.731143815405
20
-3.42613185922204
30
0
41
1
10
53.7326281320319
20
-3.42367325362537
30
0
41
1
10
53.7331314911307
20
-3.42283514289375
30
0
41
1
10
53.7338764009181
20
-3.42159982834499
30
0
41
1
10
53.734124716607
20
-3.42118887373959
30
0
41
1
10
53.7345698367308
20
-3.42047009511686
30
0
41
1
10
53.7347419492133
20
-3.42021053024476
30
0
41
1
10
53.7347818639691
20
-3.42018380018399
30
0
0
SPLINE
5
F9
100
AcDbEntity
8
1
62
256
6
ByLayer
370
18
48
1
60
0
100
AcDbSpline
70
4
71
3
72
74
73
70
40
0
40
0
40
0
40
0
40
0.001032438474215
40
0.001032438474215
40
0.0600277481456871
40
0.0600277481456871
40
0.0747765755635551
40
0.0747765755635551
40
0.0895254029814233
40
0.0895254029814233
40
0.119023057817159
40
0.119023057817159
40
0.148520712652895
40
0.148520712652895
40
0.178018367488631
40
0.178018367488631
40
0.207516022324367
40
0.207516022324367
40
0.237013677160103
40
0.237013677160103
40
0.266511331995839
40
0.266511331995839
40
0.296008986831576
40
0.296008986831576
40
0.325506641667312
40
0.325506641667312
40
0.355004296503048
40
0.355004296503048
40
0.369753123920915
40
0.369753123920915
40
0.384501951338782
40
0.384501951338782
40
0.413999606174515
40
0.413999606174515
40
0.443497261010247
40
0.443497261010247
40
0.47299491584598
40
0.47299491584598
40
0.502492570681712
40
0.502492570681712
40
0.531990225517445
40
0.531990225517445
40
0.561487880353177
40
0.561487880353177
40
0.590985535188909
40
0.590985535188909
40
0.649980844860374
40
0.649980844860374
40
0.66472967227824
40
0.66472967227824
40
0.679478499696107
40
0.679478499696107
40
0.708976154531841
40
0.708976154531841
40
0.767971464203311
40
0.767971464203311
40
0.797469119039045
40
0.797469119039045
40
0.812217946456912
40
0.812217946456912
40
0.826966773874778
40
0.826966773874778
40
0.885962083546246
40
0.885962083546246
40
0.915459738381981
40
0.915459738381981
40
0.944957393217715
40
0.944957393217715
40
1
40
1
40
1
40
1
41
1
10
26.793669135348
20
2.56106393438185
30
0
41
1
10
26.7999142047495
20
2.56311261270366
30
0
41
1
10
26.8061595325248
20
2.56515825369954
30
0
41
1
10
27.1692888838034
20
2.68391831752848
30
0
41
1
10
27.5272786864756
20
2.79044550431624
30
0
41
1
10
27.9768750091477
20
2.90978004147956
30
0
41
1
10
28.0669032468927
20
2.93294946443126
30
0
41
1
10
28.2472077679308
20
2.97784722316055
30
0
41
1
10
28.3374576292931
20
2.9995671343531
30
0
41
1
10
28.6078605997364
20
3.06232465844846
30
0
41
1
10
28.7878680107007
20
3.10104184566566
30
0
41
1
10
29.1476649024199
20
3.17201318850192
30
0
41
1
10
29.327514277786
20
3.20423369828561
30
0
41
1
10
29.6871940156721
20
3.26216950185514
30
0
41
1
10
29.8670186572305
20
3.28788501476132
30
0
41
1
10
30.2268512903491
20
3.33268246510491
30
0
41
1
10
30.4068657454218
20
3.3517636835802
30
0
41
1
10
30.7672937633047
20
3.38314569369985
30
0
41
1
10
30.9477571998971
20
3.39544923298956
30
0
41
1
10
31.3082405289794
20
3.41305996672671
30
0
41
1
10
31.4884134832473
20
3.41836369868793
30
0
41
1
10
31.8486590224867
20
3.42204749147879
30
0
41
1
10
32.0287436299347
20
3.4204234188704
30
0
41
1
10
32.38906035231
20
3.41024638984996
30
0
41
1
10
32.5693079806317
20
3.40170317772996
30
0
41
1
10
32.9301268555232
20
3.37763199959852
30
0
41
1
10
33.1104745601648
20
3.36208933137951
30
0
41
1
10
33.3811301012746
20
3.33368636756941
30
0
41
1
10
33.471365849688
20
3.32337374076042
30
0
41
1
10
33.651832538983
20
3.30106791763816
30
0
41
1
10
33.7420524055867
20
3.28907494251854
30
0
41
1
10
34.0122219859532
20
3.25067865748184
30
0
41
1
10
34.1918526738397
20
3.22183744785554
30
0
41
1
10
34.5503714704762
20
3.1579119499178
30
0
41
1
10
34.7292786087509
20
3.12285035149583
30
0
41
1
10
35.0864652004101
20
3.04659098700333
30
0
41
1
10
35.2647591103475
20
3.00541855847715
30
0
41
1
10
35.6211599831123
20
2.91738639834983
30
0
41
1
10
35.7992186401193
20
2.87047676747264
30
0
41
1
10
36.1551890648397
20
2.77098608626139
30
0
41
1
10
36.3331102231122
20
2.71842351115697
30
0
41
1
10
36.6890427889017
20
2.6079858124584
30
0
41
1
10
36.8670654254976
20
2.55012935930023
30
0
41
1
10
37.2233041800603
20
2.42923058684141
30
0
41
1
10
37.4015610343288
20
2.36624648546237
30
0
41
1
10
37.9372611809006
20
2.17041794305732
30
0
41
1
10
38.2953863637428
20
2.03027806834868
30
0
41
1
10
38.7453153282916
20
1.84459949244061
30
0
41
1
10
38.8354186490002
20
1.80695027124369
30
0
41
1
10
39.0158637169213
20
1.73060956623098
30
0
41
1
10
39.1060109693126
20
1.69198835903578
30
0
41
1
10
39.3762840642086
20
1.57492870581191
30
0
41
1
10
39.5562802201502
20
1.49534866772549
30
0
41
1
10
40.0960726425637
20
1.2526688335854
30
0
41
1
10
40.4554731566084
20
1.08524926663944
30
0
41
1
10
40.9952743900891
20
0.82822365116732
30
0
41
1
10
41.1752940414529
20
0.741499965107806
30
0
41
1
10
41.4456471838963
20
0.610218066981162
30
0
41
1
10
41.5358874358483
20
0.566245808788835
30
0
41
1
10
41.7162319298723
20
0.478191478463941
30
0
41
1
10
41.8062906961996
20
0.434117360522492
30
0
41
1
10
42.2560141802761
20
0.21348932346396
30
0
41
1
10
42.6139843117693
20
0.0362065725510092
30
0
41
1
10
43.1495486386735
20
-0.228139253992424
30
0
41
1
10
43.3277847037733
20
-0.316101478746418
30
0
41
1
10
43.6840249104317
20
-0.491043322572182
30
0
41
1
10
43.862073154959
20
-0.577932743629702
30
0
41
1
10
44.3722233197775
20
-0.82514552272292
30
0
41
1
10
44.7042278558031
20
-0.983854820267567
30
0
41
1
10
45.0367875046707
20
-1.13886652341065
30
0
0
SPLINE
5
FA
100
AcDbEntity
8
1
62
256
6
ByLayer
370
18
48
1
60
0
100
AcDbSpline
70
4
71
3
72
14
73
10
40
0
40
0
40
0
40
0
40
0.25
40
0.25
40
0.5
40
0.5
40
0.75
40
0.75
40
1
40
1
40
1
40
1
41
1
10
53.6940017388174
20
-3.42837417873915
30
0
41
1
10
53.6945974621574
20
-3.42740819306781
30
0
41
1
10
53.6951938958217
20
-3.4264076139776
30
0
41
1
10
53.6963886320572
20
-3.42431566965411
30
0
41
1
10
53.6969641388943
20
-3.42326211590444
30
0
41
1
10
53.6979747804105
20
-3.4212950150251
30
0
41
1
10
53.6984043647157
20
-3.42038977046229
30
0
41
1
10
53.6990124944199
20
-3.41894241269787
30
0
41
1
10
53.6991945734092
20
-3.41839410102057
30
0
41
1
10
53.69926018645
20
-3.41803708126619
30
0
0
SPLINE
5
FB
100
AcDbEntity
8
1
62
256
6
ByLayer
370
18
48
1
60
0
100
AcDbSpline
70
4
71
3
72
8
73
4
40
0
40
0
40
0
40
0
40
1
40
1
40
1
40
1
41
1
10
53.6990353984831
20
-3.41754802385299
30
0
41
1
10
53.6991387800338
20
-3.41763581122456
30
0
41
1
10
53.6992147496914
20
-3.41779610766147
30
0
41
1
10
53.69926018645
20
-3.41803708126619
30
0
0
SPLINE
5
FC
100
AcDbEntity
8
1
62
256
6
ByLayer
370
18
48
1
60
0
100
AcDbSpline
70
4
71
3
72
8
73
4
40
0
40
0
40
0
40
0
40
1
40
1
40
1
40
1
41
1
10
53.6192805041012
20
-3.54918757246787
30
0
41
1
10
53.6441599908383
20
-3.50907978350983
30
0
41
1
10
53.6690659497299
20
-3.46880840943791
30
0
41
1
10
53.6940017388174
20
-3.42837417873918
30
0
0
SPLINE
5
FD
100
AcDbEntity
8
1
62
256
6
ByLayer
370
18
48
1
60
0
100
AcDbSpline
70
4
71
3
72
34
73
30
40
0
40
0
40
0
40
0
40
0.105274241195251
40
0.105274241195251
40
0.131592801494064
40
0.131592801494064
40
0.157911361792878
40
0.210548482390505
40
0.210548482390505
40
0.315822723585759
40
0.315822723585759
40
0.421096964781013
40
0.421096964781013
40
0.526371205976267
40
0.526371205976267
40
0.631645447171521
40
0.631645447171521
40
0.644804727320927
40
0.644804727320927
40
0.657964007470334
40
0.684282567769151
40
0.684282567769151
40
0.736919688366785
40
0.736919688366785
40
0.842193929562052
40
0.842193929562052
40
0.947468170757319
40
0.947468170757319
40
1
40
1
40
1
40
1
41
1
10
53.6940017388175
20
-3.42837417873918
30
0
41
1
10
53.3344990531486
20
-3.40972099448314
30
0
41
1
10
52.9752934071242
20
-3.37706426974333
30
0
41
1
10
52.5256123611168
20
-3.31924645126844
30
0
41
1
10
52.4356068243437
20
-3.30682619897206
30
0
41
1
10
52.2559280258764
20
-3.28036738449674
30
0
41
1
10
51.9867683229775
20
-3.23823552279327
30
0
41
1
10
51.7185689110971
20
-3.18892843173265
30
0
41
1
10
51.183146789259
20
-3.08113665780954
30
0
41
1
10
50.8275052093655
20
-2.99708072390851
30
0
41
1
10
50.1171338333398
20
-2.80638015947872
30
0
41
1
10
49.7623986019877
20
-2.69966263473705
30
0
41
1
10
49.0522404800158
20
-2.46575724855592
30
0
41
1
10
48.6968212735415
20
-2.33859909517037
30
0
41
1
10
47.9836235702955
20
-2.06604600893095
30
0
41
1
10
47.625839841591
20
-1.92056745816259
30
0
41
1
10
47.2210626645464
20
-1.7479682857921
30
0
41
1
10
47.1760382192193
20
-1.72865885685636
30
0
41
1
10
47.0860805946464
20
-1.68986530084348
30
0
41
1
10
46.9512377105613
20
-1.63139474648389
30
0
41
1
10
46.8166599816974
20
-1.57211548110297
30
0
41
1
10
46.5478175075302
20
-1.45256200161774
30
0
41
1
10
46.3690061223718
20
-1.37153473973675
30
0
41
1
10
45.8335107739313
20
-1.12509208611712
30
0
41
1
10
45.4777649744484
20
-0.956314539783534
30
0
41
1
10
44.7671276976658
20
-0.613166860407063
30
0
41
1
10
44.4122399099779
20
-0.438792117169498
30
0
41
1
10
43.8796894758049
20
-0.175710177780076
30
0
41
1
10
43.7023149442346
20
-0.0878471596855377
30
0
41
1
10
43.5247407270438
20
8.48987548068E-05
30
0
0
SPLINE
5
FE
100
AcDbEntity
8
1
62
256
6
ByLayer
370
18
48
1
60
0
100
AcDbSpline
70
4
71
3
72
51
73
47
40
0
40
0
40
0
40
0
40
0.0207876283261815
40
0.0207876283261815
40
0.0675013198458378
40
0.0675013198458378
40
0.114215011365494
40
0.114215011365494
40
0.16092870288515
40
0.16092870288515
40
0.207642394404807
40
0.207642394404807
40
0.230999240164636
40
0.230999240164636
40
0.254356085924466
40
0.254356085924466
40
0.301069777444125
40
0.301069777444125
40
0.347783468963784
40
0.347783468963784
40
0.394497160483443
40
0.394497160483443
40
0.441210852003102
40
0.441210852003102
40
0.487924543522762
40
0.487924543522762
40
0.534638235042421
40
0.534638235042421
40
0.58135192656208
40
0.58135192656208
40
0.628065618081739
40
0.628065618081739
40
0.674779309601398
40
0.698136155361227
40
0.698136155361227
40
0.721493001121056
40
0.721493001121056
40
0.768206692640712
40
0.768206692640712
40
0.814920384160368
40
0.814920384160368
40
0.861634075680025
40
0.861634075680025
40
0.908347767199681
40
0.908347767199681
40
1
40
1
40
1
40
1
41
1
10
31.9734440053449
20
-0.290345733599196
30
0
41
1
10
31.8943867243654
20
-0.251848657735138
30
0
41
1
10
31.8153258102745
20
-0.213323873942869
30
0
41
1
10
31.5585892160361
20
-0.0881309835827722
30
0
41
1
10
31.3808982954621
20
-0.0013478990787519
30
0
41
1
10
31.0255279896521
20
0.172667126070195
30
0
41
1
10
30.8478756967865
20
0.259961710906708
30
0
41
1
10
30.4920942907897
20
0.433922722202965
30
0
41
1
10
30.3139375592712
20
0.520525560585725
30
0
41
1
10
29.9570177324137
20
0.692856930518388
30
0
41
1
10
29.7782736968397
20
0.778631422999212
30
0
41
1
10
29.5094485700532
20
0.90606501937566
30
0
41
1
10
29.4197185343269
20
0.948329914964802
30
0
41
1
10
29.2399983594765
20
1.03239982393995
30
0
41
1
10
29.1499303677011
20
1.07424319647285
30
0
41
1
10
28.8799764196738
20
1.1987592734113
30
0
41
1
10
28.700433477065
20
1.28038396678821
30
0
41
1
10
28.3422154334538
20
1.4406070700515
30
0
41
1
10
28.1635354016287
20
1.51921173273632
30
0
41
1
10
27.8071628324192
20
1.67301610839132
30
0
41
1
10
27.6295196048546
20
1.74821674089117
30
0
41
1
10
27.2743428984293
20
1.89477712953786
30
0
41
1
10
27.0967601374447
20
1.96611999585829
30
0
41
1
10
26.7415436649222
20
2.10475444810078
30
0
41
1
10
26.5639086402192
20
2.17206077772869
30
0
41
1
10
26.2087183080731
20
2.30224852006674
30
0
41
1
10
26.0311757185229
20
2.3651360380124
30
0
41
1
10
25.676091744368
20
2.48595253076402
30
0
41
1
10
25.498573491763
20
2.5438463468565
30
0
41
1
10
25.1429471428197
20
2.65473160625504
30
0
41
1
10
24.9648047673931
20
2.70774925895674
30
0
41
1
10
24.6078190874544
20
2.80859808562286
30
0
41
1
10
24.3395708624597
20
2.88034876269614
30
0
41
1
10
24.0703971854845
20
2.94576096022376
30
0
41
1
10
23.8907224481294
20
2.98790068215138
30
0
41
1
10
23.8007190750191
20
3.00824807546974
30
0
41
1
10
23.5307031295438
20
3.06692019232764
30
0
41
1
10
23.35120817907
20
3.10275012030292
30
0
41
1
10
22.992862866587
20
3.16793779078608
30
0
41
1
10
22.8139960239163
20
3.19731843171485
30
0
41
1
10
22.4568071381129
20
3.24928576118484
30
0
41
1
10
22.2785154158193
20
3.27180996151768
30
0
41
1
10
21.9218982695984
20
3.31078388720502
30
0
41
1
10
21.7435321091718
20
3.32731059131231
30
0
41
1
10
21.2151156738105
20
3.36678525318919
30
0
41
1
10
20.8650460266908
20
3.3805391273977
30
0
41
1
10
20.5145154593562
20
3.38048271389235
30
0
0
SPLINE
5
FF
100
AcDbEntity
8
1
62
256
6
ByLayer
370
13
48
1
60
0
100
AcDbSpline
70
4
71
3
72
41
73
37
40
0
40
0
40
0
40
0
40
0.0298561693007142
40
0.0298561693007142
40
0.0633094048420689
40
0.0633094048420689
40
0.197122347007487
40
0.197122347007487
40
0.264028818090197
40
0.264028818090197
40
0.330935289172906
40
0.397841760255615
40
0.397841760255615
40
0.43129499579697
40
0.43129499579697
40
0.464748231338325
40
0.464748231338325
40
0.531654702421034
40
0.531654702421034
40
0.565107937962389
40
0.565107937962389
40
0.598561173503743
40
0.598561173503743
40
0.665467644586452
40
0.665467644586452
40
0.698920880127807
40
0.698920880127807
40
0.732374115669162
40
0.732374115669162
40
0.866187057834581
40
0.866187057834581
40
0.93309352891729
40
0.93309352891729
40
0.966546764458645
40
0.966546764458645
40
1
40
1
40
1
40
1
41
1
10
19.3807598330849
20
3.36738745144743
30
0
41
1
10
19.3807567453992
20
3.37034627100905
30
0
41
1
10
19.3807535262402
20
3.37245689937387
30
0
41
1
10
19.3807464520127
20
3.37515078942965
30
0
41
1
10
19.3807425641383
20
3.37552250631052
30
0
41
1
10
19.3807224223
20
3.37219641699966
30
0
41
1
10
19.3807040903765
20
3.35305813090329
30
0
41
1
10
19.380673785515
20
3.29966153782226
30
0
41
1
10
19.380663208809
20
3.27772219792115
30
0
41
1
10
19.3806411318643
20
3.2253061199518
30
0
41
1
10
19.3806184070439
20
3.16500739322595
30
0
41
1
10
19.3805944526198
20
3.08926106846963
30
0
41
1
10
19.3805760179401
20
3.02664581887279
30
0
41
1
10
19.3805697945793
20
3.00480518031122
30
0
41
1
10
19.3805571855751
20
2.95916769757051
30
0
41
1
10
19.3805507902989
20
2.93533316145343
30
0
41
1
10
19.3805314411166
20
2.86120901671896
30
0
41
1
10
19.3805183192935
20
2.80829299666743
30
0
41
1
10
19.3804982556822
20
2.72370171015388
30
0
41
1
10
19.3804915040462
20
2.69463384619257
30
0
41
1
10
19.3804778617984
20
2.63474726856975
30
0
41
1
10
19.380470965517
20
2.60390166452831
30
0
41
1
10
19.380450144316
20
2.5091577166848
30
0
41
1
10
19.3804360611484
20
2.4429422660138
30
0
41
1
10
19.3804145479299
20
2.33905992064899
30
0
41
1
10
19.3804073118756
20
2.30367154336176
30
0
41
1
10
19.3803926925976
20
2.23136337649464
30
0
41
1
10
19.3803853111005
20
2.19445043174471
30
0
41
1
10
19.3803482625242
20
2.00742054190985
30
0
41
1
10
19.3803179692231
20
1.84892154138831
30
0
41
1
10
19.3802706701642
20
1.5982190456389
30
0
41
1
10
19.380254591988
20
1.51248045286562
30
0
41
1
10
19.3802298735099
20
1.38055133535533
30
0
41
1
10
19.3802215336165
20
1.33602065793161
30
0
41
1
10
19.3802046280063
20
1.24583014584573
30
0
41
1
10
19.38019607807
20
1.20025476947711
30
0
41
1
10
19.3801874470188
20
1.15434153407514
30
0
0
SPLINE
5
100
100
AcDbEntity
8
1
62
256
6
ByLayer
370
18
48
1
60
0
100
AcDbSpline
70
4
71
3
72
47
73
43
40
0
40
0
40
0
40
0
40
0.0274344465627403
40
0.0274344465627403
40
0.0742509271533738
40
0.0742509271533738
40
0.121067407744007
40
0.121067407744007
40
0.214700368925273
40
0.214700368925273
40
0.238108609220589
40
0.238108609220589
40
0.261516849515906
40
0.308333330106539
40
0.308333330106539
40
0.355149810697173
40
0.355149810697173
40
0.401966291287806
40
0.401966291287806
40
0.44878277187844
40
0.44878277187844
40
0.495599252469074
40
0.495599252469074
40
0.589232213650348
40
0.589232213650348
40
0.68286517483162
40
0.68286517483162
40
0.706273415126937
40
0.706273415126937
40
0.729681655422255
40
0.729681655422255
40
0.77649813601289
40
0.77649813601289
40
0.823314616603525
40
0.823314616603525
40
0.87013109719416
40
0.87013109719416
40
0.916947577784795
40
0.916947577784795
40
0.96376405837543
40
0.96376405837543
40
1
40
1
40
1
40
1
41
1
10
21.2175422911445
20
0.282836747290815
30
0
41
1
10
21.3222900232732
20
0.231900303021291
30
0
41
1
10
21.4270144971607
20
0.180866356726597
30
0
41
1
10
21.7104459180387
20
0.0426032393178843
30
0
41
1
10
21.8891498606433
20
-0.0447262130270758
30
0
41
1
10
22.2467589609103
20
-0.219257623250996
30
0
41
1
10
22.4256643165295
20
-0.30645865050667
30
0
41
1
10
22.9630033315745
20
-0.567188631580336
30
0
41
1
10
23.3220655609039
20
-0.739837121679983
30
0
41
1
10
23.7729295604263
20
-0.952118817261891
30
0
41
1
10
23.8632077804952
20
-0.994400542929753
30
0
41
1
10
24.0433642885145
20
-1.07826986654652
30
0
41
1
10
24.3132345096649
20
-1.20314371906409
30
0
41
1
10
24.582120770433
20
-1.32502691969614
30
0
41
1
10
24.9399550695977
20
-1.4845205361222
30
0
41
1
10
25.1185358005993
20
-1.56275503701491
30
0
41
1
10
25.4753184837859
20
-1.71572832065286
30
0
41
1
10
25.6535143364999
20
-1.79047307105279
30
0
41
1
10
26.0096347341083
20
-1.93619941588295
30
0
41
1
10
26.1875629722931
20
-2.00718210266882
30
0
41
1
10
26.543374557089
20
-2.1451209420847
30
0
41
1
10
26.7212570967494
20
-2.21207329593963
30
0
41
1
10
27.255140251046
20
-2.40628935754234
30
0
41
1
10
27.6113765278224
20
-2.52689772417793
30
0
41
1
10
28.3261137146513
20
-2.74774097364062
30
0
41
1
10
28.6845974784241
20
-2.84798478156679
30
0
41
1
10
29.1351405564661
20
-2.95920279069094
30
0
41
1
10
29.2253680716357
20
-2.98073798551485
30
0
41
1
10
29.405412280347
20
-3.02219012799162
30
0
41
1
10
29.4953126354991
20
-3.04212754942708
30
0
41
1
10
29.7646751259262
20
-3.09952779941935
30
0
41
1
10
29.943806067573
20
-3.13459445274515
30
0
41
1
10
30.3014756669026
20
-3.1983989739536
30
0
41
1
10
30.4800055214401
20
-3.22711677881526
30
0
41
1
10
30.8365697163504
20
-3.27784996368985
30
0
41
1
10
31.0146121104169
20
-3.29988955060793
30
0
41
1
10
31.3704981930238
20
-3.33746970252935
30
0
41
1
10
31.5483366692424
20
-3.35299862666361
30
0
41
1
10
31.9039603790677
20
-3.37740198182016
30
0
41
1
10
32.0817483025379
20
-3.38628573527515
30
0
41
1
10
32.3972976870304
20
-3.39618717670942
30
0
41
1
10
32.5350223993672
20
-3.39851749443344
30
0
41
1
10
32.6728364923215
20
-3.39876838211342
30
0
0
SPLINE
5
101
100
AcDbEntity
8
1
62
256
6
ByLayer
370
18
48
1
60
0
100
AcDbSpline
70
4
71
3
72
8
73
4
40
0
40
0
40
0
40
0
40
1
40
1
40
1
40
1
41
1
10
53.667951505153
20
-0.254888983554053
30
0
41
1
10
53.6698501972185
20
-0.255438757674341
30
0
41
1
10
53.6708620472201
20
-0.260576422133056
30
0
41
1
10
53.670182731474
20
-0.26635124275316
30
0
0
SPLINE
5
102
100
AcDbEntity
8
1
62
256
6
ByLayer
370
18
48
1
60
0
100
AcDbSpline
70
4
71
3
72
8
73
4
40
0
40
0
40
0
40
0
40
1
40
1
40
1
40
1
41
1
10
53.6940017388176
20
3.42837417873918
30
0
41
1
10
53.6240783469125
20
3.42474612819879
30
0
41
1
10
53.5541661921299
20
3.42058831840967
30
0
41
1
10
53.4842591214683
20
3.41590373680523
30
0
0
SPLINE
5
103
100
AcDbEntity
8
1
62
256
6
ByLayer
370
18
48
1
60
0
100
AcDbSpline
70
4
71
3
72
47
73
43
40
0
40
0
40
0
40
0
40
0.0227068832968506
40
0.0227068832968506
40
0.0700128119200445
40
0.0700128119200445
40
0.117318740543239
40
0.117318740543239
40
0.164624669166433
40
0.164624669166433
40
0.211930597789626
40
0.211930597789626
40
0.25923652641282
40
0.25923652641282
40
0.306542455036014
40
0.306542455036014
40
0.33019541934761
40
0.33019541934761
40
0.353848383659205
40
0.353848383659205
40
0.448460240905587
40
0.448460240905587
40
0.543072098151969
40
0.543072098151969
40
0.59037802677516
40
0.59037802677516
40
0.637683955398349
40
0.637683955398349
40
0.684989884021539
40
0.684989884021539
40
0.732295812644728
40
0.732295812644728
40
0.779601741267918
40
0.803254705579513
40
0.803254705579513
40
0.826907669891109
40
0.826907669891109
40
0.921519527137492
40
0.921519527137492
40
0.968825455760684
40
0.968825455760684
40
1
40
1
40
1
40
1
41
1
10
33.0456256064012
20
-3.40380036147741
30
0
41
1
10
32.9600173115372
20
-3.40604474002504
30
0
41
1
10
32.8744787735378
20
-3.40755636004087
30
0
41
1
10
32.6108628909508
20
-3.40975925088713
30
0
41
1
10
32.4329115518959
20
-3.40772364147179
30
0
41
1
10
32.0771776676252
20
-3.39698737698501
30
0
41
1
10
31.8993977092159
20
-3.38830540985802
30
0
41
1
10
31.5437889741855
20
-3.36428460090284
30
0
41
1
10
31.3659578178253
20
-3.34893648339499
30
0
41
1
10
31.0100874171243
20
-3.31169591205253
30
0
41
1
10
30.8320531997297
20
-3.28981506573311
30
0
41
1
10
30.475500807588
20
-3.23937852954333
30
0
41
1
10
30.2969750785148
20
-3.21079860502374
30
0
41
1
10
29.9393133174245
20
-3.14724196133832
30
0
41
1
10
29.7601856245825
20
-3.11228534356164
30
0
41
1
10
29.4908228804325
20
-3.05503196081187
30
0
41
1
10
29.4009216495491
20
-3.03514045313261
30
0
41
1
10
29.2208745630198
20
-2.99377318628692
30
0
41
1
10
29.1306445608896
20
-2.97227692048855
30
0
41
1
10
28.6800931095341
20
-2.86123613061031
30
0
41
1
10
28.3216116474782
20
-2.76108081707292
30
0
41
1
10
27.6068924433932
20
-2.54031576780056
30
0
41
1
10
27.2506724369275
20
-2.419694186074
30
0
41
1
10
26.71681098159
20
-2.22538285691681
30
0
41
1
10
26.5389355874722
20
-2.1583863711862
30
0
41
1
10
26.1831393372262
20
-2.02033182733044
30
0
41
1
10
26.0052190688078
20
-1.94927791592349
30
0
41
1
10
25.6491137151843
20
-1.80338363378925
30
0
41
1
10
25.4709254692286
20
-1.72854125849338
30
0
41
1
10
25.1141559676528
20
-1.57534600948819
30
0
41
1
10
24.9355803878065
20
-1.49698795891535
30
0
41
1
10
24.5777521892614
20
-1.33722246195944
30
0
41
1
10
24.3088677044427
20
-1.21511602022517
30
0
41
1
10
24.0389947774568
20
-1.08998887174488
30
0
41
1
10
23.8588353870411
20
-1.00594395959479
30
0
41
1
10
23.7685548574021
20
-0.963570825622753
30
0
41
1
10
23.3176811938024
20
-0.750818414772624
30
0
41
1
10
22.9586170630602
20
-0.577752381878412
30
0
41
1
10
22.4212818850954
20
-0.31633201140815
30
0
41
1
10
22.2423789712129
20
-0.228890146919241
30
0
41
1
10
21.9457447224904
20
-0.0837053856881482
30
0
41
1
10
21.8279570044515
20
-0.0260031421240683
30
0
41
1
10
21.7101827318751
20
0.0316687234964945
30
0
0
SPLINE
5
104
100
AcDbEntity
8
1
62
256
6
ByLayer
370
18
48
1
60
0
100
AcDbSpline
70
4
71
3
72
40
73
36
40
0
40
0
40
0
40
0
40
0.0936855892139456
40
0.117106986517433
40
0.117106986517433
40
0.140528383820921
40
0.187371178427897
40
0.187371178427897
40
0.234213973034872
40
0.234213973034872
40
0.281056767641848
40
0.281056767641848
40
0.374742356855799
40
0.374742356855799
40
0.421585151462775
40
0.421585151462775
40
0.468427946069751
40
0.468427946069751
40
0.562113535283699
40
0.562113535283699
40
0.608956329890673
40
0.608956329890673
40
0.655799124497647
40
0.655799124497647
40
0.749484713711599
40
0.749484713711599
40
0.796327508318574
40
0.796327508318574
40
0.84317030292555
40
0.84317030292555
40
0.936855892139501
40
0.936855892139501
40
0.983698686746475
40
0.983698686746475
40
1
40
1
40
1
40
1
41
1
10
53.6701827314588
20
-0.266351242745486
30
0
41
1
10
53.3118552936116
20
-0.0871254867449238
30
0
41
1
10
52.8637275715963
20
0.136454226694582
30
0
41
1
10
52.4144827657135
20
0.357772822262461
30
0
41
1
10
52.2350816981516
20
0.445890812933243
30
0
41
1
10
51.9662774365573
20
0.57752798277113
30
0
41
1
10
51.6983270834463
20
0.707402977190696
30
0
41
1
10
51.3417497121086
20
0.878752760794953
30
0
41
1
10
51.1638051637391
20
0.963521374828474
30
0
41
1
10
50.8086401253179
20
1.13094383666976
30
0
41
1
10
50.6314347385764
20
1.2136053170652
30
0
41
1
10
50.0998454776279
20
1.45738111875315
30
0
41
1
10
49.7454054939973
20
1.61422269849663
30
0
41
1
10
49.2132012468939
20
1.83934877905668
30
0
41
1
10
49.0357088938702
20
1.91271134892503
30
0
41
1
10
48.6804973947013
20
2.05559812945751
30
0
41
1
10
48.5027968965127
20
2.12511051239986
30
0
41
1
10
47.9686572183352
20
2.32746900113031
30
0
41
1
10
47.6110957724483
20
2.45416300849112
30
0
41
1
10
47.0717834631086
20
2.62959199712446
30
0
41
1
10
46.8925284788507
20
2.68531237743753
30
0
41
1
10
46.5350854229833
20
2.79072720867538
30
0
41
1
10
46.3569126115348
20
2.8403891855659
30
0
41
1
10
45.8230106244939
20
2.98086274675603
30
0
41
1
10
45.4677800903374
20
3.06329314690024
30
0
41
1
10
44.9357375562643
20
3.1680825568688
30
0
41
1
10
44.758528030681
20
3.19987854873901
30
0
41
1
10
44.4042958934937
20
3.25661898154283
30
0
41
1
10
44.2272961578507
20
3.28148742680398
30
0
41
1
10
43.6956990465482
20
3.34719185167961
30
0
41
1
10
43.3403636240698
20
3.3795134999738
30
0
41
1
10
42.8058249937235
20
3.40704063421393
30
0
41
1
10
42.6273981703193
20
3.41273238057784
30
0
41
1
10
42.3864521157589
20
3.41507227441008
30
0
41
1
10
42.3242143302925
20
3.4151746515021
30
0
41
1
10
42.2619230666622
20
3.41484881728337
30
0
0
SPLINE
5
105
100
AcDbEntity
8
1
62
256
6
ByLayer
370
18
48
1
60
0
100
AcDbSpline
70
4
71
3
72
34
73
30
40
0
40
0
40
0
40
0
40
0.0992343549374868
40
0.0992343549374868
40
0.19931942661109
40
0.19931942661109
40
0.299404498284692
40
0.299404498284692
40
0.349447034121495
40
0.349447034121495
40
0.374468302039896
40
0.386978935999097
40
0.386978935999097
40
0.399489569958297
40
0.399489569958297
40
0.499574641631916
40
0.499574641631916
40
0.599659713305534
40
0.599659713305534
40
0.699744784979152
40
0.699744784979152
40
0.79982985665277
40
0.79982985665277
40
0.849872392489577
40
0.874893660407981
40
0.874893660407981
40
0.899914928326385
40
0.899914928326385
40
1
40
1
40
1
40
1
41
1
10
43.003022607633
20
0.26844010638672
30
0
41
1
10
43.3568520786041
20
0.0944068807242786
30
0
41
1
10
43.7094887122713
20
-0.0802363109235387
30
0
41
1
10
44.417044437186
20
-0.428817640534049
30
0
41
1
10
44.7719522177603
20
-0.602759796340081
30
0
41
1
10
45.4826213317802
20
-0.945133067661743
30
0
41
1
10
45.838381241578
20
-1.11356428801997
30
0
41
1
10
46.3738920000655
20
-1.3595480626231
30
0
41
1
10
46.5527076099796
20
-1.440432373644
30
0
41
1
10
46.8215526543165
20
-1.55978990581923
30
0
41
1
10
46.9561307484266
20
-1.61897577406947
30
0
41
1
10
47.0909726183256
20
-1.67735958793273
30
0
41
1
10
47.180929258171
20
-1.71609677767981
30
0
41
1
10
47.2259527523904
20
-1.73537861792312
30
0
41
1
10
47.6307218941599
20
-1.90773706787854
30
0
41
1
10
47.9885078309172
20
-2.05305750285098
30
0
41
1
10
48.7017254894213
20
-2.3253989692478
30
0
41
1
10
49.0571604704498
20
-2.45250666837072
30
0
41
1
10
49.7673500039115
20
-2.6864171536802
30
0
41
1
10
50.1221027631252
20
-2.79318778858189
30
0
41
1
10
50.8325099003173
20
-2.98409441426816
30
0
41
1
10
51.1881679165732
20
-3.06830462171456
30
0
41
1
10
51.7236025620045
20
-3.17640161988479
30
0
41
1
10
51.991805972755
20
-3.22587934869057
30
0
41
1
10
52.2609657397867
20
-3.26820898924043
30
0
41
1
10
52.4406436296363
20
-3.29480575903148
30
0
41
1
10
52.530647701061
20
-3.30729800896836
30
0
41
1
10
52.9803222023217
20
-3.36549086515961
30
0
41
1
10
53.3395290993915
20
-3.39849628079025
30
0
41
1
10
53.699035399063
20
-3.41754802388323
30
0
0
SPLINE
5
106
100
AcDbEntity
8
1
62
256
6
ByLayer
370
18
48
1
60
0
100
AcDbSpline
70
4
71
3
72
46
73
42
40
0
40
0
40
0
40
0
40
0.0624999999999999
40
0.0624999999999999
40
0.0937499999999999
40
0.0937499999999999
40
0.125
40
0.125
40
0.1875
40
0.25
40
0.3125
40
0.3125
40
0.34375
40
0.34375
40
0.375
40
0.375
40
0.4375
40
0.4375
40
0.46875
40
0.46875
40
0.5
40
0.5
40
0.5625
40
0.5625
40
0.593750000000001
40
0.593750000000001
40
0.625000000000001
40
0.625000000000001
40
0.687500000000002
40
0.687500000000002
40
0.718750000000002
40
0.718750000000002
40
0.750000000000002
40
0.750000000000002
40
0.812500000000002
40
0.812500000000002
40
0.843750000000002
40
0.843750000000002
40
0.875000000000002
40
0.875000000000002
40
1
40
1
40
1
40
1
41
1
10
53.6701827314748
20
-0.266351242747021
30
0
41
1
10
53.6585345344769
20
-0.365371836043835
30
0
41
1
10
53.6483479838986
20
-0.463857846167599
30
0
41
1
10
53.634907739495
20
-0.610753210223862
30
0
41
1
10
53.6307348603542
20
-0.659579232017308
30
0
41
1
10
53.622951415045
20
-0.756945794527553
30
0
41
1
10
53.6193348561548
20
-0.80557695545582
30
0
41
1
10
53.6093096368727
20
-0.950239837759767
30
0
41
1
10
53.5981274219893
20
-1.13978203612294
30
0
41
1
10
53.5865566413477
20
-1.41427870935777
30
0
41
1
10
53.5816114674533
20
-1.59073159969921
30
0
41
1
10
53.5787438768231
20
-1.72056442517589
30
0
41
1
10
53.5779288844684
20
-1.76342367450221
30
0
41
1
10
53.5765556272113
20
-1.8482896353151
30
0
41
1
10
53.5759978201353
20
-1.8903022609733
30
0
41
1
10
53.5746862937119
20
-2.01412877801448
30
0
41
1
10
53.5742855358162
20
-2.09404969056777
30
0
41
1
10
53.5742874265775
20
-2.20999493597353
30
0
41
1
10
53.5743893645314
20
-2.24798640903603
30
0
41
1
10
53.574787502251
20
-2.32264577912764
30
0
41
1
10
53.5750834407843
20
-2.35923743376762
30
0
41
1
10
53.5762514407842
20
-2.46655754787403
30
0
41
1
10
53.5774010193398
20
-2.53494374564366
30
0
41
1
10
53.5797035698914
20
-2.63278296191729
30
0
41
1
10
53.580568890626
20
-2.66462511200331
30
0
41
1
10
53.582504473167
20
-2.72662500488099
30
0
41
1
10
53.5835724989361
20
-2.7567161655281
30
0
41
1
10
53.5871003739929
20
-2.84428337199569
30
0
41
1
10
53.5898808530657
20
-2.89905822424183
30
0
41
1
10
53.5948427363455
20
-2.97580313071521
30
0
41
1
10
53.5966318088381
20
-3.00050865020759
30
0
41
1
10
53.6004951048569
20
-3.04792245501128
30
0
41
1
10
53.6025689572833
20
-3.07063455092845
30
0
41
1
10
53.6092683459169
20
-3.13580527690803
30
0
41
1
10
53.6143686781539
20
-3.17530381984406
30
0
41
1
10
53.6232272873637
20
-3.22860446867602
30
0
41
1
10
53.6263855488361
20
-3.24538806854736
30
0
41
1
10
53.6331153389436
20
-3.27677188573327
30
0
41
1
10
53.6366906770479
20
-3.29139887251472
30
0
41
1
10
53.6557318126816
20
-3.35927022104244
30
0
41
1
10
53.6746416028309
20
-3.39683381336329
30
0
41
1
10
53.6990353985253
20
-3.41754802388777
30
0
0
SPLINE
5
107
100
AcDbEntity
8
1
62
256
6
ByLayer
370
13
48
1
60
0
100
AcDbSpline
70
4
71
3
72
8
73
4
40
0
40
0
40
0
40
0
40
1
40
1
40
1
40
1
41
1
10
19.4256661781527
20
3.46592850986417
30
0
41
1
10
19.4253504776471
20
3.43570969592795
30
0
41
1
10
19.4250322032699
20
3.40549136624989
30
0
41
1
10
19.4247113548882
20
3.3752735381716
30
0
0
SPLINE
5
108
100
AcDbEntity
8
1
62
256
6
ByLayer
370
18
48
1
60
0
100
AcDbSpline
70
4
71
3
72
52
73
48
40
0
40
0
40
0
40
0
40
0.0220408576186825
40
0.0220408576186825
40
0.118079274957103
40
0.118079274957103
40
0.166098483626313
40
0.166098483626313
40
0.214117692295523
40
0.214117692295523
40
0.262136900964733
40
0.262136900964733
40
0.310156109633943
40
0.310156109633943
40
0.334165713968549
40
0.334165713968549
40
0.358175318303154
40
0.358175318303154
40
0.406194526972366
40
0.406194526972366
40
0.454213735641578
40
0.454213735641578
40
0.50223294431079
40
0.50223294431079
40
0.550252152980001
40
0.550252152980001
40
0.598271361649213
40
0.598271361649213
40
0.646290570318425
40
0.646290570318425
40
0.694309778987636
40
0.694309778987636
40
0.742328987656848
40
0.742328987656848
40
0.79034819632606
40
0.79034819632606
40
0.814357800660665
40
0.814357800660665
40
0.838367404995271
40
0.838367404995271
40
0.886386613664483
40
0.886386613664483
40
0.934405822333695
40
0.934405822333695
40
0.982425031002906
40
0.982425031002906
40
1
40
1
40
1
40
1
41
1
10
20.2522306152177
20
3.38740275100093
30
0
41
1
10
20.3342809418249
20
3.38918389490925
30
0
41
1
10
20.4162978595068
20
3.39018961141721
30
0
41
1
10
20.8555549950796
20
3.39150844895832
30
0
41
1
10
21.2123319002547
20
3.37816581470571
30
0
41
1
10
21.7474125309122
20
3.33877362121433
30
0
41
1
10
21.925738793381
20
3.32243268360199
30
0
41
1
10
22.2822764037876
20
3.28381211096729
30
0
41
1
10
22.4605306669796
20
3.26145684895246
30
0
41
1
10
22.8176496509984
20
3.20980507604384
30
0
41
1
10
22.9964822393673
20
3.1805695649893
30
0
41
1
10
23.3547621516281
20
3.11564875112461
30
0
41
1
10
23.5342268249073
20
3.07994150468721
30
0
41
1
10
23.8042019169665
20
3.02143488353235
30
0
41
1
10
23.8941942491086
20
3.00113881615829
30
0
41
1
10
24.0738431949658
20
2.95909578043168
30
0
41
1
10
24.163554416347
20
2.93733705906592
30
0
41
1
10
24.4323769703182
20
2.8699375534716
30
0
41
1
10
24.6111783068053
20
2.82217475375009
30
0
41
1
10
24.9680971438344
20
2.72144165714954
30
0
41
1
10
25.1462028206214
20
2.66846757128076
30
0
41
1
10
25.501752647111
20
2.55764691123744
30
0
41
1
10
25.6792337566121
20
2.4997786618882
30
0
41
1
10
26.0342471727452
20
2.37899383514656
30
0
41
1
10
26.2117541316738
20
2.31610849236972
30
0
41
1
10
26.566871267764
20
2.18589481333495
30
0
41
1
10
26.7444682410447
20
2.11855948408487
30
0
41
1
10
27.0996053689013
20
1.97983783585047
30
0
41
1
10
27.2771471021991
20
1.90843705702565
30
0
41
1
10
27.6322413747272
20
1.76173747480894
30
0
41
1
10
27.8098457496942
20
1.68646162187059
30
0
41
1
10
28.1661488534085
20
1.53248812286435
30
0
41
1
10
28.344795433328
20
1.45378257181326
30
0
41
1
10
28.7029480457162
20
1.29332562673764
30
0
41
1
10
28.8824594324247
20
1.21156903869769
30
0
41
1
10
29.1523673179053
20
1.08683136135599
30
0
41
1
10
29.2424240137606
20
1.04490857760973
30
0
41
1
10
29.4221182168655
20
0.960674935344883
30
0
41
1
10
29.5118342458201
20
0.918325008990735
30
0
41
1
10
29.7806159765878
20
0.790630193829685
30
0
41
1
10
29.9593301835049
20
0.704675030717482
30
0
41
1
10
30.316187813993
20
0.531962522127827
30
0
41
1
10
30.4943102967291
20
0.445155791848521
30
0
41
1
10
30.8500208263192
20
0.270769452689962
30
0
41
1
10
31.0276383596374
20
0.183256751917099
30
0
41
1
10
31.2703095836422
20
0.0640951620790986
30
0
41
1
10
31.3353302740016
20
0.0321960677621007
30
0
41
1
10
31.4003503546708
20
0.0003215465782205
30
0
0
SPLINE
5
109
100
AcDbEntity
8
1
62
256
6
ByLayer
370
18
48
1
60
0
100
AcDbSpline
70
4
71
3
72
57
73
53
40
0
40
0
40
0
40
0
40
0.0079013697514686
40
0.0079013697514686
40
0.0787655576263705
40
0.0787655576263705
40
0.0964816045950958
40
0.0964816045950958
40
0.114197651563821
40
0.114197651563821
40
0.14962974550127
40
0.14962974550127
40
0.185061839438719
40
0.185061839438719
40
0.202777886407443
40
0.202777886407443
40
0.220493933376168
40
0.220493933376168
40
0.255926027313614
40
0.255926027313614
40
0.291358121251061
40
0.291358121251061
40
0.326790215188507
40
0.326790215188507
40
0.362222309125954
40
0.362222309125954
40
0.433086497000847
40
0.433086497000847
40
0.50395068487574
40
0.50395068487574
40
0.539382778813187
40
0.539382778813187
40
0.557098825781911
40
0.557098825781911
40
0.574814872750635
40
0.610246966688083
40
0.610246966688083
40
0.64567906062553
40
0.64567906062553
40
0.716543248500425
40
0.716543248500425
40
0.78740743637532
40
0.78740743637532
40
0.858271624250215
40
0.858271624250215
40
0.893703718187663
40
0.893703718187663
40
0.911419765156386
40
0.911419765156386
40
0.929135812125109
40
0.929135812125109
40
1
40
1
40
1
40
1
41
1
10
34.4675111366927
20
-3.41615625756461
30
0
41
1
10
34.4278745559493
20
-3.4213451476983
30
0
41
1
10
34.3882436591218
20
-3.42636496558643
30
0
41
1
10
33.9932235240605
20
-3.47471463208831
30
0
41
1
10
33.6381433069643
20
-3.50455129235047
30
0
41
1
10
33.1935938209456
20
-3.52445920237807
30
0
41
1
10
33.1046504399435
20
-3.52757264127132
30
0
41
1
10
32.9267136163316
20
-3.5320578483383
30
0
41
1
10
32.8377182579135
20
-3.53342820780489
30
0
41
1
10
32.5705366665641
20
-3.53490253228702
30
0
41
1
10
32.3921604823367
20
-3.53237338301494
30
0
41
1
10
32.0347245709606
20
-3.5202462062737
30
0
41
1
10
31.8556626083797
20
-3.51064691099955
30
0
41
1
10
31.58637746092
20
-3.49091662419318
30
0
41
1
10
31.4965005623744
20
-3.48345149196925
30
0
41
1
10
31.3164947113713
20
-3.4667376274183
30
0
41
1
10
31.2263221536326
20
-3.45748230397405
30
0
41
1
10
30.9564303096842
20
-3.42715547936055
30
0
41
1
10
30.7770108245248
20
-3.40349571242118
30
0
41
1
10
30.4188967559835
20
-3.34954702069953
30
0
41
1
10
30.2402057148287
20
-3.31925900389291
30
0
41
1
10
29.8833979340058
20
-3.25223331382725
30
0
41
1
10
29.7052780859274
20
-3.21549509638152
30
0
41
1
10
29.3493247154977
20
-3.13584827562954
30
0
41
1
10
29.1714939811085
20
-3.09293976010031
30
0
41
1
10
28.6381932178368
20
-2.95523680541589
30
0
41
1
10
28.2828850202312
20
-2.85148880830664
30
0
41
1
10
27.5710491972958
20
-2.62194824850167
30
0
41
1
10
27.2145221434183
20
-2.49614876430553
30
0
41
1
10
26.6774423064968
20
-2.29255319233039
30
0
41
1
10
26.4980396481947
20
-2.22219873786722
30
0
41
1
10
26.2282061521763
20
-2.11313729692176
30
0
41
1
10
26.1380777742509
20
-2.0761696705764
30
0
41
1
10
25.9578324475681
20
-2.00121617533904
30
0
41
1
10
25.6878475860596
20
-1.88741470869275
30
0
41
1
10
25.4188879002206
20
-1.76973961366806
30
0
41
1
10
25.0610253747817
20
-1.60970976367696
30
0
41
1
10
24.8824664340032
20
-1.52813424646189
30
0
41
1
10
24.347448242154
20
-1.27959992677185
30
0
41
1
10
23.9916539365509
20
-1.10882495436954
30
0
41
1
10
23.2802774974703
20
-0.760157006052253
30
0
41
1
10
22.924699231736
20
-0.582255373098093
30
0
41
1
10
22.2121240559472
20
-0.222525629619923
30
0
41
1
10
21.8551103634812
20
-0.0407296255212941
30
0
41
1
10
21.3171458136865
20
0.232170670968145
30
0
41
1
10
21.1374174928884
20
0.323172587163668
30
0
41
1
10
20.8670373798962
20
0.459371215159877
30
0
41
1
10
20.7767914350679
20
0.504713780669817
30
0
41
1
10
20.5964697082558
20
0.595008660837635
30
0
41
1
10
20.5063366377237
20
0.63998986909607
30
0
41
1
10
20.0557401762999
20
0.86393089743288
30
0
41
1
10
19.695471489107
20
1.0399753105383
30
0
41
1
10
19.3346760796763
20
1.21149979776394
30
0
0
SPLINE
5
10A
100
AcDbEntity
8
1
62
256
6
ByLayer
370
18
48
1
60
0
100
AcDbSpline
70
4
71
3
72
16
73
12
40
0
40
0
40
0
40
0
40
0.249999999999891
40
0.249999999999891
40
0.374999999999908
40
0.374999999999908
40
0.499999999999925
40
0.499999999999925
40
0.749999999999962
40
0.749999999999962
40
1
40
1
40
1
40
1
41
1
10
19.3346760796763
20
1.21149979776394
30
0
41
1
10
19.3264170204782
20
1.2154262082916
30
0
41
1
10
19.3189205704423
20
1.22031584893003
30
0
41
1
10
19.308790554947
20
1.22905102011004
30
0
41
1
10
19.3055917655377
20
1.23221795984082
30
0
41
1
10
19.2997674142053
20
1.23884227836126
30
0
41
1
10
19.2971161619482
20
1.24231813732789
30
0
41
1
10
19.2899373119695
20
1.25323003924942
30
0
41
1
10
19.286176108599
20
1.26123404109083
30
0
41
1
10
19.2812036189138
20
1.27761274486127
30
0
41
1
10
19.2799100203701
20
1.28617147389087
30
0
41
1
10
19.2799100203701
20
1.29477902651829
30
0
0
SPLINE
5
10B
100
AcDbEntity
8
1
62
256
6
ByLayer
370
18
48
1
60
0
100
AcDbSpline
70
4
71
3
72
27
73
23
40
0
40
0
40
0
40
0
40
0.125000000000019
40
0.125000000000019
40
0.187500000000028
40
0.187500000000028
40
0.250000000000037
40
0.312500000000045
40
0.312500000000045
40
0.375000000000054
40
0.375000000000054
40
0.500000000000142
40
0.500000000000142
40
0.625000000000231
40
0.625000000000231
40
0.687500000000226
40
0.687500000000226
40
0.750000000000222
40
0.750000000000222
40
0.875000000000111
40
0.875000000000111
40
1
40
1
40
1
40
1
41
1
10
19.2799100203703
20
3.47865051999508
30
0
41
1
10
19.2799100203703
20
3.47750173655589
30
0
41
1
10
19.2810029511076
20
3.47634838054427
30
0
41
1
10
19.2842315769885
20
3.47461610878645
30
0
41
1
10
19.2855891098528
20
3.47403425036839
30
0
41
1
10
19.288791685335
20
3.47289823400013
30
0
41
1
10
19.2924754912865
20
3.47178820029828
30
0
41
1
10
19.2971005796279
20
3.47073350483885
30
0
41
1
10
19.3022090462146
20
3.46970992632245
30
0
41
1
10
19.3050016408923
20
3.46921549971648
30
0
41
1
10
19.3138678931715
20
3.4678255680092
30
0
41
1
10
19.3205183639234
20
3.46700460128977
30
0
41
1
10
19.335192736661
20
3.46562160702399
30
0
41
1
10
19.3429495915289
20
3.46508356581245
30
0
41
1
10
19.3552001843864
20
3.46451444239781
30
0
41
1
10
19.359415425477
20
3.46436448840339
30
0
41
1
10
19.367840882919
20
3.46415527929099
30
0
41
1
10
19.3720680904051
20
3.46409464782735
30
0
41
1
10
19.384792373376
20
3.46404318071691
30
0
41
1
10
19.3934521419029
20
3.46418805166598
30
0
41
1
10
19.4100319830341
20
3.46481446251724
30
0
41
1
10
19.4180109322152
20
3.46529053343653
30
0
41
1
10
19.4256661781528
20
3.46592850986417
30
0
0
SPLINE
5
10C
100
AcDbEntity
8
1
62
256
6
ByLayer
370
18
48
1
60
0
100
AcDbSpline
70
4
71
3
72
96
73
92
40
0
40
0
40
0
40
0
40
0.046786909924456
40
0.046786909924456
40
0.0701803648866841
40
0.0701803648866841
40
0.0818770923677981
40
0.0818770923677981
40
0.0935738198489121
40
0.0935738198489121
40
0.116967274811139
40
0.116967274811139
40
0.140360729773367
40
0.140360729773367
40
0.163754184735594
40
0.163754184735594
40
0.187147639697821
40
0.187147639697821
40
0.233934549622276
40
0.233934549622276
40
0.257328004584504
40
0.257328004584504
40
0.280721459546731
40
0.280721459546731
40
0.304114914508959
40
0.304114914508959
40
0.315811641990073
40
0.315811641990073
40
0.327508369471186
40
0.327508369471186
40
0.350901824433416
40
0.350901824433416
40
0.374295279395645
40
0.374295279395645
40
0.397688734357874
40
0.397688734357874
40
0.421082189320103
40
0.421082189320103
40
0.444475644282332
40
0.444475644282332
40
0.467869099244561
40
0.467869099244561
40
0.49126255420679
40
0.49126255420679
40
0.514656009169019
40
0.514656009169019
40
0.538049464131248
40
0.538049464131248
40
0.561442919093477
40
0.561442919093477
40
0.584836374055707
40
0.584836374055707
40
0.596533101536821
40
0.596533101536821
40
0.608229829017936
40
0.608229829017936
40
0.631623283980166
40
0.631623283980166
40
0.655016738942397
40
0.655016738942397
40
0.678410193904627
40
0.678410193904627
40
0.701803648866858
40
0.701803648866858
40
0.725197103829088
40
0.725197103829088
40
0.748590558791319
40
0.748590558791319
40
0.760287286272433
40
0.760287286272433
40
0.771984013753548
40
0.771984013753548
40
0.795377468715777
40
0.795377468715777
40
0.818770923678006
40
0.818770923678006
40
0.842164378640235
40
0.842164378640235
40
0.865557833602464
40
0.865557833602464
40
0.888951288564693
40
0.888951288564693
40
0.912344743526922
40
0.912344743526922
40
0.935738198489151
40
0.935738198489151
40
0.982525108413609
40
0.982525108413609
40
0.994221835894724
40
0.994221835894724
40
1
40
1
40
1
40
1
41
1
10
19.4256661781527
20
3.46592850986417
30
0
41
1
10
19.7843510642202
20
3.49582075684609
30
0
41
1
10
20.1431123758814
20
3.5110753473098
30
0
41
1
10
20.6820482689603
20
3.51280078977123
30
0
41
1
10
20.8618207451174
20
3.50984276864054
30
0
41
1
10
21.1317259915622
20
3.50012563469144
30
0
41
1
10
21.2217358234123
20
3.49600593168745
30
0
41
1
10
21.401851943203
20
3.48600220763848
30
0
41
1
10
21.4917939573378
20
3.48012755679781
30
0
41
1
10
21.761207940533
20
3.4599087685576
30
0
41
1
10
21.9402825062487
20
3.44296505924035
30
0
41
1
10
22.297386231636
20
3.40214522850394
30
0
41
1
10
22.4754724385464
20
3.37828208558415
30
0
41
1
10
22.8313312283121
20
3.32405099650927
30
0
41
1
10
23.0090625403895
20
3.29367008113849
30
0
41
1
10
23.3642130294663
20
3.22649549634346
30
0
41
1
10
23.541653203443
20
3.18971188599562
30
0
41
1
10
24.0740765259084
20
3.07027409634355
30
0
41
1
10
24.4290753377826
20
2.97850282470284
30
0
41
1
10
24.9622490238995
20
2.82314904168123
30
0
41
1
10
25.140077392427
20
2.76839896619248
30
0
41
1
10
25.4960112038545
20
2.65291781537832
30
0
41
1
10
25.6741707490019
20
2.59224141214142
30
0
41
1
10
26.0316169797784
20
2.46601212361435
30
0
41
1
10
26.2108634587113
20
2.40041744666652
30
0
41
1
10
26.4805557353247
20
2.29835467181692
30
0
41
1
10
26.5706406620095
20
2.26369491924109
30
0
41
1
10
26.7503873595109
20
2.19336542509856
30
0
41
1
10
26.8401235335046
20
2.15766693855341
30
0
41
1
10
27.1089094200425
20
2.04895325182363
30
0
41
1
10
27.2875344603685
20
1.97431607722626
30
0
41
1
10
27.6438125711184
20
1.82097850908752
30
0
41
1
10
27.8215320701451
20
1.74238801836529
30
0
41
1
10
28.176982974855
20
1.58291577749228
30
0
41
1
10
28.3546503058848
20
1.50192703407768
30
0
41
1
10
28.7097759168163
20
1.33731600392483
30
0
41
1
10
28.8872401944375
20
1.25370351874778
30
0
41
1
10
29.2420206448972
20
1.08395512643796
30
0
41
1
10
29.4193310878934
20
0.99780804707666
30
0
41
1
10
29.7738802850358
20
0.823104814492922
30
0
41
1
10
29.9511563543984
20
0.734617553510475
30
0
41
1
10
30.3062489634089
20
0.556418170032657
30
0
41
1
10
30.4840267534115
20
0.466633129734191
30
0
41
1
10
30.8400567577998
20
0.2856897762843
30
0
41
1
10
31.0183535653802
20
0.194617500595427
30
0
41
1
10
31.3761243516538
20
0.0125419948402623
30
0
41
1
10
31.5555541968674
20
-0.078547514098716
30
0
41
1
10
31.9154008901514
20
-0.261068671621672
30
0
41
1
10
32.0948550757631
20
-0.351999385842078
30
0
41
1
10
32.4526160156412
20
-0.533002027467148
30
0
41
1
10
32.6309540399993
20
-0.623115344739546
30
0
41
1
10
32.8977426789975
20
-0.757492246054966
30
0
41
1
10
32.9865779862338
20
-0.802099956788567
30
0
41
1
10
33.1642572435658
20
-0.890561842901519
30
0
41
1
10
33.2530834998107
20
-0.934452243174007
30
0
41
1
10
33.5194848067406
20
-1.0651904779526
30
0
41
1
10
33.696985536279
20
-1.15110059110674
30
0
41
1
10
34.0517577525221
20
-1.32050935275586
30
0
41
1
10
34.229027741046
20
-1.40400997902762
30
0
41
1
10
34.5833809938367
20
-1.56850052049538
30
0
41
1
10
34.7604789224304
20
-1.64946070108297
30
0
41
1
10
35.1148568136074
20
-1.80817684733088
30
0
41
1
10
35.2921472833133
20
-1.88591258484752
30
0
41
1
10
35.6474330449469
20
-2.03728061379525
30
0
41
1
10
35.8254039537831
20
-2.11096037786771
30
0
41
1
10
36.1819291351538
20
-2.25441841620167
30
0
41
1
10
36.3604817794303
20
-2.32419845902675
30
0
41
1
10
36.6287690882704
20
-2.42585187893937
30
0
41
1
10
36.7182796572814
20
-2.45922487442908
30
0
41
1
10
36.8975339903326
20
-2.52482972158359
30
0
41
1
10
36.9873631283836
20
-2.55709089141067
30
0
41
1
10
37.2563980421519
20
-2.65170162785159
30
0
41
1
10
37.4352799488584
20
-2.71192592195354
30
0
41
1
10
37.7925071320897
20
-2.82628946404492
30
0
41
1
10
37.9708332322205
20
-2.88046496746972
30
0
41
1
10
38.3268642466571
20
-2.98297184474768
30
0
41
1
10
38.5045672514506
20
-3.03130304838163
30
0
41
1
10
38.8593801492692
20
-3.12207376259491
30
0
41
1
10
39.0365126107798
20
-3.16448055455973
30
0
41
1
10
39.3906882256854
20
-3.24290951828436
30
0
41
1
10
39.567713583777
20
-3.27895573827763
30
0
41
1
10
39.921727309225
20
-3.34462776886332
30
0
41
1
10
40.0987342207947
20
-3.3742310309791
30
0
41
1
10
40.4532280965811
20
-3.4266709252868
30
0
41
1
10
40.6307006547426
20
-3.44952429566746
30
0
41
1
10
41.1639769302102
20
-3.50790928668087
30
0
41
1
10
41.5205873837358
20
-3.53333826711994
30
0
41
1
10
41.968057185157
20
-3.54752894241025
30
0
41
1
10
42.0576371076332
20
-3.54948360952358
30
0
41
1
10
42.1916061998413
20
-3.55105896432607
30
0
41
1
10
42.2358839037139
20
-3.55135867991262
30
0
41
1
10
42.2801393927568
20
-3.55143841815328
30
0
0
SPLINE
5
10D
100
AcDbEntity
8
1
62
256
6
ByLayer
370
18
48
1
60
0
100
AcDbSpline
70
4
71
3
72
131
73
127
40
0
40
0
40
0
40
0
40
0.0017191610293227
40
0.0017191610293227
40
0.0290072684250586
40
0.0290072684250586
40
0.042651322122926
40
0.042651322122926
40
0.0562953758207933
40
0.0562953758207933
40
0.0699394295186607
40
0.0699394295186607
40
0.0835834832165281
40
0.0835834832165281
40
0.110871590612263
40
0.110871590612263
40
0.12451564431013
40
0.12451564431013
40
0.138159698007997
40
0.138159698007997
40
0.151803751705865
40
0.151803751705865
40
0.165447805403732
40
0.165447805403732
40
0.1790918591016
40
0.1790918591016
40
0.192735912799467
40
0.192735912799467
40
0.206379966497334
40
0.206379966497334
40
0.220024020195202
40
0.220024020195202
40
0.247312127590936
40
0.247312127590936
40
0.260956181288803
40
0.260956181288803
40
0.27460023498667
40
0.27460023498667
40
0.301888342382402
40
0.301888342382402
40
0.329176449778134
40
0.329176449778134
40
0.342820503476
40
0.342820503476
40
0.356464557173866
40
0.356464557173866
40
0.370108610871733
40
0.370108610871733
40
0.383752664569599
40
0.383752664569599
40
0.411040771965332
40
0.411040771965332
40
0.424684825663199
40
0.424684825663199
40
0.438328879361066
40
0.438328879361066
40
0.451972933058932
40
0.451972933058932
40
0.465616986756799
40
0.465616986756799
40
0.492905094152531
40
0.492905094152531
40
0.506549147850398
40
0.506549147850398
40
0.520193201548264
40
0.533837255246131
40
0.533837255246131
40
0.547481308943998
40
0.547481308943998
40
0.561125362641864
40
0.561125362641864
40
0.574769416339731
40
0.574769416339731
40
0.588413470037598
40
0.588413470037598
40
0.602057523735465
40
0.602057523735465
40
0.629345631131197
40
0.629345631131197
40
0.642989684829062
40
0.642989684829062
40
0.656633738526928
40
0.656633738526928
40
0.683921845922657
40
0.683921845922657
40
0.711209953318387
40
0.711209953318387
40
0.724854007016251
40
0.724854007016251
40
0.738498060714115
40
0.738498060714115
40
0.745320087563047
40
0.745320087563047
40
0.752142114411978
40
0.752142114411978
40
0.765786168109842
40
0.765786168109842
40
0.793074275505571
40
0.793074275505571
40
0.806718329203435
40
0.806718329203435
40
0.820362382901298
40
0.820362382901298
40
0.834006436599162
40
0.834006436599162
40
0.847650490297025
40
0.847650490297025
40
0.874938597692753
40
0.874938597692753
40
0.888582651390616
40
0.888582651390616
40
0.90222670508848
40
0.90222670508848
40
0.929514812484207
40
0.929514812484207
40
0.936336839333139
40
0.936336839333139
40
0.943158866182071
40
0.943158866182071
40
0.956802919879935
40
0.956802919879935
40
0.970446973577799
40
0.970446973577799
40
0.984091027275663
40
0.984091027275663
40
1
40
1
40
1
40
1
41
1
10
48.5650659050419
20
-2.56784323467536
30
0
41
1
10
48.5495507196625
20
-2.57336858827088
30
0
41
1
10
48.5340382269127
20
-2.57887251291063
30
0
41
1
10
48.272341358139
20
-2.67137735171738
30
0
41
1
10
48.0268603938488
20
-2.75306334041684
30
0
41
1
10
47.6594984837874
20
-2.86748108460313
30
0
41
1
10
47.5371560036293
20
-2.9042296622716
30
0
41
1
10
47.2927906288644
20
-2.9750601746932
30
0
41
1
10
47.1707575081908
20
-3.00912503027379
30
0
41
1
10
46.9267444262368
20
-3.07428953930082
30
0
41
1
10
46.8047796176
20
-3.10540685790798
30
0
41
1
10
46.5608089216354
20
-3.16460935398621
30
0
41
1
10
46.4387985428319
20
-3.19269200731145
30
0
41
1
10
46.0726693353518
20
-3.27239047361135
30
0
41
1
10
45.8284958272173
20
-3.31949356229768
30
0
41
1
10
45.461780326599
20
-3.38080923119694
30
0
41
1
10
45.3394887446698
20
-3.39970611600313
30
0
41
1
10
45.0947689573397
20
-3.43435715703791
30
0
41
1
10
44.97229578597
20
-3.45008413168753
30
0
41
1
10
44.7269764556599
20
-3.47825026199737
30
0
41
1
10
44.6041311980949
20
-3.4906905156777
30
0
41
1
10
44.3579662871558
20
-3.51223701462652
30
0
41
1
10
44.2346548578304
20
-3.52134780061732
30
0
41
1
10
43.9875603119629
20
-3.53621938825552
30
0
41
1
10
43.8636442114895
20
-3.54198152315885
30
0
41
1
10
43.6165389679236
20
-3.55007621872147
30
0
41
1
10
43.4932110063979
20
-3.55241723899908
30
0
41
1
10
43.2470283526981
20
-3.55371442113548
30
0
41
1
10
43.1242116222891
20
-3.55266639244496
30
0
41
1
10
42.8788657222033
20
-3.54719348867801
30
0
41
1
10
42.7563438942054
20
-3.54277065521725
30
0
41
1
10
42.3890489789652
20
-3.52452364674616
30
0
41
1
10
42.144494189483
20
-3.50574806406166
30
0
41
1
10
41.7780090061022
20
-3.46786574085073
30
0
41
1
10
41.6559126637166
20
-3.45361179630365
30
0
41
1
10
41.4117622558371
20
-3.42189123439246
30
0
41
1
10
41.289706276337
20
-3.40442838420998
30
0
41
1
10
40.9237131743657
20
-3.34713343001917
30
0
41
1
10
40.6797305470145
20
-3.30249591632494
30
0
41
1
10
40.1906482025891
20
-3.20114809786338
30
0
41
1
10
39.9455979183719
20
-3.14443329545364
30
0
41
1
10
39.5771650772313
20
-3.05031087523787
30
0
41
1
10
39.4541991348722
20
-3.01743720340468
30
0
41
1
10
39.2079016492818
20
-2.94871553831408
30
0
41
1
10
39.0846226669077
20
-2.91280652645256
30
0
41
1
10
38.8376303071079
20
-2.83803296146093
30
0
41
1
10
38.7137610373634
20
-2.79915205469146
30
0
41
1
10
38.4666735215345
20
-2.71903262587955
30
0
41
1
10
38.3433268413436
20
-2.67777304553277
30
0
41
1
10
37.9737719621477
20
-2.55058828538048
30
0
41
1
10
37.7280962251925
20
-2.46119675338579
30
0
41
1
10
37.3604314684644
20
-2.3205757219182
30
0
41
1
10
37.2379859350528
20
-2.27266179054445
30
0
41
1
10
36.9934165067166
20
-2.17459449884947
30
0
41
1
10
36.8712787701991
20
-2.1244596007854
30
0
41
1
10
36.6270508388458
20
-2.02238190021686
30
0
41
1
10
36.5049761057232
20
-1.97041511839996
30
0
41
1
10
36.2607791400318
20
-1.86484593285536
30
0
41
1
10
36.1386530428613
20
-1.81125103882258
30
0
41
1
10
35.7721727444156
20
-1.64808366114846
30
0
41
1
10
35.5277603749181
20
-1.53605243868782
30
0
41
1
10
35.1606826560924
20
-1.36366927618818
30
0
41
1
10
35.0382736077696
20
-1.30543605518807
30
0
41
1
10
34.7933140738681
20
-1.1874794039247
30
0
41
1
10
34.5481227740006
20
-1.06820206208258
30
0
41
1
10
34.3021801687465
20
-0.946821048739338
30
0
41
1
10
34.0557611133944
20
-0.824586409041899
30
0
41
1
10
33.9323219141362
20
-0.763025756202779
30
0
41
1
10
33.6849727274895
20
-0.639029247602565
30
0
41
1
10
33.5609252263311
20
-0.576517327824007
30
0
41
1
10
33.3135449844468
20
-0.451294530953931
30
0
41
1
10
33.1900783190252
20
-0.38858227892257
30
0
41
1
10
32.9436280077589
20
-0.262875114974833
30
0
41
1
10
32.8206788718291
20
-0.199809451277076
30
0
41
1
10
32.5750626516837
20
-0.0738117097223494
30
0
41
1
10
32.4524053637907
20
-0.0108588378579384
30
0
41
1
10
32.0847005750718
20
0.177493911367009
30
0
41
1
10
31.8398703598128
20
0.302290290492408
30
0
41
1
10
31.472984789455
20
0.48816071614948
30
0
41
1
10
31.3507570045908
20
0.549910840851652
30
0
41
1
10
31.1063437129904
20
0.672814403350031
30
0
41
1
10
30.9841625195075
20
0.733976935000612
30
0
41
1
10
30.6177974988078
20
0.916789373807688
30
0
41
1
10
30.3735617883627
20
1.03730822883713
30
0
41
1
10
29.8839788174779
20
1.27346480552521
30
0
41
1
10
29.6386851778303
20
1.38921231280347
30
0
41
1
10
29.2699078109189
20
1.55916394570141
30
0
41
1
10
29.146827078458
20
1.61517340883506
30
0
41
1
10
28.9003137410444
20
1.72582504005558
30
0
41
1
10
28.7769350980449
20
1.78056579501182
30
0
41
1
10
28.591535011879
20
1.86151681401586
30
0
41
1
10
28.5296750891853
20
1.88829901422994
30
0
41
1
10
28.4058212433269
20
1.94143393347213
30
0
41
1
10
28.343890223311
20
1.96775941653834
30
0
41
1
10
28.1583349388399
20
2.04585822442314
30
0
41
1
10
28.0348276453651
20
2.09678675123678
30
0
41
1
10
27.6647991557253
20
2.24607519117936
30
0
41
1
10
27.4188199842847
20
2.34102734838371
30
0
41
1
10
27.05071195177
20
2.4764224475544
30
0
41
1
10
26.9281224085237
20
2.52033751637578
30
0
41
1
10
26.6832805034105
20
2.60589127209636
30
0
41
1
10
26.5610038393751
20
2.64749092781551
30
0
41
1
10
26.3165004124575
20
2.72801808878776
30
0
41
1
10
26.1942890833319
20
2.76696736684289
30
0
41
1
10
25.949818913738
20
2.8420966174854
30
0
41
1
10
25.8275587599397
20
2.8782767037641
30
0
41
1
10
25.4606884546304
20
2.98267108338757
30
0
41
1
10
25.2160316351686
20
3.0467879461996
30
0
41
1
10
24.8486124995903
20
3.13436281028302
30
0
41
1
10
24.7261026507996
20
3.16215409269458
30
0
41
1
10
24.4809342427584
20
3.21482910495666
30
0
41
1
10
24.3582331911667
20
3.2396751197397
30
0
41
1
10
23.9895766043076
20
3.30955478244104
30
0
41
1
10
23.7430057241068
20
3.3498934785884
30
0
41
1
10
23.4336033384161
20
3.39232439070185
30
0
41
1
10
23.3716654183872
20
3.40041169149845
30
0
41
1
10
23.2476711032551
20
3.41578207574423
30
0
41
1
10
23.1856345016257
20
3.42306265643839
30
0
41
1
10
22.9998298445344
20
3.4436332610455
30
0
41
1
10
22.8761842459638
20
3.4556643929032
30
0
41
1
10
22.6294024362589
20
3.47640982428774
30
0
41
1
10
22.5062896079082
20
3.48512583403274
30
0
41
1
10
22.2603424134041
20
3.49917473043391
30
0
41
1
10
22.1375219136602
20
3.50451395435977
30
0
41
1
10
21.8716875512734
20
3.51244833735035
30
0
41
1
10
21.7286919278449
20
3.51444585127163
30
0
41
1
10
21.5857941223146
20
3.51419195180137
30
0
0
SPLINE
5
10E
100
AcDbEntity
8
1
62
256
6
ByLayer
370
18
48
1
60
0
100
AcDbSpline
70
4
71
3
72
32
73
28
40
0
40
0
40
0
40
0
40
0.0775679533368322
40
0.0775679533368322
40
0.119496682730612
40
0.119496682730612
40
0.140461047427502
40
0.140461047427502
40
0.161425412124392
40
0.161425412124392
40
0.245282870911952
40
0.245282870911952
40
0.329140329699513
40
0.329140329699513
40
0.371069059093293
40
0.371069059093293
40
0.412997788487073
40
0.412997788487073
40
0.496855247274633
40
0.496855247274633
40
0.664570164849753
40
0.664570164849753
40
0.748427623637313
40
0.748427623637313
40
0.832285082424874
40
0.832285082424874
40
1
40
1
40
1
40
1
41
1
10
3.39398614767279
20
-3.48144394796245
30
0
41
1
10
3.41016657847936
20
-3.48145148447105
30
0
41
1
10
3.43200586802783
20
-3.47912047575071
30
0
41
1
10
3.47325381201219
20
-3.47244721880261
30
0
41
1
10
3.48917417396677
20
-3.4695188491622
30
0
41
1
10
3.51509354376805
20
-3.46430901049405
30
0
41
1
10
3.52409136448114
20
-3.46243213870272
30
0
41
1
10
3.54264300930572
20
-3.4584379692858
30
0
41
1
10
3.55219404785231
20
-3.45632159555481
30
0
41
1
10
3.60124454019882
20
-3.44518211677547
30
0
41
1
10
3.6446033932406
20
-3.43449873244268
30
0
41
1
10
3.73797467191443
20
-3.41035305887379
30
0
41
1
10
3.78799614131361
20
-3.39688649244064
30
0
41
1
10
3.86722201642715
20
-3.37499070104551
30
0
41
1
10
3.89434958504626
20
-3.36740320687488
30
0
41
1
10
3.94983357477599
20
-3.35173130679061
30
0
41
1
10
3.9780436584185
20
-3.34368839956551
30
0
41
1
10
4.0639350463355
20
-3.31901467561553
30
0
41
1
10
4.12287155660692
20
-3.30184197949794
30
0
41
1
10
4.30384291394353
20
-3.24861264564427
30
0
41
1
10
4.42999609112448
20
-3.21086762320277
30
0
41
1
10
4.62533266650124
20
-3.15201101616722
30
0
41
1
10
4.69147625477547
20
-3.13201181831283
30
0
41
1
10
4.82558839802897
20
-3.09138081336766
30
0
41
1
10
4.89362667809598
20
-3.07072768727076
30
0
41
1
10
5.09953632637016
20
-3.00817273768723
30
0
41
1
10
5.23924347197504
20
-2.96566639717722
30
0
41
1
10
5.38091909227416
20
-2.92263091127558
30
0
0
SPLINE
5
10F
100
AcDbEntity
8
1
62
256
6
ByLayer
370
18
48
1
60
0
100
AcDbSpline
70
4
71
3
72
20
73
16
40
0
40
0
40
0
40
0
40
0.009994675003745
40
0.009994675003745
40
0.0199893504256336
40
0.0199893504256336
40
0.0599682888203109
40
0.0599682888203109
40
0.219897729294568
40
0.219897729294568
40
0.539832373758859
40
0.539832373758859
40
0.859755469426788
40
0.859755469426788
40
1
40
1
40
1
40
1
41
1
10
5.38091906759135
20
-2.92263091873875
30
0
41
1
10
5.38094353275764
20
-2.92262348717551
30
0
41
1
10
5.38096800525682
20
-2.92261606267761
30
0
41
1
10
5.38101696624773
20
-2.92260122916289
30
0
41
1
10
5.38104145475234
20
-2.92259382014893
30
0
41
1
10
5.38116394104009
20
-2.92255681723154
30
0
41
1
10
5.38126207589949
20
-2.92252735619218
30
0
41
1
10
5.38175335793221
20
-2.92238062811307
30
0
41
1
10
5.38214852063123
20
-2.92226531933167
30
0
41
1
10
5.38333977970603
20
-2.92192527789496
30
0
41
1
10
5.38414184015329
20
-2.92170649866674
30
0
41
1
10
5.38575906600278
20
-2.9212840889283
30
0
41
1
10
5.38657446969714
20
-2.92108039088308
30
0
41
1
10
5.38775557028544
20
-2.9207977158309
30
0
41
1
10
5.38811669366851
20
-2.92071292872313
30
0
41
1
10
5.38847886102565
20
-2.9206294882714
30
0
0
SPLINE
5
110
100
AcDbEntity
8
1
62
256
6
ByLayer
370
18
48
1
60
0
100
AcDbSpline
70
4
71
3
72
14
73
10
40
0
40
0
40
0
40
0
40
0.25
40
0.25
40
0.5
40
0.5
40
0.75
40
0.75
40
1
40
1
40
1
40
1
41
1
10
5.38847886102565
20
-2.92062948827143
30
0
41
1
10
5.39645348713685
20
-2.91879219843281
30
0
41
1
10
5.40473084258079
20
-2.91765497397492
30
0
41
1
10
5.42160862573456
20
-2.91613334512491
30
0
41
1
10
5.43024047253968
20
-2.915779315979
30
0
41
1
10
5.44741090817615
20
-2.91575480189968
30
0
41
1
10
5.4560301857959
20
-2.91608421885328
30
0
41
1
10
5.47304806690752
20
-2.91738275316024
30
0
41
1
10
5.48148736736039
20
-2.91835634512776
30
0
41
1
10
5.4897545597907
20
-2.9197063041166
30
0
0
SPLINE
5
111
100
AcDbEntity
8
1
62
256
6
ByLayer
370
18
48
1
60
0
100
AcDbSpline
70
4
71
3
72
14
73
10
40
0
40
0
40
0
40
0
40
0.169163642784299
40
0.169163642784299
40
0.538424246928715
40
0.538424246928715
40
0.90768485218146
40
0.90768485218146
40
1
40
1
40
1
40
1
41
1
10
5.4897545597849
20
-2.91970630412896
30
0
41
1
10
5.49037810017199
20
-2.9198081227284
30
0
41
1
10
5.49100162712134
20
-2.91990995382315
30
0
41
1
10
5.49298618313418
20
-2.92023410760069
30
0
41
1
10
5.49434716157117
20
-2.92045647729609
30
0
41
1
10
5.49706899026114
20
-2.92090133490382
30
0
41
1
10
5.49842984820316
20
-2.92112380879078
30
0
41
1
10
5.50013082179507
20
-2.92140200892396
30
0
41
1
10
5.50047101551277
20
-2.92145764710278
30
0
41
1
10
5.50081120399807
20
-2.92151329120142
30
0
0
SPLINE
5
112
100
AcDbEntity
8
1
62
256
6
ByLayer
370
18
48
1
60
0
100
AcDbSpline
70
4
71
3
72
16
73
12
40
0
40
0
40
0
40
0
40
0.25
40
0.25
40
0.375
40
0.375
40
0.5
40
0.5
40
0.75
40
0.75
40
1
40
1
40
1
40
1
41
1
10
5.50081952909201
20
-2.92151465292497
30
0
41
1
10
5.73560929724496
20
-2.95991889700736
30
0
41
1
10
5.9681761935291
20
-3.00004485829018
30
0
41
1
10
6.31400634272941
20
-3.06078806025778
30
0
41
1
10
6.42878083788878
20
-3.08112550105224
30
0
41
1
10
6.65739328357762
20
-3.12161396316608
30
0
41
1
10
6.77117117720118
20
-3.1417538421141
30
0
41
1
10
7.11058280176093
20
-3.20121517744536
30
0
41
1
10
7.33447435042575
20
-3.23960779047008
30
0
41
1
10
7.77838255706558
20
-3.31092529293446
30
0
41
1
10
7.99840068188055
20
-3.34384391084711
30
0
41
1
10
8.21701931497449
20
-3.37263291760357
30
0
0
SPLINE
5
113
100
AcDbEntity
8
1
62
256
6
ByLayer
370
18
48
1
60
0
100
AcDbSpline
70
4
71
3
72
12
73
8
40
0
40
0
40
0
40
0
40
0.385208048917222
40
0.385208048917222
40
0.770416097834444
40
0.770416097834444
40
1
40
1
40
1
40
1
41
1
10
8.21701931497452
20
-3.3726329176036
30
0
41
1
10
8.4494550477452
20
-3.40321326266067
30
0
41
1
10
8.68119109372412
20
-3.42798570350928
30
0
41
1
10
9.14364144869214
20
-3.46592751169072
30
0
41
1
10
9.37436242903112
20
-3.47908951948259
30
0
41
1
10
9.74220125601255
20
-3.49080847614229
30
0
41
1
10
9.87947664261711
20
-3.49311953378185
30
0
41
1
10
10.0167023489386
20
-3.49336524397072
30
0
0
SPLINE
5
114
100
AcDbEntity
8
1
62
256
6
ByLayer
370
18
48
1
60
0
100
AcDbSpline
70
4
71
3
72
66
73
62
40
0
40
0
40
0
40
0
40
0.0024485440055852
40
0.0024485440055852
40
0.0931350400050757
40
0.0931350400050757
40
0.11580666400495
40
0.11580666400495
40
0.127142476004886
40
0.127142476004886
40
0.138478288004823
40
0.183821536004569
40
0.183821536004569
40
0.229164784004315
40
0.229164784004315
40
0.240500596004252
40
0.240500596004252
40
0.251836408004189
40
0.274508032004062
40
0.274508032004062
40
0.319851280003808
40
0.319851280003808
40
0.365194528003554
40
0.365194528003554
40
0.4105377760033
40
0.4105377760033
40
0.433209400003173
40
0.444545212003109
40
0.444545212003109
40
0.455881024003044
40
0.455881024003044
40
0.501224272002789
40
0.501224272002789
40
0.546567520002534
40
0.546567520002534
40
0.55790333200247
40
0.55790333200247
40
0.569239144002406
40
0.591910768002278
40
0.591910768002278
40
0.637254016002024
40
0.637254016002024
40
0.68259726400177
40
0.68259726400177
40
0.727940512001516
40
0.727940512001516
40
0.773283760001262
40
0.773283760001262
40
0.784619572001198
40
0.784619572001198
40
0.795955384001134
40
0.818627008001007
40
0.818627008001007
40
0.863970256000751
40
0.863970256000751
40
0.886641880000623
40
0.886641880000623
40
0.89797769200056
40
0.89797769200056
40
0.909313504000497
40
1
40
1
40
1
40
1
41
1
10
29.9877504851461
20
3.39733578600195
30
0
41
1
10
30.0069409190573
20
3.4000155706016
30
0
41
1
10
30.0261304677574
20
3.40265629826925
30
0
41
1
10
30.7560128199318
20
3.50161318859403
30
0
41
1
10
31.4656933336094
20
3.54420358549913
30
0
41
1
10
32.3601438484936
20
3.52660671744138
30
0
41
1
10
32.5394030615444
20
3.51955025035332
30
0
41
1
10
32.8090189704051
20
3.50360926090306
30
0
41
1
10
32.8990777581015
20
3.49739743940478
30
0
41
1
10
33.0790867685469
20
3.48321300878519
30
0
41
1
10
33.5288054186743
20
3.4433630744324
30
0
41
1
10
33.9773038633632
20
3.38174379289936
30
0
41
1
10
34.6950778287963
20
3.25631008757293
30
0
41
1
10
35.0540571387808
20
3.18016981143202
30
0
41
1
10
35.5040511615916
20
3.06898249083059
30
0
41
1
10
35.5940140426857
20
3.04596874015326
30
0
41
1
10
35.7736142517033
20
2.9984992423791
30
0
41
1
10
36.0426568720534
20
2.92510089265218
30
0
41
1
10
36.3107476444725
20
2.84529688903098
30
0
41
1
10
36.8459773501794
20
2.67761298501313
30
0
41
1
10
37.2015267626
20
2.55505017072542
30
0
41
1
10
37.911843719788
20
2.29099591084037
30
0
41
1
10
38.2666233735039
20
2.14952463548562
30
0
41
1
10
38.9770956532798
20
1.85027755564661
30
0
41
1
10
39.3327790272486
20
1.69248484655842
30
0
41
1
10
39.868280219207
20
1.44561066421818
30
0
41
1
10
40.1365262980266
20
1.31963085870547
30
0
41
1
10
40.4057682744872
20
1.19024895548213
30
0
41
1
10
40.5855124498694
20
1.10328498494624
30
0
41
1
10
40.6755326769616
20
1.05943639263756
30
0
41
1
10
41.1250187043155
20
0.839181682511736
30
0
41
1
10
41.4836500367325
20
0.659240746810326
30
0
41
1
10
42.2007665337087
20
0.295312825654435
30
0
41
1
10
42.5592631084484
20
0.111347372476899
30
0
41
1
10
43.0084746440455
20
-0.118832935344415
30
0
41
1
10
43.0984003752243
20
-0.164897418418292
30
0
41
1
10
43.2782573445008
20
-0.256934131623467
30
0
41
1
10
43.5476490819117
20
-0.394645094549645
30
0
41
1
10
43.8159843455543
20
-0.531088107544889
30
0
41
1
10
44.3515776273883
20
-0.801660266711764
30
0
41
1
10
44.7072075764649
20
-0.978947395369516
30
0
41
1
10
45.4173119542613
20
-1.32415533550508
30
0
41
1
10
45.771776632058
20
-1.49209271425181
30
0
41
1
10
46.4813109823254
20
-1.81537486233316
30
0
41
1
10
46.8363973262103
20
-1.97069100225789
30
0
41
1
10
47.5489589643567
20
-2.26555114299202
30
0
41
1
10
47.9064054238571
20
-2.40514378624425
30
0
41
1
10
48.3557612503603
20
-2.56790490052737
30
0
41
1
10
48.4456512748947
20
-2.5998296112312
30
0
41
1
10
48.6252206335889
20
-2.66229013452747
30
0
41
1
10
48.8943868531472
20
-2.75394439763835
30
0
41
1
10
49.1631195684224
20
-2.83934089584352
30
0
41
1
10
49.7003470892018
20
-3.00141358619166
30
0
41
1
10
50.0581754147439
20
-3.0978412176899
30
0
41
1
10
50.5957394996622
20
-3.22363961038016
30
0
41
1
10
50.77506634973
20
-3.26243023565937
30
0
41
1
10
51.044441644799
20
-3.31572161344687
30
0
41
1
10
51.1343414287379
20
-3.33267694815396
30
0
41
1
10
51.3139434538959
20
-3.36486493539263
30
0
41
1
10
52.1215213957407
20
-3.50202280770048
30
0
41
1
10
52.9246338538519
20
-3.56940152048028
30
0
41
1
10
53.6420139519078
20
-3.57187220878001
30
0
0
SPLINE
5
115
100
AcDbEntity
8
1
62
256
6
ByLayer
370
18
48
1
60
0
100
AcDbSpline
70
4
71
3
72
12
73
8
40
0
40
0
40
0
40
0
40
0.25
40
0.25
40
0.5
40
0.5
40
1
40
1
40
1
40
1
41
1
10
53.6192805040872
20
-3.5491875724922
30
0
41
1
10
53.6211712660394
20
-3.55285653653524
30
0
41
1
10
53.6230638061759
20
-3.55608357408138
30
0
41
1
10
53.6268536596253
20
-3.56165098463063
30
0
41
1
10
53.6287520160308
20
-3.5639919629715
30
0
41
1
10
53.6344409168315
20
-3.56966573462148
30
0
41
1
10
53.6382291763309
20
-3.57165775602354
30
0
41
1
10
53.642013951908
20
-3.57187220878001
30
0
0
SPLINE
5
116
100
AcDbEntity
8
1
62
256
6
ByLayer
370
18
48
1
60
0
100
AcDbSpline
70
4
71
3
72
71
73
67
40
0
40
0
40
0
40
0
40
0.0510399384895442
40
0.0510399384895442
40
0.0765599077343171
40
0.0765599077343171
40
0.0893198923567027
40
0.0893198923567027
40
0.102079876979088
40
0.102079876979088
40
0.153119815468631
40
0.153119815468631
40
0.204159753958174
40
0.204159753958174
40
0.255199692447716
40
0.255199692447716
40
0.306239630937259
40
0.306239630937259
40
0.318999615559645
40
0.318999615559645
40
0.33175960018203
40
0.33175960018203
40
0.357279569426802
40
0.357279569426802
40
0.408319507916344
40
0.408319507916344
40
0.459359446405887
40
0.459359446405887
40
0.51039938489543
40
0.51039938489543
40
0.561439323384972
40
0.561439323384972
40
0.567819315696166
40
0.567819315696166
40
0.57419930800736
40
0.57419930800736
40
0.58695929262975
40
0.612479261874531
40
0.612479261874531
40
0.637999231119311
40
0.637999231119311
40
0.663519200364092
40
0.663519200364092
40
0.689039169608873
40
0.689039169608873
40
0.714559138853654
40
0.714559138853654
40
0.765599077343213
40
0.765599077343213
40
0.791119046587994
40
0.791119046587994
40
0.816639015832775
40
0.816639015832775
40
0.842158985077556
40
0.842158985077556
40
0.867678954322337
40
0.867678954322337
40
0.918718892811898
40
0.918718892811898
40
0.969758831301459
40
0.969758831301459
40
0.982518815923849
40
0.982518815923849
40
0.995278800546239
40
0.995278800546239
40
1
40
1
40
1
40
1
41
1
10
53.6192805041002
20
-3.54918757249206
30
0
41
1
10
53.2603128185178
20
-3.52767468379389
30
0
41
1
10
52.9017437694949
20
-3.49186215532916
30
0
41
1
10
52.363223791493
20
-3.41732288950863
30
0
41
1
10
52.1836063938441
20
-3.38900602675531
30
0
41
1
10
51.9138623646012
20
-3.34139484316518
30
0
41
1
10
51.8239952818367
20
-3.3246854765934
30
0
41
1
10
51.6445780495993
20
-3.28966494584361
30
0
41
1
10
51.554989526617
20
-3.27134704736696
30
0
41
1
10
51.1075802771991
20
-3.17580096286795
30
0
41
1
10
50.7513700281824
20
-3.08668512285911
30
0
41
1
10
50.0404732710368
20
-2.88543699716732
30
0
41
1
10
49.6857886720781
20
-2.77331206711273
30
0
41
1
10
48.9763127469945
20
-2.52820581793503
30
0
41
1
10
48.6215177210775
20
-2.39522282265079
30
0
41
1
10
47.9100060039167
20
-2.11085961284317
30
0
41
1
10
47.5532991355229
20
-1.95946887059566
30
0
41
1
10
47.1051494314901
20
-1.76023116508867
30
0
41
1
10
47.0154058791902
20
-1.71988426161792
30
0
41
1
10
46.8356627833636
20
-1.63823327304664
30
0
41
1
10
46.745647997509
20
-1.59692119701924
30
0
41
1
10
46.4762359938819
20
-1.47211141071355
30
0
41
1
10
46.2971190529207
20
-1.38758316477902
30
0
41
1
10
45.7608848019562
20
-1.1307351100551
30
0
41
1
10
45.4048862395629
20
-0.955147951167845
30
0
41
1
10
44.6941813861615
20
-0.598603505519975
30
0
41
1
10
44.3394785496364
20
-0.417638724023476
30
0
41
1
10
43.6295724729378
20
-0.0538919302532008
30
0
41
1
10
43.2743740545873
20
0.128899055981378
30
0
41
1
10
42.5618018263198
20
0.49296356678289
30
0
41
1
10
42.2044427755332
20
0.674267377264044
30
0
41
1
10
41.8001841034865
20
0.875372189205621
30
0
41
1
10
41.7552358037971
20
0.897678024055296
30
0
41
1
10
41.6652739234266
20
0.942203499909198
30
0
41
1
10
41.6202544965042
20
0.964425945479888
30
0
41
1
10
41.4853568201895
20
1.03082234296153
30
0
41
1
10
41.2159436441595
20
1.16266100842671
30
0
41
1
10
40.9475352542881
20
1.29139286224293
30
0
41
1
10
40.5903104912313
20
1.45987335784568
30
0
41
1
10
40.4120267810337
20
1.54253790725505
30
0
41
1
10
40.0559581663266
20
1.70446452295016
30
0
41
1
10
39.8781700496372
20
1.78371887184474
30
0
41
1
10
39.5228095227989
20
1.93835170965747
30
0
41
1
10
39.3452410347739
20
2.01373891344375
30
0
41
1
10
38.9901811542124
20
2.16042061213884
30
0
41
1
10
38.8126862842144
20
2.23170728869999
30
0
41
1
10
38.2798742968989
20
2.43872046764778
30
0
41
1
10
37.924238322818
20
2.56761835294114
30
0
41
1
10
37.3889204955344
20
2.74542714139449
30
0
41
1
10
37.2101714256597
20
2.80210886196812
30
0
41
1
10
36.8518857121456
20
2.91002290571095
30
0
41
1
10
36.6723464530046
20
2.96124974212813
30
0
41
1
10
36.3121711078336
20
3.05781180142208
30
0
41
1
10
36.1325034585509
20
3.10288952690925
30
0
41
1
10
35.7740770195336
20
3.18647003280631
30
0
41
1
10
35.5952713514162
20
3.22498523857314
30
0
41
1
10
35.0597615051236
20
3.33057277659805
30
0
41
1
10
34.7040108760184
20
3.38771569615915
30
0
41
1
10
33.9932235240608
20
3.47471463208828
30
0
41
1
10
33.6381433069647
20
3.50455129235044
30
0
41
1
10
33.1935938209459
20
3.52445920237807
30
0
41
1
10
33.1046504399439
20
3.52757264127132
30
0
41
1
10
32.9267136163319
20
3.53205784833827
30
0
41
1
10
32.8377182579138
20
3.53342820780486
30
0
41
1
10
32.7157052952978
20
3.53410148284982
30
0
41
1
10
32.6827441315167
20
3.53416311683472
30
0
41
1
10
32.6497736874953
20
3.53410440938146
30
0
0
SPLINE
5
117
100
AcDbEntity
8
1
62
256
6
ByLayer
370
18
48
1
60
0
100
AcDbSpline
70
4
71
3
72
27
73
23
40
0
40
0
40
0
40
0
40
0.124999999999947
40
0.124999999999947
40
0.187499999999919
40
0.187499999999919
40
0.249999999999892
40
0.312499999999864
40
0.312499999999864
40
0.374999999999837
40
0.374999999999837
40
0.499999999999852
40
0.499999999999852
40
0.624999999999867
40
0.624999999999867
40
0.687499999999923
40
0.687499999999923
40
0.749999999999979
40
0.749999999999979
40
0.87499999999999
40
0.87499999999999
40
1
40
1
40
1
40
1
41
1
10
19.2799100203703
20
-3.47865051999508
30
0
41
1
10
19.2799100203703
20
-3.47750173655592
30
0
41
1
10
19.2810029511076
20
-3.47634838054427
30
0
41
1
10
19.2842315769885
20
-3.47461610878645
30
0
41
1
10
19.2855891098528
20
-3.47403425036839
30
0
41
1
10
19.288791685335
20
-3.47289823400013
30
0
41
1
10
19.2924755000007
20
-3.47178820773183
30
0
41
1
10
19.2971005796279
20
-3.47073350483885
30
0
41
1
10
19.3022090462146
20
-3.46970992632245
30
0
41
1
10
19.3050016408923
20
-3.46921549971648
30
0
41
1
10
19.3138678931715
20
-3.4678255680092
30
0
41
1
10
19.3205183639234
20
-3.46700460128977
30
0
41
1
10
19.335192736661
20
-3.46562160702399
30
0
41
1
10
19.3429495915289
20
-3.46508356581245
30
0
41
1
10
19.3552001843865
20
-3.46451444239781
30
0
41
1
10
19.359415425477
20
-3.46436448840339
30
0
41
1
10
19.367840882919
20
-3.46415527929099
30
0
41
1
10
19.3720680904051
20
-3.46409464782735
30
0
41
1
10
19.3847923733761
20
-3.46404318071691
30
0
41
1
10
19.393452141903
20
-3.46418805166598
30
0
41
1
10
19.4100319830341
20
-3.46481446251727
30
0
41
1
10
19.4180109322153
20
-3.46529053343653
30
0
41
1
10
19.4256661781528
20
-3.4659285098642
30
0
0
SPLINE
5
118
100
AcDbEntity
8
1
62
256
6
ByLayer
370
18
48
1
60
0
100
AcDbSpline
70
4
71
3
72
12
73
8
40
0
40
0
40
0
40
0
40
0.499999999999994
40
0.499999999999994
40
0.749999999999997
40
0.749999999999997
40
1
40
1
40
1
40
1
41
1
10
53.6239242963924
20
-0.241334371034696
30
0
41
1
10
53.6326190618205
20
-0.164157570866479
30
0
41
1
10
53.6421746453351
20
-0.0867204990190373
30
0
41
1
10
53.657982548204
20
0.0298149346491243
30
0
41
1
10
53.6634978300968
20
0.0687234254227747
30
0
41
1
10
53.6750538926205
20
0.146665842330719
30
0
41
1
10
53.6810625660621
20
0.185481939637157
30
0
41
1
10
53.687306402629
20
0.224117420389376
30
0
0
SPLINE
5
119
100
AcDbEntity
8
1
62
256
6
ByLayer
370
18
48
1
60
0
100
AcDbSpline
70
4
71
3
72
56
73
52
40
0
40
0
40
0
40
0
40
0.0353907147382711
40
0.0353907147382711
40
0.0707814294765421
40
0.0707814294765421
40
0.141562858953084
40
0.141562858953084
40
0.176953573691355
40
0.176953573691355
40
0.212344288429626
40
0.212344288429626
40
0.283125717906165
40
0.283125717906165
40
0.353907147382704
40
0.353907147382704
40
0.389297862120975
40
0.389297862120975
40
0.424688576859246
40
0.424688576859246
40
0.442383934228382
40
0.442383934228382
40
0.460079291597517
40
0.460079291597517
40
0.495470006335789
40
0.495470006335789
40
0.566251435812331
40
0.566251435812331
40
0.601642150550601
40
0.601642150550601
40
0.63703286528887
40
0.63703286528887
40
0.67242358002714
40
0.67242358002714
40
0.707814294765409
40
0.707814294765409
40
0.778595724241952
40
0.778595724241952
40
0.813986438980223
40
0.813986438980223
40
0.849377153718494
40
0.849377153718494
40
0.884767868456765
40
0.884767868456765
40
0.920158583195036
40
0.920158583195036
40
0.955549297933308
40
0.955549297933308
40
0.990940012671579
40
0.990940012671579
40
1
40
1
40
1
40
1
41
1
10
53.687306402629
20
0.224117420389376
30
0
41
1
10
53.5637304298616
20
0.287898346206191
30
0
41
1
10
53.4402520583293
20
0.351709621545268
30
0
41
1
10
53.1932351760737
20
0.47889932213468
30
0
41
1
10
53.0696288303942
20
0.542314816208801
30
0
41
1
10
52.6990327413728
20
0.731308531463924
30
0
41
1
10
52.4525481704007
20
0.855352422261035
30
0
41
1
10
52.0835382959849
20
1.0382976226995
30
0
41
1
10
51.9606625522807
20
1.09877305478179
30
0
41
1
10
51.7150791940286
20
1.21855168443756
30
0
41
1
10
51.5923651642991
20
1.27784418925828
30
0
41
1
10
51.2245819657134
20
1.45415560447023
30
0
41
1
10
50.9796575104968
20
1.56920343329267
30
0
41
1
10
50.4891643802651
20
1.79226322414721
30
0
41
1
10
50.2436438093289
20
1.90037434818837
30
0
41
1
10
49.8748503481534
20
2.05723323422339
30
0
41
1
10
49.7518225918948
20
2.10861505579589
30
0
41
1
10
49.5055143478643
20
2.20946237379914
30
0
41
1
10
49.382286354368
20
2.25901071216777
30
0
41
1
10
49.1972078800492
20
2.33180513874993
30
0
41
1
10
49.1354695156035
20
2.3558059622313
30
0
41
1
10
49.011886633416
20
2.40325520043686
30
0
41
1
10
48.9500704427239
20
2.42669266677481
30
0
41
1
10
48.764880340897
20
2.49597952805448
30
0
41
1
10
48.6416218513388
20
2.54084375894652
30
0
41
1
10
48.2723413581399
20
2.67137735171707
30
0
41
1
10
48.0268603938494
20
2.75306334041667
30
0
41
1
10
47.6594984837876
20
2.86748108460304
30
0
41
1
10
47.5371560036294
20
2.90422966227157
30
0
41
1
10
47.2927906288643
20
2.97506017469323
30
0
41
1
10
47.1707575081906
20
3.00912503027382
30
0
41
1
10
46.9267444262366
20
3.07428953930088
30
0
41
1
10
46.8047796175997
20
3.10540685790804
30
0
41
1
10
46.560808921635
20
3.16460935398629
30
0
41
1
10
46.4387985428316
20
3.19269200731151
30
0
41
1
10
46.0726693353515
20
3.27239047361141
30
0
41
1
10
45.8284958272171
20
3.31949356229771
30
0
41
1
10
45.461780326599
20
3.38080923119694
30
0
41
1
10
45.3394887446699
20
3.3997061160031
30
0
41
1
10
45.0947689573401
20
3.43435715703788
30
0
41
1
10
44.9722957859706
20
3.45008413168748
30
0
41
1
10
44.7269764556607
20
3.47825026199729
30
0
41
1
10
44.6041311980958
20
3.49069051567761
30
0
41
1
10
44.3579662871571
20
3.51223701462641
30
0
41
1
10
44.2346548578319
20
3.52134780061721
30
0
41
1
10
43.9875603119648
20
3.5362193882554
30
0
41
1
10
43.8636442114915
20
3.5419815231588
30
0
41
1
10
43.6165389679251
20
3.55007621872144
30
0
41
1
10
43.4932110063992
20
3.55241723899905
30
0
41
1
10
43.3386084238497
20
3.55323186872752
30
0
41
1
10
43.3071151639611
20
3.55328671859013
30
0
41
1
10
43.2756377051796
20
3.55323051716903
30
0
0
SPLINE
5
11A
100
AcDbEntity
8
1
62
256
6
ByLayer
370
18
48
1
60
0
100
AcDbSpline
70
4
71
3
72
96
73
92
40
0
40
0
40
0
40
0
40
0.0176102567123137
40
0.0176102567123137
40
0.0358026593657889
40
0.0358026593657889
40
0.0539950620192638
40
0.0539950620192638
40
0.0903798673262142
40
0.0903798673262142
40
0.10857226997969
40
0.10857226997969
40
0.126764672633165
40
0.126764672633165
40
0.163149477940116
40
0.163149477940116
40
0.172245679266853
40
0.172245679266853
40
0.18134188059359
40
0.18134188059359
40
0.199534283247065
40
0.199534283247065
40
0.21772668590054
40
0.21772668590054
40
0.235919088554015
40
0.235919088554015
40
0.272303893860965
40
0.272303893860965
40
0.29049629651444
40
0.29049629651444
40
0.308688699167915
40
0.308688699167915
40
0.345073504474866
40
0.345073504474866
40
0.381458309781816
40
0.381458309781816
40
0.399650712435291
40
0.399650712435291
40
0.417843115088765
40
0.417843115088765
40
0.426939316415503
40
0.426939316415503
40
0.436035517742241
40
0.436035517742241
40
0.454227920395716
40
0.454227920395716
40
0.490612725702667
40
0.490612725702667
40
0.508805128356143
40
0.508805128356143
40
0.526997531009619
40
0.526997531009619
40
0.545189933663095
40
0.545189933663095
40
0.563382336316571
40
0.563382336316571
40
0.599767141623522
40
0.599767141623522
40
0.636151946930473
40
0.636151946930473
40
0.672536752237424
40
0.672536752237424
40
0.681632953564162
40
0.681632953564162
40
0.690729154890899
40
0.690729154890899
40
0.708921557544375
40
0.708921557544375
40
0.72711396019785
40
0.72711396019785
40
0.745306362851326
40
0.745306362851326
40
0.781691168158278
40
0.781691168158278
40
0.799883570811754
40
0.799883570811754
40
0.818075973465231
40
0.818075973465231
40
0.854460778772184
40
0.854460778772184
40
0.890845584079137
40
0.890845584079137
40
0.909037986732614
40
0.909037986732614
40
0.927230389386091
40
0.927230389386091
40
0.945422792039569
40
0.945422792039569
40
0.963615194693046
40
0.963615194693046
40
1
40
1
40
1
40
1
41
1
10
26.7939497047773
20
-2.56721727581746
30
0
41
1
10
26.6754549695721
20
-2.60855223192411
30
0
41
1
10
26.5570918580845
20
-2.64877933817067
30
0
41
1
10
26.3165004124562
20
-2.72801808878819
30
0
41
1
10
26.1942890833306
20
-2.76696736684332
30
0
41
1
10
25.9498189137366
20
-2.84209661748582
30
0
41
1
10
25.8275587599383
20
-2.87827670376453
30
0
41
1
10
25.460688454629
20
-2.98267108338794
30
0
41
1
10
25.2160316351673
20
-3.04678794619991
30
0
41
1
10
24.8486124995893
20
-3.13436281028331
30
0
41
1
10
24.7261026507986
20
-3.16215409269481
30
0
41
1
10
24.4809342427576
20
-3.21482910495683
30
0
41
1
10
24.358233191166
20
-3.23967511973984
30
0
41
1
10
23.9895766043073
20
-3.30955478244107
30
0
41
1
10
23.7430057241069
20
-3.34989347858837
30
0
41
1
10
23.4336033384168
20
-3.39232439070176
30
0
41
1
10
23.371665418388
20
-3.40041169149836
30
0
41
1
10
23.2476711032561
20
-3.41578207574412
30
0
41
1
10
23.1856345016265
20
-3.42306265643828
30
0
41
1
10
22.9998298445349
20
-3.44363326104548
30
0
41
1
10
22.8761842459641
20
-3.4556643929032
30
0
41
1
10
22.6294024362588
20
-3.47640982428774
30
0
41
1
10
22.5062896079078
20
-3.48512583403277
30
0
41
1
10
22.2603424134034
20
-3.49917473043396
30
0
41
1
10
22.1375219136594
20
-3.50451395435982
30
0
41
1
10
21.7693303521594
20
-3.51550340221223
30
0
41
1
10
21.5241877044445
20
-3.51614011083231
30
0
41
1
10
21.1568725925139
20
-3.50722964404602
30
0
41
1
10
21.0345075549669
20
-3.50261015796914
30
0
41
1
10
20.7898242559006
20
-3.4900883791617
30
0
41
1
10
20.6675241268551
20
-3.48218497132385
30
0
41
1
10
20.3008019915673
20
-3.45349307872661
30
0
41
1
10
20.0563239082095
20
-3.42776628468425
30
0
41
1
10
19.5662929021175
20
-3.36359892241836
30
0
41
1
10
19.3208003336221
20
-3.32516246859242
30
0
41
1
10
18.9517656067815
20
-3.25795263378964
30
0
41
1
10
18.828600009504
20
-3.23396961855545
30
0
41
1
10
18.5819462323321
20
-3.18281908531188
30
0
41
1
10
18.4585109622465
20
-3.15560252986393
30
0
41
1
10
18.2730159278315
20
-3.11243134693723
30
0
41
1
10
18.2111254739065
20
-3.09765234545617
30
0
41
1
10
18.0872126212213
20
-3.06732768830656
30
0
41
1
10
18.0251681767685
20
-3.0517759049747
30
0
41
1
10
17.8393040934862
20
-3.00412009109255
30
0
41
1
10
17.715592383983
20
-2.97099046600818
30
0
41
1
10
17.3449736571884
20
-2.86767219505157
30
0
41
1
10
17.0986325640183
20
-2.79350184423811
30
0
41
1
10
16.7300095784722
20
-2.67468679241802
30
0
41
1
10
16.6072599439992
20
-2.63385290198221
30
0
41
1
10
16.3621170059507
20
-2.54958048156459
30
0
41
1
10
16.2396853552194
20
-2.50619085959312
30
0
41
1
10
15.9948815219038
20
-2.41722080909585
30
0
41
1
10
15.8725232242359
20
-2.37162140475067
30
0
41
1
10
15.6277646083639
20
-2.27840268326307
30
0
41
1
10
15.5053671661352
20
-2.23078038881016
30
0
41
1
10
15.1381096130247
20
-2.08491064549909
30
0
41
1
10
14.8932234727203
20
-1.9835982621712
30
0
41
1
10
14.4029405352955
20
-1.7734746742592
30
0
41
1
10
14.1577666281711
20
-1.66425826430338
30
0
41
1
10
13.6659151371177
20
-1.43993783501151
30
0
41
1
10
13.4192049195494
20
-1.32492229322412
30
0
41
1
10
13.1096865026534
20
-1.17783472677226
30
0
41
1
10
13.0477276839919
20
-1.14824810108027
30
0
41
1
10
12.9236968276316
20
-1.08873915636644
30
0
41
1
10
12.8615840833711
20
-1.05879458776968
30
0
41
1
10
12.6754431863428
20
-0.968674352168478
30
0
41
1
10
12.5515777792484
20
-0.908252800561087
30
0
41
1
10
12.304399780515
20
-0.786527127627011
30
0
41
1
10
12.1810867221936
20
-0.725224506426514
30
0
41
1
10
11.9347442320021
20
-0.602291478428725
30
0
41
1
10
11.8117310838128
20
-0.540627356465706
30
0
41
1
10
11.4429709419068
20
-0.355437597639877
30
0
41
1
10
11.1974790405298
20
-0.231762601358639
30
0
41
1
10
10.8297036437259
20
-0.0460368593298597
30
0
41
1
10
10.7071924700262
20
0.0159141299904775
30
0
41
1
10
10.4622319790252
20
0.139699446347521
30
0
41
1
10
10.3398191464272
20
0.201607765458817
30
0
41
1
10
9.9727474589904
20
0.387304935160699
30
0
41
1
10
9.72803442001774
20
0.510618662232758
30
0
41
1
10
9.2376031517129
20
0.754257311863682
30
0
41
1
10
8.9919543727126
20
0.874723632555003
30
0
41
1
10
8.62274549701877
20
1.05321661105066
30
0
41
1
10
8.49952442404998
20
1.11228913980454
30
0
41
1
10
8.2528071299794
20
1.22963610190325
30
0
41
1
10
8.12934661344687
20
1.28798088061163
30
0
41
1
10
7.88207752542283
20
1.40372274992814
30
0
41
1
10
7.75824311891409
20
1.46112278372246
30
0
41
1
10
7.51006454142092
20
1.57443238944973
30
0
41
1
10
7.38596057959424
20
1.6301893784885
30
0
41
1
10
7.01345942551563
20
1.79455121040084
30
0
41
1
10
6.76489708522644
20
1.90029027384043
30
0
41
1
10
6.51584461450551
20
2.00183797389738
30
0
0
SPLINE
5
11B
100
AcDbEntity
8
1
62
256
6
ByLayer
370
18
48
1
60
0
100
AcDbSpline
70
4
71
3
72
75
73
71
40
0
40
0
40
0
40
0
40
0.0624999999999926
40
0.0624999999999926
40
0.124999999999985
40
0.124999999999985
40
0.187499999999978
40
0.187499999999978
40
0.24999999999997
40
0.24999999999997
40
0.265624999999969
40
0.265624999999969
40
0.281249999999968
40
0.281249999999968
40
0.312499999999965
40
0.312499999999965
40
0.343749999999963
40
0.343749999999963
40
0.37499999999996
40
0.37499999999996
40
0.390624999999959
40
0.390624999999959
40
0.406249999999957
40
0.406249999999957
40
0.437499999999957
40
0.437499999999957
40
0.468749999999956
40
0.468749999999956
40
0.499999999999955
40
0.499999999999955
40
0.531249999999955
40
0.531249999999955
40
0.546874999999955
40
0.546874999999955
40
0.554687499999955
40
0.554687499999955
40
0.562499999999955
40
0.562499999999955
40
0.593749999999955
40
0.593749999999955
40
0.609374999999955
40
0.617187499999955
40
0.617187499999955
40
0.624999999999954
40
0.624999999999954
40
0.656249999999955
40
0.656249999999955
40
0.671874999999955
40
0.671874999999955
40
0.679687499999955
40
0.679687499999955
40
0.687499999999954
40
0.687499999999954
40
0.718749999999958
40
0.718749999999958
40
0.749999999999961
40
0.749999999999961
40
0.765624999999964
40
0.765624999999964
40
0.781249999999966
40
0.781249999999966
40
0.812499999999972
40
0.812499999999972
40
0.874999999999982
40
0.874999999999982
40
0.906249999999986
40
0.906249999999986
40
0.93749999999999
40
0.93749999999999
40
1
40
1
40
1
40
1
41
1
10
6.5158446652556
20
2.00183795298318
30
0
41
1
10
6.37131552699031
20
2.06140252727687
30
0
41
1
10
6.22798240886283
20
2.12101478055342
30
0
41
1
10
5.94398501227039
20
2.24021124466566
30
0
41
1
10
5.80331908284845
20
2.29979580991198
30
0
41
1
10
5.52503724624165
20
2.41879134314718
30
0
41
1
10
5.38741837583731
20
2.4782029143158
30
0
41
1
10
5.11578358536849
20
2.59667078391143
30
0
41
1
10
4.98176159362237
20
2.65572828649377
30
0
41
1
10
4.81701806591792
20
2.72917610725747
30
0
41
1
10
4.78420959333744
20
2.74384675791012
30
0
41
1
10
4.71889142204426
20
2.77314542033639
30
0
41
1
10
4.68635925801823
20
2.78778361479851
30
0
41
1
10
4.58951413060444
20
2.83150326637863
30
0
41
1
10
4.52589423415148
20
2.86041532967414
30
0
41
1
10
4.4007858397031
20
2.91769047858747
30
0
41
1
10
4.33929635049367
20
2.94605383160962
30
0
41
1
10
4.21876887713424
20
3.00213051076639
30
0
41
1
10
4.15972921584054
20
3.02984428554353
30
0
41
1
10
4.07333508821213
20
3.07082801170253
30
0
41
1
10
4.04485674242841
20
3.08441147434124
30
0
41
1
10
3.98892141549115
20
3.11125222085522
30
0
41
1
10
3.96148248217051
20
3.12450056887965
30
0
41
1
10
3.88087016483701
20
3.16368872922649
30
0
41
1
10
3.82939244825019
20
3.18907438812766
30
0
41
1
10
3.73177140640055
20
3.23809393934744
30
0
41
1
10
3.68562212989568
20
3.26172964783504
30
0
41
1
10
3.59980745525723
20
3.30687120879338
30
0
41
1
10
3.56012996160604
20
3.32838072720725
30
0
41
1
10
3.48901122773796
20
3.36870681521376
30
0
41
1
10
3.45841614248008
20
3.38704939692525
30
0
41
1
10
3.42117803953374
20
3.41139119728231
30
0
41
1
10
3.41020586095186
20
3.41897844162534
30
0
41
1
10
3.39608871643134
20
3.42950784942318
30
0
41
1
10
3.39177352779754
20
3.43287563382162
30
0
41
1
10
3.38395884062322
20
3.43931546510066
30
0
41
1
10
3.38045242573597
20
3.44239425137235
30
0
41
1
10
3.36514080136803
20
3.45693353778484
30
0
41
1
10
3.3600673569787
20
3.46573627570271
30
0
41
1
10
3.36322936921468
20
3.47475177093497
30
0
41
1
10
3.36750643804231
20
3.47821140184061
30
0
41
1
10
3.37585644306321
20
3.48010051627367
30
0
41
1
10
3.38233331530947
20
3.48101052432588
30
0
41
1
10
3.38603844188412
20
3.48129067603125
30
0
41
1
10
3.40665740269128
20
3.48181634451782
30
0
41
1
10
3.42983485237625
20
3.47947171132469
30
0
41
1
10
3.47325381201222
20
3.47244721880261
30
0
41
1
10
3.48917417396677
20
3.4695188491622
30
0
41
1
10
3.51509354376805
20
3.46430901049405
30
0
41
1
10
3.52409136448111
20
3.46243213870272
30
0
41
1
10
3.54264300930572
20
3.45843796928582
30
0
41
1
10
3.55219404785231
20
3.45632159555484
30
0
41
1
10
3.60124454019879
20
3.44518211677547
30
0
41
1
10
3.64460339324057
20
3.43449873244271
30
0
41
1
10
3.73797467191443
20
3.41035305887379
30
0
41
1
10
3.78799614131361
20
3.39688649244064
30
0
41
1
10
3.86722201642715
20
3.37499070104551
30
0
41
1
10
3.89434958504628
20
3.36740320687488
30
0
41
1
10
3.94983357477599
20
3.35173130679061
30
0
41
1
10
3.9780436584185
20
3.34368839956551
30
0
41
1
10
4.06393504633547
20
3.31901467561553
30
0
41
1
10
4.1228715566069
20
3.30184197949794
30
0
41
1
10
4.30384291394353
20
3.24861264564427
30
0
41
1
10
4.42999609112451
20
3.21086762320277
30
0
41
1
10
4.62533266650127
20
3.15201101616722
30
0
41
1
10
4.69147625477547
20
3.13201181831283
30
0
41
1
10
4.825588398029
20
3.09138081336766
30
0
41
1
10
4.89362667809601
20
3.07072768727076
30
0
41
1
10
5.09953632637016
20
3.00817273768723
30
0
41
1
10
5.23924347197504
20
2.96566639717722
30
0
41
1
10
5.38091909227416
20
2.92263091127555
30
0
0
SPLINE
5
11C
100
AcDbEntity
8
1
62
256
6
ByLayer
370
18
48
1
60
0
100
AcDbSpline
70
4
71
3
72
20
73
16
40
0
40
0
40
0
40
0
40
0.0099946745859915
40
0.0099946745859915
40
0.0199893495867333
40
0.0199893495867333
40
0.0599682863046884
40
0.0599682863046884
40
0.219897720073757
40
0.219897720073757
40
0.539832351116319
40
0.539832351116319
40
0.859755433367074
40
0.859755433367074
40
1
40
1
40
1
40
1
41
1
10
5.38091906759135
20
2.92263091873875
30
0
41
1
10
5.38094353275662
20
2.92262348717583
30
0
41
1
10
5.3809680052548
20
2.9226160626782
30
0
41
1
10
5.38101696624364
20
2.92260122916414
30
0
41
1
10
5.38104145474719
20
2.9225938201505
30
0
41
1
10
5.3811639410298
20
2.92255681723464
30
0
41
1
10
5.38126207588508
20
2.92252735619652
30
0
41
1
10
5.38175335789708
20
2.92238062812342
30
0
41
1
10
5.38214852057945
20
2.92226531934676
30
0
41
1
10
5.3833397796036
20
2.92192527792361
30
0
41
1
10
5.38414184001647
20
2.92170649870383
30
0
41
1
10
5.38575906579618
20
2.92128408898091
30
0
41
1
10
5.38657446945518
20
2.92108039094288
30
0
41
1
10
5.38775557009973
20
2.9207977158745
30
0
41
1
10
5.38811669357534
20
2.92071292874462
30
0
41
1
10
5.38847886102559
20
2.92062948827143
30
0
0
SPLINE
5
11D
100
AcDbEntity
8
1
62
256
6
ByLayer
370
18
48
1
60
0
100
AcDbSpline
70
4
71
3
72
14
73
10
40
0
40
0
40
0
40
0
40
0.25
40
0.25
40
0.5
40
0.5
40
0.75
40
0.75
40
1
40
1
40
1
40
1
41
1
10
5.38847886102562
20
2.92062948827143
30
0
41
1
10
5.39645348713651
20
2.9187921984329
30
0
41
1
10
5.40473084258016
20
2.917654973975
30
0
41
1
10
5.42160862573328
20
2.91613334512499
30
0
41
1
10
5.43024047253806
20
2.91577931597902
30
0
41
1
10
5.44741090817388
20
2.91575480189962
30
0
41
1
10
5.45603018579334
20
2.91608421885314
30
0
41
1
10
5.47304806690437
20
2.91738275315993
30
0
41
1
10
5.48148736735746
20
2.91835634512628
30
0
41
1
10
5.489754559787
20
2.91970630411598
30
0
0
SPLINE
5
11E
100
AcDbEntity
8
1
62
256
6
ByLayer
370
18
48
1
60
0
100
AcDbSpline
70
4
71
3
72
14
73
10
40
0
40
0
40
0
40
0
40
0.169163643058794
40
0.169163643058794
40
0.53842424708125
40
0.53842424708125
40
0.907684852211863
40
0.907684852211863
40
1
40
1
40
1
40
1
41
1
10
5.4897545597812
20
2.91970630412837
30
0
41
1
10
5.49037810016952
20
2.91980812272803
30
0
41
1
10
5.49100162712011
20
2.91990995382292
30
0
41
1
10
5.49298618313415
20
2.92023410760069
30
0
41
1
10
5.49434716157117
20
2.92045647729606
30
0
41
1
10
5.49706899026114
20
2.92090133490382
30
0
41
1
10
5.49842984820316
20
2.92112380879078
30
0
41
1
10
5.50013082179507
20
2.92140200892396
30
0
41
1
10
5.50047101551274
20
2.92145764710278
30
0
41
1
10
5.50081120399807
20
2.92151329120142
30
0
0
SPLINE
5
11F
100
AcDbEntity
8
1
62
256
6
ByLayer
370
18
48
1
60
0
100
AcDbSpline
70
4
71
3
72
16
73
12
40
0
40
0
40
0
40
0
40
0.25
40
0.25
40
0.375
40
0.375
40
0.5
40
0.5
40
0.75
40
0.75
40
1
40
1
40
1
40
1
41
1
10
5.50081952909201
20
2.92151465292497
30
0
41
1
10
5.73560929724496
20
2.95991889700736
30
0
41
1
10
5.96817619352913
20
3.00004485829018
30
0
41
1
10
6.31400634272947
20
3.06078806025778
30
0
41
1
10
6.42878083788884
20
3.08112550105224
30
0
41
1
10
6.65739328357762
20
3.12161396316608
30
0
41
1
10
6.77117117720115
20
3.1417538421141
30
0
41
1
10
7.11058280176093
20
3.20121517744536
30
0
41
1
10
7.33447435042578
20
3.23960779047008
30
0
41
1
10
7.77838255706564
20
3.31092529293446
30
0
41
1
10
7.99840068188058
20
3.34384391084711
30
0
41
1
10
8.21701931497452
20
3.3726329176036
30
0
0
SPLINE
5
120
100
AcDbEntity
8
1
62
256
6
ByLayer
370
18
48
1
60
0
100
AcDbSpline
70
4
71
3
72
42
73
38
40
0
40
0
40
0
40
0
40
0.0624999999999995
40
0.0624999999999995
40
0.124999999999999
40
0.124999999999999
40
0.187499999999998
40
0.187499999999998
40
0.249999999999998
40
0.249999999999998
40
0.374999999999997
40
0.374999999999997
40
0.390624999999997
40
0.390624999999997
40
0.406249999999997
40
0.406249999999997
40
0.437499999999998
40
0.437499999999998
40
0.499999999999997
40
0.499999999999997
40
0.562499999999997
40
0.562499999999997
40
0.624999999999996
40
0.624999999999996
40
0.749999999999995
40
0.749999999999995
40
0.812499999999995
40
0.812499999999995
40
0.843749999999995
40
0.843749999999995
40
0.859374999999996
40
0.859374999999996
40
0.874999999999997
40
0.874999999999997
40
0.937499999999998
40
0.937499999999998
40
1
40
1
40
1
40
1
41
1
10
8.21701931497452
20
3.37263291760357
30
0
41
1
10
8.4494550477452
20
3.40321326266067
30
0
41
1
10
8.68119109372412
20
3.42798570350928
30
0
41
1
10
9.14364144869214
20
3.46592751169072
30
0
41
1
10
9.37436242903115
20
3.47908951948259
30
0
41
1
10
9.83531341125516
20
3.49377493109955
30
0
41
1
10
10.0655413084028
20
3.49530372390697
30
0
41
1
10
10.5258634400427
20
3.48673202643104
30
0
41
1
10
10.7560802718231
20
3.47664412334493
30
0
41
1
10
11.447331337611
20
3.42905453308347
30
0
41
1
10
11.908979909777
20
3.3742108849651
30
0
41
1
10
12.4312548132154
20
3.28671572996515
30
0
41
1
10
12.4893491605187
20
3.27663374331891
30
0
41
1
10
12.6053844902262
20
3.25581302724845
30
0
41
1
10
12.6633548657027
20
3.24507059387361
30
0
41
1
10
12.8371294343149
20
3.21185756384992
30
0
41
1
10
12.9527904038782
20
3.18839604583201
30
0
41
1
10
13.2992524421314
20
3.11412355662352
30
0
41
1
10
13.5295419396697
20
3.05943020235986
30
0
41
1
10
13.9892409810335
20
2.94027879016468
30
0
41
1
10
14.2186450873921
20
2.87581728625273
30
0
41
1
10
14.6769561305747
20
2.7376132667705
30
0
41
1
10
14.9059805202892
20
2.66401632971903
30
0
41
1
10
15.5930742752957
20
2.43033868784877
30
0
41
1
10
16.051190582337
20
2.25739156265035
30
0
41
1
10
16.7410262312223
20
1.97565893149775
30
0
41
1
10
16.971520830358
20
1.8782097680884
30
0
41
1
10
17.3183108181849
20
1.72703336682463
30
0
41
1
10
17.4340809781391
20
1.67580425357284
30
0
41
1
10
17.6080426777087
20
1.5977722443188
30
0
41
1
10
17.6661168454831
20
1.5715472867079
30
0
41
1
10
17.7821369204688
20
1.51882191246787
30
0
41
1
10
17.8400924461811
20
1.49231743469869
30
0
41
1
10
18.129618707192
20
1.35912812272107
30
0
41
1
10
18.3604282811589
20
1.25042894381821
30
0
41
1
10
18.820834005886
20
1.02955094773461
30
0
41
1
10
19.0505454546912
20
0.917598894935367
30
0
41
1
10
19.2799100203703
20
0.804426624057101
30
0
0
SPLINE
5
121
100
AcDbEntity
8
1
62
256
6
ByLayer
370
18
48
1
60
0
100
AcDbSpline
70
4
71
3
72
41
73
37
40
0
40
0
40
0
40
0
40
0.0426348328486178
40
0.0426348328486178
40
0.0639522492729266
40
0.0639522492729266
40
0.0852696656972355
40
0.170539331394472
40
0.170539331394472
40
0.255808997091709
40
0.255808997091709
40
0.341078662788946
40
0.341078662788946
40
0.362396079213255
40
0.362396079213255
40
0.383713495637564
40
0.383713495637564
40
0.426348328486181
40
0.426348328486181
40
0.511617994183415
40
0.511617994183415
40
0.554252827032032
40
0.554252827032032
40
0.575570243456341
40
0.575570243456341
40
0.596887659880649
40
0.639522492729264
40
0.660839909153571
40
0.660839909153571
40
0.682157325577878
40
0.682157325577878
40
0.76742699127511
40
0.76742699127511
40
0.852696656972341
40
0.852696656972341
40
1
40
1
40
1
40
1
41
1
10
19.2799100203703
20
0.862725804861924
30
0
41
1
10
19.4601876504558
20
0.774355642044526
30
0
41
1
10
19.6404218567438
20
0.685097186552014
30
0
41
1
10
19.9108761770783
20
0.550200024089008
30
0
41
1
10
20.0010640981383
20
0.505056566501878
30
0
41
1
10
20.1811707051812
20
0.414652730595179
30
0
41
1
10
20.630960745871
20
0.188254227085935
30
0
41
1
10
21.078706981014
20
-0.0394084656915084
30
0
41
1
10
21.7942845714277
20
-0.401694492967493
30
0
41
1
10
22.1516673515002
20
-0.581845792887293
30
0
41
1
10
22.8674417378969
20
-0.936558266385845
30
0
41
1
10
23.2258289688013
20
-1.11112936297459
30
0
41
1
10
23.6754618121353
20
-1.32383979852457
30
0
41
1
10
23.7654713821264
20
-1.36610562382359
30
0
41
1
10
23.9456841973666
20
-1.45003022496621
30
0
41
1
10
24.0358067977527
20
-1.49165105405166
30
0
41
1
10
24.305891369545
20
-1.61524367121311
30
0
41
1
10
24.4857225316072
20
-1.69601562543477
30
0
41
1
10
25.0248712723486
20
-1.93290597115973
30
0
41
1
10
25.3838363114266
20
-2.0836088599016
30
0
41
1
10
25.9229395154067
20
-2.29658679967275
30
0
41
1
10
26.1027509204152
20
-2.36539907007037
30
0
41
1
10
26.3728081939153
20
-2.46506676616357
30
0
41
1
10
26.4629170034014
20
-2.49770914075478
30
0
41
1
10
26.643070281268
20
-2.56169177801522
30
0
41
1
10
26.9132164005328
20
-2.65571777798709
30
0
41
1
10
27.2732307918108
20
-2.77309629748137
30
0
41
1
10
27.543352031758
20
-2.85482568073053
30
0
41
1
10
27.7234861916353
20
-2.90787495755953
30
0
41
1
10
27.8135917308566
20
-2.93368339824934
30
0
41
1
10
28.2632337068809
20
-3.05875131433777
30
0
41
1
10
28.6209849987362
20
-3.14633358767506
30
0
41
1
10
29.3343667488374
20
-3.29548510362406
30
0
41
1
10
29.6899724820478
20
-3.35708025601457
30
0
41
1
10
30.6591808039696
20
-3.48848477802903
30
0
41
1
10
31.2722865502404
20
-3.53159960492337
30
0
41
1
10
31.8890784007751
20
-3.53273165068748
30
0
0
SPLINE
5
122
100
AcDbEntity
8
1
62
256
6
ByLayer
370
18
48
1
60
0
100
AcDbSpline
70
4
71
3
72
17
73
13
40
0
40
0
40
0
40
0
40
0.0462564983508774
40
0.0462564983508774
40
0.284692373763138
40
0.284692373763138
40
0.403910311469268
40
0.403910311469268
40
0.463519280322338
40
0.463519280322338
40
0.523128249175407
40
1
40
1
40
1
40
1
41
1
10
49.1337089701044
20
2.82917555230443
30
0
41
1
10
49.2032208027368
20
2.85100478368659
30
0
41
1
10
49.2727140750084
20
2.8724037525341
30
0
41
1
10
49.7003470892017
20
3.00141358619166
30
0
41
1
10
50.0581754147438
20
3.09784121768988
30
0
41
1
10
50.5957394996621
20
3.22363961038013
30
0
41
1
10
50.7750663497298
20
3.26243023565937
30
0
41
1
10
51.0444416447989
20
3.31572161344687
30
0
41
1
10
51.1343414287378
20
3.33267694815396
30
0
41
1
10
51.3139434538958
20
3.36486493539263
30
0
41
1
10
52.1215213957406
20
3.50202280770048
30
0
41
1
10
52.9246338538518
20
3.56940152048028
30
0
41
1
10
53.6420139519078
20
3.57187220878001
30
0
0
SPLINE
5
123
100
AcDbEntity
8
1
62
256
6
ByLayer
370
18
48
1
60
0
100
AcDbSpline
70
4
71
3
72
43
73
39
40
0
40
0
40
0
40
0
40
0.0039130174400496
40
0.0039130174400496
40
0.0280676070645593
40
0.0280676070645593
40
0.0763767863135789
40
0.0763767863135789
40
0.172995144811615
40
0.172995144811615
40
0.221304324060633
40
0.221304324060633
40
0.269613503309651
40
0.269613503309651
40
0.366231861807684
40
0.366231861807684
40
0.414541041056701
40
0.414541041056701
40
0.462850220305717
40
0.462850220305717
40
0.55946857880375
40
0.55946857880375
40
0.607777758052767
40
0.607777758052767
40
0.656086937301783
40
0.656086937301783
40
0.752705295799813
40
0.752705295799813
40
0.801014475048828
40
0.801014475048828
40
0.849323654297843
40
0.849323654297843
40
0.897632833546858
40
0.921787423171366
40
0.921787423171366
40
0.945942012795873
40
0.945942012795873
40
1
40
1
40
1
40
1
41
1
10
42.1367243380271
20
3.42339367362132
30
0
41
1
10
42.1512400978573
20
3.42361663988831
30
0
41
1
10
42.1657521967827
20
3.42381965824356
30
0
41
1
10
42.2698198016688
20
3.42513251268221
30
0
41
1
10
42.3592525379475
20
3.42544844075309
30
0
41
1
10
42.6273327703517
20
3.42328194688119
30
0
41
1
10
42.8057332340456
20
3.41786693796874
30
0
41
1
10
43.3401864848161
20
3.39112986765301
30
0
41
1
10
43.6954579477561
20
3.35928059874686
30
0
41
1
10
44.2269422943404
20
3.29421545778146
30
0
41
1
10
44.4039031118243
20
3.26955792716564
30
0
41
1
10
44.7580581050435
20
3.21322376806205
30
0
41
1
10
44.9352281304122
20
3.18161628220364
30
0
41
1
10
45.4671512914627
20
3.07735011646969
30
0
41
1
10
45.8223026090567
20
2.99521367118149
30
0
41
1
10
46.3560828363813
20
2.85510016766403
30
0
41
1
10
46.5342143352863
20
2.80555154022619
30
0
41
1
10
46.8915773422446
20
2.70034176078718
30
0
41
1
10
47.0707838486001
20
2.64470985894005
30
0
41
1
10
47.6100137614109
20
2.46947783678206
30
0
41
1
10
47.9675519756363
20
2.3428408553057
30
0
41
1
10
48.5016047088781
20
2.14049638034857
30
0
41
1
10
48.6792742049454
20
2.07098046755928
30
0
41
1
10
49.0344223659484
20
1.92806329546667
30
0
41
1
10
49.211880998981
20
1.85466802259722
30
0
41
1
10
49.7439787589595
20
1.62939679704064
30
0
41
1
10
50.0983431909444
20
1.47240307114839
30
0
41
1
10
50.6298101243063
20
1.228314675181
30
0
41
1
10
50.8069729396253
20
1.14553867379081
30
0
41
1
10
51.1620543605446
20
0.97786580682552
30
0
41
1
10
51.3399576577719
20
0.89295540726809
30
0
41
1
10
51.696453239045
20
0.721289811657925
30
0
41
1
10
51.9643433448161
20
0.591157134847833
30
0
41
1
10
52.2330889936375
20
0.45923039881643
30
0
41
1
10
52.4124513525064
20
0.370912200351597
30
0
41
1
10
52.5022812958713
20
0.326545032858007
30
0
41
1
10
52.7930277530172
20
0.182568221944507
30
0
41
1
10
52.9937561306557
20
0.0825889297903473
30
0
41
1
10
53.1943532408054
20
-0.0176675597266751
30
0
0
SPLINE
5
124
100
AcDbEntity
8
1
62
256
6
ByLayer
370
18
48
1
60
0
100
AcDbSpline
70
4
71
3
72
8
73
4
40
0
40
0
40
0
40
0
40
1
40
1
40
1
40
1
41
1
10
53.6239242964005
20
-0.241334371032508
30
0
41
1
10
53.6385908376002
20
-0.246118687645122
30
0
41
1
10
53.6532647624103
20
-0.250636376605087
30
0
41
1
10
53.667951505153
20
-0.254888983554082
30
0
0
SPLINE
5
125
100
AcDbEntity
8
1
62
256
6
ByLayer
370
18
48
1
60
0
100
AcDbSpline
70
4
71
3
72
10
73
6
40
0
40
0
40
0
40
0
40
0.982318505455743
40
0.982318505455743
40
1
40
1
40
1
40
1
41
1
10
19.4256661781527
20
-3.46592850986417
30
0
41
1
10
19.7843510642202
20
-3.49582075684609
30
0
41
1
10
20.1431123758814
20
-3.5110753473098
30
0
41
1
10
20.5088701147313
20
-3.51224634731426
30
0
41
1
10
20.5153374230141
20
-3.51226247348148
30
0
41
1
10
20.5218048978502
20
-3.5122740213969
30
0
0
SPLINE
5
126
100
AcDbEntity
8
1
62
256
6
ByLayer
370
18
48
1
60
0
100
AcDbSpline
70
4
71
3
72
54
73
50
40
0
40
0
40
0
40
0
40
0.0272373656216504
40
0.0272373656216504
40
0.108300918486507
40
0.108300918486507
40
0.128566806702721
40
0.128566806702721
40
0.148832694918935
40
0.148832694918935
40
0.189364471351366
40
0.189364471351366
40
0.229896247783796
40
0.229896247783796
40
0.270428024216227
40
0.270428024216227
40
0.310959800648658
40
0.310959800648658
40
0.351491577081088
40
0.351491577081088
40
0.432555129945952
40
0.432555129945952
40
0.473086906378386
40
0.473086906378386
40
0.513618682810819
40
0.513618682810819
40
0.533884571027034
40
0.533884571027034
40
0.554150459243249
40
0.554150459243249
40
0.594682235675683
40
0.594682235675683
40
0.635214012108116
40
0.635214012108116
40
0.675745788540549
40
0.675745788540549
40
0.756809341405413
40
0.756809341405413
40
0.797341117837845
40
0.797341117837845
40
0.837872894270277
40
0.837872894270277
40
0.87840467070271
40
0.87840467070271
40
0.898670558918926
40
0.898670558918926
40
0.918936447135141
40
0.918936447135141
40
1
40
1
40
1
40
1
41
1
10
40.4504669469737
20
3.42516392889775
30
0
41
1
10
40.569680781404
20
3.44129783015967
30
0
41
1
10
40.6890054755172
20
3.45590771565736
30
0
41
1
10
41.1639769302103
20
3.5079092866809
30
0
41
1
10
41.5205873837358
20
3.53333826711994
30
0
41
1
10
41.9680571851571
20
3.54752894241025
30
0
41
1
10
42.0576371076332
20
3.54948360952358
30
0
41
1
10
42.2369801329909
20
3.55159252055398
30
0
41
1
10
42.3265701995342
20
3.55174061317172
30
0
41
1
10
42.5950378494774
20
3.54949582296382
30
0
41
1
10
42.7737199183795
20
3.5444296481013
30
0
41
1
10
43.1304869449119
20
3.52737320275256
30
0
41
1
10
43.3085701056212
20
3.5153826878134
30
0
41
1
10
43.6640952288337
20
3.48453473796164
30
0
41
1
10
43.8415352336945
20
3.46567436098451
30
0
41
1
10
44.1958084996292
20
3.421045096364
30
0
41
1
10
44.3726734295284
20
3.39527560713466
30
0
41
1
10
44.7265832130727
20
3.33726559242467
30
0
41
1
10
44.9036033153896
20
3.30502494426665
30
0
41
1
10
45.434953453813
20
3.19874881219246
30
0
41
1
10
45.7895451977171
20
3.11517173715237
30
0
41
1
10
46.3224523116901
20
2.97071263819436
30
0
41
1
10
46.500282574877
20
2.91938125008417
30
0
41
1
10
46.8569442103638
20
2.81100204086852
30
0
41
1
10
47.0357581560497
20
2.7539469392261
30
0
41
1
10
47.3047500814947
20
2.66408631936071
30
0
41
1
10
47.3946023494021
20
2.63339818444021
30
0
41
1
10
47.5739040126258
20
2.57083491242096
30
0
41
1
10
47.6634253905086
20
2.53893657641635
30
0
41
1
10
47.9316201231797
20
2.4414263337186
30
0
41
1
10
48.1099224655159
20
2.37399738789753
30
0
41
1
10
48.4656671185727
20
2.23450099999096
30
0
41
1
10
48.6431285667791
20
2.16245720295237
30
0
41
1
10
48.9978779945239
20
2.01485698772399
30
0
41
1
10
49.1751453818775
20
1.9392749645047
30
0
41
1
10
49.7065808593526
20
1.70717044848686
30
0
41
1
10
50.0603764112847
20
1.54528546052799
30
0
41
1
10
50.5909855210783
20
1.29275762037878
30
0
41
1
10
50.767854120043
20
1.20697856935021
30
0
41
1
10
51.122297807914
20
1.03353687346848
30
0
41
1
10
51.2998684824558
20
0.945874474974147
30
0
41
1
10
51.6556751846634
20
0.768610296432826
30
0
41
1
10
51.8339124862393
20
0.679009551756508
30
0
41
1
10
52.1018479317135
20
0.543280815009808
30
0
41
1
10
52.1912566794615
20
0.497817085129412
30
0
41
1
10
52.3702855300297
20
0.406475186927651
30
0
41
1
10
52.459943345355
20
0.360577618145356
30
0
41
1
10
52.9083867330945
20
0.130353254681381
30
0
41
1
10
53.2662084698894
20
-0.0554696652698681
30
0
41
1
10
53.6239242964
20
-0.24133437103373
30
0
0
SPLINE
5
127
100
AcDbEntity
8
SK1
62
256
6
ByLayer
370
18
48
1
60
0
100
AcDbSpline
70
4
71
3
72
8
73
4
40
0
40
0
40
0
40
0
40
1
40
1
40
1
40
1
41
1
10
-35.5
20
-0.0124071937099473
30
0
41
1
10
-35.6671071986803
20
-0.0512754896836327
30
0
41
1
10
-35.8338564796642
20
-0.0902216835433762
30
0
41
1
10
-36
20
-0.129299716299187
30
0
0
SPLINE
5
128
100
AcDbEntity
8
SK1
62
256
6
ByLayer
370
18
48
1
60
0
100
AcDbSpline
70
4
71
3
72
8
73
4
40
0
40
0
40
0
40
0
40
1
40
1
40
1
40
1
41
1
10
-35.4702811648027
20
-0.0008597553623133
30
0
41
1
10
-35.479919105686
20
-0.0061896079072312
30
0
41
1
10
-35.4898224227582
20
-0.0100399403083031
30
0
41
1
10
-35.5
20
-0.0124071937100609
30
0
0
SPLINE
5
129
100
AcDbEntity
8
SK1
62
256
6
ByLayer
370
18
48
1
60
0
100
AcDbSpline
70
4
71
3
72
8
73
4
40
0
40
0
40
0
40
0
40
1
40
1
40
1
40
1
41
1
10
-35.5
20
0.0124071937099473
30
0
41
1
10
-35.6671071986803
20
0.0512754896836327
30
0
41
1
10
-35.8338564796642
20
0.0902216835433762
30
0
41
1
10
-36
20
0.129299716299187
30
0
0
SPLINE
5
12A
100
AcDbEntity
8
SK1
62
256
6
ByLayer
370
18
48
1
60
0
100
AcDbSpline
70
4
71
3
72
22
73
18
40
0
40
0
40
0
40
0
40
0.0625000000000004
40
0.0625000000000004
40
0.125000000000001
40
0.125000000000001
40
0.187500000000001
40
0.187500000000001
40
0.250000000000002
40
0.250000000000002
40
0.375000000000002
40
0.375000000000002
40
0.500000000000002
40
0.500000000000002
40
0.750000000000001
40
0.750000000000001
40
1
40
1
40
1
40
1
41
1
10
-35.4
20
-0.113059585559142
30
0
41
1
10
-35.4
20
-0.108813907273856
30
0
41
1
10
-35.4002593711603
20
-0.104578288014267
30
0
41
1
10
-35.4012586213713
20
-0.0961256871904368
30
0
41
1
10
-35.4019982904561
20
-0.0919410013739537
30
0
41
1
10
-35.4038577960222
20
-0.0838434497860305
30
0
41
1
10
-35.4049815019166
20
-0.0798979242717621
30
0
41
1
10
-35.4075716365044
20
-0.0721892268020099
30
0
41
1
10
-35.4090489365252
20
-0.0684043384298718
30
0
41
1
10
-35.4138573413159
20
-0.0575144036094173
30
0
41
1
10
-35.4175572189291
20
-0.0508370921033361
30
0
41
1
10
-35.4257321189722
20
-0.0383917398034157
30
0
41
1
10
-35.4302443207472
20
-0.032599574956123
30
0
41
1
10
-35.4443843974886
20
-0.0169126692154862
30
0
41
1
10
-35.4547260031623
20
-0.0084501396735277
30
0
41
1
10
-35.476826532951
20
0.0049483155133316
30
0
41
1
10
-35.4882298632593
20
0.0096695189593561
30
0
41
1
10
-35.5
20
0.0124071937100609
30
0
0
SPLINE
5
12B
100
AcDbEntity
8
SK1
62
256
6
ByLayer
370
18
48
1
60
0
100
AcDbSpline
70
4
71
3
72
20
73
16
40
0
40
0
40
0
40
0
40
0.25
40
0.25
40
0.375
40
0.375
40
0.5
40
0.5
40
0.625
40
0.625
40
0.75
40
0.75
40
0.875
40
0.875
40
1
40
1
40
1
40
1
41
1
10
-35.5
20
-1.44865980697708
30
0
41
1
10
-35.4882267853228
20
-1.45139819764034
30
0
41
1
10
-35.4768284287078
20
-1.45219419663977
30
0
41
1
10
-35.460270322179
20
-1.45048611850245
30
0
41
1
10
-35.4548935789762
20
-1.44942072353913
30
0
41
1
10
-35.4446281317026
20
-1.44630237126773
30
0
41
1
10
-35.4397086144297
20
-1.44424797319869
30
0
41
1
10
-35.4303421404714
20
-1.43902776176353
30
0
41
1
10
-35.4258783488616
20
-1.43585206480901
30
0
41
1
10
-35.4176059338444
20
-1.42815383168102
30
0
41
1
10
-35.4138878532275
20
-1.42372325798414
30
0
41
1
10
-35.4074805084037
20
-1.41342253349495
30
0
41
1
10
-35.4047944770761
20
-1.40750616240118
30
0
41
1
10
-35.4010706922354
20
-1.3944186381739
30
0
41
1
10
-35.4
20
-1.38705464683161
30
0
41
1
10
-35.4
20
-1.3793176528211
30
0
0
SPLINE
5
12C
100
AcDbEntity
8
SK1
62
256
6
ByLayer
370
18
48
1
60
0
100
AcDbSpline
70
4
71
3
72
8
73
4
40
0
40
0
40
0
40
0
40
1
40
1
40
1
40
1
41
1
10
-36
20
-1.3317672843877
30
0
41
1
10
-35.8338576862906
20
-1.37084503333716
30
0
41
1
10
-35.6671082206656
20
-1.40979127329462
30
0
41
1
10
-35.5
20
-1.44865980697693
30
0
0
SPLINE
5
12D
100
AcDbEntity
8
1
62
256
6
ByLayer
370
18
48
1
60
0
100
AcDbSpline
70
4
71
1
72
4
73
2
40
0
40
0
40
1
40
1
41
1
10
18.7347912236636
20
1.07128367730371
30
0
41
1
10
18.6896069415085
20
1.09240350921257
30
0
0
SPLINE
5
12E
100
AcDbEntity
8
1
62
256
6
ByLayer
370
18
48
1
60
0
100
AcDbSpline
70
4
71
3
72
18
73
14
40
0
40
0
40
0
40
0
40
0.105072865611683
40
0.188770371256823
40
0.269226542825989
40
0.366520645107482
40
0.473976337014086
40
0.561294191066399
40
0.625951950759824
40
0.686556478935939
40
0.771990397648436
40
0.882247182070529
40
1
40
1
40
1
40
1
41
1
10
54.0423941565643
20
0.562899559525761
30
0
41
1
10
53.8834951828883
20
0.613212989965234
30
0
41
1
10
53.5985003007256
20
0.704918395696836
30
0
41
1
10
53.1932586291979
20
0.839303397170568
30
0
41
1
10
52.8007639094149
20
0.972216737655401
30
0
41
1
10
52.3737580620135
20
1.12023364381713
30
0
41
1
10
51.937852789789
20
1.27527441360678
30
0
41
1
10
51.551669633479
20
1.415951281487
30
0
41
1
10
51.2357429450665
20
1.53315061617641
30
0
41
1
10
50.9230433731693
20
1.65086700056102
30
0
41
1
10
50.543479132288
20
1.79619499161609
30
0
41
1
10
50.0805281561788
20
1.97726362431496
30
0
41
1
10
49.7450069523474
20
2.11210159853084
30
0
41
1
10
49.572046874301
20
2.18254416008901
30
0
0
SPLINE
5
12F
100
AcDbEntity
8
1
62
256
6
ByLayer
370
18
48
1
60
0
100
AcDbSpline
70
4
71
1
72
4
73
2
40
0
40
0
40
1
40
1
41
1
10
13.5698997709544
20
-0.318713880954675
30
0
41
1
10
13.3646021208566
20
-0.264348252728723
30
0
0
SPLINE
5
130
100
AcDbEntity
8
1
62
256
6
ByLayer
370
18
48
1
60
0
100
AcDbSpline
70
4
71
3
72
19
73
15
40
0
40
0
40
0
40
0
40
0.118435926962702
40
0.216925378305481
40
0.295469184402255
40
0.354068084846068
40
0.392722787641781
40
0.427514947643991
40
0.481002597994609
40
0.553339485983814
40
0.644522924199197
40
0.754548617384129
40
0.883410015430986
40
1
40
1
40
1
40
1
41
1
10
34.4414249008366
20
-0.0766286212882505
30
0
41
1
10
34.1805229432807
20
-0.0046752271196056
30
0
41
1
10
33.7035595633887
20
0.130568794951614
30
0
41
1
10
33.0561123467126
20
0.323473118675082
30
0
41
1
10
32.5412921766656
20
0.482819445911531
30
0
41
1
10
32.1580999265587
20
0.60484370778164
30
0
41
1
10
31.8707705572004
20
0.698148879377101
30
0
41
1
10
31.5949966159623
20
0.789007900451224
30
0
41
1
10
31.2466193699801
20
0.90576425266309
30
0
41
1
10
30.7770242114648
20
1.06693182919011
30
0
41
1
10
30.1868735473569
20
1.27558425230211
30
0
41
1
10
29.4775276151832
20
1.53550133467016
30
0
41
1
10
28.7169056111533
20
1.82499381738563
30
0
41
1
10
28.1947206741236
20
2.03298247350458
30
0
41
1
10
27.9473105387409
20
2.133503090429
30
0
0
SPLINE
5
131
100
AcDbEntity
8
1
62
256
6
ByLayer
370
18
48
1
60
0
100
AcDbSpline
70
4
71
2
72
6
73
3
40
0
40
0
40
0
40
1
40
1
40
1
41
1
10
49.125600229208
20
2.78042112350727
30
0
41
1
10
49.8169287495962
20
3.00655777753937
30
0
41
1
10
50.5096256956429
20
3.12789104028775
30
0
0
SPLINE
5
132
100
AcDbEntity
8
1
62
256
6
ByLayer
370
18
48
1
60
0
100
AcDbSpline
70
4
71
3
72
25
73
21
40
0
40
0
40
0
40
0
40
0.0800376958695728
40
0.140216800295649
40
0.180904749310022
40
0.216723206521997
40
0.275960602177192
40
0.33374697418295
40
0.379527386603422
40
0.436064002435318
40
0.506555094859066
40
0.561320556622467
40
0.60200897944901
40
0.643598125266859
40
0.701327519073423
40
0.776591794622513
40
0.854395836072557
40
0.921268624759059
40
0.975257610188288
40
1
40
1
40
1
40
1
41
1
10
32.6503321143483
20
-3.39873046027341
30
0
41
1
10
32.8584365835542
20
-3.39915767600911
30
0
41
1
10
33.2230210680237
20
-3.39986046946714
30
0
41
1
10
33.6934545323827
20
-3.40080013586908
30
0
41
1
10
34.0488682221361
20
-3.40128169799209
30
0
41
1
10
34.4016732512584
20
-3.40173595160655
30
0
41
1
10
34.7991959619846
20
-3.40236024221406
30
0
41
1
10
35.22254617776
20
-3.40338035110244
30
0
41
1
10
35.638900062742
20
-3.40415693615287
30
0
41
1
10
36.0882858637469
20
-3.40448173470136
30
0
41
1
10
36.5610408621164
20
-3.40494121147668
30
0
41
1
10
36.9925779409197
20
-3.40628911311873
30
0
41
1
10
37.3489568270199
20
-3.40725135218978
30
0
41
1
10
37.7130465142102
20
-3.40786390247774
30
0
41
1
10
38.1670413430087
20
-3.40784571564709
30
0
41
1
10
38.7152669832544
20
-3.40795877671763
30
0
41
1
10
39.2870301547799
20
-3.40976676508328
30
0
41
1
10
39.8042418133176
20
-3.41089214878645
30
0
41
1
10
40.1814239838032
20
-3.41210325063702
30
0
41
1
10
40.3863612518672
20
-3.41239459194733
30
0
41
1
10
40.4507628833225
20
-3.4124549431468
30
0
0
SPLINE
5
133
100
AcDbEntity
8
1
62
256
6
ByLayer
370
18
48
1
60
0
100
AcDbSpline
70
4
71
2
72
6
73
3
40
0
40
0
40
0
40
1
40
1
40
1
41
1
10
20.5192554522787
20
3.3805010014579
30
0
41
1
10
19.9499966870857
20
3.37993293492659
30
0
41
1
10
19.3806645744957
20
3.37496652334554
30
0
0
SPLINE
5
134
100
AcDbEntity
8
1
62
256
6
ByLayer
370
18
48
1
60
0
100
AcDbSpline
70
4
71
3
72
24
73
20
40
0
40
0
40
0
40
0
40
0.0750552033253711
40
0.149737387670934
40
0.214685897916608
40
0.263215515669022
40
0.318029600286819
40
0.38421347579045
40
0.460881079709255
40
0.534135181415591
40
0.590516306787391
40
0.627466248268078
40
0.663038853946678
40
0.706813906564864
40
0.765842154747765
40
0.825022618166899
40
0.8682192757901
40
0.936488964050882
40
1
40
1
40
1
40
1
41
1
10
42.2806610607719
20
3.4149552538446
30
0
41
1
10
42.0861076066488
20
3.41354878562044
30
0
41
1
10
41.6979588988099
20
3.41147949499785
30
0
41
1
10
41.1394525255145
20
3.41307365844989
30
0
41
1
10
40.6531660103231
20
3.41217187176022
30
0
41
1
10
40.2148525742901
20
3.4124071325609
30
0
41
1
10
39.7736683353355
20
3.41072160511814
30
0
41
1
10
39.2578171853827
20
3.40973450412343
30
0
41
1
10
38.6943001986626
20
3.40790505837802
30
0
41
1
10
38.1562184499981
20
3.40785816062362
30
0
41
1
10
37.721751566091
20
3.40785705240555
30
0
41
1
10
37.3855574837655
20
3.40732012053326
30
0
41
1
10
37.0822428966283
20
3.40654997997586
30
0
41
1
10
36.7213474526723
20
3.40541651569487
30
0
41
1
10
36.2988781118562
20
3.40459757377695
30
0
41
1
10
35.8779174642098
20
3.40436320010227
30
0
41
1
10
35.4328499518956
20
3.40386642283292
30
0
41
1
10
34.9765185248978
20
3.40273658190472
30
0
41
1
10
34.6327605031155
20
3.40211147149466
30
0
41
1
10
34.4671388849547
20
3.40185479443761
30
0
0
LINE
5
82
100
AcDbEntity
8
4
62
256
6
ByLayer
370
18
48
0.05
60
0
100
AcDbLine
10
0
20
0
30
0
11
55
21
0
31
0
39
0
210
0
220
0
230
1
0
LINE
5
84
100
AcDbEntity
8
81
62
256
6
ByLayer
370
18
48
1
60
0
100
AcDbLine
10
55
20
0
30
0
11
58
21
0
31
0
39
0
210
0
220
0
230
1
0
LINE
5
85
100
AcDbEntity
8
80
62
256
6
ByLayer
370
18
48
1
60
0
100
AcDbLine
10
0
20
0
30
0
11
-3
21
0
31
0
39
0
210
0
220
0
230
1
0
LINE
5
86
100
AcDbEntity
8
SK4
62
256
6
ByLayer
370
18
48
0.05
60
0
100
AcDbLine
10
-39
20
0
30
0
11
58
21
0
31
0
39
0
210
0
220
0
230
1
0
LINE
5
88
100
AcDbEntity
8
1
62
256
6
ByLayer
370
18
48
1
60
0
100
AcDbLine
10
0
20
4
30
0
11
0
21
-4
31
0
39
0
210
0
220
0
230
1
0
LINE
5
89
100
AcDbEntity
8
1
62
256
6
ByLayer
370
13
48
1
60
0
100
AcDbLine
10
54.907877
20
0.381664
30
0
11
54.120247
21
1.172273
31
0
39
0
210
0
220
0
230
1
0
LINE
5
8A
100
AcDbEntity
8
1
62
256
6
ByLayer
370
13
48
1
60
0
100
AcDbLine
10
0.591411
20
-3.738733
30
0
11
0.591411
21
3.738733
31
0
39
0
210
0
220
0
230
1
0
LINE
5
8B
100
AcDbEntity
8
1
62
256
6
ByLayer
370
18
48
1
60
0
100
AcDbLine
10
19.27991
20
3.510039
30
0
11
19.27991
21
1.294779
31
0
39
0
210
0
220
0
230
1
0
LINE
5
8C
100
AcDbEntity
8
1
62
256
6
ByLayer
370
18
48
1
60
0
100
AcDbLine
10
19.27991
20
-3.478651
30
0
11
19.27991
21
-3.510039
31
0
39
0
210
0
220
0
230
1
0
LINE
5
8D
100
AcDbEntity
8
1
62
256
6
ByLayer
370
18
48
1
60
0
100
AcDbLine
10
19.27991
20
0.862726
30
0
11
19.27991
21
0.804427
31
0
39
0
210
0
220
0
230
1
0
LINE
5
8E
100
AcDbEntity
8
1
62
256
6
ByLayer
370
13
48
1
60
0
100
AcDbLine
10
1.184262
20
-3.477466
30
0
11
1.184262
21
3.477466
31
0
39
0
210
0
220
0
230
1
0
LINE
5
8F
100
AcDbEntity
8
SK1
62
256
6
ByLayer
370
18
48
1
60
0
100
AcDbLine
10
-36
20
-0.1293
30
0
11
-36
21
-1.331767
31
0
39
0
210
0
220
0
230
1
0
LINE
5
91
100
AcDbEntity
8
SK1
62
256
6
ByLayer
370
13
48
1
60
0
100
AcDbLine
10
-35.5
20
-1.44866
30
0
11
-35.5
21
-0.012407
31
0
39
0
210
0
220
0
230
1
0
LINE
5
92
100
AcDbEntity
8
SK1
62
256
6
ByLayer
370
18
48
1
60
0
100
AcDbLine
10
-36
20
2.76
30
0
11
-36
21
0.1293
31
0
39
0
210
0
220
0
230
1
0
LINE
5
93
100
AcDbEntity
8
SK1
62
256
6
ByLayer
370
18
48
1
60
0
100
AcDbLine
10
-35.4
20
-1.379318
30
0
11
-35.4
21
-0.11306
31
0
39
0
210
0
220
0
230
1
0
LINE
5
94
100
AcDbEntity
8
SK1
62
256
6
ByLayer
370
18
48
1
60
0
100
AcDbLine
10
-36
20
-2.76
30
0
11
-36
21
-1.331767
31
0
39
0
210
0
220
0
230
1
0
LINE
5
95
100
AcDbEntity
8
SK1
62
256
6
ByLayer
370
18
48
1
60
0
100
AcDbLine
10
0
20
4
30
0
11
0
21
-4
31
0
39
0
210
0
220
0
230
1
0
LINE
5
96
100
AcDbEntity
8
SK1
62
256
6
ByLayer
370
18
48
1
60
0
100
AcDbLine
10
-34.76
20
-4
30
0
11
-34.76
21
4
31
0
39
0
210
0
220
0
230
1
0
LINE
5
97
100
AcDbEntity
8
1
62
256
6
ByLayer
370
18
48
1
60
0
100
AcDbLine
10
1.184262
20
-3.477466
30
0
11
3.399404
21
-3.481454
31
0
39
0
210
0
220
0
230
1
0
LINE
5
98
100
AcDbEntity
8
1
62
256
6
ByLayer
370
18
48
1
60
0
100
AcDbLine
10
10.016525
20
-3.493365
30
0
11
19.27991
21
-3.510039
31
0
39
0
210
0
220
0
230
1
0
LINE
5
99
100
AcDbEntity
8
1
62
256
6
ByLayer
370
18
48
1
60
0
100
AcDbLine
10
20.521743
20
-3.512274
30
0
11
21.585328
21
-3.514188
31
0
39
0
210
0
220
0
230
1
0
LINE
5
9A
100
AcDbEntity
8
1
62
256
6
ByLayer
370
18
48
1
60
0
100
AcDbLine
10
31.888732
20
-3.532734
30
0
11
32.649415
21
-3.534104
31
0
39
0
210
0
220
0
230
1
0
LINE
5
9B
100
AcDbEntity
8
1
62
256
6
ByLayer
370
18
48
1
60
0
100
AcDbLine
10
42.280604
20
-3.55144
30
0
11
43.276121
21
-3.553232
31
0
39
0
210
0
220
0
230
1
0
LINE
5
9C
100
AcDbEntity
8
1
62
256
6
ByLayer
370
18
48
1
60
0
100
AcDbLine
10
43.276121
20
3.553232
30
0
11
42.280604
21
3.55144
31
0
39
0
210
0
220
0
230
1
0
LINE
5
9D
100
AcDbEntity
8
1
62
256
6
ByLayer
370
18
48
1
60
0
100
AcDbLine
10
32.649415
20
3.534104
30
0
11
31.888732
21
3.532734
31
0
39
0
210
0
220
0
230
1
0
LINE
5
9E
100
AcDbEntity
8
1
62
256
6
ByLayer
370
18
48
1
60
0
100
AcDbLine
10
21.585328
20
3.514188
30
0
11
20.521743
21
3.512274
31
0
39
0
210
0
220
0
230
1
0
LINE
5
9F
100
AcDbEntity
8
1
62
256
6
ByLayer
370
18
48
1
60
0
100
AcDbLine
10
19.27991
20
3.510039
30
0
11
10.016525
21
3.493365
31
0
39
0
210
0
220
0
230
1
0
LINE
5
A0
100
AcDbEntity
8
1
62
256
6
ByLayer
370
18
48
1
60
0
100
AcDbLine
10
3.399404
20
3.481454
30
0
11
1.184262
21
3.477466
31
0
39
0
210
0
220
0
230
1
0
LINE
5
A1
100
AcDbEntity
8
SK1
62
256
6
ByLayer
370
18
48
1
60
0
100
AcDbLine
10
-36
20
-2.76
30
0
11
-34.76
21
-4
31
0
39
0
210
0
220
0
230
1
0
LINE
5
A2
100
AcDbEntity
8
SK1
62
256
6
ByLayer
370
18
48
1
60
0
100
AcDbLine
10
-34.76
20
4
30
0
11
-36
21
2.76
31
0
39
0
210
0
220
0
230
1
0
LINE
5
A3
100
AcDbEntity
8
SK1
62
256
6
ByLayer
370
18
48
1
60
0
100
AcDbLine
10
-34.76
20
-4
30
0
11
0
21
-4
31
0
39
0
210
0
220
0
230
1
0
LINE
5
A4
100
AcDbEntity
8
SK1
62
256
6
ByLayer
370
18
48
1
60
0
100
AcDbLine
10
0
20
4
30
0
11
-34.76
21
4
31
0
39
0
210
0
220
0
230
1
0
LINE
5
A5
100
AcDbEntity
8
2
62
256
6
ByLayer
370
13
48
1
60
0
100
AcDbLine
10
62.5
20
-3.572
30
0
11
62.5
21
32.236627
31
0
39
0
210
0
220
0
230
1
0
LINE
5
A7
100
AcDbEntity
8
2
62
256
6
ByLayer
370
13
48
1
60
0
100
AcDbLine
10
56.5875
20
3.572
30
0
11
64.5
21
3.572
31
0
39
0
210
0
220
0
230
1
0
LINE
5
A8
100
AcDbEntity
8
2
62
256
6
ByLayer
370
13
48
1
60
0
100
AcDbLine
10
56.5875
20
-3.572
30
0
11
64.5
21
-3.572
31
0
39
0
210
0
220
0
230
1
0
LINE
5
A9
100
AcDbEntity
8
1
62
256
6
ByLayer
370
18
48
1
60
1
100
AcDbLine
10
62.5
20
3.572
30
0
11
62.960784
21
0.072002
31
0
39
0
210
0
220
0
230
1
0
LINE
5
AA
100
AcDbEntity
8
1
62
256
6
ByLayer
370
18
48
1
60
1
100
AcDbLine
10
62.960784
20
0.072002
30
0
11
62.039216
21
0.071998
31
0
39
0
210
0
220
0
230
1
0
LINE
5
AB
100
AcDbEntity
8
1
62
256
6
ByLayer
370
18
48
1
60
1
100
AcDbLine
10
62.039216
20
0.071998
30
0
11
62.5
21
3.572
31
0
39
0
210
0
220
0
230
1
0
LINE
5
AC
100
AcDbEntity
8
1
62
256
6
ByLayer
370
18
48
1
60
1
100
AcDbLine
10
62.5
20
-3.572
30
0
11
62.039216
21
-0.072002
31
0
39
0
210
0
220
0
230
1
0
LINE
5
AD
100
AcDbEntity
8
1
62
256
6
ByLayer
370
18
48
1
60
1
100
AcDbLine
10
62.039216
20
-0.072002
30
0
11
62.960784
21
-0.071998
31
0
39
0
210
0
220
0
230
1
0
LINE
5
AE
100
AcDbEntity
8
1
62
256
6
ByLayer
370
18
48
1
60
1
100
AcDbLine
10
62.960784
20
-0.071998
30
0
11
62.5
21
-3.572
31
0
39
0
210
0
220
0
230
1
0
LINE
5
AF
100
AcDbEntity
8
SK2
62
256
6
ByLayer
370
13
48
1
60
0
100
AcDbLine
10
-44.5
20
-4
30
0
11
-44.5
21
13.841828
31
0
39
0
210
0
220
0
230
1
0
LINE
5
B1
100
AcDbEntity
8
SK2
62
256
6
ByLayer
370
13
48
1
60
0
100
AcDbLine
10
-37.5875
20
4
30
0
11
-46.5
21
4
31
0
39
0
210
0
220
0
230
1
0
LINE
5
B2
100
AcDbEntity
8
SK2
62
256
6
ByLayer
370
13
48
1
60
0
100
AcDbLine
10
-37.5875
20
-4
30
0
11
-46.5
21
-4
31
0
39
0
210
0
220
0
230
1
0
LINE
5
B3
100
AcDbEntity
8
1
62
256
6
ByLayer
370
18
48
1
60
1
100
AcDbLine
10
-44.5
20
4
30
0
11
-44.039216
21
0.500002
31
0
39
0
210
0
220
0
230
1
0
LINE
5
B4
100
AcDbEntity
8
1
62
256
6
ByLayer
370
18
48
1
60
1
100
AcDbLine
10
-44.039216
20
0.500002
30
0
11
-44.960784
21
0.499998
31
0
39
0
210
0
220
0
230
1
0
LINE
5
B5
100
AcDbEntity
8
1
62
256
6
ByLayer
370
18
48
1
60
1
100
AcDbLine
10
-44.960784
20
0.499998
30
0
11
-44.5
21
4
31
0
39
0
210
0
220
0
230
1
0
LINE
5
B6
100
AcDbEntity
8
1
62
256
6
ByLayer
370
18
48
1
60
1
100
AcDbLine
10
-44.5
20
-4
30
0
11
-44.960784
21
-0.500002
31
0
39
0
210
0
220
0
230
1
0
LINE
5
B7
100
AcDbEntity
8
1
62
256
6
ByLayer
370
18
48
1
60
1
100
AcDbLine
10
-44.960784
20
-0.500002
30
0
11
-44.039216
21
-0.499998
31
0
39
0
210
0
220
0
230
1
0
LINE
5
B8
100
AcDbEntity
8
1
62
256
6
ByLayer
370
18
48
1
60
1
100
AcDbLine
10
-44.039216
20
-0.499998
30
0
11
-44.5
21
-4
31
0
39
0
210
0
220
0
230
1
0
LINE
5
B9
100
AcDbEntity
8
SK2
62
256
6
ByLayer
370
13
48
1
60
0
100
AcDbLine
10
55.542919
20
1.491776
30
0
11
62.317338
21
20.105792
31
0
39
0
210
0
220
0
230
1
0
LINE
5
BA
100
AcDbEntity
8
SK2
62
256
6
ByLayer
370
13
48
1
60
0
100
AcDbLine
10
55.542919
20
-1.491776
30
0
11
62.317338
21
-20.105792
31
0
39
0
210
0
220
0
230
1
0
LINE
5
BB
100
AcDbEntity
8
1
62
256
6
ByLayer
370
18
48
1
60
1
100
AcDbLine
10
61.633345
20
18.22639
30
0
11
65.042035
21
17.308165
31
0
39
0
210
0
220
0
230
1
0
LINE
5
BC
100
AcDbEntity
8
1
62
256
6
ByLayer
370
18
48
1
60
1
100
AcDbLine
10
65.042035
20
17.308165
30
0
11
64.688236
21
16.457217
31
0
39
0
210
0
220
0
230
1
0
LINE
5
BD
100
AcDbEntity
8
1
62
256
6
ByLayer
370
18
48
1
60
1
100
AcDbLine
10
64.688236
20
16.457217
30
0
11
61.633345
21
18.22639
31
0
39
0
210
0
220
0
230
1
0
LINE
5
BE
100
AcDbEntity
8
1
62
256
6
ByLayer
370
18
48
1
60
1
100
AcDbLine
10
61.633345
20
-18.22639
30
0
11
64.688233
21
-16.457218
31
0
39
0
210
0
220
0
230
1
0
LINE
5
BF
100
AcDbEntity
8
1
62
256
6
ByLayer
370
18
48
1
60
1
100
AcDbLine
10
64.688233
20
-16.457218
30
0
11
65.042038
21
-17.308163
31
0
39
0
210
0
220
0
230
1
0
LINE
5
C0
100
AcDbEntity
8
1
62
256
6
ByLayer
370
18
48
1
60
1
100
AcDbLine
10
65.042038
20
-17.308163
30
0
11
61.633345
21
-18.22639
31
0
39
0
210
0
220
0
230
1
0
LINE
5
135
100
AcDbEntity
8
1
62
256
6
ByLayer
370
13
48
0.05
60
0
100
AcDbLine
10
-42.5
20
0
30
0
11
60.187306
21
0
31
0
39
0
210
0
220
0
230
1
0
LINE
5
13A
100
AcDbEntity
8
1
62
256
6
ByLayer
370
18
48
1
60
1
100
AcDbLine
10
62.5
20
3.572
30
0
11
62.960784
21
0.072002
31
0
39
0
210
0
220
0
230
1
0
LINE
5
13B
100
AcDbEntity
8
1
62
256
6
ByLayer
370
18
48
1
60
1
100
AcDbLine
10
62.960784
20
0.072002
30
0
11
62.039216
21
0.071998
31
0
39
0
210
0
220
0
230
1
0
LINE
5
13C
100
AcDbEntity
8
1
62
256
6
ByLayer
370
18
48
1
60
1
100
AcDbLine
10
62.039216
20
0.071998
30
0
11
62.5
21
3.572
31
0
39
0
210
0
220
0
230
1
0
LINE
5
13E
100
AcDbEntity
8
1
62
256
6
ByLayer
370
18
48
1
60
1
100
AcDbLine
10
62.5
20
-3.572
30
0
11
62.039216
21
-0.072002
31
0
39
0
210
0
220
0
230
1
0
LINE
5
13F
100
AcDbEntity
8
1
62
256
6
ByLayer
370
18
48
1
60
1
100
AcDbLine
10
62.039216
20
-0.072002
30
0
11
62.960784
21
-0.071998
31
0
39
0
210
0
220
0
230
1
0
LINE
5
140
100
AcDbEntity
8
1
62
256
6
ByLayer
370
18
48
1
60
1
100
AcDbLine
10
62.960784
20
-0.071998
30
0
11
62.5
21
-3.572
31
0
39
0
210
0
220
0
230
1
0
LINE
5
144
100
AcDbEntity
8
1
62
256
6
ByLayer
370
18
48
1
60
1
100
AcDbLine
10
-44.5
20
4
30
0
11
-44.039216
21
0.500002
31
0
39
0
210
0
220
0
230
1
0
LINE
5
145
100
AcDbEntity
8
1
62
256
6
ByLayer
370
18
48
1
60
1
100
AcDbLine
10
-44.039216
20
0.500002
30
0
11
-44.960784
21
0.499998
31
0
39
0
210
0
220
0
230
1
0
LINE
5
146
100
AcDbEntity
8
1
62
256
6
ByLayer
370
18
48
1
60
1
100
AcDbLine
10
-44.960784
20
0.499998
30
0
11
-44.5
21
4
31
0
39
0
210
0
220
0
230
1
0
LINE
5
148
100
AcDbEntity
8
1
62
256
6
ByLayer
370
18
48
1
60
1
100
AcDbLine
10
-44.5
20
-4
30
0
11
-44.960784
21
-0.500002
31
0
39
0
210
0
220
0
230
1
0
LINE
5
149
100
AcDbEntity
8
1
62
256
6
ByLayer
370
18
48
1
60
1
100
AcDbLine
10
-44.960784
20
-0.500002
30
0
11
-44.039216
21
-0.499998
31
0
39
0
210
0
220
0
230
1
0
LINE
5
14A
100
AcDbEntity
8
1
62
256
6
ByLayer
370
18
48
1
60
1
100
AcDbLine
10
-44.039216
20
-0.499998
30
0
11
-44.5
21
-4
31
0
39
0
210
0
220
0
230
1
0
LINE
5
14D
100
AcDbEntity
8
1
62
256
6
ByLayer
370
18
48
1
60
1
100
AcDbLine
10
61.633345
20
18.22639
30
0
11
65.042035
21
17.308165
31
0
39
0
210
0
220
0
230
1
0
LINE
5
14E
100
AcDbEntity
8
1
62
256
6
ByLayer
370
18
48
1
60
1
100
AcDbLine
10
65.042035
20
17.308165
30
0
11
64.688236
21
16.457217
31
0
39
0
210
0
220
0
230
1
0
LINE
5
14F
100
AcDbEntity
8
1
62
256
6
ByLayer
370
18
48
1
60
1
100
AcDbLine
10
64.688236
20
16.457217
30
0
11
61.633345
21
18.22639
31
0
39
0
210
0
220
0
230
1
0
LINE
5
151
100
AcDbEntity
8
1
62
256
6
ByLayer
370
18
48
1
60
1
100
AcDbLine
10
61.633345
20
-18.22639
30
0
11
64.688233
21
-16.457218
31
0
39
0
210
0
220
0
230
1
0
LINE
5
152
100
AcDbEntity
8
1
62
256
6
ByLayer
370
18
48
1
60
1
100
AcDbLine
10
64.688233
20
-16.457218
30
0
11
65.042038
21
-17.308163
31
0
39
0
210
0
220
0
230
1
0
LINE
5
153
100
AcDbEntity
8
1
62
256
6
ByLayer
370
18
48
1
60
1
100
AcDbLine
10
65.042038
20
-17.308163
30
0
11
61.633345
21
-18.22639
31
0
39
0
210
0
220
0
230
1
0
MTEXT
5
136
100
AcDbEntity
8
2
62
256
6
ByLayer
370
18
48
1
60
0
100
AcDbMText
10
61.158886
20
17.230438
30
0
210
0
220
0
230
1
1
%%c
40
3
41
0
44
1.084337
50
90
71
7
72
5
7
iso_b_vert
0
MTEXT
5
139
100
AcDbEntity
8
2
62
256
6
ByLayer
370
18
48
1
60
0
100
AcDbMText
10
61.158886
20
23.207
30
0
210
0
220
0
230
1
1
\W0.7271;7.144
40
3
41
0
44
1.084337
50
90
71
7
72
5
7
iso_b_vert
0
MTEXT
5
142
100
AcDbEntity
8
SK2
62
256
6
ByLayer
370
18
48
1
60
0
100
AcDbMText
10
-45.841114
20
6.658437
30
0
210
0
220
0
230
1
1
%%c
40
3
41
0
44
1.084337
50
90
71
7
72
5
7
iso_b_vert
0
MTEXT
5
143
100
AcDbEntity
8
SK2
62
256
6
ByLayer
370
18
48
1
60
0
100
AcDbMText
10
-45.841114
20
12.635
30
0
210
0
220
0
230
1
1
\W0.5404;8
40
3
41
0
44
1.084337
50
90
71
7
72
5
7
iso_b_vert
0
MTEXT
5
14C
100
AcDbEntity
8
SK2
62
256
6
ByLayer
370
18
48
1
60
0
100
AcDbMText
10
70.955285
20
-2.114886
30
0
210
0
220
0
230
1
1
\W0.7071;140%%d
40
3
41
0
44
1.084337
50
0
71
7
72
5
7
iso_b_vert
0
MTEXT
5
155
100
AcDbEntity
8
SK6
62
256
6
ByLayer
370
18
48
1
60
0
100
AcDbMText
10
-14.875797
20
-102.362689
30
0
210
0
220
0
230
1
1
\W0.7455;860.1-0714-036A1-SD S2BM
40
3
41
0
44
1.084337
50
0
71
7
72
5
7
iso_b_vert
0
HATCH
5
13D
100
AcDbEntity
8
2
62
256
6
ByLayer
370
13
48
1
60
0
100
AcDbHatch
10
0
20
0
30
0
210
0
220
0
230
1
2
ANSI31
70
0
71
0
91
1
92
5
93
3
72
1
10
62.5
20
3.572
11
62.9607837415528
21
0.0720016925531866
72
1
10
62.9607837415528
20
0.0720016925531866
11
62.0392162584472
21
0.0719983074468189
72
1
10
62.0392162584472
20
0.0719983074468189
11
62.5
21
3.572
97
0
75
0
76
1
52
0
41
0.0062
77
0
78
1
53
45
43
0
44
0
45
-0.0139193969876572
46
0.0139193969876572
79
0
47
0
98
1
10
0
20
0
0
HATCH
5
141
100
AcDbEntity
8
2
62
256
6
ByLayer
370
13
48
1
60
0
100
AcDbHatch
10
0
20
0
30
0
210
0
220
0
230
1
2
ANSI31
70
0
71
0
91
1
92
5
93
3
72
1
10
62.5
20
-3.572
11
62.0392162584472
21
-0.0720016925531866
72
1
10
62.0392162584472
20
-0.0720016925531866
11
62.9607837415528
21
-0.0719983074468189
72
1
10
62.9607837415528
20
-0.0719983074468189
11
62.5
21
-3.572
97
0
75
0
76
1
52
0
41
0.0062
77
0
78
1
53
45
43
0
44
0
45
-0.0139193969876572
46
0.0139193969876572
79
0
47
0
98
1
10
0
20
0
0
HATCH
5
147
100
AcDbEntity
8
SK2
62
256
6
ByLayer
370
13
48
1
60
0
100
AcDbHatch
10
0
20
0
30
0
210
0
220
0
230
1
2
ANSI31
70
0
71
0
91
1
92
5
93
3
72
1
10
-44.5
20
4
11
-44.0392162584472
21
0.500001692553184
72
1
10
-44.0392162584472
20
0.500001692553184
11
-44.9607837415528
21
0.499998307446816
72
1
10
-44.9607837415528
20
0.499998307446816
11
-44.5
21
4
97
0
75
0
76
1
52
0
41
0.0062
77
0
78
1
53
45
43
0
44
0
45
-0.0139193969876572
46
0.0139193969876572
79
0
47
0
98
1
10
0
20
0
0
HATCH
5
14B
100
AcDbEntity
8
SK2
62
256
6
ByLayer
370
13
48
1
60
0
100
AcDbHatch
10
0
20
0
30
0
210
0
220
0
230
1
2
ANSI31
70
0
71
0
91
1
92
5
93
3
72
1
10
-44.5
20
-4
11
-44.9607837415528
21
-0.500001692553184
72
1
10
-44.9607837415528
20
-0.500001692553184
11
-44.0392162584472
21
-0.499998307446816
72
1
10
-44.0392162584472
20
-0.499998307446816
11
-44.5
21
-4
97
0
75
0
76
1
52
0
41
0.0062
77
0
78
1
53
45
43
0
44
0
45
-0.0139193969876572
46
0.0139193969876572
79
0
47
0
98
1
10
0
20
0
0
HATCH
5
150
100
AcDbEntity
8
SK2
62
256
6
ByLayer
370
13
48
1
60
0
100
AcDbHatch
10
0
20
0
30
0
210
0
220
0
230
1
2
ANSI31
70
0
71
0
91
1
92
5
93
3
72
1
10
61.6333445168429
20
18.2263897032026
11
65.0420352542631
21
17.3081646407939
72
1
10
65.0420352542631
20
17.3081646407939
11
64.6882357043804
21
16.4572166374284
72
1
10
64.6882357043804
20
16.4572166374284
11
61.6333445168429
21
18.2263897032026
97
0
75
0
76
1
52
0
41
0.0062
77
0
78
1
53
45
43
0
44
0
45
-0.0139193969876572
46
0.0139193969876572
79
0
47
0
98
1
10
0
20
0
0
HATCH
5
154
100
AcDbEntity
8
SK2
62
256
6
ByLayer
370
13
48
1
60
0
100
AcDbHatch
10
0
20
0
30
0
210
0
220
0
230
1
2
ANSI31
70
0
71
0
91
1
92
5
93
3
72
1
10
61.6333445168429
20
-18.2263897032026
11
64.6882325786785
21
-16.4572179370182
72
1
10
64.6882325786785
20
-16.4572179370182
11
65.0420383799649
21
-17.3081633412041
72
1
10
65.0420383799649
20
-17.3081633412041
11
61.6333445168429
21
-18.2263897032026
97
0
75
0
76
1
52
0
41
0.0062
77
0
78
1
53
45
43
0
44
0
45
-0.0139193969876572
46
0.0139193969876572
79
0
47
0
98
1
10
0
20
0
0
DIMENSION
5
158
100
AcDbEntity
8
SK2
62
256
6
ByLayer
370
18
48
1
60
0
100
AcDbDimension
2
_U0
10
18
20
-84.173948
30
0
11
36.5
21
-84.173948
31
0
70
32
71
1
72
1
41
1
210
0
220
0
230
1
3
Standard
100
AcDbAlignedDimension
13
55
23
-3.572
33
0
14
18
24
-3.572
34
0
50
0
100
AcDbRotatedDimension
1001
ACAD
1000
DSTYLE
1002
{
1070
   371
1070
    13
1070
   372
1070
    13
1070
   170
1070
     0
1070
   144
1040
1.0
1070
   277
1070
     2
1070
   284
1070
     8
1070
   278
1070
    46
1070
   146
1040
1.166667
1070
   345
1005
16
1070
   347
1005
16
1070
   346
1005
16
1070
   344
1005
0
1070
   343
1005
0
1070
   172
1070
     1
1070
    76
1070
     0
1070
    75
1070
     0
1070
   282
1070
     0
1070
   281
1070
     0
1070
     3
1000

1070
    71
1070
     0
1070
    74
1070
     0
1070
   279
1070
     0
1070
   173
1070
     1
1070
   340
1005
137
1070
   271
1070
     2
1070
   272
1070
     2
1070
    77
1070
     1
1070
    73
1070
     1
1070
   171
1070
     3
1070
   274
1070
     4
1070
   177
1070
     2
1070
   176
1070
     2
1070
   178
1070
     2
1070
    78
1070
     8
1070
    48
1040
-0.1
1070
    41
1040
3.5
1070
   147
1040
1.5
1070
    42
1040
1.5875
1070
    44
1040
2.0
1070
   140
1040
3.0
1002
}
1001
ACAD_DSTYLE_DIM_LINETYPE
1070
   380
1005
16
1001
ACAD_DSTYLE_DIM_EXT1_LINETYPE
1070
   381
1005
16
1001
ACAD_DSTYLE_DIM_EXT2_LINETYPE
1070
   382
1005
16
0
DIMENSION
5
173
100
AcDbEntity
8
SK2
62
256
6
ByLayer
370
18
48
1
60
0
100
AcDbDimension
2
_U1
10
2
20
-94.173948
30
0
11
28.5
21
-94.173948
31
0
70
32
71
1
72
1
41
1
210
0
220
0
230
1
3
Standard
100
AcDbAlignedDimension
13
55
23
-3.572
33
0
14
2
24
-3.572
34
0
50
0
100
AcDbRotatedDimension
1001
ACAD
1000
DSTYLE
1002
{
1070
   371
1070
    13
1070
   372
1070
    13
1070
     3
1000

1070
   170
1070
     0
1070
   144
1040
1.0
1070
   277
1070
     2
1070
   284
1070
     8
1070
   278
1070
    46
1070
   146
1040
1.166667
1070
   345
1005
16
1070
   347
1005
16
1070
   346
1005
16
1070
   344
1005
0
1070
   343
1005
0
1070
   172
1070
     1
1070
    76
1070
     0
1070
    75
1070
     0
1070
   282
1070
     0
1070
   281
1070
     0
1070
    71
1070
     0
1070
    74
1070
     0
1070
   279
1070
     0
1070
   173
1070
     1
1070
   340
1005
137
1070
   271
1070
     2
1070
   272
1070
     2
1070
    77
1070
     1
1070
    73
1070
     1
1070
   171
1070
     3
1070
   274
1070
     4
1070
   177
1070
     2
1070
   176
1070
     2
1070
   178
1070
     2
1070
    78
1070
     8
1070
    48
1040
-0.1
1070
    41
1040
3.5
1070
   147
1040
1.5
1070
    42
1040
1.5875
1070
    44
1040
2.0
1070
   140
1040
3.0
1002
}
1001
ACAD_DSTYLE_DIM_LINETYPE
1070
   380
1005
16
1001
ACAD_DSTYLE_DIM_EXT1_LINETYPE
1070
   381
1005
16
1001
ACAD_DSTYLE_DIM_EXT2_LINETYPE
1070
   382
1005
16
0
DIMENSION
5
18B
100
AcDbEntity
8
SK2
62
256
6
ByLayer
370
18
48
1
60
0
100
AcDbDimension
2
_U2
10
0
20
-102.173948
30
0
11
-18
21
-102.173948
31
0
70
32
71
1
72
1
41
1
210
0
220
0
230
1
3
Standard
100
AcDbAlignedDimension
13
-36
23
-4
33
0
14
0
24
-4
34
0
50
0
100
AcDbRotatedDimension
1001
ACAD
1000
DSTYLE
1002
{
1070
   371
1070
    13
1070
   372
1070
    13
1070
     3
1000

1070
   170
1070
     0
1070
   144
1040
1.0
1070
   277
1070
     2
1070
   284
1070
     8
1070
   278
1070
    46
1070
   146
1040
1.166667
1070
   345
1005
16
1070
   347
1005
16
1070
   346
1005
16
1070
   344
1005
0
1070
   343
1005
0
1070
   172
1070
     1
1070
    76
1070
     0
1070
    75
1070
     0
1070
   282
1070
     0
1070
   281
1070
     0
1070
    71
1070
     0
1070
    74
1070
     0
1070
   279
1070
     0
1070
   173
1070
     1
1070
   340
1005
137
1070
   271
1070
     2
1070
   272
1070
     2
1070
    77
1070
     1
1070
    73
1070
     1
1070
   171
1070
     3
1070
   274
1070
     4
1070
   177
1070
     2
1070
   176
1070
     2
1070
   178
1070
     2
1070
    78
1070
     8
1070
    48
1040
-0.1
1070
    41
1040
3.5
1070
   147
1040
1.5
1070
    42
1040
1.5875
1070
    44
1040
2.0
1070
   140
1040
3.0
1002
}
1001
ACAD_DSTYLE_DIM_LINETYPE
1070
   380
1005
16
1001
ACAD_DSTYLE_DIM_EXT1_LINETYPE
1070
   381
1005
16
1001
ACAD_DSTYLE_DIM_EXT2_LINETYPE
1070
   382
1005
16
0
DIMENSION
5
1A3
100
AcDbEntity
8
SK2
62
256
6
ByLayer
370
18
48
1
60
0
100
AcDbDimension
2
_U3
10
55
20
-110.173948
30
0
11
9.5
21
-110.173948
31
0
70
32
71
1
72
1
41
1
210
0
220
0
230
1
3
Standard
100
AcDbAlignedDimension
13
-36
23
-4
33
0
14
55
24
-3.572
34
0
50
0
100
AcDbRotatedDimension
1001
ACAD
1000
DSTYLE
1002
{
1070
   371
1070
    13
1070
   372
1070
    13
1070
     3
1000

1070
   170
1070
     0
1070
   144
1040
1.0
1070
   277
1070
     2
1070
   284
1070
     8
1070
   278
1070
    46
1070
   146
1040
1.166667
1070
   345
1005
16
1070
   347
1005
16
1070
   346
1005
16
1070
   344
1005
0
1070
   343
1005
0
1070
   172
1070
     1
1070
    76
1070
     0
1070
    75
1070
     0
1070
   282
1070
     0
1070
   281
1070
     0
1070
    71
1070
     0
1070
    74
1070
     0
1070
   279
1070
     0
1070
   173
1070
     1
1070
   340
1005
137
1070
   271
1070
     2
1070
   272
1070
     2
1070
    77
1070
     1
1070
    73
1070
     1
1070
   171
1070
     3
1070
   274
1070
     4
1070
   177
1070
     2
1070
   176
1070
     2
1070
   178
1070
     2
1070
    78
1070
     8
1070
    48
1040
-0.1
1070
    41
1040
3.5
1070
   147
1040
1.5
1070
    42
1040
1.5875
1070
    44
1040
2.0
1070
   140
1040
3.0
1002
}
1001
ACAD_DSTYLE_DIM_LINETYPE
1070
   380
1005
16
1001
ACAD_DSTYLE_DIM_EXT1_LINETYPE
1070
   381
1005
16
1001
ACAD_DSTYLE_DIM_EXT2_LINETYPE
1070
   382
1005
16
0
DIMENSION
5
1BB
100
AcDbEntity
8
2
62
256
6
ByLayer
370
18
48
1
60
0
100
AcDbDimension
2
_U4
10
0
20
-102.173948
30
0
11
27.5
21
-102.173948
31
0
70
32
71
1
72
1
41
1
210
0
220
0
230
1
3
Standard
100
AcDbAlignedDimension
13
55
23
-3.572
33
0
14
0
24
-3.572
34
0
50
0
100
AcDbRotatedDimension
1001
ACAD
1000
DSTYLE
1002
{
1070
   371
1070
    13
1070
   372
1070
    13
1070
     3
1000

1070
   170
1070
     0
1070
   144
1040
1.0
1070
   277
1070
     2
1070
   284
1070
     8
1070
   278
1070
    46
1070
   146
1040
1.166667
1070
   345
1005
16
1070
   347
1005
16
1070
   346
1005
16
1070
   344
1005
0
1070
   343
1005
0
1070
   172
1070
     1
1070
    76
1070
     0
1070
    75
1070
     0
1070
   282
1070
     0
1070
   281
1070
     0
1070
    71
1070
     0
1070
    74
1070
     0
1070
   279
1070
     0
1070
   173
1070
     1
1070
   340
1005
137
1070
   271
1070
     2
1070
   272
1070
     2
1070
    77
1070
     1
1070
    73
1070
     1
1070
   171
1070
     3
1070
   274
1070
     4
1070
   177
1070
     2
1070
   176
1070
     2
1070
   178
1070
     2
1070
    78
1070
     8
1070
    48
1040
-0.1
1070
    41
1040
3.5
1070
   147
1040
1.5
1070
    42
1040
1.5875
1070
    44
1040
2.0
1070
   140
1040
3.0
1002
}
1001
ACAD_DSTYLE_DIM_LINETYPE
1070
   380
1005
16
1001
ACAD_DSTYLE_DIM_EXT1_LINETYPE
1070
   381
1005
16
1001
ACAD_DSTYLE_DIM_EXT2_LINETYPE
1070
   382
1005
16
0
ENDSEC
0
SECTION
2
OBJECTS
0
DICTIONARY
5
243
330
0
100
AcDbDictionary
280
0
281
1
3
ACAD_GROUP
350
244
3
ACAD_MLINESTYLE
350
245
0
DICTIONARY
5
244
330
0
100
AcDbDictionary
280
0
281
1
0
DICTIONARY
5
245
330
0
100
AcDbDictionary
280
0
281
1
3
Standard
350
18
0
MLINESTYLE
5
18
330
245
100
AcDbMlineStyle
2
Standard
70
0
3

62
256
51
90
52
90
71
2
49
-0.5
62
256
6
ByLayer
49
0.5
62
256
6
ByLayer
0
RASTERVARIABLES
5
231
330

100
AcDbRasterVariables
90
0
70
1
71
1
72
1
0
ENDSEC
0
EOF
