0
SECTION
2
HEADER
9
$ACADVER
1
AC1015
9
$DWGCODEPAGE
3
ANSI_1252
9
$HANDSEED
5
236
9
$ANGBASE
50
0
9
$ANGDIR
70
0
9
$ATTMODE
70
1
9
$AUNITS
70
0
9
$AUPREC
70
0
9
$CECOLOR
62
256
9
$CELTSCALE
40
1
9
$CELTYPE
6
ByLayer
9
$CELWEIGHT
370
18
9
$CLAYER
8
0
9
$CMLJUST
70
0
9
$CMLSCALE
40
1
9
$CMLSTYLE
2
Standard
9
$DIMSTYLE
2
Standard
9
$TEXTSIZE
40
0.2
9
$TEXTSTYLE
7
Standard
9
$LUNITS
70
2
9
$LUPREC
70
4
9
$EXTNAMES
290
1
9
$INSUNITS
70
4
9
$LTSCALE
40
1
9
$LWDISPLAY
290
1
9
$PDMODE
70
0
9
$PDSIZE
40
0
9
$PLINEGEN
70
0
0
ENDSEC
0
SECTION
2
CLASSES
0
CLASS
1
RASTERVARIABLES
2
AcDbRasterVariables
3
ISM
90
0
280
0
281
0
0
ENDSEC
0
SECTION
2
TABLES
0
TABLE
2
VPORT
5
22c
100
AcDbSymbolTable
0
VPORT
5
1
100
AcDbSymbolTableRecord
100
AcDbViewportTableRecord
2
*Active
70
0
10
0
20
0
11
1
21
1
12
-1
22
1
13
0
23
0
14
0.5
24
0.5
15
10
25
10
16
0
26
0
36
1
17
0
27
0
37
0
0
ENDTAB
0
TABLE
2
LTYPE
5
22d
100
AcDbSymbolTable
0
LTYPE
5
14
100
AcDbSymbolTableRecord
100
AcDbLinetypeTableRecord
70
0
2
ByBlock
3

72
65
73
0
40
0
0
LTYPE
5
15
100
AcDbSymbolTableRecord
100
AcDbLinetypeTableRecord
70
0
2
ByLayer
3

72
65
73
0
40
0
0
LTYPE
5
16
100
AcDbSymbolTableRecord
100
AcDbLinetypeTableRecord
70
0
2
Continuous
3
Solid line
72
65
73
0
40
0
0
LTYPE
5
6E
100
AcDbSymbolTableRecord
100
AcDbLinetypeTableRecord
70
0
2
CENTER
3
____ _ ____ _ ____ _ ____
72
65
73
4
40
47.5
49
22
74
0
49
-8.5
74
0
49
8.5
74
0
49
-8.5
74
0
0
LTYPE
5
6F
100
AcDbSymbolTableRecord
100
AcDbLinetypeTableRecord
70
0
2
DASHED
3
__ __ __ __ __ __ __ __ __
72
65
73
2
40
25.72
49
12.86
74
0
49
-12.86
74
0
0
ENDTAB
0
TABLE
2
LAYER
5
22e
100
AcDbSymbolTable
0
LAYER
5
10
100
AcDbSymbolTableRecord
100
AcDbLayerTableRecord
2
0
70
0
62
7
6
Continuous
290
1
370
-3
390
0
0
LAYER
5
71
100
AcDbSymbolTableRecord
100
AcDbLayerTableRecord
2
81
70
0
62
-3
6
Continuous
290
1
370
-3
390
0
0
LAYER
5
73
100
AcDbSymbolTableRecord
100
AcDbLayerTableRecord
2
80
70
0
62
-6
6
Continuous
290
1
370
-3
390
0
0
LAYER
5
75
100
AcDbSymbolTableRecord
100
AcDbLayerTableRecord
2
1
70
0
62
4
6
Continuous
290
1
370
-3
390
0
0
LAYER
5
87
100
AcDbSymbolTableRecord
100
AcDbLayerTableRecord
2
4
70
0
62
-2
6
CENTER
290
1
370
-3
390
0
0
LAYER
5
A9
100
AcDbSymbolTableRecord
100
AcDbLayerTableRecord
2
2
70
0
62
7
6
Continuous
290
1
370
-3
390
0
0
LAYER
5
141
100
AcDbSymbolTableRecord
100
AcDbLayerTableRecord
2
Defpoints
70
0
62
7
6
Continuous
290
0
370
-3
390
0
0
LAYER
5
218
100
AcDbSymbolTableRecord
100
AcDbLayerTableRecord
2
SK4
70
0
62
2
6
CENTER
290
1
370
-3
390
0
0
LAYER
5
219
100
AcDbSymbolTableRecord
100
AcDbLayerTableRecord
2
SK1
70
0
62
4
6
Continuous
290
1
370
-3
390
0
0
LAYER
5
21a
100
AcDbSymbolTableRecord
100
AcDbLayerTableRecord
2
SK2
70
0
62
7
6
Continuous
290
1
370
-3
390
0
0
LAYER
5
21b
100
AcDbSymbolTableRecord
100
AcDbLayerTableRecord
2
SK6
70
0
62
5
6
Continuous
290
1
370
-3
390
0
0
ENDTAB
0
TABLE
2
STYLE
5
22f
100
AcDbSymbolTable
0
STYLE
5
11
100
AcDbSymbolTableRecord
100
AcDbTextStyleTableRecord
2
Standard
3
txt
70
0
71
0
40
0
41
1
42
0
50
0
0
STYLE
5
11D
100
AcDbSymbolTableRecord
100
AcDbTextStyleTableRecord
2
iso_b_vert
3
simplex.shx
70
0
71
0
40
0
41
1
42
0
50
0
0
STYLE
5
11E
100
AcDbSymbolTableRecord
100
AcDbTextStyleTableRecord
2
DWGDirectTextStyle
3
simplex
70
0
71
0
40
0
41
1
42
0
50
0
0
ENDTAB
0
TABLE
2
DIMSTYLE
5
230
100
AcDbSymbolTable
100
AcDbDimStyleTable
0
DIMSTYLE
105
27
100
AcDbSymbolTableRecord
100
AcDbDimStyleTableRecord
2
Standard
70
0
3
<>
41
0.18
42
0.0625
44
0.18
140
0.18
147
0.09
73
0
74
0
77
1
271
2
275
0
278
52
280
0
340
11
0
ENDTAB
0
TABLE
2
VIEW
5
231
100
AcDbSymbolTable
0
ENDTAB
0
TABLE
2
UCS
5
232
100
AcDbSymbolTable
0
ENDTAB
0
TABLE
2
APPID
5
233
100
AcDbSymbolTable
0
APPID
5
12
100
AcDbSymbolTableRecord
100
AcDbRegAppTableRecord
2
ACAD
70
0
0
APPID
5
13D
100
AcDbSymbolTableRecord
100
AcDbRegAppTableRecord
2
ACAD_DSTYLE_DIMBREAK
70
0
0
APPID
5
1D7
100
AcDbSymbolTableRecord
100
AcDbRegAppTableRecord
2
ACAD_DSTYLE_DIM_LINETYPE
70
0
0
APPID
5
1D8
100
AcDbSymbolTableRecord
100
AcDbRegAppTableRecord
2
ACAD_DSTYLE_DIM_EXT1_LINETYPE
70
0
0
APPID
5
1D9
100
AcDbSymbolTableRecord
100
AcDbRegAppTableRecord
2
ACAD_DSTYLE_DIM_EXT2_LINETYPE
70
0
0
APPID
5
214
100
AcDbSymbolTableRecord
100
AcDbRegAppTableRecord
2
ACAD_MLEADERVER
70
0
0
ENDTAB
0
TABLE
2
BLOCK_RECORD
5
234
100
AcDbSymbolTable
0
BLOCK_RECORD
5
1F
100
AcDbSymbolTableRecord
100
AcDbBlockTableRecord
2
*Model_Space
340
0
70
0
0
BLOCK_RECORD
5
1B
100
AcDbSymbolTableRecord
100
AcDbBlockTableRecord
2
*Paper_Space
340
0
70
0
0
BLOCK_RECORD
5
23
100
AcDbSymbolTableRecord
100
AcDbBlockTableRecord
2
*Paper_Space0
340
0
70
0
0
BLOCK_RECORD
5
142
100
AcDbSymbolTableRecord
100
AcDbBlockTableRecord
2
*D1
340
0
70
0
0
BLOCK_RECORD
5
14E
100
AcDbSymbolTableRecord
100
AcDbBlockTableRecord
2
_U0
340
0
70
0
0
BLOCK_RECORD
5
15C
100
AcDbSymbolTableRecord
100
AcDbBlockTableRecord
2
*D3
340
0
70
0
0
BLOCK_RECORD
5
168
100
AcDbSymbolTableRecord
100
AcDbBlockTableRecord
2
_U1
340
0
70
0
0
BLOCK_RECORD
5
174
100
AcDbSymbolTableRecord
100
AcDbBlockTableRecord
2
*D5
340
0
70
0
0
BLOCK_RECORD
5
180
100
AcDbSymbolTableRecord
100
AcDbBlockTableRecord
2
_U2
340
0
70
0
0
BLOCK_RECORD
5
18C
100
AcDbSymbolTableRecord
100
AcDbBlockTableRecord
2
*D7
340
0
70
0
0
BLOCK_RECORD
5
198
100
AcDbSymbolTableRecord
100
AcDbBlockTableRecord
2
_U3
340
0
70
0
0
BLOCK_RECORD
5
1A4
100
AcDbSymbolTableRecord
100
AcDbBlockTableRecord
2
*D9
340
0
70
0
0
BLOCK_RECORD
5
1B0
100
AcDbSymbolTableRecord
100
AcDbBlockTableRecord
2
_U4
340
0
70
0
0
ENDTAB
0
ENDSEC
0
SECTION
2
BLOCKS
0
BLOCK
5
20
100
AcDbEntity
8
0
100
AcDbBlockBegin
2
*Model_Space
70
0
10
0
20
0
30
0
3
*Model_Space
0
ENDBLK
5
21
100
AcDbEntity
8
0
100
AcDbBlockEnd
0
BLOCK
5
1C
100
AcDbEntity
8
0
100
AcDbBlockBegin
2
*Paper_Space
70
0
10
0
20
0
30
0
3
*Paper_Space
0
ENDBLK
5
1D
100
AcDbEntity
8
0
100
AcDbBlockEnd
0
BLOCK
5
24
100
AcDbEntity
8
0
100
AcDbBlockBegin
2
*Paper_Space0
70
0
10
0
20
0
30
0
3
*Paper_Space0
0
ENDBLK
5
25
100
AcDbEntity
8
0
100
AcDbBlockEnd
0
BLOCK
5
143
100
AcDbEntity
8
0
100
AcDbBlockBegin
2
*D1
70
1
10
0
20
0
30
0
3
*D1
0
LINE
5
145
100
AcDbEntity
8
0
62
256
6
ByLayer
370
-2
48
1
60
0
100
AcDbLine
10
68
20
-4.5375
30
0
11
68
21
-20.631824
31
0
39
0
210
0
220
0
230
1
0
LINE
5
146
100
AcDbEntity
8
0
62
256
6
ByLayer
370
-2
48
1
60
0
100
AcDbLine
10
19.8
20
-4.5375
30
0
11
19.8
21
-20.631824
31
0
39
0
210
0
220
0
230
1
0
LINE
5
147
100
AcDbEntity
8
0
62
256
6
ByLayer
370
-2
48
1
60
0
100
AcDbLine
10
64.5
20
-18.631824
30
0
11
23.3
21
-18.631824
31
0
39
0
210
0
220
0
230
1
0
SOLID
5
148
100
AcDbEntity
8
0
62
256
6
ByLayer
370
-1
48
1
60
0
100
AcDbTrace
10
64.5
20
-19.215157
30
0
11
64.5
21
-18.048491
31
0
12
68
22
-18.631824
32
0
13
68
23
-18.631824
33
0
39
0
210
0
220
0
230
1
0
SOLID
5
149
100
AcDbEntity
8
0
62
256
6
ByLayer
370
-1
48
1
60
0
100
AcDbTrace
10
23.3
20
-18.048491
30
0
11
23.3
21
-19.215157
31
0
12
19.8
22
-18.631824
32
0
13
19.8
23
-18.631824
33
0
39
0
210
0
220
0
230
1
0
MTEXT
5
14A
100
AcDbEntity
8
0
62
256
6
ByLayer
370
18
48
1
60
0
100
AcDbMText
10
43.9
20
-12.631824
30
0
210
0
220
0
230
1
1
\A1;48.2
40
3
41
0
44
1
50
0
71
5
72
5
7
iso_b_vert
0
POINT
5
14B
100
AcDbEntity
8
Defpoints
62
0
6
ByLayer
370
-1
48
1
60
0
100
AcDbPoint
10
68
20
-2.95
30
0
39
0
210
0
220
0
230
1
50
360
0
POINT
5
14C
100
AcDbEntity
8
Defpoints
62
0
6
ByLayer
370
-1
48
1
60
0
100
AcDbPoint
10
19.8
20
-2.95
30
0
39
0
210
0
220
0
230
1
50
360
0
POINT
5
14D
100
AcDbEntity
8
Defpoints
62
0
6
ByLayer
370
-1
48
1
60
0
100
AcDbPoint
10
19.8
20
-18.631824
30
0
39
0
210
0
220
0
230
1
50
360
0
ENDBLK
5
144
100
AcDbEntity
8
0
100
AcDbBlockEnd
0
BLOCK
5
157
100
AcDbEntity
8
0
100
AcDbBlockBegin
2
_U0
70
0
10
0
20
0
30
0
3
_U0
0
MTEXT
5
14F
100
AcDbEntity
8
SK2
62
256
6
ByLayer
370
18
48
1
60
0
100
AcDbMText
10
40.380601
20
-16.43421
30
0
210
0
220
0
230
1
1
\W0.7640;48.2
40
3
41
0
44
1.084337
50
0
71
7
72
5
7
iso_b_vert
0
MTEXT
5
150
100
AcDbEntity
8
SK2
62
256
6
ByLayer
370
18
48
1
60
0
100
AcDbMText
10
38.280601
20
-16.43421
30
0
210
0
220
0
230
1
1
\W1.1313;{\H1.88x;(}
40
3
41
0
44
1.084337
50
0
71
7
72
5
7
iso_b_vert
0
MTEXT
5
151
100
AcDbEntity
8
SK2
62
256
6
ByLayer
370
18
48
1
60
0
100
AcDbMText
10
47.737399
20
-16.43421
30
0
210
0
220
0
230
1
1
\W1.1313;{\H1.88x;)}
40
3
41
0
44
1.084337
50
0
71
7
72
5
7
iso_b_vert
0
LINE
5
152
100
AcDbEntity
8
SK2
62
256
6
ByLayer
370
13
48
1
60
0
100
AcDbLine
10
68
20
-4.5375
30
0
11
68
21
-20.631824
31
0
39
0
210
0
220
0
230
1
0
LINE
5
153
100
AcDbEntity
8
SK2
62
256
6
ByLayer
370
13
48
1
60
0
100
AcDbLine
10
19.8
20
-4.5375
30
0
11
19.8
21
-20.631824
31
0
39
0
210
0
220
0
230
1
0
LINE
5
154
100
AcDbEntity
8
SK2
62
256
6
ByLayer
370
13
48
1
60
0
100
AcDbLine
10
68
20
-18.631824
30
0
11
19.8
21
-18.631824
31
0
39
0
210
0
220
0
230
1
0
SOLID
5
155
100
AcDbEntity
8
SK2
62
256
6
ByLayer
370
18
48
1
60
0
100
AcDbTrace
10
68
20
-18.631824
30
0
11
64.500002
21
-19.092608
31
0
12
64.499998
22
-18.17104
32
0
13
64.499998
23
-18.17104
33
0
39
0
210
0
220
0
230
1
0
SOLID
5
156
100
AcDbEntity
8
SK2
62
256
6
ByLayer
370
18
48
1
60
0
100
AcDbTrace
10
19.8
20
-18.631824
30
0
11
23.299998
21
-18.17104
31
0
12
23.300002
22
-19.092608
32
0
13
23.300002
23
-19.092608
33
0
39
0
210
0
220
0
230
1
0
ENDBLK
5
158
100
AcDbEntity
8
0
100
AcDbBlockEnd
0
BLOCK
5
15D
100
AcDbEntity
8
0
100
AcDbBlockBegin
2
*D3
70
1
10
0
20
0
30
0
3
*D3
0
LINE
5
15F
100
AcDbEntity
8
0
62
256
6
ByLayer
370
-2
48
1
60
0
100
AcDbLine
10
68
20
-4.5375
30
0
11
68
21
-30.631824
31
0
39
0
210
0
220
0
230
1
0
LINE
5
160
100
AcDbEntity
8
0
62
256
6
ByLayer
370
-2
48
1
60
0
100
AcDbLine
10
6
20
-4.5375
30
0
11
6
21
-30.631824
31
0
39
0
210
0
220
0
230
1
0
LINE
5
161
100
AcDbEntity
8
0
62
256
6
ByLayer
370
-2
48
1
60
0
100
AcDbLine
10
64.5
20
-28.631824
30
0
11
9.5
21
-28.631824
31
0
39
0
210
0
220
0
230
1
0
SOLID
5
162
100
AcDbEntity
8
0
62
256
6
ByLayer
370
-1
48
1
60
0
100
AcDbTrace
10
64.5
20
-29.215157
30
0
11
64.5
21
-28.048491
31
0
12
68
22
-28.631824
32
0
13
68
23
-28.631824
33
0
39
0
210
0
220
0
230
1
0
SOLID
5
163
100
AcDbEntity
8
0
62
256
6
ByLayer
370
-1
48
1
60
0
100
AcDbTrace
10
9.5
20
-28.048491
30
0
11
9.5
21
-29.215157
31
0
12
6
22
-28.631824
32
0
13
6
23
-28.631824
33
0
39
0
210
0
220
0
230
1
0
MTEXT
5
164
100
AcDbEntity
8
0
62
256
6
ByLayer
370
18
48
1
60
0
100
AcDbMText
10
37
20
-22.631824
30
0
210
0
220
0
230
1
1
\A1;62
40
3
41
0
44
1
50
0
71
5
72
5
7
iso_b_vert
0
POINT
5
165
100
AcDbEntity
8
Defpoints
62
0
6
ByLayer
370
-1
48
1
60
0
100
AcDbPoint
10
68
20
-2.95
30
0
39
0
210
0
220
0
230
1
50
360
0
POINT
5
166
100
AcDbEntity
8
Defpoints
62
0
6
ByLayer
370
-1
48
1
60
0
100
AcDbPoint
10
6
20
-2.95
30
0
39
0
210
0
220
0
230
1
50
360
0
POINT
5
167
100
AcDbEntity
8
Defpoints
62
0
6
ByLayer
370
-1
48
1
60
0
100
AcDbPoint
10
6
20
-28.631824
30
0
39
0
210
0
220
0
230
1
50
360
0
ENDBLK
5
15E
100
AcDbEntity
8
0
100
AcDbBlockEnd
0
BLOCK
5
16F
100
AcDbEntity
8
0
100
AcDbBlockBegin
2
_U1
70
0
10
0
20
0
30
0
3
_U1
0
MTEXT
5
169
100
AcDbEntity
8
SK2
62
256
6
ByLayer
370
18
48
1
60
0
100
AcDbMText
10
35.367172
20
-27.74671
30
0
210
0
220
0
230
1
1
\W0.6740;62
40
3
41
0
44
1.084337
50
0
71
7
72
5
7
iso_b_vert
0
LINE
5
16A
100
AcDbEntity
8
SK2
62
256
6
ByLayer
370
13
48
1
60
0
100
AcDbLine
10
68
20
-4.5375
30
0
11
68
21
-30.631824
31
0
39
0
210
0
220
0
230
1
0
LINE
5
16B
100
AcDbEntity
8
SK2
62
256
6
ByLayer
370
13
48
1
60
0
100
AcDbLine
10
6
20
-4.5375
30
0
11
6
21
-30.631824
31
0
39
0
210
0
220
0
230
1
0
LINE
5
16C
100
AcDbEntity
8
SK2
62
256
6
ByLayer
370
13
48
1
60
0
100
AcDbLine
10
68
20
-28.631824
30
0
11
6
21
-28.631824
31
0
39
0
210
0
220
0
230
1
0
SOLID
5
16D
100
AcDbEntity
8
SK2
62
256
6
ByLayer
370
18
48
1
60
0
100
AcDbTrace
10
68
20
-28.631824
30
0
11
64.500002
21
-29.092608
31
0
12
64.499998
22
-28.17104
32
0
13
64.499998
23
-28.17104
33
0
39
0
210
0
220
0
230
1
0
SOLID
5
16E
100
AcDbEntity
8
SK2
62
256
6
ByLayer
370
18
48
1
60
0
100
AcDbTrace
10
6
20
-28.631824
30
0
11
9.499998
21
-28.17104
31
0
12
9.500002
22
-29.092608
32
0
13
9.500002
23
-29.092608
33
0
39
0
210
0
220
0
230
1
0
ENDBLK
5
170
100
AcDbEntity
8
0
100
AcDbBlockEnd
0
BLOCK
5
175
100
AcDbEntity
8
0
100
AcDbBlockBegin
2
*D5
70
1
10
0
20
0
30
0
3
*D5
0
LINE
5
177
100
AcDbEntity
8
0
62
256
6
ByLayer
370
-2
48
1
60
0
100
AcDbLine
10
-36
20
-4.5875
30
0
11
-36
21
-38.631824
31
0
39
0
210
0
220
0
230
1
0
LINE
5
178
100
AcDbEntity
8
0
62
256
6
ByLayer
370
-2
48
1
60
0
100
AcDbLine
10
0
20
-4.5875
30
0
11
0
21
-38.631824
31
0
39
0
210
0
220
0
230
1
0
LINE
5
179
100
AcDbEntity
8
0
62
256
6
ByLayer
370
-2
48
1
60
0
100
AcDbLine
10
-32.5
20
-36.631824
30
0
11
-3.5
21
-36.631824
31
0
39
0
210
0
220
0
230
1
0
SOLID
5
17A
100
AcDbEntity
8
0
62
256
6
ByLayer
370
-1
48
1
60
0
100
AcDbTrace
10
-32.5
20
-36.048491
30
0
11
-32.5
21
-37.215157
31
0
12
-36
22
-36.631824
32
0
13
-36
23
-36.631824
33
0
39
0
210
0
220
0
230
1
0
SOLID
5
17B
100
AcDbEntity
8
0
62
256
6
ByLayer
370
-1
48
1
60
0
100
AcDbTrace
10
-3.5
20
-37.215157
30
0
11
-3.5
21
-36.048491
31
0
12
0
22
-36.631824
32
0
13
0
23
-36.631824
33
0
39
0
210
0
220
0
230
1
0
MTEXT
5
17C
100
AcDbEntity
8
0
62
256
6
ByLayer
370
18
48
1
60
0
100
AcDbMText
10
-18
20
-30.631824
30
0
210
0
220
0
230
1
1
\A1;36
40
3
41
0
44
1
50
0
71
5
72
5
7
iso_b_vert
0
POINT
5
17D
100
AcDbEntity
8
Defpoints
62
0
6
ByLayer
370
-1
48
1
60
0
100
AcDbPoint
10
-36
20
-3
30
0
39
0
210
0
220
0
230
1
50
360
0
POINT
5
17E
100
AcDbEntity
8
Defpoints
62
0
6
ByLayer
370
-1
48
1
60
0
100
AcDbPoint
10
0
20
-3
30
0
39
0
210
0
220
0
230
1
50
360
0
POINT
5
17F
100
AcDbEntity
8
Defpoints
62
0
6
ByLayer
370
-1
48
1
60
0
100
AcDbPoint
10
0
20
-36.631824
30
0
39
0
210
0
220
0
230
1
50
360
0
ENDBLK
5
176
100
AcDbEntity
8
0
100
AcDbBlockEnd
0
BLOCK
5
187
100
AcDbEntity
8
0
100
AcDbBlockBegin
2
_U2
70
0
10
0
20
0
30
0
3
_U2
0
MTEXT
5
181
100
AcDbEntity
8
SK2
62
256
6
ByLayer
370
18
48
1
60
0
100
AcDbMText
10
-19.632828
20
-35.74671
30
0
210
0
220
0
230
1
1
\W0.6740;36
40
3
41
0
44
1.084337
50
0
71
7
72
5
7
iso_b_vert
0
LINE
5
182
100
AcDbEntity
8
SK2
62
256
6
ByLayer
370
13
48
1
60
0
100
AcDbLine
10
-36
20
-4.5875
30
0
11
-36
21
-38.631824
31
0
39
0
210
0
220
0
230
1
0
LINE
5
183
100
AcDbEntity
8
SK2
62
256
6
ByLayer
370
13
48
1
60
0
100
AcDbLine
10
0
20
-4.5875
30
0
11
0
21
-38.631824
31
0
39
0
210
0
220
0
230
1
0
LINE
5
184
100
AcDbEntity
8
SK2
62
256
6
ByLayer
370
13
48
1
60
0
100
AcDbLine
10
-36
20
-36.631824
30
0
11
0
21
-36.631824
31
0
39
0
210
0
220
0
230
1
0
SOLID
5
185
100
AcDbEntity
8
SK2
62
256
6
ByLayer
370
18
48
1
60
0
100
AcDbTrace
10
-36
20
-36.631824
30
0
11
-32.500002
21
-36.17104
31
0
12
-32.499998
22
-37.092608
32
0
13
-32.499998
23
-37.092608
33
0
39
0
210
0
220
0
230
1
0
SOLID
5
186
100
AcDbEntity
8
SK2
62
256
6
ByLayer
370
18
48
1
60
0
100
AcDbTrace
10
0
20
-36.631824
30
0
11
-3.499998
21
-37.092608
31
0
12
-3.500002
22
-36.17104
32
0
13
-3.500002
23
-36.17104
33
0
39
0
210
0
220
0
230
1
0
ENDBLK
5
188
100
AcDbEntity
8
0
100
AcDbBlockEnd
0
BLOCK
5
18D
100
AcDbEntity
8
0
100
AcDbBlockBegin
2
*D7
70
1
10
0
20
0
30
0
3
*D7
0
LINE
5
18F
100
AcDbEntity
8
0
62
256
6
ByLayer
370
-2
48
1
60
0
100
AcDbLine
10
-36
20
-4.5875
30
0
11
-36
21
-46.631824
31
0
39
0
210
0
220
0
230
1
0
LINE
5
190
100
AcDbEntity
8
0
62
256
6
ByLayer
370
-2
48
1
60
0
100
AcDbLine
10
68
20
-4.5375
30
0
11
68
21
-46.631824
31
0
39
0
210
0
220
0
230
1
0
LINE
5
191
100
AcDbEntity
8
0
62
256
6
ByLayer
370
-2
48
1
60
0
100
AcDbLine
10
-32.5
20
-44.631824
30
0
11
64.5
21
-44.631824
31
0
39
0
210
0
220
0
230
1
0
SOLID
5
192
100
AcDbEntity
8
0
62
256
6
ByLayer
370
-1
48
1
60
0
100
AcDbTrace
10
-32.5
20
-44.048491
30
0
11
-32.5
21
-45.215157
31
0
12
-36
22
-44.631824
32
0
13
-36
23
-44.631824
33
0
39
0
210
0
220
0
230
1
0
SOLID
5
193
100
AcDbEntity
8
0
62
256
6
ByLayer
370
-1
48
1
60
0
100
AcDbTrace
10
64.5
20
-45.215157
30
0
11
64.5
21
-44.048491
31
0
12
68
22
-44.631824
32
0
13
68
23
-44.631824
33
0
39
0
210
0
220
0
230
1
0
MTEXT
5
194
100
AcDbEntity
8
0
62
256
6
ByLayer
370
18
48
1
60
0
100
AcDbMText
10
16
20
-38.631824
30
0
210
0
220
0
230
1
1
\A1;104
40
3
41
0
44
1
50
0
71
5
72
5
7
iso_b_vert
0
POINT
5
195
100
AcDbEntity
8
Defpoints
62
0
6
ByLayer
370
-1
48
1
60
0
100
AcDbPoint
10
-36
20
-3
30
0
39
0
210
0
220
0
230
1
50
360
0
POINT
5
196
100
AcDbEntity
8
Defpoints
62
0
6
ByLayer
370
-1
48
1
60
0
100
AcDbPoint
10
68
20
-2.95
30
0
39
0
210
0
220
0
230
1
50
360
0
POINT
5
197
100
AcDbEntity
8
Defpoints
62
0
6
ByLayer
370
-1
48
1
60
0
100
AcDbPoint
10
68
20
-44.631824
30
0
39
0
210
0
220
0
230
1
50
360
0
ENDBLK
5
18E
100
AcDbEntity
8
0
100
AcDbBlockEnd
0
BLOCK
5
19F
100
AcDbEntity
8
0
100
AcDbBlockBegin
2
_U3
70
0
10
0
20
0
30
0
3
_U3
0
MTEXT
5
199
100
AcDbEntity
8
SK2
62
256
6
ByLayer
370
18
48
1
60
0
100
AcDbMText
10
13.463258
20
-43.74671
30
0
210
0
220
0
230
1
1
\W0.6506;104
40
3
41
0
44
1.084337
50
0
71
7
72
5
7
iso_b_vert
0
LINE
5
19A
100
AcDbEntity
8
SK2
62
256
6
ByLayer
370
13
48
1
60
0
100
AcDbLine
10
-36
20
-4.5875
30
0
11
-36
21
-46.631824
31
0
39
0
210
0
220
0
230
1
0
LINE
5
19B
100
AcDbEntity
8
SK2
62
256
6
ByLayer
370
13
48
1
60
0
100
AcDbLine
10
68
20
-4.5375
30
0
11
68
21
-46.631824
31
0
39
0
210
0
220
0
230
1
0
LINE
5
19C
100
AcDbEntity
8
SK2
62
256
6
ByLayer
370
13
48
1
60
0
100
AcDbLine
10
-36
20
-44.631824
30
0
11
68
21
-44.631824
31
0
39
0
210
0
220
0
230
1
0
SOLID
5
19D
100
AcDbEntity
8
SK2
62
256
6
ByLayer
370
18
48
1
60
0
100
AcDbTrace
10
-36
20
-44.631824
30
0
11
-32.500002
21
-44.17104
31
0
12
-32.499998
22
-45.092608
32
0
13
-32.499998
23
-45.092608
33
0
39
0
210
0
220
0
230
1
0
SOLID
5
19E
100
AcDbEntity
8
SK2
62
256
6
ByLayer
370
18
48
1
60
0
100
AcDbTrace
10
68
20
-44.631824
30
0
11
64.500002
21
-45.092608
31
0
12
64.499998
22
-44.17104
32
0
13
64.499998
23
-44.17104
33
0
39
0
210
0
220
0
230
1
0
ENDBLK
5
1A0
100
AcDbEntity
8
0
100
AcDbBlockEnd
0
BLOCK
5
1A5
100
AcDbEntity
8
0
100
AcDbBlockBegin
2
*D9
70
1
10
0
20
0
30
0
3
*D9
0
LINE
5
1A7
100
AcDbEntity
8
0
62
256
6
ByLayer
370
-2
48
1
60
0
100
AcDbLine
10
68
20
-4.5375
30
0
11
68
21
-38.631824
31
0
39
0
210
0
220
0
230
1
0
LINE
5
1A8
100
AcDbEntity
8
0
62
256
6
ByLayer
370
-2
48
1
60
0
100
AcDbLine
10
0
20
-4.5375
30
0
11
0
21
-38.631824
31
0
39
0
210
0
220
0
230
1
0
LINE
5
1A9
100
AcDbEntity
8
0
62
256
6
ByLayer
370
-2
48
1
60
0
100
AcDbLine
10
64.5
20
-36.631824
30
0
11
3.5
21
-36.631824
31
0
39
0
210
0
220
0
230
1
0
SOLID
5
1AA
100
AcDbEntity
8
0
62
256
6
ByLayer
370
-1
48
1
60
0
100
AcDbTrace
10
64.5
20
-37.215157
30
0
11
64.5
21
-36.048491
31
0
12
68
22
-36.631824
32
0
13
68
23
-36.631824
33
0
39
0
210
0
220
0
230
1
0
SOLID
5
1AB
100
AcDbEntity
8
0
62
256
6
ByLayer
370
-1
48
1
60
0
100
AcDbTrace
10
3.5
20
-36.048491
30
0
11
3.5
21
-37.215157
31
0
12
0
22
-36.631824
32
0
13
0
23
-36.631824
33
0
39
0
210
0
220
0
230
1
0
MTEXT
5
1AC
100
AcDbEntity
8
0
62
256
6
ByLayer
370
18
48
1
60
0
100
AcDbMText
10
34
20
-30.631824
30
0
210
0
220
0
230
1
1
\A1;68
40
3
41
0
44
1
50
0
71
5
72
5
7
iso_b_vert
0
POINT
5
1AD
100
AcDbEntity
8
Defpoints
62
0
6
ByLayer
370
-1
48
1
60
0
100
AcDbPoint
10
68
20
-2.95
30
0
39
0
210
0
220
0
230
1
50
360
0
POINT
5
1AE
100
AcDbEntity
8
Defpoints
62
0
6
ByLayer
370
-1
48
1
60
0
100
AcDbPoint
10
0
20
-2.95
30
0
39
0
210
0
220
0
230
1
50
360
0
POINT
5
1AF
100
AcDbEntity
8
Defpoints
62
0
6
ByLayer
370
-1
48
1
60
0
100
AcDbPoint
10
0
20
-36.631824
30
0
39
0
210
0
220
0
230
1
50
360
0
ENDBLK
5
1A6
100
AcDbEntity
8
0
100
AcDbBlockEnd
0
BLOCK
5
1B7
100
AcDbEntity
8
0
100
AcDbBlockBegin
2
_U4
70
0
10
0
20
0
30
0
3
_U4
0
MTEXT
5
1B1
100
AcDbEntity
8
2
62
256
6
ByLayer
370
18
48
1
60
0
100
AcDbMText
10
32.367172
20
-35.74671
30
0
210
0
220
0
230
1
1
\W0.6740;68
40
3
41
0
44
1.084337
50
0
71
7
72
5
7
iso_b_vert
0
LINE
5
1B2
100
AcDbEntity
8
2
62
256
6
ByLayer
370
13
48
1
60
0
100
AcDbLine
10
68
20
-4.5375
30
0
11
68
21
-38.631824
31
0
39
0
210
0
220
0
230
1
0
LINE
5
1B3
100
AcDbEntity
8
2
62
256
6
ByLayer
370
13
48
1
60
0
100
AcDbLine
10
0
20
-4.5375
30
0
11
0
21
-38.631824
31
0
39
0
210
0
220
0
230
1
0
LINE
5
1B4
100
AcDbEntity
8
2
62
256
6
ByLayer
370
13
48
1
60
0
100
AcDbLine
10
68
20
-36.631824
30
0
11
0
21
-36.631824
31
0
39
0
210
0
220
0
230
1
0
SOLID
5
1B5
100
AcDbEntity
8
2
62
256
6
ByLayer
370
18
48
1
60
0
100
AcDbTrace
10
68
20
-36.631824
30
0
11
64.500002
21
-37.092608
31
0
12
64.499998
22
-36.17104
32
0
13
64.499998
23
-36.17104
33
0
39
0
210
0
220
0
230
1
0
SOLID
5
1B6
100
AcDbEntity
8
2
62
256
6
ByLayer
370
18
48
1
60
0
100
AcDbTrace
10
0
20
-36.631824
30
0
11
3.499998
21
-36.17104
31
0
12
3.500002
22
-37.092608
32
0
13
3.500002
23
-37.092608
33
0
39
0
210
0
220
0
230
1
0
ENDBLK
5
1B8
100
AcDbEntity
8
0
100
AcDbBlockEnd
0
ENDSEC
0
SECTION
2
ENTITIES
0
ARC
5
C4
100
AcDbEntity
8
1
62
256
6
ByLayer
370
18
48
1
60
0
100
AcDbCircle
39
0
10
0.327179
20
-3.030117
30
0
40
0.200000000000001
210
0
220
0
230
1
100
AcDbArc
50
89.896868
51
144.879969
0
ARC
5
C5
100
AcDbEntity
8
1
62
256
6
ByLayer
370
18
48
1
60
0
100
AcDbCircle
39
0
10
0.327179
20
3.030117
30
0
40
0.200000000000001
210
0
220
0
230
1
100
AcDbArc
50
215.120031
51
270.103132
0
ARC
5
C6
100
AcDbEntity
8
1
62
256
6
ByLayer
370
18
48
1
60
0
100
AcDbCircle
39
0
10
0
20
-2.8
30
0
40
0.199999999999996
210
0
220
0
230
1
100
AcDbArc
50
270
51
324.879969
0
ARC
5
C7
100
AcDbEntity
8
1
62
256
6
ByLayer
370
18
48
1
60
0
100
AcDbCircle
39
0
10
0
20
2.8
30
0
40
0.199999999999996
210
0
220
0
230
1
100
AcDbArc
50
35.120031
51
90
0
ARC
5
C8
100
AcDbEntity
8
SK2
62
256
6
ByLayer
370
13
48
1
60
0
100
AcDbCircle
39
0
10
68
20
0
30
0
40
18.8356139261222
210
0
220
0
230
1
100
AcDbArc
50
9.164686
51
69.995064
0
ARC
5
C9
100
AcDbEntity
8
SK2
62
256
6
ByLayer
370
13
48
1
60
0
100
AcDbCircle
39
0
10
68
20
0
30
0
40
18.8356139261222
210
0
220
0
230
1
100
AcDbArc
50
290.004936
51
350.835314
0
ELLIPSE
5
CA
100
AcDbEntity
8
1
62
256
6
ByLayer
370
18
48
1
60
0
100
AcDbEllipse
10
38.600304
20
-2.85212
30
0
11
0.1
21
0
31
0
210
0
220
0
230
1
40
1
41
1.57819850573671
42
3.14145181630402
0
ELLIPSE
5
CB
100
AcDbEntity
8
1
62
256
6
ByLayer
370
18
48
1
60
0
100
AcDbEllipse
10
38.600304
20
2.85212
30
0
11
0.1
21
0
31
0
210
0
220
0
230
1
40
1
41
-3.14145181630401
42
-1.54842445232546
0
POINT
5
70
100
AcDbEntity
8
81
62
256
6
ByLayer
370
18
48
1
60
0
100
AcDbPoint
10
68
20
0
30
0
39
0
210
0
220
0
230
1
50
360
0
POINT
5
72
100
AcDbEntity
8
80
62
256
6
ByLayer
370
18
48
1
60
0
100
AcDbPoint
10
0
20
0
30
0
39
0
210
0
220
0
230
1
50
360
0
POINT
5
74
100
AcDbEntity
8
1
62
256
6
ByLayer
370
18
48
1
60
0
100
AcDbPoint
10
-202.757193
20
-200
30
0
39
0
210
0
220
0
230
1
50
360
0
POINT
5
76
100
AcDbEntity
8
1
62
256
6
ByLayer
370
13
48
1
60
1
100
AcDbPoint
10
-37.5
20
0
30
0
39
0
210
0
220
0
230
1
50
360
0
POINT
5
77
100
AcDbEntity
8
1
62
256
6
ByLayer
370
13
48
1
60
1
100
AcDbPoint
10
68.402098
20
0
30
0
39
0
210
0
220
0
230
1
50
360
0
POINT
5
78
100
AcDbEntity
8
1
62
256
6
ByLayer
370
18
48
1
60
1
100
AcDbPoint
10
68
20
-2.95
30
0
39
0
210
0
220
0
230
1
50
360
0
POINT
5
79
100
AcDbEntity
8
1
62
256
6
ByLayer
370
18
48
1
60
1
100
AcDbPoint
10
19.8
20
-2.95
30
0
39
0
210
0
220
0
230
1
50
360
0
POINT
5
7A
100
AcDbEntity
8
1
62
256
6
ByLayer
370
18
48
1
60
1
100
AcDbPoint
10
68
20
-2.95
30
0
39
0
210
0
220
0
230
1
50
360
0
POINT
5
7B
100
AcDbEntity
8
1
62
256
6
ByLayer
370
18
48
1
60
1
100
AcDbPoint
10
6
20
-2.95
30
0
39
0
210
0
220
0
230
1
50
360
0
POINT
5
7C
100
AcDbEntity
8
1
62
256
6
ByLayer
370
18
48
1
60
1
100
AcDbPoint
10
-36
20
-3
30
0
39
0
210
0
220
0
230
1
50
360
0
POINT
5
7D
100
AcDbEntity
8
1
62
256
6
ByLayer
370
18
48
1
60
1
100
AcDbPoint
10
0
20
-3
30
0
39
0
210
0
220
0
230
1
50
360
0
POINT
5
7E
100
AcDbEntity
8
1
62
256
6
ByLayer
370
18
48
1
60
1
100
AcDbPoint
10
-36
20
-3
30
0
39
0
210
0
220
0
230
1
50
360
0
POINT
5
7F
100
AcDbEntity
8
1
62
256
6
ByLayer
370
18
48
1
60
1
100
AcDbPoint
10
68
20
-2.95
30
0
39
0
210
0
220
0
230
1
50
360
0
POINT
5
80
100
AcDbEntity
8
1
62
256
6
ByLayer
370
18
48
1
60
1
100
AcDbPoint
10
68
20
-2.95
30
0
39
0
210
0
220
0
230
1
50
360
0
POINT
5
81
100
AcDbEntity
8
1
62
256
6
ByLayer
370
18
48
1
60
1
100
AcDbPoint
10
0
20
-2.95
30
0
39
0
210
0
220
0
230
1
50
360
0
SPLINE
5
CC
100
AcDbEntity
8
1
62
256
6
ByLayer
370
18
48
1
60
0
100
AcDbSpline
70
4
71
3
72
8
73
4
40
0
40
0
40
0
40
0
40
1
40
1
40
1
40
1
41
1
10
67.7065148203818
20
0.957895997865734
30
0
41
1
10
67.7811010530446
20
0.749763587967493
30
0
41
1
10
67.8550955162341
20
0.541422762772157
30
0
41
1
10
67.9284867779224
20
0.332869496033737
30
0
0
SPLINE
5
CD
100
AcDbEntity
8
1
62
256
6
ByLayer
370
18
48
1
60
0
100
AcDbSpline
70
4
71
3
72
8
73
4
40
0
40
0
40
0
40
0
40
1
40
1
40
1
40
1
41
1
10
67.9284867779224
20
0.332869496033737
30
0
41
1
10
67.9513762567659
20
0.267825300349728
30
0
41
1
10
67.9747352897879
20
0.203048598686365
30
0
41
1
10
67.9985718935732
20
0.138533473218189
30
0
0
SPLINE
5
CE
100
AcDbEntity
8
1
62
256
6
ByLayer
370
18
48
1
60
0
100
AcDbSpline
70
4
71
3
72
10
73
6
40
0
40
0
40
0
40
0
40
0.433509032541319
40
0.433509032541319
40
1
40
1
40
1
40
1
41
1
10
67.3218236168451
20
-0.514674080386499
30
0
41
1
10
67.3511974780005
20
-0.534267062227769
30
0
41
1
10
67.3810486651605
20
-0.55417401586908
30
0
41
1
10
67.4506697458668
20
-0.60075244844316
30
0
41
1
10
67.4906829459213
20
-0.627628758676366
30
0
41
1
10
67.531087126961
20
-0.655046297114779
30
0
0
SPLINE
5
CF
100
AcDbEntity
8
1
62
256
6
ByLayer
370
18
48
1
60
0
100
AcDbSpline
70
4
71
3
72
29
73
25
40
0
40
0
40
0
40
0
40
0.124999999999999
40
0.124999999999999
40
0.187500000000005
40
0.187500000000005
40
0.218750000000008
40
0.218750000000008
40
0.250000000000011
40
0.250000000000011
40
0.375000000000009
40
0.375000000000009
40
0.500000000000007
40
0.500000000000007
40
0.625000000000005
40
0.625000000000005
40
0.750000000000003
40
0.750000000000003
40
0.781250000000003
40
0.781250000000003
40
0.812500000000003
40
0.875000000000002
40
0.875000000000002
40
1
40
1
40
1
40
1
41
1
10
67.9985718935641
20
0.138533473221287
30
0
41
1
10
67.9828756968938
20
0.0928150465203998
30
0
41
1
10
67.9661473773465
20
0.0475871213081689
30
0
41
1
10
67.9395435763198
20
-0.0195220042909341
30
0
41
1
10
67.9304228819993
20
-0.0417691641544593
30
0
41
1
10
67.9163583466232
20
-0.0749520698824711
30
0
41
1
10
67.9115981424178
20
-0.0859994693687725
30
0
41
1
10
67.9020278933848
20
-0.107850722825418
30
0
41
1
10
67.8972102902599
20
-0.118673005363348
30
0
41
1
10
67.8729661103432
20
-0.172272134932456
30
0
41
1
10
67.8530747223481
20
-0.213520750136155
30
0
41
1
10
67.8123993856827
20
-0.292733573657358
30
0
41
1
10
67.791610076988
20
-0.330710151748775
30
0
41
1
10
67.7491634127902
20
-0.403069667423949
30
0
41
1
10
67.7281393050138
20
-0.436374321010106
30
0
41
1
10
67.686504872008
20
-0.497356808388048
30
0
41
1
10
67.6658946503741
20
-0.525035975903677
30
0
41
1
10
67.6403795188249
20
-0.555919142195734
30
0
41
1
10
67.6352758318893
20
-0.56192334205187
30
0
41
1
10
67.6251656779819
20
-0.573465042243811
30
0
41
1
10
67.6101535733875
20
-0.590072177218872
30
0
41
1
10
67.5955862807541
20
-0.604598471945138
30
0
41
1
10
67.5670123312223
20
-0.630919501720626
30
0
41
1
10
67.5487090543156
20
-0.644841446603323
30
0
41
1
10
67.531087126961
20
-0.655046297114751
30
0
0
SPLINE
5
D0
100
AcDbEntity
8
1
62
256
6
ByLayer
370
18
48
1
60
0
100
AcDbSpline
70
4
71
3
72
78
73
74
40
0
40
0
40
0
40
0
40
0.0312500000000102
40
0.0312500000000102
40
0.0468750000000129
40
0.0468750000000129
40
0.0625000000000156
40
0.0625000000000156
40
0.0937500000000149
40
0.0937500000000149
40
0.109375000000011
40
0.109375000000011
40
0.125000000000007
40
0.125000000000007
40
0.187500000000007
40
0.187500000000007
40
0.250000000000007
40
0.250000000000007
40
0.281250000000002
40
0.281250000000002
40
0.312499999999997
40
0.312499999999997
40
0.328124999999991
40
0.328124999999991
40
0.343749999999984
40
0.374999999999979
40
0.406249999999974
40
0.406249999999974
40
0.421874999999975
40
0.421874999999975
40
0.437499999999976
40
0.437499999999976
40
0.499999999999989
40
0.499999999999989
40
0.515624999999991
40
0.515624999999991
40
0.531249999999992
40
0.562499999999991
40
0.562499999999991
40
0.59374999999999
40
0.59374999999999
40
0.609374999999991
40
0.609374999999991
40
0.624999999999991
40
0.656249999999993
40
0.656249999999993
40
0.671874999999995
40
0.671874999999995
40
0.687499999999996
40
0.687499999999996
40
0.750000000000001
40
0.750000000000001
40
0.765625000000003
40
0.765625000000003
40
0.781250000000006
40
0.781250000000006
40
0.812500000000011
40
0.812500000000011
40
0.843750000000015
40
0.843750000000015
40
0.87500000000002
40
0.87500000000002
40
0.890625000000019
40
0.890625000000019
40
0.906250000000017
40
0.906250000000017
40
0.937500000000015
40
0.937500000000015
40
0.953125000000013
40
0.953125000000013
40
0.968750000000012
40
0.968750000000012
40
1
40
1
40
1
40
1
41
1
10
67.5310871269609
20
-0.655046297114751
30
0
41
1
10
67.5284581200041
20
-0.671652031206747
30
0
41
1
10
67.525250888067
20
-0.688596094856422
30
0
41
1
10
67.5196034528763
20
-0.714517232773517
30
0
41
1
10
67.5175810529331
20
-0.723242104113069
30
0
41
1
10
67.5132556541242
20
-0.740864340960712
30
0
41
1
10
67.5109409389353
20
-0.749803171219696
30
0
41
1
10
67.5036803091934
20
-0.776487060421829
30
0
41
1
10
67.4984172451645
20
-0.794131894086803
30
0
41
1
10
67.4899463138577
20
-0.820401578230104
30
0
41
1
10
67.4870261703519
20
-0.829125060693571
30
0
41
1
10
67.4809976582193
20
-0.846507397924057
30
0
41
1
10
67.4778773387073
20
-0.855198038219044
30
0
41
1
10
67.4619642567124
20
-0.898078808002339
30
0
41
1
10
67.4483835219391
20
-0.93029335117015
30
0
41
1
10
67.4198404137387
20
-0.990982182474653
30
0
41
1
10
67.4054253363298
20
-1.01828211717253
30
0
41
1
10
67.3837255094814
20
-1.05502661119198
30
0
41
1
10
67.3764622946761
20
-1.06658042066948
30
0
41
1
10
67.3621964151904
20
-1.08783511254708
30
0
41
1
10
67.3551562718417
20
-1.09760256695827
30
0
41
1
10
67.3447288690606
20
-1.11098401945412
30
0
41
1
10
67.341277063588
20
-1.11522854053797
30
0
41
1
10
67.334492448901
20
-1.12320565564696
30
0
41
1
10
67.3244607508103
20
-1.13444545385315
30
0
41
1
10
67.3084361555999
20
-1.14965251524242
30
0
41
1
10
67.296318094598
20
-1.15810736427156
30
0
41
1
10
67.2874874452916
20
-1.1630093240297
30
0
41
1
10
67.2845845403264
20
-1.16440207040176
30
0
41
1
10
67.2789369341854
20
-1.16666731948257
30
0
41
1
10
67.2761827572375
20
-1.16754571125912
30
0
41
1
10
67.2627490269694
20
-1.17068144672578
30
0
41
1
10
67.2530660366122
20
-1.16923022669184
30
0
41
1
10
67.2422672817049
20
-1.1621157753226
30
0
41
1
10
67.2401736029821
20
-1.16042073482319
30
0
41
1
10
67.2361769226595
20
-1.15653201895324
30
0
41
1
10
67.2304449225131
20
-1.1499363298465
30
0
41
1
10
67.225482541908
20
-1.14107323959908
30
0
41
1
10
67.2195500210576
20
-1.12718350406354
30
0
41
1
10
67.2169254439564
20
-1.11920350994757
30
0
41
1
10
67.2135319674563
20
-1.10555169282733
30
0
41
1
10
67.2124957051081
20
-1.10072974620115
30
0
41
1
10
67.2106400667648
20
-1.0906693390917
30
0
41
1
10
67.2081695625268
20
-1.07490164004494
30
0
41
1
10
67.2066278006727
20
-1.05711347546941
30
0
41
1
10
67.2057296885
20
-1.0379216565436
30
0
41
1
10
67.2055380121558
20
-1.0312896547031
30
0
41
1
10
67.2053799569383
20
-1.01753575705129
30
0
41
1
10
67.2054145594861
20
-1.01037904695974
30
0
41
1
10
67.2061744575838
20
-0.97378739924693
30
0
41
1
10
67.2085959161167
20
-0.942124790711944
30
0
41
1
10
67.2140998680848
20
-0.8994204896795
30
0
41
1
10
67.2153340597724
20
-0.890678789866769
30
0
41
1
10
67.2180249228166
20
-0.873156542464955
30
0
41
1
10
67.2194825222306
20
-0.864360289601251
30
0
41
1
10
67.2241906368747
20
-0.837869370136559
30
0
41
1
10
67.2277746994544
20
-0.820073023869526
30
0
41
1
10
67.2358701087166
20
-0.784213859227066
30
0
41
1
10
67.2404223111864
20
-0.766023602892403
30
0
41
1
10
67.2501908275008
20
-0.730587192669589
30
0
41
1
10
67.2554288914989
20
-0.713218093352026
30
0
41
1
10
67.2638188818445
20
-0.687675514035334
30
0
41
1
10
67.2667046507084
20
-0.679246808928724
30
0
41
1
10
67.2726581976082
20
-0.662561871557244
30
0
41
1
10
67.2757204263157
20
-0.654324277869136
30
0
41
1
10
67.2850356740072
20
-0.630247311602801
30
0
41
1
10
67.2914618928249
20
-0.614912580127282
30
0
41
1
10
67.3014175067341
20
-0.592922927140421
30
0
41
1
10
67.3047888993959
20
-0.585762424636812
30
0
41
1
10
67.3116376585139
20
-0.571776792357838
30
0
41
1
10
67.3151267534259
20
-0.564930379139014
30
0
41
1
10
67.3256355284339
20
-0.545115588184132
30
0
41
1
10
67.3327106104947
20
-0.532831436684006
30
0
41
1
10
67.3398513879354
20
-0.521404514476529
30
0
0
SPLINE
5
D1
100
AcDbEntity
8
1
62
256
6
ByLayer
370
18
48
1
60
0
100
AcDbSpline
70
4
71
3
72
8
73
4
40
0
40
0
40
0
40
0
40
1
40
1
40
1
40
1
41
1
10
67.3398513879354
20
-0.521404514476586
30
0
41
1
10
67.331539204692
20
-0.492423887820365
30
0
41
1
10
67.3244493965735
20
-0.46002681368094
30
0
41
1
10
67.3184519318674
20
-0.4243784103883
30
0
0
SPLINE
5
D2
100
AcDbEntity
8
1
62
256
6
ByLayer
370
18
48
1
60
0
100
AcDbSpline
70
4
71
3
72
8
73
4
40
0
40
0
40
0
40
0
40
1
40
1
40
1
40
1
41
1
10
67.3184519318675
20
-0.424378410388272
30
0
41
1
10
67.2759264213816
20
-0.171610512231155
30
0
41
1
10
67.2199980643737
20
0.0875246997801469
30
0
41
1
10
67.1507892837624
20
0.352969065974492
30
0
0
SPLINE
5
D3
100
AcDbEntity
8
1
62
256
6
ByLayer
370
18
48
1
60
0
100
AcDbSpline
70
4
71
3
72
13
73
9
40
0
40
0
40
0
40
0
40
0.500000000000012
40
0.500000000000012
40
0.625000000000015
40
0.625000000000015
40
0.750000000000018
40
1
40
1
40
1
40
1
41
1
10
67.0437367596879
20
-2.65313860946543
30
0
41
1
10
67.0222103990578
20
-2.6852342879084
30
0
41
1
10
67.0022160484468
20
-2.71278270810063
30
0
41
1
10
66.979190961756
20
-2.74066588541058
30
0
41
1
10
66.9746930074589
20
-2.74590156803782
30
0
41
1
10
66.9659975823343
20
-2.75558329388531
30
0
41
1
10
66.9533645151687
20
-2.76897114500727
30
0
41
1
10
66.9419115199611
20
-2.77900551360861
30
0
41
1
10
66.934759336522
20
-2.78423834091814
30
0
0
SPLINE
5
D4
100
AcDbEntity
8
1
62
256
6
ByLayer
370
18
48
1
60
0
100
AcDbSpline
70
4
71
3
72
8
73
4
40
0
40
0
40
0
40
0
40
1
40
1
40
1
40
1
41
1
10
67.7065148203819
20
-0.957895997865762
30
0
41
1
10
67.7811010530447
20
-0.749763587967493
30
0
41
1
10
67.8550955162341
20
-0.541422762772129
30
0
41
1
10
67.9284867779224
20
-0.33286949603368
30
0
0
SPLINE
5
D5
100
AcDbEntity
8
1
62
256
6
ByLayer
370
18
48
1
60
0
100
AcDbSpline
70
4
71
3
72
8
73
4
40
0
40
0
40
0
40
0
40
1
40
1
40
1
40
1
41
1
10
67.9284867779225
20
-0.33286949603368
30
0
41
1
10
67.9513762567659
20
-0.267825300349898
30
0
41
1
10
67.9747352897877
20
-0.203048598686735
30
0
41
1
10
67.9985718935729
20
-0.138533473218757
30
0
0
SPLINE
5
D6
100
AcDbEntity
8
1
62
256
6
ByLayer
370
18
48
1
60
0
100
AcDbSpline
70
4
71
3
72
8
73
4
40
0
40
0
40
0
40
0
40
1
40
1
40
1
40
1
41
1
10
67.9985718935681
20
0.138533473223788
30
0
41
1
10
68.0004731513351
20
0.0463177124962044
30
0
41
1
10
68.0004789283819
20
-0.0460375112636484
30
0
41
1
10
67.9985718935681
20
-0.13853347322231
30
0
0
SPLINE
5
D7
100
AcDbEntity
8
1
62
256
6
ByLayer
370
18
48
1
60
0
100
AcDbSpline
70
4
71
3
72
38
73
34
40
0
40
0
40
0
40
0
40
0.331826369625256
40
0.331826369625256
40
0.556408746146826
40
0.556408746146826
40
0.705289086069765
40
0.705289086069765
40
0.804121163764906
40
0.804121163764906
40
0.869798231141838
40
0.869798231141838
40
0.913320759662612
40
0.913320759662612
40
0.942146673512915
40
0.942146673512915
40
0.961481653015148
40
0.961481653015148
40
0.974507669555305
40
0.974507669555305
40
0.982811994818478
40
0.982811994818478
40
0.988322626297111
40
0.988322626297111
40
0.991659524894038
40
0.991659524894038
40
0.994893187769954
40
0.994893187769954
40
0.996440283519463
40
0.996440283519463
40
0.997680205058063
40
0.997680205058063
40
1
40
1
40
1
40
1
41
1
10
66.8684591527052
20
-2.94985261645755
30
0
41
1
10
66.8767974593664
20
-2.93629727978779
30
0
41
1
10
66.8851396515701
20
-2.92270355152948
30
0
41
1
10
66.8991366396635
20
-2.89984069819278
30
0
41
1
10
66.9047886857324
20
-2.89059368783546
30
0
41
1
10
66.9141923284628
20
-2.87518399683665
30
0
41
1
10
66.9179429042569
20
-2.86903111436223
30
0
41
1
10
66.924178166263
20
-2.85879476914556
30
0
41
1
10
66.9266643221095
20
-2.85471146021666
30
0
41
1
10
66.9307983268397
20
-2.84791933442602
30
0
41
1
10
66.9324484648618
20
-2.84520713504833
30
0
41
1
10
66.9352011580044
20
-2.84067643453699
30
0
41
1
10
66.9363016182251
20
-2.8388630498828
30
0
41
1
10
66.938133469396
20
-2.83584238651201
30
0
41
1
10
66.9388630090963
20
-2.83463941067257
30
0
41
1
10
66.9400708088992
20
-2.83265256255407
30
0
41
1
10
66.9405512309841
20
-2.83186423310514
30
0
41
1
10
66.9413511220702
20
-2.83055320299295
30
0
41
1
10
66.9416748143219
20
-2.83002200526968
30
0
41
1
10
66.942216715479
20
-2.82912679001495
30
0
41
1
10
66.9424306546911
20
-2.82877197692039
30
0
41
1
10
66.9427907464981
20
-2.82817220119893
30
0
41
1
10
66.9429358478603
20
-2.827929666519
30
0
41
1
10
66.9431668252609
20
-2.82754474567523
30
0
41
1
10
66.9432536030667
20
-2.82740038292491
30
0
41
1
10
66.9434206913324
20
-2.82712414813167
30
0
41
1
10
66.9435022057502
20
-2.82699011612607
30
0
41
1
10
66.9436114971861
20
-2.82681417945412
30
0
41
1
10
66.943645447635
20
-2.82676020855584
30
0
41
1
10
66.94369743071
20
-2.82668011590897
30
0
41
1
10
66.9437173744301
20
-2.82665056840489
30
0
41
1
10
66.9437449677527
20
-2.82661340437804
30
0
41
1
10
66.9437531113491
20
-2.82660501074096
30
0
41
1
10
66.9437562939965
20
-2.82661974744283
30
0
0
SPLINE
5
D8
100
AcDbEntity
8
1
62
256
6
ByLayer
370
18
48
1
60
0
100
AcDbSpline
70
4
71
3
72
20
73
16
40
0
40
0
40
0
40
0
40
0.0229120561635676
40
0.0229120561635676
40
0.218329644930861
40
0.218329644930861
40
0.316038439314486
40
0.316038439314486
40
0.413747233698111
40
0.413747233698111
40
0.609164822465407
40
0.609164822465407
40
0.804582411232703
40
0.804582411232703
40
1
40
1
40
1
40
1
41
1
10
66.5643391119835
20
0.68313360719668
30
0
41
1
10
66.569186889173
20
0.684992571721949
30
0
41
1
10
66.5740497386773
20
0.686872460126864
30
0
41
1
10
66.6205363175035
20
0.704975452265501
30
0
41
1
10
66.6632807325753
20
0.722619641192807
30
0
41
1
10
66.7297644545588
20
0.74992251633762
30
0
41
1
10
66.7523215546082
20
0.759160353396112
30
0
41
1
10
66.7983537651265
20
0.777653300861687
30
0
41
1
10
66.8216161615492
20
0.786821424552102
30
0
41
1
10
66.8919402169612
20
0.813604264989749
30
0
41
1
10
66.9396816735221
20
0.83050828686109
30
0
41
1
10
67.0373824050919
20
0.860489208329739
30
0
41
1
10
67.0873257091654
20
0.873617019011817
30
0
41
1
10
67.1896540980397
20
0.894926779057641
30
0
41
1
10
67.2410882145099
20
0.902866277027414
30
0
41
1
10
67.2928580724522
20
0.907887304748499
30
0
0
SPLINE
5
D9
100
AcDbEntity
8
1
62
256
6
ByLayer
370
18
48
1
60
0
100
AcDbSpline
70
4
71
3
72
10
73
6
40
0
40
0
40
0
40
0
40
0.5
40
0.5
40
1
40
1
40
1
40
1
41
1
10
67.2928580724522
20
0.907887304747987
30
0
41
1
10
67.3619601632445
20
0.914589341941905
30
0
41
1
10
67.4310483117872
20
0.921949291821875
30
0
41
1
10
67.5690038116381
20
0.938427872124322
30
0
41
1
10
67.6378503050699
20
0.947549963424962
30
0
41
1
10
67.7065148203906
20
0.957895997868633
30
0
0
SPLINE
5
DA
100
AcDbEntity
8
1
62
256
6
ByLayer
370
18
48
1
60
0
100
AcDbSpline
70
4
71
3
72
30
73
26
40
0
40
0
40
0
40
0
40
0.125000000000006
40
0.125000000000006
40
0.250000000000013
40
0.250000000000013
40
0.375000000000019
40
0.375000000000019
40
0.500000000000026
40
0.500000000000026
40
0.531250000000026
40
0.531250000000026
40
0.562500000000025
40
0.562500000000025
40
0.625000000000017
40
0.625000000000017
40
0.750000000000008
40
0.750000000000008
40
0.812500000000004
40
0.812500000000004
40
0.843750000000001
40
0.843750000000001
40
0.874999999999999
40
0.874999999999999
40
1
40
1
40
1
40
1
41
1
10
67.0437367596876
20
2.65313860946625
30
0
41
1
10
67.0685600936825
20
2.58083531923157
30
0
41
1
10
67.0935579139529
20
2.50836022857146
30
0
41
1
10
67.1439779666886
20
2.36313552492575
30
0
41
1
10
67.1694073389263
20
2.29035743718532
30
0
41
1
10
67.2206704621192
20
2.14473389081272
30
0
41
1
10
67.2464945219225
20
2.07194366794883
30
0
41
1
10
67.2985499196521
20
1.92642959813827
30
0
41
1
10
67.3247983643188
20
1.85366147627599
30
0
41
1
10
67.3578079890913
20
1.76289340462728
30
0
41
1
10
67.3644192343491
20
1.74475123703243
30
0
41
1
10
67.3776603760633
20
1.70848883301355
30
0
41
1
10
67.3842796680446
20
1.69035615431912
30
0
41
1
10
67.4043299033765
20
1.63618431087272
30
0
41
1
10
67.4178840962457
20
1.6002877374915
30
0
41
1
10
67.4592192341975
20
1.49332792240426
30
0
41
1
10
67.4876688588417
20
1.4229895507716
30
0
41
1
10
67.5320105309883
20
1.31910132073475
30
0
41
1
10
67.5470689969406
20
1.28474185551195
30
0
41
1
10
67.5701124780442
20
1.23362657588905
30
0
41
1
10
67.5778697582439
20
1.21665897791846
30
0
41
1
10
67.5935441710215
20
1.18286984704406
30
0
41
1
10
67.6014753610213
20
1.16601951445409
30
0
41
1
10
67.6412414776548
20
1.08277422343824
30
0
41
1
10
67.6735769498062
20
1.01900718855342
30
0
41
1
10
67.7065148203827
20
0.957895997864654
30
0
0
SPLINE
5
DB
100
AcDbEntity
8
1
62
256
6
ByLayer
370
18
48
1
60
0
100
AcDbSpline
70
4
71
3
72
8
73
4
40
0
40
0
40
0
40
0
40
1
40
1
40
1
40
1
41
1
10
66.9437562939965
20
2.82661974744281
30
0
41
1
10
66.9770508269216
20
2.76880159061409
30
0
41
1
10
67.0103816377396
20
2.71096621567725
30
0
41
1
10
67.0437367596874
20
2.65313860946622
30
0
0
SPLINE
5
DC
100
AcDbEntity
8
1
62
256
6
ByLayer
370
18
48
1
60
0
100
AcDbSpline
70
4
71
3
72
8
73
4
40
0
40
0
40
0
40
0
40
1
40
1
40
1
40
1
41
1
10
38.5003037857387
20
1.91755972006715
30
0
41
1
10
38.5003037857387
20
1.90818060692897
30
0
41
1
10
38.5003037857388
20
1.8985118992243
30
0
41
1
10
38.5003037857388
20
1.88856046403544
30
0
0
SPLINE
5
DD
100
AcDbEntity
8
1
62
256
6
ByLayer
370
18
48
1
60
0
100
AcDbSpline
70
4
71
3
72
14
73
10
40
0
40
0
40
0
40
0
40
0.124999999999997
40
0.124999999999997
40
0.249999999999995
40
0.249999999999995
40
0.499999999999987
40
0.499999999999987
40
1
40
1
40
1
40
1
41
1
10
67.1507892837624
20
0.352969065974492
30
0
41
1
10
67.1400389038486
20
0.345053227032565
30
0
41
1
10
67.1292846622338
20
0.336788942043256
30
0
41
1
10
67.1078715634338
20
0.319677975444336
30
0
41
1
10
67.0972117543736
20
0.310805631994128
30
0
41
1
10
67.0653889483013
20
0.283066299140273
30
0
41
1
10
67.044383879504
20
0.26305310437084
30
0
41
1
10
66.9820849588929
20
0.198671120722651
30
0
41
1
10
66.9415127014426
20
0.149929129708653
30
0
41
1
10
66.9020734141464
20
0.096170665262008
30
0
0
SPLINE
5
DE
100
AcDbEntity
8
1
62
256
6
ByLayer
370
18
48
1
60
0
100
AcDbSpline
70
4
71
3
72
24
73
20
40
0
40
0
40
0
40
0
40
0.161202504555539
40
0.161202504555539
40
0.322405009111077
40
0.322405009111077
40
0.483607513666616
40
0.483607513666616
40
0.564208765944385
40
0.564208765944385
40
0.644810018222154
40
0.644810018222154
40
0.806012522777694
40
0.806012522777694
40
0.886613775055463
40
0.886613775055463
40
0.967215027333233
40
0.967215027333233
40
1
40
1
40
1
40
1
41
1
10
67.1507892837624
20
0.35296906597452
30
0
41
1
10
67.090156089557
20
0.391570159625019
30
0
41
1
10
67.0295199561396
20
0.429331099862282
30
0
41
1
10
66.9082399380985
20
0.502637351635798
30
0
41
1
10
66.847596229252
20
0.538232907862863
30
0
41
1
10
66.72630047566
20
0.607041261272201
30
0
41
1
10
66.6655679816668
20
0.640263357607751
30
0
41
1
10
66.5748594543415
20
0.688702222632571
30
0
41
1
10
66.544687352267
20
0.704583753276779
30
0
41
1
10
66.4845407425483
20
0.735530338445301
30
0
41
1
10
66.4545687858637
20
0.750584852198585
30
0
41
1
10
66.3649843671627
20
0.794378809742227
30
0
41
1
10
66.3057046998243
20
0.821743119086875
30
0
41
1
10
66.2175979868561
20
0.859431077383277
30
0
41
1
10
66.1883582694758
20
0.871459919285314
30
0
41
1
10
66.1300192768961
20
0.894937284672693
30
0
41
1
10
66.1009228823924
20
0.906373904891524
30
0
41
1
10
66.0602325336467
20
0.921465963644778
30
0
41
1
10
66.0484837666728
20
0.925709043473091
30
0
41
1
10
66.0367813485964
20
0.929810565919666
30
0
0
SPLINE
5
DF
100
AcDbEntity
8
1
62
256
6
ByLayer
370
18
48
1
60
0
100
AcDbSpline
70
4
71
3
72
30
73
26
40
0
40
0
40
0
40
0
40
0.125000000000003
40
0.125000000000003
40
0.250000000000006
40
0.250000000000006
40
0.375000000000009
40
0.375000000000009
40
0.500000000000012
40
0.500000000000012
40
0.531250000000013
40
0.531250000000013
40
0.562500000000014
40
0.562500000000014
40
0.625000000000015
40
0.625000000000015
40
0.75000000000001
40
0.75000000000001
40
0.812500000000007
40
0.812500000000007
40
0.843750000000006
40
0.843750000000006
40
0.875000000000005
40
0.875000000000005
40
1
40
1
40
1
40
1
41
1
10
67.0437367596877
20
-2.65313860946594
30
0
41
1
10
67.0685600936825
20
-2.58083531923128
30
0
41
1
10
67.093557913953
20
-2.50836022857118
30
0
41
1
10
67.1439779666887
20
-2.36313552492555
30
0
41
1
10
67.1694073389264
20
-2.29035743718509
30
0
41
1
10
67.2206704621194
20
-2.14473389081257
30
0
41
1
10
67.2464945219226
20
-2.07194366794872
30
0
41
1
10
67.2985499196521
20
-1.92642959813824
30
0
41
1
10
67.3247983643188
20
-1.85366147627596
30
0
41
1
10
67.3578079890913
20
-1.76289340462733
30
0
41
1
10
67.364419234349
20
-1.74475123703246
30
0
41
1
10
67.3776603760631
20
-1.70848883301363
30
0
41
1
10
67.3842796680446
20
-1.6903561543192
30
0
41
1
10
67.4043299033765
20
-1.63618431087286
30
0
41
1
10
67.4178840962456
20
-1.60028773749158
30
0
41
1
10
67.4592192341975
20
-1.49332792240438
30
0
41
1
10
67.4876688588417
20
-1.42298955077169
30
0
41
1
10
67.5320105309883
20
-1.3191013207348
30
0
41
1
10
67.5470689969405
20
-1.28474185551198
30
0
41
1
10
67.5701124780443
20
-1.23362657588902
30
0
41
1
10
67.5778697582439
20
-1.21665897791843
30
0
41
1
10
67.5935441710215
20
-1.18286984704397
30
0
41
1
10
67.6014753610214
20
-1.16601951445398
30
0
41
1
10
67.6412414776547
20
-1.08277422343815
30
0
41
1
10
67.6735769498062
20
-1.01900718855339
30
0
41
1
10
67.7065148203827
20
-0.957895997864654
30
0
0
SPLINE
5
E0
100
AcDbEntity
8
1
62
256
6
ByLayer
370
18
48
1
60
0
100
AcDbSpline
70
4
71
3
72
8
73
4
40
0
40
0
40
0
40
0
40
1
40
1
40
1
40
1
41
1
10
66.9437562939964
20
-2.82661974744286
30
0
41
1
10
66.9770508269217
20
-2.76880159061403
30
0
41
1
10
67.0103816377397
20
-2.71096621567702
30
0
41
1
10
67.0437367596876
20
-2.65313860946588
30
0
0
SPLINE
5
E1
100
AcDbEntity
8
1
62
256
6
ByLayer
370
18
48
1
60
0
100
AcDbSpline
70
4
71
3
72
60
73
56
40
0
40
0
40
0
40
0
40
0.0132647901372946
40
0.0132647901372946
40
0.0298457886126654
40
0.0298457886126654
40
0.046426787088036
40
0.046426787088036
40
0.0795887840387752
40
0.0795887840387752
40
0.145912777940251
40
0.145912777940251
40
0.212236771841727
40
0.212236771841727
40
0.278560765743202
40
0.278560765743202
40
0.31172276269394
40
0.31172276269394
40
0.344884759644678
40
0.344884759644678
40
0.411208753546154
40
0.411208753546154
40
0.444370750496892
40
0.444370750496892
40
0.460951748972261
40
0.460951748972261
40
0.47753274744763
40
0.47753274744763
40
0.543856741349103
40
0.543856741349103
40
0.57701873829984
40
0.57701873829984
40
0.593599736775208
40
0.593599736775208
40
0.610180735250576
40
0.610180735250576
40
0.676504729152057
40
0.676504729152057
40
0.709666726102797
40
0.709666726102797
40
0.726247724578166
40
0.726247724578166
40
0.742828723053535
40
0.742828723053535
40
0.809152716955008
40
0.809152716955008
40
0.875476710856481
40
0.875476710856481
40
0.941800704757954
40
0.941800704757954
40
0.974962701708691
40
0.974962701708691
40
0.99154370018406
40
0.99154370018406
40
1
40
1
40
1
40
1
41
1
10
60.0130865486865
20
-0.728307085594281
30
0
41
1
10
59.9538819160942
20
-0.69722928666593
30
0
41
1
10
59.8946159683521
20
-0.665979519358473
30
0
41
1
10
59.7611122734394
20
-0.595308850916183
30
0
41
1
10
59.6868352274773
20
-0.555798244961238
30
0
41
1
10
59.5380274386554
20
-0.476337152235828
30
0
41
1
10
59.4636225497188
20
-0.436453455452124
30
0
41
1
10
59.2409254596312
20
-0.316699463873562
30
0
41
1
10
59.0929269778017
20
-0.2366038079482
30
0
41
1
10
58.6499225036983
20
0.0037121755916871
30
0
41
1
10
58.355889426269
20
0.163936248084838
30
0
41
1
10
57.7685915794128
20
0.480930312158165
30
0
41
1
10
57.4753512823199
20
0.63773351657423
30
0
41
1
10
56.8876070338019
20
0.94422313429024
30
0
41
1
10
56.5931431591065
20
1.09397983036382
30
0
41
1
10
56.1491675171225
20
1.31081109449346
30
0
41
1
10
56.0007647025558
20
1.38179531684455
30
0
41
1
10
55.7030400011551
20
1.52059297226589
30
0
41
1
10
55.554438583833
20
1.58809991413372
30
0
41
1
10
55.1090419266392
20
1.78438278146837
30
0
41
1
10
54.8126214279747
20
1.90693931164566
30
0
41
1
10
54.3672532793516
20
2.07628531670198
30
0
41
1
10
54.2186874692381
20
2.13032295196115
30
0
41
1
10
53.995480640946
20
2.20744814261312
30
0
41
1
10
53.9210625247985
20
2.23248384973712
30
0
41
1
10
53.7724051947991
20
2.28109410735502
30
0
41
1
10
53.698130531415
20
2.30468285231757
30
0
41
1
10
53.3269179126665
20
2.41899162610739
30
0
41
1
10
53.0304811302113
20
2.49883915069259
30
0
41
1
10
52.5851733707508
20
2.60027356018483
30
0
41
1
10
52.4366307691599
20
2.63102962737329
30
0
41
1
10
52.2134616098178
20
2.67233034278681
30
0
41
1
10
52.1390026864928
20
2.68529405518728
30
0
41
1
10
51.9902777319308
20
2.70954706110445
30
0
41
1
10
51.9159700851673
20
2.72084246401514
30
0
41
1
10
51.5446293248389
20
2.7731136811031
30
0
41
1
10
51.2481782146979
20
2.80149199619586
30
0
41
1
10
50.8028793630734
20
2.82375885008207
30
0
41
1
10
50.6543613157002
20
2.82777670300052
30
0
41
1
10
50.4312700916688
20
2.82853414756588
30
0
41
1
10
50.3567971605613
20
2.82790640533438
30
0
41
1
10
50.2081740090434
20
2.82487911137932
30
0
41
1
10
50.1339879985202
20
2.82248018693332
30
0
41
1
10
49.7636034844201
20
2.80606361431407
30
0
41
1
10
49.4690161817583
20
2.77876102883587
30
0
41
1
10
48.8810670096022
20
2.69838749851422
30
0
41
1
10
48.5876864533988
20
2.64530432281418
30
0
41
1
10
48.0002915941822
20
2.51501410755694
30
0
41
1
10
47.7063008183061
20
2.43779532631714
30
0
41
1
10
47.2634665507817
20
2.30460025879049
30
0
41
1
10
47.115556403846
20
2.2572865384827
30
0
41
1
10
46.893064325363
20
2.18198589039008
30
0
41
1
10
46.8187949480834
20
2.15616537567405
30
0
41
1
10
46.7064635725359
20
2.11609931751266
30
0
41
1
10
46.6685261499777
20
2.10239357502675
30
0
41
1
10
46.6306009529136
20
2.08852091747093
30
0
0
SPLINE
5
E2
100
AcDbEntity
8
1
62
256
6
ByLayer
370
18
48
1
60
0
100
AcDbSpline
70
4
71
3
72
38
73
34
40
0
40
0
40
0
40
0
40
0.331826369622472
40
0.331826369622472
40
0.556408746144741
40
0.556408746144741
40
0.705289086069161
40
0.705289086069161
40
0.804121163765851
40
0.804121163765851
40
0.869798231142774
40
0.869798231142774
40
0.913320759663406
40
0.913320759663406
40
0.942146673513493
40
0.942146673513493
40
0.961481653014949
40
0.961481653014949
40
0.974507669555207
40
0.974507669555207
40
0.982811994818331
40
0.982811994818331
40
0.988322626296927
40
0.988322626296927
40
0.99165952489375
40
0.99165952489375
40
0.99489318776989
40
0.99489318776989
40
0.996440283519383
40
0.996440283519383
40
0.997680205057783
40
0.997680205057783
40
1
40
1
40
1
40
1
41
1
10
66.8684591527052
20
2.94985261645758
30
0
41
1
10
66.8767974593663
20
2.93629727978791
30
0
41
1
10
66.8851396515699
20
2.92270355152971
30
0
41
1
10
66.8991366396633
20
2.89984069819306
30
0
41
1
10
66.9047886857322
20
2.89059368783575
30
0
41
1
10
66.9141923284627
20
2.87518399683682
30
0
41
1
10
66.9179429042568
20
2.86903111436234
30
0
41
1
10
66.9241781662631
20
2.85879476914556
30
0
41
1
10
66.9266643221096
20
2.85471146021661
30
0
41
1
10
66.9307983268398
20
2.84791933442588
30
0
41
1
10
66.9324484648618
20
2.84520713504816
30
0
41
1
10
66.9352011580045
20
2.84067643453682
30
0
41
1
10
66.9363016182251
20
2.83886304988266
30
0
41
1
10
66.9381334693961
20
2.83584238651187
30
0
41
1
10
66.9388630090963
20
2.83463941067242
30
0
41
1
10
66.9400708088993
20
2.83265256255402
30
0
41
1
10
66.9405512309841
20
2.83186423310508
30
0
41
1
10
66.9413511220702
20
2.83055320299289
30
0
41
1
10
66.9416748143219
20
2.83002200526966
30
0
41
1
10
66.942216715479
20
2.8291267900149
30
0
41
1
10
66.9424306546912
20
2.82877197692039
30
0
41
1
10
66.9427907464981
20
2.8281722011989
30
0
41
1
10
66.9429358478603
20
2.82792966651897
30
0
41
1
10
66.9431668252609
20
2.82754474567523
30
0
41
1
10
66.9432536030667
20
2.82740038292491
30
0
41
1
10
66.9434206913324
20
2.82712414813167
30
0
41
1
10
66.9435022057502
20
2.82699011612604
30
0
41
1
10
66.9436114971861
20
2.82681417945409
30
0
41
1
10
66.943645447635
20
2.82676020855581
30
0
41
1
10
66.94369743071
20
2.82668011590897
30
0
41
1
10
66.9437173744301
20
2.82665056840489
30
0
41
1
10
66.9437449677527
20
2.82661340437804
30
0
41
1
10
66.9437531113491
20
2.82660501074096
30
0
41
1
10
66.9437562939965
20
2.82661974744283
30
0
0
SPLINE
5
E3
100
AcDbEntity
8
1
62
256
6
ByLayer
370
18
48
1
60
0
100
AcDbSpline
70
4
71
3
72
24
73
20
40
0
40
0
40
0
40
0
40
0.112637984847311
40
0.112637984847311
40
0.225275969694623
40
0.225275969694623
40
0.337913954541934
40
0.337913954541934
40
0.450551939389245
40
0.450551939389245
40
0.563189924236557
40
0.563189924236557
40
0.675827909083868
40
0.675827909083868
40
0.901103878778483
40
0.901103878778483
40
0.957422871202138
40
0.957422871202138
40
1
40
1
40
1
40
1
41
1
10
66.9437562939965
20
2.82661974744283
30
0
41
1
10
66.7948719092946
20
2.82838828156505
30
0
41
1
10
66.6459821488285
20
2.82669217168831
30
0
41
1
10
66.3482371578892
20
2.81624574581403
30
0
41
1
10
66.199472321584
20
2.80752190477188
30
0
41
1
10
65.9020329065808
20
2.78325179333001
30
0
41
1
10
65.7533383933629
20
2.76770750515658
30
0
41
1
10
65.4557225397405
20
2.72989434636637
30
0
41
1
10
65.3067990998542
20
2.70761661118374
30
0
41
1
10
65.0090363446748
20
2.65652228276323
30
0
41
1
10
64.8601457646791
20
2.62769674966032
30
0
41
1
10
64.5624859567882
20
2.56372945634018
30
0
41
1
10
64.4138401739357
20
2.52861827808908
30
0
41
1
10
63.9680900857483
20
2.41422926715373
30
0
41
1
10
63.6712311437186
20
2.32577143344892
30
0
41
1
10
63.299249528144
20
2.20112149913885
30
0
41
1
10
63.2247819653032
20
2.17548673229297
30
0
41
1
10
63.0943178867629
20
2.1294325152229
30
0
41
1
10
63.0382161401818
20
2.10925533426826
30
0
41
1
10
62.9821749168582
20
2.08873769434752
30
0
0
SPLINE
5
E4
100
AcDbEntity
8
1
62
256
6
ByLayer
370
18
48
1
60
0
100
AcDbSpline
70
4
71
3
72
50
73
46
40
0
40
0
40
0
40
0
40
0.0269534260071141
40
0.0269534260071141
40
0.0756057547067604
40
0.0756057547067604
40
0.0999319190565855
40
0.0999319190565855
40
0.12425808340641
40
0.12425808340641
40
0.22156274080571
40
0.22156274080571
40
0.27021506950536
40
0.27021506950536
40
0.294541233855183
40
0.294541233855183
40
0.318867398205007
40
0.318867398205007
40
0.416172055604292
40
0.416172055604292
40
0.464824384303935
40
0.464824384303935
40
0.489150548653755
40
0.489150548653755
40
0.513476713003575
40
0.513476713003575
40
0.610781370402857
40
0.610781370402857
40
0.6594336991025
40
0.6594336991025
40
0.683759863452321
40
0.683759863452321
40
0.708086027802143
40
0.708086027802143
40
0.756738356501786
40
0.756738356501786
40
0.805390685201428
40
0.805390685201428
40
0.902695342600714
40
0.902695342600714
40
0.927021506950536
40
0.927021506950536
40
0.951347671300357
40
0.951347671300357
40
1
40
1
40
1
40
1
41
1
10
47.6561448289071
20
-2.42011314763587
30
0
41
1
10
47.5745371116311
20
-2.39730369304965
30
0
41
1
10
47.492854810303
20
-2.37359533653719
30
0
41
1
10
47.2634665507817
20
-2.30460025879049
30
0
41
1
10
47.1155564038461
20
-2.2572865384827
30
0
41
1
10
46.893064325363
20
-2.18198589039008
30
0
41
1
10
46.8187949480834
20
-2.15616537567405
30
0
41
1
10
46.6700116133147
20
-2.10309772903273
30
0
41
1
10
46.5956287333587
20
-2.07589682370056
30
0
41
1
10
46.224132935148
20
-1.9368053810482
30
0
41
1
10
45.9277818877961
20
-1.81551032453709
30
0
41
1
10
45.4829660364448
20
-1.62107002397201
30
0
41
1
10
45.3346451128159
20
-1.55416880403595
30
0
41
1
10
45.1118899639702
20
-1.45102742389759
30
0
41
1
10
45.0375907268082
20
-1.41618321329508
30
0
41
1
10
44.8888684707252
20
-1.345628359725
30
0
41
1
10
44.8144506474198
20
-1.30991840384462
30
0
41
1
10
44.4428211447146
20
-1.12968953617749
30
0
41
1
10
44.1463388529259
20
-0.979798114756079
30
0
41
1
10
43.7014185287488
20
-0.748668357150819
30
0
41
1
10
43.5530741177377
20
-0.670594911720571
30
0
41
1
10
43.3303272234794
20
-0.55226224797147
30
0
41
1
10
43.2560386883367
20
-0.512616544467193
30
0
41
1
10
43.1073500846739
20
-0.432981565426303
30
0
41
1
10
43.0329177516652
20
-0.39297533369782
30
0
41
1
10
42.6611792493252
20
-0.192639694967852
30
0
41
1
10
42.3646209794507
20
-0.0311998676238829
30
0
41
1
10
41.9196927532642
20
0.210229027138951
30
0
41
1
10
41.7713644696742
20
0.290576458003102
30
0
41
1
10
41.5486580127871
20
0.41055873709783
30
0
41
1
10
41.4743851008479
20
0.450459782444995
30
0
41
1
10
41.3257278544628
20
0.530008580169465
30
0
41
1
10
41.2513219625089
20
0.56966962115942
30
0
41
1
10
41.0281164934628
20
0.688094480472131
30
0
41
1
10
40.8793135883422
20
0.766300434054131
30
0
41
1
10
40.5817370099186
20
0.920606905124345
30
0
41
1
10
40.4329368961639
20
0.996727445611413
30
0
41
1
10
39.9869681691809
20
1.22089818764044
30
0
41
1
10
39.6899681107722
20
1.36499268320605
30
0
41
1
10
39.3180353991042
20
1.53623945174601
30
0
41
1
10
39.2436149112286
20
1.57004205223276
30
0
41
1
10
39.0948878516131
20
1.63660460699302
30
0
41
1
10
39.020551555004
20
1.66937551693684
30
0
41
1
10
38.7975745880056
20
1.76609525010042
30
0
41
1
10
38.6489751912303
20
1.82846336466949
30
0
41
1
10
38.5003037857267
20
1.88856046408262
30
0
0
SPLINE
5
E5
100
AcDbEntity
8
1
62
256
6
ByLayer
370
13
48
1
60
0
100
AcDbSpline
70
4
71
3
72
30
73
26
40
0
40
0
40
0
40
0
40
0.0328481077107532
40
0.0328481077107532
40
0.0949704793284058
40
0.0949704793284058
40
0.219215222563711
40
0.219215222563711
40
0.281337594181363
40
0.281337594181363
40
0.343459965799016
40
0.343459965799016
40
0.467704709034321
40
0.467704709034321
40
0.529827080651974
40
0.529827080651974
40
0.591949452269627
40
0.591949452269627
40
0.716194195504932
40
0.716194195504932
40
0.778316567122584
40
0.778316567122584
40
0.840438938740236
40
0.840438938740236
40
1
40
1
40
1
40
1
41
1
10
38.6010587245479
20
2.75212292901386
30
0
41
1
10
38.6010549239099
20
2.75213070625878
30
0
41
1
10
38.6010511078966
20
2.75191206300835
30
0
41
1
10
38.6010400291421
20
2.75062291917973
30
0
41
1
10
38.6010327188936
20
2.74896308345015
30
0
41
1
10
38.6010107087311
20
2.74156059924297
30
0
41
1
10
38.6009959020812
20
2.73340162096943
30
0
41
1
10
38.6009734194924
20
2.71635072209929
30
0
41
1
10
38.6009658795151
20
2.70986395457311
30
0
41
1
10
38.6009506915411
20
2.69527526061228
30
0
41
1
10
38.6009430386464
20
2.6871660340662
30
0
41
1
10
38.6009199947346
20
2.66052170352535
30
0
41
1
10
38.6009044878188
20
2.63964752867821
30
0
41
1
10
38.6008808849434
20
2.60368972500183
30
0
41
1
10
38.6008729599464
20
2.59092834179245
30
0
41
1
10
38.6008569704605
20
2.56384570047334
30
0
41
1
10
38.6008489027349
20
2.54951679462599
30
0
41
1
10
38.6008245634669
20
2.50438618778463
30
0
41
1
10
38.6008081206875
20
2.47138615439007
30
0
41
1
10
38.6007829670837
20
2.4175335704777
30
0
41
1
10
38.6007745007514
20
2.39885632747303
30
0
41
1
10
38.6007573740099
20
2.36004030019686
30
0
41
1
10
38.6007487124966
20
2.33989734289659
30
0
41
1
10
38.6007175604399
20
2.26577482705969
30
0
41
1
10
38.6006946221387
20
2.20814726714178
30
0
41
1
10
38.60067089954
20
2.14622389666539
30
0
0
SPLINE
5
E6
100
AcDbEntity
8
1
62
256
6
ByLayer
370
13
48
1
60
0
100
AcDbSpline
70
4
71
3
72
26
73
22
40
0
40
0
40
0
40
0
40
0.0085684170063066
40
0.0085684170063066
40
0.0879090312369174
40
0.0879090312369174
40
0.167249645467528
40
0.167249645467528
40
0.325930873928749
40
0.325930873928749
40
0.40527148815936
40
0.40527148815936
40
0.484612102389971
40
0.484612102389971
40
0.643293330851192
40
0.643293330851192
40
0.801974559312413
40
0.801974559312413
40
0.960655787773635
40
0.960655787773635
40
1
40
1
40
1
40
1
41
1
10
38.601293533088
20
-2.37576825368981
30
0
41
1
10
38.6012930259012
20
-2.37787348996281
30
0
41
1
10
38.6012925165863
20
-2.37997068357703
30
0
41
1
10
38.601287269527
20
-2.40140467009286
30
0
41
1
10
38.6012823475897
20
-2.42007466764636
30
0
41
1
10
38.601272196905
20
-2.45590549360733
30
0
41
1
10
38.6012669663108
20
-2.47307663050657
30
0
41
1
10
38.6012508431345
20
-2.52236969130661
30
0
41
1
10
38.601239520896
20
-2.55227518123169
30
0
41
1
10
38.6012217820109
20
-2.59267764077163
30
0
41
1
10
38.601215736174
20
-2.60541257922895
30
0
41
1
10
38.6012034602233
20
-2.62927691665271
30
0
41
1
10
38.6011972255783
20
-2.64041876932359
30
0
41
1
10
38.6011782518553
20
-2.67148879208045
30
0
41
1
10
38.6011652446878
20
-2.68906556120194
30
0
41
1
10
38.6011385801406
20
-2.71792797333163
30
0
41
1
10
38.6011248983081
20
-2.72921256644264
30
0
41
1
10
38.601097184383
20
-2.7452317964898
30
0
41
1
10
38.6010831230409
20
-2.75000979978446
30
0
41
1
10
38.6010653106489
20
-2.75194838423357
30
0
41
1
10
38.6010617585037
20
-2.75213504972189
30
0
41
1
10
38.6010581928152
20
-2.75212254006914
30
0
0
SPLINE
5
E7
100
AcDbEntity
8
1
62
256
6
ByLayer
370
18
48
1
60
0
100
AcDbSpline
70
4
71
3
72
8
73
4
40
0
40
0
40
0
40
0
40
1
40
1
40
1
40
1
41
1
10
66.9368532087928
20
-2.78794067396444
30
0
41
1
10
66.9361548772638
20
-2.78677567133238
30
0
41
1
10
66.9354569367139
20
-2.78554151968734
30
0
41
1
10
66.9347593365218
20
-2.78423834091811
30
0
0
SPLINE
5
E8
100
AcDbEntity
8
1
62
256
6
ByLayer
370
18
48
1
60
0
100
AcDbSpline
70
4
71
3
72
46
73
42
40
0
40
0
40
0
40
0
40
0.0625000000000002
40
0.0625000000000002
40
0.0937500000000004
40
0.0937500000000004
40
0.125000000000001
40
0.125000000000001
40
0.187500000000001
40
0.187500000000001
40
0.218750000000001
40
0.218750000000001
40
0.250000000000001
40
0.250000000000001
40
0.375
40
0.375
40
0.437499999999999
40
0.437499999999999
40
0.468749999999999
40
0.468749999999999
40
0.499999999999999
40
0.499999999999999
40
0.562499999999999
40
0.562499999999999
40
0.593749999999999
40
0.593749999999999
40
0.624999999999999
40
0.624999999999999
40
0.687499999999999
40
0.687499999999999
40
0.718749999999999
40
0.718749999999999
40
0.749999999999999
40
0.749999999999999
40
0.812499999999999
40
0.812499999999999
40
0.843749999999999
40
0.843749999999999
40
0.875
40
0.875
40
1
40
1
40
1
40
1
41
1
10
66.9037323331763
20
-0.313633516874177
30
0
41
1
10
66.8952011241368
20
-0.391600377612832
30
0
41
1
10
66.8877333762171
20
-0.469035166486833
30
0
41
1
10
66.8778709370461
20
-0.584369535964328
30
0
41
1
10
66.8748071129604
20
-0.622677873403802
30
0
41
1
10
66.8690892246814
20
-0.69901649669626
30
0
41
1
10
66.8664326843104
20
-0.737085762055557
30
0
41
1
10
66.8590443700114
20
-0.850580276268033
30
0
41
1
10
66.8549004336829
20
-0.925130975114172
30
0
41
1
10
66.8496365397887
20
-1.0352871645533
30
0
41
1
10
66.8480411154499
20
-1.07172724325997
30
0
41
1
10
66.8451380472188
20
-1.1440457245134
30
0
41
1
10
66.843828455576
20
-1.17998728452369
30
0
41
1
10
66.8379623587869
20
-1.35734031985462
30
0
41
1
10
66.8353935993458
20
-1.49171267273741
30
0
41
1
10
66.8336128636149
20
-1.68236671572129
30
0
41
1
10
66.8333741858422
20
-1.74409098658492
30
0
41
1
10
66.8334893436796
20
-1.833895769674
30
0
41
1
10
66.8336071218015
20
-1.86336649721792
30
0
41
1
10
66.8339980893026
20
-1.92136519311319
30
0
41
1
10
66.8342720016415
20
-1.94994052573037
30
0
41
1
10
66.8353216085703
20
-2.03373114510717
30
0
41
1
10
66.8363221231306
20
-2.08708992399747
30
0
41
1
10
66.8382931029149
20
-2.16339880964441
30
0
41
1
10
66.839029034347
20
-2.18821272534962
30
0
41
1
10
66.8406688729474
20
-2.23658965901694
30
0
41
1
10
66.8415738805438
20
-2.26017390399946
30
0
41
1
10
66.8445494881483
20
-2.32874107915256
30
0
41
1
10
66.8468803928182
20
-2.37162286203437
30
0
41
1
10
66.851004005932
20
-2.43172444286924
30
0
41
1
10
66.8524836266023
20
-2.45105385242886
30
0
41
1
10
66.8556775204961
20
-2.48829644132593
30
0
41
1
10
66.8573932962522
20
-2.50621952296174
30
0
41
1
10
66.8629094452204
20
-2.5576148162032
30
0
41
1
10
66.8670826732414
20
-2.58879924371291
30
0
41
1
10
66.8742656327432
20
-2.63098252024284
30
0
41
1
10
66.8768142958963
20
-2.64427705684332
30
0
41
1
10
66.8822564666289
20
-2.6693253106958
30
0
41
1
10
66.8851508592655
20
-2.68107701649532
30
0
41
1
10
66.9004951270097
20
-2.73567015984148
30
0
41
1
10
66.9155903511257
20
-2.76637449043457
30
0
41
1
10
66.9347593365218
20
-2.78423834091811
30
0
0
SPLINE
5
E9
100
AcDbEntity
8
1
62
256
6
ByLayer
370
18
48
1
60
0
100
AcDbSpline
70
4
71
3
72
16
73
12
40
0
40
0
40
0
40
0
40
0.2500000000001
40
0.2500000000001
40
0.37500000000015
40
0.37500000000015
40
0.5000000000002
40
0.5000000000002
40
0.7500000000001
40
0.7500000000001
40
1
40
1
40
1
40
1
41
1
10
38.5516256923223
20
2.15806519974157
30
0
41
1
10
38.5438204017023
20
2.16095892565207
30
0
41
1
10
38.5367628651055
20
2.16446775446903
30
0
41
1
10
38.5272662976441
20
2.1706103521544
30
0
41
1
10
38.5242688043242
20
2.17282280590177
30
0
41
1
10
38.5188102689463
20
2.17742853260316
30
0
41
1
10
38.5163313231434
20
2.17982991306852
30
0
41
1
10
38.5096331774358
20
2.18732060635333
30
0
41
1
10
38.5061276456882
20
2.19277091513041
30
0
41
1
10
38.5014977520717
20
2.20385772198372
30
0
41
1
10
38.5003037857387
20
2.20957820288351
30
0
41
1
10
38.5003037857388
20
2.21534114022094
30
0
0
SPLINE
5
EA
100
AcDbEntity
8
1
62
256
6
ByLayer
370
18
48
1
60
0
100
AcDbSpline
70
4
71
3
72
119
73
115
40
0
40
0
40
0
40
0
40
0.0055974159271762
40
0.0055974159271762
40
0.0281677220798646
40
0.0281677220798646
40
0.0507380282325529
40
0.0507380282325529
40
0.0733083343852412
40
0.0733083343852412
40
0.0958786405379296
40
0.0958786405379296
40
0.118448946690618
40
0.118448946690618
40
0.129734099766963
40
0.135376676305135
40
0.135376676305135
40
0.141019252843308
40
0.141019252843308
40
0.163589558995996
40
0.163589558995996
40
0.186159865148684
40
0.186159865148684
40
0.208730171301373
40
0.208730171301373
40
0.220015324377716
40
0.220015324377716
40
0.231300477454059
40
0.231300477454059
40
0.253870783606746
40
0.253870783606746
40
0.276441089759433
40
0.276441089759433
40
0.29901139591212
40
0.29901139591212
40
0.310296548988463
40
0.310296548988463
40
0.321581702064806
40
0.321581702064806
40
0.344152008217495
40
0.344152008217495
40
0.366722314370183
40
0.366722314370183
40
0.389292620522871
40
0.389292620522871
40
0.400577773599215
40
0.400577773599215
40
0.41186292667556
40
0.41186292667556
40
0.43443323282825
40
0.43443323282825
40
0.45700353898094
40
0.45700353898094
40
0.479573845133629
40
0.479573845133629
40
0.490858998209974
40
0.490858998209974
40
0.502144151286319
40
0.502144151286319
40
0.524714457439009
40
0.524714457439009
40
0.547284763591699
40
0.547284763591699
40
0.569855069744389
40
0.569855069744389
40
0.592425375897079
40
0.592425375897079
40
0.614995682049769
40
0.614995682049769
40
0.637565988202458
40
0.637565988202458
40
0.660136294355148
40
0.660136294355148
40
0.665778870893321
40
0.665778870893321
40
0.671421447431493
40
0.671421447431493
40
0.682706600507838
40
0.682706600507838
40
0.693991753584183
40
0.693991753584183
40
0.705276906660528
40
0.705276906660528
40
0.727847212813216
40
0.727847212813216
40
0.750417518965904
40
0.750417518965904
40
0.772987825118593
40
0.772987825118593
40
0.795558131271281
40
0.795558131271281
40
0.818128437423969
40
0.818128437423969
40
0.840698743576657
40
0.840698743576657
40
0.851983896653002
40
0.851983896653002
40
0.863269049729346
40
0.863269049729346
40
0.87455420280569
40
0.87455420280569
40
0.885839355882034
40
0.885839355882034
40
0.908409662034721
40
0.908409662034721
40
0.930979968187407
40
0.930979968187407
40
0.953550274340094
40
0.953550274340094
40
0.976120580492781
40
0.976120580492781
40
0.998690886645467
40
0.998690886645467
40
1
40
1
40
1
40
1
41
1
10
62.9007373021142
20
-2.11892993206632
30
0
41
1
10
62.8629583014703
20
-2.1337693168565
30
0
41
1
10
62.8251961438942
20
-2.14842887398447
30
0
41
1
10
62.6352279206055
20
-2.22126734524056
30
0
41
1
10
62.4832438082282
20
-2.27667145406724
30
0
41
1
10
62.1794607355902
20
-2.3813122496301
30
0
41
1
10
62.0277061528175
20
-2.43060171212394
30
0
41
1
10
61.7243632831944
20
-2.52298557059845
30
0
41
1
10
61.5726710049434
20
-2.56597333165416
30
0
41
1
10
61.2688839477615
20
-2.64522199910897
30
0
41
1
10
61.1167825299589
20
-2.68148239913967
30
0
41
1
10
60.8120276371357
20
-2.74713524632008
30
0
41
1
10
60.6594744815387
20
-2.77658810390423
30
0
41
1
10
60.4299397127807
20
-2.81533341989675
30
0
41
1
10
60.3149928585192
20
-2.83334841664239
30
0
41
1
10
60.1997378496942
20
-2.84929413432002
30
0
41
1
10
60.1228280443221
20
-2.85946092828866
30
0
41
1
10
60.084332902688
20
-2.86431258106333
30
0
41
1
10
59.8921284669793
20
-2.88734972386931
30
0
41
1
10
59.7388338419279
20
-2.90192154050516
30
0
41
1
10
59.433248614819
20
-2.92349260175283
30
0
41
1
10
59.2809030206679
20
-2.93046122137801
30
0
41
1
10
58.9765539529498
20
-2.93678495012694
30
0
41
1
10
58.8245813925906
20
-2.93615015614125
30
0
41
1
10
58.5967297412004
20
-2.92957190530475
30
0
41
1
10
58.5208020291137
20
-2.92644171254147
30
0
41
1
10
58.3690172728043
20
-2.91830064966717
30
0
41
1
10
58.2931626420896
20
-2.91328786070593
30
0
41
1
10
58.0655748297819
20
-2.89544039345051
30
0
41
1
10
57.9137832658995
20
-2.87980710847813
30
0
41
1
10
57.6097601883575
20
-2.84117639490762
30
0
41
1
10
57.4575065207525
20
-2.81819437700992
30
0
41
1
10
57.1524499923607
20
-2.76486947986277
30
0
41
1
10
56.9997280404712
20
-2.73446511287753
30
0
41
1
10
56.7698571423747
20
-2.68345602870281
30
0
41
1
10
56.6931071486492
20
-2.66555157952084
30
0
41
1
10
56.5393193631671
20
-2.62795305819313
30
0
41
1
10
56.4622638839908
20
-2.6082517877791
30
0
41
1
10
56.2317294999937
20
-2.54679989079483
30
0
41
1
10
56.0785032647528
20
-2.50262800381003
30
0
41
1
10
55.7730229875341
20
-2.40790303411151
30
0
41
1
10
55.6206776310827
20
-2.35743223998955
30
0
41
1
10
55.3162970317505
20
-2.25086423222555
30
0
41
1
10
55.1642803120853
20
-2.19475093606528
30
0
41
1
10
54.93635165633
20
-2.1065726251573
30
0
41
1
10
54.8604003990646
20
-2.07650099846595
30
0
41
1
10
54.708565991737
20
-2.01497272388616
30
0
41
1
10
54.6326765362768
20
-1.98352318291862
30
0
41
1
10
54.4049470679541
20
-1.88730386036238
30
0
41
1
10
54.253027295076
20
-1.82069080191314
30
0
41
1
10
53.9487149186456
20
-1.68291662623045
30
0
41
1
10
53.7962882175335
20
-1.61181070585667
30
0
41
1
10
53.4909110282589
20
-1.46508103744941
30
0
41
1
10
53.3379973707736
20
-1.38938637089143
30
0
41
1
10
53.1077827429538
20
-1.27310102917753
30
0
41
1
10
53.0309129706381
20
-1.23386852262101
30
0
41
1
10
52.8768747512509
20
-1.15451290029091
30
0
41
1
10
52.7999101945736
20
-1.11449460569608
30
0
41
1
10
52.5694613834634
20
-0.993697716822709
30
0
41
1
10
52.4163031968616
20
-0.912056986979394
30
0
41
1
10
52.1108945742248
20
-0.746634866993105
30
0
41
1
10
51.958534365115
20
-0.663048250744367
30
0
41
1
10
51.6540987558528
20
-0.49485219534219
30
0
41
1
10
51.5020244529402
20
-0.410241232363347
30
0
41
1
10
51.1980088427228
20
-0.240274798077536
30
0
41
1
10
51.0461773416208
20
-0.154720710618591
30
0
41
1
10
50.7423242738863
20
0.016551170928949
30
0
41
1
10
50.5902761428609
20
0.102220308890622
30
0
41
1
10
50.2856694556049
20
0.273139022058501
30
0
41
1
10
50.1330747521436
20
0.358321998075894
30
0
41
1
10
49.8273921140116
20
0.528305715812536
30
0
41
1
10
49.6742747611647
20
0.613053797320902
30
0
41
1
10
49.4821462265849
20
0.717977685605831
30
0
41
1
10
49.4436863367434
20
0.738916311512412
30
0
41
1
10
49.3666937750821
20
0.780693221884434
30
0
41
1
10
49.3281388796672
20
0.801543435768963
30
0
41
1
10
49.2125961553608
20
0.863803053570365
30
0
41
1
10
49.1356925124384
20
0.904940275358143
30
0
41
1
10
48.9821021315459
20
0.98643155271111
30
0
41
1
10
48.9054182510753
20
1.02679122689369
30
0
41
1
10
48.7522989975706
20
1.10679160366712
30
0
41
1
10
48.675870054544
20
1.14644255603193
30
0
41
1
10
48.4468394986641
20
1.26411840782021
30
0
41
1
10
48.2944515585283
20
1.34079506300625
30
0
41
1
10
47.9899415590825
20
1.49012138523611
30
0
41
1
10
47.8378014976329
20
1.5627462231989
30
0
41
1
10
47.5336783524768
20
1.70383687929618
30
0
41
1
10
47.3817922707165
20
1.77243968858352
30
0
41
1
10
47.0777154105813
20
1.90477981034735
30
0
41
1
10
46.9255370910601
20
1.96854073749327
30
0
41
1
10
46.6206305780174
20
2.0908728233369
30
0
41
1
10
46.4678815941888
20
2.14942265582454
30
0
41
1
10
46.1618883999531
20
2.26134000897903
30
0
41
1
10
46.0085612087891
20
2.31459584060715
30
0
41
1
10
45.777672521423
20
2.38990156071898
30
0
41
1
10
45.700488771457
20
2.41427400649863
30
0
41
1
10
45.5464786379207
20
2.46126325690085
30
0
41
1
10
45.4695911868595
20
2.48389776617066
30
0
41
1
10
45.3160355256566
20
2.52745332766031
30
0
41
1
10
45.2393716950082
20
2.54837915916642
30
0
41
1
10
45.0862973642883
20
2.58855767268506
30
0
41
1
10
45.0098820824007
20
2.60780440500571
30
0
41
1
10
44.7808526104728
20
2.66290238658792
30
0
41
1
10
44.628429209543
20
2.6960944464883
30
0
41
1
10
44.3238263911082
20
2.75530841173458
30
0
41
1
10
44.1716129905739
20
2.78131622173581
30
0
41
1
10
43.867385191954
20
2.826178832631
30
0
41
1
10
43.7154242229727
20
2.84504112704312
30
0
41
1
10
43.4111159997794
20
2.87531425858984
30
0
41
1
10
43.2588058364908
20
2.88674821290729
30
0
41
1
10
42.953600124272
20
2.90213266562458
30
0
41
1
10
42.8007174289339
20
2.90609359301681
30
0
41
1
10
42.6386815244708
20
2.90626459511981
30
0
41
1
10
42.6297971279091
20
2.90626114059091
30
0
41
1
10
42.620911395348
20
2.90624484938022
30
0
0
SPLINE
5
EB
100
AcDbEntity
8
1
62
256
6
ByLayer
370
18
48
1
60
0
100
AcDbSpline
70
4
71
3
72
119
73
115
40
0
40
0
40
0
40
0
40
0.0206406115184474
40
0.0206406115184474
40
0.0320316901966349
40
0.0320316901966349
40
0.0434227688748221
40
0.0434227688748221
40
0.0662049262311982
40
0.0662049262311982
40
0.0889870835875745
40
0.0889870835875745
40
0.111769240943951
40
0.111769240943951
40
0.123160319622138
40
0.123160319622138
40
0.134551398300327
40
0.134551398300327
40
0.157333555656703
40
0.157333555656703
40
0.180115713013079
40
0.180115713013079
40
0.202897870369456
40
0.202897870369456
40
0.214288949047644
40
0.214288949047644
40
0.225680027725831
40
0.225680027725831
40
0.248462185082208
40
0.248462185082208
40
0.271244342438584
40
0.271244342438584
40
0.29402649979496
40
0.29402649979496
40
0.305417578473148
40
0.305417578473148
40
0.316808657151335
40
0.316808657151335
40
0.328199735829523
40
0.328199735829523
40
0.339590814507711
40
0.339590814507711
40
0.362372971864087
40
0.362372971864087
40
0.385155129220463
40
0.385155129220463
40
0.407937286576839
40
0.407937286576839
40
0.430719443933215
40
0.430719443933215
40
0.453501601289591
40
0.453501601289591
40
0.476283758645968
40
0.476283758645968
40
0.487674837324155
40
0.487674837324155
40
0.493370376663249
40
0.493370376663249
40
0.499065916002343
40
0.51045699468053
40
0.51045699468053
40
0.521848073358717
40
0.521848073358717
40
0.544630230715092
40
0.544630230715092
40
0.567412388071466
40
0.567412388071466
40
0.590194545427841
40
0.590194545427841
40
0.612976702784215
40
0.612976702784215
40
0.63575886014059
40
0.63575886014059
40
0.658541017496965
40
0.658541017496965
40
0.669932096175152
40
0.669932096175152
40
0.675627635514245
40
0.675627635514245
40
0.681323174853338
40
0.681323174853338
40
0.692714253531524
40
0.692714253531524
40
0.70410533220971
40
0.70410533220971
40
0.72688748956608
40
0.72688748956608
40
0.749669646922451
40
0.749669646922451
40
0.772451804278822
40
0.772451804278822
40
0.795233961635192
40
0.795233961635192
40
0.806625040313378
40
0.806625040313378
40
0.818016118991564
40
0.818016118991564
40
0.840798276347934
40
0.840798276347934
40
0.852189355026119
40
0.852189355026119
40
0.863580433704304
40
0.863580433704304
40
0.886362591060673
40
0.886362591060673
40
0.909144748417042
40
0.909144748417042
40
0.931926905773411
40
0.931926905773411
40
0.95470906312978
40
0.95470906312978
40
0.97749122048615
40
0.97749122048615
40
1
40
1
40
1
40
1
41
1
10
30.2071519674016
20
-2.1122661723561
30
0
41
1
10
30.0687277683547
20
-2.16448483190766
30
0
41
1
10
29.9304571475876
20
-2.21431473026584
30
0
41
1
10
29.7159641228881
20
-2.28780055983114
30
0
41
1
10
29.6397069784643
20
-2.31318413346557
30
0
41
1
10
29.4872684578507
20
-2.36248906286147
30
0
41
1
10
29.4110948873327
20
-2.38641738451548
30
0
41
1
10
29.1825694442177
20
-2.45587027020494
30
0
41
1
10
29.0301635530722
20
-2.49901423983383
30
0
41
1
10
28.7249066356544
20
-2.57868395437282
30
0
41
1
10
28.5720379631311
20
-2.61520065494619
30
0
41
1
10
28.2657659161915
20
-2.68151371519534
30
0
41
1
10
28.1124701043457
20
-2.71137454173848
30
0
41
1
10
27.8817577064713
20
-2.75077395177038
30
0
41
1
10
27.8047286900846
20
-2.76301290301925
30
0
41
1
10
27.6503874441137
20
-2.78567385054015
30
0
41
1
10
27.5729952240223
20
-2.79610420012037
30
0
41
1
10
27.3413460530348
20
-2.82450954927001
30
0
41
1
10
27.1873721372582
20
-2.8396442614119
30
0
41
1
10
26.8804643187091
20
-2.86245039872941
30
0
41
1
10
26.7274314169501
20
-2.87007703943547
30
0
41
1
10
26.4216751035587
20
-2.87779846754268
30
0
41
1
10
26.2689777772422
20
-2.87790448526687
30
0
41
1
10
26.0400450763203
20
-2.87249780177154
30
0
41
1
10
25.9637624229705
20
-2.86976774503992
30
0
41
1
10
25.8112848218781
20
-2.86244151450035
30
0
41
1
10
25.7350834213054
20
-2.85784446938922
30
0
41
1
10
25.5064316458607
20
-2.84127398267671
30
0
41
1
10
25.3539081530277
20
-2.82653105918868
30
0
41
1
10
25.0484155940457
20
-2.78975612329421
30
0
41
1
10
24.8954081851483
20
-2.76774857622027
30
0
41
1
10
24.5889388298186
20
-2.71639059972438
30
0
41
1
10
24.4355232702838
20
-2.6869917071908
30
0
41
1
10
24.2045740073872
20
-2.63757012289449
30
0
41
1
10
24.1274639866292
20
-2.62020451207815
30
0
41
1
10
23.9729561150314
20
-2.58370386169707
30
0
41
1
10
23.8955231390667
20
-2.56455760269969
30
0
41
1
10
23.7410674485351
20
-2.52471010026193
30
0
41
1
10
23.6639545457969
20
-2.50399076673023
30
0
41
1
10
23.5099894831315
20
-2.46094351507387
30
0
41
1
10
23.4331488026735
20
-2.43860349242289
30
0
41
1
10
23.2029526031639
20
-2.36923667825769
30
0
41
1
10
23.0498536111535
20
-2.31993300556064
30
0
41
1
10
22.7439727208562
20
-2.21574499840105
30
0
41
1
10
22.5911903794029
20
-2.16086672938317
30
0
41
1
10
22.2858262318489
20
-2.04573452006576
30
0
41
1
10
22.1333719659673
20
-1.98531085635318
30
0
41
1
10
21.8283073452869
20
-1.85952207209027
30
0
41
1
10
21.675674812094
20
-1.79419393798167
30
0
41
1
10
21.3699514367935
20
-1.65904957871916
30
0
41
1
10
21.2168215101394
20
-1.58929948874743
30
0
41
1
10
20.9101890776842
20
-1.44512307734405
30
0
41
1
10
20.7566343189413
20
-1.37076452214038
30
0
41
1
10
20.5254617917405
20
-1.25656277349515
30
0
41
1
10
20.448275416938
20
-1.21803413653788
30
0
41
1
10
20.3322766674687
20
-1.15958785447126
30
0
41
1
10
20.2935524252156
20
-1.13998595386039
30
0
41
1
10
20.2161875913976
20
-1.10065360845564
30
0
41
1
10
20.1002305142222
20
-1.04144974472749
30
0
41
1
10
19.9845461180519
20
-0.981626920355012
30
0
41
1
10
19.8305806079816
20
-0.901244628994561
30
0
41
1
10
19.7537415515605
20
-0.860737696971739
30
0
41
1
10
19.523497373883
20
-0.738557879241483
30
0
41
1
10
19.3703223560596
20
-0.656304345530742
30
0
41
1
10
19.0643034853302
20
-0.490772760345266
30
0
41
1
10
18.9114313280023
20
-0.407547052601956
30
0
41
1
10
18.6059698211616
20
-0.240163883377789
30
0
41
1
10
18.4534746339014
20
-0.155831865202771
30
0
41
1
10
18.1482113775875
20
0.0127409709401434
30
0
41
1
10
17.9954733373411
20
0.0970366392245978
30
0
41
1
10
17.68952235239
20
0.265159390167753
30
0
41
1
10
17.5363030227076
20
0.348973986099509
30
0
41
1
10
17.2295017766743
20
0.516349629825413
30
0
41
1
10
17.0758012268921
20
0.599689938397944
30
0
41
1
10
16.8444182497336
20
0.723466619941831
30
0
41
1
10
16.7671603712541
20
0.764535707659519
30
0
41
1
10
16.6510519260329
20
0.825805687815802
30
0
41
1
10
16.6123053795862
20
0.846176661900699
30
0
41
1
10
16.5349182691637
20
0.886703068747153
30
0
41
1
10
16.4962554118303
20
0.906871133356759
30
0
41
1
10
16.3803645119777
20
0.967102731056798
30
0
41
1
10
16.3032375163291
20
1.00690023097076
30
0
41
1
10
16.1492686713118
20
1.08581745067119
30
0
41
1
10
16.0724174151413
20
1.12491911389662
30
0
41
1
10
15.8420936441006
20
1.24086368369058
30
0
41
1
10
15.688842295398
20
1.3163338683047
30
0
41
1
10
15.3826725077573
20
1.46326250377322
30
0
41
1
10
15.2297091512967
20
1.5346540545936
30
0
41
1
10
14.9241734545705
20
1.67354576226353
30
0
41
1
10
14.7716014927703
20
1.74103224758105
30
0
41
1
10
14.4661385641376
20
1.87102580562703
30
0
41
1
10
14.3132962524195
20
1.93361026850397
30
0
41
1
10
14.0836689320718
20
2.02360017648704
30
0
41
1
10
14.0070673121804
20
2.0529515729389
30
0
41
1
10
13.8537833531236
20
2.11040600299475
30
0
41
1
10
13.7771121687039
20
2.13852235597133
30
0
41
1
10
13.5468802140814
20
2.22085259341395
30
0
41
1
10
13.3930378419209
20
2.27296944400686
30
0
41
1
10
13.1614593985196
20
2.34661982807407
30
0
41
1
10
13.0841351042887
20
2.37042116156457
30
0
41
1
10
12.9291879829062
20
2.41647922928934
30
0
41
1
10
12.8517165954598
20
2.43868515795847
30
0
41
1
10
12.6198854958421
20
2.50274990312369
30
0
41
1
10
12.4659746653412
20
2.5421904945147
30
0
41
1
10
12.158729499803
20
2.61397025694973
30
0
41
1
10
12.0054012905326
20
2.64632738802357
30
0
41
1
10
11.6990678697116
20
2.70391519288887
30
0
41
1
10
11.5460356106554
20
2.72914016207187
30
0
41
1
10
11.2404250108941
20
2.77256123594526
30
0
41
1
10
11.0877509418729
20
2.79069011087796
30
0
41
1
10
10.7820885440505
20
2.81956955256317
30
0
41
1
10
10.6291378360197
20
2.83034159513215
30
0
41
1
10
10.3246016026888
20
2.84441739226443
30
0
41
1
10
10.1730815647085
20
2.84781979099139
30
0
41
1
10
10.0212842540099
20
2.84756549169046
30
0
0
SPLINE
5
EC
100
AcDbEntity
8
1
62
256
6
ByLayer
370
18
48
1
60
0
100
AcDbSpline
70
4
71
3
72
74
73
70
40
0
40
0
40
0
40
0
40
0.0107093765605507
40
0.0107093765605507
40
0.0215929008622974
40
0.0215929008622974
40
0.0433599494657908
40
0.0433599494657908
40
0.0868940466727769
40
0.0868940466727769
40
0.173962241086749
40
0.173962241086749
40
0.184845765388496
40
0.184845765388496
40
0.19028752753937
40
0.19028752753937
40
0.195729289690243
40
0.217496338293737
40
0.217496338293737
40
0.261030435500723
40
0.261030435500723
40
0.30456453270771
40
0.30456453270771
40
0.348098629914696
40
0.348098629914696
40
0.358982154216443
40
0.358982154216443
40
0.36986567851819
40
0.36986567851819
40
0.391632727121684
40
0.391632727121684
40
0.435166824328671
40
0.435166824328671
40
0.47870092153566
40
0.47870092153566
40
0.522235018742647
40
0.522235018742647
40
0.544002067346142
40
0.544002067346142
40
0.554885591647889
40
0.554885591647889
40
0.565769115949636
40
0.565769115949636
40
0.609303213156623
40
0.609303213156623
40
0.652837310363611
40
0.652837310363611
40
0.696371407570599
40
0.696371407570599
40
0.718138456174093
40
0.718138456174093
40
0.729021980475841
40
0.729021980475841
40
0.734463742626715
40
0.734463742626715
40
0.739905504777589
40
0.783439601984578
40
0.783439601984578
40
0.826973699191568
40
0.826973699191568
40
0.870507796398557
40
0.870507796398557
40
0.892274845002053
40
0.892274845002053
40
0.914041893605548
40
0.914041893605548
40
0.95757599081254
40
0.95757599081254
40
1
40
1
40
1
40
1
41
1
10
13.89121884524
20
2.09957778342678
30
0
41
1
10
13.9639800517147
20
2.12674537357961
30
0
41
1
10
14.0369270147221
20
2.15336627388589
30
0
41
1
10
14.1837182096309
20
2.20564832778928
30
0
41
1
10
14.2575846876975
20
2.23129817966878
30
0
41
1
10
14.4788697903083
20
2.30610445509112
30
0
41
1
10
14.6259782679506
20
2.35311309689593
30
0
41
1
10
15.0664017258596
20
2.48531297224301
30
0
41
1
10
15.3587982115924
20
2.56168659834606
30
0
41
1
10
16.2353561386694
20
2.75335834037642
30
0
41
1
10
16.8187706624358
20
2.8312851467258
30
0
41
1
10
17.4826451834937
20
2.85719065111667
30
0
41
1
10
17.5565148565654
20
2.85921128808602
30
0
41
1
10
17.6675030172623
20
2.8609411758348
30
0
41
1
10
17.7045406060971
20
2.86130077869632
30
0
41
1
10
17.7785157061712
20
2.86158424272398
30
0
41
1
10
17.963298616729
20
2.86120579074813
30
0
41
1
10
18.1473606186362
20
2.85541760225817
30
0
41
1
10
18.588107330584
20
2.8313469306141
30
0
41
1
10
18.8805548229186
20
2.80171301161096
30
0
41
1
10
19.4646971428734
20
2.71638641091653
30
0
41
1
10
19.7563854951068
20
2.66069748566232
30
0
41
1
10
20.340847281488
20
2.52437782096942
30
0
41
1
10
20.6336514050414
20
2.44377209198876
30
0
41
1
10
21.0015488675702
20
2.32819727991372
30
0
41
1
10
21.0752213032369
20
2.30433937937218
30
0
41
1
10
21.2227905919179
20
2.25516624499534
30
0
41
1
10
21.2967173178831
20
2.22984015457683
30
0
41
1
10
21.5186883867343
20
2.15177267414873
30
0
41
1
10
21.6661597002385
20
2.09721435477718
30
0
41
1
10
22.1074378365965
20
1.92660826164027
30
0
41
1
10
22.4000790323506
20
1.80358819447216
30
0
41
1
10
22.9842469491567
20
1.54207652053472
30
0
41
1
10
23.275788701847
20
1.40361088205697
30
0
41
1
10
23.8596024982492
20
1.11414236065849
30
0
41
1
10
24.1519049014858
20
0.963187737840371
30
0
41
1
10
24.5924020965681
20
0.729760697657014
30
0
41
1
10
24.7395626482739
20
0.650762790118648
30
0
41
1
10
24.9610071432101
20
0.530830147499501
30
0
41
1
10
25.0350224606282
20
0.490565698195269
30
0
41
1
10
25.1827744797026
20
0.409905959392205
30
0
41
1
10
25.2565281628132
20
0.36950202384574
30
0
41
1
10
25.6247668630255
20
0.167261980572789
30
0
41
1
10
25.9176533979298
20
0.0047468932464483
30
0
41
1
10
26.5019559396047
20
-0.318192174067775
30
0
41
1
10
26.7934021315268
20
-0.478560879038412
30
0
41
1
10
27.376696363957
20
-0.793801246224746
30
0
41
1
10
27.6685682494622
20
-0.948628718378302
30
0
41
1
10
28.1081896413532
20
-1.1740074775164
30
0
41
1
10
28.2550222202282
20
-1.24800783280023
30
0
41
1
10
28.4758982380737
20
-1.35697736381687
30
0
41
1
10
28.5496298227321
20
-1.39295909789325
30
0
41
1
10
28.6604094936265
20
-1.44637808061052
30
0
41
1
10
28.697387224553
20
-1.46410190295322
30
0
41
1
10
28.7712677715472
20
-1.49929107296444
30
0
41
1
10
29.1034474720302
20
-1.65650804903856
30
0
41
1
10
29.4332634359471
20
-1.80328938102693
30
0
41
1
10
30.0177986166164
20
-2.04540736677348
30
0
41
1
10
30.3091938651098
20
-2.1570120769185
30
0
41
1
10
30.8921026395531
20
-2.35910760301425
30
0
41
1
10
31.1836053027426
20
-2.44960545095029
30
0
41
1
10
31.6224361584077
20
-2.56778444380498
30
0
41
1
10
31.7689766334881
20
-2.60425069319552
30
0
41
1
10
32.062795618479
20
-2.6710746030306
30
0
41
1
10
32.2101240455921
20
-2.70142910227244
30
0
41
1
10
32.6534099109683
20
-2.78282194571608
30
0
41
1
10
32.9469072064773
20
-2.82349632032486
30
0
41
1
10
33.5243033358672
20
-2.87694079639888
30
0
41
1
10
33.8082835976631
20
-2.89037782365509
30
0
41
1
10
34.0921613753913
20
-2.8908869172916
30
0
0
SPLINE
5
ED
100
AcDbEntity
8
1
62
256
6
ByLayer
370
18
48
1
60
0
100
AcDbSpline
70
4
71
3
72
70
73
66
40
0
40
0
40
0
40
0
40
0.0217279552290897
40
0.0217279552290897
40
0.0345999558181791
40
0.0345999558181791
40
0.0474719564072687
40
0.0732159575854477
40
0.0732159575854477
40
0.124703959941806
40
0.124703959941806
40
0.176191962298164
40
0.176191962298164
40
0.227679964654522
40
0.227679964654522
40
0.240551965243612
40
0.240551965243612
40
0.253423965832703
40
0.253423965832703
40
0.279167967010884
40
0.292039967599975
40
0.292039967599975
40
0.304911968189067
40
0.304911968189067
40
0.33065596936725
40
0.33065596936725
40
0.382143971723617
40
0.382143971723617
40
0.485119976436351
40
0.485119976436351
40
0.497991977025442
40
0.497991977025442
40
0.510863977614533
40
0.510863977614533
40
0.536607978792715
40
0.536607978792715
40
0.588095981149077
40
0.588095981149077
40
0.600967981738167
40
0.600967981738167
40
0.613839982327256
40
0.613839982327256
40
0.639583983505438
40
0.639583983505438
40
0.691071985861802
40
0.691071985861802
40
0.742559988218165
40
0.742559988218165
40
0.794047990574529
40
0.794047990574529
40
0.806919991163621
40
0.806919991163621
40
0.819791991752712
40
0.819791991752712
40
0.845535992930896
40
0.845535992930896
40
0.897023995287264
40
0.897023995287264
40
0.909895995876355
40
0.909895995876355
40
0.922767996465446
40
0.922767996465446
40
0.948511997643631
40
0.948511997643631
40
1
40
1
40
1
40
1
41
1
10
49.6758045115899
20
2.87980585202976
30
0
41
1
10
49.8009127911576
20
2.89147608389237
30
0
41
1
10
49.9260925361288
20
2.90065829650675
30
0
41
1
10
50.1256718440333
20
2.91127104845737
30
0
41
1
10
50.2000084926138
20
2.9143371871086
30
0
41
1
10
50.348653122268
20
2.9186870983612
30
0
41
1
10
50.5712368331043
20
2.92253122710858
30
0
41
1
10
50.7928053303179
20
2.91839973492895
30
0
41
1
10
51.2349695843926
20
2.89967482800989
30
0
41
1
10
51.5284455642085
20
2.87323194478594
30
0
41
1
10
52.1149661255611
20
2.79348060746048
30
0
41
1
10
52.4079985938862
20
2.74018109701498
30
0
41
1
10
52.9954637813797
20
2.60770864847987
30
0
41
1
10
53.2898998779886
20
2.52853379366124
30
0
41
1
10
53.6600785649327
20
2.41404894989799
30
0
41
1
10
53.7342211989805
20
2.39037634796671
30
0
41
1
10
53.8827522605164
20
2.34149661687721
30
0
41
1
10
53.957083014034
20
2.31630752645208
30
0
41
1
10
54.1798756311482
20
2.23869024731746
30
0
41
1
10
54.4025286071718
20
2.15688634260687
30
0
41
1
10
54.625267174963
20
2.06913841408235
30
0
41
1
10
54.773813484866
20
2.00935927966725
30
0
41
1
10
54.8480552638935
20
1.97885200031993
30
0
41
1
10
55.0702995125008
20
1.88573910027941
30
0
41
1
10
55.2179943949441
20
1.82147304460781
30
0
41
1
10
55.660099288734
20
1.62279193598124
30
0
41
1
10
55.9535542172174
20
1.48253398114565
30
0
41
1
10
56.8329065572315
20
1.04305647439679
30
0
41
1
10
57.4177401429462
20
0.725035292978589
30
0
41
1
10
58.0830321465998
20
0.353859869228899
30
0
41
1
10
58.1570556911913
20
0.312432126044769
30
0
41
1
10
58.3053398959412
20
0.229258785510382
30
0
41
1
10
58.3796387061712
20
0.187491646252027
30
0
41
1
10
58.6021909846365
20
0.0622228697655203
30
0
41
1
10
58.7503253586554
20
-0.0213722176266344
30
0
41
1
10
59.194438957904
20
-0.271672957836245
30
0
41
1
10
59.4901479064351
20
-0.437859864044583
30
0
41
1
10
59.8606110323053
20
-0.642463733121872
30
0
41
1
10
59.9347440647208
20
-0.683229672076493
30
0
41
1
10
60.0831227822559
20
-0.764395375053709
30
0
41
1
10
60.1573964694717
20
-0.804809821145568
30
0
41
1
10
60.3796725583031
20
-0.925006103024373
30
0
41
1
10
60.5273729103657
20
-1.00387418998352
30
0
41
1
10
60.9694216922601
20
-1.23608504680433
30
0
41
1
10
61.2627239754825
20
-1.38502312469035
30
0
41
1
10
61.8485730668462
20
-1.66811649054037
30
0
41
1
10
62.141103029162
20
-1.80230071647134
30
0
41
1
10
62.7272831197772
20
-2.05308925346665
30
0
41
1
10
63.0209376924115
20
-2.16968332688484
30
0
41
1
10
63.3900247709933
20
-2.30249194763189
30
0
41
1
10
63.4639434000393
20
-2.32840678240427
30
0
41
1
10
63.6120166877785
20
-2.37889392269645
30
0
41
1
10
63.6862358011135
20
-2.40348650335585
30
0
41
1
10
63.9087123898867
20
-2.47499192441171
30
0
41
1
10
64.0567960828178
20
-2.5196413815579
30
0
41
1
10
64.5007210866911
20
-2.64423448653801
30
0
41
1
10
64.7962334607049
20
-2.71482271984644
30
0
41
1
10
65.1663851424821
20
-2.78644318633511
30
0
41
1
10
65.2404537350183
20
-2.79993652554344
30
0
41
1
10
65.3887006879286
20
-2.82523632214205
30
0
41
1
10
65.4629153578134
20
-2.83704747200628
30
0
41
1
10
65.6853001623483
20
-2.86984691588654
30
0
41
1
10
65.8333231489481
20
-2.88822352375934
30
0
41
1
10
66.2770775845896
20
-2.93280606451967
30
0
41
1
10
66.5724945386157
20
-2.94847045775865
30
0
41
1
10
66.8684591527053
20
-2.94985261645758
30
0
0
SPLINE
5
EE
100
AcDbEntity
8
1
62
256
6
ByLayer
370
18
48
1
60
0
100
AcDbSpline
70
4
71
3
72
10
73
6
40
0
40
0
40
0
40
0
40
0.5
40
0.5
40
1
40
1
40
1
40
1
41
1
10
66.8496536612685
20
-2.93044925705019
30
0
41
1
10
66.8527793674265
20
-2.9366264006311
30
0
41
1
10
66.8559082592901
20
-2.94133615977304
30
0
41
1
10
66.8621795434003
20
-2.94781180740296
30
0
41
1
10
66.8653233223264
20
-2.94957378462345
30
0
41
1
10
66.8684591527053
20
-2.94985261645758
30
0
0
SPLINE
5
EF
100
AcDbEntity
8
1
62
256
6
ByLayer
370
18
48
1
60
0
100
AcDbSpline
70
4
71
3
72
28
73
24
40
0
40
0
40
0
40
0
40
0.125000000000239
40
0.125000000000239
40
0.187500000000356
40
0.187500000000356
40
0.250000000000472
40
0.250000000000472
40
0.375000000000603
40
0.375000000000603
40
0.4375000000006
40
0.4375000000006
40
0.500000000000596
40
0.500000000000596
40
0.62500000000059
40
0.62500000000059
40
0.687500000000491
40
0.687500000000491
40
0.750000000000393
40
0.750000000000393
40
0.875000000000197
40
0.875000000000197
40
1
40
1
40
1
40
1
41
1
10
38.5003037857388
20
-2.42822027766172
30
0
41
1
10
38.5003037857387
20
-2.42342775953466
30
0
41
1
10
38.5014380158578
20
-2.41870915235197
30
0
41
1
10
38.504791187121
20
-2.41174374720865
30
0
41
1
10
38.5062015523114
20
-2.40942537517219
30
0
41
1
10
38.5095217020676
20
-2.40494561168467
30
0
41
1
10
38.5114310182777
20
-2.40277608505099
30
0
41
1
10
38.5178924299555
20
-2.39647823984546
30
0
41
1
10
38.5232663802582
20
-2.39251173648015
30
0
41
1
10
38.5324294084836
20
-2.38730302545159
30
0
41
1
10
38.5356706272269
20
-2.38568189192361
30
0
41
1
10
38.5425274092977
20
-2.38267328909035
30
0
41
1
10
38.5461692921794
20
-2.38127748585654
30
0
41
1
10
38.5574851812181
20
-2.37752806469172
30
0
41
1
10
38.5654610731488
20
-2.37562070438926
30
0
41
1
10
38.5780691292145
20
-2.37365628276874
30
0
41
1
10
38.5823850849656
20
-2.37315544292298
30
0
41
1
10
38.5909843385563
20
-2.37248899184323
30
0
41
1
10
38.5952989207471
20
-2.37231765162448
30
0
41
1
10
38.608287206225
20
-2.37228642018451
30
0
41
1
10
38.6170867713159
20
-2.37292961603313
30
0
41
1
10
38.6338374705775
20
-2.37545310915741
30
0
41
1
10
38.641964777612
20
-2.37734321261044
30
0
41
1
10
38.6495989494404
20
-2.37982465891625
30
0
0
SPLINE
5
F0
100
AcDbEntity
8
1
62
256
6
ByLayer
370
18
48
1
60
0
100
AcDbSpline
70
4
71
3
72
12
73
8
40
0
40
0
40
0
40
0
40
0.5
40
0.5
40
0.75
40
0.75
40
1
40
1
40
1
40
1
41
1
10
66.8537766767041
20
-0.290051352064893
30
0
41
1
10
66.8603473880266
20
-0.226074835422054
30
0
41
1
10
66.8676074912083
20
-0.161748229908056
30
0
41
1
10
66.8796927750467
20
-0.0647337538205477
30
0
41
1
10
66.883915735381
20
-0.0323543220466433
30
0
41
1
10
66.8927148862846
20
0.0320703482141766
30
0
41
1
10
66.8972983100599
20
0.0641746356349699
30
0
41
1
10
66.9020734141515
20
0.0961706652590237
30
0
0
SPLINE
5
F1
100
AcDbEntity
8
1
62
256
6
ByLayer
370
18
48
1
60
0
100
AcDbSpline
70
4
71
3
72
47
73
43
40
0
40
0
40
0
40
0
40
0.0572934552576685
40
0.0572934552576685
40
0.114586910515337
40
0.114586910515337
40
0.171880365773006
40
0.171880365773006
40
0.229173821030674
40
0.229173821030674
40
0.286467276288343
40
0.286467276288343
40
0.343760731546011
40
0.343760731546011
40
0.40105418680368
40
0.40105418680368
40
0.429700914432514
40
0.429700914432514
40
0.458347642061348
40
0.458347642061348
40
0.515641097319013
40
0.515641097319013
40
0.572934552576677
40
0.572934552576677
40
0.630228007834342
40
0.630228007834342
40
0.687521463092007
40
0.687521463092007
40
0.744814918349671
40
0.744814918349671
40
0.802108373607336
40
0.802108373607336
40
0.83075510123617
40
0.845078465050587
40
0.845078465050587
40
0.859401828865004
40
0.859401828865004
40
0.916695284122673
40
0.916695284122673
40
0.973988739380341
40
0.973988739380341
40
1
40
1
40
1
40
1
41
1
10
66.9020734141534
20
0.0961706652715009
30
0
41
1
10
66.7490224155583
20
0.183095637451771
30
0
41
1
10
66.5965298527317
20
0.269819532846441
30
0
41
1
10
66.292015469823
20
0.441705983478414
30
0
41
1
10
66.1400253748308
20
0.526929269865832
30
0
41
1
10
65.8362944407175
20
0.695459706857946
30
0
41
1
10
65.684564250092
20
0.778787875653251
30
0
41
1
10
65.3813671186675
20
0.943554837506184
30
0
41
1
10
65.2298023780203
20
1.02482227096706
30
0
41
1
10
64.9263194028404
20
1.18441532261323
30
0
41
1
10
64.77441003803
20
1.2627575797184
30
0
41
1
10
64.470058752004
20
1.41620187925992
30
0
41
1
10
64.3177162255379
20
1.49146270041891
30
0
41
1
10
64.0122273784418
20
1.63826753720875
30
0
41
1
10
63.8590371470116
20
1.70974426032203
30
0
41
1
10
63.6283702858951
20
1.81371790261528
30
0
41
1
10
63.5514804699538
20
1.8477638163836
30
0
41
1
10
63.3980532945372
20
1.91444630689284
30
0
41
1
10
63.3214610411197
20
1.94711483443314
30
0
41
1
10
63.092080502376
20
2.04316212010096
30
0
41
1
10
62.9396643920215
20
2.10453894304439
30
0
41
1
10
62.6352279206056
20
2.22126734524056
30
0
41
1
10
62.4832438082282
20
2.27667145406724
30
0
41
1
10
62.1794607355902
20
2.3813122496301
30
0
41
1
10
62.0277061528175
20
2.43060171212392
30
0
41
1
10
61.7243632831944
20
2.52298557059845
30
0
41
1
10
61.5726710049435
20
2.56597333165413
30
0
41
1
10
61.2688839477615
20
2.64522199910897
30
0
41
1
10
61.116782529959
20
2.68148239913967
30
0
41
1
10
60.8120276371357
20
2.74713524632008
30
0
41
1
10
60.6594744815387
20
2.77658810390423
30
0
41
1
10
60.4299397127807
20
2.81533341989675
30
0
41
1
10
60.3149928585192
20
2.83334841664239
30
0
41
1
10
60.1997378496943
20
2.84929413432002
30
0
41
1
10
60.1228280443223
20
2.85946092828866
30
0
41
1
10
60.0843329026881
20
2.86431258106333
30
0
41
1
10
59.8921284669792
20
2.88734972386931
30
0
41
1
10
59.7388338419279
20
2.90192154050516
30
0
41
1
10
59.4332486148189
20
2.92349260175283
30
0
41
1
10
59.2809030206679
20
2.93046122137801
30
0
41
1
10
59.0596411636218
20
2.93505857394075
30
0
41
1
10
58.990595470507
20
2.93571150817306
30
0
41
1
10
58.9215791943483
20
2.9355861884803
30
0
0
SPLINE
5
F2
100
AcDbEntity
8
1
62
256
6
ByLayer
370
18
48
1
60
0
100
AcDbSpline
70
4
71
3
72
123
73
119
40
0
40
0
40
0
40
0
40
0.0155515147489192
40
0.0155515147489192
40
0.0381554930048546
40
0.0381554930048546
40
0.0494574821328221
40
0.0494574821328221
40
0.0607594712607899
40
0.0607594712607899
40
0.0720614603887576
40
0.0720614603887576
40
0.0833634495167251
40
0.0833634495167251
40
0.10596742777266
40
0.10596742777266
40
0.128571406028596
40
0.128571406028596
40
0.151175384284531
40
0.151175384284531
40
0.173779362540466
40
0.173779362540466
40
0.196383340796402
40
0.196383340796402
40
0.218987319052337
40
0.218987319052337
40
0.224638313616321
40
0.224638313616321
40
0.230289308180306
40
0.230289308180306
40
0.241591297308274
40
0.241591297308274
40
0.252893286436242
40
0.252893286436242
40
0.264195275564211
40
0.264195275564211
40
0.286799253820148
40
0.286799253820148
40
0.309403232076085
40
0.309403232076085
40
0.332007210332021
40
0.332007210332021
40
0.354611188587958
40
0.354611188587958
40
0.365913177715927
40
0.365913177715927
40
0.377215166843895
40
0.377215166843895
40
0.399819145099833
40
0.399819145099833
40
0.411121134227803
40
0.411121134227803
40
0.422423123355773
40
0.422423123355773
40
0.445027101611715
40
0.445027101611715
40
0.467631079867656
40
0.467631079867656
40
0.490235058123598
40
0.490235058123598
40
0.512839036379539
40
0.512839036379539
40
0.535443014635481
40
0.535443014635481
40
0.546745003763452
40
0.546745003763452
40
0.558046992891424
40
0.558046992891424
40
0.569348982019396
40
0.569348982019396
40
0.580650971147367
40
0.580650971147367
40
0.603254949403312
40
0.603254949403312
40
0.625858927659257
40
0.625858927659257
40
0.648462905915201
40
0.648462905915201
40
0.671066884171146
40
0.671066884171146
40
0.693670862427091
40
0.693670862427091
40
0.716274840683035
40
0.716274840683035
40
0.727576829811007
40
0.727576829811007
40
0.738878818938978
40
0.738878818938978
40
0.75018080806695
40
0.755831802630936
40
0.755831802630936
40
0.761482797194922
40
0.761482797194922
40
0.784086775450867
40
0.784086775450867
40
0.806690753706811
40
0.806690753706811
40
0.829294731962756
40
0.829294731962756
40
0.840596721090727
40
0.840596721090727
40
0.851898710218699
40
0.851898710218699
40
0.874502688474644
40
0.874502688474644
40
0.897106666730588
40
0.897106666730588
40
0.919710644986533
40
0.919710644986533
40
0.931012634114505
40
0.931012634114505
40
0.942314623242478
40
0.942314623242478
40
0.964918601498422
40
0.964918601498422
40
0.987522579754367
40
0.987522579754367
40
1
40
1
40
1
40
1
41
1
10
46.6303022343219
20
-2.08619511649971
30
0
41
1
10
46.5252908070177
20
-2.12715579921289
30
0
41
1
10
46.4201465050087
20
-2.1668818181009
30
0
41
1
10
46.1618883999531
20
-2.26134000897903
30
0
41
1
10
46.0085612087892
20
-2.31459584060715
30
0
41
1
10
45.777672521423
20
-2.38990156071898
30
0
41
1
10
45.700488771457
20
-2.41427400649863
30
0
41
1
10
45.5464786379208
20
-2.46126325690085
30
0
41
1
10
45.4695911868595
20
-2.48389776617066
30
0
41
1
10
45.3160355256566
20
-2.52745332766031
30
0
41
1
10
45.2393716950083
20
-2.54837915916642
30
0
41
1
10
45.0862973642883
20
-2.58855767268506
30
0
41
1
10
45.0098820824008
20
-2.60780440500568
30
0
41
1
10
44.7808526104728
20
-2.66290238658792
30
0
41
1
10
44.628429209543
20
-2.69609444648827
30
0
41
1
10
44.3238263911082
20
-2.75530841173455
30
0
41
1
10
44.1716129905739
20
-2.78131622173581
30
0
41
1
10
43.867385191954
20
-2.826178832631
30
0
41
1
10
43.7154242229727
20
-2.84504112704312
30
0
41
1
10
43.4111159997794
20
-2.87531425858984
30
0
41
1
10
43.2588058364908
20
-2.88674821290726
30
0
41
1
10
42.9536001242721
20
-2.90213266562458
30
0
41
1
10
42.8007174289339
20
-2.90609359301681
30
0
41
1
10
42.4944118279663
20
-2.90641684792809
30
0
41
1
10
42.3408748086479
20
-2.90276501565205
30
0
41
1
10
42.1481951292204
20
-2.89338531938836
30
0
41
1
10
42.1096003462595
20
-2.89126717427109
30
0
41
1
10
42.0324901244077
20
-2.88655849118959
30
0
41
1
10
41.9939663136745
20
-2.88396785823449
30
0
41
1
10
41.8784816573018
20
-2.87549321085495
30
0
41
1
10
41.8016030671815
20
-2.86890812774519
30
0
41
1
10
41.6480743352069
20
-2.85388446322205
30
0
41
1
10
41.5714317869765
20
-2.84544324972524
30
0
41
1
10
41.4183865204633
20
-2.82670735044658
30
0
41
1
10
41.3419749912159
20
-2.81641493692712
30
0
41
1
10
41.1129174713771
20
-2.7828478331206
30
0
41
1
10
40.9604544233866
20
-2.75688426741698
30
0
41
1
10
40.6557438854533
20
-2.69803566855157
30
0
41
1
10
40.503457264114
20
-2.66518423070099
30
0
41
1
10
40.199135819147
20
-2.59255579270737
30
0
41
1
10
40.0470788086834
20
-2.55277781330472
30
0
41
1
10
39.7425356700117
20
-2.46681591942018
30
0
41
1
10
39.5900911033491
20
-2.42060278203744
30
0
41
1
10
39.3609628151763
20
-2.34662555255525
30
0
41
1
10
39.2845124730108
20
-2.32118818235094
30
0
41
1
10
39.1314923994337
20
-2.26871107062937
30
0
41
1
10
39.0549312748326
20
-2.2416600572563
30
0
41
1
10
38.8249615004007
20
-2.15819355080217
30
0
41
1
10
38.6712164982657
20
-2.09952605176594
30
0
41
1
10
38.4396832061117
20
-2.00726467598412
30
0
41
1
10
38.3625508687965
20
-1.97587420986719
30
0
41
1
10
38.2085883118949
20
-1.91198344467222
30
0
41
1
10
38.1317156592356
20
-1.87947159755993
30
0
41
1
10
37.90145931179
20
-1.7801956378712
30
0
41
1
10
37.74850830021
20
-1.71158116167865
30
0
41
1
10
37.4430379182662
20
-1.57052872106166
30
0
41
1
10
37.2905296041394
20
-1.49807852988474
30
0
41
1
10
36.9856957961879
20
-1.34979858531133
30
0
41
1
10
36.8333477824346
20
-1.27400916800622
30
0
41
1
10
36.5289182210622
20
-1.11891635059689
30
0
41
1
10
36.3767506114585
20
-1.03974884607078
30
0
41
1
10
36.0719695411181
20
-0.879087166868828
30
0
41
1
10
35.9193859814586
20
-0.797544659634923
30
0
41
1
10
35.6900480053172
20
-0.673712367153854
30
0
41
1
10
35.6135322370374
20
-0.632168933016771
30
0
41
1
10
35.4603920704121
20
-0.548485637236809
30
0
41
1
10
35.3837640322266
20
-0.50635166678947
30
0
41
1
10
35.2302883069391
20
-0.421682302072071
30
0
41
1
10
35.1534345515667
20
-0.379158597903597
30
0
41
1
10
34.9994523743288
20
-0.293809318724726
30
0
41
1
10
34.9222708543033
20
-0.250950356555734
30
0
41
1
10
34.6906300778968
20
-0.122206559039796
30
0
41
1
10
34.5366698812204
20
-0.0365782170513569
30
0
41
1
10
34.2297047112267
20
0.134359137907779
30
0
41
1
10
34.076754840248
20
0.219766756235373
30
0
41
1
10
33.7712045394773
20
0.389140628836316
30
0
41
1
10
33.6186433767297
20
0.473182920816271
30
0
41
1
10
33.3136753310401
20
0.639506225948338
30
0
41
1
10
33.1612855870907
20
0.721820418664151
30
0
41
1
10
32.856732235947
20
0.884812240646966
30
0
41
1
10
32.7044474752955
20
0.965273022188342
30
0
41
1
10
32.3994279059581
20
1.1233717216858
30
0
41
1
10
32.2467011361355
20
1.20102550369032
30
0
41
1
10
32.0171683453263
20
1.31520773562374
30
0
41
1
10
31.9405980290524
20
1.35290938653833
30
0
41
1
10
31.7873385066112
20
1.42758785892849
30
0
41
1
10
31.7106398787846
20
1.46454871627526
30
0
41
1
10
31.5569960983794
20
1.53753082787705
30
0
41
1
10
31.4415798253086
20
1.59156552184902
30
0
41
1
10
31.3258514055872
20
1.6444841506831
30
0
41
1
10
31.2486253087941
20
1.67950762925307
30
0
41
1
10
31.2099667332691
20
1.69689524833205
30
0
41
1
10
31.0169385210105
20
1.78297164128512
30
0
41
1
10
30.8629665154854
20
1.84918631525665
30
0
41
1
10
30.5560459144844
20
1.97660855963116
30
0
41
1
10
30.4030658304931
20
2.0377528218807
30
0
41
1
10
30.0974206224106
20
2.15411806523747
30
0
41
1
10
29.9447975286756
20
2.20940168098605
30
0
41
1
10
29.7159641228881
20
2.28780055983114
30
0
41
1
10
29.6397069784642
20
2.31318413346557
30
0
41
1
10
29.4872684578506
20
2.36248906286147
30
0
41
1
10
29.4110948873326
20
2.38641738451548
30
0
41
1
10
29.1825694442177
20
2.45587027020494
30
0
41
1
10
29.0301635530722
20
2.49901423983383
30
0
41
1
10
28.7249066356544
20
2.57868395437282
30
0
41
1
10
28.5720379631311
20
2.61520065494619
30
0
41
1
10
28.2657659161915
20
2.68151371519534
30
0
41
1
10
28.1124701043457
20
2.71137454173848
30
0
41
1
10
27.8817577064713
20
2.75077395177038
30
0
41
1
10
27.8047286900846
20
2.76301290301925
30
0
41
1
10
27.6503874441137
20
2.78567385054015
30
0
41
1
10
27.5729952240223
20
2.79610420012037
30
0
41
1
10
27.3413460530348
20
2.82450954927001
30
0
41
1
10
27.1873721372582
20
2.8396442614119
30
0
41
1
10
26.8804643187091
20
2.86245039872941
30
0
41
1
10
26.7274314169502
20
2.87007703943547
30
0
41
1
10
26.4901643537588
20
2.87606887178822
30
0
41
1
10
26.4058305472172
20
2.8770559146503
30
0
41
1
10
26.3215341286369
20
2.87690632026744
30
0
0
SPLINE
5
F3
100
AcDbEntity
8
1
62
256
6
ByLayer
370
18
48
1
60
0
100
AcDbSpline
70
4
71
3
72
36
73
32
40
0
40
0
40
0
40
0
40
0.0335051523070143
40
0.0335051523070143
40
0.114046389614762
40
0.114046389614762
40
0.154317008268639
40
0.154317008268639
40
0.194587626922514
40
0.194587626922514
40
0.275128864230262
40
0.275128864230262
40
0.35567010153801
40
0.35567010153801
40
0.436211338845758
40
0.436211338845758
40
0.516752576153507
40
0.516752576153507
40
0.597293813461255
40
0.597293813461255
40
0.677835050769004
40
0.677835050769004
40
0.758376288076753
40
0.758376288076753
40
0.798646906730627
40
0.798646906730627
40
0.838917525384503
40
0.838917525384503
40
0.919458762692251
40
0.919458762692251
40
1
40
1
40
1
40
1
41
1
10
13.8917950816399
20
-2.09610529220291
30
0
41
1
10
13.8280197712489
20
-2.11983410787823
30
0
41
1
10
13.7642191746466
20
-2.14313285091251
30
0
41
1
10
13.5468802140814
20
-2.22085259341395
30
0
41
1
10
13.3930378419209
20
-2.27296944400686
30
0
41
1
10
13.1614593985196
20
-2.34661982807407
30
0
41
1
10
13.0841351042887
20
-2.37042116156459
30
0
41
1
10
12.9291879829062
20
-2.41647922928934
30
0
41
1
10
12.8517165954598
20
-2.4386851579585
30
0
41
1
10
12.6198854958421
20
-2.50274990312371
30
0
41
1
10
12.4659746653412
20
-2.5421904945147
30
0
41
1
10
12.158729499803
20
-2.61397025694973
30
0
41
1
10
12.0054012905326
20
-2.64632738802357
30
0
41
1
10
11.6990678697116
20
-2.70391519288887
30
0
41
1
10
11.5460356106553
20
-2.72914016207187
30
0
41
1
10
11.2404250108941
20
-2.77256123594526
30
0
41
1
10
11.0877509418728
20
-2.79069011087796
30
0
41
1
10
10.7820885440505
20
-2.81956955256317
30
0
41
1
10
10.6291378360197
20
-2.83034159513215
30
0
41
1
10
10.3227634102338
20
-2.84450235431905
30
0
41
1
10
10.169401000423
20
-2.84790190788351
30
0
41
1
10
9.86210543912944
20
-2.84720730748185
30
0
41
1
10
9.7081234515602
20
-2.84310875855451
30
0
41
1
10
9.47636772747651
20
-2.83128367744297
30
0
41
1
10
9.39898917962446
20
-2.82639604940738
30
0
41
1
10
9.24395772897316
20
-2.81471581493594
30
0
41
1
10
9.16643905844342
20
-2.80793262827635
30
0
41
1
10
8.93411067327017
20
-2.78476461059751
30
0
41
1
10
8.77944427341271
20
-2.76553422299077
30
0
41
1
10
8.46973270687263
20
-2.71986752890828
30
0
41
1
10
8.31474139242505
20
-2.69341985144672
30
0
41
1
10
8.15948612530954
20
-2.66346071592861
30
0
0
SPLINE
5
F4
100
AcDbEntity
8
1
62
256
6
ByLayer
370
18
48
1
60
0
100
AcDbSpline
70
4
71
3
72
32
73
28
40
0
40
0
40
0
40
0
40
0.119097237658081
40
0.119097237658081
40
0.17864585648712
40
0.17864585648712
40
0.23819447531616
40
0.23819447531616
40
0.357291712974239
40
0.357291712974239
40
0.476388950632317
40
0.476388950632317
40
0.506163260046836
40
0.506163260046836
40
0.535937569461355
40
0.535937569461355
40
0.595486188290392
40
0.595486188290392
40
0.714583425948466
40
0.714583425948466
40
0.952777901264618
40
0.952777901264618
40
0.982552210679138
40
0.982552210679138
40
0.9974393653864
40
0.9974393653864
40
1
40
1
40
1
40
1
41
1
10
10.3648597463982
20
-0.420259465393542
30
0
41
1
10
10.6613402768899
20
-0.581043590855984
30
0
41
1
10
10.9558551891069
20
-0.738630666137226
30
0
41
1
10
11.3959956704826
20
-0.968054125911351
30
0
41
1
10
11.5424206283239
20
-1.04339650021009
30
0
41
1
10
11.835017099737
20
-1.19126962568058
30
0
41
1
10
11.9811960208456
20
-1.2637892315966
30
0
41
1
10
12.419669325911
20
-1.47662221244306
30
0
41
1
10
12.7118592498397
20
-1.61227178016048
30
0
41
1
10
13.2979801272085
20
-1.86783388366695
30
0
41
1
10
13.5919167678033
20
-1.98774241833317
30
0
41
1
10
13.9616075976914
20
-2.12587941324668
30
0
41
1
10
14.0357431369639
20
-2.15294461670948
30
0
41
1
10
14.183718209629
20
-2.20564832778865
30
0
41
1
10
14.2575846876958
20
-2.23129817966822
30
0
41
1
10
14.4788697903069
20
-2.30610445509063
30
0
41
1
10
14.6259782679492
20
-2.3531130968955
30
0
41
1
10
15.0664017258585
20
-2.48531297224272
30
0
41
1
10
15.3587982115913
20
-2.5616865983458
30
0
41
1
10
16.2353561386681
20
-2.7533583403762
30
0
41
1
10
16.8187706624338
20
-2.83128514672549
30
0
41
1
10
17.4826451834901
20
-2.85719065111655
30
0
41
1
10
17.5565148565617
20
-2.85921128808593
30
0
41
1
10
17.6675030172583
20
-2.86094117583474
30
0
41
1
10
17.7045406060931
20
-2.86130077869629
30
0
41
1
10
17.7478901240657
20
-2.86146688903546
30
0
41
1
10
17.7542511758145
20
-2.86148483491516
30
0
41
1
10
17.7606113222238
20
-2.86149635360559
30
0
0
SPLINE
5
F5
100
AcDbEntity
8
1
62
256
6
ByLayer
370
18
48
1
60
0
100
AcDbSpline
70
4
71
3
72
28
73
24
40
0
40
0
40
0
40
0
40
0.0477701575725935
40
0.0477701575725935
40
0.153573473397856
40
0.153573473397856
40
0.206475131310488
40
0.206475131310488
40
0.259376789223119
40
0.259376789223119
40
0.365180105048385
40
0.365180105048385
40
0.576786736698919
40
0.576786736698919
40
0.682590052524187
40
0.682590052524187
40
0.709040881480503
40
0.709040881480503
40
0.735491710436819
40
0.735491710436819
40
0.788393368349455
40
0.788393368349455
40
1
40
1
40
1
40
1
41
1
10
30.2058240454852
20
2.11483608477712
30
0
41
1
10
30.3374772139565
20
2.16466173156829
30
0
41
1
10
30.4690567053724
20
2.21243681269624
30
0
41
1
10
30.8921026395527
20
2.35910760301411
30
0
41
1
10
31.183605302742
20
2.44960545095009
30
0
41
1
10
31.6224361584066
20
2.56778444380467
30
0
41
1
10
31.7689766334867
20
2.60425069319518
30
0
41
1
10
32.062795618477
20
2.67107460303018
30
0
41
1
10
32.210124045589
20
2.70142910227184
30
0
41
1
10
32.6534099109665
20
2.78282194571582
30
0
41
1
10
32.9469072064761
20
2.82349632032472
30
0
41
1
10
33.824186393217
20
2.90469833072888
30
0
41
1
10
34.4048714582199
20
2.90432833663843
30
0
41
1
10
35.2811489130955
20
2.82217425950429
30
0
41
1
10
35.574118166641
20
2.7811978397726
30
0
41
1
10
35.9426514132127
20
2.71304819240004
30
0
41
1
10
36.0165565309068
20
2.69855469383862
30
0
41
1
10
36.1640572911509
20
2.66800274509993
30
0
41
1
10
36.237685762996
20
2.65194025513273
30
0
41
1
10
36.4582549596871
20
2.60144979700519
30
0
41
1
10
36.6048819108895
20
2.56472156510773
30
0
41
1
10
37.3364506019499
20
2.36637730736234
30
0
41
1
10
37.9169292877553
20
2.16083966187742
30
0
41
1
10
38.5003037857473
20
1.91755972006317
30
0
0
SPLINE
5
F6
100
AcDbEntity
8
1
62
256
6
ByLayer
370
18
48
1
60
0
100
AcDbSpline
70
4
71
3
72
53
73
49
40
0
40
0
40
0
40
0
40
0.0184679025090767
40
0.0184679025090767
40
0.0369358050181534
40
0.0369358050181534
40
0.0738716100363095
40
0.0738716100363095
40
0.147743220072622
40
0.147743220072622
40
0.221614830108934
40
0.221614830108934
40
0.240082732618012
40
0.240082732618012
40
0.258550635127091
40
0.295486440145251
40
0.295486440145251
40
0.369358050181568
40
0.369358050181568
40
0.387825952690646
40
0.387825952690646
40
0.406293855199724
40
0.443229660217878
40
0.443229660217878
40
0.517101270254184
40
0.517101270254184
40
0.535569172763263
40
0.535569172763263
40
0.554037075272342
40
0.590972880290499
40
0.590972880290499
40
0.664844490326814
40
0.664844490326814
40
0.738716100363129
40
0.738716100363129
40
0.812587710399443
40
0.812587710399443
40
0.831055612908521
40
0.831055612908521
40
0.849523515417598
40
0.88645932043575
40
0.88645932043575
40
0.960330930472052
40
0.960330930472052
40
0.978798832981127
40
0.978798832981127
40
0.997266735490203
40
1
40
1
40
1
40
1
41
1
10
38.5003037857388
20
1.95159752501695
30
0
41
1
10
38.5747543044754
20
1.92106281934824
30
0
41
1
10
38.6492036591611
20
1.88992965605502
30
0
41
1
10
38.7981318668855
20
1.82650908195856
30
0
41
1
10
38.872633759799
20
1.79421106423919
30
0
41
1
10
39.0958061405864
20
1.69583772774413
30
0
41
1
10
39.2442688907819
20
1.62823267675557
30
0
41
1
10
39.689052892856
20
1.41992266678574
30
0
41
1
10
39.9847471276409
20
1.2736857347663
30
0
41
1
10
40.5765209604528
20
0.969773634887446
30
0
41
1
10
40.8726114800373
20
0.812112974526485
30
0
41
1
10
41.2443753604948
20
0.610215782279795
30
0
41
1
10
41.3188499754207
20
0.569573930272213
30
0
41
1
10
41.4676188788676
20
0.488075259202901
30
0
41
1
10
41.6906135382259
20
0.365445848239659
30
0
41
1
10
41.9132772414341
20
0.241934058756044
30
0
41
1
10
42.3584906915787
20
-0.0056758136351789
30
0
41
1
10
42.6551394343663
20
-0.171545769250684
30
0
41
1
10
43.026990585395
20
-0.377645211255157
30
0
41
1
10
43.1014490621996
20
-0.418821566014771
30
0
41
1
10
43.2501900807506
20
-0.500815362034217
30
0
41
1
10
43.4731224055313
20
-0.623315162127113
30
0
41
1
10
43.6956669925088
20
-0.744082628177296
30
0
41
1
10
44.1406308316056
20
-0.982631906765135
30
0
41
1
10
44.4371015858954
20
-1.13769273008094
30
0
41
1
10
44.8087221106742
20
-1.32440121882326
30
0
41
1
10
44.8831504326802
20
-1.36141053136768
30
0
41
1
10
45.0316711517146
20
-1.43442336077513
30
0
41
1
10
45.2540818205252
20
-1.54250286012925
30
0
41
1
10
45.4755400126097
20
-1.64605167900095
30
0
41
1
10
45.9176080894582
20
-1.84656497608543
30
0
41
1
10
46.2111983082806
20
-1.97144338829651
30
0
41
1
10
46.7982671493549
20
-2.20102452265334
30
0
41
1
10
47.091699407615
20
-2.30580382252455
30
0
41
1
10
47.6799998405281
20
-2.49328007360046
30
0
41
1
10
47.9748703175964
20
-2.57596203561496
30
0
41
1
10
48.3456432530635
20
-2.66386797332305
30
0
41
1
10
48.4199556489528
20
-2.68068627532719
30
0
41
1
10
48.568614634707
20
-2.71268688800163
30
0
41
1
10
48.7914037571424
20
-2.75818348856507
30
0
41
1
10
49.0137536540706
20
-2.79608991711712
30
0
41
1
10
49.4582877714666
20
-2.86159986565542
30
0
41
1
10
49.7544307675395
20
-2.89153007681017
30
0
41
1
10
50.1256718440334
20
-2.91127104845737
30
0
41
1
10
50.2000084926141
20
-2.9143371871086
30
0
41
1
10
50.3486531222682
20
-2.9186870983612
30
0
41
1
10
50.4338285489632
20
-2.92015811933169
30
0
41
1
10
50.5188553138828
20
-2.92046123835388
30
0
41
1
10
50.5298145853689
20
-2.92048092876632
30
0
0
SPLINE
5
F7
100
AcDbEntity
8
1
62
256
6
ByLayer
370
18
48
1
60
0
100
AcDbSpline
70
4
71
3
72
24
73
20
40
0
40
0
40
0
40
0
40
0.105045256702696
40
0.105045256702696
40
0.160979928158775
40
0.160979928158775
40
0.216914599614855
40
0.216914599614855
40
0.328783942527015
40
0.328783942527015
40
0.552522628351332
40
0.552522628351332
40
0.608457299807416
40
0.608457299807416
40
0.664391971263499
40
0.664391971263499
40
0.776261314175667
40
0.776261314175667
40
1
40
1
40
1
40
1
41
1
10
62.901279576399
20
2.1195991648128
30
0
41
1
10
63.0393053047857
20
2.17388361271111
30
0
41
1
10
63.1775783228504
20
2.22604733226123
30
0
41
1
10
63.3900247709934
20
2.30249194763192
30
0
41
1
10
63.4639434000394
20
2.3284067824043
30
0
41
1
10
63.6120166877787
20
2.37889392269651
30
0
41
1
10
63.6862358011137
20
2.40348650335591
30
0
41
1
10
63.9087123898868
20
2.47499192441174
30
0
41
1
10
64.0567960828179
20
2.51964138155793
30
0
41
1
10
64.5007210866912
20
2.64423448653801
30
0
41
1
10
64.7962334607049
20
2.71482271984644
30
0
41
1
10
65.1663851424821
20
2.78644318633513
30
0
41
1
10
65.2404537350184
20
2.79993652554344
30
0
41
1
10
65.3887006879287
20
2.82523632214208
30
0
41
1
10
65.4629153578135
20
2.8370474720063
30
0
41
1
10
65.6853001623484
20
2.86984691588654
30
0
41
1
10
65.8333231489482
20
2.88822352375934
30
0
41
1
10
66.2770775845896
20
2.93280606451967
30
0
41
1
10
66.5724945386158
20
2.94847045775865
30
0
41
1
10
66.8684591527053
20
2.94985261645758
30
0
0
SPLINE
5
F8
100
AcDbEntity
8
1
62
256
6
ByLayer
370
18
48
1
60
0
100
AcDbSpline
70
4
71
3
72
101
73
97
40
0
40
0
40
0
40
0
40
0.0116593129566886
40
0.0116593129566886
40
0.0239322632160048
40
0.0239322632160048
40
0.036205213475321
40
0.036205213475321
40
0.0607511139939517
40
0.0607511139939517
40
0.0852970145125823
40
0.0852970145125823
40
0.109842915031213
40
0.109842915031213
40
0.158934716068476
40
0.158934716068476
40
0.183480616587109
40
0.183480616587109
40
0.208026517105741
40
0.208026517105741
40
0.220299467365057
40
0.220299467365057
40
0.232572417624373
40
0.232572417624373
40
0.257118318143008
40
0.257118318143008
40
0.281664218661642
40
0.281664218661642
40
0.306210119180276
40
0.306210119180276
40
0.33075601969891
40
0.33075601969891
40
0.355301920217544
40
0.355301920217544
40
0.379847820736178
40
0.379847820736178
40
0.404393721254812
40
0.404393721254812
40
0.416666671514129
40
0.416666671514129
40
0.428939621773445
40
0.428939621773445
40
0.453485522292079
40
0.453485522292079
40
0.478031422810713
40
0.478031422810713
40
0.502577323329347
40
0.502577323329347
40
0.527123223847981
40
0.527123223847981
40
0.539396174107299
40
0.539396174107299
40
0.551669124366616
40
0.551669124366616
40
0.57621502488525
40
0.57621502488525
40
0.600760925403884
40
0.600760925403884
40
0.613033875663201
40
0.613033875663201
40
0.625306825922518
40
0.625306825922518
40
0.649852726441152
40
0.649852726441152
40
0.674398626959786
40
0.674398626959786
40
0.698944527478421
40
0.698944527478421
40
0.723490427997055
40
0.723490427997055
40
0.748036328515689
40
0.748036328515689
40
0.772582229034323
40
0.772582229034323
40
0.797128129552957
40
0.797128129552957
40
0.821674030071591
40
0.821674030071591
40
0.82781050520125
40
0.82781050520125
40
0.833946980330909
40
0.846219930590226
40
0.846219930590226
40
0.870765831108862
40
0.870765831108862
40
0.895311731627497
40
0.895311731627497
40
0.944403532664769
40
0.944403532664769
40
0.956676482924086
40
0.956676482924086
40
0.968949433183403
40
0.968949433183403
40
0.993495333702034
40
0.993495333702034
40
1
40
1
40
1
40
1
41
1
10
40.2135644187309
20
2.7663584741189
30
0
41
1
10
40.2840054045293
20
2.77827902425963
30
0
41
1
10
40.3544856907469
20
2.78945878081188
30
0
41
1
10
40.4992477102266
20
2.81087641332633
30
0
41
1
10
40.5735689158928
20
2.82103555212908
30
0
41
1
10
40.721782356028
20
2.83962003821031
30
0
41
1
10
40.7957286141519
20
2.84805642864029
30
0
41
1
10
41.0171369255416
20
2.87077241952281
30
0
41
1
10
41.1642166437452
20
2.88242946482046
30
0
41
1
10
41.4580599546843
20
2.89869141096128
30
0
41
1
10
41.6047693545889
20
2.90332349506187
30
0
41
1
10
41.8978379215926
20
2.90567508077359
30
0
41
1
10
42.0442225374693
20
2.90338613948353
30
0
41
1
10
42.4834927689453
20
2.88626267158625
30
0
41
1
10
42.7763930361007
20
2.86121952425364
30
0
41
1
10
43.2165491187291
20
2.80323687914185
30
0
41
1
10
43.3633948673956
20
2.78049451093435
30
0
41
1
10
43.6574619156578
20
2.72806076949493
30
0
41
1
10
43.804743554289
20
2.6983863791782
30
0
41
1
10
44.0266499250195
20
2.64906266676027
30
0
41
1
10
44.1008324423067
20
2.63179972269236
30
0
41
1
10
44.2492248416894
20
2.59573254977866
30
0
41
1
10
44.3233209906789
20
2.57695863652734
30
0
41
1
10
44.5453176018148
20
2.51845221905401
30
0
41
1
10
44.6929073608669
20
2.47652376728755
30
0
41
1
10
44.9871510581633
20
2.38673624633495
30
0
41
1
10
45.1338142708978
20
2.33887966282384
30
0
41
1
10
45.4264651514544
20
2.23745664829522
30
0
41
1
10
45.572525834348
20
2.18396148377607
30
0
41
1
10
45.8650237999796
20
2.07257078309121
30
0
41
1
10
46.0113878915404
20
2.01460197313099
30
0
41
1
10
46.3042441864106
20
1.89404755944116
30
0
41
1
10
46.4507431789673
20
1.83146811944366
30
0
41
1
10
46.7439518189663
20
1.70176185415966
30
0
41
1
10
46.8906567036059
20
1.63462689441792
30
0
41
1
10
47.1844152692701
20
1.49590239594576
30
0
41
1
10
47.3315095986746
20
1.42436900292847
30
0
41
1
10
47.5528937097353
20
1.31443567150421
30
0
41
1
10
47.6268030082428
20
1.27733867269095
30
0
41
1
10
47.7748491523748
20
1.20222400930137
30
0
41
1
10
47.8489949444631
20
1.16419267471025
30
0
41
1
10
48.0707700094594
20
1.04929459411474
30
0
41
1
10
48.2181650272887
20
0.971598310241291
30
0
41
1
10
48.512647867651
20
0.815098554293968
30
0
41
1
10
48.6596757332538
20
0.736189714961199
30
0
41
1
10
48.9532053583687
20
0.57688671759081
30
0
41
1
10
49.0997121277765
20
0.496501175471167
30
0
41
1
10
49.3922757723671
20
0.334378693435525
30
0
41
1
10
49.5383190520998
20
0.252617003986558
30
0
41
1
10
49.7571523086725
20
0.129144403820419
30
0
41
1
10
49.8300891765876
20
0.0879047655636498
30
0
41
1
10
49.976165358113
20
0.0056584654051051
30
0
41
1
10
50.0492837622893
20
-0.0353860859335668
30
0
41
1
10
50.2688337082577
20
-0.158366483089338
30
0
41
1
10
50.415462837148
20
-0.240143528804083
30
0
41
1
10
50.7092064485618
20
-0.403351962951831
30
0
41
1
10
50.8563188332585
20
-0.484787402200169
30
0
41
1
10
51.0774032417503
20
-0.606595657635324
30
0
41
1
10
51.1511719798858
20
-0.647132460202926
30
0
41
1
10
51.298912301552
20
-0.727974050279528
30
0
41
1
10
51.3729438259236
20
-0.768312340641529
30
0
41
1
10
51.5950067202521
20
-0.888610192756119
30
0
41
1
10
51.7425349795818
20
-0.967559914475117
30
0
41
1
10
52.0371271483286
20
-1.12206674936411
30
0
41
1
10
52.1841578748202
20
-1.19769131938756
30
0
41
1
10
52.4776460331001
20
-1.34582841829254
30
0
41
1
10
52.6241019776162
20
-1.41834193955992
30
0
41
1
10
52.916472928216
20
-1.56018422077915
30
0
41
1
10
53.0623741387645
20
-1.62952532295759
30
0
41
1
10
53.3542699265421
20
-1.76402224345347
30
0
41
1
10
53.5002727403344
20
-1.82916975425192
30
0
41
1
10
53.792788170676
20
-1.95473223539386
30
0
41
1
10
53.9392778436828
20
-2.01518574917549
30
0
41
1
10
54.2326731796974
20
-2.13149431744006
30
0
41
1
10
54.3795764048714
20
-2.18735105805513
30
0
41
1
10
54.6738648784977
20
-2.29428473852244
30
0
41
1
10
54.8212791063913
20
-2.34531963415316
30
0
41
1
10
55.00620931398
20
-2.40563791852992
30
0
41
1
10
55.0432478405803
20
-2.41753583034912
30
0
41
1
10
55.1172442063185
20
-2.44093812316658
30
0
41
1
10
55.2281432893932
20
-2.47545961505983
30
0
41
1
10
55.3387616633432
20
-2.50823847385314
30
0
41
1
10
55.5596592840364
20
-2.57145536243007
30
0
41
1
10
55.7064927194891
20
-2.61045221043139
30
0
41
1
10
55.9998121250614
20
-2.68183799678366
30
0
41
1
10
56.1462782308632
20
-2.71425179385645
30
0
41
1
10
56.5853245589148
20
-2.80166396770156
30
0
41
1
10
56.8774918197076
20
-2.84692366105725
30
0
41
1
10
57.2424600159797
20
-2.88680395371799
30
0
41
1
10
57.3154383545125
20
-2.89394273091671
30
0
41
1
10
57.4613824856531
20
-2.90651733076669
30
0
41
1
10
57.5343697543939
20
-2.91194479442132
30
0
41
1
10
57.7537094703512
20
-2.92557739015689
30
0
41
1
10
57.9003689534682
20
-2.93116426669636
30
0
41
1
10
58.0863871949882
20
-2.9338373496893
30
0
41
1
10
58.1253831303086
20
-2.93415318077649
30
0
41
1
10
58.1644071226141
20
-2.93422382702292
30
0
0
SPLINE
5
F9
100
AcDbEntity
8
1
62
256
6
ByLayer
370
18
48
1
60
0
100
AcDbSpline
70
4
71
3
72
50
73
46
40
0
40
0
40
0
40
0
40
0.0494691606104372
40
0.0494691606104372
40
0.157245207706762
40
0.157245207706762
40
0.184189219480843
40
0.184189219480843
40
0.211133231254926
40
0.211133231254926
40
0.265021254803089
40
0.265021254803089
40
0.318909278351253
40
0.318909278351253
40
0.372797301899417
40
0.372797301899417
40
0.42668532544758
40
0.42668532544758
40
0.480573348995744
40
0.480573348995744
40
0.534461372543908
40
0.534461372543908
40
0.588349396092072
40
0.588349396092072
40
0.642237419640235
40
0.642237419640235
40
0.669181431414316
40
0.669181431414316
40
0.696125443188396
40
0.696125443188396
40
0.750013466736559
40
0.750013466736559
40
0.776957478510643
40
0.776957478510643
40
0.803901490284727
40
0.803901490284727
40
0.857789513832896
40
0.857789513832896
40
0.911677537381063
40
0.911677537381063
40
0.965565560929231
40
0.965565560929231
40
0.992509572703315
40
0.992509572703315
40
1
40
1
40
1
40
1
41
1
10
41.7866625491224
20
2.77026080992627
30
0
41
1
10
41.9213995832048
20
2.77088399544738
30
0
41
1
10
42.0562122555446
20
2.76868306108989
30
0
41
1
10
42.4854407855838
20
2.75232872816503
30
0
41
1
10
42.7806263371955
20
2.72726061272047
30
0
41
1
10
43.1513160174118
20
2.68005684429994
30
0
41
1
10
43.2255374675281
20
2.66982237800704
30
0
41
1
10
43.3741425739331
20
2.64780165430736
30
0
41
1
10
43.4485296456554
20
2.63601731765544
30
0
41
1
10
43.6710639019517
20
2.59851994539815
30
0
41
1
10
43.8189098753986
20
2.57055587505704
30
0
41
1
10
44.1141622184426
20
2.50787010535063
30
0
41
1
10
44.2615459678682
20
2.47323858331913
30
0
41
1
10
44.5559805226487
20
2.39813837451499
30
0
41
1
10
44.7030139070161
20
2.35767772134705
30
0
41
1
10
44.9966387569594
20
2.27169125896083
30
0
41
1
10
45.1432301275622
20
2.22613479573238
30
0
41
1
10
45.4361306551733
20
2.13004364352437
30
0
41
1
10
45.5825042287277
20
2.07947294284563
30
0
41
1
10
45.8759965825058
20
1.97287550679059
30
0
41
1
10
46.0230526977611
20
1.91691411952658
30
0
41
1
10
46.3177041968818
20
1.80038029571259
30
0
41
1
10
46.4653050407111
20
1.73979020002667
30
0
41
1
10
46.761069586855
20
1.61434219867672
30
0
41
1
10
46.9092260678417
20
1.54947345095431
30
0
41
1
10
47.1319336911533
20
1.449130160366
30
0
41
1
10
47.2062256567242
20
1.41518993793508
30
0
41
1
10
47.3544291046963
20
1.34662746603482
30
0
41
1
10
47.4284159196608
20
1.31197303431639
30
0
41
1
10
47.6500846502422
20
1.20696489418739
30
0
41
1
10
47.7974554143822
20
1.13555208155827
30
0
41
1
10
48.0180175065541
20
1.0266243911048
30
0
41
1
10
48.0914677125108
20
0.990025920397272
30
0
41
1
10
48.2383102079679
20
0.916364515930127
30
0
41
1
10
48.3117025437284
20
0.87930325628588
30
0
41
1
10
48.5318524552337
20
0.767534394925065
30
0
41
1
10
48.6785636470908
20
0.692217275095743
30
0
41
1
10
48.9718446230624
20
0.540099625373387
30
0
41
1
10
49.1184178952442
20
0.46330280702486
30
0
41
1
10
49.4114506679916
20
0.308388198774679
30
0
41
1
10
49.5578877597919
20
0.230231833295107
30
0
41
1
10
49.7775378109264
20
0.112155156289703
30
0
41
1
10
49.8507923203179
20
0.0727130023328186
30
0
41
1
10
49.9445900038171
20
0.0223928904214574
30
0
41
1
10
49.9650026261529
20
0.0114497921109091
30
0
41
1
10
49.9854240784033
20
0.0005094756760684
30
0
0
SPLINE
5
FA
100
AcDbEntity
8
1
62
256
6
ByLayer
370
18
48
1
60
0
100
AcDbSpline
70
4
71
3
72
56
73
52
40
0
40
0
40
0
40
0
40
0.024167891176792
40
0.024167891176792
40
0.0482875245694172
40
0.0482875245694172
40
0.0724071579620421
40
0.0724071579620421
40
0.120646424747292
40
0.120646424747292
40
0.168885691532542
40
0.168885691532542
40
0.217124958317793
40
0.217124958317793
40
0.241244591710419
40
0.241244591710419
40
0.265364225103046
40
0.265364225103046
40
0.3136034918883
40
0.3136034918883
40
0.337723125280929
40
0.337723125280929
40
0.361842758673557
40
0.361842758673557
40
0.410082025458818
40
0.410082025458818
40
0.458321292244079
40
0.458321292244079
40
0.50656055902934
40
0.50656055902934
40
0.5547998258146
40
0.5547998258146
40
0.603039092599861
40
0.603039092599861
40
0.651278359385122
40
0.651278359385122
40
0.699517626170383
40
0.699517626170383
40
0.747756892955643
40
0.747756892955643
40
0.771876526348274
40
0.771876526348274
40
0.795996159740904
40
0.795996159740904
40
0.892474693311426
40
0.892474693311426
40
0.940713960096685
40
0.940713960096685
40
0.988953226881944
40
0.988953226881944
40
1
40
1
40
1
40
1
41
1
10
50.3645470133319
20
-0.212313985663059
30
0
41
1
10
50.2905511751502
20
-0.173137441331392
30
0
41
1
10
50.2166591364542
20
-0.1339248218938
30
0
41
1
10
50.0692373328502
20
-0.0555048451296614
30
0
41
1
10
49.9957056905946
20
-0.0162985653103362
30
0
41
1
10
49.8488779221425
20
0.06219973279903
30
0
41
1
10
49.7756035550934
20
0.101521679319717
30
0
41
1
10
49.5558868888837
20
0.219230770791597
30
0
41
1
10
49.4094027607912
20
0.29714629783399
30
0
41
1
10
49.116282667426
20
0.45161448294644
30
0
41
1
10
48.9696683177904
20
0.528203892483191
30
0
41
1
10
48.6763101949706
20
0.67993976012707
30
0
41
1
10
48.5295629138945
20
0.75508238729708
30
0
41
1
10
48.3093615560249
20
0.866614528834901
30
0
41
1
10
48.2359524135977
20
0.903600928455973
30
0
41
1
10
48.0890758889718
20
0.97711787197764
30
0
41
1
10
48.0156087014314
20
1.0136472859962
30
0
41
1
10
47.7949935520559
20
1.12237055423961
30
0
41
1
10
47.6475877950258
20
1.19365622936059
30
0
41
1
10
47.4258746376832
20
1.29850338384111
30
0
41
1
10
47.3518740517603
20
1.33310861500468
30
0
41
1
10
47.2036429597004
20
1.40157666524846
30
0
41
1
10
47.1293387599247
20
1.43547164919613
30
0
41
1
10
46.9065771627592
20
1.53569576536697
30
0
41
1
10
46.7583830820599
20
1.60049975266452
30
0
41
1
10
46.4625437646068
20
1.72585670738368
30
0
41
1
10
46.3149056704173
20
1.78642008702192
30
0
41
1
10
46.020179518407
20
1.90293682801519
30
0
41
1
10
45.8730864815571
20
1.95890869444133
30
0
41
1
10
45.5795203133519
20
2.06556682159436
30
0
41
1
10
45.43310600776
20
2.11618083694606
30
0
41
1
10
45.1401166789236
20
2.21236863128348
30
0
41
1
10
44.9934811215981
20
2.25798524011813
30
0
41
1
10
44.6997742982655
20
2.3441247423529
30
0
41
1
10
44.5527032567056
20
2.38467794863473
30
0
41
1
10
44.258200727578
20
2.46000028014805
30
0
41
1
10
44.1107857868558
20
2.49476030778936
30
0
41
1
10
43.8154743171552
20
2.55773428463323
30
0
41
1
10
43.6675973990971
20
2.58585464463386
30
0
41
1
10
43.4450155127231
20
2.62359930052051
30
0
41
1
10
43.3706132985229
20
2.63546886567852
30
0
41
1
10
43.2219740520853
20
2.65766886658088
30
0
41
1
10
43.1477354629453
20
2.66799659028672
30
0
41
1
10
42.7769592887023
20
2.715683350966
30
0
41
1
10
42.4817019603908
20
2.74119053117386
30
0
41
1
10
42.040299036186
20
2.75873045904197
30
0
41
1
10
41.893426659871
20
2.76109450206843
30
0
41
1
10
41.5998279416151
20
2.75916422865774
30
0
41
1
10
41.4530836120712
20
2.75491534257515
30
0
41
1
10
41.2727479653758
20
2.74537996381389
30
0
41
1
10
41.2391484188673
20
2.74341269578511
30
0
41
1
10
41.2055475121193
20
2.74126359232744
30
0
0
SPLINE
5
FB
100
AcDbEntity
8
1
62
256
6
ByLayer
370
18
48
1
60
0
100
AcDbSpline
70
4
71
3
72
63
73
59
40
0
40
0
40
0
40
0
40
0.0013107538552837
40
0.0013107538552837
40
0.0637288317393255
40
0.0637288317393255
40
0.126146909623367
40
0.126146909623367
40
0.141751429094377
40
0.141751429094377
40
0.157355948565387
40
0.188564987507407
40
0.188564987507407
40
0.204169506978416
40
0.204169506978416
40
0.219774026449426
40
0.219774026449426
40
0.250983065391446
40
0.250983065391446
40
0.313401143275488
40
0.313401143275488
40
0.344610182217509
40
0.344610182217509
40
0.37581922115953
40
0.37581922115953
40
0.391423740630542
40
0.391423740630542
40
0.407028260101553
40
0.407028260101553
40
0.438237299043574
40
0.438237299043574
40
0.500655376927618
40
0.500655376927618
40
0.563073454811662
40
0.563073454811662
40
0.625491532695706
40
0.625491532695706
40
0.641096052166718
40
0.641096052166718
40
0.656700571637728
40
0.656700571637728
40
0.687909610579753
40
0.687909610579753
40
0.750327688463804
40
0.750327688463804
40
0.812745766347854
40
0.812745766347854
40
0.84395480528988
40
0.84395480528988
40
0.875163844231905
40
0.875163844231905
40
0.890768363702918
40
0.890768363702918
40
0.906372883173931
40
0.906372883173931
40
0.937581922115954
40
0.937581922115954
40
1
40
1
40
1
40
1
41
1
10
52.7333644787994
20
-2.78106467708051
30
0
41
1
10
52.7272085986348
20
-2.78212453543779
30
0
41
1
10
52.7210527648964
20
-2.78317852316144
30
0
41
1
10
52.4217579079977
20
-2.83413763011345
30
0
41
1
10
52.1286665548054
20
-2.87071527579852
30
0
41
1
10
51.5407198743742
20
-2.91631029489298
30
0
41
1
10
51.2459284810622
20
-2.92532822320729
30
0
41
1
10
50.8750100368072
20
-2.91873433598644
30
0
41
1
10
50.8006160063269
20
-2.91651871865383
30
0
41
1
10
50.6520621245798
20
-2.9103136046528
30
0
41
1
10
50.4295898053898
20
-2.89835346226482
30
0
41
1
10
50.2080399481451
20
-2.87854714913325
30
0
41
1
10
49.9869185346874
20
-2.85365189399272
30
0
41
1
10
49.913285992355
20
-2.84450472004275
30
0
41
1
10
49.7661897555235
20
-2.82450881205298
30
0
41
1
10
49.6927207706205
20
-2.81366104510258
30
0
41
1
10
49.4724123355508
20
-2.77864233403599
30
0
41
1
10
49.3256852318148
20
-2.75199302991285
30
0
41
1
10
48.8856447724023
20
-2.66237665268784
30
0
41
1
10
48.5924339192594
20
-2.58976703591384
30
0
41
1
10
48.1514725643844
20
-2.46256832334944
30
0
41
1
10
48.0043200830832
20
-2.41709410473206
30
0
41
1
10
47.7093544098352
20
-2.32025363047734
30
0
41
1
10
47.5615298406359
20
-2.26890300092529
30
0
41
1
10
47.3391292938006
20
-2.18758341128057
30
0
41
1
10
47.2648842358829
20
-2.15976196024843
30
0
41
1
10
47.1161300080326
20
-2.10272534768163
30
0
41
1
10
47.0418206093727
20
-2.07358645771078
30
0
41
1
10
46.8193022795003
20
-1.98450308586556
30
0
41
1
10
46.6713916825557
20
-1.92284526164534
30
0
41
1
10
46.2286497711079
20
-1.73159196453633
30
0
41
1
10
45.9347714717346
20
-1.5957691441767
30
0
41
1
10
45.3476784570346
20
-1.31056950383567
30
0
41
1
10
45.0544526202688
20
-1.16120458035937
30
0
41
1
10
44.4665159746705
20
-0.852435815016548
30
0
41
1
10
44.1718392698203
20
-0.692979309132937
30
0
41
1
10
43.8014092842564
20
-0.48928079915342
30
0
41
1
10
43.727219070378
20
-0.448322074325859
30
0
41
1
10
43.5785961779159
20
-0.366022841032304
30
0
41
1
10
43.5041066834443
20
-0.324650519683416
30
0
41
1
10
43.2812159937092
20
-0.200603841915921
30
0
41
1
10
43.1331044721966
20
-0.117843940630621
30
0
41
1
10
42.689779580614
20
0.129836295805092
30
0
41
1
10
42.3955775686937
20
0.294161942708172
30
0
41
1
10
41.807944394766
20
0.617808770332601
30
0
41
1
10
41.514536044278
20
0.777170446329364
30
0
41
1
10
41.0735693247317
20
1.00990985794723
30
0
41
1
10
40.9264349760758
20
1.08643411024244
30
0
41
1
10
40.631669635236
20
1.23700201450688
30
0
41
1
10
40.4840367889747
20
1.31104179601675
30
0
41
1
10
40.2619679706762
20
1.41980705746354
30
0
41
1
10
40.187841877228
20
1.4556800273686
30
0
41
1
10
40.0393499665719
20
1.52660327836367
30
0
41
1
10
39.9649535100097
20
1.56166776539666
30
0
41
1
10
39.7415548189951
20
1.66544756850399
30
0
41
1
10
39.5927985680362
20
1.73253793187118
30
0
41
1
10
39.1466837310228
20
1.92702645773716
30
0
41
1
10
38.8494707604898
20
2.04764240665989
30
0
41
1
10
38.5516256923224
20
2.15806519974152
30
0
0
SPLINE
5
FC
100
AcDbEntity
8
1
62
256
6
ByLayer
370
18
48
1
60
0
100
AcDbSpline
70
4
71
3
72
47
73
43
40
0
40
0
40
0
40
0
40
0.057993440572314
40
0.057993440572314
40
0.0838372416116563
40
0.0838372416116563
40
0.109681042650999
40
0.109681042650999
40
0.161368644729688
40
0.161368644729688
40
0.213056246808376
40
0.213056246808376
40
0.264743848887065
40
0.264743848887065
40
0.368119053044438
40
0.368119053044438
40
0.471494257201811
40
0.471494257201811
40
0.523181859280498
40
0.523181859280498
40
0.549025660319841
40
0.549025660319841
40
0.574869461359184
40
0.574869461359184
40
0.626557063437871
40
0.626557063437871
40
0.678244665516557
40
0.678244665516557
40
0.781619869673927
40
0.781619869673927
40
0.833307471752612
40
0.833307471752612
40
0.859151272791954
40
0.859151272791954
40
0.884995073831297
40
0.884995073831297
40
0.936682675909978
40
0.962526476949318
40
0.962526476949318
40
0.988370277988659
40
0.988370277988659
40
1
40
1
40
1
40
1
41
1
10
42.5424265811146
20
0.212566118099005
30
0
41
1
10
42.70812030873
20
0.125023041731083
30
0
41
1
10
42.8741335384305
20
0.0369379885374315
30
0
41
1
10
43.1148263986395
20
-0.0907461627023736
30
0
41
1
10
43.1891193736013
20
-0.130152475915224
30
0
41
1
10
43.3379334433905
20
-0.208988713688029
30
0
41
1
10
43.4125367959641
20
-0.248461810872271
30
0
41
1
10
43.6359692445289
20
-0.366404064313372
30
0
41
1
10
43.7844594440097
20
-0.444421949234169
30
0
41
1
10
44.0807081710039
20
-0.59884232715649
30
0
41
1
10
44.2284695049396
20
-0.675245208612836
30
0
41
1
10
44.5235153585557
20
-0.826074162477454
30
0
41
1
10
44.6707984212869
20
-0.900497966390105
30
0
41
1
10
45.1122605648735
20
-1.12013594275629
30
0
41
1
10
45.4060561496917
20
-1.2616995557679
30
0
41
1
10
45.9944754072462
20
-1.5318669934374
30
0
41
1
10
46.2890789629694
20
-1.6605017319888
30
0
41
1
10
46.732992765705
20
-1.84154306146343
30
0
41
1
10
46.8812997367695
20
-1.89989934870326
30
0
41
1
10
47.104425570665
20
-1.98409121087869
30
0
41
1
10
47.1789944060748
20
-2.01162911760957
30
0
41
1
10
47.3278783104494
20
-2.06537554238076
30
0
41
1
10
47.4022021420595
20
-2.09158977727785
30
0
41
1
10
47.6248753117726
20
-2.16822858103362
30
0
41
1
10
47.7729165304962
20
-2.21663178185267
30
0
41
1
10
48.0683318466346
20
-2.3076221434091
30
0
41
1
10
48.2157538274357
20
-2.35026992886114
30
0
41
1
10
48.6575284627126
20
-2.46954904914727
30
0
41
1
10
48.9513151540272
20
-2.53746999480177
30
0
41
1
10
49.3922734006268
20
-2.62118773167316
30
0
41
1
10
49.5393034824095
20
-2.64603067821909
30
0
41
1
10
49.7600666473362
20
-2.67827009436223
30
0
41
1
10
49.8336981873019
20
-2.68820624351324
30
0
41
1
10
49.9811157013844
20
-2.7065796335051
30
0
41
1
10
50.0548936810458
20
-2.71499424308001
30
0
41
1
10
50.2764112360305
20
-2.73773900665373
30
0
41
1
10
50.4983167113505
20
-2.7555409886198
30
0
41
1
10
50.7210839701031
20
-2.76582539420414
30
0
41
1
10
50.8698195801253
20
-2.77099408522338
30
0
41
1
10
50.9443482219152
20
-2.77273434205119
30
0
41
1
10
51.052252732172
20
-2.77401989591019
30
0
41
1
10
51.0857280328766
20
-2.77424632602586
30
0
41
1
10
51.1191923782349
20
-2.77430057745363
30
0
0
SPLINE
5
FD
100
AcDbEntity
8
1
62
256
6
ByLayer
370
18
48
1
60
0
100
AcDbSpline
70
4
71
3
72
48
73
44
40
0
40
0
40
0
40
0
40
0.0162098127484308
40
0.0162098127484308
40
0.043136412190003
40
0.043136412190003
40
0.0700630116315751
40
0.0700630116315751
40
0.123916210514715
40
0.123916210514715
40
0.150842809956287
40
0.150842809956287
40
0.177769409397859
40
0.177769409397859
40
0.231622608281003
40
0.231622608281003
40
0.339329006047292
40
0.339329006047292
40
0.393182204930436
40
0.393182204930436
40
0.44703540381358
40
0.44703540381358
40
0.473962003255152
40
0.473962003255152
40
0.500888602696724
40
0.500888602696724
40
0.554741801579868
40
0.554741801579868
40
0.662448199346157
40
0.662448199346157
40
0.770154597112445
40
0.770154597112445
40
0.824007795995589
40
0.824007795995589
40
0.877860994878733
40
0.877860994878733
40
0.931714193761877
40
0.931714193761877
40
0.958640793203447
40
0.958640793203447
40
0.985567392645017
40
0.985567392645017
40
1
40
1
40
1
40
1
41
1
10
51.148339717344
20
-2.78420523188851
30
0
41
1
10
51.1035803023638
20
-2.7843645198152
30
0
41
1
10
51.0588019549929
20
-2.78421472004811
30
0
41
1
10
50.9395817357277
20
-2.78299114214363
30
0
41
1
10
50.8650495901146
20
-2.78137042840774
30
0
41
1
10
50.7163087269726
20
-2.77643366918443
30
0
41
1
10
50.6420508444063
20
-2.77311825791324
30
0
41
1
10
50.419566127837
20
-2.76065530395277
30
0
41
1
10
50.2716278691016
20
-2.74899250205632
30
0
41
1
10
50.0501105916472
20
-2.72653728945929
30
0
41
1
10
49.9763331613458
20
-2.71821626806104
30
0
41
1
10
49.8289206796204
20
-2.70002124900736
30
0
41
1
10
49.7552933028834
20
-2.69016974053253
30
0
41
1
10
49.5345377383548
20
-2.65817606644342
30
0
41
1
10
49.3875099885034
20
-2.63348514520556
30
0
41
1
10
48.9465648722512
20
-2.55017288750943
30
0
41
1
10
48.6527870915576
20
-2.48245889331233
30
0
41
1
10
48.2110229617957
20
-2.36340041983999
30
0
41
1
10
48.0636058055936
20
-2.32080911266692
30
0
41
1
10
47.7681930533598
20
-2.22990346449831
30
0
41
1
10
47.6201497497792
20
-2.18152900206241
30
0
41
1
10
47.3974730347441
20
-2.10490315410556
30
0
41
1
10
47.3231478350526
20
-2.07868829078052
30
0
41
1
10
47.1742594100784
20
-2.02493213185497
30
0
41
1
10
47.0996874905189
20
-1.99738497703538
30
0
41
1
10
46.8765546320153
20
-1.91315589121587
30
0
41
1
10
46.7282444213328
20
-1.8547608515766
30
0
41
1
10
46.2843287715727
20
-1.67355415562272
30
0
41
1
10
45.9897305410053
20
-1.54474946939189
30
0
41
1
10
45.4013313215416
20
-1.27412297908268
30
0
41
1
10
45.1075513151815
20
-1.13226743816941
30
0
41
1
10
44.6661008691189
20
-0.912112048232984
30
0
41
1
10
44.5188202850862
20
-0.837502198546076
30
0
41
1
10
44.2237785115728
20
-0.686269487187502
30
0
41
1
10
44.0760184309654
20
-0.609649563943975
30
0
41
1
10
43.7797686443195
20
-0.454766476983082
30
0
41
1
10
43.6312769169872
20
-0.376501436615087
30
0
41
1
10
43.4078377120123
20
-0.258166596850003
30
0
41
1
10
43.3332311625726
20
-0.21855910859054
30
0
41
1
10
43.1844128005966
20
-0.139450935697056
30
0
41
1
10
43.1101182299984
20
-0.0999066216842266
30
0
41
1
10
42.9961509490358
20
-0.0392345467421364
30
0
41
1
10
42.9564089124573
20
-0.0180756037663059
30
0
41
1
10
42.9166923435311
20
0.0030661770196048
30
0
0
SPLINE
5
FE
100
AcDbEntity
8
1
62
256
6
ByLayer
370
18
48
1
60
0
100
AcDbSpline
70
4
71
3
72
14
73
10
40
0
40
0
40
0
40
0
40
0.25
40
0.25
40
0.5
40
0.5
40
0.75
40
0.75
40
1
40
1
40
1
40
1
41
1
10
66.9316127720771
20
-2.79873134387887
30
0
41
1
10
66.932308771482
20
-2.7976078358403
30
0
41
1
10
66.9330203686266
20
-2.79641209423863
30
0
41
1
10
66.9343969379749
20
-2.79397323733653
30
0
41
1
10
66.9350551662827
20
-2.79273782808113
30
0
41
1
10
66.9361012960807
20
-2.79059588922126
30
0
41
1
10
66.9364881430756
20
-2.78968851269619
30
0
41
1
10
66.9369003367396
20
-2.78844420346599
30
0
41
1
10
66.9369393611701
20
-2.78808439903207
30
0
41
1
10
66.9368532087928
20
-2.78794067396444
30
0
0
SPLINE
5
FF
100
AcDbEntity
8
1
62
256
6
ByLayer
370
18
48
1
60
0
100
AcDbSpline
70
4
71
3
72
35
73
31
40
0
40
0
40
0
40
0
40
0.0173599302169037
40
0.0173599302169037
40
0.126542160192807
40
0.126542160192807
40
0.23572439016871
40
0.23572439016871
40
0.344906620144613
40
0.344906620144613
40
0.399497735132565
40
0.426793292626538
40
0.426793292626538
40
0.454088850120512
40
0.454088850120512
40
0.50867996510846
40
0.50867996510846
40
0.563271080096407
40
0.563271080096407
40
0.672453310072306
40
0.672453310072306
40
0.781635540048206
40
0.781635540048206
40
0.890817770024105
40
0.890817770024105
40
0.945408885012054
40
0.972704442506027
40
0.986352221253013
40
0.986352221253013
40
1
40
1
40
1
40
1
41
1
10
58.8680798110112
20
0.227406208323856
30
0
41
1
10
58.915248595917
20
0.202219747624724
30
0
41
1
10
58.9623711484193
20
0.177028241715703
30
0
41
1
10
59.305557516024
20
-0.0065750856474835
30
0
41
1
10
59.6000285653523
20
-0.164798679130939
30
0
41
1
10
60.1874165565824
20
-0.477693931921237
30
0
41
1
10
60.4803403875924
20
-0.632357838256581
30
0
41
1
10
61.066616258771
20
-0.934460090246944
30
0
41
1
10
61.359941236373
20
-1.08194185425586
30
0
41
1
10
61.8015695878834
20
-1.29532671131332
30
0
41
1
10
62.022795222461
20
-1.40005439518018
30
0
41
1
10
62.2448922023275
20
-1.50133665174994
30
0
41
1
10
62.3931795517164
20
-1.56803503988951
30
0
41
1
10
62.4674744934455
20
-1.60099037345532
30
0
41
1
10
62.6904837386882
20
-1.69842145614939
30
0
41
1
10
62.8385513694264
20
-1.76112479862911
30
0
41
1
10
63.1338751337059
20
-1.88180824230389
30
0
41
1
10
63.2810892071431
20
-1.93977793304256
30
0
41
1
10
63.7214812727817
20
-2.1061502125462
30
0
41
1
10
64.0134919278086
20
-2.20702978367262
30
0
41
1
10
64.5963709116314
20
-2.38679009358159
30
0
41
1
10
64.8872486439327
20
-2.46575911420626
30
0
41
1
10
65.4697432633924
20
-2.60022941699941
30
0
41
1
10
65.7613484089263
20
-2.65570592011309
30
0
41
1
10
66.2004995648965
20
-2.71987900307283
30
0
41
1
10
66.420512913524
20
-2.74720720425444
30
0
41
1
10
66.6782672934498
20
-2.77049318280106
30
0
41
1
10
66.788995720577
20
-2.77859987720205
30
0
41
1
10
66.8628765691478
20
-2.78358463403166
30
0
41
1
10
66.899845821313
20
-2.78584258921632
30
0
41
1
10
66.9368532087928
20
-2.78794067396444
30
0
0
SPLINE
5
100
100
AcDbEntity
8
1
62
256
6
ByLayer
370
18
48
1
60
0
100
AcDbSpline
70
4
71
3
72
8
73
4
40
0
40
0
40
0
40
0
40
1
40
1
40
1
40
1
41
1
10
66.8496536612772
20
-2.93044925703504
30
0
41
1
10
66.8769264227342
20
-2.88681828023346
30
0
41
1
10
66.9042435374814
20
-2.84291177688047
30
0
41
1
10
66.9316127720771
20
-2.79873134387884
30
0
0
SPLINE
5
101
100
AcDbEntity
8
1
62
256
6
ByLayer
370
18
48
1
60
0
100
AcDbSpline
70
4
71
3
72
32
73
28
40
0
40
0
40
0
40
0
40
0.0287405858748398
40
0.0287405858748398
40
0.0574811717496792
40
0.114962343499363
40
0.114962343499363
40
0.229924686998729
40
0.229924686998729
40
0.344887030498096
40
0.344887030498096
40
0.459849373997463
40
0.459849373997463
40
0.517330545747146
40
0.517330545747146
40
0.57481171749683
40
0.57481171749683
40
0.603552303371673
40
0.603552303371673
40
0.632292889246517
40
0.689774060996205
40
0.689774060996205
40
0.804736404495579
40
0.804736404495579
40
0.919698747994955
40
0.919698747994955
40
1
40
1
40
1
40
1
41
1
10
66.931612772082
20
-2.79873134387913
30
0
41
1
10
66.857620330339
20
-2.79464273765441
30
0
41
1
10
66.7837422643235
20
-2.7898099029558
30
0
41
1
10
66.6362367399781
20
-2.77836928293283
30
0
41
1
10
66.4153292660578
20
-2.7587004493985
30
0
41
1
10
66.1953432714327
20
-2.73163192623119
30
0
41
1
10
65.7562475697356
20
-2.66793783961876
30
0
41
1
10
65.4646806721975
20
-2.61272702319863
30
0
41
1
10
64.8822627745037
20
-2.47867770599095
30
0
41
1
10
64.5914253159086
20
-2.39986267273665
30
0
41
1
10
64.0086172081808
20
-2.22028277927893
30
0
41
1
10
63.7166337910619
20
-2.11943262426473
30
0
41
1
10
63.2762641262975
20
-1.95301288555623
30
0
41
1
10
63.1290542645374
20
-1.89501269357049
30
0
41
1
10
62.8337368906499
20
-1.77422627884798
30
0
41
1
10
62.6856716786345
20
-1.7114494762809
30
0
41
1
10
62.4626570454608
20
-1.61388487166664
30
0
41
1
10
62.3883602378533
20
-1.58088209630495
30
0
41
1
10
62.2400704020831
20
-1.51408227178186
30
0
41
1
10
62.0179711185963
20
-1.41263787617064
30
0
41
1
10
61.7967473011353
20
-1.3077178258257
30
0
41
1
10
61.3551279854058
20
-1.09390636875921
30
0
41
1
10
61.0618166454597
20
-0.94608388173441
30
0
41
1
10
60.4755706086218
20
-0.643193473577185
30
0
41
1
10
60.1826606503835
20
-0.488086485346628
30
0
41
1
10
59.6838391539538
20
-0.221520194105608
30
0
41
1
10
59.4783206876116
20
-0.111004012266022
30
0
41
1
10
59.2721275342541
20
-0.0001363883102101
30
0
0
SPLINE
5
102
100
AcDbEntity
8
1
62
256
6
ByLayer
370
18
48
1
60
0
100
AcDbSpline
70
4
71
3
72
64
73
60
40
0
40
0
40
0
40
0
40
0.0560742435686607
40
0.0560742435686607
40
0.084111365352991
40
0.084111365352991
40
0.0981299262451562
40
0.0981299262451562
40
0.112148487137321
40
0.112148487137321
40
0.168222730705976
40
0.168222730705976
40
0.224296974274631
40
0.224296974274631
40
0.252334096058958
40
0.252334096058958
40
0.280371217843286
40
0.280371217843286
40
0.308408339627613
40
0.308408339627613
40
0.322426900519776
40
0.322426900519776
40
0.336445461411938
40
0.336445461411938
40
0.448593948549232
40
0.448593948549232
40
0.504668192117878
40
0.504668192117878
40
0.532705313902202
40
0.532705313902202
40
0.546723874794363
40
0.546723874794363
40
0.560742435686525
40
0.560742435686525
40
0.616816679255178
40
0.616816679255178
40
0.67289092282383
40
0.67289092282383
40
0.700928044608156
40
0.700928044608156
40
0.728965166392481
40
0.728965166392481
40
0.757002288176806
40
0.757002288176806
40
0.785039409961132
40
0.785039409961132
40
0.792048690407214
40
0.792048690407214
40
0.799057970853296
40
0.813076531745461
40
0.841113653529791
40
0.841113653529791
40
0.86915077531412
40
0.86915077531412
40
0.89718789709845
40
0.89718789709845
40
0.953262140667111
40
0.953262140667111
40
1
40
1
40
1
40
1
41
1
10
66.8496536612764
20
-2.9304492570501
30
0
41
1
10
66.5539389151384
20
-2.91066933179727
30
0
41
1
10
66.2587988072289
20
-2.87670856915361
30
0
41
1
10
65.8154740878446
20
-2.8052877509426
30
0
41
1
10
65.6675979352405
20
-2.77806687932653
30
0
41
1
10
65.4454718065894
20
-2.73218612085179
30
0
41
1
10
65.3713776263759
20
-2.71605083507865
30
0
41
1
10
65.2230563453134
20
-2.68210785277535
30
0
41
1
10
65.1488079404414
20
-2.66429314012248
30
0
41
1
10
64.7785060529754
20
-2.57142033859608
30
0
41
1
10
64.4842240116299
20
-2.48472111868176
30
0
41
1
10
63.8973130063147
20
-2.28926091322592
30
0
41
1
10
63.604683316283
20
-2.1805056887724
30
0
41
1
10
63.1654211239034
20
-2.00284711887628
30
0
41
1
10
63.018948267884
20
-1.94120916915833
30
0
41
1
10
62.7257966260014
20
-1.81320319423259
30
0
41
1
10
62.5791165545443
20
-1.74683103813493
30
0
41
1
10
62.2851192880145
20
-1.60991932102914
30
0
41
1
10
62.1378030467222
20
-1.53938238857413
30
0
41
1
10
61.9161923652138
20
-1.43066296976767
30
0
41
1
10
61.8422159185123
20
-1.39393760036853
30
0
41
1
10
61.6940217388569
20
-1.31955225862464
30
0
41
1
10
61.6197199957524
20
-1.28184881718295
30
0
41
1
10
60.9523632321429
20
-0.939814436078677
30
0
41
1
10
60.3669884685108
20
-0.615912014299511
30
0
41
1
10
59.4883385105578
20
-0.122411018804541
30
0
41
1
10
59.1953914060911
20
0.0434238119279087
30
0
41
1
10
58.7544196597621
20
0.291561596077145
30
0
41
1
10
58.6071525091581
20
0.374138769854568
30
0
41
1
10
58.3856474932432
20
0.497459550780917
30
0
41
1
10
58.3117116110388
20
0.538475349535958
30
0
41
1
10
58.1636058139751
20
0.620266414340136
30
0
41
1
10
58.0894092954881
20
0.661056211246006
30
0
41
1
10
57.7180396994781
20
0.864107372381568
30
0
41
1
10
57.4230233675732
20
1.02197066901613
30
0
41
1
10
56.8350859812877
20
1.3253619454957
30
0
41
1
10
56.5420910107111
20
1.47076372611002
30
0
41
1
10
56.1025220474542
20
1.67714196426164
30
0
41
1
10
55.9559898578
20
1.74398759757165
30
0
41
1
10
55.6627324296808
20
1.87351793862831
30
0
41
1
10
55.5160045168582
20
1.93619674023074
30
0
41
1
10
55.2220274521398
20
2.05690557375973
30
0
41
1
10
55.0747819617723
20
2.11494271933381
30
0
41
1
10
54.7795991572814
20
2.22609952839983
30
0
41
1
10
54.6316581931076
20
2.27921202373156
30
0
41
1
10
54.4460734723587
20
2.34220821222777
30
0
41
1
10
54.4089028192034
20
2.35464474177695
30
0
41
1
10
54.3346370808363
20
2.3791256788692
30
0
41
1
10
54.2233293348928
20
2.41526723168309
30
0
41
1
10
53.9642056259172
20
2.4955191357316
30
0
41
1
10
53.7429762253793
20
2.55724798056559
30
0
41
1
10
53.4485401210722
20
2.63316247021211
30
0
41
1
10
53.3015924389068
20
2.66792757003142
30
0
41
1
10
53.0080556384968
20
2.73098364135345
30
0
41
1
10
52.8614664946373
20
2.75927113515772
30
0
41
1
10
52.4217579079977
20
2.83413763011342
30
0
41
1
10
52.1286665548055
20
2.87071527579852
30
0
41
1
10
51.58966655443
20
2.91251450033195
30
0
41
1
10
51.3440715751341
20
2.92194324293138
30
0
41
1
10
51.0972566663567
20
2.92150169587214
30
0
0
SPLINE
5
103
100
AcDbEntity
8
1
62
256
6
ByLayer
370
18
48
1
60
0
100
AcDbSpline
70
4
71
3
72
8
73
4
40
0
40
0
40
0
40
0
40
1
40
1
40
1
40
1
41
1
10
66.8537766767093
20
-0.290051352062619
30
0
41
1
10
66.8696460402285
20
-0.294529679184961
30
0
41
1
10
66.8855350033343
20
-0.29859410256114
30
0
41
1
10
66.9014548605532
20
-0.302247853817136
30
0
0
SPLINE
5
104
100
AcDbEntity
8
1
62
256
6
ByLayer
370
18
48
1
60
0
100
AcDbSpline
70
4
71
3
72
20
73
16
40
0
40
0
40
0
40
0
40
0.280386925371824
40
0.280386925371824
40
0.560773850743649
40
0.560773850743649
40
0.630870582086607
40
0.630870582086607
40
0.700967313429566
40
0.700967313429566
40
0.841160776115473
40
0.841160776115473
40
0.98135423880138
40
0.98135423880138
40
1
40
1
40
1
40
1
41
1
10
38.6495989494404
20
-2.37982465891625
30
0
41
1
10
38.9450329649736
20
-2.47585388945169
30
0
41
1
10
39.2403685917336
20
-2.55877956819518
30
0
41
1
10
39.8319103994774
20
-2.69880888060351
30
0
41
1
10
40.1280632032545
20
-2.75595943030854
30
0
41
1
10
40.4992477102266
20
-2.81087641332633
30
0
41
1
10
40.5735689158927
20
-2.82103555212908
30
0
41
1
10
40.721782356028
20
-2.83962003821029
30
0
41
1
10
40.7957286141519
20
-2.84805642864029
30
0
41
1
10
41.0171369255416
20
-2.87077241952281
30
0
41
1
10
41.1642166437452
20
-2.88242946482046
30
0
41
1
10
41.4580599546844
20
-2.89869141096128
30
0
41
1
10
41.6047693545889
20
-2.90332349506187
30
0
41
1
10
41.7707927298447
20
-2.90465566862471
30
0
41
1
10
41.7902791741193
20
-2.90475076144782
30
0
41
1
10
41.8097634143
20
-2.9047846742626
30
0
0
SPLINE
5
105
100
AcDbEntity
8
1
62
256
6
ByLayer
370
18
48
1
60
0
100
AcDbSpline
70
4
71
3
72
59
73
55
40
0
40
0
40
0
40
0
40
0.0601504028559369
40
0.0601504028559369
40
0.0815106209728511
40
0.0815106209728511
40
0.102870839089765
40
0.102870839089765
40
0.145591275323594
40
0.145591275323594
40
0.188311711557422
40
0.188311711557422
40
0.19899182061588
40
0.19899182061588
40
0.209671929674337
40
0.209671929674337
40
0.231032147791248
40
0.231032147791248
40
0.273752584025067
40
0.273752584025067
40
0.316473020258887
40
0.316473020258887
40
0.359193456492706
40
0.359193456492706
40
0.401913892726525
40
0.401913892726525
40
0.444634328960345
40
0.444634328960345
40
0.487354765194164
40
0.530075201427983
40
0.530075201427983
40
0.551435419544893
40
0.551435419544893
40
0.562115528603346
40
0.562115528603346
40
0.5727956376618
40
0.5727956376618
40
0.615516073895619
40
0.615516073895619
40
0.658236510129438
40
0.658236510129438
40
0.743677382597073
40
0.743677382597073
40
0.786397818830892
40
0.786397818830892
40
0.829118255064711
40
0.829118255064711
40
0.87183869129853
40
0.87183869129853
40
0.893198909415441
40
0.893198909415441
40
0.914559127532353
40
0.914559127532353
40
1
40
1
40
1
40
1
41
1
10
56.5524115081617
20
2.79170732379475
30
0
41
1
10
56.7582704975467
20
2.82728752656166
30
0
41
1
10
56.9639161907186
20
2.85636730366542
30
0
41
1
10
57.2424600159796
20
2.88680395371799
30
0
41
1
10
57.3154383545124
20
2.89394273091668
30
0
41
1
10
57.4613824856531
20
2.90651733076669
30
0
41
1
10
57.5343697543939
20
2.91194479442132
30
0
41
1
10
57.7537094703512
20
2.92557739015689
30
0
41
1
10
57.9003689534682
20
2.93116426669636
30
0
41
1
10
58.1944689148615
20
2.93539048450487
30
0
41
1
10
58.3419129784964
20
2.93402701381842
30
0
41
1
10
58.5267363532338
20
2.92790697118784
30
0
41
1
10
58.5637268272122
20
2.92646183565088
30
0
41
1
10
58.6377587811418
20
2.92312587477886
30
0
41
1
10
58.674813172887
20
2.9212340789191
30
0
41
1
10
58.7858029231343
20
2.91489960264869
30
0
41
1
10
58.8596378688574
20
2.90979496168995
30
0
41
1
10
59.0806836037943
20
2.89183720755958
30
0
41
1
10
59.2274353389486
20
2.8763216398228
30
0
41
1
10
59.5206797838935
20
2.83864594342805
30
0
41
1
10
59.6671372750364
20
2.81649543528218
30
0
41
1
10
59.959669506888
20
2.76566244319846
30
0
41
1
10
60.1057611308688
20
2.73698174155373
30
0
41
1
10
60.3978658117388
20
2.6733056600265
30
0
41
1
10
60.5438574502896
20
2.63830250520698
30
0
41
1
10
60.8356671951722
20
2.5618610588231
30
0
41
1
10
60.9815253393974
20
2.52043937694088
30
0
41
1
10
61.273844438823
20
2.43179820425271
30
0
41
1
10
61.5667125733846
20
2.33733350901602
30
0
41
1
10
61.8609008050682
20
2.23141253311479
30
0
41
1
10
62.0821311743071
20
2.14770270137618
30
0
41
1
10
62.1559732458725
20
2.11908777707677
30
0
41
1
10
62.2669002331775
20
2.07510151591995
30
0
41
1
10
62.3039029683859
20
2.06026197641918
30
0
41
1
10
62.3777928547385
20
2.0303003734698
30
0
41
1
10
62.4147013819288
20
2.01516942843824
30
0
41
1
10
62.5990738236927
20
1.93878143079232
30
0
41
1
10
62.7460467915642
20
1.87534743502582
30
0
41
1
10
63.0395840261995
20
1.74481123661675
30
0
41
1
10
63.1861171198789
20
1.67767047440833
30
0
41
1
10
63.6250487765023
20
1.47076351242291
30
0
41
1
10
63.9167852749869
20
1.325523802926
30
0
41
1
10
64.3540743737181
20
1.09826051391983
30
0
41
1
10
64.4998086728139
20
1.02097100572695
30
0
41
1
10
64.7918468084576
20
0.864378714089781
30
0
41
1
10
64.9381338940714
20
0.785053411162522
30
0
41
1
10
65.2312913412738
20
0.624421796005493
30
0
41
1
10
65.3781647963315
20
0.543119700734991
30
0
41
1
10
65.5990503843402
20
0.419893709706656
30
0
41
1
10
65.6727750824169
20
0.378606554843543
30
0
41
1
10
65.8204425719485
20
0.295647741129784
30
0
41
1
10
65.8944416332551
20
0.253944181621676
30
0
41
1
10
66.2640165788148
20
0.0451593957787964
30
0
41
1
10
66.5587627160318
20
-0.122950224051664
30
0
41
1
10
66.8537766767089
20
-0.290051352063756
30
0
0
SPLINE
5
106
100
AcDbEntity
8
1
62
256
6
ByLayer
370
18
48
1
60
0
100
AcDbSpline
70
4
71
3
72
44
73
40
40
0
40
0
40
0
40
0
40
0.0226976327676732
40
0.0226976327676732
40
0.0748760816935397
40
0.0748760816935397
40
0.100965306156475
40
0.100965306156475
40
0.127054530619411
40
0.127054530619411
40
0.179232979545278
40
0.179232979545278
40
0.231411428471145
40
0.231411428471145
40
0.283589877397012
40
0.283589877397012
40
0.335768326322879
40
0.335768326322879
40
0.387946775248745
40
0.387946775248745
40
0.440125224174612
40
0.440125224174612
40
0.492303673100479
40
0.492303673100479
40
0.544482122026346
40
0.544482122026346
40
0.596660570952213
40
0.596660570952213
40
0.64883901987808
40
0.64883901987808
40
0.753195917729814
40
0.753195917729814
40
0.805374366655679
40
0.805374366655679
40
0.857552815581544
40
0.857552815581544
40
0.961909713433273
40
0.961909713433273
40
1
40
1
40
1
40
1
41
1
10
57.9188757986497
20
2.79391188281943
30
0
41
1
10
57.98286407999
20
2.79556098610882
30
0
41
1
10
58.0469379561466
20
2.79651965816069
30
0
41
1
10
58.2585829185014
20
2.79751987683247
30
0
41
1
10
58.4065170821306
20
2.79471696425864
30
0
41
1
10
58.629056683877
20
2.78561822754344
30
0
41
1
10
58.7033270202434
20
2.78177182691206
30
0
41
1
10
58.8514304594183
20
2.77258954805743
30
0
41
1
10
58.9253414729482
20
2.76726454452577
30
0
41
1
10
59.1467007202228
20
2.74909895980855
30
0
41
1
10
59.2937801042353
20
2.73401084525014
30
0
41
1
10
59.5875743964453
20
2.69644326526026
30
0
41
1
10
59.7342423974746
20
2.67415625339521
30
0
41
1
10
60.0272130181374
20
2.62341861434771
30
0
41
1
10
60.17353738791
20
2.59490762402729
30
0
41
1
10
60.4660792641087
20
2.53181332990164
30
0
41
1
10
60.6122566991655
20
2.49728575511725
30
0
41
1
10
60.9044377963691
20
2.42281054138067
30
0
41
1
10
61.0505049725249
20
2.38276824175028
30
0
41
1
10
61.3432053401084
20
2.29661478786744
30
0
41
1
10
61.489799866391
20
2.25057748857233
30
0
41
1
10
61.7835823287883
20
2.15306460456475
30
0
41
1
10
61.9307689541928
20
2.1015733289764
30
0
41
1
10
62.2258216075585
20
1.99341406779323
30
0
41
1
10
62.3737150085831
20
1.93673555924121
30
0
41
1
10
62.6701666608444
20
1.81855238813762
30
0
41
1
10
62.8177720821498
20
1.75742263067869
30
0
41
1
10
63.1120915667418
20
1.63138450837198
30
0
41
1
10
63.2587927393695
20
1.56650241088403
30
0
41
1
10
63.6977910684686
20
1.36709227112982
30
0
41
1
10
63.9889631201165
20
1.22773143228389
30
0
41
1
10
64.4244211689681
20
1.01114560566961
30
0
41
1
10
64.5693957597751
20
0.937722792941202
30
0
41
1
10
64.8594914960113
20
0.788982056321288
30
0
41
1
10
65.0045857807596
20
0.713649956476843
30
0
41
1
10
65.4401406158933
20
0.485330942091792
30
0
41
1
10
65.7308882835001
20
0.33001712057947
30
0
41
1
10
66.1290500489015
20
0.115539115860713
30
0
41
1
10
66.235645805126
20
0.0579483189503378
30
0
41
1
10
66.3424138539726
20
0.0001975309805857
30
0
0
SPLINE
5
107
100
AcDbEntity
8
1
62
256
6
ByLayer
370
18
48
1
60
0
100
AcDbSpline
70
4
71
3
72
8
73
4
40
0
40
0
40
0
40
0
40
1
40
1
40
1
40
1
41
1
10
66.9037323331763
20
-0.31363351687412
30
0
41
1
10
66.8909166002521
20
-0.306739063035962
30
0
41
1
10
66.8781044098127
20
-0.299844800807108
30
0
41
1
10
66.8652956866208
20
-0.292950864737349
30
0
0
SPLINE
5
108
100
AcDbEntity
8
1
62
256
6
ByLayer
370
18
48
1
60
0
100
AcDbSpline
70
4
71
3
72
45
73
41
40
0
40
0
40
0
40
0
40
0.0831969329208249
40
0.0831969329208249
40
0.185467338994568
40
0.185467338994568
40
0.236602542031442
40
0.236602542031442
40
0.287737745068316
40
0.287737745068316
40
0.338872948105189
40
0.338872948105189
40
0.390008151142063
40
0.390008151142063
40
0.441143354178937
40
0.441143354178937
40
0.49227855721581
40
0.49227855721581
40
0.517846158734245
40
0.517846158734245
40
0.543413760252681
40
0.594548963289554
40
0.594548963289554
40
0.645684166326428
40
0.645684166326428
40
0.696819369363301
40
0.696819369363301
40
0.747954572400175
40
0.747954572400175
40
0.799089775437049
40
0.799089775437049
40
0.850224978473922
40
0.850224978473922
40
0.901360181510796
40
0.901360181510796
40
0.926927783029233
40
0.926927783029233
40
0.952495384547669
40
0.952495384547669
40
1
40
1
40
1
40
1
41
1
10
66.7390855615417
20
-0.224978096434256
30
0
41
1
10
66.4999604219059
20
-0.0961217244323791
30
0
41
1
10
66.2619613785608
20
0.0324658918750345
30
0
41
1
10
65.7328137657336
20
0.316559870147415
30
0
41
1
10
65.4419778257439
20
0.471466667050379
30
0
41
1
10
65.0062932953253
20
0.699270488516731
30
0
41
1
10
64.8611567279088
20
0.774448210007421
30
0
41
1
10
64.5709796504079
20
0.922919970682784
30
0
41
1
10
64.4259645029213
20
0.996223798096196
30
0
41
1
10
64.1355797966955
20
1.14039590709126
30
0
41
1
10
63.9901792715648
20
1.211242964771
30
0
41
1
10
63.6987786166197
20
1.35009761241548
30
0
41
1
10
63.5527847566572
20
1.41810936956432
30
0
41
1
10
63.2600616112814
20
1.55095787058912
30
0
41
1
10
63.1133345457593
20
1.6158103944546
30
0
41
1
10
62.8189739742969
20
1.74183409756583
30
0
41
1
10
62.671351970902
20
1.80297615162047
30
0
41
1
10
62.4489912459457
20
1.89164495917447
30
0
41
1
10
62.3749135615328
20
1.92061665787119
30
0
41
1
10
62.226993076501
20
1.97729371381132
30
0
41
1
10
62.0053834350403
20
2.06044003825048
30
0
41
1
10
61.7845369518499
20
2.13780349014365
30
0
41
1
10
61.4906647522278
20
2.2355199279603
30
0
41
1
10
61.3440249804162
20
2.28167704157957
30
0
41
1
10
61.0512353651311
20
2.36810898519676
30
0
41
1
10
60.9051233231403
20
2.40830587969202
30
0
41
1
10
60.6128547928138
20
2.48309876284
30
0
41
1
10
60.4666359824288
20
2.51779635339423
30
0
41
1
10
60.174016002159
20
2.58127563256531
30
0
41
1
10
60.0276542846583
20
2.60999667789744
30
0
41
1
10
59.7346130172268
20
2.66117886559647
30
0
41
1
10
59.5879123055744
20
2.6837031452695
30
0
41
1
10
59.2940590777212
20
2.72178740767728
30
0
41
1
10
59.1469508298557
20
2.73714653345687
30
0
41
1
10
58.9255501807293
20
2.75571591528879
30
0
41
1
10
58.8516259932034
20
2.76117624855306
30
0
41
1
10
58.7035000247784
20
2.77063980255235
30
0
41
1
10
58.6292216334979
20
2.7746314416718
30
0
41
1
10
58.4171590900102
20
2.7837270773486
30
0
41
1
10
58.2796626026697
20
2.78683681129812
30
0
41
1
10
58.1425489431425
20
2.78695052637005
30
0
0
SPLINE
5
109
100
AcDbEntity
8
1
62
256
6
ByLayer
370
18
48
1
60
0
100
AcDbSpline
70
4
71
3
72
8
73
4
40
0
40
0
40
0
40
0
40
1
40
1
40
1
40
1
41
1
10
66.9014548605531
20
-0.302247853817079
30
0
41
1
10
66.9033612937121
20
-0.302685397474221
30
0
41
1
10
66.9043708594684
20
-0.307798014512002
30
0
41
1
10
66.9037323331763
20
-0.313633516874177
30
0
0
SPLINE
5
10A
100
AcDbEntity
8
1
62
256
6
ByLayer
370
18
48
1
60
0
100
AcDbSpline
70
4
71
3
72
10
73
6
40
0
40
0
40
0
40
0
40
0.504868156820037
40
0.504868156820037
40
1
40
1
40
1
40
1
41
1
10
12.7937452300337
20
-1.64199552156393
30
0
41
1
10
12.0039428449717
20
-1.81723597400665
30
0
41
1
10
11.2190464530037
20
-1.99208155065114
30
0
41
1
10
9.67424421902527
20
-2.33361407767296
30
0
41
1
10
8.9143424518561
20
-2.50033126383624
30
0
41
1
10
8.1594861253044
20
-2.66346071592972
30
0
0
SPLINE
5
10B
100
AcDbEntity
8
1
62
256
6
ByLayer
370
18
48
1
60
0
100
AcDbSpline
70
4
71
3
72
100
73
96
40
0
40
0
40
0
40
0
40
0.0624999999999947
40
0.0624999999999947
40
0.124999999999989
40
0.124999999999989
40
0.156249999999987
40
0.156249999999987
40
0.171874999999986
40
0.171874999999986
40
0.187499999999986
40
0.187499999999986
40
0.218749999999985
40
0.218749999999985
40
0.234374999999984
40
0.234374999999984
40
0.242187499999984
40
0.242187499999984
40
0.249999999999983
40
0.249999999999983
40
0.28124999999998
40
0.28124999999998
40
0.296874999999978
40
0.296874999999978
40
0.304687499999977
40
0.304687499999977
40
0.312499999999976
40
0.312499999999976
40
0.343749999999973
40
0.343749999999973
40
0.351562499999973
40
0.351562499999973
40
0.355468749999972
40
0.355468749999972
40
0.359374999999972
40
0.37499999999997
40
0.390624999999968
40
0.390624999999968
40
0.398437499999968
40
0.398437499999968
40
0.406249999999967
40
0.406249999999967
40
0.421874999999964
40
0.421874999999964
40
0.429687499999963
40
0.429687499999963
40
0.437499999999962
40
0.437499999999962
40
0.468749999999958
40
0.468749999999958
40
0.499999999999954
40
0.499999999999954
40
0.531249999999951
40
0.531249999999951
40
0.562499999999947
40
0.562499999999947
40
0.593749999999943
40
0.593749999999943
40
0.62499999999994
40
0.62499999999994
40
0.656249999999936
40
0.656249999999936
40
0.664062499999935
40
0.664062499999935
40
0.666015624999935
40
0.666015624999935
40
0.667968749999935
40
0.667968749999935
40
0.669921874999935
40
0.669921874999935
40
0.671874999999935
40
0.671874999999935
40
0.672851562499935
40
0.672851562499935
40
0.673828124999936
40
0.673828124999936
40
0.675781249999936
40
0.675781249999936
40
0.679687499999936
40
0.679687499999936
40
0.683593749999936
40
0.683593749999936
40
0.687499999999937
40
0.687499999999937
40
0.749999999999949
40
0.749999999999949
40
0.781249999999956
40
0.781249999999956
40
0.812499999999963
40
0.812499999999963
40
0.874999999999976
40
0.874999999999976
40
0.937499999999988
40
0.937499999999988
40
1
40
1
40
1
40
1
41
1
10
8.15948737521336
20
-2.66346047449957
30
0
41
1
10
7.99752159507671
20
-2.63233855573301
30
0
41
1
10
7.83797930427218
20
-2.59635790582709
30
0
41
1
10
7.52481544358932
20
-2.51219263804657
30
0
41
1
10
7.37117386739845
20
-2.46405112710556
30
0
41
1
10
7.14652340159228
20
-2.37959727319745
30
0
41
1
10
7.07261594040665
20
-2.34938977587882
30
0
41
1
10
6.9635061677775
20
-2.30035810207815
30
0
41
1
10
6.92742916780176
20
-2.28339193960915
30
0
41
1
10
6.85592508089019
20
-2.24807425916194
30
0
41
1
10
6.82045208717358
20
-2.22969772214202
30
0
41
1
10
6.71546484917059
20
-2.17241649812595
30
0
41
1
10
6.64755450768476
20
-2.13148879626439
30
0
41
1
10
6.54954998057309
20
-2.06499551204905
30
0
41
1
10
6.51752829281918
20
-2.04197686332964
30
0
41
1
10
6.47059547246499
20
-2.00599428592486
30
0
41
1
10
6.45513480298638
20
-1.99375724094418
30
0
41
1
10
6.42460688546669
20
-1.96876259676506
30
0
41
1
10
6.40952138277669
20
-1.95598866474461
30
0
41
1
10
6.33542220610701
20
-1.89095846140239
30
0
41
1
10
6.28036003233944
20
-1.83528771092753
30
0
41
1
10
6.20584211058906
20
-1.74480211226259
30
0
41
1
10
6.18235665962007
20
-1.71347024021742
30
0
41
1
10
6.14948469385627
20
-1.66443826878142
30
0
41
1
10
6.13892100368383
20
-1.64775446329202
30
0
41
1
10
6.11864886848059
20
-1.61364906093175
30
0
41
1
10
6.10892401005748
20
-1.59619569271325
30
0
41
1
10
6.06282047105742
20
-1.50726999865327
30
0
41
1
10
6.03459829184294
20
-1.43218635648304
30
0
41
1
10
6.01243557158475
20
-1.33239742591616
30
0
41
1
10
6.00866327547774
20
-1.31214099357214
30
0
41
1
10
6.00405365928378
20
-1.2812828684045
30
0
41
1
10
6.0026908813991
20
-1.27090281514552
30
0
41
1
10
6.00034126439027
20
-1.25013682722218
30
0
41
1
10
5.9953932283118
20
-1.19812893548328
30
0
41
1
10
5.99477162962188
20
-1.10368617479418
30
0
41
1
10
6.00584685734665
20
-1.01859262861055
30
0
41
1
10
6.01849286616184
20
-0.954353153723986
30
0
41
1
10
6.02345386837007
20
-0.932792878216873
30
0
41
1
10
6.03469399290776
20
-0.890002631194335
30
0
41
1
10
6.04096703905174
20
-0.868768643144932
30
0
41
1
10
6.06163168449268
20
-0.805523701940444
30
0
41
1
10
6.07786448915408
20
-0.763968675872178
30
0
41
1
10
6.1055177442652
20
-0.702459716934584
30
0
41
1
10
6.1152871808392
20
-0.682094236172105
30
0
41
1
10
6.13587655220351
20
-0.64162601083595
30
0
41
1
10
6.14672572189289
20
-0.621473748368317
30
0
41
1
10
6.20301878348891
20
-0.52213581999294
30
0
41
1
10
6.2545531752863
20
-0.446980623047835
30
0
41
1
10
6.36714644323777
20
-0.303016611646598
30
0
41
1
10
6.42826362181836
20
-0.234207783003768
30
0
41
1
10
6.55795394723845
20
-0.101733075613595
30
0
41
1
10
6.62547612059765
20
-0.0391276598822969
30
0
41
1
10
6.76457450298332
20
0.0805895771749761
30
0
41
1
10
6.83616149126041
20
0.13768671983064
30
0
41
1
10
6.98259849521622
20
0.247464641520651
30
0
41
1
10
7.05745338872759
20
0.300138778378567
30
0
41
1
10
7.20988687159496
20
0.401805244592367
30
0
41
1
10
7.28749381883216
20
0.450809707021989
30
0
41
1
10
7.44493601419541
20
0.545599766407889
30
0
41
1
10
7.52457871683339
20
0.591268255890583
30
0
41
1
10
7.62505859170787
20
0.646470623746524
30
0
41
1
10
7.64520048515581
20
0.657416319597246
30
0
41
1
10
7.67043328986736
20
0.670984160193058
30
0
41
1
10
7.67548218228748
20
0.673692776797367
30
0
41
1
10
7.68558479970486
20
0.679099829758457
30
0
41
1
10
7.69060997294781
20
0.681850728898638
30
0
41
1
10
7.70083573295653
20
0.687031757775202
30
0
41
1
10
7.70612555619357
20
0.689314757491928
30
0
41
1
10
7.71693816780925
20
0.693045560734504
30
0
41
1
10
7.72243377138255
20
0.694522760947365
30
0
41
1
10
7.73082428745752
20
0.696099816759499
30
0
41
1
10
7.73365266438338
20
0.696488575281506
30
0
41
1
10
7.73932364796963
20
0.69720430868864
30
0
41
1
10
7.74217769411626
20
0.697496288297174
30
0
41
1
10
7.75077667141699
20
0.698119370572783
30
0
41
1
10
7.75647384744804
20
0.698158985587952
30
0
41
1
10
7.77350299740212
20
0.697617146210888
30
0
41
1
10
7.78475027277111
20
0.696138667431597
30
0
41
1
10
7.80707902552021
20
0.691423410583951
30
0
41
1
10
7.81803514108157
20
0.68807811904091
30
0
41
1
10
7.83988366824261
20
0.681456369838173
30
0
41
1
10
7.85081636533246
20
0.67817099585281
30
0
41
1
10
8.03648887759107
20
0.621709157910146
30
0
41
1
10
8.20978863859997
20
0.56383495269003
30
0
41
1
10
8.46743675062547
20
0.470265207763475
30
0
41
1
10
8.55295884397026
20
0.437943866104178
30
0
41
1
10
8.72295420811383
20
0.371278956948799
30
0
41
1
10
8.80747113336346
20
0.336917069817446
30
0
41
1
10
9.05967302352951
20
0.230937992793684
30
0
41
1
10
9.22600024080572
20
0.156408457400147
30
0
41
1
10
9.55565135590706
20
0.0008776574811407
30
0
41
1
10
9.71897324407124
20
-0.0801279414019405
30
0
41
1
10
10.0433855983025
20
-0.246984535853954
30
0
41
1
10
10.2044815869921
20
-0.332823756479939
30
0
41
1
10
10.3648543978491
20
-0.420256613982332
30
0
0
SPLINE
5
10C
100
AcDbEntity
8
SK1
62
256
6
ByLayer
370
18
48
1
60
0
100
AcDbSpline
70
4
71
3
72
10
73
6
40
0
40
0
40
0
40
0
40
0.75364551346122
40
0.75364551346122
40
1
40
1
40
1
40
1
41
1
10
-35.75
20
0.0279027990955854
30
0
41
1
10
-35.7379956523281
20
0.023936976519451
30
0
41
1
10
-35.7264866986603
20
0.0179274946170551
30
0
41
1
10
-35.7118073013488
20
0.0073882148556095
30
0
41
1
10
-35.7082615452468
20
0.0045929762295884
30
0
41
1
10
-35.7048105833525
20
0.0016166238112589
30
0
0
SPLINE
5
10D
100
AcDbEntity
8
SK1
62
256
6
ByLayer
370
18
48
1
60
0
100
AcDbSpline
70
4
71
3
72
8
73
4
40
0
40
0
40
0
40
0
40
1
40
1
40
1
40
1
41
1
10
-35.9999999999999
20
0.111089193121927
30
0
41
1
10
-35.9170211645632
20
0.0832535380573063
30
0
41
1
10
-35.8336472596399
20
0.0555369696292587
30
0
41
1
10
-35.7499999999999
20
0.0279027990954717
30
0
0
SPLINE
5
10E
100
AcDbEntity
8
SK1
62
256
6
ByLayer
370
18
48
1
60
0
100
AcDbSpline
70
4
71
3
72
8
73
4
40
0
40
0
40
0
40
0
40
1
40
1
40
1
40
1
41
1
10
-35.75
20
1.39695036282282
30
0
41
1
10
-35.8336531677434
20
1.3693142404554
30
0
41
1
10
-35.9170277819171
20
1.34159740403743
30
0
41
1
10
-36
20
1.31376396879637
30
0
0
SPLINE
5
10F
100
AcDbEntity
8
SK1
62
256
6
ByLayer
370
18
48
1
60
0
100
AcDbSpline
70
4
71
3
72
22
73
18
40
0
40
0
40
0
40
0
40
0.0625000000000028
40
0.0625000000000028
40
0.125000000000006
40
0.125000000000006
40
0.250000000000005
40
0.250000000000005
40
0.375000000000004
40
0.375000000000004
40
0.500000000000002
40
0.500000000000002
40
0.625000000000001
40
0.625000000000001
40
0.75
40
0.75
40
1
40
1
40
1
40
1
41
1
10
-35.65
20
1.34438500448374
30
0
41
1
10
-35.65
20
1.34803560804858
30
0
41
1
10
-35.6502718586019
20
1.35156009799965
30
0
41
1
10
-35.6512913504498
20
1.35820585853258
30
0
41
1
10
-35.652030658643
20
1.36130737378531
30
0
41
1
10
-35.6548298230237
20
1.37005054679611
30
0
41
1
10
-35.6575061245997
20
1.37517729012598
30
0
41
1
10
-35.6638376796887
20
1.38387499193601
30
0
41
1
10
-35.6674983282837
20
1.38749988259883
30
0
41
1
10
-35.6756151818521
20
1.39359458594973
30
0
41
1
10
-35.6800682064548
20
1.39604155439977
30
0
41
1
10
-35.6893906957631
20
1.39980772691013
30
0
41
1
10
-35.6942952881823
20
1.40115188906154
30
0
41
1
10
-35.7045485857552
20
1.40287476729568
30
0
41
1
10
-35.7099306774388
20
1.40325096244302
30
0
41
1
10
-35.7265024515808
20
1.40294900247508
30
0
41
1
10
-35.7380004903212
20
1.40091458709301
30
0
41
1
10
-35.7500000000001
20
1.39695036282296
30
0
0
SPLINE
5
110
100
AcDbEntity
8
SK1
62
256
6
ByLayer
370
18
48
1
60
0
100
AcDbSpline
70
4
71
3
72
22
73
18
40
0
40
0
40
0
40
0
40
0.249999999999997
40
0.249999999999997
40
0.374999999999998
40
0.374999999999998
40
0.499999999999998
40
0.499999999999998
40
0.624999999999999
40
0.624999999999999
40
0.75
40
0.75
40
0.875000000000001
40
0.875000000000001
40
0.9375
40
0.9375
40
1
40
1
40
1
40
1
41
1
10
-35.75
20
-0.0279027990955854
30
0
41
1
10
-35.7379956523281
20
-0.023936976519451
30
0
41
1
10
-35.7264866986603
20
-0.0179274946170835
30
0
41
1
10
-35.7098921057742
20
-0.0060131732560933
30
0
41
1
10
-35.7045257065493
20
-0.0015765147602451
30
0
41
1
10
-35.6942964893128
20
0.008100365031936
30
0
41
1
10
-35.6894060316865
20
0.0133588776226645
30
0
41
1
10
-35.6801144608566
20
0.0248062255749062
30
0
41
1
10
-35.6756964104891
20
0.031017347838997
30
0
41
1
10
-35.6675285377629
20
0.0444905495515684
30
0
41
1
10
-35.6638529491705
20
0.0516204411324281
30
0
41
1
10
-35.6575076548177
20
0.066854109634221
30
0
41
1
10
-35.6548318331324
20
0.0750242110929378
30
0
41
1
10
-35.6520304488211
20
0.0876439956761601
30
0
41
1
10
-35.65129058319
20
0.0919305572885492
30
0
41
1
10
-35.650270741394
20
0.100693142627392
30
0
41
1
10
-35.65
20
0.105128841419003
30
0
41
1
10
-35.65
20
0.109512264154517
30
0
0
SPLINE
5
111
100
AcDbEntity
8
SK1
62
256
6
ByLayer
370
18
48
1
60
0
100
AcDbSpline
70
4
71
3
72
8
73
4
40
0
40
0
40
0
40
0
40
1
40
1
40
1
40
1
41
1
10
-35.9999999999999
20
-0.111089193121927
30
0
41
1
10
-35.9170211645632
20
-0.0832535380573063
30
0
41
1
10
-35.8336472596399
20
-0.0555369696292587
30
0
41
1
10
-35.7499999999999
20
-0.0279027990955001
30
0
0
SPLINE
5
112
100
AcDbEntity
8
1
62
256
6
ByLayer
370
18
48
1
60
0
100
AcDbSpline
70
4
71
3
72
34
73
30
40
0
40
0
40
0
40
0
40
6.6311486769E-06
40
7.6204406754E-05
40
0.0001412652933587
40
0.0002548696603935
40
0.0003577396031426
40
0.00046054498731
40
0.0014423621475288
40
0.0022120660369036
40
0.0036259169984666
40
0.0062762310575486
40
0.0114094104989748
40
0.0218529025349784
40
0.0445736564245383
40
0.0834253893034334
40
0.107029066374429
40
0.132146540195728
40
0.18976482172102
40
0.254564681296634
40
0.372775952508072
40
0.488815110311621
40
0.585730620404635
40
0.626298474299318
40
0.675798595452093
40
0.744801571760283
40
0.833305396656775
40
0.941308778435093
40
1
40
1
40
1
40
1
41
1
10
19.6194200842684
20
0.0833914928452089
30
0
41
1
10
19.6194219864832
20
0.083391268772516
30
0
41
1
10
19.6194422044882
20
0.0833891804346649
30
0
41
1
10
19.6194436436468
20
0.0833959849696555
30
0
41
1
10
19.6192625082709
20
0.0834600154757084
30
0
41
1
10
19.618978862131
20
0.0835539463349164
30
0
41
1
10
19.6185028632346
20
0.0837011674349242
30
0
41
1
10
19.616450841363
20
0.0843126152785203
30
0
41
1
10
19.6130453934194
20
0.0852967261424737
30
0
41
1
10
19.6074309196865
20
0.0869497687477008
30
0
41
1
10
19.5987842913843
20
0.089485468994809
30
0
41
1
10
19.5823745770353
20
0.0943086807990881
30
0
41
1
10
19.5498096114437
20
0.103889859810408
30
0
41
1
10
19.4813795921693
20
0.124089960925971
30
0
41
1
10
19.3526479696488
20
0.162351973920181
30
0
41
1
10
19.2005223789765
20
0.208143204967513
30
0
41
1
10
19.044885930055
20
0.2556663091882
30
0
41
1
10
18.8553821772759
20
0.314002586737473
30
0
41
1
10
18.5918075404509
20
0.396243535387811
30
0
41
1
10
18.1625287096014
20
0.533087873034731
30
0
41
1
10
17.6305749152206
20
0.708022057392952
30
0
41
1
10
17.0435872662788
20
0.908543093801654
30
0
41
1
10
16.5957368141581
20
1.06668808145804
30
0
41
1
10
16.2661227870253
20
1.18551001539728
30
0
41
1
10
15.9861245540833
20
1.28779790306265
30
0
41
1
10
15.6224571813023
20
1.42290441466037
30
0
41
1
10
15.157301963916
20
1.5997871119441
30
0
41
1
10
14.7114135744724
20
1.77311038895309
30
0
41
1
10
14.4215064698399
20
1.88984361555447
30
0
41
1
10
14.319567222712
20
1.93129815186
30
0
0
SPLINE
5
113
100
AcDbEntity
8
1
62
256
6
ByLayer
370
18
48
1
60
0
100
AcDbSpline
70
4
71
3
72
13
73
9
40
0
40
0
40
0
40
0
40
0.118999758956802
40
0.225492852753799
40
0.357682776325481
40
0.536660219473861
40
0.762414361252072
40
1
40
1
40
1
40
1
41
1
10
66.0375140880345
20
0.929855583412973
30
0
41
1
10
65.919954792861
20
0.970610393812649
30
0
41
1
10
65.6974684918277
20
1.04861567291394
30
0
41
1
10
65.3454177521679
20
1.1748547358043
30
0
41
1
10
64.9352834787452
20
1.32472715328993
30
0
41
1
10
64.4096836839064
20
1.52175444482827
30
0
41
1
10
63.783336836902
20
1.76381467638007
30
0
41
1
10
63.3338498450772
20
1.94421983090277
30
0
41
1
10
63.1039524170064
20
2.03820219804555
30
0
0
SPLINE
5
114
100
AcDbEntity
8
1
62
256
6
ByLayer
370
18
48
1
60
0
100
AcDbSpline
70
4
71
3
72
31
73
27
40
0
40
0
40
0
40
0
40
4.16904957853E-05
40
0.0001066079551207
40
0.0001651374904111
40
0.0002669869478899
40
0.0003617927876585
40
0.0008087158032266
40
0.0011486129821435
40
0.0017733126432001
40
0.0029454830431051
40
0.005219442958334
40
0.0098546098908091
40
0.0190791859718926
40
0.0374277704703154
40
0.0761735798246664
40
0.164286116616431
40
0.26354563261768
40
0.341518075128263
40
0.402656217152424
40
0.46529161189613
40
0.532428241313997
40
0.629193748915364
40
0.741117986277084
40
0.8787312970556
40
1
40
1
40
1
40
1
41
1
10
36.0915370073585
20
0.0490080439290352
30
0
41
1
10
36.0915516199882
20
0.0490042829261199
30
0
41
1
10
36.0915702894234
20
0.0490001186811639
30
0
41
1
10
36.0914882503982
20
0.0490259151751786
30
0
41
1
10
36.0913129602967
20
0.0490794165889383
30
0
41
1
10
36.0910076908973
20
0.0491709108819123
30
0
41
1
10
36.0899316429487
20
0.0494890139617041
30
0
41
1
10
36.0881884859961
20
0.0499980765717112
30
0
41
1
10
36.0856076115923
20
0.0507563566828537
30
0
41
1
10
36.0816241899127
20
0.0519244343471144
30
0
41
1
10
36.0740744898477
20
0.0541380954826138
30
0
41
1
10
36.0590282154594
20
0.0585459165906741
30
0
41
1
10
36.0289330474038
20
0.067356895780307
30
0
41
1
10
35.9688071102324
20
0.0849956510416234
30
0
41
1
10
35.8450259090381
20
0.121487202828973
30
0
41
1
10
35.5740466042961
20
0.202217412364575
30
0
41
1
10
35.152488392742
20
0.330869063509425
30
0
41
1
10
34.659125801693
20
0.486770049669275
30
0
41
1
10
34.2172258455768
20
0.630889346521542
30
0
41
1
10
33.8441445392355
20
0.755520038396014
30
0
41
1
10
33.4919049474779
20
0.875660014493633
30
0
41
1
10
33.0749460336477
20
1.02093377508265
30
0
41
1
10
32.5686599814316
20
1.20197507281677
30
0
41
1
10
31.9353955395357
20
1.43595925643962
30
0
41
1
10
31.2600506482937
20
1.69412271640837
30
0
41
1
10
30.7913627588316
20
1.88164861982412
30
0
41
1
10
30.5723673344261
20
1.970956282164
30
0
0
SPLINE
5
115
100
AcDbEntity
8
1
62
256
6
ByLayer
370
18
48
1
60
0
100
AcDbSpline
70
4
71
3
72
29
73
25
40
0
40
0
40
0
40
0
40
4.83286490912E-05
40
0.0001416156313509
40
0.0002227804733132
40
0.0002973696646868
40
0.0003705990207338
40
0.0008861685970363
40
0.0012786637255244
40
0.0019941542498077
40
0.0033183987611549
40
0.0058316971188022
40
0.0107936621109391
40
0.0211662211868028
40
0.0445115405755284
40
0.166002617247457
40
0.303151006650986
40
0.442372731335864
40
0.507373157535654
40
0.571111366525024
40
0.652548247551526
40
0.756727175941249
40
0.883645908012839
40
1
40
1
40
1
40
1
41
1
10
52.3985159382225
20
0.0602046766644264
30
0
41
1
10
52.3985284596816
20
0.0602025073293646
30
0
41
1
10
52.3985390706464
20
0.0602046845023096
30
0
41
1
10
52.3983535660211
20
0.0602610160424035
30
0
41
1
10
52.3980870546502
20
0.0603429998905085
30
0
41
1
10
52.397748965544
20
0.0604443470330978
30
0
41
1
10
52.3966029723767
20
0.0607827479471155
30
0
41
1
10
52.3946607435665
20
0.0613433564687682
30
0
41
1
10
52.3916606345824
20
0.0622200901095198
30
0
41
1
10
52.3870915244923
20
0.0635518502154468
30
0
41
1
10
52.3785826063447
20
0.0660358144868383
30
0
41
1
10
52.3620967685303
20
0.0708517503392727
30
0
41
1
10
52.3286541031135
20
0.0806413972986491
30
0
41
1
10
52.2560921699904
20
0.101961732470073
30
0
41
1
10
51.9647056832544
20
0.18824991848868
30
0
41
1
10
51.4359933656672
20
0.349591224463183
30
0
41
1
10
50.6921275009664
20
0.587482258164698
30
0
41
1
10
50.0560569678265
20
0.801017111558878
30
0
41
1
10
49.5586076053386
20
0.973787842721521
30
0
41
1
10
49.1692665543099
20
1.11185261365426
30
0
41
1
10
48.708560350828
20
1.27897480621826
30
0
41
1
10
48.1330491040731
20
1.49379027775348
30
0
41
1
10
47.4957287521533
20
1.73936799273466
30
0
41
1
10
47.0518580611358
20
1.91737312335809
30
0
41
1
10
46.8400589664827
20
2.00381257803218
30
0
0
SPLINE
5
116
100
AcDbEntity
8
1
62
256
6
ByLayer
370
18
48
1
60
0
100
AcDbSpline
70
4
71
3
72
8
73
4
40
0
40
0
40
0
40
0
40
1
40
1
40
1
40
1
41
1
10
63.3097802367955
20
-1.95469697112367
30
0
41
1
10
63.3210763754126
20
-1.95012835110813
30
0
41
1
10
63.3323739172555
20
-1.9455632924554
30
0
41
1
10
63.3436728642537
20
-1.94100179733874
30
0
0
SPLINE
5
117
100
AcDbEntity
8
1
62
256
6
ByLayer
370
18
48
1
60
0
100
AcDbSpline
70
4
71
3
72
18
73
14
40
0
40
0
40
0
40
0
40
0.0998432853114989
40
0.163206109742843
40
0.213035348603422
40
0.263092380492529
40
0.308069723467236
40
0.349155611454046
40
0.388137646494759
40
0.497947812711672
40
0.627086372189554
40
0.964133007084418
40
1
40
1
40
1
40
1
41
1
10
51.0977150152102
20
-2.77426571037552
30
0
41
1
10
51.2792614489928
20
-2.77457338667571
30
0
41
1
10
51.5760241128949
20
-2.77508212653151
30
0
41
1
10
51.9634040309822
20
-2.77590895990397
30
0
41
1
10
52.2602491442825
20
-2.77634328467809
30
0
41
1
10
52.5236742936771
20
-2.77665567962615
30
0
41
1
10
52.7711973184393
20
-2.77701598982139
30
0
41
1
10
52.9985816795365
20
-2.77754622298787
30
0
41
1
10
53.3438575830305
20
-2.77865176001777
30
0
41
1
10
53.8492521845271
20
-2.77970485068383
30
0
41
1
10
54.8966546108858
20
-2.77908922316684
30
0
41
1
10
55.8095913730847
20
-2.78381892322366
30
0
41
1
10
56.4877051127598
20
-2.78337518900341
30
0
41
1
10
56.5529263840641
20
-2.78333803676671
30
0
0
SPLINE
5
118
100
AcDbEntity
8
1
62
256
6
ByLayer
370
18
48
1
60
0
100
AcDbSpline
70
4
71
3
72
19
73
15
40
0
40
0
40
0
40
0
40
0.144311179909845
40
0.241085554131161
40
0.301392599847622
40
0.359962082609714
40
0.419176840153065
40
0.478809343146023
40
0.538799985334549
40
0.623112634045731
40
0.707551351872665
40
0.791430678412725
40
0.887344845277156
40
1
40
1
40
1
40
1
41
1
10
41.8071763071878
20
2.7603617379763
30
0
41
1
10
41.6529477718476
20
2.7600785170516
30
0
41
1
10
41.3952942974757
20
2.75938158096358
30
0
41
1
10
41.0731895518638
20
2.75784189538953
30
0
41
1
10
40.8427184442158
20
2.75675581377914
30
0
41
1
10
40.6523863648678
20
2.75635109485609
30
0
41
1
10
40.4627749421519
20
2.7563237938522
30
0
41
1
10
40.2716447327672
20
2.75644440302605
30
0
41
1
10
40.0536916960307
20
2.75657826547808
30
0
41
1
10
39.8092272913211
20
2.75662619758845
30
0
41
1
10
39.5392321161674
20
2.75639103918033
30
0
41
1
10
39.2568389435322
20
2.75571860295827
30
0
41
1
10
38.944293895568
20
2.75446212026409
30
0
41
1
10
38.7213943358264
20
2.75296605684753
30
0
41
1
10
38.6009996779809
20
2.75199913920429
30
0
0
SPLINE
5
119
100
AcDbEntity
8
1
62
256
6
ByLayer
370
18
48
1
60
0
100
AcDbSpline
70
4
71
3
72
18
73
14
40
0
40
0
40
0
40
0
40
0.0899362366264351
40
0.147934690515709
40
0.184953529815656
40
0.222023209885003
40
0.259621871381251
40
0.410349441017455
40
0.684740398368602
40
0.798456854774564
40
0.894983988509123
40
0.987620838959207
40
1
40
1
40
1
40
1
41
1
10
58.1637672199117
20
2.78693210707883
30
0
41
1
10
58.0009806723484
20
2.78728955444998
30
0
41
1
10
57.733216967848
20
2.78723984585591
30
0
41
1
10
57.3984554982253
20
2.78471847432417
30
0
41
1
10
57.159377642807
20
2.78365927194275
30
0
41
1
10
56.9572217131542
20
2.78332011970247
30
0
41
1
10
56.5492504796512
20
2.78318389714093
30
0
41
1
10
55.7117213016573
20
2.78426420202501
30
0
41
1
10
54.7364267676727
20
2.77898678620244
30
0
41
1
10
53.8592270375013
20
2.77966988523798
30
0
41
1
10
53.3110076079715
20
2.77862065191593
30
0
41
1
10
52.946212703108
20
2.77738284926193
30
0
41
1
10
52.7561318986601
20
2.77701806696436
30
0
41
1
10
52.733725394305
20
2.77697812138828
30
0
0
SPLINE
5
11A
100
AcDbEntity
8
1
62
256
6
ByLayer
370
18
48
1
60
0
100
AcDbSpline
70
4
71
3
72
13
73
9
40
0
40
0
40
0
40
0
40
0.224029120762204
40
0.414766655357258
40
0.581571377441325
40
0.74948852033271
40
0.917154958733657
40
1
40
1
40
1
40
1
41
1
10
38.600999677981
20
-2.75199913920429
30
0
41
1
10
38.7213943358264
20
-2.75296605684753
30
0
41
1
10
38.944293895568
20
-2.75446212026409
30
0
41
1
10
39.2568389435323
20
-2.75571860295827
30
0
41
1
10
39.5392321161674
20
-2.75639103918033
30
0
41
1
10
39.8092272913212
20
-2.75662619758845
30
0
41
1
10
40.034100481255
20
-2.75658210672549
30
0
41
1
10
40.168731063047
20
-2.75650657000867
30
0
41
1
10
40.2132538827382
20
-2.75647976612745
30
0
0
LINE
5
82
100
AcDbEntity
8
81
62
256
6
ByLayer
370
18
48
1
60
0
100
AcDbLine
10
68
20
0
30
0
11
71
21
0
31
0
39
0
210
0
220
0
230
1
0
LINE
5
83
100
AcDbEntity
8
80
62
256
6
ByLayer
370
18
48
1
60
0
100
AcDbLine
10
0
20
0
30
0
11
-3
21
0
31
0
39
0
210
0
220
0
230
1
0
LINE
5
84
100
AcDbEntity
8
SK4
62
256
6
ByLayer
370
18
48
0.05
60
0
100
AcDbLine
10
-39
20
0
30
0
11
71
21
0
31
0
39
0
210
0
220
0
230
1
0
LINE
5
86
100
AcDbEntity
8
4
62
256
6
ByLayer
370
18
48
0.05
60
0
100
AcDbLine
10
0
20
0
30
0
11
68
21
0
31
0
39
0
210
0
220
0
230
1
0
LINE
5
88
100
AcDbEntity
8
1
62
256
6
ByLayer
370
18
48
1
60
0
100
AcDbLine
10
0
20
3
30
0
11
0
21
-3
31
0
39
0
210
0
220
0
230
1
0
LINE
5
89
100
AcDbEntity
8
1
62
256
6
ByLayer
370
18
48
1
60
0
100
AcDbLine
10
38.500304
20
1.946915
30
0
11
38.500304
21
1.951598
31
0
39
0
210
0
220
0
230
1
0
LINE
5
8A
100
AcDbEntity
8
1
62
256
6
ByLayer
370
13
48
1
60
0
100
AcDbLine
10
67.928487
20
0.332869
30
0
11
67.292858
21
0.907887
31
0
39
0
210
0
220
0
230
1
0
LINE
5
8B
100
AcDbEntity
8
1
62
256
6
ByLayer
370
13
48
1
60
0
100
AcDbLine
10
0.16359
20
-2.915058
30
0
11
0.16359
21
2.915058
31
0
39
0
210
0
220
0
230
1
0
LINE
5
8C
100
AcDbEntity
8
1
62
256
6
ByLayer
370
18
48
1
60
0
100
AcDbLine
10
38.500304
20
2.898828
30
0
11
38.500304
21
2.215341
31
0
39
0
210
0
220
0
230
1
0
LINE
5
8D
100
AcDbEntity
8
1
62
256
6
ByLayer
370
18
48
1
60
0
100
AcDbLine
10
38.500304
20
-2.42822
30
0
11
38.500304
21
-2.898828
31
0
39
0
210
0
220
0
230
1
0
LINE
5
8E
100
AcDbEntity
8
1
62
256
6
ByLayer
370
18
48
1
60
0
100
AcDbLine
10
38.500304
20
1.951598
30
0
11
38.500304
21
1.91756
31
0
39
0
210
0
220
0
230
1
0
LINE
5
8F
100
AcDbEntity
8
1
62
256
6
ByLayer
370
13
48
1
60
0
100
AcDbLine
10
0.327539
20
-2.830117
30
0
11
0.327539
21
2.830117
31
0
39
0
210
0
220
0
230
1
0
LINE
5
90
100
AcDbEntity
8
SK1
62
256
6
ByLayer
370
18
48
1
60
0
100
AcDbLine
10
-36
20
1.313764
30
0
11
-36
21
0.111089
31
0
39
0
210
0
220
0
230
1
0
LINE
5
92
100
AcDbEntity
8
SK1
62
256
6
ByLayer
370
13
48
1
60
0
100
AcDbLine
10
-35.75
20
0.027903
30
0
11
-35.75
21
1.39695
31
0
39
0
210
0
220
0
230
1
0
LINE
5
93
100
AcDbEntity
8
SK1
62
256
6
ByLayer
370
18
48
1
60
0
100
AcDbLine
10
-36
20
1.313764
30
0
11
-36
21
2.065
31
0
39
0
210
0
220
0
230
1
0
LINE
5
94
100
AcDbEntity
8
SK1
62
256
6
ByLayer
370
18
48
1
60
0
100
AcDbLine
10
-35.65
20
0.109512
30
0
11
-35.65
21
1.344385
31
0
39
0
210
0
220
0
230
1
0
LINE
5
95
100
AcDbEntity
8
SK1
62
256
6
ByLayer
370
18
48
1
60
0
100
AcDbLine
10
-36
20
-2.065
30
0
11
-36
21
-0.111089
31
0
39
0
210
0
220
0
230
1
0
LINE
5
96
100
AcDbEntity
8
SK1
62
256
6
ByLayer
370
18
48
1
60
0
100
AcDbLine
10
0
20
3
30
0
11
0
21
-3
31
0
39
0
210
0
220
0
230
1
0
LINE
5
97
100
AcDbEntity
8
SK1
62
256
6
ByLayer
370
18
48
1
60
0
100
AcDbLine
10
-35.065
20
-3
30
0
11
-35.065
21
3
31
0
39
0
210
0
220
0
230
1
0
LINE
5
98
100
AcDbEntity
8
1
62
256
6
ByLayer
370
18
48
1
60
0
100
AcDbLine
10
0.327539
20
-2.830117
30
0
11
10.020232
21
-2.847564
31
0
39
0
210
0
220
0
230
1
0
LINE
5
99
100
AcDbEntity
8
1
62
256
6
ByLayer
370
18
48
1
60
0
100
AcDbLine
10
17.760523
20
-2.861496
30
0
11
26.321069
21
-2.876905
31
0
39
0
210
0
220
0
230
1
0
LINE
5
9A
100
AcDbEntity
8
1
62
256
6
ByLayer
370
18
48
1
60
0
100
AcDbLine
10
34.092243
20
-2.890893
30
0
11
38.500304
21
-2.898828
31
0
39
0
210
0
220
0
230
1
0
LINE
5
9B
100
AcDbEntity
8
1
62
256
6
ByLayer
370
18
48
1
60
0
100
AcDbLine
10
41.809491
20
-2.904784
30
0
11
42.621398
21
-2.906246
31
0
39
0
210
0
220
0
230
1
0
LINE
5
9C
100
AcDbEntity
8
1
62
256
6
ByLayer
370
18
48
1
60
0
100
AcDbLine
10
50.529442
20
-2.92048
30
0
11
51.096891
21
-2.921502
31
0
39
0
210
0
220
0
230
1
0
LINE
5
9D
100
AcDbEntity
8
1
62
256
6
ByLayer
370
18
48
1
60
0
100
AcDbLine
10
58.16467
20
-2.934224
30
0
11
58.921543
21
-2.935586
31
0
39
0
210
0
220
0
230
1
0
LINE
5
9E
100
AcDbEntity
8
1
62
256
6
ByLayer
370
18
48
1
60
0
100
AcDbLine
10
58.921543
20
2.935586
30
0
11
58.16467
21
2.934224
31
0
39
0
210
0
220
0
230
1
0
LINE
5
9F
100
AcDbEntity
8
1
62
256
6
ByLayer
370
18
48
1
60
0
100
AcDbLine
10
51.096891
20
2.921502
30
0
11
50.529442
21
2.92048
31
0
39
0
210
0
220
0
230
1
0
LINE
5
A0
100
AcDbEntity
8
1
62
256
6
ByLayer
370
18
48
1
60
0
100
AcDbLine
10
42.621398
20
2.906246
30
0
11
41.809491
21
2.904784
31
0
39
0
210
0
220
0
230
1
0
LINE
5
A1
100
AcDbEntity
8
1
62
256
6
ByLayer
370
18
48
1
60
0
100
AcDbLine
10
38.500304
20
2.898828
30
0
11
34.092243
21
2.890893
31
0
39
0
210
0
220
0
230
1
0
LINE
5
A2
100
AcDbEntity
8
1
62
256
6
ByLayer
370
18
48
1
60
0
100
AcDbLine
10
26.321069
20
2.876905
30
0
11
17.760523
21
2.861496
31
0
39
0
210
0
220
0
230
1
0
LINE
5
A3
100
AcDbEntity
8
1
62
256
6
ByLayer
370
18
48
1
60
0
100
AcDbLine
10
10.020232
20
2.847564
30
0
11
0.327539
21
2.830117
31
0
39
0
210
0
220
0
230
1
0
LINE
5
A4
100
AcDbEntity
8
SK1
62
256
6
ByLayer
370
18
48
1
60
0
100
AcDbLine
10
-36
20
-2.065
30
0
11
-35.065
21
-3
31
0
39
0
210
0
220
0
230
1
0
LINE
5
A5
100
AcDbEntity
8
SK1
62
256
6
ByLayer
370
18
48
1
60
0
100
AcDbLine
10
-35.065
20
3
30
0
11
-36
21
2.065
31
0
39
0
210
0
220
0
230
1
0
LINE
5
A6
100
AcDbEntity
8
SK1
62
256
6
ByLayer
370
18
48
1
60
0
100
AcDbLine
10
-35.065
20
-3
30
0
11
0
21
-3
31
0
39
0
210
0
220
0
230
1
0
LINE
5
A7
100
AcDbEntity
8
SK1
62
256
6
ByLayer
370
18
48
1
60
0
100
AcDbLine
10
0
20
3
30
0
11
-35.065
21
3
31
0
39
0
210
0
220
0
230
1
0
LINE
5
A8
100
AcDbEntity
8
2
62
256
6
ByLayer
370
13
48
1
60
0
100
AcDbLine
10
75.5
20
27.249084
30
0
11
75.5
21
-10.45
31
0
39
0
210
0
220
0
230
1
0
LINE
5
AA
100
AcDbEntity
8
2
62
256
6
ByLayer
370
13
48
1
60
0
100
AcDbLine
10
69.5875
20
2.95
30
0
11
77.5
21
2.95
31
0
39
0
210
0
220
0
230
1
0
LINE
5
AB
100
AcDbEntity
8
2
62
256
6
ByLayer
370
13
48
1
60
0
100
AcDbLine
10
69.5875
20
-2.95
30
0
11
77.5
21
-2.95
31
0
39
0
210
0
220
0
230
1
0
LINE
5
AC
100
AcDbEntity
8
1
62
256
6
ByLayer
370
18
48
1
60
1
100
AcDbLine
10
75.5
20
2.95
30
0
11
75.039216
21
6.449998
31
0
39
0
210
0
220
0
230
1
0
LINE
5
AD
100
AcDbEntity
8
1
62
256
6
ByLayer
370
18
48
1
60
1
100
AcDbLine
10
75.039216
20
6.449998
30
0
11
75.960784
21
6.450002
31
0
39
0
210
0
220
0
230
1
0
LINE
5
AE
100
AcDbEntity
8
1
62
256
6
ByLayer
370
18
48
1
60
1
100
AcDbLine
10
75.960784
20
6.450002
30
0
11
75.5
21
2.95
31
0
39
0
210
0
220
0
230
1
0
LINE
5
AF
100
AcDbEntity
8
1
62
256
6
ByLayer
370
18
48
1
60
1
100
AcDbLine
10
75.5
20
-2.95
30
0
11
75.960784
21
-6.449998
31
0
39
0
210
0
220
0
230
1
0
LINE
5
B0
100
AcDbEntity
8
1
62
256
6
ByLayer
370
18
48
1
60
1
100
AcDbLine
10
75.960784
20
-6.449998
30
0
11
75.039216
21
-6.450002
31
0
39
0
210
0
220
0
230
1
0
LINE
5
B1
100
AcDbEntity
8
1
62
256
6
ByLayer
370
18
48
1
60
1
100
AcDbLine
10
75.039216
20
-6.450002
30
0
11
75.5
21
-2.95
31
0
39
0
210
0
220
0
230
1
0
LINE
5
B2
100
AcDbEntity
8
SK2
62
256
6
ByLayer
370
13
48
1
60
0
100
AcDbLine
10
-44.5
20
13.841828
30
0
11
-44.5
21
-10.5
31
0
39
0
210
0
220
0
230
1
0
LINE
5
B4
100
AcDbEntity
8
SK2
62
256
6
ByLayer
370
13
48
1
60
0
100
AcDbLine
10
-37.5875
20
3
30
0
11
-46.5
21
3
31
0
39
0
210
0
220
0
230
1
0
LINE
5
B5
100
AcDbEntity
8
SK2
62
256
6
ByLayer
370
13
48
1
60
0
100
AcDbLine
10
-37.5875
20
-3
30
0
11
-46.5
21
-3
31
0
39
0
210
0
220
0
230
1
0
LINE
5
B6
100
AcDbEntity
8
1
62
256
6
ByLayer
370
18
48
1
60
1
100
AcDbLine
10
-44.5
20
3
30
0
11
-44.960784
21
6.499998
31
0
39
0
210
0
220
0
230
1
0
LINE
5
B7
100
AcDbEntity
8
1
62
256
6
ByLayer
370
18
48
1
60
1
100
AcDbLine
10
-44.960784
20
6.499998
30
0
11
-44.039216
21
6.500002
31
0
39
0
210
0
220
0
230
1
0
LINE
5
B8
100
AcDbEntity
8
1
62
256
6
ByLayer
370
18
48
1
60
1
100
AcDbLine
10
-44.039216
20
6.500002
30
0
11
-44.5
21
3
31
0
39
0
210
0
220
0
230
1
0
LINE
5
B9
100
AcDbEntity
8
1
62
256
6
ByLayer
370
18
48
1
60
1
100
AcDbLine
10
-44.5
20
-3
30
0
11
-44.039216
21
-6.499998
31
0
39
0
210
0
220
0
230
1
0
LINE
5
BA
100
AcDbEntity
8
1
62
256
6
ByLayer
370
18
48
1
60
1
100
AcDbLine
10
-44.039216
20
-6.499998
30
0
11
-44.960784
21
-6.500002
31
0
39
0
210
0
220
0
230
1
0
LINE
5
BB
100
AcDbEntity
8
1
62
256
6
ByLayer
370
18
48
1
60
1
100
AcDbLine
10
-44.960784
20
-6.500002
30
0
11
-44.5
21
-3
31
0
39
0
210
0
220
0
230
1
0
LINE
5
BC
100
AcDbEntity
8
SK2
62
256
6
ByLayer
370
13
48
1
60
0
100
AcDbLine
10
68.543085
20
1.491715
30
0
11
75.127886
21
19.578459
31
0
39
0
210
0
220
0
230
1
0
LINE
5
BD
100
AcDbEntity
8
SK2
62
256
6
ByLayer
370
13
48
1
60
0
100
AcDbLine
10
68.543085
20
-1.491715
30
0
11
75.127886
21
-19.578459
31
0
39
0
210
0
220
0
230
1
0
LINE
5
BE
100
AcDbEntity
8
1
62
256
6
ByLayer
370
18
48
1
60
1
100
AcDbLine
10
74.443684
20
17.699132
30
0
11
77.851047
21
16.775992
31
0
39
0
210
0
220
0
230
1
0
LINE
5
BF
100
AcDbEntity
8
1
62
256
6
ByLayer
370
18
48
1
60
1
100
AcDbLine
10
77.851047
20
16.775992
30
0
11
77.496021
21
15.925556
31
0
39
0
210
0
220
0
230
1
0
LINE
5
C0
100
AcDbEntity
8
1
62
256
6
ByLayer
370
18
48
1
60
1
100
AcDbLine
10
77.496021
20
15.925556
30
0
11
74.443684
21
17.699132
31
0
39
0
210
0
220
0
230
1
0
LINE
5
C1
100
AcDbEntity
8
1
62
256
6
ByLayer
370
18
48
1
60
1
100
AcDbLine
10
74.443684
20
-17.699132
30
0
11
77.496018
21
-15.925557
31
0
39
0
210
0
220
0
230
1
0
LINE
5
C2
100
AcDbEntity
8
1
62
256
6
ByLayer
370
18
48
1
60
1
100
AcDbLine
10
77.496018
20
-15.925557
30
0
11
77.85105
21
-16.775991
31
0
39
0
210
0
220
0
230
1
0
LINE
5
C3
100
AcDbEntity
8
1
62
256
6
ByLayer
370
18
48
1
60
1
100
AcDbLine
10
77.85105
20
-16.775991
30
0
11
74.443684
21
-17.699132
31
0
39
0
210
0
220
0
230
1
0
LINE
5
11B
100
AcDbEntity
8
1
62
256
6
ByLayer
370
13
48
0.05
60
0
100
AcDbLine
10
-42.5
20
0
30
0
11
73.402098
21
0
31
0
39
0
210
0
220
0
230
1
0
LINE
5
120
100
AcDbEntity
8
1
62
256
6
ByLayer
370
18
48
1
60
1
100
AcDbLine
10
75.5
20
2.95
30
0
11
75.039216
21
6.449998
31
0
39
0
210
0
220
0
230
1
0
LINE
5
121
100
AcDbEntity
8
1
62
256
6
ByLayer
370
18
48
1
60
1
100
AcDbLine
10
75.039216
20
6.449998
30
0
11
75.960784
21
6.450002
31
0
39
0
210
0
220
0
230
1
0
LINE
5
122
100
AcDbEntity
8
1
62
256
6
ByLayer
370
18
48
1
60
1
100
AcDbLine
10
75.960784
20
6.450002
30
0
11
75.5
21
2.95
31
0
39
0
210
0
220
0
230
1
0
LINE
5
124
100
AcDbEntity
8
1
62
256
6
ByLayer
370
18
48
1
60
1
100
AcDbLine
10
75.5
20
-2.95
30
0
11
75.960784
21
-6.449998
31
0
39
0
210
0
220
0
230
1
0
LINE
5
125
100
AcDbEntity
8
1
62
256
6
ByLayer
370
18
48
1
60
1
100
AcDbLine
10
75.960784
20
-6.449998
30
0
11
75.039216
21
-6.450002
31
0
39
0
210
0
220
0
230
1
0
LINE
5
126
100
AcDbEntity
8
1
62
256
6
ByLayer
370
18
48
1
60
1
100
AcDbLine
10
75.039216
20
-6.450002
30
0
11
75.5
21
-2.95
31
0
39
0
210
0
220
0
230
1
0
LINE
5
12A
100
AcDbEntity
8
1
62
256
6
ByLayer
370
18
48
1
60
1
100
AcDbLine
10
-44.5
20
3
30
0
11
-44.960784
21
6.499998
31
0
39
0
210
0
220
0
230
1
0
LINE
5
12B
100
AcDbEntity
8
1
62
256
6
ByLayer
370
18
48
1
60
1
100
AcDbLine
10
-44.960784
20
6.499998
30
0
11
-44.039216
21
6.500002
31
0
39
0
210
0
220
0
230
1
0
LINE
5
12C
100
AcDbEntity
8
1
62
256
6
ByLayer
370
18
48
1
60
1
100
AcDbLine
10
-44.039216
20
6.500002
30
0
11
-44.5
21
3
31
0
39
0
210
0
220
0
230
1
0
LINE
5
12E
100
AcDbEntity
8
1
62
256
6
ByLayer
370
18
48
1
60
1
100
AcDbLine
10
-44.5
20
-3
30
0
11
-44.039216
21
-6.499998
31
0
39
0
210
0
220
0
230
1
0
LINE
5
12F
100
AcDbEntity
8
1
62
256
6
ByLayer
370
18
48
1
60
1
100
AcDbLine
10
-44.039216
20
-6.499998
30
0
11
-44.960784
21
-6.500002
31
0
39
0
210
0
220
0
230
1
0
LINE
5
130
100
AcDbEntity
8
1
62
256
6
ByLayer
370
18
48
1
60
1
100
AcDbLine
10
-44.960784
20
-6.500002
30
0
11
-44.5
21
-3
31
0
39
0
210
0
220
0
230
1
0
LINE
5
133
100
AcDbEntity
8
1
62
256
6
ByLayer
370
18
48
1
60
1
100
AcDbLine
10
74.443684
20
17.699132
30
0
11
77.851047
21
16.775992
31
0
39
0
210
0
220
0
230
1
0
LINE
5
134
100
AcDbEntity
8
1
62
256
6
ByLayer
370
18
48
1
60
1
100
AcDbLine
10
77.851047
20
16.775992
30
0
11
77.496021
21
15.925556
31
0
39
0
210
0
220
0
230
1
0
LINE
5
135
100
AcDbEntity
8
1
62
256
6
ByLayer
370
18
48
1
60
1
100
AcDbLine
10
77.496021
20
15.925556
30
0
11
74.443684
21
17.699132
31
0
39
0
210
0
220
0
230
1
0
LINE
5
137
100
AcDbEntity
8
1
62
256
6
ByLayer
370
18
48
1
60
1
100
AcDbLine
10
74.443684
20
-17.699132
30
0
11
77.496018
21
-15.925557
31
0
39
0
210
0
220
0
230
1
0
LINE
5
138
100
AcDbEntity
8
1
62
256
6
ByLayer
370
18
48
1
60
1
100
AcDbLine
10
77.496018
20
-15.925557
30
0
11
77.85105
21
-16.775991
31
0
39
0
210
0
220
0
230
1
0
LINE
5
139
100
AcDbEntity
8
1
62
256
6
ByLayer
370
18
48
1
60
1
100
AcDbLine
10
77.85105
20
-16.775991
30
0
11
74.443684
21
-17.699132
31
0
39
0
210
0
220
0
230
1
0
MTEXT
5
11C
100
AcDbEntity
8
2
62
256
6
ByLayer
370
18
48
1
60
0
100
AcDbMText
10
74.158886
20
16.608438
30
0
210
0
220
0
230
1
1
%%c
40
3
41
0
44
1.084337
50
90
71
7
72
5
7
iso_b_vert
0
MTEXT
5
11F
100
AcDbEntity
8
2
62
256
6
ByLayer
370
18
48
1
60
0
100
AcDbMText
10
74.158886
20
22.585
30
0
210
0
220
0
230
1
1
\W0.7276;5.9
40
3
41
0
44
1.084337
50
90
71
7
72
5
7
iso_b_vert
0
MTEXT
5
128
100
AcDbEntity
8
SK2
62
256
6
ByLayer
370
18
48
1
60
0
100
AcDbMText
10
-45.841114
20
6.658437
30
0
210
0
220
0
230
1
1
%%c
40
3
41
0
44
1.084337
50
90
71
7
72
5
7
iso_b_vert
0
MTEXT
5
129
100
AcDbEntity
8
SK2
62
256
6
ByLayer
370
18
48
1
60
0
100
AcDbMText
10
-45.841114
20
12.635
30
0
210
0
220
0
230
1
1
\W0.5404;6
40
3
41
0
44
1.084337
50
90
71
7
72
5
7
iso_b_vert
0
MTEXT
5
132
100
AcDbEntity
8
SK2
62
256
6
ByLayer
370
18
48
1
60
0
100
AcDbMText
10
83.394957
20
-2.114886
30
0
210
0
220
0
230
1
1
\W0.7071;140%%d
40
3
41
0
44
1.084337
50
0
71
7
72
5
7
iso_b_vert
0
MTEXT
5
13B
100
AcDbEntity
8
SK6
62
256
6
ByLayer
370
18
48
1
60
0
100
AcDbMText
10
-9.030903
20
-77.114886
30
0
210
0
220
0
230
1
1
\W0.7562;860.1-0590-048A1-SD S2BM
40
3
41
0
44
1.084337
50
0
71
7
72
5
7
iso_b_vert
0
HATCH
5
123
100
AcDbEntity
8
2
62
256
6
ByLayer
370
13
48
1
60
0
100
AcDbHatch
10
0
20
0
30
0
210
0
220
0
230
1
2
ANSI31
70
0
71
0
91
1
92
5
93
3
72
1
10
75.5
20
2.95000000000002
11
75.0392162584472
21
6.44999830744683
72
1
10
75.0392162584472
20
6.44999830744683
11
75.9607837415528
21
6.4500016925532
72
1
10
75.9607837415528
20
6.4500016925532
11
75.5
21
2.95000000000002
97
0
75
0
76
1
52
0
41
0.0062
77
0
78
1
53
45
43
0
44
0
45
-0.0139193969876572
46
0.0139193969876572
79
0
47
0
98
1
10
0
20
0
0
HATCH
5
127
100
AcDbEntity
8
2
62
256
6
ByLayer
370
13
48
1
60
0
100
AcDbHatch
10
0
20
0
30
0
210
0
220
0
230
1
2
ANSI31
70
0
71
0
91
1
92
5
93
3
72
1
10
75.5
20
-2.94999999999999
11
75.9607837415528
21
-6.4499983074468
72
1
10
75.9607837415528
20
-6.4499983074468
11
75.0392162584472
21
-6.45000169255317
72
1
10
75.0392162584472
20
-6.45000169255317
11
75.5
21
-2.94999999999999
97
0
75
0
76
1
52
0
41
0.0062
77
0
78
1
53
45
43
0
44
0
45
-0.0139193969876572
46
0.0139193969876572
79
0
47
0
98
1
10
0
20
0
0
HATCH
5
12D
100
AcDbEntity
8
SK2
62
256
6
ByLayer
370
13
48
1
60
0
100
AcDbHatch
10
0
20
0
30
0
210
0
220
0
230
1
2
ANSI31
70
0
71
0
91
1
92
5
93
3
72
1
10
-44.5
20
3
11
-44.9607837415528
21
6.49999830744682
72
1
10
-44.9607837415528
20
6.49999830744682
11
-44.0392162584472
21
6.50000169255318
72
1
10
-44.0392162584472
20
6.50000169255318
11
-44.5
21
3
97
0
75
0
76
1
52
0
41
0.0062
77
0
78
1
53
45
43
0
44
0
45
-0.0139193969876572
46
0.0139193969876572
79
0
47
0
98
1
10
0
20
0
0
HATCH
5
131
100
AcDbEntity
8
SK2
62
256
6
ByLayer
370
13
48
1
60
0
100
AcDbHatch
10
0
20
0
30
0
210
0
220
0
230
1
2
ANSI31
70
0
71
0
91
1
92
5
93
3
72
1
10
-44.5
20
-3
11
-44.0392162584472
21
-6.49999830744682
72
1
10
-44.0392162584472
20
-6.49999830744682
11
-44.9607837415528
21
-6.50000169255318
72
1
10
-44.9607837415528
20
-6.50000169255318
11
-44.5
21
-3
97
0
75
0
76
1
52
0
41
0.0062
77
0
78
1
53
45
43
0
44
0
45
-0.0139193969876572
46
0.0139193969876572
79
0
47
0
98
1
10
0
20
0
0
HATCH
5
136
100
AcDbEntity
8
SK2
62
256
6
ByLayer
370
13
48
1
60
0
100
AcDbHatch
10
0
20
0
30
0
210
0
220
0
230
1
2
ANSI31
70
0
71
0
91
1
92
5
93
3
72
1
10
74.4436841259921
20
17.6991323758643
11
77.8510471064895
21
16.7759924472807
72
1
10
77.8510471064895
20
16.7759924472807
11
77.4960207354279
21
15.9255555585112
72
1
10
77.4960207354279
20
15.9255555585112
11
74.4436841259921
21
17.6991323758643
97
0
75
0
76
1
52
0
41
0.0062
77
0
78
1
53
45
43
0
44
0
45
-0.0139193969876572
46
0.0139193969876572
79
0
47
0
98
1
10
0
20
0
0
HATCH
5
13A
100
AcDbEntity
8
SK2
62
256
6
ByLayer
370
13
48
1
60
0
100
AcDbHatch
10
0
20
0
30
0
210
0
220
0
230
1
2
ANSI31
70
0
71
0
91
1
92
5
93
3
72
1
10
74.4436841259923
20
-17.6991323758642
11
77.4960176116037
21
-15.9255568626073
72
1
10
77.4960176116037
20
-15.9255568626073
11
77.8510502303141
21
-16.7759911431844
72
1
10
77.8510502303141
20
-16.7759911431844
11
74.4436841259923
21
-17.6991323758642
97
0
75
0
76
1
52
0
41
0.0062
77
0
78
1
53
45
43
0
44
0
45
-0.0139193969876572
46
0.0139193969876572
79
0
47
0
98
1
10
0
20
0
0
DIMENSION
5
13E
100
AcDbEntity
8
SK2
62
256
6
ByLayer
370
18
48
1
60
0
100
AcDbDimension
2
_U0
10
19.8
20
-18.631824
30
0
11
43.9
21
-18.631824
31
0
70
32
71
1
72
1
41
1
210
0
220
0
230
1
3
Standard
100
AcDbAlignedDimension
13
68
23
-2.95
33
0
14
19.8
24
-2.95
34
0
50
0
100
AcDbRotatedDimension
1001
ACAD
1000
DSTYLE
1002
{
1070
   371
1070
    13
1070
   372
1070
    13
1070
   170
1070
     0
1070
   144
1040
1.0
1070
   277
1070
     2
1070
   284
1070
     8
1070
   278
1070
    46
1070
   146
1040
1.166667
1070
   345
1005
16
1070
   347
1005
16
1070
   346
1005
16
1070
   344
1005
0
1070
   343
1005
0
1070
   172
1070
     1
1070
    76
1070
     0
1070
    75
1070
     0
1070
   282
1070
     0
1070
   281
1070
     0
1070
     3
1000

1070
    71
1070
     0
1070
    74
1070
     0
1070
   279
1070
     0
1070
   173
1070
     1
1070
   340
1005
11D
1070
   271
1070
     2
1070
   272
1070
     2
1070
    77
1070
     1
1070
    73
1070
     1
1070
   171
1070
     3
1070
   274
1070
     4
1070
   177
1070
     2
1070
   176
1070
     2
1070
   178
1070
     2
1070
    78
1070
     8
1070
    48
1040
-0.1
1070
    41
1040
3.5
1070
   147
1040
1.5
1070
    42
1040
1.5875
1070
    44
1040
2.0
1070
   140
1040
3.0
1002
}
1001
ACAD_DSTYLE_DIM_LINETYPE
1070
   380
1005
16
1001
ACAD_DSTYLE_DIM_EXT1_LINETYPE
1070
   381
1005
16
1001
ACAD_DSTYLE_DIM_EXT2_LINETYPE
1070
   382
1005
16
0
DIMENSION
5
159
100
AcDbEntity
8
SK2
62
256
6
ByLayer
370
18
48
1
60
0
100
AcDbDimension
2
_U1
10
6
20
-28.631824
30
0
11
37
21
-28.631824
31
0
70
32
71
1
72
1
41
1
210
0
220
0
230
1
3
Standard
100
AcDbAlignedDimension
13
68
23
-2.95
33
0
14
6
24
-2.95
34
0
50
0
100
AcDbRotatedDimension
1001
ACAD
1000
DSTYLE
1002
{
1070
   371
1070
    13
1070
   372
1070
    13
1070
     3
1000

1070
   170
1070
     0
1070
   144
1040
1.0
1070
   277
1070
     2
1070
   284
1070
     8
1070
   278
1070
    46
1070
   146
1040
1.166667
1070
   345
1005
16
1070
   347
1005
16
1070
   346
1005
16
1070
   344
1005
0
1070
   343
1005
0
1070
   172
1070
     1
1070
    76
1070
     0
1070
    75
1070
     0
1070
   282
1070
     0
1070
   281
1070
     0
1070
    71
1070
     0
1070
    74
1070
     0
1070
   279
1070
     0
1070
   173
1070
     1
1070
   340
1005
11D
1070
   271
1070
     2
1070
   272
1070
     2
1070
    77
1070
     1
1070
    73
1070
     1
1070
   171
1070
     3
1070
   274
1070
     4
1070
   177
1070
     2
1070
   176
1070
     2
1070
   178
1070
     2
1070
    78
1070
     8
1070
    48
1040
-0.1
1070
    41
1040
3.5
1070
   147
1040
1.5
1070
    42
1040
1.5875
1070
    44
1040
2.0
1070
   140
1040
3.0
1002
}
1001
ACAD_DSTYLE_DIM_LINETYPE
1070
   380
1005
16
1001
ACAD_DSTYLE_DIM_EXT1_LINETYPE
1070
   381
1005
16
1001
ACAD_DSTYLE_DIM_EXT2_LINETYPE
1070
   382
1005
16
0
DIMENSION
5
171
100
AcDbEntity
8
SK2
62
256
6
ByLayer
370
18
48
1
60
0
100
AcDbDimension
2
_U2
10
0
20
-36.631824
30
0
11
-18
21
-36.631824
31
0
70
32
71
1
72
1
41
1
210
0
220
0
230
1
3
Standard
100
AcDbAlignedDimension
13
-36
23
-3
33
0
14
0
24
-3
34
0
50
0
100
AcDbRotatedDimension
1001
ACAD
1000
DSTYLE
1002
{
1070
   371
1070
    13
1070
   372
1070
    13
1070
     3
1000

1070
   170
1070
     0
1070
   144
1040
1.0
1070
   277
1070
     2
1070
   284
1070
     8
1070
   278
1070
    46
1070
   146
1040
1.166667
1070
   345
1005
16
1070
   347
1005
16
1070
   346
1005
16
1070
   344
1005
0
1070
   343
1005
0
1070
   172
1070
     1
1070
    76
1070
     0
1070
    75
1070
     0
1070
   282
1070
     0
1070
   281
1070
     0
1070
    71
1070
     0
1070
    74
1070
     0
1070
   279
1070
     0
1070
   173
1070
     1
1070
   340
1005
11D
1070
   271
1070
     2
1070
   272
1070
     2
1070
    77
1070
     1
1070
    73
1070
     1
1070
   171
1070
     3
1070
   274
1070
     4
1070
   177
1070
     2
1070
   176
1070
     2
1070
   178
1070
     2
1070
    78
1070
     8
1070
    48
1040
-0.1
1070
    41
1040
3.5
1070
   147
1040
1.5
1070
    42
1040
1.5875
1070
    44
1040
2.0
1070
   140
1040
3.0
1002
}
1001
ACAD_DSTYLE_DIM_LINETYPE
1070
   380
1005
16
1001
ACAD_DSTYLE_DIM_EXT1_LINETYPE
1070
   381
1005
16
1001
ACAD_DSTYLE_DIM_EXT2_LINETYPE
1070
   382
1005
16
0
DIMENSION
5
189
100
AcDbEntity
8
SK2
62
256
6
ByLayer
370
18
48
1
60
0
100
AcDbDimension
2
_U3
10
68
20
-44.631824
30
0
11
16
21
-44.631824
31
0
70
32
71
1
72
1
41
1
210
0
220
0
230
1
3
Standard
100
AcDbAlignedDimension
13
-36
23
-3
33
0
14
68
24
-2.95
34
0
50
0
100
AcDbRotatedDimension
1001
ACAD
1000
DSTYLE
1002
{
1070
   371
1070
    13
1070
   372
1070
    13
1070
     3
1000

1070
   170
1070
     0
1070
   144
1040
1.0
1070
   277
1070
     2
1070
   284
1070
     8
1070
   278
1070
    46
1070
   146
1040
1.166667
1070
   345
1005
16
1070
   347
1005
16
1070
   346
1005
16
1070
   344
1005
0
1070
   343
1005
0
1070
   172
1070
     1
1070
    76
1070
     0
1070
    75
1070
     0
1070
   282
1070
     0
1070
   281
1070
     0
1070
    71
1070
     0
1070
    74
1070
     0
1070
   279
1070
     0
1070
   173
1070
     1
1070
   340
1005
11D
1070
   271
1070
     2
1070
   272
1070
     2
1070
    77
1070
     1
1070
    73
1070
     1
1070
   171
1070
     3
1070
   274
1070
     4
1070
   177
1070
     2
1070
   176
1070
     2
1070
   178
1070
     2
1070
    78
1070
     8
1070
    48
1040
-0.1
1070
    41
1040
3.5
1070
   147
1040
1.5
1070
    42
1040
1.5875
1070
    44
1040
2.0
1070
   140
1040
3.0
1002
}
1001
ACAD_DSTYLE_DIM_LINETYPE
1070
   380
1005
16
1001
ACAD_DSTYLE_DIM_EXT1_LINETYPE
1070
   381
1005
16
1001
ACAD_DSTYLE_DIM_EXT2_LINETYPE
1070
   382
1005
16
0
DIMENSION
5
1A1
100
AcDbEntity
8
2
62
256
6
ByLayer
370
18
48
1
60
0
100
AcDbDimension
2
_U4
10
0
20
-36.631824
30
0
11
34
21
-36.631824
31
0
70
32
71
1
72
1
41
1
210
0
220
0
230
1
3
Standard
100
AcDbAlignedDimension
13
68
23
-2.95
33
0
14
0
24
-2.95
34
0
50
0
100
AcDbRotatedDimension
1001
ACAD
1000
DSTYLE
1002
{
1070
   371
1070
    13
1070
   372
1070
    13
1070
     3
1000

1070
   170
1070
     0
1070
   144
1040
1.0
1070
   277
1070
     2
1070
   284
1070
     8
1070
   278
1070
    46
1070
   146
1040
1.166667
1070
   345
1005
16
1070
   347
1005
16
1070
   346
1005
16
1070
   344
1005
0
1070
   343
1005
0
1070
   172
1070
     1
1070
    76
1070
     0
1070
    75
1070
     0
1070
   282
1070
     0
1070
   281
1070
     0
1070
    71
1070
     0
1070
    74
1070
     0
1070
   279
1070
     0
1070
   173
1070
     1
1070
   340
1005
11D
1070
   271
1070
     2
1070
   272
1070
     2
1070
    77
1070
     1
1070
    73
1070
     1
1070
   171
1070
     3
1070
   274
1070
     4
1070
   177
1070
     2
1070
   176
1070
     2
1070
   178
1070
     2
1070
    78
1070
     8
1070
    48
1040
-0.1
1070
    41
1040
3.5
1070
   147
1040
1.5
1070
    42
1040
1.5875
1070
    44
1040
2.0
1070
   140
1040
3.0
1002
}
1001
ACAD_DSTYLE_DIM_LINETYPE
1070
   380
1005
16
1001
ACAD_DSTYLE_DIM_EXT1_LINETYPE
1070
   381
1005
16
1001
ACAD_DSTYLE_DIM_EXT2_LINETYPE
1070
   382
1005
16
0
ENDSEC
0
SECTION
2
OBJECTS
0
DICTIONARY
5
229
330
0
100
AcDbDictionary
280
0
281
1
3
ACAD_GROUP
350
22a
3
ACAD_MLINESTYLE
350
22b
0
DICTIONARY
5
22a
330
0
100
AcDbDictionary
280
0
281
1
0
DICTIONARY
5
22b
330
0
100
AcDbDictionary
280
0
281
1
3
Standard
350
18
0
MLINESTYLE
5
18
330
22b
100
AcDbMlineStyle
2
Standard
70
0
3

62
256
51
90
52
90
71
2
49
-0.5
62
256
6
ByLayer
49
0.5
62
256
6
ByLayer
0
RASTERVARIABLES
5
217
330

100
AcDbRasterVariables
90
0
70
1
71
1
72
1
0
ENDSEC
0
EOF
