0
SECTION
2
HEADER
9
$ACADVER
1
AC1015
9
$DWGCODEPAGE
3
ANSI_1252
9
$HANDSEED
5
22e
9
$ANGBASE
50
0
9
$ANGDIR
70
0
9
$ATTMODE
70
1
9
$AUNITS
70
0
9
$AUPREC
70
0
9
$CECOLOR
62
256
9
$CELTSCALE
40
1
9
$CELTYPE
6
ByLayer
9
$CELWEIGHT
370
18
9
$CLAYER
8
0
9
$CMLJUST
70
0
9
$CMLSCALE
40
1
9
$CMLSTYLE
2
Standard
9
$DIMSTYLE
2
Standard
9
$TEXTSIZE
40
0.2
9
$TEXTSTYLE
7
Standard
9
$LUNITS
70
2
9
$LUPREC
70
4
9
$EXTNAMES
290
1
9
$INSUNITS
70
4
9
$LTSCALE
40
1
9
$LWDISPLAY
290
1
9
$PDMODE
70
0
9
$PDSIZE
40
0
9
$PLINEGEN
70
0
0
ENDSEC
0
SECTION
2
CLASSES
0
CLASS
1
RASTERVARIABLES
2
AcDbRasterVariables
3
ISM
90
0
280
0
281
0
0
ENDSEC
0
SECTION
2
TABLES
0
TABLE
2
VPORT
5
224
100
AcDbSymbolTable
0
VPORT
5
1
100
AcDbSymbolTableRecord
100
AcDbViewportTableRecord
2
*Active
70
0
10
0
20
0
11
1
21
1
12
-1
22
1
13
0
23
0
14
0.5
24
0.5
15
10
25
10
16
0
26
0
36
1
17
0
27
0
37
0
0
ENDTAB
0
TABLE
2
LTYPE
5
225
100
AcDbSymbolTable
0
LTYPE
5
14
100
AcDbSymbolTableRecord
100
AcDbLinetypeTableRecord
70
0
2
ByBlock
3

72
65
73
0
40
0
0
LTYPE
5
15
100
AcDbSymbolTableRecord
100
AcDbLinetypeTableRecord
70
0
2
ByLayer
3

72
65
73
0
40
0
0
LTYPE
5
16
100
AcDbSymbolTableRecord
100
AcDbLinetypeTableRecord
70
0
2
Continuous
3
Solid line
72
65
73
0
40
0
0
LTYPE
5
6E
100
AcDbSymbolTableRecord
100
AcDbLinetypeTableRecord
70
0
2
CENTER
3
____ _ ____ _ ____ _ ____
72
65
73
4
40
47.5
49
22
74
0
49
-8.5
74
0
49
8.5
74
0
49
-8.5
74
0
0
LTYPE
5
6F
100
AcDbSymbolTableRecord
100
AcDbLinetypeTableRecord
70
0
2
DASHED
3
__ __ __ __ __ __ __ __ __
72
65
73
2
40
25.72
49
12.86
74
0
49
-12.86
74
0
0
ENDTAB
0
TABLE
2
LAYER
5
226
100
AcDbSymbolTable
0
LAYER
5
10
100
AcDbSymbolTableRecord
100
AcDbLayerTableRecord
2
0
70
0
62
7
6
Continuous
290
1
370
-3
390
0
0
LAYER
5
71
100
AcDbSymbolTableRecord
100
AcDbLayerTableRecord
2
80
70
0
62
-6
6
Continuous
290
1
370
-3
390
0
0
LAYER
5
73
100
AcDbSymbolTableRecord
100
AcDbLayerTableRecord
2
81
70
0
62
-3
6
Continuous
290
1
370
-3
390
0
0
LAYER
5
75
100
AcDbSymbolTableRecord
100
AcDbLayerTableRecord
2
1
70
0
62
4
6
Continuous
290
1
370
-3
390
0
0
LAYER
5
83
100
AcDbSymbolTableRecord
100
AcDbLayerTableRecord
2
4
70
0
62
-2
6
CENTER
290
1
370
-3
390
0
0
LAYER
5
A1
100
AcDbSymbolTableRecord
100
AcDbLayerTableRecord
2
2
70
0
62
7
6
Continuous
290
1
370
-3
390
0
0
LAYER
5
139
100
AcDbSymbolTableRecord
100
AcDbLayerTableRecord
2
Defpoints
70
0
62
7
6
Continuous
290
0
370
-3
390
0
0
LAYER
5
210
100
AcDbSymbolTableRecord
100
AcDbLayerTableRecord
2
SK4
70
0
62
2
6
CENTER
290
1
370
-3
390
0
0
LAYER
5
211
100
AcDbSymbolTableRecord
100
AcDbLayerTableRecord
2
SK1
70
0
62
4
6
Continuous
290
1
370
-3
390
0
0
LAYER
5
212
100
AcDbSymbolTableRecord
100
AcDbLayerTableRecord
2
SK2
70
0
62
7
6
Continuous
290
1
370
-3
390
0
0
LAYER
5
213
100
AcDbSymbolTableRecord
100
AcDbLayerTableRecord
2
SK6
70
0
62
5
6
Continuous
290
1
370
-3
390
0
0
ENDTAB
0
TABLE
2
STYLE
5
227
100
AcDbSymbolTable
0
STYLE
5
11
100
AcDbSymbolTableRecord
100
AcDbTextStyleTableRecord
2
Standard
3
txt
70
0
71
0
40
0
41
1
42
0
50
0
0
STYLE
5
115
100
AcDbSymbolTableRecord
100
AcDbTextStyleTableRecord
2
iso_b_vert
3
simplex.shx
70
0
71
0
40
0
41
1
42
0
50
0
0
STYLE
5
116
100
AcDbSymbolTableRecord
100
AcDbTextStyleTableRecord
2
DWGDirectTextStyle
3
simplex
70
0
71
0
40
0
41
1
42
0
50
0
0
ENDTAB
0
TABLE
2
DIMSTYLE
5
228
100
AcDbSymbolTable
100
AcDbDimStyleTable
0
DIMSTYLE
105
27
100
AcDbSymbolTableRecord
100
AcDbDimStyleTableRecord
2
Standard
70
0
3
<>
41
0.18
42
0.0625
44
0.18
140
0.18
147
0.09
73
0
74
0
77
1
271
2
275
0
278
52
280
0
340
11
0
ENDTAB
0
TABLE
2
VIEW
5
229
100
AcDbSymbolTable
0
ENDTAB
0
TABLE
2
UCS
5
22a
100
AcDbSymbolTable
0
ENDTAB
0
TABLE
2
APPID
5
22b
100
AcDbSymbolTable
0
APPID
5
12
100
AcDbSymbolTableRecord
100
AcDbRegAppTableRecord
2
ACAD
70
0
0
APPID
5
135
100
AcDbSymbolTableRecord
100
AcDbRegAppTableRecord
2
ACAD_DSTYLE_DIMBREAK
70
0
0
APPID
5
1CF
100
AcDbSymbolTableRecord
100
AcDbRegAppTableRecord
2
ACAD_DSTYLE_DIM_LINETYPE
70
0
0
APPID
5
1D0
100
AcDbSymbolTableRecord
100
AcDbRegAppTableRecord
2
ACAD_DSTYLE_DIM_EXT1_LINETYPE
70
0
0
APPID
5
1D1
100
AcDbSymbolTableRecord
100
AcDbRegAppTableRecord
2
ACAD_DSTYLE_DIM_EXT2_LINETYPE
70
0
0
APPID
5
20C
100
AcDbSymbolTableRecord
100
AcDbRegAppTableRecord
2
ACAD_MLEADERVER
70
0
0
ENDTAB
0
TABLE
2
BLOCK_RECORD
5
22c
100
AcDbSymbolTable
0
BLOCK_RECORD
5
1F
100
AcDbSymbolTableRecord
100
AcDbBlockTableRecord
2
*Model_Space
340
0
70
0
0
BLOCK_RECORD
5
1B
100
AcDbSymbolTableRecord
100
AcDbBlockTableRecord
2
*Paper_Space
340
0
70
0
0
BLOCK_RECORD
5
23
100
AcDbSymbolTableRecord
100
AcDbBlockTableRecord
2
*Paper_Space0
340
0
70
0
0
BLOCK_RECORD
5
13A
100
AcDbSymbolTableRecord
100
AcDbBlockTableRecord
2
*D1
340
0
70
0
0
BLOCK_RECORD
5
146
100
AcDbSymbolTableRecord
100
AcDbBlockTableRecord
2
_U0
340
0
70
0
0
BLOCK_RECORD
5
154
100
AcDbSymbolTableRecord
100
AcDbBlockTableRecord
2
*D3
340
0
70
0
0
BLOCK_RECORD
5
160
100
AcDbSymbolTableRecord
100
AcDbBlockTableRecord
2
_U1
340
0
70
0
0
BLOCK_RECORD
5
16C
100
AcDbSymbolTableRecord
100
AcDbBlockTableRecord
2
*D5
340
0
70
0
0
BLOCK_RECORD
5
178
100
AcDbSymbolTableRecord
100
AcDbBlockTableRecord
2
_U2
340
0
70
0
0
BLOCK_RECORD
5
184
100
AcDbSymbolTableRecord
100
AcDbBlockTableRecord
2
*D7
340
0
70
0
0
BLOCK_RECORD
5
190
100
AcDbSymbolTableRecord
100
AcDbBlockTableRecord
2
_U3
340
0
70
0
0
BLOCK_RECORD
5
19C
100
AcDbSymbolTableRecord
100
AcDbBlockTableRecord
2
*D9
340
0
70
0
0
BLOCK_RECORD
5
1A8
100
AcDbSymbolTableRecord
100
AcDbBlockTableRecord
2
_U4
340
0
70
0
0
ENDTAB
0
ENDSEC
0
SECTION
2
BLOCKS
0
BLOCK
5
20
100
AcDbEntity
8
0
100
AcDbBlockBegin
2
*Model_Space
70
0
10
0
20
0
30
0
3
*Model_Space
0
ENDBLK
5
21
100
AcDbEntity
8
0
100
AcDbBlockEnd
0
BLOCK
5
1C
100
AcDbEntity
8
0
100
AcDbBlockBegin
2
*Paper_Space
70
0
10
0
20
0
30
0
3
*Paper_Space
0
ENDBLK
5
1D
100
AcDbEntity
8
0
100
AcDbBlockEnd
0
BLOCK
5
24
100
AcDbEntity
8
0
100
AcDbBlockBegin
2
*Paper_Space0
70
0
10
0
20
0
30
0
3
*Paper_Space0
0
ENDBLK
5
25
100
AcDbEntity
8
0
100
AcDbBlockEnd
0
BLOCK
5
13B
100
AcDbEntity
8
0
100
AcDbBlockBegin
2
*D1
70
1
10
0
20
0
30
0
3
*D1
0
LINE
5
13D
100
AcDbEntity
8
0
62
256
6
ByLayer
370
-2
48
1
60
0
100
AcDbLine
10
30
20
-4.5375
30
0
11
30
21
-20.481499
31
0
39
0
210
0
220
0
230
1
0
LINE
5
13E
100
AcDbEntity
8
0
62
256
6
ByLayer
370
-2
48
1
60
0
100
AcDbLine
10
11.3
20
-4.5375
30
0
11
11.3
21
-20.481499
31
0
39
0
210
0
220
0
230
1
0
LINE
5
13F
100
AcDbEntity
8
0
62
256
6
ByLayer
370
-2
48
1
60
0
100
AcDbLine
10
26.5
20
-18.481499
30
0
11
14.8
21
-18.481499
31
0
39
0
210
0
220
0
230
1
0
SOLID
5
140
100
AcDbEntity
8
0
62
256
6
ByLayer
370
-1
48
1
60
0
100
AcDbTrace
10
26.5
20
-19.064832
30
0
11
26.5
21
-17.898166
31
0
12
30
22
-18.481499
32
0
13
30
23
-18.481499
33
0
39
0
210
0
220
0
230
1
0
SOLID
5
141
100
AcDbEntity
8
0
62
256
6
ByLayer
370
-1
48
1
60
0
100
AcDbTrace
10
14.8
20
-17.898166
30
0
11
14.8
21
-19.064832
31
0
12
11.3
22
-18.481499
32
0
13
11.3
23
-18.481499
33
0
39
0
210
0
220
0
230
1
0
MTEXT
5
142
100
AcDbEntity
8
0
62
256
6
ByLayer
370
18
48
1
60
0
100
AcDbMText
10
20.65
20
-12.481499
30
0
210
0
220
0
230
1
1
\A1;18.7
40
3
41
0
44
1
50
0
71
5
72
5
7
iso_b_vert
0
POINT
5
143
100
AcDbEntity
8
Defpoints
62
0
6
ByLayer
370
-1
48
1
60
0
100
AcDbPoint
10
30
20
-2.95
30
0
39
0
210
0
220
0
230
1
50
360
0
POINT
5
144
100
AcDbEntity
8
Defpoints
62
0
6
ByLayer
370
-1
48
1
60
0
100
AcDbPoint
10
11.3
20
-2.95
30
0
39
0
210
0
220
0
230
1
50
360
0
POINT
5
145
100
AcDbEntity
8
Defpoints
62
0
6
ByLayer
370
-1
48
1
60
0
100
AcDbPoint
10
11.3
20
-18.481499
30
0
39
0
210
0
220
0
230
1
50
360
0
ENDBLK
5
13C
100
AcDbEntity
8
0
100
AcDbBlockEnd
0
BLOCK
5
14F
100
AcDbEntity
8
0
100
AcDbBlockBegin
2
_U0
70
0
10
0
20
0
30
0
3
_U0
0
MTEXT
5
147
100
AcDbEntity
8
SK2
62
256
6
ByLayer
370
18
48
1
60
0
100
AcDbMText
10
17.663486
20
-16.283885
30
0
210
0
220
0
230
1
1
\W0.6563;18.7
40
3
41
0
44
1.084337
50
0
71
7
72
5
7
iso_b_vert
0
MTEXT
5
148
100
AcDbEntity
8
SK2
62
256
6
ByLayer
370
18
48
1
60
0
100
AcDbMText
10
15.563486
20
-16.283885
30
0
210
0
220
0
230
1
1
\W1.1313;{\H1.88x;(}
40
3
41
0
44
1.084337
50
0
71
7
72
5
7
iso_b_vert
0
MTEXT
5
149
100
AcDbEntity
8
SK2
62
256
6
ByLayer
370
18
48
1
60
0
100
AcDbMText
10
23.954514
20
-16.283885
30
0
210
0
220
0
230
1
1
\W1.1313;{\H1.88x;)}
40
3
41
0
44
1.084337
50
0
71
7
72
5
7
iso_b_vert
0
LINE
5
14A
100
AcDbEntity
8
SK2
62
256
6
ByLayer
370
13
48
1
60
0
100
AcDbLine
10
30
20
-4.5375
30
0
11
30
21
-20.481499
31
0
39
0
210
0
220
0
230
1
0
LINE
5
14B
100
AcDbEntity
8
SK2
62
256
6
ByLayer
370
13
48
1
60
0
100
AcDbLine
10
11.3
20
-4.5375
30
0
11
11.3
21
-20.481499
31
0
39
0
210
0
220
0
230
1
0
LINE
5
14C
100
AcDbEntity
8
SK2
62
256
6
ByLayer
370
13
48
1
60
0
100
AcDbLine
10
30
20
-18.481499
30
0
11
11.3
21
-18.481499
31
0
39
0
210
0
220
0
230
1
0
SOLID
5
14D
100
AcDbEntity
8
SK2
62
256
6
ByLayer
370
18
48
1
60
0
100
AcDbTrace
10
30
20
-18.481499
30
0
11
26.500002
21
-18.942283
31
0
12
26.499998
22
-18.020715
32
0
13
26.499998
23
-18.020715
33
0
39
0
210
0
220
0
230
1
0
SOLID
5
14E
100
AcDbEntity
8
SK2
62
256
6
ByLayer
370
18
48
1
60
0
100
AcDbTrace
10
11.3
20
-18.481499
30
0
11
14.799998
21
-18.020715
31
0
12
14.800002
22
-18.942283
32
0
13
14.800002
23
-18.942283
33
0
39
0
210
0
220
0
230
1
0
ENDBLK
5
150
100
AcDbEntity
8
0
100
AcDbBlockEnd
0
BLOCK
5
155
100
AcDbEntity
8
0
100
AcDbBlockBegin
2
*D3
70
1
10
0
20
0
30
0
3
*D3
0
LINE
5
157
100
AcDbEntity
8
0
62
256
6
ByLayer
370
-2
48
1
60
0
100
AcDbLine
10
30
20
-4.5375
30
0
11
30
21
-30.481499
31
0
39
0
210
0
220
0
230
1
0
LINE
5
158
100
AcDbEntity
8
0
62
256
6
ByLayer
370
-2
48
1
60
0
100
AcDbLine
10
2
20
-4.5375
30
0
11
2
21
-30.481499
31
0
39
0
210
0
220
0
230
1
0
LINE
5
159
100
AcDbEntity
8
0
62
256
6
ByLayer
370
-2
48
1
60
0
100
AcDbLine
10
26.5
20
-28.481499
30
0
11
5.5
21
-28.481499
31
0
39
0
210
0
220
0
230
1
0
SOLID
5
15A
100
AcDbEntity
8
0
62
256
6
ByLayer
370
-1
48
1
60
0
100
AcDbTrace
10
26.5
20
-29.064832
30
0
11
26.5
21
-27.898166
31
0
12
30
22
-28.481499
32
0
13
30
23
-28.481499
33
0
39
0
210
0
220
0
230
1
0
SOLID
5
15B
100
AcDbEntity
8
0
62
256
6
ByLayer
370
-1
48
1
60
0
100
AcDbTrace
10
5.5
20
-27.898166
30
0
11
5.5
21
-29.064832
31
0
12
2
22
-28.481499
32
0
13
2
23
-28.481499
33
0
39
0
210
0
220
0
230
1
0
MTEXT
5
15C
100
AcDbEntity
8
0
62
256
6
ByLayer
370
18
48
1
60
0
100
AcDbMText
10
16
20
-22.481499
30
0
210
0
220
0
230
1
1
\A1;28
40
3
41
0
44
1
50
0
71
5
72
5
7
iso_b_vert
0
POINT
5
15D
100
AcDbEntity
8
Defpoints
62
0
6
ByLayer
370
-1
48
1
60
0
100
AcDbPoint
10
30
20
-2.95
30
0
39
0
210
0
220
0
230
1
50
360
0
POINT
5
15E
100
AcDbEntity
8
Defpoints
62
0
6
ByLayer
370
-1
48
1
60
0
100
AcDbPoint
10
2
20
-2.95
30
0
39
0
210
0
220
0
230
1
50
360
0
POINT
5
15F
100
AcDbEntity
8
Defpoints
62
0
6
ByLayer
370
-1
48
1
60
0
100
AcDbPoint
10
2
20
-28.481499
30
0
39
0
210
0
220
0
230
1
50
360
0
ENDBLK
5
156
100
AcDbEntity
8
0
100
AcDbBlockEnd
0
BLOCK
5
167
100
AcDbEntity
8
0
100
AcDbBlockBegin
2
_U1
70
0
10
0
20
0
30
0
3
_U1
0
MTEXT
5
161
100
AcDbEntity
8
SK2
62
256
6
ByLayer
370
18
48
1
60
0
100
AcDbMText
10
14.367172
20
-27.596385
30
0
210
0
220
0
230
1
1
\W0.6740;28
40
3
41
0
44
1.084337
50
0
71
7
72
5
7
iso_b_vert
0
LINE
5
162
100
AcDbEntity
8
SK2
62
256
6
ByLayer
370
13
48
1
60
0
100
AcDbLine
10
30
20
-4.5375
30
0
11
30
21
-30.481499
31
0
39
0
210
0
220
0
230
1
0
LINE
5
163
100
AcDbEntity
8
SK2
62
256
6
ByLayer
370
13
48
1
60
0
100
AcDbLine
10
2
20
-4.5375
30
0
11
2
21
-30.481499
31
0
39
0
210
0
220
0
230
1
0
LINE
5
164
100
AcDbEntity
8
SK2
62
256
6
ByLayer
370
13
48
1
60
0
100
AcDbLine
10
30
20
-28.481499
30
0
11
2
21
-28.481499
31
0
39
0
210
0
220
0
230
1
0
SOLID
5
165
100
AcDbEntity
8
SK2
62
256
6
ByLayer
370
18
48
1
60
0
100
AcDbTrace
10
30
20
-28.481499
30
0
11
26.500002
21
-28.942283
31
0
12
26.499998
22
-28.020715
32
0
13
26.499998
23
-28.020715
33
0
39
0
210
0
220
0
230
1
0
SOLID
5
166
100
AcDbEntity
8
SK2
62
256
6
ByLayer
370
18
48
1
60
0
100
AcDbTrace
10
2
20
-28.481499
30
0
11
5.499998
21
-28.020715
31
0
12
5.500002
22
-28.942283
32
0
13
5.500002
23
-28.942283
33
0
39
0
210
0
220
0
230
1
0
ENDBLK
5
168
100
AcDbEntity
8
0
100
AcDbBlockEnd
0
BLOCK
5
16D
100
AcDbEntity
8
0
100
AcDbBlockBegin
2
*D5
70
1
10
0
20
0
30
0
3
*D5
0
LINE
5
16F
100
AcDbEntity
8
0
62
256
6
ByLayer
370
-2
48
1
60
0
100
AcDbLine
10
-36
20
-4.5875
30
0
11
-36
21
-38.481499
31
0
39
0
210
0
220
0
230
1
0
LINE
5
170
100
AcDbEntity
8
0
62
256
6
ByLayer
370
-2
48
1
60
0
100
AcDbLine
10
0
20
-4.5875
30
0
11
0
21
-38.481499
31
0
39
0
210
0
220
0
230
1
0
LINE
5
171
100
AcDbEntity
8
0
62
256
6
ByLayer
370
-2
48
1
60
0
100
AcDbLine
10
-32.5
20
-36.481499
30
0
11
-3.5
21
-36.481499
31
0
39
0
210
0
220
0
230
1
0
SOLID
5
172
100
AcDbEntity
8
0
62
256
6
ByLayer
370
-1
48
1
60
0
100
AcDbTrace
10
-32.5
20
-35.898166
30
0
11
-32.5
21
-37.064832
31
0
12
-36
22
-36.481499
32
0
13
-36
23
-36.481499
33
0
39
0
210
0
220
0
230
1
0
SOLID
5
173
100
AcDbEntity
8
0
62
256
6
ByLayer
370
-1
48
1
60
0
100
AcDbTrace
10
-3.5
20
-37.064832
30
0
11
-3.5
21
-35.898166
31
0
12
0
22
-36.481499
32
0
13
0
23
-36.481499
33
0
39
0
210
0
220
0
230
1
0
MTEXT
5
174
100
AcDbEntity
8
0
62
256
6
ByLayer
370
18
48
1
60
0
100
AcDbMText
10
-18
20
-30.481499
30
0
210
0
220
0
230
1
1
\A1;36
40
3
41
0
44
1
50
0
71
5
72
5
7
iso_b_vert
0
POINT
5
175
100
AcDbEntity
8
Defpoints
62
0
6
ByLayer
370
-1
48
1
60
0
100
AcDbPoint
10
-36
20
-3
30
0
39
0
210
0
220
0
230
1
50
360
0
POINT
5
176
100
AcDbEntity
8
Defpoints
62
0
6
ByLayer
370
-1
48
1
60
0
100
AcDbPoint
10
0
20
-3
30
0
39
0
210
0
220
0
230
1
50
360
0
POINT
5
177
100
AcDbEntity
8
Defpoints
62
0
6
ByLayer
370
-1
48
1
60
0
100
AcDbPoint
10
0
20
-36.481499
30
0
39
0
210
0
220
0
230
1
50
360
0
ENDBLK
5
16E
100
AcDbEntity
8
0
100
AcDbBlockEnd
0
BLOCK
5
17F
100
AcDbEntity
8
0
100
AcDbBlockBegin
2
_U2
70
0
10
0
20
0
30
0
3
_U2
0
MTEXT
5
179
100
AcDbEntity
8
SK2
62
256
6
ByLayer
370
18
48
1
60
0
100
AcDbMText
10
-19.632828
20
-35.596385
30
0
210
0
220
0
230
1
1
\W0.6740;36
40
3
41
0
44
1.084337
50
0
71
7
72
5
7
iso_b_vert
0
LINE
5
17A
100
AcDbEntity
8
SK2
62
256
6
ByLayer
370
13
48
1
60
0
100
AcDbLine
10
-36
20
-4.5875
30
0
11
-36
21
-38.481499
31
0
39
0
210
0
220
0
230
1
0
LINE
5
17B
100
AcDbEntity
8
SK2
62
256
6
ByLayer
370
13
48
1
60
0
100
AcDbLine
10
0
20
-4.5875
30
0
11
0
21
-38.481499
31
0
39
0
210
0
220
0
230
1
0
LINE
5
17C
100
AcDbEntity
8
SK2
62
256
6
ByLayer
370
13
48
1
60
0
100
AcDbLine
10
-36
20
-36.481499
30
0
11
0
21
-36.481499
31
0
39
0
210
0
220
0
230
1
0
SOLID
5
17D
100
AcDbEntity
8
SK2
62
256
6
ByLayer
370
18
48
1
60
0
100
AcDbTrace
10
-36
20
-36.481499
30
0
11
-32.500002
21
-36.020715
31
0
12
-32.499998
22
-36.942283
32
0
13
-32.499998
23
-36.942283
33
0
39
0
210
0
220
0
230
1
0
SOLID
5
17E
100
AcDbEntity
8
SK2
62
256
6
ByLayer
370
18
48
1
60
0
100
AcDbTrace
10
0
20
-36.481499
30
0
11
-3.499998
21
-36.942283
31
0
12
-3.500002
22
-36.020715
32
0
13
-3.500002
23
-36.020715
33
0
39
0
210
0
220
0
230
1
0
ENDBLK
5
180
100
AcDbEntity
8
0
100
AcDbBlockEnd
0
BLOCK
5
185
100
AcDbEntity
8
0
100
AcDbBlockBegin
2
*D7
70
1
10
0
20
0
30
0
3
*D7
0
LINE
5
187
100
AcDbEntity
8
0
62
256
6
ByLayer
370
-2
48
1
60
0
100
AcDbLine
10
-36
20
-4.5875
30
0
11
-36
21
-46.481499
31
0
39
0
210
0
220
0
230
1
0
LINE
5
188
100
AcDbEntity
8
0
62
256
6
ByLayer
370
-2
48
1
60
0
100
AcDbLine
10
30
20
-4.5375
30
0
11
30
21
-46.481499
31
0
39
0
210
0
220
0
230
1
0
LINE
5
189
100
AcDbEntity
8
0
62
256
6
ByLayer
370
-2
48
1
60
0
100
AcDbLine
10
-32.5
20
-44.481499
30
0
11
26.5
21
-44.481499
31
0
39
0
210
0
220
0
230
1
0
SOLID
5
18A
100
AcDbEntity
8
0
62
256
6
ByLayer
370
-1
48
1
60
0
100
AcDbTrace
10
-32.5
20
-43.898166
30
0
11
-32.5
21
-45.064832
31
0
12
-36
22
-44.481499
32
0
13
-36
23
-44.481499
33
0
39
0
210
0
220
0
230
1
0
SOLID
5
18B
100
AcDbEntity
8
0
62
256
6
ByLayer
370
-1
48
1
60
0
100
AcDbTrace
10
26.5
20
-45.064832
30
0
11
26.5
21
-43.898166
31
0
12
30
22
-44.481499
32
0
13
30
23
-44.481499
33
0
39
0
210
0
220
0
230
1
0
MTEXT
5
18C
100
AcDbEntity
8
0
62
256
6
ByLayer
370
18
48
1
60
0
100
AcDbMText
10
-3
20
-38.481499
30
0
210
0
220
0
230
1
1
\A1;66
40
3
41
0
44
1
50
0
71
5
72
5
7
iso_b_vert
0
POINT
5
18D
100
AcDbEntity
8
Defpoints
62
0
6
ByLayer
370
-1
48
1
60
0
100
AcDbPoint
10
-36
20
-3
30
0
39
0
210
0
220
0
230
1
50
360
0
POINT
5
18E
100
AcDbEntity
8
Defpoints
62
0
6
ByLayer
370
-1
48
1
60
0
100
AcDbPoint
10
30
20
-2.95
30
0
39
0
210
0
220
0
230
1
50
360
0
POINT
5
18F
100
AcDbEntity
8
Defpoints
62
0
6
ByLayer
370
-1
48
1
60
0
100
AcDbPoint
10
30
20
-44.481499
30
0
39
0
210
0
220
0
230
1
50
360
0
ENDBLK
5
186
100
AcDbEntity
8
0
100
AcDbBlockEnd
0
BLOCK
5
197
100
AcDbEntity
8
0
100
AcDbBlockBegin
2
_U3
70
0
10
0
20
0
30
0
3
_U3
0
MTEXT
5
191
100
AcDbEntity
8
SK2
62
256
6
ByLayer
370
18
48
1
60
0
100
AcDbMText
10
-4.632828
20
-43.596385
30
0
210
0
220
0
230
1
1
\W0.6740;66
40
3
41
0
44
1.084337
50
0
71
7
72
5
7
iso_b_vert
0
LINE
5
192
100
AcDbEntity
8
SK2
62
256
6
ByLayer
370
13
48
1
60
0
100
AcDbLine
10
-36
20
-4.5875
30
0
11
-36
21
-46.481499
31
0
39
0
210
0
220
0
230
1
0
LINE
5
193
100
AcDbEntity
8
SK2
62
256
6
ByLayer
370
13
48
1
60
0
100
AcDbLine
10
30
20
-4.5375
30
0
11
30
21
-46.481499
31
0
39
0
210
0
220
0
230
1
0
LINE
5
194
100
AcDbEntity
8
SK2
62
256
6
ByLayer
370
13
48
1
60
0
100
AcDbLine
10
-36
20
-44.481499
30
0
11
30
21
-44.481499
31
0
39
0
210
0
220
0
230
1
0
SOLID
5
195
100
AcDbEntity
8
SK2
62
256
6
ByLayer
370
18
48
1
60
0
100
AcDbTrace
10
-36
20
-44.481499
30
0
11
-32.500002
21
-44.020715
31
0
12
-32.499998
22
-44.942283
32
0
13
-32.499998
23
-44.942283
33
0
39
0
210
0
220
0
230
1
0
SOLID
5
196
100
AcDbEntity
8
SK2
62
256
6
ByLayer
370
18
48
1
60
0
100
AcDbTrace
10
30
20
-44.481499
30
0
11
26.500002
21
-44.942283
31
0
12
26.499998
22
-44.020715
32
0
13
26.499998
23
-44.020715
33
0
39
0
210
0
220
0
230
1
0
ENDBLK
5
198
100
AcDbEntity
8
0
100
AcDbBlockEnd
0
BLOCK
5
19D
100
AcDbEntity
8
0
100
AcDbBlockBegin
2
*D9
70
1
10
0
20
0
30
0
3
*D9
0
LINE
5
19F
100
AcDbEntity
8
0
62
256
6
ByLayer
370
-2
48
1
60
0
100
AcDbLine
10
30
20
-4.5375
30
0
11
30
21
-38.481499
31
0
39
0
210
0
220
0
230
1
0
LINE
5
1A0
100
AcDbEntity
8
0
62
256
6
ByLayer
370
-2
48
1
60
0
100
AcDbLine
10
0
20
-4.5375
30
0
11
0
21
-38.481499
31
0
39
0
210
0
220
0
230
1
0
LINE
5
1A1
100
AcDbEntity
8
0
62
256
6
ByLayer
370
-2
48
1
60
0
100
AcDbLine
10
26.5
20
-36.481499
30
0
11
3.5
21
-36.481499
31
0
39
0
210
0
220
0
230
1
0
SOLID
5
1A2
100
AcDbEntity
8
0
62
256
6
ByLayer
370
-1
48
1
60
0
100
AcDbTrace
10
26.5
20
-37.064832
30
0
11
26.5
21
-35.898166
31
0
12
30
22
-36.481499
32
0
13
30
23
-36.481499
33
0
39
0
210
0
220
0
230
1
0
SOLID
5
1A3
100
AcDbEntity
8
0
62
256
6
ByLayer
370
-1
48
1
60
0
100
AcDbTrace
10
3.5
20
-35.898166
30
0
11
3.5
21
-37.064832
31
0
12
0
22
-36.481499
32
0
13
0
23
-36.481499
33
0
39
0
210
0
220
0
230
1
0
MTEXT
5
1A4
100
AcDbEntity
8
0
62
256
6
ByLayer
370
18
48
1
60
0
100
AcDbMText
10
15
20
-30.481499
30
0
210
0
220
0
230
1
1
\A1;30
40
3
41
0
44
1
50
0
71
5
72
5
7
iso_b_vert
0
POINT
5
1A5
100
AcDbEntity
8
Defpoints
62
0
6
ByLayer
370
-1
48
1
60
0
100
AcDbPoint
10
30
20
-2.95
30
0
39
0
210
0
220
0
230
1
50
360
0
POINT
5
1A6
100
AcDbEntity
8
Defpoints
62
0
6
ByLayer
370
-1
48
1
60
0
100
AcDbPoint
10
0
20
-2.95
30
0
39
0
210
0
220
0
230
1
50
360
0
POINT
5
1A7
100
AcDbEntity
8
Defpoints
62
0
6
ByLayer
370
-1
48
1
60
0
100
AcDbPoint
10
0
20
-36.481499
30
0
39
0
210
0
220
0
230
1
50
360
0
ENDBLK
5
19E
100
AcDbEntity
8
0
100
AcDbBlockEnd
0
BLOCK
5
1AF
100
AcDbEntity
8
0
100
AcDbBlockBegin
2
_U4
70
0
10
0
20
0
30
0
3
_U4
0
MTEXT
5
1A9
100
AcDbEntity
8
2
62
256
6
ByLayer
370
18
48
1
60
0
100
AcDbMText
10
13.367172
20
-35.596385
30
0
210
0
220
0
230
1
1
\W0.6740;30
40
3
41
0
44
1.084337
50
0
71
7
72
5
7
iso_b_vert
0
LINE
5
1AA
100
AcDbEntity
8
2
62
256
6
ByLayer
370
13
48
1
60
0
100
AcDbLine
10
30
20
-4.5375
30
0
11
30
21
-38.481499
31
0
39
0
210
0
220
0
230
1
0
LINE
5
1AB
100
AcDbEntity
8
2
62
256
6
ByLayer
370
13
48
1
60
0
100
AcDbLine
10
0
20
-4.5375
30
0
11
0
21
-38.481499
31
0
39
0
210
0
220
0
230
1
0
LINE
5
1AC
100
AcDbEntity
8
2
62
256
6
ByLayer
370
13
48
1
60
0
100
AcDbLine
10
30
20
-36.481499
30
0
11
0
21
-36.481499
31
0
39
0
210
0
220
0
230
1
0
SOLID
5
1AD
100
AcDbEntity
8
2
62
256
6
ByLayer
370
18
48
1
60
0
100
AcDbTrace
10
30
20
-36.481499
30
0
11
26.500002
21
-36.942283
31
0
12
26.499998
22
-36.020715
32
0
13
26.499998
23
-36.020715
33
0
39
0
210
0
220
0
230
1
0
SOLID
5
1AE
100
AcDbEntity
8
2
62
256
6
ByLayer
370
18
48
1
60
0
100
AcDbTrace
10
0
20
-36.481499
30
0
11
3.499998
21
-36.020715
31
0
12
3.500002
22
-36.942283
32
0
13
3.500002
23
-36.942283
33
0
39
0
210
0
220
0
230
1
0
ENDBLK
5
1B0
100
AcDbEntity
8
0
100
AcDbBlockEnd
0
ENDSEC
0
SECTION
2
ENTITIES
0
ARC
5
BC
100
AcDbEntity
8
1
62
256
6
ByLayer
370
18
48
1
60
0
100
AcDbCircle
39
0
10
0.26637
20
-3.098407
30
0
40
0.199999999999996
210
0
220
0
230
1
100
AcDbArc
50
89.896868
51
131.753421
0
ARC
5
BD
100
AcDbEntity
8
1
62
256
6
ByLayer
370
18
48
1
60
0
100
AcDbCircle
39
0
10
0.26637
20
3.098407
30
0
40
0.199999999999996
210
0
220
0
230
1
100
AcDbArc
50
228.246579
51
270.103132
0
ARC
5
BE
100
AcDbEntity
8
1
62
256
6
ByLayer
370
18
48
1
60
0
100
AcDbCircle
39
0
10
0
20
-2.8
30
0
40
0.200000000000001
210
0
220
0
230
1
100
AcDbArc
50
270
51
311.753421
0
ARC
5
BF
100
AcDbEntity
8
1
62
256
6
ByLayer
370
18
48
1
60
0
100
AcDbCircle
39
0
10
0
20
2.8
30
0
40
0.200000000000001
210
0
220
0
230
1
100
AcDbArc
50
48.246579
51
90
0
ARC
5
C0
100
AcDbEntity
8
SK2
62
256
6
ByLayer
370
13
48
1
60
0
100
AcDbCircle
39
0
10
30
20
0
30
0
40
18.6303316629931
210
0
220
0
230
1
100
AcDbArc
50
9.266554
51
69.995064
0
ARC
5
C1
100
AcDbEntity
8
SK2
62
256
6
ByLayer
370
13
48
1
60
0
100
AcDbCircle
39
0
10
30
20
0
30
0
40
18.6303316629931
210
0
220
0
230
1
100
AcDbArc
50
290.004936
51
350.733446
0
ELLIPSE
5
C2
100
AcDbEntity
8
1
62
256
6
ByLayer
370
13
48
1
60
0
100
AcDbEllipse
10
11.357811
20
-2.633605
30
0
11
-0.00311903156180964
21
0.00950113899048084
31
0
210
0
220
0
230
1
40
0.543401
41
0.355613339082214
42
1.69909178583474
0
ELLIPSE
5
C3
100
AcDbEntity
8
1
62
256
6
ByLayer
370
18
48
1
60
0
100
AcDbEllipse
10
11.400588
20
-2.631013
30
0
11
-0.00173093840839019
21
-0.00984905336701755
31
0
210
0
220
0
230
1
40
0.444452
41
-2.77173946754744
42
-1.20240608377931
0
ELLIPSE
5
C4
100
AcDbEntity
8
1
62
256
6
ByLayer
370
13
48
1
60
0
100
AcDbEllipse
10
11.40118
20
0.290716
30
0
11
8.66904016186937E-05
21
0.00999962423165327
31
0
210
0
220
0
230
1
40
0.010695
41
-1.6752720256967
42
-0.10393987696037
0
ELLIPSE
5
C5
100
AcDbEntity
8
1
62
256
6
ByLayer
370
18
48
1
60
0
100
AcDbEllipse
10
11.44314
20
0.27997
30
0
11
-0.00473453967729504
21
-0.00880818562725145
31
0
210
0
220
0
230
1
40
0.055778
41
1.48652968697156
42
3.05007743511109
0
POINT
5
70
100
AcDbEntity
8
80
62
256
6
ByLayer
370
18
48
1
60
0
100
AcDbPoint
10
0
20
0
30
0
39
0
210
0
220
0
230
1
50
360
0
POINT
5
72
100
AcDbEntity
8
81
62
256
6
ByLayer
370
18
48
1
60
0
100
AcDbPoint
10
30
20
0
30
0
39
0
210
0
220
0
230
1
50
360
0
POINT
5
74
100
AcDbEntity
8
1
62
256
6
ByLayer
370
18
48
1
60
0
100
AcDbPoint
10
-221.859834
20
-200
30
0
39
0
210
0
220
0
230
1
50
360
0
POINT
5
76
100
AcDbEntity
8
1
62
256
6
ByLayer
370
13
48
1
60
1
100
AcDbPoint
10
-37.5
20
0
30
0
39
0
210
0
220
0
230
1
50
360
0
POINT
5
77
100
AcDbEntity
8
1
62
256
6
ByLayer
370
13
48
1
60
1
100
AcDbPoint
10
30.402149
20
0
30
0
39
0
210
0
220
0
230
1
50
360
0
POINT
5
78
100
AcDbEntity
8
1
62
256
6
ByLayer
370
18
48
1
60
1
100
AcDbPoint
10
30
20
-2.95
30
0
39
0
210
0
220
0
230
1
50
360
0
POINT
5
79
100
AcDbEntity
8
1
62
256
6
ByLayer
370
18
48
1
60
1
100
AcDbPoint
10
11.3
20
-2.95
30
0
39
0
210
0
220
0
230
1
50
360
0
POINT
5
7A
100
AcDbEntity
8
1
62
256
6
ByLayer
370
18
48
1
60
1
100
AcDbPoint
10
30
20
-2.95
30
0
39
0
210
0
220
0
230
1
50
360
0
POINT
5
7B
100
AcDbEntity
8
1
62
256
6
ByLayer
370
18
48
1
60
1
100
AcDbPoint
10
2
20
-2.95
30
0
39
0
210
0
220
0
230
1
50
360
0
POINT
5
7C
100
AcDbEntity
8
1
62
256
6
ByLayer
370
18
48
1
60
1
100
AcDbPoint
10
-36
20
-3
30
0
39
0
210
0
220
0
230
1
50
360
0
POINT
5
7D
100
AcDbEntity
8
1
62
256
6
ByLayer
370
18
48
1
60
1
100
AcDbPoint
10
0
20
-3
30
0
39
0
210
0
220
0
230
1
50
360
0
POINT
5
7E
100
AcDbEntity
8
1
62
256
6
ByLayer
370
18
48
1
60
1
100
AcDbPoint
10
-36
20
-3
30
0
39
0
210
0
220
0
230
1
50
360
0
POINT
5
7F
100
AcDbEntity
8
1
62
256
6
ByLayer
370
18
48
1
60
1
100
AcDbPoint
10
30
20
-2.95
30
0
39
0
210
0
220
0
230
1
50
360
0
POINT
5
80
100
AcDbEntity
8
1
62
256
6
ByLayer
370
18
48
1
60
1
100
AcDbPoint
10
30
20
-2.95
30
0
39
0
210
0
220
0
230
1
50
360
0
POINT
5
81
100
AcDbEntity
8
1
62
256
6
ByLayer
370
18
48
1
60
1
100
AcDbPoint
10
0
20
-2.95
30
0
39
0
210
0
220
0
230
1
50
360
0
SPLINE
5
C6
100
AcDbEntity
8
1
62
256
6
ByLayer
370
18
48
1
60
0
100
AcDbSpline
70
4
71
3
72
8
73
4
40
0
40
0
40
0
40
0
40
1
40
1
40
1
40
1
41
1
10
11.3003037857396
20
0.179771194598686
30
0
41
1
10
11.3003037857396
20
0.189980253265389
30
0
41
1
10
11.3003037857396
20
0.200187253612938
30
0
41
1
10
11.3003037857396
20
0.210392194614741
30
0
0
SPLINE
5
C7
100
AcDbEntity
8
1
62
256
6
ByLayer
370
18
48
1
60
0
100
AcDbSpline
70
4
71
3
72
8
73
4
40
0
40
0
40
0
40
0
40
1
40
1
40
1
40
1
41
1
10
29.7065993315528
20
0.957660169181395
30
0
41
1
10
29.7811569468945
20
0.749606211383025
30
0
41
1
10
29.8551232353977
20
0.5413439942362
30
0
41
1
10
29.9284867779214
20
0.332869496034675
30
0
0
SPLINE
5
C8
100
AcDbEntity
8
1
62
256
6
ByLayer
370
18
48
1
60
0
100
AcDbSpline
70
4
71
3
72
36
73
32
40
0
40
0
40
0
40
0
40
0.328900318543402
40
0.328900318543402
40
0.553116487761144
40
0.553116487761144
40
0.702525285415327
40
0.702525285415327
40
0.802141384683474
40
0.802141384683474
40
0.868602431641586
40
0.868602431641586
40
0.912877109560459
40
0.912877109560459
40
0.942356604169934
40
0.942356604169934
40
0.962115921193703
40
0.962115921193703
40
0.975400655840594
40
0.975400655840594
40
0.984116595866948
40
0.984116595866948
40
0.989765768335388
40
0.989765768335388
40
0.993489883619856
40
0.993489883619856
40
0.996717829263269
40
0.996717829263269
40
0.998705462497656
40
0.998705462497656
40
1
40
1
40
1
40
1
41
1
10
28.8684798893122
20
2.94985443876888
30
0
41
1
10
28.8766927871118
20
2.9365014827728
30
0
41
1
10
28.8849095442201
20
2.92311112457338
30
0
41
1
10
28.8987364069548
20
2.90052524511071
30
0
41
1
10
28.9043438423276
20
2.89135096946436
30
0
41
1
10
28.913692570255
20
2.87603105326244
30
0
41
1
10
28.9174329090512
20
2.86989487421977
30
0
41
1
10
28.923662280313
20
2.85966795347088
30
0
41
1
10
28.9261527676464
20
2.85557735057725
30
0
41
1
10
28.930300254784
20
2.84876292346161
30
0
41
1
10
28.9319594048714
20
2.84603599862612
30
0
41
1
10
28.9347325967241
20
2.84147186647994
30
0
41
1
10
28.9358443452331
20
2.83964020423897
30
0
41
1
10
28.9377002826637
20
2.83657967847924
30
0
41
1
10
28.9384422154733
20
2.83535597940573
30
0
41
1
10
28.9396709572584
20
2.83333387936557
30
0
41
1
10
28.9401605947872
20
2.83252963982551
30
0
41
1
10
28.9409721046881
20
2.831199636381
30
0
41
1
10
28.941298744475
20
2.83066419909832
30
0
41
1
10
28.9418515631834
20
2.82975222194912
30
0
41
1
10
28.9420736841611
20
2.82938436315314
30
0
41
1
10
28.9424444462771
20
2.82876754911695
30
0
41
1
10
28.9425919080127
20
2.82852128005902
30
0
41
1
10
28.9428357632534
20
2.82811446602392
30
0
41
1
10
28.942932477616
20
2.82795326948818
30
0
41
1
10
28.9431098764307
20
2.82765916520995
30
0
41
1
10
28.9431915590889
20
2.82752432275717
30
0
41
1
10
28.9433154937845
20
2.82732270904984
30
0
41
1
10
28.9433613974005
20
2.82724878110145
30
0
41
1
10
28.9434268097668
20
2.82714639972667
30
0
41
1
10
28.9434502188314
20
2.82711070416278
30
0
41
1
10
28.9434675138061
20
2.82708605091514
30
0
0
SPLINE
5
C9
100
AcDbEntity
8
1
62
256
6
ByLayer
370
18
48
1
60
0
100
AcDbSpline
70
4
71
3
72
19
73
15
40
0
40
0
40
0
40
0
40
0.250000000000003
40
0.250000000000003
40
0.375000000000003
40
0.375000000000003
40
0.500000000000004
40
0.625000000000005
40
0.625000000000005
40
0.750000000000003
40
0.750000000000003
40
0.875000000000002
40
0.875000000000002
40
1
40
1
40
1
40
1
41
1
10
11.3530894165097
20
-2.63650183776164
30
0
41
1
10
11.343931263542
20
-2.63904655098276
30
0
41
1
10
11.3361966785235
20
-2.6421077934244
30
0
41
1
10
11.3261887094058
20
-2.64726224123635
30
0
41
1
10
11.3231302817915
20
-2.64907934895245
30
0
41
1
10
11.3176779898731
20
-2.652782910322
30
0
41
1
10
11.3128360201039
20
-2.65658211664891
30
0
41
1
10
11.3090965028792
20
-2.66055024008375
30
0
41
1
10
11.305883479814
20
-2.6645975006023
30
0
41
1
10
11.3045427683918
20
-2.66666241932211
30
0
41
1
10
11.3024192757165
20
-2.67078993193306
30
0
41
1
10
11.3016278042068
20
-2.67286239130075
30
0
41
1
10
11.3005696557662
20
-2.67702361572935
30
0
41
1
10
11.3003037857396
20
-2.6791294726232
30
0
41
1
10
11.3003037857396
20
-2.68120027212027
30
0
0
SPLINE
5
CA
100
AcDbEntity
8
1
62
256
6
ByLayer
370
18
48
1
60
0
100
AcDbSpline
70
4
71
3
72
8
73
4
40
0
40
0
40
0
40
0
40
1
40
1
40
1
40
1
41
1
10
29.9284867779214
20
0.332869496034675
30
0
41
1
10
29.9513762580641
20
0.267825296658458
30
0
41
1
10
29.974735291095
20
0.203048595146384
30
0
41
1
10
29.9985718935727
20
0.138533473216967
30
0
0
SPLINE
5
CB
100
AcDbEntity
8
1
62
256
6
ByLayer
370
13
48
1
60
0
100
AcDbSpline
70
4
71
3
72
10
73
6
40
0
40
0
40
0
40
0
40
0.5
40
0.5
40
1
40
1
40
1
40
1
41
1
10
11.3958806270735
20
-2.63384233906763
30
0
41
1
10
11.3884633209368
20
-2.63255091534378
30
0
41
1
10
11.3811762260881
20
-2.6321300631997
30
0
41
1
10
11.3668665841419
20
-2.63298899360638
30
0
41
1
10
11.3597946069114
20
-2.63429214262933
30
0
41
1
10
11.3530894165097
20
-2.63650183776164
30
0
0
SPLINE
5
CC
100
AcDbEntity
8
1
62
256
6
ByLayer
370
13
48
1
60
0
100
AcDbSpline
70
4
71
3
72
8
73
4
40
0
40
0
40
0
40
0
40
1
40
1
40
1
40
1
41
1
10
11.3514136769143
20
-2.75578426946009
30
0
41
1
10
11.3519635462913
20
-2.71602636846285
30
0
41
1
10
11.3525221077856
20
-2.67626562674468
30
0
41
1
10
11.3530894165097
20
-2.63650183776164
30
0
0
SPLINE
5
CD
100
AcDbEntity
8
1
62
256
6
ByLayer
370
18
48
1
60
0
100
AcDbSpline
70
4
71
3
72
12
73
8
40
0
40
0
40
0
40
0
40
0.159663855881941
40
0.159663855881941
40
0.439775903921294
40
0.439775903921294
40
1
40
1
40
1
40
1
41
1
10
13.3549755184244
20
-2.78118017190107
30
0
41
1
10
13.2508176749253
20
-2.7837452960043
30
0
41
1
10
13.146731872751
20
-2.78463173515391
30
0
41
1
10
12.860137446917
20
-2.78240980085323
30
0
41
1
10
12.6777368990773
20
-2.77601723936561
30
0
41
1
10
12.1300430770626
20
-2.74153264348985
30
0
41
1
10
11.7641960791122
20
-2.69796957119377
30
0
41
1
10
11.3958806270735
20
-2.63384233906763
30
0
0
SPLINE
5
CE
100
AcDbEntity
8
1
62
256
6
ByLayer
370
18
48
1
60
0
100
AcDbSpline
70
4
71
3
72
10
73
6
40
0
40
0
40
0
40
0
40
0.433668675592418
40
0.433668675592418
40
1
40
1
40
1
40
1
41
1
10
29.3219187367088
20
-0.51476548511377
30
0
41
1
10
29.3512927805741
20
-0.534352313916571
30
0
41
1
10
29.3811447415519
20
-0.554252595173637
30
0
41
1
10
29.4507429881668
20
-0.600796837073034
30
0
41
1
10
29.4907321683278
20
-0.627644543408849
30
0
41
1
10
29.5311125775964
20
-0.6550315563384
30
0
0
SPLINE
5
CF
100
AcDbEntity
8
1
62
256
6
ByLayer
370
18
48
1
60
0
100
AcDbSpline
70
4
71
3
72
24
73
20
40
0
40
0
40
0
40
0
40
0.12499999999989
40
0.12499999999989
40
0.187499999999889
40
0.187499999999889
40
0.249999999999888
40
0.249999999999888
40
0.312499999999887
40
0.312499999999887
40
0.374999999999886
40
0.374999999999886
40
0.499999999999884
40
0.499999999999884
40
0.749999999999942
40
0.749999999999942
40
0.874999999999971
40
0.874999999999971
40
1
40
1
40
1
40
1
41
1
10
11.4012769662456
20
0.300661471866931
30
0
41
1
10
11.3934565402322
20
0.300730059973063
30
0
41
1
10
11.3858377949945
20
0.29998172271732
30
0
41
1
10
11.374688912938
20
0.297726649226519
30
0
41
1
10
11.3710297591463
20
0.296782436400747
30
0
41
1
10
11.3640217203924
20
0.29459088684763
30
0
41
1
10
11.3606426429979
20
0.293338014357573
30
0
41
1
10
11.3541152263885
20
0.29054143192144
30
0
41
1
10
11.3509518180644
20
0.288987644678088
30
0
41
1
10
11.344978510974
20
0.285679514741332
30
0
41
1
10
11.3421535093417
20
0.283920670343491
30
0
41
1
10
11.334111601889
20
0.278362264012998
30
0
41
1
10
11.3292927968725
20
0.274250473120077
30
0
41
1
10
11.316578464643
20
0.261143566124844
30
0
41
1
10
11.3105188477723
20
0.25161906376195
30
0
41
1
10
11.3043504421084
20
0.236411064781493
30
0
41
1
10
11.3028367565261
20
0.231282740835241
30
0
41
1
10
11.3008127695804
20
0.220915182824143
30
0
41
1
10
11.3003037857395
20
0.215636333740093
30
0
41
1
10
11.3003037857396
20
0.210392194614713
30
0
0
SPLINE
5
D0
100
AcDbEntity
8
1
62
256
6
ByLayer
370
13
48
1
60
0
100
AcDbSpline
70
4
71
3
72
10
73
6
40
0
40
0
40
0
40
0
40
0.5
40
0.5
40
1
40
1
40
1
40
1
41
1
10
11.4479000522558
20
0.288717274641527
30
0
41
1
10
11.4407199985143
20
0.292577212313915
30
0
41
1
10
11.4332187311931
20
0.295494767018738
30
0
41
1
10
11.4175956497765
20
0.299511002152258
30
0
41
1
10
11.4094405035674
20
0.300589874544357
30
0
41
1
10
11.4012769662456
20
0.300661471866931
30
0
0
SPLINE
5
D1
100
AcDbEntity
8
1
62
256
6
ByLayer
370
18
48
1
60
0
100
AcDbSpline
70
4
71
3
72
29
73
25
40
0
40
0
40
0
40
0
40
0.124999999999995
40
0.124999999999995
40
0.187499999999993
40
0.187499999999993
40
0.218749999999985
40
0.218749999999985
40
0.249999999999977
40
0.249999999999977
40
0.374999999999988
40
0.374999999999988
40
0.499999999999999
40
0.499999999999999
40
0.62500000000001
40
0.62500000000001
40
0.75000000000002
40
0.75000000000002
40
0.781250000000023
40
0.781250000000023
40
0.812500000000026
40
0.875000000000017
40
0.875000000000017
40
1
40
1
40
1
40
1
41
1
10
29.9985718935631
20
0.138533473220264
30
0
41
1
10
29.9828766414327
20
0.0928177976876157
30
0
41
1
10
29.9661493900429
20
0.0475925649025157
30
0
41
1
10
29.939547372713
20
-0.0195126109340151
30
0
41
1
10
29.9304273034119
20
-0.0417584691248862
30
0
41
1
10
29.9163637530503
20
-0.0749394459436985
30
0
41
1
10
29.911603874052
20
-0.0859862329378132
30
0
41
1
10
29.9020342556709
20
-0.107836345644074
30
0
41
1
10
29.8972169712129
20
-0.118658069776274
30
0
41
1
10
29.8729744006511
20
-0.172254467324166
30
0
41
1
10
29.8530843505316
20
-0.213501086729451
30
0
41
1
10
29.812411786651
20
-0.292710336092483
30
0
41
1
10
29.7916242208353
20
-0.330684809546625
30
0
41
1
10
29.7491799204365
20
-0.403042756639678
30
0
41
1
10
29.7281569666112
20
-0.436346928541269
30
0
41
1
10
29.6865247916473
20
-0.497329153763928
30
0
41
1
10
29.6659156739474
20
-0.525008538832509
30
0
41
1
10
29.6404019003641
20
-0.555892548146801
30
0
41
1
10
29.635298496294
20
-0.561896935354923
30
0
41
1
10
29.6251886436849
20
-0.573439355442162
30
0
41
1
10
29.6101769800613
20
-0.590047636541527
30
0
41
1
10
29.5956100958183
20
-0.604575286766931
30
0
41
1
10
29.5670369202853
20
-0.630899342301717
30
0
41
1
10
29.5487341024922
20
-0.644823719325075
30
0
41
1
10
29.5311125775964
20
-0.655031556338372
30
0
0
SPLINE
5
D2
100
AcDbEntity
8
1
62
256
6
ByLayer
370
18
48
1
60
0
100
AcDbSpline
70
4
71
3
72
78
73
74
40
0
40
0
40
0
40
0
40
0.0312500000000065
40
0.0312500000000065
40
0.0468750000000122
40
0.0468750000000122
40
0.0625000000000178
40
0.0625000000000178
40
0.0937500000000233
40
0.0937500000000233
40
0.109375000000026
40
0.109375000000026
40
0.125000000000029
40
0.125000000000029
40
0.187500000000039
40
0.187500000000039
40
0.250000000000049
40
0.250000000000049
40
0.281250000000059
40
0.281250000000059
40
0.312500000000069
40
0.312500000000069
40
0.328125000000074
40
0.328125000000074
40
0.343750000000079
40
0.37500000000008
40
0.406250000000081
40
0.406250000000081
40
0.421875000000081
40
0.421875000000081
40
0.437500000000082
40
0.437500000000082
40
0.500000000000085
40
0.500000000000085
40
0.515625000000083
40
0.515625000000083
40
0.531250000000081
40
0.562500000000078
40
0.562500000000078
40
0.593750000000075
40
0.593750000000075
40
0.609375000000074
40
0.609375000000074
40
0.625000000000073
40
0.656250000000072
40
0.656250000000072
40
0.671875000000071
40
0.671875000000071
40
0.687500000000071
40
0.687500000000071
40
0.750000000000069
40
0.750000000000069
40
0.765625000000069
40
0.765625000000069
40
0.781250000000069
40
0.781250000000069
40
0.812500000000066
40
0.812500000000066
40
0.843750000000062
40
0.843750000000062
40
0.875000000000059
40
0.875000000000059
40
0.890625000000054
40
0.890625000000054
40
0.906250000000049
40
0.906250000000049
40
0.937500000000038
40
0.937500000000038
40
0.953125000000029
40
0.953125000000029
40
0.968750000000019
40
0.968750000000019
40
1
40
1
40
1
40
1
41
1
10
29.5311125775964
20
-0.6550315563384
30
0
41
1
10
29.5284864251725
20
-0.671638718283788
30
0
41
1
10
29.525281562516
20
-0.688585077849552
30
0
41
1
10
29.5196370011455
20
-0.714510920075952
30
0
41
1
10
29.5176154452753
20
-0.723237570490994
30
0
41
1
10
29.5132915087947
20
-0.740863791343116
30
0
41
1
10
29.5109774153439
20
-0.749804826506704
30
0
41
1
10
29.5037184342378
20
-0.776495376161449
30
0
41
1
10
29.4984560317173
20
-0.794145311641159
30
0
41
1
10
29.4899855000781
20
-0.820423591551901
30
0
41
1
10
29.4870653904499
20
-0.829150097067156
30
0
41
1
10
29.481036751642
20
-0.846538794725632
30
0
41
1
10
29.4779162360207
20
-0.855232872752367
30
0
41
1
10
29.4620025303753
20
-0.898129278559708
30
0
41
1
10
29.4484199265376
20
-0.930358291548657
30
0
41
1
10
29.4198706401097
20
-0.991079308835282
30
0
41
1
10
29.4054527928237
20
-1.0183936284752
30
0
41
1
10
29.3837464665149
20
-1.05516271141303
30
0
41
1
10
29.3764811175663
20
-1.06672443937748
30
0
41
1
10
29.3622108658102
20
-1.08799456886962
30
0
41
1
10
29.3551684009586
20
-1.09776968317357
30
0
41
1
10
29.3447373357531
20
-1.11116240835159
30
0
41
1
10
29.3412843861187
20
-1.11541051563304
30
0
41
1
10
29.3344974445697
20
-1.1233946668479
30
0
41
1
10
29.3244622299451
20
-1.13464478736506
30
0
41
1
10
29.3084317030586
20
-1.14986788872534
30
0
41
1
10
29.2963087876556
20
-1.15833378507054
30
0
41
1
10
29.2874745140616
20
-1.16324333468776
30
0
41
1
10
29.2845705631267
20
-1.16463839873171
30
0
41
1
10
29.2789209631699
20
-1.16690798728379
30
0
41
1
10
29.2761658024999
20
-1.16778841586193
30
0
41
1
10
29.2627272265738
20
-1.17093363185592
30
0
41
1
10
29.2530405846848
20
-1.16948781705079
30
0
41
1
10
29.2422377171349
20
-1.16237618671943
30
0
41
1
10
29.2401434639375
20
-1.1606816747933
30
0
41
1
10
29.2361457005904
20
-1.15679375104122
30
0
41
1
10
29.2304121445743
20
-1.1501987702068
30
0
41
1
10
29.2254484372063
20
-1.14133485794215
30
0
41
1
10
29.2195144181817
20
-1.12744238602681
30
0
41
1
10
29.2168892261882
20
-1.11946020771472
30
0
41
1
10
29.2134951167384
20
-1.10580352837385
30
0
41
1
10
29.2124589332281
20
-1.1009807825321
30
0
41
1
10
29.2106033711704
20
-1.0909180043387
30
0
41
1
10
29.2081330603997
20
-1.07514622453337
30
0
41
1
10
29.2065917961326
20
-1.05735225809789
30
0
41
1
10
29.2056945167688
20
-1.03815316958216
30
0
41
1
10
29.2055031744115
20
-1.03151849849956
30
0
41
1
10
29.2053459317783
20
-1.01775869189015
30
0
41
1
10
29.2053810352527
20
-1.01059855390187
30
0
41
1
10
29.2061435075151
20
-0.973997827124691
30
0
41
1
10
29.2085674494198
20
-0.942325142882481
30
0
41
1
10
29.2140764966283
20
-0.899602832868055
30
0
41
1
10
29.2153117625164
20
-0.890857737752725
30
0
41
1
10
29.2180043681656
20
-0.873331725049923
30
0
41
1
10
29.2194628874285
20
-0.864533404478664
30
0
41
1
10
29.224173959093
20
-0.838035722015036
30
0
41
1
10
29.2277602533334
20
-0.820234123642052
30
0
41
1
10
29.2358609660577
20
-0.784362874987949
30
0
41
1
10
29.2404158072528
20
-0.766167807293897
30
0
41
1
10
29.2501888507436
20
-0.730725328449978
30
0
41
1
10
29.2554294459226
20
-0.713352634170292
30
0
41
1
10
29.2638237919686
20
-0.687804008736322
30
0
41
1
10
29.2667111060902
20
-0.679373178700899
30
0
41
1
10
29.2726679611986
20
-0.662683798874525
30
0
41
1
10
29.2757310870951
20
-0.654446233023037
30
0
41
1
10
29.2850496583758
20
-0.630367653735334
30
0
41
1
10
29.2914783325953
20
-0.615031470192577
30
0
41
1
10
29.3014380525663
20
-0.593039388127522
30
0
41
1
10
29.3048108844826
20
-0.585878033186532
30
0
41
1
10
29.3116626755352
20
-0.571890656456674
30
0
41
1
10
29.3151532362077
20
-0.565043643608817
30
0
41
1
10
29.3256647017281
20
-0.545230402466615
30
0
41
1
10
29.3327417773783
20
-0.532946997876081
30
0
41
1
10
29.3398847448272
20
-0.521520772589952
30
0
0
SPLINE
5
D3
100
AcDbEntity
8
1
62
256
6
ByLayer
370
18
48
1
60
0
100
AcDbSpline
70
4
71
3
72
8
73
4
40
0
40
0
40
0
40
0
40
1
40
1
40
1
40
1
41
1
10
29.3398847448272
20
-0.521520772590037
30
0
41
1
10
29.3315581438166
20
-0.49251058747376
30
0
41
1
10
29.3244574176167
20
-0.460074490051028
30
0
41
1
10
29.3184519318687
20
-0.424378410389437
30
0
0
SPLINE
5
D4
100
AcDbEntity
8
1
62
256
6
ByLayer
370
18
48
1
60
0
100
AcDbSpline
70
4
71
3
72
8
73
4
40
0
40
0
40
0
40
0
40
1
40
1
40
1
40
1
41
1
10
29.3184519318687
20
-0.424378410389437
30
0
41
1
10
29.2759144974426
20
-0.171539637377464
30
0
41
1
10
29.2199666961026
20
0.0876700124707668
30
0
41
1
10
29.1507310719199
20
0.353192322016923
30
0
0
SPLINE
5
D5
100
AcDbEntity
8
1
62
256
6
ByLayer
370
18
48
1
60
0
100
AcDbSpline
70
4
71
3
72
13
73
9
40
0
40
0
40
0
40
0
40
0.5
40
0.5
40
0.625
40
0.625
40
0.749999999999999
40
1
40
1
40
1
40
1
41
1
10
29.0435834018631
20
-2.65336722643772
30
0
41
1
10
29.0220896616922
20
-2.68540343033135
30
0
41
1
10
29.0021244355434
20
-2.71290166811212
30
0
41
1
10
28.9791311736659
20
-2.74073626581387
30
0
41
1
10
28.9746398060643
20
-2.745962425416
30
0
41
1
10
28.9659565948588
20
-2.75562729130851
30
0
41
1
10
28.9533408224856
20
-2.76899258626591
30
0
41
1
10
28.941902227619
20
-2.77901239762639
30
0
41
1
10
28.9347585060353
20
-2.7842389485314
30
0
0
SPLINE
5
D6
100
AcDbEntity
8
1
62
256
6
ByLayer
370
18
48
1
60
0
100
AcDbSpline
70
4
71
3
72
8
73
4
40
0
40
0
40
0
40
0
40
1
40
1
40
1
40
1
41
1
10
29.7065993315529
20
-0.957660169181395
30
0
41
1
10
29.7811569468945
20
-0.749606211382996
30
0
41
1
10
29.8551232353977
20
-0.541343994236172
30
0
41
1
10
29.9284867779214
20
-0.332869496034618
30
0
0
SPLINE
5
D7
100
AcDbEntity
8
1
62
256
6
ByLayer
370
18
48
1
60
0
100
AcDbSpline
70
4
71
3
72
8
73
4
40
0
40
0
40
0
40
0
40
1
40
1
40
1
40
1
41
1
10
29.9284867779214
20
-0.332869496034618
30
0
41
1
10
29.9513762580641
20
-0.267825296658714
30
0
41
1
10
29.9747352910948
20
-0.203048595146981
30
0
41
1
10
29.9985718935724
20
-0.138533473217876
30
0
0
SPLINE
5
D8
100
AcDbEntity
8
1
62
256
6
ByLayer
370
18
48
1
60
0
100
AcDbSpline
70
4
71
3
72
8
73
4
40
0
40
0
40
0
40
0
40
1
40
1
40
1
40
1
41
1
10
29.9985718935674
20
0.138533473222935
30
0
41
1
10
30.0004731513344
20
0.0463177124959202
30
0
41
1
10
30.0004789283812
20
-0.0460375112634495
30
0
41
1
10
29.9985718935674
20
-0.138533473221543
30
0
0
SPLINE
5
D9
100
AcDbEntity
8
1
62
256
6
ByLayer
370
18
48
1
60
0
100
AcDbSpline
70
4
71
3
72
20
73
16
40
0
40
0
40
0
40
0
40
0.0354939938159084
40
0.0354939938159084
40
0.131944594434327
40
0.131944594434327
40
0.228395195052747
40
0.228395195052747
40
0.614197597526423
40
0.614197597526423
40
0.71064819814483
40
0.71064819814483
40
0.807098798763237
40
0.807098798763237
40
1
40
1
40
1
40
1
41
1
10
28.5554505416128
20
0.6799249559744
30
0
41
1
10
28.5630156011393
20
0.682799701235638
30
0
41
1
10
28.5706272081434
20
0.685730947175699
30
0
41
1
10
28.5991039764596
20
0.696823514392634
30
0
41
1
10
28.6202872226318
20
0.705311216208258
30
0
41
1
10
28.6635277413036
20
0.722806186397321
30
0
41
1
10
28.6856593327264
20
0.731845103567565
30
0
41
1
10
28.7971220169072
20
0.777278560116628
30
0
41
1
10
28.8897047779943
20
0.814828147467011
30
0
41
1
10
29.0130234634478
20
0.853094397533056
30
0
41
1
10
29.038126877431
20
0.860328482797769
30
0
41
1
10
29.088392079452
20
0.873496899066936
30
0
41
1
10
29.1136363050879
20
0.879456764075513
30
0
41
1
10
29.1897440842915
20
0.895271266976891
30
0
41
1
10
29.2409826289853
20
0.903061956376007
30
0
41
1
10
29.2927508622622
20
0.9079842918228
30
0
0
SPLINE
5
DA
100
AcDbEntity
8
1
62
256
6
ByLayer
370
18
48
1
60
0
100
AcDbSpline
70
4
71
3
72
10
73
6
40
0
40
0
40
0
40
0
40
0.5
40
0.5
40
1
40
1
40
1
40
1
41
1
10
29.2927508622622
20
0.907984291822828
30
0
41
1
10
29.3619752310752
20
0.914566428063921
30
0
41
1
10
29.4311010154528
20
0.921818833381906
30
0
41
1
10
29.5690817772227
20
0.938164842857731
30
0
41
1
10
29.6379380039123
20
0.947249953126629
30
0
41
1
10
29.7065993315529
20
0.957660169181395
30
0
0
SPLINE
5
DB
100
AcDbEntity
8
1
62
256
6
ByLayer
370
18
48
1
60
0
100
AcDbSpline
70
4
71
3
72
29
73
25
40
0
40
0
40
0
40
0
40
0.124999999999987
40
0.124999999999987
40
0.249999999999974
40
0.249999999999974
40
0.499999999999949
40
0.499999999999949
40
0.531249999999947
40
0.531249999999947
40
0.562499999999945
40
0.562499999999945
40
0.624999999999949
40
0.624999999999949
40
0.687499999999953
40
0.687499999999953
40
0.749999999999957
40
0.749999999999957
40
0.874999999999974
40
0.874999999999974
40
0.937499999999982
40
0.968749999999991
40
0.968749999999991
40
1
40
1
40
1
40
1
41
1
10
29.0435834018628
20
2.65336722643858
30
0
41
1
10
29.068424837912
20
2.58100779550799
30
0
41
1
10
29.0934418651902
20
2.50847621767943
30
0
41
1
10
29.1439010583917
20
2.36313865393538
30
0
41
1
10
29.1693495534845
20
2.2903052227305
30
0
41
1
10
29.2463033413575
20
2.07169838010083
30
0
41
1
10
29.2984233403727
20
1.92596228439257
30
0
41
1
10
29.3579174087667
20
1.76239559292458
30
0
41
1
10
29.3645393094784
20
1.74422759132202
30
0
41
1
10
29.3778058587175
20
1.70790346675557
30
0
41
1
10
29.3844385023771
20
1.68974107921622
30
0
41
1
10
29.4045656813188
20
1.63537367222898
30
0
41
1
10
29.4182111759776
20
1.59924707368674
30
0
41
1
10
29.4460489982613
20
1.52727133648176
30
0
41
1
10
29.4602692879478
20
1.49135491989756
30
0
41
1
10
29.489026815871
20
1.42053605386525
30
0
41
1
10
29.5035926163009
20
1.38555969072652
30
0
41
1
10
29.5479118250886
20
1.28194711224395
30
0
41
1
10
29.5782853899507
20
1.21461871303379
30
0
41
1
10
29.6252740461454
20
1.11623821163911
30
0
41
1
10
29.6491258419813
20
1.06770360030183
30
0
41
1
10
29.6735594187879
20
1.02018689232722
30
0
41
1
10
29.6899828484373
20
0.988739555491549
30
0
41
1
10
29.6982761658445
20
0.973104559586346
30
0
41
1
10
29.7065993315528
20
0.957660169181395
30
0
0
SPLINE
5
DC
100
AcDbEntity
8
1
62
256
6
ByLayer
370
18
48
1
60
0
100
AcDbSpline
70
4
71
3
72
8
73
4
40
0
40
0
40
0
40
0
40
1
40
1
40
1
40
1
41
1
10
28.9434675164683
20
2.82708604679021
30
0
41
1
10
28.9768078552493
20
2.7691874766696
30
0
41
1
10
29.0101833526305
20
2.71127345728959
30
0
41
1
10
29.0435834018626
20
2.65336722643852
30
0
0
SPLINE
5
DD
100
AcDbEntity
8
1
62
256
6
ByLayer
370
18
48
1
60
0
100
AcDbSpline
70
4
71
3
72
24
73
20
40
0
40
0
40
0
40
0
40
0.0695700652722837
40
0.0695700652722837
40
0.139140130544567
40
0.139140130544567
40
0.278280261089135
40
0.278280261089135
40
0.417420391633702
40
0.417420391633702
40
0.55656052217827
40
0.55656052217827
40
0.834840783267409
40
0.834840783267409
40
0.904410848539696
40
0.904410848539696
40
0.973980913811983
40
0.973980913811983
40
1
40
1
40
1
40
1
41
1
10
28.9434675145938
20
2.8270860486295
30
0
41
1
10
28.8514560714733
20
2.82818740989154
30
0
41
1
10
28.7594113552466
20
2.82796876219547
30
0
41
1
10
28.5754889706347
20
2.82487609251734
30
0
41
1
10
28.483571388022
20
2.82200257301534
30
0
41
1
10
28.2078601818891
20
2.80939314403804
30
0
41
1
10
28.0241081657869
20
2.79565209371111
30
0
41
1
10
27.6562072039528
20
2.75771726778808
30
0
41
1
10
27.4720767248177
20
2.73356139440404
30
0
41
1
10
27.1039514906208
20
2.67509773190221
30
0
41
1
10
26.9199096769161
20
2.64076796287833
30
0
41
1
10
26.3677158315448
20
2.52309788554277
30
0
41
1
10
26.0005869825864
20
2.42567442747063
30
0
41
1
10
25.5407063977185
20
2.28183793908093
30
0
41
1
10
25.4486534141246
20
2.25195969770243
30
0
41
1
10
25.2646359221721
20
2.19009791769597
30
0
41
1
10
25.17265248425
20
2.15810936929242
30
0
41
1
10
25.0462582149704
20
2.11275509104939
30
0
41
1
10
25.011849325966
20
2.10026598432404
30
0
41
1
10
24.9774389219109
20
2.08763657919548
30
0
0
SPLINE
5
DE
100
AcDbEntity
8
1
62
256
6
ByLayer
370
18
48
1
60
0
100
AcDbSpline
70
4
71
3
72
16
73
12
40
0
40
0
40
0
40
0
40
0.12499999999999
40
0.12499999999999
40
0.249999999999981
40
0.249999999999981
40
0.374999999999971
40
0.374999999999971
40
0.499999999999961
40
0.499999999999961
40
1
40
1
40
1
40
1
41
1
10
29.1507310719199
20
0.353192322016952
30
0
41
1
10
29.1400727909297
20
0.345342190113797
30
0
41
1
10
29.1294287970481
20
0.33709689125692
30
0
41
1
10
29.1081863896231
20
0.319981104008832
30
0
41
1
10
29.0975885169473
20
0.311125429282839
30
0
41
1
10
29.0764417731661
20
0.292701877661244
30
0
41
1
10
29.0658924608433
20
0.283123760016935
30
0
41
1
10
29.044847289381
20
0.263147020179502
30
0
41
1
10
29.0343427742065
20
0.2527466615349
30
0
41
1
10
28.9821959652776
20
0.198992203013575
30
0
41
1
10
28.9415509585701
20
0.150210340605867
30
0
41
1
10
28.902123566279
20
0.0965066629935052
30
0
0
SPLINE
5
DF
100
AcDbEntity
8
1
62
256
6
ByLayer
370
18
48
1
60
0
100
AcDbSpline
70
4
71
3
72
27
73
23
40
0
40
0
40
0
40
0
40
0.16390087318571
40
0.245851309778577
40
0.245851309778577
40
0.327801746371444
40
0.327801746371444
40
0.409752182964311
40
0.409752182964311
40
0.491702619557178
40
0.491702619557178
40
0.655603492742888
40
0.655603492742888
40
0.737553929335755
40
0.737553929335755
40
0.819504365928622
40
0.819504365928622
40
0.901454802521489
40
0.901454802521489
40
0.983405239114356
40
0.983405239114356
40
1
40
1
40
1
40
1
41
1
10
29.1507310719199
20
0.353192322016923
30
0
41
1
10
29.0904136695892
20
0.391596602135309
30
0
41
1
10
28.9999492932702
20
0.44775021394355
30
0
41
1
10
28.9095041632603
20
0.501519518070126
30
0
41
1
10
28.8492119350645
20
0.536805128345009
30
0
41
1
10
28.8190681459484
20
0.554159905673487
30
0
41
1
10
28.7587843364264
20
0.588402577859171
30
0
41
1
10
28.7286441132369
20
0.605315594332382
30
0
41
1
10
28.668367092048
20
0.638717301383025
30
0
41
1
10
28.6382304481789
20
0.655186897707466
30
0
41
1
10
28.547828930393
20
0.703553349706453
30
0
41
1
10
28.4875720641309
20
0.734458185943566
30
0
41
1
10
28.3972067453335
20
0.778340166321129
30
0
41
1
10
28.3671856313353
20
0.792476984315812
30
0
41
1
10
28.3074376113526
20
0.819870016611162
30
0
41
1
10
28.2776651520355
20
0.83321675417767
30
0
41
1
10
28.2183165811995
20
0.859233933906495
30
0
41
1
10
28.188763127069
20
0.871826335532006
30
0
41
1
10
28.1300680578898
20
0.895592610635418
30
0
41
1
10
28.100913737018
20
0.906810247730704
30
0
41
1
10
28.0661340357866
20
0.919340867491798
30
0
41
1
10
28.060283220856
20
0.921419320293012
30
0
41
1
10
28.0544442740883
20
0.923462743761974
30
0
0
SPLINE
5
E0
100
AcDbEntity
8
1
62
256
6
ByLayer
370
18
48
1
60
0
100
AcDbSpline
70
4
71
3
72
29
73
25
40
0
40
0
40
0
40
0
40
0.12499999999999
40
0.12499999999999
40
0.24999999999998
40
0.24999999999998
40
0.499999999999961
40
0.499999999999961
40
0.531249999999959
40
0.531249999999959
40
0.562499999999956
40
0.562499999999956
40
0.624999999999958
40
0.624999999999958
40
0.687499999999961
40
0.687499999999961
40
0.749999999999963
40
0.749999999999963
40
0.874999999999977
40
0.874999999999977
40
0.937499999999984
40
0.968749999999992
40
0.968749999999992
40
1
40
1
40
1
40
1
41
1
10
29.0435834018628
20
-2.65336722643875
30
0
41
1
10
29.068424837912
20
-2.58100779550816
30
0
41
1
10
29.0934418651901
20
-2.50847621767957
30
0
41
1
10
29.1439010583917
20
-2.36313865393552
30
0
41
1
10
29.1693495534844
20
-2.29030522273067
30
0
41
1
10
29.2463033413575
20
-2.07169838010097
30
0
41
1
10
29.2984233403726
20
-1.92596228439271
30
0
41
1
10
29.3579174087666
20
-1.76239559292469
30
0
41
1
10
29.3645393094783
20
-1.74422759132213
30
0
41
1
10
29.3778058587174
20
-1.70790346675568
30
0
41
1
10
29.384438502377
20
-1.68974107921633
30
0
41
1
10
29.4045656813188
20
-1.63537367222909
30
0
41
1
10
29.4182111759775
20
-1.59924707368685
30
0
41
1
10
29.4460489982612
20
-1.5272713364819
30
0
41
1
10
29.4602692879478
20
-1.49135491989767
30
0
41
1
10
29.489026815871
20
-1.42053605386528
30
0
41
1
10
29.5035926163009
20
-1.38555969072652
30
0
41
1
10
29.5479118250886
20
-1.2819471122439
30
0
41
1
10
29.5782853899507
20
-1.2146187130337
30
0
41
1
10
29.6252740461456
20
-1.11623821163903
30
0
41
1
10
29.6491258419814
20
-1.06770360030177
30
0
41
1
10
29.6735594187879
20
-1.02018689232716
30
0
41
1
10
29.6899828484373
20
-0.98873955549152
30
0
41
1
10
29.6982761658445
20
-0.973104559586375
30
0
41
1
10
29.7065993315529
20
-0.957660169181395
30
0
0
SPLINE
5
E1
100
AcDbEntity
8
1
62
256
6
ByLayer
370
18
48
1
60
0
100
AcDbSpline
70
4
71
3
72
8
73
4
40
0
40
0
40
0
40
0
40
1
40
1
40
1
40
1
41
1
10
28.9434675154148
20
-2.82708604861963
30
0
41
1
10
28.9768078545462
20
-2.76918747788963
30
0
41
1
10
29.0101833522787
20
-2.71127345789958
30
0
41
1
10
29.0435834018625
20
-2.65336722643866
30
0
0
SPLINE
5
E2
100
AcDbEntity
8
1
62
256
6
ByLayer
370
18
48
1
60
0
100
AcDbSpline
70
4
71
3
72
8
73
4
40
0
40
0
40
0
40
0
40
1
40
1
40
1
40
1
41
1
10
11.3003037857396
20
2.85033773765951
30
0
41
1
10
11.3003037857396
20
2.81866681847958
30
0
41
1
10
11.3003037857396
20
2.78691553906057
30
0
41
1
10
11.3003037857396
20
2.75508590918014
30
0
0
SPLINE
5
E3
100
AcDbEntity
8
1
62
256
6
ByLayer
370
18
48
1
60
0
100
AcDbSpline
70
4
71
3
72
19
73
15
40
0
40
0
40
0
40
0
40
0.25
40
0.25
40
0.375
40
0.375
40
0.5
40
0.625
40
0.625
40
0.75
40
0.75
40
0.875
40
0.875
40
1
40
1
40
1
40
1
41
1
10
11.3530894165097
20
-2.62528868826416
30
0
41
1
10
11.3439314555262
20
-2.62846178788394
30
0
41
1
10
11.3361954905575
20
-2.63228130452944
30
0
41
1
10
11.3261857336026
20
-2.63871842190832
30
0
41
1
10
11.3231267744372
20
-2.64098857062044
30
0
41
1
10
11.3176739441083
20
-2.64561715104446
30
0
41
1
10
11.3128322307727
20
-2.65036701244588
30
0
41
1
10
11.3090927922835
20
-2.65533145677381
30
0
41
1
10
11.3058804504896
20
-2.66039688391478
30
0
41
1
10
11.304540212918
20
-2.66298216260503
30
0
41
1
10
11.3024177172236
20
-2.66815153183816
30
0
41
1
10
11.3016267555368
20
-2.67074799462773
30
0
41
1
10
11.3005693856339
20
-2.67596313229652
30
0
41
1
10
11.3003037857396
20
-2.67860335549614
30
0
41
1
10
11.3003037857396
20
-2.68120027212027
30
0
0
SPLINE
5
E4
100
AcDbEntity
8
1
62
256
6
ByLayer
370
13
48
1
60
0
100
AcDbSpline
70
4
71
3
72
10
73
6
40
0
40
0
40
0
40
0
40
0.5
40
0.5
40
1
40
1
40
1
40
1
41
1
10
11.4006192486849
20
-2.62155210260781
30
0
41
1
10
11.392368396085
20
-2.62024919972211
30
0
41
1
10
11.3842683583639
20
-2.61991510742692
30
0
41
1
10
11.368372681097
20
-2.62113338542974
30
0
41
1
10
11.3605203239537
20
-2.62271398745151
30
0
41
1
10
11.3530894165097
20
-2.62528868826416
30
0
0
SPLINE
5
E5
100
AcDbEntity
8
1
62
256
6
ByLayer
370
18
48
1
60
0
100
AcDbSpline
70
4
71
3
72
24
73
20
40
0
40
0
40
0
40
0
40
0.124999999999983
40
0.124999999999983
40
0.249999999999967
40
0.249999999999967
40
0.499999999999934
40
0.499999999999934
40
0.624999999999915
40
0.624999999999915
40
0.687499999999947
40
0.687499999999947
40
0.749999999999979
40
0.749999999999979
40
0.812500000000011
40
0.812500000000011
40
0.875000000000043
40
0.875000000000043
40
1
40
1
40
1
40
1
41
1
10
11.3003037857396
20
0.210392194614741
30
0
41
1
10
11.3003037857396
20
0.215015068509871
30
0
41
1
10
11.3008123474661
20
0.219666055137566
30
0
41
1
10
11.3028353995277
20
0.228795046418156
30
0
41
1
10
11.3043485688113
20
0.233308082376738
30
0
41
1
10
11.3105163534908
20
0.246683775902994
30
0
41
1
10
11.3165767331842
20
0.255049834785836
30
0
41
1
10
11.3292953690957
20
0.266549392468534
30
0
41
1
10
11.3341159739291
20
0.270154373202473
30
0
41
1
10
11.3421603427619
20
0.275024665492651
30
0
41
1
10
11.3449861388138
20
0.276565238718831
30
0
41
1
10
11.3509608399076
20
0.279461958173755
30
0
41
1
10
11.3541247719163
20
0.280822002388732
30
0
41
1
10
11.3606527035997
20
0.283269162518053
30
0
41
1
10
11.3640318286143
20
0.284365124043916
30
0
41
1
10
11.3710393607382
20
0.286281743075875
30
0
41
1
10
11.3746978950209
20
0.287107225395744
30
0
41
1
10
11.3858438392579
20
0.289078386640057
30
0
41
1
10
11.3934599750201
20
0.289732122836654
30
0
41
1
10
11.4012769662456
20
0.289672170390958
30
0
0
SPLINE
5
E6
100
AcDbEntity
8
1
62
256
6
ByLayer
370
13
48
1
60
0
100
AcDbSpline
70
4
71
3
72
10
73
6
40
0
40
0
40
0
40
0
40
0.5
40
0.5
40
1
40
1
40
1
40
1
41
1
10
11.4432314950842
20
0.278965576660113
30
0
41
1
10
11.4367672785015
20
0.282428134568505
30
0
41
1
10
11.4300154460144
20
0.285043742049368
30
0
41
1
10
11.4159569786796
20
0.288642942871917
30
0
41
1
10
11.4086206662561
20
0.28960883398338
30
0
41
1
10
11.4012769662456
20
0.289672170390958
30
0
0
SPLINE
5
E7
100
AcDbEntity
8
1
62
256
6
ByLayer
370
13
48
1
60
0
100
AcDbSpline
70
4
71
3
72
41
73
37
40
0
40
0
40
0
40
0
40
0.0625
40
0.0625
40
0.09375
40
0.09375
40
0.125
40
0.125
40
0.25
40
0.25
40
0.3125
40
0.3125
40
0.34375
40
0.34375
40
0.375
40
0.375
40
0.4375
40
0.4375
40
0.46875
40
0.46875
40
0.500000000000001
40
0.500000000000001
40
0.625000000000001
40
0.625000000000001
40
0.687500000000001
40
0.718750000000001
40
0.718750000000001
40
0.750000000000001
40
0.750000000000001
40
0.875000000000001
40
0.875000000000001
40
0.9375
40
0.9375
40
0.96875
40
0.96875
40
1
40
1
40
1
40
1
41
1
10
11.4012769662456
20
0.289672170390958
30
0
41
1
10
11.4012679916479
20
0.211817725899152
30
0
41
1
10
11.4012582529834
20
0.133779486697136
30
0
41
1
10
11.4012426757468
20
0.0164469196550954
30
0
41
1
10
11.4012373169867
20
-0.0227375389137876
30
0
41
1
10
11.4012263693981
20
-0.100714782900013
30
0
41
1
10
11.4012207731182
20
-0.139565536633285
30
0
41
1
10
11.4011922476928
20
-0.333140665494966
30
0
41
1
10
11.4011677220741
20
-0.485843288759042
30
0
41
1
10
11.4011292335133
20
-0.711690961089488
30
0
41
1
10
11.4011161136504
20
-0.786436381382316
30
0
41
1
10
11.4010960447203
20
-0.897726613728082
30
0
41
1
10
11.4010892815941
20
-0.9347278614662
30
0
41
1
10
11.4010757306205
20
-1.00789704849208
30
0
41
1
10
11.4010689316115
20
-1.0441280814197
30
0
41
1
10
11.4010484680488
20
-1.15176875427241
30
0
41
1
10
11.4010347385661
20
-1.22212782455443
30
0
41
1
10
11.4010140005936
20
-1.32556346256385
30
0
41
1
10
11.4010070635774
20
-1.35969105013444
30
0
41
1
10
11.4009931337312
20
-1.42723849604877
30
0
41
1
10
11.4009861322959
20
-1.46069715963316
30
0
41
1
10
11.400951222448
20
-1.62497550222719
30
0
41
1
10
11.4009234448488
20
-1.74772522283467
30
0
41
1
10
11.4008812320812
20
-1.9192416522254
30
0
41
1
10
11.4008599821867
20
-2.00183081723455
30
0
41
1
10
11.4008383016958
20
-2.07958890975147
30
0
41
1
10
11.4008237226269
20
-2.13033444651683
30
0
41
1
10
11.4008163570876
20
-2.15520245436949
30
0
41
1
10
11.4007794723731
20
-2.27568395188791
30
0
41
1
10
11.4007495848767
20
-2.36057153239221
30
0
41
1
10
11.4007026941227
20
-2.47120102100237
30
0
41
1
10
11.4006867183682
20
-2.50527881734013
30
0
41
1
10
11.4006620207109
20
-2.55213122658114
30
0
41
1
10
11.4006536655656
20
-2.56703705079789
30
0
41
1
10
11.400636670504
20
-2.59540260344258
30
0
41
1
10
11.4006280208383
20
-2.60887487481176
30
0
41
1
10
11.400619248685
20
-2.62155210260781
30
0
0
SPLINE
5
E8
100
AcDbEntity
8
1
62
256
6
ByLayer
370
18
48
1
60
0
100
AcDbSpline
70
4
71
3
72
12
73
8
40
0
40
0
40
0
40
0
40
0.640820146912547
40
0.640820146912547
40
0.961230220368821
40
0.961230220368821
40
1
40
1
40
1
40
1
41
1
10
11.4006192486849
20
-2.62155210260781
30
0
41
1
10
11.7689133575651
20
-2.68604809995975
30
0
41
1
10
12.1347504954457
20
-2.7300659603232
30
0
41
1
10
12.6824445999704
20
-2.76534475201126
30
0
41
1
10
12.8648487791255
20
-2.77202118172266
30
0
41
1
10
13.0694837003773
20
-2.77394949861363
30
0
41
1
10
13.091573552708
20
-2.77408163099767
30
0
41
1
10
13.1136653647002
20
-2.77413788741353
30
0
0
SPLINE
5
E9
100
AcDbEntity
8
1
62
256
6
ByLayer
370
18
48
1
60
0
100
AcDbSpline
70
4
71
3
72
36
73
32
40
0
40
0
40
0
40
0
40
0.3289003109708
40
0.3289003109708
40
0.553116475029806
40
0.553116475029806
40
0.702525269245442
40
0.702525269245442
40
0.802141366221271
40
0.802141366221271
40
0.868602411649723
40
0.868602411649723
40
0.912877088550178
40
0.912877088550178
40
0.942356582481713
40
0.942356582481713
40
0.962115899050986
40
0.962115899050986
40
0.975400633392307
40
0.975400633392307
40
0.9841165732183
40
0.9841165732183
40
0.989765745556784
40
0.989765745556784
40
0.993489860755575
40
0.993489860755575
40
0.996717806324521
40
0.996717806324521
40
0.99870543951366
40
0.99870543951366
40
1
40
1
40
1
40
1
41
1
10
28.8684798893122
20
-2.94985443876891
30
0
41
1
10
28.8766927871117
20
-2.93650148277294
30
0
41
1
10
28.8849095442199
20
-2.92311112457364
30
0
41
1
10
28.8987364069546
20
-2.90052524511106
30
0
41
1
10
28.9043438423274
20
-2.89135096946467
30
0
41
1
10
28.9136925702548
20
-2.87603105326269
30
0
41
1
10
28.917432909051
20
-2.86989487422005
30
0
41
1
10
28.9236622803129
20
-2.85966795347113
30
0
41
1
10
28.9261527676462
20
-2.85557735057751
30
0
41
1
10
28.9303002547839
20
-2.84876292346186
30
0
41
1
10
28.9319594048713
20
-2.84603599862635
30
0
41
1
10
28.9347325967239
20
-2.84147186648016
30
0
41
1
10
28.9358443452329
20
-2.83964020423915
30
0
41
1
10
28.9377002826635
20
-2.83657967847938
30
0
41
1
10
28.9384422154732
20
-2.83535597940587
30
0
41
1
10
28.9396709572583
20
-2.83333387936568
30
0
41
1
10
28.9401605947871
20
-2.83252963982559
30
0
41
1
10
28.940972104688
20
-2.83119963638109
30
0
41
1
10
28.9412987444749
20
-2.83066419909838
30
0
41
1
10
28.9418515631834
20
-2.82975222194918
30
0
41
1
10
28.9420736841611
20
-2.8293843631532
30
0
41
1
10
28.942444446277
20
-2.82876754911698
30
0
41
1
10
28.9425919080127
20
-2.82852128005905
30
0
41
1
10
28.9428357632534
20
-2.82811446602395
30
0
41
1
10
28.942932477616
20
-2.82795326948821
30
0
41
1
10
28.9431098764307
20
-2.82765916520998
30
0
41
1
10
28.9431915590889
20
-2.8275243227572
30
0
41
1
10
28.9433154937845
20
-2.82732270904987
30
0
41
1
10
28.9433613974005
20
-2.82724878110145
30
0
41
1
10
28.9434268102259
20
-2.82714639900817
30
0
41
1
10
28.9434502196667
20
-2.82711070289244
30
0
41
1
10
28.9434675147432
20
-2.82708604957935
30
0
0
SPLINE
5
EA
100
AcDbEntity
8
1
62
256
6
ByLayer
370
18
48
1
60
0
100
AcDbSpline
70
4
71
3
72
69
73
65
40
0
40
0
40
0
40
0
40
0.0708644433277572
40
0.0708644433277572
40
0.0887324348022239
40
0.0887324348022239
40
0.106600426276691
40
0.106600426276691
40
0.124468417751157
40
0.124468417751157
40
0.142336409225624
40
0.178072392174557
40
0.178072392174557
40
0.195940383649023
40
0.195940383649023
40
0.21380837512349
40
0.21380837512349
40
0.249544358072422
40
0.249544358072422
40
0.285280341021354
40
0.285280341021354
40
0.321016323970287
40
0.321016323970287
40
0.356752306919219
40
0.356752306919219
40
0.392488289868151
40
0.392488289868151
40
0.428224272817083
40
0.428224272817083
40
0.463960255766016
40
0.463960255766016
40
0.499696238714948
40
0.499696238714948
40
0.535432221663881
40
0.535432221663881
40
0.553300213138347
40
0.553300213138347
40
0.571168204612813
40
0.571168204612813
40
0.606904187561746
40
0.606904187561746
40
0.624772179036213
40
0.624772179036213
40
0.642640170510679
40
0.642640170510679
40
0.714112136408544
40
0.714112136408544
40
0.749848119357477
40
0.749848119357477
40
0.767716110831943
40
0.767716110831943
40
0.785584102306409
40
0.785584102306409
40
0.821320085255341
40
0.821320085255341
40
0.857056068204274
40
0.857056068204274
40
0.87492405967874
40
0.87492405967874
40
0.892792051153206
40
0.892792051153206
40
0.928528034102137
40
0.928528034102137
40
1
40
1
40
1
40
1
41
1
10
26.72645781508
20
-2.5995400643082
30
0
41
1
10
26.3614744742049
20
-2.52144038237421
30
0
41
1
10
25.99745973939
20
-2.42469632205788
30
0
41
1
10
25.5407063983813
20
-2.28183793929347
30
0
41
1
10
25.4486534147832
20
-2.25195969791881
30
0
41
1
10
25.2646359228219
20
-2.19009791791947
30
0
41
1
10
25.1726524848956
20
-2.15810936951934
30
0
41
1
10
24.9886722438347
20
-2.09209141561482
30
0
41
1
10
24.8966482340458
20
-2.05805433702525
30
0
41
1
10
24.7126557401204
20
-1.98805805569126
30
0
41
1
10
24.436853847066
20
-1.88021461070392
30
0
41
1
10
24.1613395586851
20
-1.76441955247702
30
0
41
1
10
23.8856438649176
20
-1.64391816273576
30
0
41
1
10
23.7937167345975
20
-1.60296618961615
30
0
41
1
10
23.6097403273498
20
-1.51957781644066
30
0
41
1
10
23.5176906177233
20
-1.47714412734868
30
0
41
1
10
23.2418156762344
20
-1.34796077918764
30
0
41
1
10
23.0580966173296
20
-1.25921771176249
30
0
41
1
10
22.6905626752196
20
-1.07729752414059
30
0
41
1
10
22.5067035136309
20
-0.984125883060557
30
0
41
1
10
22.1385625152442
20
-0.794277097202269
30
0
41
1
10
21.9544930501388
20
-0.697697054157459
30
0
41
1
10
21.5863493874089
20
-0.502294771206493
30
0
41
1
10
21.4022610824292
20
-0.403467976233799
30
0
41
1
10
21.0341947756598
20
-0.204719240764774
30
0
41
1
10
20.8500585896045
20
-0.104700937954419
30
0
41
1
10
20.4826494473738
20
0.0949363903164908
30
0
41
1
10
20.2992385381583
20
0.194613274961029
30
0
41
1
10
19.9325166174806
20
0.392807128652805
30
0
41
1
10
19.7492117784285
20
0.491338094847691
30
0
41
1
10
19.3822427206023
20
0.686399550362552
30
0
41
1
10
19.1985379049553
20
0.782937233671845
30
0
41
1
10
18.8304504589662
20
0.973077887445385
30
0
41
1
10
18.6466220883165
20
1.06640779498554
30
0
41
1
10
18.3708277085186
20
1.20314889875405
30
0
41
1
10
18.2788876460485
20
1.24819088318992
30
0
41
1
10
18.0949214522263
20
1.33707530795991
30
0
41
1
10
18.0028855360217
20
1.38092319645182
30
0
41
1
10
17.7268215335782
20
1.51045700462618
30
0
41
1
10
17.5427587465437
20
1.59415291766896
30
0
41
1
10
17.2667473591648
20
1.71495847504755
30
0
41
1
10
17.1747518229987
20
1.75444396689707
30
0
41
1
10
16.9907125771176
20
1.8317383969584
30
0
41
1
10
16.8986873947671
20
1.86954214660395
30
0
41
1
10
16.4392114173645
20
2.05393263996362
30
0
41
1
10
16.0730027982625
20
2.18687487388266
30
0
41
1
10
15.5231006011398
20
2.36053728439231
30
0
41
1
10
15.339701705511
20
2.41416937163666
30
0
41
1
10
15.0640893582677
20
2.48784064237185
30
0
41
1
10
14.9720781950122
20
2.51128339244485
30
0
41
1
10
14.7880787793737
20
2.55575235513265
30
0
41
1
10
14.6961736338185
20
2.57676654266928
30
0
41
1
10
14.4206597669009
20
2.63615874714364
30
0
41
1
10
14.2372511136259
20
2.67086487426229
30
0
41
1
10
13.8705098898872
20
2.73008352875209
30
0
41
1
10
13.6871734906279
20
2.75452846926294
30
0
41
1
10
13.4118559569783
20
2.78344602184248
30
0
41
1
10
13.3200320676446
20
2.79179640120481
30
0
41
1
10
13.1362198905543
20
2.80589828083794
30
0
41
1
10
13.0441647880647
20
2.81165183692201
30
0
41
1
10
12.7682924444082
20
2.82496134189139
30
0
41
1
10
12.5847239770492
20
2.82855360460715
30
0
41
1
10
12.0343945429284
20
2.82373540601844
30
0
41
1
10
11.6680001256113
20
2.79980433731018
30
0
41
1
10
11.300303785733
20
2.75508590926933
30
0
0
SPLINE
5
EB
100
AcDbEntity
8
1
62
256
6
ByLayer
370
18
48
1
60
0
100
AcDbSpline
70
4
71
3
72
18
73
14
40
0
40
0
40
0
40
0
40
0.0370725874767484
40
0.0370725874767484
40
0.197560489563956
40
0.197560489563956
40
0.358048391651164
40
0.358048391651164
40
0.518536293738372
40
0.518536293738372
40
0.67902419582558
40
0.67902419582558
40
1
40
1
40
1
40
1
41
1
10
14.7455614490545
20
-2.77892557464861
30
0
41
1
10
14.7032846866357
20
-2.78625600895518
30
0
41
1
10
14.6609961368248
20
-2.79331291830619
30
0
41
1
10
14.4359486591043
20
-2.82939281882963
30
0
41
1
10
14.2538371390807
20
-2.85339709143065
30
0
41
1
10
13.8904625881899
20
-2.89077499913191
30
0
41
1
10
13.7092032200818
20
-2.90415492760238
30
0
41
1
10
13.3471447062505
20
-2.9203333484987
30
0
41
1
10
13.1663303114979
20
-2.92312907728728
30
0
41
1
10
12.8047304914478
20
-2.91813927662739
30
0
41
1
10
12.6239608204365
20
-2.91034583320012
30
0
41
1
10
12.0807911075014
20
-2.87113343372957
30
0
41
1
10
11.7175179472411
20
-2.82393388780469
30
0
41
1
10
11.3514136769143
20
-2.75578426946063
30
0
0
SPLINE
5
EC
100
AcDbEntity
8
1
62
256
6
ByLayer
370
18
48
1
60
0
100
AcDbSpline
70
4
71
3
72
16
73
12
40
0
40
0
40
0
40
0
40
0.249999999999895
40
0.249999999999895
40
0.374999999999914
40
0.374999999999914
40
0.499999999999933
40
0.499999999999933
40
0.749999999999966
40
0.749999999999966
40
1
40
1
40
1
40
1
41
1
10
11.3514136769142
20
-2.75578426946063
30
0
41
1
10
11.3436366559962
20
-2.75433659170764
30
0
41
1
10
11.336606306296
20
-2.75257714198762
30
0
41
1
10
11.3271487505201
20
-2.74946246220284
30
0
41
1
10
11.3241637432831
20
-2.74833539251819
30
0
41
1
10
11.3187276752545
20
-2.74597381676585
30
0
41
1
10
11.3162592818519
20
-2.74473548441605
30
0
41
1
10
11.3095905023174
20
-2.7408456141828
30
0
41
1
10
11.3061007630643
20
-2.73797842868657
30
0
41
1
10
11.3014916421073
20
-2.73204701817627
30
0
41
1
10
11.3003037857396
20
-2.72894079269747
30
0
41
1
10
11.3003037857395
20
-2.72575641242923
30
0
0
SPLINE
5
ED
100
AcDbEntity
8
1
62
256
6
ByLayer
370
18
48
1
60
0
100
AcDbSpline
70
4
71
3
72
28
73
24
40
0
40
0
40
0
40
0
40
0.125000000000057
40
0.125000000000057
40
0.187500000000098
40
0.187500000000098
40
0.250000000000139
40
0.250000000000139
40
0.375000000000222
40
0.375000000000222
40
0.437500000000264
40
0.437500000000264
40
0.500000000000305
40
0.500000000000305
40
0.625000000000301
40
0.625000000000301
40
0.68750000000025
40
0.68750000000025
40
0.7500000000002
40
0.7500000000002
40
0.8750000000001
40
0.8750000000001
40
1
40
1
40
1
40
1
41
1
10
11.3003037857396
20
0.21520097162454
30
0
41
1
10
11.3003037857396
20
0.223954949576012
30
0
41
1
10
11.3014389287493
20
0.232513304510405
30
0
41
1
10
11.3047948349055
20
0.245066395558382
30
0
41
1
10
11.3062063535635
20
0.249230641650968
30
0
41
1
10
11.3095290765197
20
0.257252432012564
30
0
41
1
10
11.3114398667824
20
0.261124987438137
30
0
41
1
10
11.3179062983574
20
0.272335919204551
30
0
41
1
10
11.3232844224712
20
0.279353149608966
30
0
41
1
10
11.3324539137537
20
0.288531235972755
30
0
41
1
10
11.335697426096
20
0.291381201338083
30
0
41
1
10
11.3425591240872
20
0.29666198005819
30
0
41
1
10
11.3462038172474
20
0.299107434836827
30
0
41
1
10
11.3575264449157
20
0.305668401453886
30
0
41
1
10
11.3655070928529
20
0.308996635291379
30
0
41
1
10
11.3781229134564
20
0.312430448859914
30
0
41
1
10
11.3824408103019
20
0.313307105973649
30
0
41
1
10
11.3910438235692
20
0.31447946016425
30
0
41
1
10
11.3953602938599
20
0.314785131703132
30
0
41
1
10
11.4083542785875
20
0.314866632780223
30
0
41
1
10
11.4171565478542
20
0.313772718053741
30
0
41
1
10
11.4339104589103
20
0.309432501676582
30
0
41
1
10
11.4420396410424
20
0.306168879854198
30
0
41
1
10
11.4496732121624
20
0.301859944833353
30
0
0
SPLINE
5
EE
100
AcDbEntity
8
1
62
256
6
ByLayer
370
18
48
1
60
0
100
AcDbSpline
70
4
71
3
72
126
73
122
40
0
40
0
40
0
40
0
40
0.0161738226013716
40
0.0161738226013716
40
0.0352018700175439
40
0.0352018700175439
40
0.0447158937256305
40
0.0447158937256305
40
0.054229917433717
40
0.054229917433717
40
0.0732579648498893
40
0.0732579648498893
40
0.0922860122660616
40
0.0922860122660616
40
0.111314059682234
40
0.111314059682234
40
0.130342107098406
40
0.130342107098406
40
0.139856130806492
40
0.139856130806492
40
0.149370154514578
40
0.149370154514578
40
0.16839820193075
40
0.16839820193075
40
0.187426249346922
40
0.187426249346922
40
0.206454296763095
40
0.206454296763095
40
0.215968320471181
40
0.215968320471181
40
0.225482344179267
40
0.225482344179267
40
0.244510391595439
40
0.244510391595439
40
0.26353843901161
40
0.26353843901161
40
0.282566486427782
40
0.282566486427782
40
0.301594533843953
40
0.301594533843953
40
0.311108557552039
40
0.311108557552039
40
0.320622581260125
40
0.320622581260125
40
0.339650628676296
40
0.339650628676296
40
0.358678676092468
40
0.358678676092468
40
0.377706723508639
40
0.377706723508639
40
0.387220747216726
40
0.387220747216726
40
0.396734770924812
40
0.396734770924812
40
0.415762818340984
40
0.415762818340984
40
0.434790865757156
40
0.434790865757156
40
0.453818913173329
40
0.453818913173329
40
0.472846960589501
40
0.472846960589501
40
0.482360984297587
40
0.482360984297587
40
0.491875008005673
40
0.491875008005673
40
0.510903055421844
40
0.510903055421844
40
0.529931102838016
40
0.529931102838016
40
0.548959150254188
40
0.548959150254188
40
0.558473173962274
40
0.558473173962274
40
0.56798719767036
40
0.56798719767036
40
0.587015245086532
40
0.587015245086532
40
0.606043292502705
40
0.606043292502705
40
0.625071339918877
40
0.625071339918877
40
0.644099387335049
40
0.644099387335049
40
0.663127434751222
40
0.663127434751222
40
0.682155482167394
40
0.682155482167394
40
0.701183529583566
40
0.701183529583566
40
0.720211576999739
40
0.720211576999739
40
0.739239624415911
40
0.739239624415911
40
0.758267671832083
40
0.758267671832083
40
0.777295719248256
40
0.777295719248256
40
0.796323766664428
40
0.796323766664428
40
0.815351814080601
40
0.815351814080601
40
0.834379861496773
40
0.834379861496773
40
0.853407908912945
40
0.853407908912945
40
0.872435956329118
40
0.872435956329118
40
0.89146400374529
40
0.89146400374529
40
0.910492051161462
40
0.910492051161462
40
0.929520098577635
40
0.929520098577635
40
0.948548145993807
40
0.948548145993807
40
0.967576193409979
40
0.967576193409979
40
0.986604240826152
40
0.986604240826152
40
1
40
1
40
1
40
1
41
1
10
24.9773378016744
20
-2.08891830850763
30
0
41
1
10
24.8678443372537
20
-2.13250541557235
30
0
41
1
10
24.7583463680211
20
-2.17465449243449
30
0
41
1
10
24.5199538729684
20
-2.26319172903504
30
0
41
1
10
24.3911152720384
20
-2.30909248584388
30
0
41
1
10
24.1976655745939
20
-2.37472779284621
30
0
41
1
10
24.1331413872598
20
-2.39606113971436
30
0
41
1
10
24.003989421069
20
-2.43761367100015
30
0
41
1
10
23.9393382831771
20
-2.45783977127684
30
0
41
1
10
23.745570905684
20
-2.51670106350787
30
0
41
1
10
23.6165173617051
20
-2.55353753181757
30
0
41
1
10
23.3586486203152
20
-2.62242872709987
30
0
41
1
10
23.2298885673551
20
-2.65452163110567
30
0
41
1
10
22.9722895730762
20
-2.71365953800463
30
0
41
1
10
22.8434593954375
20
-2.74071611338877
30
0
41
1
10
22.5855690226479
20
-2.78970461014919
30
0
41
1
10
22.4564852615821
20
-2.81162727370315
30
0
41
1
10
22.2627071945223
20
-2.84065632434235
30
0
41
1
10
22.1980614289295
20
-2.84969232080945
30
0
41
1
10
22.0688964354243
20
-2.86641142701728
30
0
41
1
10
22.0043542016484
20
-2.87409678412828
30
0
41
1
10
21.8107987328885
20
-2.89512287037897
30
0
41
1
10
21.6818644375849
20
-2.90643682320919
30
0
41
1
10
21.4240283624092
20
-2.92365583111618
30
0
41
1
10
21.2951241002926
20
-2.92956552957762
30
0
41
1
10
21.0374081522867
20
-2.93597483015421
30
0
41
1
10
20.9085370503618
20
-2.9364606535097
30
0
41
1
10
20.7149624878825
20
-2.93309798187582
30
0
41
1
10
20.650398306396
20
-2.93129582008126
30
0
41
1
10
20.5211698145488
20
-2.92632899443706
30
0
41
1
10
20.4564731137708
20
-2.92316224470403
30
0
41
1
10
20.2625314303822
20
-2.91163919876829
30
0
41
1
10
20.1334290777735
20
-2.90125655714783
30
0
41
1
10
19.8755361581815
20
-2.87511168131957
30
0
41
1
10
19.7466736262832
20
-2.8593683477412
30
0
41
1
10
19.488877546303
20
-2.82266098698523
30
0
41
1
10
19.3599459219186
20
-2.80169877768987
30
0
41
1
10
19.101902742682
20
-2.75462381973571
30
0
41
1
10
18.9728594581763
20
-2.72846932399145
30
0
41
1
10
18.7790719127671
20
-2.68538668710161
30
0
41
1
10
18.7143943903371
20
-2.67038442899476
30
0
41
1
10
18.5851142382784
20
-2.63917794730207
30
0
41
1
10
18.5205118601169
20
-2.62297384527915
30
0
41
1
10
18.3267857051326
20
-2.57259457772574
30
0
41
1
10
18.1977240499906
20
-2.53667050378363
30
0
41
1
10
17.9397489811774
20
-2.4602012802352
30
0
41
1
10
17.8109014587791
20
-2.4195878397567
30
0
41
1
10
17.5530732501534
20
-2.33399311568709
30
0
41
1
10
17.4240911016836
20
-2.28901785100132
30
0
41
1
10
17.2303906185283
20
-2.21842852789308
30
0
41
1
10
17.165784223532
20
-2.19437970192601
30
0
41
1
10
17.0364808576173
20
-2.1452558844766
30
0
41
1
10
16.9717544880546
20
-2.12016549666629
30
0
41
1
10
16.7777356590065
20
-2.04340256494089
30
0
41
1
10
16.6486522804829
20
-1.99025235104557
30
0
41
1
10
16.3905664395703
20
-1.88059568839904
30
0
41
1
10
16.2615889289848
20
-1.8240594391057
30
0
41
1
10
16.0035941787787
20
-1.70782928314654
30
0
41
1
10
15.8745658101415
20
-1.64815457888577
30
0
41
1
10
15.6165370181801
20
-1.52553865414348
30
0
41
1
10
15.4874849031828
20
-1.46266892407013
30
0
41
1
10
15.2935791393111
20
-1.36642818963389
30
0
41
1
10
15.2288663288214
20
-1.33400173649875
30
0
41
1
10
15.0994665349709
20
-1.2685914329661
30
0
41
1
10
15.0348052962175
20
-1.23562152254678
30
0
41
1
10
14.8409064183511
20
-1.13597190227765
30
0
41
1
10
14.7117847432877
20
-1.06850222875141
30
0
41
1
10
14.4538025193268
20
-0.931533548283426
30
0
41
1
10
14.3248669517906
20
-0.862158876826896
30
0
41
1
10
14.0668456549282
20
-0.722078626659567
30
0
41
1
10
13.9377670325082
20
-0.651361720046907
30
0
41
1
10
13.7439524612733
20
-0.544436203075747
30
0
41
1
10
13.6793203761379
20
-0.508642998691897
30
0
41
1
10
13.5500205418954
20
-0.436717988877518
30
0
41
1
10
13.4853256590851
20
-0.400577725350388
30
0
41
1
10
13.2912512345137
20
-0.291924369389477
30
0
41
1
10
13.1620295997678
20
-0.219313353599688
30
0
41
1
10
12.9037213923921
20
-0.0740741717369247
30
0
41
1
10
12.774620538992
20
-0.0014714426584419
30
0
41
1
10
12.5164816310938
20
0.143623329957478
30
0
41
1
10
12.3875160921472
20
0.216244475141593
30
0
41
1
10
12.1293986531553
20
0.36093047171579
30
0
41
1
10
12.0002351173162
20
0.432974828938285
30
0
41
1
10
11.7415327970333
20
0.576171939882215
30
0
41
1
10
11.6118944629959
20
0.647320218767703
30
0
41
1
10
11.3532572274003
20
0.788174559089754
30
0
41
1
10
11.2241734519373
20
0.857994035929408
30
0
41
1
10
10.9660150745235
20
0.995629679084345
30
0
41
1
10
10.8369638501978
20
1.06348795367262
30
0
41
1
10
10.5787489060064
20
1.19701496971282
30
0
41
1
10
10.4495684385047
20
1.26265837474864
30
0
41
1
10
10.1911675467127
20
1.39186445876194
30
0
41
1
10
10.0618857142133
20
1.45536130782744
30
0
41
1
10
9.80287961463148
20
1.57947124798147
30
0
41
1
10
9.67353810856883
20
1.63995621598698
30
0
41
1
10
9.41500478739155
20
1.75756719270123
30
0
41
1
10
9.28583745701013
20
1.81473158414116
30
0
41
1
10
9.02770827170013
20
1.92577865206059
30
0
41
1
10
8.89866973752666
20
1.97955177402551
30
0
41
1
10
8.64036371734525
20
2.08323129280896
30
0
41
1
10
8.51110733308076
20
2.13315411038181
30
0
41
1
10
8.25225326699845
20
2.22899605812827
30
0
41
1
10
8.12261962350107
20
2.27502256155123
30
0
41
1
10
7.86393116805814
20
2.36263723114448
30
0
41
1
10
7.73471409445875
20
2.40419051227329
30
0
41
1
10
7.47633871001358
20
2.4826325646427
30
0
41
1
10
7.34716883145913
20
2.51951274322991
30
0
41
1
10
7.08881113264363
20
2.58856033074855
30
0
41
1
10
6.95969995112921
20
2.62078741829711
30
0
41
1
10
6.70123435783515
20
2.68030557024218
30
0
41
1
10
6.5718595854118
20
2.7075856457628
30
0
41
1
10
6.31266179337919
20
2.75706629861355
30
0
41
1
10
6.18321306406261
20
2.77918351575752
30
0
41
1
10
5.92476140783589
20
2.81818208862839
30
0
41
1
10
5.79575405189175
20
2.83507594959949
30
0
41
1
10
5.53789253336475
20
2.86354811153359
30
0
41
1
10
5.40903340978502
20
2.87512705908651
30
0
41
1
10
5.15128363254141
20
2.89294259391295
30
0
41
1
10
5.0223934333288
20
2.89918295803744
30
0
41
1
10
4.80273031549194
20
2.90524535376912
30
0
41
1
10
4.71194993843861
20
2.90641441357246
30
0
41
1
10
4.62107203149867
20
2.90624446873284
30
0
0
SPLINE
5
EF
100
AcDbEntity
8
1
62
256
6
ByLayer
370
18
48
1
60
0
100
AcDbSpline
70
4
71
3
72
16
73
12
40
0
40
0
40
0
40
0
40
0.143835630418317
40
0.143835630418317
40
0.357876722813743
40
0.357876722813743
40
0.464897269011452
40
0.464897269011452
40
0.571917815209162
40
0.571917815209162
40
1
40
1
40
1
40
1
41
1
10
8.51721002534407
20
2.12847458345348
30
0
41
1
10
8.65082088687043
20
2.17977915507134
30
0
41
1
10
8.78426457832992
20
2.22892770015633
30
0
41
1
10
9.11612244271447
20
2.34557644540035
30
0
41
1
10
9.31446001522917
20
2.41032442526563
30
0
41
1
10
9.61218349120426
20
2.4994654020949
30
0
41
1
10
9.71145995057691
20
2.52784930091835
30
0
41
1
10
9.91017314739273
20
2.58186492365121
30
0
41
1
10
10.009643743568
20
2.60750703515785
30
0
41
1
10
10.507204133673
20
2.72854588007058
30
0
41
1
10
10.9034196750771
20
2.80184912505126
30
0
41
1
10
11.3003037857396
20
2.85033773765784
30
0
0
SPLINE
5
F0
100
AcDbEntity
8
1
62
256
6
ByLayer
370
18
48
1
60
0
100
AcDbSpline
70
4
71
3
72
83
73
79
40
0
40
0
40
0
40
0
40
0.0156250000000005
40
0.0156250000000005
40
0.031250000000001
40
0.031250000000001
40
0.0625000000000019
40
0.0625000000000019
40
0.0937500000000029
40
0.0937500000000029
40
0.109375000000003
40
0.109375000000003
40
0.125000000000004
40
0.125000000000004
40
0.156250000000005
40
0.156250000000005
40
0.187500000000006
40
0.187500000000006
40
0.218750000000007
40
0.218750000000007
40
0.234375000000007
40
0.234375000000007
40
0.250000000000008
40
0.250000000000008
40
0.312500000000011
40
0.312500000000011
40
0.328125000000012
40
0.328125000000012
40
0.343750000000012
40
0.375000000000012
40
0.375000000000012
40
0.406250000000012
40
0.406250000000012
40
0.437500000000013
40
0.437500000000013
40
0.453125000000013
40
0.453125000000013
40
0.468750000000013
40
0.468750000000013
40
0.500000000000013
40
0.531250000000013
40
0.531250000000013
40
0.546875000000013
40
0.546875000000013
40
0.562500000000013
40
0.625000000000014
40
0.625000000000014
40
0.640625000000014
40
0.640625000000014
40
0.656250000000014
40
0.687500000000012
40
0.687500000000012
40
0.718750000000011
40
0.718750000000011
40
0.75000000000001
40
0.75000000000001
40
0.781250000000008
40
0.781250000000008
40
0.796875000000008
40
0.796875000000008
40
0.812500000000007
40
0.828125000000007
40
0.828125000000007
40
0.843750000000006
40
0.843750000000006
40
0.875000000000004
40
0.875000000000004
40
0.906250000000002
40
0.906250000000002
40
0.921875000000002
40
0.921875000000002
40
0.937500000000001
40
0.937500000000001
40
0.96875
40
0.96875
40
0.984375
40
0.984375
40
1
40
1
40
1
40
1
41
1
10
11.3003037857396
20
2.83739683984976
30
0
41
1
10
11.3920325508538
20
2.84956065420755
30
0
41
1
10
11.4837480752208
20
2.86040548482043
30
0
41
1
10
11.6672054460694
20
2.87943741034928
30
0
41
1
10
11.7589828386326
20
2.88762676128462
30
0
41
1
10
12.0341110434073
20
2.90815179248761
30
0
41
1
10
12.2172648470852
20
2.91645095264204
30
0
41
1
10
12.5835101490064
20
2.92222932794078
30
0
41
1
10
12.7666015817493
20
2.91970749066798
30
0
41
1
10
13.0415695836296
20
2.90777171382695
30
0
41
1
10
13.1332815446706
20
2.90243250821447
30
0
41
1
10
13.3165010889456
20
2.88906848004987
30
0
41
1
10
13.4080563409598
20
2.88104204842205
30
0
41
1
10
13.6826588979794
20
2.85296596565991
30
0
41
1
10
13.8656449658348
20
2.82891914428407
30
0
41
1
10
14.231980452
20
2.77038789838451
30
0
41
1
10
14.4154670469846
20
2.73586153989871
30
0
41
1
10
14.7818214524279
20
2.65688610607037
30
0
41
1
10
14.9648288190238
20
2.61242221631613
30
0
41
1
10
15.2394525471158
20
2.53855496146471
30
0
41
1
10
15.3310127890625
20
2.51273751983044
30
0
41
1
10
15.5142346705569
20
2.45876435394979
30
0
41
1
10
15.605943628631
20
2.4305931969181
30
0
41
1
10
16.0642252629123
20
2.28424605502755
30
0
41
1
10
16.4299077496808
20
2.14968512762019
30
0
41
1
10
16.8880514489082
20
1.96218802276147
30
0
41
1
10
16.9797433196489
20
1.92371964716622
30
0
41
1
10
17.1629160117161
20
1.84509383264813
30
0
41
1
10
17.4374999198984
20
1.72456531849963
30
0
41
1
10
17.7118419468002
20
1.59667039066494
30
0
41
1
10
18.0779321444674
20
1.42034190159876
30
0
41
1
10
18.2612839719084
20
1.3291948366379
30
0
41
1
10
18.6274024428865
20
1.14259215849208
30
0
41
1
10
18.8103015885555
20
1.0470850651003
30
0
41
1
10
19.0847572116234
20
0.901094777103822
30
0
41
1
10
19.1762595351218
20
0.851975181577444
30
0
41
1
10
19.3593566773753
20
0.75292027227519
30
0
41
1
10
19.4509977964928
20
0.70295949152063
30
0
41
1
10
19.7257759617212
20
0.552211895141369
30
0
41
1
10
20.0916148599193
20
0.348988967552799
30
0
41
1
10
20.4573990594638
20
0.143094524546058
30
0
41
1
10
20.7321018820251
20
-0.0116467688049511
30
0
41
1
10
20.8237517999351
20
-0.0632916184058274
30
0
41
1
10
21.0067831171434
20
-0.16633147783179
30
0
41
1
10
21.46396236602
20
-0.423458330526387
30
0
41
1
10
21.9198513196195
20
-0.676982551481103
30
0
41
1
10
22.3771227788523
20
-0.92337947823259
30
0
41
1
10
22.4686776771349
20
-0.97231837110354
30
0
41
1
10
22.651847829888
20
-1.06930101800154
30
0
41
1
10
22.9264593484886
20
-1.21330865555191
30
0
41
1
10
23.2009084832154
20
-1.35248208590085
30
0
41
1
10
23.5671608935299
20
-1.5329920967105
30
0
41
1
10
23.7499543054565
20
-1.62047345395936
30
0
41
1
10
24.1150942916485
20
-1.78902344421886
30
0
41
1
10
24.2974890072853
20
-1.87011407307375
30
0
41
1
10
24.6624532332256
20
-2.02519902493492
30
0
41
1
10
24.8450234723742
20
-2.09919252842803
30
0
41
1
10
25.1194002562332
20
-2.20433456731689
30
0
41
1
10
25.2109859305181
20
-2.23842114796395
30
0
41
1
10
25.3940313609792
20
-2.30443449510415
30
0
41
1
10
25.5770186487497
20
-2.36831464384289
30
0
41
1
10
25.7599930259027
20
-2.42782384681848
30
0
41
1
10
25.9430149132928
20
-2.48509048795969
30
0
41
1
10
26.0345940088354
20
-2.51261487797152
30
0
41
1
10
26.3091300568685
20
-2.59162829904963
30
0
41
1
10
26.4918174093288
20
-2.63954388823817
30
0
41
1
10
26.8570097178116
20
-2.7254968964881
30
0
41
1
10
27.0395152278227
20
-2.7635333594163
30
0
41
1
10
27.3135194942991
20
-2.81290869194345
30
0
41
1
10
27.4048953408742
20
-2.82808733261848
30
0
41
1
10
27.5877932126159
20
-2.85584164778197
30
0
41
1
10
27.6793423188366
20
-2.86841951834074
30
0
41
1
10
27.9537915049704
20
-2.90212920701509
30
0
41
1
10
28.1366471876603
20
-2.91926317420749
30
0
41
1
10
28.4111232908872
20
-2.93684970859837
30
0
41
1
10
28.5026541402211
20
-2.94135885723253
30
0
41
1
10
28.6855968455868
20
-2.9476497651292
30
0
41
1
10
28.7770382161819
20
-2.9494337507447
30
0
41
1
10
28.8684798893122
20
-2.94985443876891
30
0
0
SPLINE
5
F1
100
AcDbEntity
8
1
62
256
6
ByLayer
370
18
48
1
60
0
100
AcDbSpline
70
4
71
3
72
10
73
6
40
0
40
0
40
0
40
0
40
0.5
40
0.5
40
1
40
1
40
1
40
1
41
1
10
28.8496576813953
20
-2.9304572009687
30
0
41
1
10
28.8527861650367
20
-2.93663856823639
30
0
41
1
10
28.8559178425064
20
-2.94134994733383
30
0
41
1
10
28.8621947285815
20
-2.94782357998221
30
0
41
1
10
28.8653412942865
20
-2.94958188351728
30
0
41
1
10
28.8684798893122
20
-2.94985443876891
30
0
0
SPLINE
5
F2
100
AcDbEntity
8
1
62
256
6
ByLayer
370
18
48
1
60
0
100
AcDbSpline
70
4
71
3
72
12
73
8
40
0
40
0
40
0
40
0
40
0.5
40
0.5
40
0.75
40
0.75
40
1
40
1
40
1
40
1
41
1
10
28.8537764623301
20
-0.290053439380301
30
0
41
1
10
28.8603529444635
20
-0.226020595795433
30
0
41
1
10
28.8676200297925
20
-0.16163704709362
30
0
41
1
10
28.8797180392965
20
-0.0645362307439257
30
0
41
1
10
28.8839454801851
20
-0.0321289426759108
30
0
41
1
10
28.8927543077853
20
0.0323513232530672
30
0
41
1
10
28.8973429141531
20
0.0644832179693537
30
0
41
1
10
28.9021235662734
20
0.09650666299666
30
0
0
SPLINE
5
F3
100
AcDbEntity
8
1
62
256
6
ByLayer
370
18
48
1
60
0
100
AcDbSpline
70
4
71
3
72
56
73
52
40
0
40
0
40
0
40
0
40
0.0484683965666504
40
0.0484683965666504
40
0.0969367931333009
40
0.0969367931333009
40
0.145405189699951
40
0.145405189699951
40
0.169639387983275
40
0.169639387983275
40
0.193873586266598
40
0.193873586266598
40
0.24234198283324
40
0.24234198283324
40
0.290810379399883
40
0.290810379399883
40
0.339278775966526
40
0.339278775966526
40
0.387747172533168
40
0.387747172533168
40
0.41198137081649
40
0.41198137081649
40
0.436215569099811
40
0.436215569099811
40
0.484683965666456
40
0.484683965666456
40
0.5331523622331
40
0.5331523622331
40
0.581620758799745
40
0.581620758799745
40
0.605854957083066
40
0.605854957083066
40
0.630089155366388
40
0.630089155366388
40
0.67855755193303
40
0.67855755193303
40
0.727025948499673
40
0.727025948499673
40
0.775494345066316
40
0.775494345066316
40
0.823962741632958
40
0.823962741632958
40
0.848196939916279
40
0.848196939916279
40
0.872431138199599
40
0.872431138199599
40
0.92089953476624
40
0.92089953476624
40
0.96936793133288
40
0.96936793133288
40
1
40
1
40
1
40
1
41
1
10
28.9021235662715
20
0.0965066629833018
30
0
41
1
10
28.7732160693663
20
0.169716572538647
30
0
41
1
10
28.6445133825241
20
0.242902103299031
30
0
41
1
10
28.3870860227054
20
0.388462173324598
30
0
41
1
10
28.2583786449443
20
0.46086794586509
30
0
41
1
10
28.0008058149345
20
0.604635366334833
30
0
41
1
10
27.8719208931409
20
0.675963904270787
30
0
41
1
10
27.6785038370262
20
0.782220750978041
30
0
41
1
10
27.6140133367197
20
0.817511269076789
30
0
41
1
10
27.4849357150673
20
0.887730764872202
30
0
41
1
10
27.4203379623927
20
0.922657730583779
30
0
41
1
10
27.2267449788394
20
1.02660126839675
30
0
41
1
10
27.0978237478706
20
1.0948584954923
30
0
41
1
10
26.8400870196172
20
1.22902945566528
30
0
41
1
10
26.7112814822415
20
1.29496144121231
30
0
41
1
10
26.4538206522112
20
1.42455144971916
30
0
41
1
10
26.3251003358242
20
1.48810407249618
30
0
41
1
10
26.0673828151043
20
1.61226733629724
30
0
41
1
10
25.9384006114975
20
1.67290206113265
30
0
41
1
10
25.7446250001447
20
1.76150633154512
30
0
41
1
10
25.6799699565065
20
1.79066223007882
30
0
41
1
10
25.5508409787955
20
1.84810924489167
30
0
41
1
10
25.4863398719097
20
1.8764177768503
30
0
41
1
10
25.2929405187764
20
1.95997933215114
30
0
41
1
10
25.1641202710744
20
2.01383348531834
30
0
41
1
10
24.9064899132984
20
2.11758338832803
30
0
41
1
10
24.777675618845
20
2.16747574944119
30
0
41
1
10
24.5199538729684
20
2.26319172903504
30
0
41
1
10
24.3911152720384
20
2.30909248584388
30
0
41
1
10
24.1976655745939
20
2.37472779284621
30
0
41
1
10
24.1331413872598
20
2.39606113971436
30
0
41
1
10
24.0039894210691
20
2.43761367100015
30
0
41
1
10
23.9393382831771
20
2.45783977127684
30
0
41
1
10
23.7455709056841
20
2.51670106350787
30
0
41
1
10
23.6165173617051
20
2.55353753181757
30
0
41
1
10
23.3586486203151
20
2.6224287270999
30
0
41
1
10
23.229888567355
20
2.65452163110567
30
0
41
1
10
22.9722895730762
20
2.71365953800463
30
0
41
1
10
22.8434593954375
20
2.74071611338877
30
0
41
1
10
22.5855690226479
20
2.78970461014919
30
0
41
1
10
22.4564852615821
20
2.81162727370315
30
0
41
1
10
22.2627071945223
20
2.84065632434238
30
0
41
1
10
22.1980614289295
20
2.84969232080945
30
0
41
1
10
22.0688964354242
20
2.86641142701728
30
0
41
1
10
22.0043542016484
20
2.87409678412828
30
0
41
1
10
21.8107987328885
20
2.89512287037897
30
0
41
1
10
21.6818644375849
20
2.90643682320916
30
0
41
1
10
21.4240283624092
20
2.92365583111618
30
0
41
1
10
21.2951241002926
20
2.92956552957762
30
0
41
1
10
21.0848277749603
20
2.93479552162751
30
0
41
1
10
21.0033841800095
20
2.93573489567976
30
0
41
1
10
20.9218935685468
20
2.93558608625375
30
0
0
SPLINE
5
F4
100
AcDbEntity
8
1
62
256
6
ByLayer
370
18
48
1
60
0
100
AcDbSpline
70
4
71
3
72
30
73
26
40
0
40
0
40
0
40
0
40
0.0308370469890295
40
0.0308370469890295
40
0.118942769990026
40
0.118942769990026
40
0.207048492991024
40
0.207048492991024
40
0.295154215992022
40
0.295154215992022
40
0.383259938993019
40
0.383259938993019
40
0.471365661994016
40
0.471365661994016
40
0.559471384995013
40
0.559471384995013
40
0.647577107996011
40
0.647577107996011
40
0.735682830997009
40
0.735682830997009
40
0.823788553998006
40
0.823788553998006
40
0.911894276999003
40
0.911894276999003
40
1
40
1
40
1
40
1
41
1
10
8.51751904917697
20
-2.13002595052063
30
0
41
1
10
8.47225844772527
20
-2.14728512819499
30
0
41
1
10
8.42697982614979
20
-2.16430271950102
30
0
41
1
10
8.25225326699848
20
-2.22899605812827
30
0
41
1
10
8.12261962350107
20
-2.27502256155125
30
0
41
1
10
7.86393116805814
20
-2.36263723114448
30
0
41
1
10
7.73471409445875
20
-2.40419051227332
30
0
41
1
10
7.47633871001358
20
-2.4826325646427
30
0
41
1
10
7.34716883145916
20
-2.51951274322991
30
0
41
1
10
7.08881113264366
20
-2.58856033074855
30
0
41
1
10
6.95969995112918
20
-2.62078741829711
30
0
41
1
10
6.70123435783515
20
-2.68030557024218
30
0
41
1
10
6.5718595854118
20
-2.7075856457628
30
0
41
1
10
6.31266179337916
20
-2.75706629861355
30
0
41
1
10
6.18321306406258
20
-2.77918351575755
30
0
41
1
10
5.92476140783586
20
-2.81818208862839
30
0
41
1
10
5.79575405189172
20
-2.83507594959949
30
0
41
1
10
5.53789253336475
20
-2.86354811153359
30
0
41
1
10
5.409033409785
20
-2.87512705908651
30
0
41
1
10
5.15128363254144
20
-2.89294259391295
30
0
41
1
10
5.0223934333288
20
-2.89918295803744
30
0
41
1
10
4.76457298216252
20
-2.90629844295856
30
0
41
1
10
4.63560730085749
20
-2.90716137589433
30
0
41
1
10
4.37716352421
20
-2.90347806965795
30
0
41
1
10
4.24771463945578
20
-2.89893619216034
30
0
41
1
10
4.11796012426521
20
-2.8916982860294
30
0
0
SPLINE
5
F5
100
AcDbEntity
8
1
62
256
6
ByLayer
370
18
48
1
60
0
100
AcDbSpline
70
4
71
3
72
22
73
18
40
0
40
0
40
0
40
0
40
0.125000000000001
40
0.125000000000001
40
0.250000000000003
40
0.250000000000003
40
0.375000000000004
40
0.375000000000004
40
0.500000000000005
40
0.500000000000005
40
0.625000000000007
40
0.625000000000007
40
0.687500000000006
40
0.687500000000006
40
0.750000000000004
40
0.750000000000004
40
1
40
1
40
1
40
1
41
1
10
6.53326790312272
20
-1.23296604165404
30
0
41
1
10
6.73242601413651
20
-1.33411472041883
30
0
41
1
10
6.93112839809575
20
-1.43231509584294
30
0
41
1
10
7.32822674636716
20
-1.62192914755795
30
0
41
1
10
7.52658363971054
20
-1.71340072683125
30
0
41
1
10
7.92360541853469
20
-1.88863893853343
30
0
41
1
10
8.12232972041298
20
-1.97238274000045
30
0
41
1
10
8.52053889008747
20
-2.13126103487159
30
0
41
1
10
8.71916329290215
20
-2.20604445984796
30
0
41
1
10
9.1161224427145
20
-2.34557644540035
30
0
41
1
10
9.31446001522917
20
-2.41032442526563
30
0
41
1
10
9.61218349120423
20
-2.4994654020949
30
0
41
1
10
9.71145995057694
20
-2.52784930091835
30
0
41
1
10
9.91017314739273
20
-2.58186492365121
30
0
41
1
10
10.009643743568
20
-2.60750703515785
30
0
41
1
10
10.507204133673
20
-2.72854588007058
30
0
41
1
10
10.9034196750771
20
-2.80184912505123
30
0
41
1
10
11.3003037857396
20
-2.85033773765784
30
0
0
SPLINE
5
F6
100
AcDbEntity
8
1
62
256
6
ByLayer
370
18
48
1
60
0
100
AcDbSpline
70
4
71
3
72
14
73
10
40
0
40
0
40
0
40
0
40
0.223563568970142
40
0.223563568970142
40
0.447127137940284
40
0.447127137940284
40
0.894254275880568
40
0.894254275880568
40
1
40
1
40
1
40
1
41
1
10
11.3003037857396
20
-2.83739683984976
30
0
41
1
10
11.3920325508537
20
-2.84956065420755
30
0
41
1
10
11.4837480752208
20
-2.86040548482043
30
0
41
1
10
11.6672054460694
20
-2.87943741034928
30
0
41
1
10
11.7589828386326
20
-2.88762676128462
30
0
41
1
10
12.0341110434073
20
-2.90815179248761
30
0
41
1
10
12.2172648470852
20
-2.91645095264204
30
0
41
1
10
12.443696068887
20
-2.92002343417849
30
0
41
1
10
12.4870028936178
20
-2.92040407637393
30
0
41
1
10
12.5303113028822
20
-2.92048174514059
30
0
0
SPLINE
5
F7
100
AcDbEntity
8
1
62
256
6
ByLayer
370
18
48
1
60
0
100
AcDbSpline
70
4
71
3
72
18
73
14
40
0
40
0
40
0
40
0
40
0.200746071095345
40
0.200746071095345
40
0.333955059246118
40
0.333955059246118
40
0.467164047396891
40
0.467164047396891
40
0.733582023698438
40
0.733582023698438
40
0.866791011849218
40
0.866791011849218
40
1
40
1
40
1
40
1
41
1
10
26.8094304515068
20
2.7133982665936
30
0
41
1
10
26.9469947267139
20
2.74393776107027
30
0
41
1
10
27.0845431759213
20
2.77164735683311
30
0
41
1
10
27.3135194942991
20
2.81290869194345
30
0
41
1
10
27.4048953408742
20
2.82808733261848
30
0
41
1
10
27.587793212616
20
2.85584164778197
30
0
41
1
10
27.6793423188366
20
2.86841951834074
30
0
41
1
10
27.9537915049705
20
2.90212920701509
30
0
41
1
10
28.1366471876603
20
2.91926317420749
30
0
41
1
10
28.4111232908872
20
2.93684970859837
30
0
41
1
10
28.502654140221
20
2.94135885723253
30
0
41
1
10
28.6855968455868
20
2.9476497651292
30
0
41
1
10
28.7770382161819
20
2.9494337507447
30
0
41
1
10
28.8684798893122
20
2.94985443876891
30
0
0
SPLINE
5
F8
100
AcDbEntity
8
1
62
256
6
ByLayer
370
18
48
1
60
0
100
AcDbSpline
70
4
71
3
72
14
73
10
40
0
40
0
40
0
40
0
40
0.25
40
0.25
40
0.5
40
0.5
40
0.75
40
0.75
40
1
40
1
40
1
40
1
41
1
10
28.9316116261212
20
-2.79873291596147
30
0
41
1
10
28.9323076334581
20
-2.79760931279938
30
0
41
1
10
28.9330192004537
20
-2.79641352807519
30
0
41
1
10
28.9343956312382
20
-2.79397475096451
30
0
41
1
10
28.9350537529085
20
-2.79273946671643
30
0
41
1
10
28.9360997523537
20
-2.79059773569426
30
0
41
1
10
28.9364866206559
20
-2.78969035615151
30
0
41
1
10
28.9368989473131
20
-2.78844585078574
30
0
41
1
10
28.936938047863
20
-2.78808593242647
30
0
41
1
10
28.9368519211235
20
-2.78794217277868
30
0
0
SPLINE
5
F9
100
AcDbEntity
8
1
62
256
6
ByLayer
370
18
48
1
60
0
100
AcDbSpline
70
4
71
3
72
8
73
4
40
0
40
0
40
0
40
0
40
1
40
1
40
1
40
1
41
1
10
28.8496576814031
20
-2.93045720095509
30
0
41
1
10
28.8769293561476
20
-2.88682136665332
30
0
41
1
10
28.904244797308
20
-2.84291270223832
30
0
41
1
10
28.9316116261212
20
-2.79873291596147
30
0
0
SPLINE
5
FA
100
AcDbEntity
8
1
62
256
6
ByLayer
370
18
48
1
60
0
100
AcDbSpline
70
4
71
3
72
47
73
43
40
0
40
0
40
0
40
0
40
0.0178482193523066
40
0.0178482193523066
40
0.035696438704613
40
0.0713928774092259
40
0.0713928774092259
40
0.142785754818456
40
0.142785754818456
40
0.17848219352307
40
0.17848219352307
40
0.214178632227685
40
0.214178632227685
40
0.285571509636911
40
0.285571509636911
40
0.428357264455362
40
0.428357264455362
40
0.464053703159975
40
0.464053703159975
40
0.499750141864589
40
0.499750141864589
40
0.571143019273815
40
0.571143019273815
40
0.642535896683042
40
0.642535896683042
40
0.678232335387657
40
0.678232335387657
40
0.713928774092271
40
0.713928774092271
40
0.749625212796886
40
0.749625212796886
40
0.785321651501501
40
0.785321651501501
40
0.856714528910732
40
0.856714528910732
40
0.928107406319963
40
0.928107406319963
40
0.963803845024577
40
0.963803845024577
40
0.999500283729192
40
0.999500283729192
40
1
40
1
40
1
40
1
41
1
10
28.9316116261238
20
-2.79873291596161
30
0
41
1
10
28.8857351012544
20
-2.79618853419407
30
0
41
1
10
28.8398688880966
20
-2.79338113157004
30
0
41
1
10
28.7481581414718
20
-2.78705188138861
30
0
41
1
10
28.6106203072897
20
-2.77657948402893
30
0
41
1
10
28.4731329430904
20
-2.76318526191659
30
0
41
1
10
28.1981328917944
20
-2.73253151099934
30
0
41
1
10
28.0147663804402
20
-2.70694413704462
30
0
41
1
10
27.7392877001269
20
-2.66091787586231
30
0
41
1
10
27.6473492383693
20
-2.64428808559956
30
0
41
1
10
27.4635446906826
20
-2.60867486567423
30
0
41
1
10
27.3718543934275
20
-2.58973646689819
30
0
41
1
10
27.0972458405508
20
-2.52940154919028
30
0
41
1
10
26.9147850345294
20
-2.48445669033981
30
0
41
1
10
26.3685873578167
20
-2.33664921831621
30
0
41
1
10
26.0060594507712
20
-2.22084599725647
30
0
41
1
10
25.5525959568591
20
-2.05705507044758
30
0
41
1
10
25.4618839695988
20
-2.02334138778696
30
0
41
1
10
25.2804222776305
20
-1.95410320190126
30
0
41
1
10
25.1896773615679
20
-1.91858486195716
30
0
41
1
10
24.9172524343315
20
-1.80934406981501
30
0
41
1
10
24.7353707693377
20
-1.73290550207256
30
0
41
1
10
24.3706147114502
20
-1.57360473672318
30
0
41
1
10
24.1877407144381
20
-1.49075017041363
30
0
41
1
10
23.9123459562051
20
-1.36213766148961
30
0
41
1
10
23.8202737401213
20
-1.31849894729615
30
0
41
1
10
23.636672316801
20
-1.23031555827021
30
0
41
1
10
23.5450447501724
20
-1.18572614867361
30
0
41
1
10
23.3620821562238
20
-1.09564864381713
30
0
41
1
10
23.2707461823779
20
-1.05016095150094
30
0
41
1
10
23.0883339092313
20
-0.958365328232418
30
0
41
1
10
22.9972603089846
20
-0.912054872628971
30
0
41
1
10
22.7243146275083
20
-0.772085977817994
30
0
41
1
10
22.5427104875409
20
-0.677394677971193
30
0
41
1
10
22.179757907048
20
-0.48615887971809
30
0
41
1
10
21.9984105255106
20
-0.389614797567361
30
0
41
1
10
21.7262340452897
20
-0.24404840426439
30
0
41
1
10
21.6354774771674
20
-0.195409243039961
30
0
41
1
10
21.4539205183661
20
-0.0978789005602607
30
0
41
1
10
21.3631314366119
20
-0.0489693046199875
30
0
41
1
10
21.2710005746864
20
0.0006652227865231
30
0
41
1
10
21.2697286205721
20
0.0013504713355132
30
0
41
1
10
21.2684566509737
20
0.0020357247493052
30
0
0
SPLINE
5
FB
100
AcDbEntity
8
1
62
256
6
ByLayer
370
18
48
1
60
0
100
AcDbSpline
70
4
71
3
72
76
73
72
40
0
40
0
40
0
40
0
40
0.0694565046803393
40
0.0694565046803393
40
0.0868206308504237
40
0.0868206308504237
40
0.104184757020508
40
0.104184757020508
40
0.121548883190592
40
0.121548883190592
40
0.138913009360677
40
0.138913009360677
40
0.20836951404101
40
0.20836951404101
40
0.225733640211094
40
0.225733640211094
40
0.243097766381177
40
0.243097766381177
40
0.277826018721345
40
0.277826018721345
40
0.312554271061514
40
0.329918397231597
40
0.329918397231597
40
0.347282523401681
40
0.347282523401681
40
0.382010775741848
40
0.382010775741848
40
0.416739028082015
40
0.416739028082015
40
0.434103154252099
40
0.434103154252099
40
0.451467280422183
40
0.451467280422183
40
0.468831406592267
40
0.468831406592267
40
0.486195532762352
40
0.486195532762352
40
0.555652037442689
40
0.555652037442689
40
0.573016163612773
40
0.573016163612773
40
0.590380289782858
40
0.590380289782858
40
0.625108542123026
40
0.625108542123026
40
0.659836794463195
40
0.659836794463195
40
0.677200920633279
40
0.677200920633279
40
0.694565046803364
40
0.694565046803364
40
0.764021551483701
40
0.764021551483701
40
0.781385677653786
40
0.781385677653786
40
0.79874980382387
40
0.79874980382387
40
0.833478056164038
40
0.833478056164038
40
0.868206308504207
40
0.868206308504207
40
0.885570434674291
40
0.894252497759333
40
0.894252497759333
40
0.902934560844376
40
0.902934560844376
40
0.937662813184546
40
0.937662813184546
40
0.972391065524716
40
0.972391065524716
40
1
40
1
40
1
40
1
41
1
10
28.8496576814022
20
-2.93045720096862
30
0
41
1
10
28.48505449316
20
-2.90610732787621
30
0
41
1
10
28.1216732828329
20
-2.86025733329603
30
0
41
1
10
27.6665826649916
20
-2.77738652303097
30
0
41
1
10
27.5755349277308
20
-2.75952765074194
30
0
41
1
10
27.393382131966
20
-2.72121988690051
30
0
41
1
10
27.3022625957822
20
-2.70077835127165
30
0
41
1
10
27.119798054986
20
-2.65740261546509
30
0
41
1
10
27.0283963125632
20
-2.63444685715879
30
0
41
1
10
26.8458228368343
20
-2.58619926670247
30
0
41
1
10
26.7546139147146
20
-2.56090035058926
30
0
41
1
10
26.2988147434693
20
-2.42868726811082
30
0
41
1
10
25.9349811492495
20
-2.30459624714899
30
0
41
1
10
25.4787678016803
20
-2.12918423785033
30
0
41
1
10
25.3874587996485
20
-2.0930818053921
30
0
41
1
10
25.204683708854
20
-2.01885059075983
30
0
41
1
10
25.1134037188304
20
-1.98080754205151
30
0
41
1
10
24.8397571580056
20
-1.86410855791067
30
0
41
1
10
24.6575865607582
20
-1.78286570154151
30
0
41
1
10
24.2932352640805
20
-1.61427849862369
30
0
41
1
10
24.0199671353909
20
-1.48325959599762
30
0
41
1
10
23.7461764615567
20
-1.34614336735544
30
0
41
1
10
23.5634756548124
20
-1.25346255796674
30
0
41
1
10
23.4720010980259
20
-1.20646745999062
30
0
41
1
10
23.1979974037304
20
-1.06409690404578
30
0
41
1
10
23.0157053478629
20
-0.967140077443986
30
0
41
1
10
22.6512535721433
20
-0.770195783005192
30
0
41
1
10
22.4690783159459
20
-0.670235973110977
30
0
41
1
10
22.1955402579917
20
-0.518673357899274
30
0
41
1
10
22.1043146119746
20
-0.467882743644395
30
0
41
1
10
21.9217127167617
20
-0.365862415499805
30
0
41
1
10
21.8303000476581
20
-0.31461293332768
30
0
41
1
10
21.6474278612893
20
-0.211858998614133
30
0
41
1
10
21.5560886911546
20
-0.160413628781441
30
0
41
1
10
21.3735982070844
20
-0.0573964468057966
30
0
41
1
10
21.2824401041259
20
-0.0058369562062808
30
0
41
1
10
20.8267439774057
20
0.251606010719797
30
0
41
1
10
20.4625478058691
20
0.456532557344076
30
0
41
1
10
20.0054021282072
20
0.70724563470236
30
0
41
1
10
19.9138795907972
20
0.757116919033052
30
0
41
1
10
19.7311352819956
20
0.855977825361862
30
0
41
1
10
19.6398483603625
20
0.905003634642185
30
0
41
1
10
19.3661872056467
20
1.05077314321301
30
0
41
1
10
19.1840025551269
20
1.1461880175886
30
0
41
1
10
18.8194014169316
20
1.33226505087202
30
0
41
1
10
18.6369927539202
20
1.42294387503364
30
0
41
1
10
18.3628981352069
20
1.5549125772537
30
0
41
1
10
18.2713943298801
20
1.59825386806196
30
0
41
1
10
18.0884647106537
20
1.6833604431562
30
0
41
1
10
17.9970875763552
20
1.72510412552091
30
0
41
1
10
17.5405026784805
20
1.92959737615305
30
0
41
1
10
17.1761686625115
20
2.07963204524938
30
0
41
1
10
16.7195710265983
20
2.24716235262525
30
0
41
1
10
16.6281931909855
20
2.27966831682704
30
0
41
1
10
16.4452507638229
20
2.34259046843618
30
0
41
1
10
16.3537409992194
20
2.37298748562756
30
0
41
1
10
16.0796025375899
20
2.46070480526325
30
0
41
1
10
15.8971323729948
20
2.51462556175693
30
0
41
1
10
15.5322393485901
20
2.61292236030206
30
0
41
1
10
15.3498204631942
20
2.65730553391461
30
0
41
1
10
15.0759373699705
20
2.71648767282994
30
0
41
1
10
14.9389310133887
20
2.74422867703325
30
0
41
1
10
14.8017451438242
20
2.7691291462159
30
0
41
1
10
14.7102419279989
20
2.78509314544749
30
0
41
1
10
14.6644697923601
20
2.79275601739161
30
0
41
1
10
14.4359486591043
20
2.82939281882963
30
0
41
1
10
14.2538371390807
20
2.85339709143065
30
0
41
1
10
13.8904625881899
20
2.89077499913188
30
0
41
1
10
13.7092032200818
20
2.90415492760238
30
0
41
1
10
13.3842558401539
20
2.91867505426921
30
0
41
1
10
13.2404735151431
20
2.92176036407602
30
0
41
1
10
13.0967263067986
20
2.92150150075432
30
0
0
SPLINE
5
FC
100
AcDbEntity
8
1
62
256
6
ByLayer
370
18
48
1
60
0
100
AcDbSpline
70
4
71
3
72
46
73
42
40
0
40
0
40
0
40
0
40
0.0473921988449413
40
0.0473921988449413
40
0.0814139060290513
40
0.0814139060290513
40
0.115435613213161
40
0.115435613213161
40
0.183479027581381
40
0.183479027581381
40
0.2515224419496
40
0.2515224419496
40
0.285544149133709
40
0.285544149133709
40
0.319565856317818
40
0.319565856317818
40
0.353587563501927
40
0.353587563501927
40
0.387609270686036
40
0.387609270686036
40
0.455652685054252
40
0.455652685054252
40
0.523696099422468
40
0.523696099422468
40
0.557717806606577
40
0.557717806606577
40
0.591739513790686
40
0.591739513790686
40
0.727826342527121
40
0.727826342527121
40
0.795869756895341
40
0.795869756895341
40
0.829891464079452
40
0.829891464079452
40
0.863913171263564
40
0.863913171263564
40
0.931956585631784
40
0.965978292815894
40
0.982989146407947
40
0.982989146407947
40
1
40
1
40
1
40
1
41
1
10
20.8969362957244
20
0.212474595837904
30
0
41
1
10
21.0238933387945
20
0.14459791229811
30
0
41
1
10
21.1506189847353
20
0.0766099748449847
30
0
41
1
10
21.3680592570049
20
-0.0401105719994632
30
0
41
1
10
21.4588562088263
20
-0.0888488187220275
30
0
41
1
10
21.640427209673
20
-0.186048868527081
30
0
41
1
10
21.7311896035174
20
-0.23452983888842
30
0
41
1
10
22.0033830075743
20
-0.379636869058317
30
0
41
1
10
22.1847418977633
20
-0.475893010427456
30
0
41
1
10
22.5477173118227
20
-0.666587805946875
30
0
41
1
10
22.7293320005506
20
-0.761027503373299
30
0
41
1
10
23.0022944033675
20
-0.900641721892328
30
0
41
1
10
23.0933742847201
20
-0.946836676298318
30
0
41
1
10
23.2757959038133
20
-1.03841418772399
30
0
41
1
10
23.3671345024347
20
-1.08380011074993
30
0
41
1
10
23.5501004365808
20
-1.17368456613545
30
0
41
1
10
23.6417289735474
20
-1.21818222259839
30
0
41
1
10
23.82533062197
20
-1.30619183222743
30
0
41
1
10
23.9174011747695
20
-1.34974799683042
30
0
41
1
10
24.1927942007074
20
-1.47813220231154
30
0
41
1
10
24.3756710682668
20
-1.56085985543592
30
0
41
1
10
24.7404397505131
20
-1.71995708739678
30
0
41
1
10
24.9223305371827
20
-1.79631978310215
30
0
41
1
10
25.1947742829735
20
-1.90547947684482
30
0
41
1
10
25.2855271123059
20
-1.9409752797109
30
0
41
1
10
25.4670034683101
20
-2.01018265037996
30
0
41
1
10
25.5577215363932
20
-2.04388877936526
30
0
41
1
10
26.0112141226001
20
-2.20767126360542
30
0
41
1
10
26.3737669224594
20
-2.32355515365052
30
0
41
1
10
26.919992191575
20
-2.47162414761513
30
0
41
1
10
27.1024597292093
20
-2.51668033173471
30
0
41
1
10
27.3770763900571
20
-2.57721402768681
30
0
41
1
10
27.4687702183216
20
-2.59622334617367
30
0
41
1
10
27.6525780798275
20
-2.63199231315898
30
0
41
1
10
27.7445146488822
20
-2.64870734336205
30
0
41
1
10
28.0199900988379
20
-2.69500535434827
30
0
41
1
10
28.2950407757524
20
-2.73368814838034
30
0
41
1
10
28.6158507887184
20
-2.76534749700358
30
0
41
1
10
28.7533918862815
20
-2.7760050802442
30
0
41
1
10
28.8451049445458
20
-2.78246039109143
30
0
41
1
10
28.8909635724209
20
-2.78533195983863
30
0
41
1
10
28.9368519211205
20
-2.78794217277851
30
0
0
SPLINE
5
FD
100
AcDbEntity
8
1
62
256
6
ByLayer
370
18
48
1
60
0
100
AcDbSpline
70
4
71
3
72
8
73
4
40
0
40
0
40
0
40
0
40
1
40
1
40
1
40
1
41
1
10
28.9368519211234
20
-2.78794217277851
30
0
41
1
10
28.9361537647887
20
-2.78677683540062
30
0
41
1
10
28.935455976577
20
-2.7855423867631
30
0
41
1
10
28.9347585060354
20
-2.78423894853128
30
0
0
SPLINE
5
FE
100
AcDbEntity
8
1
62
256
6
ByLayer
370
18
48
1
60
0
100
AcDbSpline
70
4
71
3
72
35
73
31
40
0
40
0
40
0
40
0
40
0.125
40
0.125
40
0.1875
40
0.1875
40
0.21875
40
0.234375
40
0.234375
40
0.250000000000001
40
0.250000000000001
40
0.375000000000002
40
0.375000000000002
40
0.437500000000002
40
0.437500000000002
40
0.468750000000002
40
0.468750000000002
40
0.500000000000002
40
0.500000000000002
40
0.625000000000002
40
0.625000000000002
40
0.687500000000002
40
0.687500000000002
40
0.718750000000002
40
0.718750000000002
40
0.750000000000002
40
0.750000000000002
40
0.875000000000001
40
0.875000000000001
40
1
40
1
40
1
40
1
41
1
10
28.9036960450328
20
-0.313570640675437
30
0
41
1
10
28.886505508091
20
-0.470417652221755
30
0
41
1
10
28.8737226832382
20
-0.623929714380466
30
0
41
1
10
28.8590274991491
20
-0.84921546596135
30
0
41
1
10
28.8548845238721
20
-0.923476431628615
30
0
41
1
10
28.8496064646987
20
-1.03358323261369
30
0
41
1
10
28.8472021844806
20
-1.08831509176264
30
0
41
1
10
28.8451188342085
20
-1.14255475476753
30
0
41
1
10
28.8437981701418
20
-1.17860378056486
30
0
41
1
10
28.8431713005307
20
-1.19659334210462
30
0
41
1
10
28.8378444686269
20
-1.35732848735415
30
0
41
1
10
28.835269208854
20
-1.49253131129015
30
0
41
1
10
28.8335019126035
20
-1.6842268391915
30
0
41
1
10
28.8332719194787
20
-1.74626383220806
30
0
41
1
10
28.8334051669981
20
-1.83648796037264
30
0
41
1
10
28.8335298337124
20
-1.86609016131237
30
0
41
1
10
28.83393626059
20
-1.92433528987024
30
0
41
1
10
28.8342189987521
20
-1.95304486884271
30
0
41
1
10
28.8360144433164
20
-2.0931503808412
30
0
41
1
10
28.8386193582657
20
-2.19432339858457
30
0
41
1
10
28.844571198741
20
-2.33029351783972
30
0
41
1
10
28.846904598833
20
-2.37297080172851
30
0
41
1
10
28.8510460965777
20
-2.43296184638527
30
0
41
1
10
28.852534071964
20
-2.45228716888769
30
0
41
1
10
28.855751918845
20
-2.48957410502609
30
0
41
1
10
28.8574867674998
20
-2.50757788075825
30
0
41
1
10
28.8667678441309
20
-2.59342688090206
30
0
41
1
10
28.8761042219014
20
-2.64907299179393
30
0
41
1
10
28.9004728962316
20
-2.735508565191
30
0
41
1
10
28.9155000277904
20
-2.76628476412299
30
0
41
1
10
28.9347585060354
20
-2.78423894853128
30
0
0
SPLINE
5
FF
100
AcDbEntity
8
1
62
256
6
ByLayer
370
18
48
1
60
0
100
AcDbSpline
70
4
71
3
72
8
73
4
40
0
40
0
40
0
40
0
40
1
40
1
40
1
40
1
41
1
10
12.3727501806153
20
-0.217046723975017
30
0
41
1
10
12.0634812762339
20
-0.0531196942734198
30
0
41
1
10
11.7538906674364
20
0.112560976770965
30
0
41
1
10
11.4432314950843
20
0.278965576660084
30
0
0
SPLINE
5
100
100
AcDbEntity
8
1
62
256
6
ByLayer
370
13
48
1
60
0
100
AcDbSpline
70
4
71
3
72
8
73
4
40
0
40
0
40
0
40
0
40
1
40
1
40
1
40
1
41
1
10
11.4496732121623
20
0.301859944833353
30
0
41
1
10
11.449092071095
20
0.297489201154605
30
0
41
1
10
11.4485010446967
20
0.29310855691557
30
0
41
1
10
11.4479000522558
20
0.288717274641527
30
0
0
SPLINE
5
101
100
AcDbEntity
8
1
62
256
6
ByLayer
370
18
48
1
60
0
100
AcDbSpline
70
4
71
3
72
8
73
4
40
0
40
0
40
0
40
0
40
1
40
1
40
1
40
1
41
1
10
11.4479000522558
20
0.288717274641527
30
0
41
1
10
11.6192591492786
20
0.196639485214348
30
0
41
1
10
11.790292954769
20
0.104766923362007
30
0
41
1
10
11.9611265996533
20
0.0132726218315895
30
0
0
SPLINE
5
102
100
AcDbEntity
8
1
62
256
6
ByLayer
370
18
48
1
60
0
100
AcDbSpline
70
4
71
3
72
46
73
42
40
0
40
0
40
0
40
0
40
0.062556691813514
40
0.062556691813514
40
0.125113383627028
40
0.125113383627028
40
0.187670075440542
40
0.187670075440542
40
0.218948421347298
40
0.218948421347298
40
0.250226767254054
40
0.250226767254054
40
0.312783459067566
40
0.312783459067566
40
0.375340150881078
40
0.375340150881078
40
0.406618496787835
40
0.406618496787835
40
0.437896842694591
40
0.437896842694591
40
0.500453534508103
40
0.500453534508103
40
0.563010226321615
40
0.563010226321615
40
0.594288572228371
40
0.594288572228371
40
0.625566918135127
40
0.625566918135127
40
0.688123609948638
40
0.688123609948638
40
0.750680301762148
40
0.750680301762148
40
0.813236993575658
40
0.813236993575658
40
0.844515339482415
40
0.844515339482415
40
0.875793685389171
40
0.875793685389171
40
0.938350377202683
40
0.938350377202683
40
1
40
1
40
1
40
1
41
1
10
11.4496732121624
20
0.301859944833353
30
0
41
1
10
11.6314507643267
20
0.199251657281337
30
0
41
1
10
11.8131807883212
20
0.0969242219386217
30
0
41
1
10
12.1766289232967
20
-0.107044697612281
30
0
41
1
10
12.358348852094
20
-0.208682609707608
30
0
41
1
10
12.7219761274855
20
-0.410922048432326
30
0
41
1
10
12.9038848876431
20
-0.511521184844696
30
0
41
1
10
13.1769958094357
20
-0.661444757412511
30
0
41
1
10
13.2680476224016
20
-0.711303358532149
30
0
41
1
10
13.45029675655
20
-0.810580915563179
30
0
41
1
10
13.5413266148412
20
-0.859820729958528
30
0
41
1
10
13.8143763626735
20
-1.00589718944724
30
0
41
1
10
13.9962849591388
20
-1.10123877728444
30
0
41
1
10
14.3600329062511
20
-1.28759069598743
30
0
41
1
10
14.5418742799558
20
-1.37859762163029
30
0
41
1
10
14.8147266402024
20
-1.51159624902499
30
0
41
1
10
14.9056686556223
20
-1.55537954850587
30
0
41
1
10
15.0876457331058
20
-1.64166076805094
30
0
41
1
10
15.1787703866772
20
-1.68411231818777
30
0
41
1
10
15.4519944648313
20
-1.80853951210923
30
0
41
1
10
15.6340410124035
20
-1.88786307935092
30
0
41
1
10
15.9979370680183
20
-2.03937622033345
30
0
41
1
10
16.1797890704532
20
-2.11155913488776
30
0
41
1
10
16.452537369103
20
-2.21427035719304
30
0
41
1
10
16.5434365711435
20
-2.24759243724964
30
0
41
1
10
16.7252940743263
20
-2.31227362331947
30
0
41
1
10
16.816298935427
20
-2.34359631380605
30
0
41
1
10
17.0897192021224
20
-2.43416353883697
30
0
41
1
10
17.2717316167708
20
-2.48994120044486
30
0
41
1
10
17.635075941997
20
-2.59248106720292
30
0
41
1
10
17.8165272045393
20
-2.63910173580564
30
0
41
1
10
18.1801054904262
20
-2.72223678650894
30
0
41
1
10
18.3621495633627
20
-2.75884200343836
30
0
41
1
10
18.6356008322233
20
-2.80628586943604
30
0
41
1
10
18.7268721403935
20
-2.82085853223356
30
0
41
1
10
18.908817585832
20
-2.84736861862089
30
0
41
1
10
18.9995742916401
20
-2.85932313596294
30
0
41
1
10
19.2712711005183
20
-2.89125984082332
30
0
41
1
10
19.4516798388976
20
-2.90728503352346
30
0
41
1
10
19.8093208098469
20
-2.92853557855557
30
0
41
1
10
19.9865523079511
20
-2.93392204008012
30
0
41
1
10
20.1638300595332
20
-2.93422208829071
30
0
0
SPLINE
5
103
100
AcDbEntity
8
1
62
256
6
ByLayer
370
18
48
1
60
0
100
AcDbSpline
70
4
71
3
72
8
73
4
40
0
40
0
40
0
40
0
40
1
40
1
40
1
40
1
41
1
10
28.9036960450279
20
-0.313570640675095
30
0
41
1
10
28.8909370104017
20
-0.306732847885201
30
0
41
1
10
28.8781806221176
20
-0.299895301449368
30
0
41
1
10
28.8654268505735
20
-0.293058079819247
30
0
0
SPLINE
5
104
100
AcDbEntity
8
1
62
256
6
ByLayer
370
18
48
1
60
0
100
AcDbSpline
70
4
71
3
72
49
73
45
40
0
40
0
40
0
40
0
40
0.107076182373467
40
0.107076182373467
40
0.138736780724236
40
0.138736780724236
40
0.170397379075004
40
0.170397379075004
40
0.233718575776538
40
0.233718575776538
40
0.297039772478071
40
0.297039772478071
40
0.360360969179604
40
0.360360969179604
40
0.392021567530371
40
0.392021567530371
40
0.407851866705754
40
0.407851866705754
40
0.423682165881136
40
0.423682165881136
40
0.487003362582671
40
0.487003362582671
40
0.550324559284206
40
0.550324559284206
40
0.613645755985742
40
0.613645755985742
40
0.64530635433651
40
0.64530635433651
40
0.676966952687279
40
0.676966952687279
40
0.740288149388816
40
0.740288149388816
40
0.803609346090353
40
0.803609346090353
40
0.835269944441121
40
0.835269944441121
40
0.86693054279189
40
0.86693054279189
40
0.898591141142658
40
0.898591141142658
40
0.930251739493427
40
0.993572936194966
40
0.993572936194966
40
1
40
1
40
1
40
1
41
1
10
28.7348813220448
20
-0.223039446091605
30
0
41
1
10
28.4272077757562
20
-0.0579462063996345
30
0
41
1
10
28.1210023130364
20
0.106801169133092
30
0
41
1
10
27.7256185797278
20
0.318380398185042
30
0
41
1
10
27.6354822132601
20
0.366538654537493
30
0
41
1
10
27.4554101402158
20
0.462570978269156
30
0
41
1
10
27.3654742084791
20
0.510443895758954
30
0
41
1
10
27.0955905590139
20
0.653131101385839
30
0
41
1
10
26.9155553114916
20
0.746999337016689
30
0
41
1
10
26.5549519904256
20
0.931656951658596
30
0
41
1
10
26.3743827468153
20
1.02244716221824
30
0
41
1
10
26.0125162963232
20
1.2004117888483
30
0
41
1
10
25.8312230171688
20
1.28759363186657
30
0
41
1
10
25.558492737844
20
1.41506753201074
30
0
41
1
10
25.4674507275203
20
1.45700984227582
30
0
41
1
10
25.3306606388715
20
1.51900768781974
30
0
41
1
10
25.2850270715691
20
1.53952100558831
30
0
41
1
10
25.1936679752401
20
1.58022341928594
30
0
41
1
10
25.1479118457545
20
1.60042580025294
30
0
41
1
10
24.9192350058266
20
1.70041158409251
30
0
41
1
10
24.7369094646956
20
1.7769690099241
30
0
41
1
10
24.3730335892579
20
1.92301487578075
30
0
41
1
10
24.1914786709845
20
1.99251178334245
30
0
41
1
10
23.8290635763435
20
2.12385855833014
30
0
41
1
10
23.6482040265643
20
2.18572345839772
30
0
41
1
10
23.37740629604
20
2.27204214174657
30
0
41
1
10
23.2872245566005
20
2.29973609303787
30
0
41
1
10
23.1069924533776
20
2.35282362109092
30
0
41
1
10
23.0169587633904
20
2.37818136015395
30
0
41
1
10
22.7466676329056
20
2.45120401961716
30
0
41
1
10
22.5660902572376
20
2.49603334091881
30
0
41
1
10
22.2042074794549
20
2.57706889943117
30
0
41
1
10
22.02292702788
20
2.61329238089368
30
0
41
1
10
21.7504478978568
20
2.65984338125432
30
0
41
1
10
21.6595346161415
20
2.67404441540222
30
0
41
1
10
21.4774480763196
20
2.69976955813888
30
0
41
1
10
21.3862749267131
20
2.71126158919753
30
0
41
1
10
21.20352998648
20
2.73191031178206
30
0
41
1
10
21.1118857926064
20
2.74113726297972
30
0
41
1
10
20.9284404538256
20
2.7573198978273
30
0
41
1
10
20.6532402872358
20
2.77811464599645
30
0
41
1
10
20.3779372999805
20
2.78780874373885
30
0
41
1
10
20.1757170372109
20
2.7888454156284
30
0
41
1
10
20.1570834086336
20
2.78888344189713
30
0
41
1
10
20.1384514925408
20
2.78886405916558
30
0
0
SPLINE
5
105
100
AcDbEntity
8
1
62
256
6
ByLayer
370
18
48
1
60
0
100
AcDbSpline
70
4
71
3
72
8
73
4
40
0
40
0
40
0
40
0
40
1
40
1
40
1
40
1
41
1
10
28.9014084722866
20
-0.302167929118724
30
0
41
1
10
28.9033199559937
20
-0.302604049088956
30
0
41
1
10
28.904337244361
20
-0.307720317397297
30
0
41
1
10
28.9036960450326
20
-0.313570640677625
30
0
0
SPLINE
5
106
100
AcDbEntity
8
1
62
256
6
ByLayer
370
18
48
1
60
0
100
AcDbSpline
70
4
71
3
72
49
73
45
40
0
40
0
40
0
40
0
40
0.0292716387407933
40
0.0292716387407933
40
0.0941035651956227
40
0.126519528423037
40
0.126519528423037
40
0.158935491650452
40
0.158935491650452
40
0.191351454877867
40
0.191351454877867
40
0.223767418105282
40
0.223767418105282
40
0.288599344560109
40
0.288599344560109
40
0.353431271014937
40
0.353431271014937
40
0.38584723424235
40
0.38584723424235
40
0.418263197469764
40
0.418263197469764
40
0.483095123924594
40
0.483095123924594
40
0.547927050379423
40
0.547927050379423
40
0.612758976834252
40
0.612758976834252
40
0.628966958447959
40
0.628966958447959
40
0.645174940061666
40
0.645174940061666
40
0.677590903289078
40
0.677590903289078
40
0.742422829743904
40
0.742422829743904
40
0.807254756198729
40
0.807254756198729
40
0.872086682653555
40
0.872086682653555
40
0.904502645880968
40
0.904502645880968
40
0.936918609108381
40
0.936918609108381
40
1
40
1
40
1
40
1
41
1
10
19.9471027579671
20
2.79616886995126
30
0
41
1
10
20.0298232328742
20
2.79818800732153
30
0
41
1
10
20.112675904952
20
2.79907512388772
30
0
41
1
10
20.3790638335113
20
2.79825715690558
30
0
41
1
10
20.6542743925116
20
2.78910062910603
30
0
41
1
10
20.9293756794016
20
2.76879698064491
30
0
41
1
10
21.1127532261515
20
2.75293077797971
30
0
41
1
10
21.2043696021275
20
2.74385370337177
30
0
41
1
10
21.3870531797212
20
2.72350348702747
30
0
41
1
10
21.478196442008
20
2.71216227068288
30
0
41
1
10
21.6602218209825
20
2.68673019070278
30
0
41
1
10
21.7511038449477
20
2.67267177660454
30
0
41
1
10
22.0234874635684
20
2.62653002920473
30
0
41
1
10
22.2047001975961
20
2.59055169739636
30
0
41
1
10
22.5664360330773
20
2.5099518336136
30
0
41
1
10
22.7469345473778
20
2.46530968369169
30
0
41
1
10
23.0171010677094
20
2.39254603527817
30
0
41
1
10
23.1070937507124
20
2.36727852735359
30
0
41
1
10
23.2872443683737
20
2.31436310386553
30
0
41
1
10
23.3773848774077
20
2.28674804481488
30
0
41
1
10
23.6480593657603
20
2.20064687410408
30
0
41
1
10
23.8288371303115
20
2.13890033405357
30
0
41
1
10
24.1910872831051
20
2.0077329221987
30
0
41
1
10
24.3725597249603
20
1.93829900984568
30
0
41
1
10
24.7362688342921
20
1.79232322377152
30
0
41
1
10
24.9185108786439
20
1.71577558618128
30
0
41
1
10
25.1470839142319
20
1.61577726874975
30
0
41
1
10
25.1928292598086
20
1.59556722451544
30
0
41
1
10
25.2841628043285
20
1.55484958943444
30
0
41
1
10
25.3297836751749
20
1.53432823015353
30
0
41
1
10
25.4665348518032
20
1.47230112433397
30
0
41
1
10
25.5575492623036
20
1.43033114486724
30
0
41
1
10
25.8301934809384
20
1.30275417324782
30
0
41
1
10
26.0114257576755
20
1.21547867310238
30
0
41
1
10
26.3731623271856
20
1.03727597501771
30
0
41
1
10
26.5536631820644
20
0.946342168671066
30
0
41
1
10
26.9141210858088
20
0.761346044829679
30
0
41
1
10
27.094080270021
20
0.667285377671192
30
0
41
1
10
27.3638472063083
20
0.524278136955388
30
0
41
1
10
27.4537436898341
20
0.476294531144475
30
0
41
1
10
27.6337372567532
20
0.380031669636253
30
0
41
1
10
27.7238339982158
20
0.331750094175618
30
0
41
1
10
27.9895316470735
20
0.189122815942738
30
0
41
1
10
28.1653891689809
20
0.0944078754469331
30
0
41
1
10
28.3416749348977
20
-0.000599024769258
30
0
0
SPLINE
5
107
100
AcDbEntity
8
1
62
256
6
ByLayer
370
18
48
1
60
0
100
AcDbSpline
70
4
71
3
72
8
73
4
40
0
40
0
40
0
40
0
40
1
40
1
40
1
40
1
41
1
10
28.8537764623352
20
-0.290053439378028
30
0
41
1
10
28.8696305438885
20
-0.294502091833778
30
0
41
1
10
28.8855041338888
20
-0.298539229819625
30
0
41
1
10
28.9014084722866
20
-0.302167929118809
30
0
0
SPLINE
5
108
100
AcDbEntity
8
1
62
256
6
ByLayer
370
18
48
1
60
0
100
AcDbSpline
70
4
71
3
72
61
73
57
40
0
40
0
40
0
40
0
40
0.0004734595604572
40
0.0004734595604572
40
0.0267767895720243
40
0.0267767895720243
40
0.0530801195835914
40
0.0530801195835914
40
0.105686779606726
40
0.105686779606726
40
0.15829343962986
40
0.15829343962986
40
0.210900099652994
40
0.210900099652994
40
0.263506759676128
40
0.263506759676128
40
0.289810089687695
40
0.289810089687695
40
0.316113419699261
40
0.316113419699261
40
0.342416749710828
40
0.342416749710828
40
0.355568414716612
40
0.355568414716612
40
0.368720079722396
40
0.368720079722396
40
0.421326739745528
40
0.421326739745528
40
0.447630069757094
40
0.447630069757094
40
0.47393339976866
40
0.47393339976866
40
0.526540059791792
40
0.526540059791792
40
0.539691724797576
40
0.539691724797576
40
0.552843389803359
40
0.579146719814927
40
0.579146719814927
40
0.631753379838061
40
0.631753379838061
40
0.658056709849628
40
0.658056709849628
40
0.684360039861195
40
0.684360039861195
40
0.789573359907464
40
0.789573359907464
40
0.842180019930598
40
0.842180019930598
40
0.868483349942165
40
0.868483349942165
40
0.894786679953732
40
0.894786679953732
40
0.947393339976866
40
0.947393339976866
40
1
40
1
40
1
40
1
41
1
10
18.5395283527726
20
2.78961604938428
30
0
41
1
10
18.541169017474
20
2.78990151844832
30
0
41
1
10
18.5428097029726
20
2.79018658446915
30
0
41
1
10
18.6356008322233
20
2.80628586943604
30
0
41
1
10
18.7268721403936
20
2.82085853223356
30
0
41
1
10
18.908817585832
20
2.84736861862089
30
0
41
1
10
18.9995742916402
20
2.85932313596294
30
0
41
1
10
19.2712711005183
20
2.89125984082332
30
0
41
1
10
19.4516798388976
20
2.90728503352346
30
0
41
1
10
19.8119326339291
20
2.92869076962646
30
0
41
1
10
19.9917675648943
20
2.93407942795741
30
0
41
1
10
20.3515426542648
20
2.93438463061386
30
0
41
1
10
20.5314401189957
20
2.9293231774887
30
0
41
1
10
20.8912158290186
20
2.90877972798037
30
0
41
1
10
21.0710879721725
20
2.89328968673155
30
0
41
1
10
21.341025750375
20
2.86205305017921
30
0
41
1
10
21.431046924956
20
2.85030968559639
30
0
41
1
10
21.6114266341257
20
2.824254883561
30
0
41
1
10
21.7017774904228
20
2.80994234933056
30
0
41
1
10
21.8828931409603
20
2.77880509058801
30
0
41
1
10
21.9736517416821
20
2.76197886167569
30
0
41
1
10
22.1100684102337
20
2.7348336321966
30
0
41
1
10
22.15558725707
20
2.72546739470326
30
0
41
1
10
22.2467165434792
20
2.70609428594707
30
0
41
1
10
22.2923325085735
20
2.69608578412772
30
0
41
1
10
22.5201548639579
20
2.64454099558634
30
0
41
1
10
22.7019579847541
20
2.59842091064982
30
0
41
1
10
22.9739443417301
20
2.52177247060686
30
0
41
1
10
23.0645045532456
20
2.49498662375828
30
0
41
1
10
23.245793999936
20
2.43929323052007
30
0
41
1
10
23.336512517402
20
2.41037996098052
30
0
41
1
10
23.6089151736391
20
2.32050626994908
30
0
41
1
10
23.7908375892558
20
2.25641190901314
30
0
41
1
10
24.0186637793733
20
2.17110058464579
30
0
41
1
10
24.0642647613084
20
2.15377299900084
30
0
41
1
10
24.1553242785298
20
2.11867243385774
30
0
41
1
10
24.291763957524
20
2.06533008669018
30
0
41
1
10
24.4277672512026
20
2.00993579030114
30
0
41
1
10
24.699234315938
20
1.89647544151254
30
0
41
1
10
24.8794954827228
20
1.81727490704512
30
0
41
1
10
25.1491747965958
20
1.69364674674611
30
0
41
1
10
25.2389474288536
20
1.65162879699511
30
0
41
1
10
25.4185216146369
20
1.56638867075893
30
0
41
1
10
25.5083265487936
20
1.52317371533312
30
0
41
1
10
25.9574058773073
20
1.30411401113665
30
0
41
1
10
26.3168221136801
20
1.11933039048267
30
0
41
1
10
26.8573658645022
20
0.82969298531151
30
0
41
1
10
27.0377820525115
20
0.731053041552542
30
0
41
1
10
27.3090923398455
20
0.580427402659126
30
0
41
1
10
27.3996320081591
20
0.52975189069798
30
0
41
1
10
27.5811755984353
20
0.427931175469524
30
0
41
1
10
27.6722478644897
20
0.376791519664181
30
0
41
1
10
27.9451324161879
20
0.223340785082428
30
0
41
1
10
28.1269065981792
20
0.120762204068882
30
0
41
1
10
28.4903453340173
20
-0.0846175758826178
30
0
41
1
10
28.6720101933134
20
-0.18741824336314
30
0
41
1
10
28.8537764623346
20
-0.290053439379079
30
0
0
SPLINE
5
109
100
AcDbEntity
8
1
62
256
6
ByLayer
370
18
48
1
60
0
100
AcDbSpline
70
4
71
3
72
10
73
6
40
0
40
0
40
0
40
0
40
0.321714972515773
40
0.321714972515773
40
1
40
1
40
1
40
1
41
1
10
7.76713844892478
20
-1.81096376481565
30
0
41
1
10
7.37179176092403
20
-1.92454793380281
30
0
41
1
10
6.97769837520528
20
-2.03914535579602
30
0
41
1
10
5.75664462425115
20
-2.39766207429483
30
0
41
1
10
4.93425995184256
20
-2.64404020313029
30
0
41
1
10
4.11779742261396
20
-2.89174764821701
30
0
0
SPLINE
5
10A
100
AcDbEntity
8
1
62
256
6
ByLayer
370
18
48
1
60
0
100
AcDbSpline
70
4
71
3
72
98
73
94
40
0
40
0
40
0
40
0
40
0.0624999999999729
40
0.0624999999999729
40
0.124999999999946
40
0.124999999999946
40
0.156249999999933
40
0.156249999999933
40
0.171874999999927
40
0.171874999999927
40
0.187499999999921
40
0.187499999999921
40
0.218749999999908
40
0.218749999999908
40
0.234374999999902
40
0.234374999999902
40
0.249999999999895
40
0.249999999999895
40
0.281249999999883
40
0.281249999999883
40
0.296874999999876
40
0.296874999999876
40
0.31249999999987
40
0.31249999999987
40
0.343749999999858
40
0.343749999999858
40
0.351562499999855
40
0.351562499999855
40
0.359374999999853
40
0.374999999999847
40
0.374999999999847
40
0.382812499999844
40
0.382812499999844
40
0.390624999999841
40
0.390624999999841
40
0.406249999999836
40
0.406249999999836
40
0.421874999999831
40
0.421874999999831
40
0.429687499999829
40
0.429687499999829
40
0.437499999999826
40
0.437499999999826
40
0.468749999999815
40
0.468749999999815
40
0.48437499999981
40
0.48437499999981
40
0.492187499999807
40
0.492187499999807
40
0.499999999999805
40
0.499999999999805
40
0.53124999999979
40
0.53124999999979
40
0.562499999999775
40
0.562499999999775
40
0.59374999999976
40
0.59374999999976
40
0.624999999999745
40
0.624999999999745
40
0.65624999999973
40
0.65624999999973
40
0.658203124999729
40
0.658203124999729
40
0.660156249999727
40
0.660156249999727
40
0.662109374999726
40
0.662109374999726
40
0.664062499999725
40
0.664062499999725
40
0.666015624999723
40
0.666015624999723
40
0.667968749999722
40
0.667968749999722
40
0.671874999999721
40
0.671874999999721
40
0.673828124999722
40
0.673828124999722
40
0.675781249999723
40
0.675781249999723
40
0.679687499999727
40
0.687499999999735
40
0.687499999999735
40
0.749999999999791
40
0.749999999999791
40
0.781249999999818
40
0.781249999999818
40
0.812499999999845
40
0.812499999999845
40
0.874999999999896
40
0.874999999999896
40
0.937499999999948
40
0.937499999999948
40
1
40
1
40
1
40
1
41
1
10
4.11762557676121
20
-2.89167961794789
30
0
41
1
10
3.95304962094249
20
-2.8825454588316
30
0
41
1
10
3.79111533691363
20
-2.86886231322421
30
0
41
1
10
3.47374834223919
20
-2.8299156200739
30
0
41
1
10
3.31829133558654
20
-2.80469750233399
30
0
41
1
10
3.09156204230806
20
-2.75507219897148
30
0
41
1
10
3.01707032849805
20
-2.73654777937915
30
0
41
1
10
2.9072973108018
20
-2.70513614724754
30
0
41
1
10
2.87103497164105
20
-2.69405911564786
30
0
41
1
10
2.79924380260942
20
-2.67054637116146
30
0
41
1
10
2.7636569617307
20
-2.65808808555588
30
0
41
1
10
2.65869426342917
20
-2.61861923939003
30
0
41
1
10
2.59106160961559
20
-2.58953489740964
30
0
41
1
10
2.49400441098624
20
-2.54069231062471
30
0
41
1
10
2.46238764907841
20
-2.52353778030198
30
0
41
1
10
2.40083438823913
20
-2.48723139402151
30
0
41
1
10
2.37083258991706
20
-2.46802913477839
30
0
41
1
10
2.28457985295549
20
-2.40755269465271
30
0
41
1
10
2.23183688282376
20
-2.36335581738385
30
0
41
1
10
2.16193447211015
20
-2.28956396093707
30
0
41
1
10
2.14017873163866
20
-2.26370955132654
30
0
41
1
10
2.10028022256651
20
-2.20906675917976
30
0
41
1
10
2.08208154917375
20
-2.18012630492439
30
0
41
1
10
2.03495453328603
20
-2.09022390925139
30
0
41
1
10
2.01302254406514
20
-2.02578474666518
30
0
41
1
10
1.99994972285671
20
-1.93849208468134
30
0
41
1
10
1.99806554108045
20
-1.92069359172515
30
0
41
1
10
1.99582912017021
20
-1.88496794884699
30
0
41
1
10
1.99473645061116
20
-1.83098047597755
30
0
41
1
10
2.00033994510699
20
-1.77582016825252
30
0
41
1
10
2.01032622880837
20
-1.71990447353639
30
0
41
1
10
2.01438587069359
20
-1.70113994879321
30
0
41
1
10
2.02395817222188
20
-1.66336269370009
30
0
41
1
10
2.02949357633148
20
-1.64428415978142
30
0
41
1
10
2.04808086058634
20
-1.58723983511166
30
0
41
1
10
2.0630675544231
20
-1.5495139465018
30
0
41
1
10
2.09764189199467
20
-1.47461576406491
30
0
41
1
10
2.11723046307569
20
-1.43744342571742
30
0
41
1
10
2.14971903892192
20
-1.38206868186606
30
0
41
1
10
2.16109613933526
20
-1.36363056189319
30
0
41
1
10
2.18467663830174
20
-1.32712515989311
30
0
41
1
10
2.19687124501459
20
-1.30906592855999
30
0
41
1
10
2.25969937472962
20
-1.21966049815774
30
0
41
1
10
2.31583074061217
20
-1.15095535362056
30
0
41
1
10
2.40660574136203
20
-1.05110529078226
30
0
41
1
10
2.43797375507373
20
-1.01836270832607
30
0
41
1
10
2.48650231917031
20
-0.96997396883765
30
0
41
1
10
2.50292507172278
20
-0.953965463405723
30
0
41
1
10
2.53623733666004
20
-0.922178553024338
30
0
41
1
10
2.55312283526516
20
-0.906405043421955
30
0
41
1
10
2.63820413210951
20
-0.828489460222045
30
0
41
1
10
2.70869957118691
20
-0.76883110341717
30
0
41
1
10
2.85343323734892
20
-0.653656690035092
30
0
41
1
10
2.92767994069718
20
-0.598149776856189
30
0
41
1
10
3.0792178511538
20
-0.490525285467157
30
0
41
1
10
3.15651303464344
20
-0.438411997387476
30
0
41
1
10
3.31366456594483
20
-0.337053828034357
30
0
41
1
10
3.39353467800896
20
-0.287804281415475
30
0
41
1
10
3.55543723531648
20
-0.191823475961201
30
0
41
1
10
3.63725782887443
20
-0.145238576785516
30
0
41
1
10
3.72493584535715
20
-0.0970068306546636
30
0
41
1
10
3.73009466782642
20
-0.0941718285874913
30
0
41
1
10
3.74042597461593
20
-0.0885264576170641
30
0
41
1
10
3.74563138141988
20
-0.0857613896119744
30
0
41
1
10
3.75645135191169
20
-0.0811624314670496
30
0
41
1
10
3.76204763885662
20
-0.0793275007460466
30
0
41
1
10
3.77330904732813
20
-0.0764031087043122
30
0
41
1
10
3.77904424980747
20
-0.0754860997660103
30
0
41
1
10
3.79060710942756
20
-0.0741344774031916
30
0
41
1
10
3.79648766853936
20
-0.0737934480363549
30
0
41
1
10
3.80814924973961
20
-0.0738221792724971
30
0
41
1
10
3.81394587229053
20
-0.0741013721325885
30
0
41
1
10
3.83122256972189
20
-0.0758160923701041
30
0
41
1
10
3.84259760252482
20
-0.0780657648458885
30
0
41
1
10
3.85949688878472
20
-0.0827055462705175
30
0
41
1
10
3.86508902191179
20
-0.0844257121460714
30
0
41
1
10
3.87625266153432
20
-0.087895009807454
30
0
41
1
10
3.88183364491178
20
-0.0896323269893742
30
0
41
1
10
3.89858092508146
20
-0.0948301409464989
30
0
41
1
10
3.93205804204476
20
-0.105282341663013
30
0
41
1
10
3.96548357530568
20
-0.115896939804117
30
0
41
1
10
4.16582145006399
20
-0.180234451686033
30
0
41
1
10
4.34231008607233
20
-0.242017468045646
30
0
41
1
10
4.6046831564322
20
-0.340868384180908
30
0
41
1
10
4.69166628409491
20
-0.374809914847049
30
0
41
1
10
4.86456838990114
20
-0.444446208284035
30
0
41
1
10
4.95051512882853
20
-0.480147533966516
30
0
41
1
10
5.20693917339807
20
-0.589614027577284
30
0
41
1
10
5.3759939104304
20
-0.66575277772165
30
0
41
1
10
5.71100151003941
20
-0.822502779375355
30
0
41
1
10
5.876947315476
20
-0.903127013322404
30
0
41
1
10
6.20658513069452
20
-1.06674349338553
30
0
41
1
10
6.37026469940798
20
-1.14976033775821
30
0
41
1
10
6.53324159415172
20
-1.23295312784163
30
0
0
SPLINE
5
10B
100
AcDbEntity
8
SK1
62
256
6
ByLayer
370
18
48
1
60
0
100
AcDbSpline
70
4
71
3
72
8
73
4
40
0
40
0
40
0
40
0
40
1
40
1
40
1
40
1
41
1
10
-35.75
20
-0.838826727211256
30
0
41
1
10
-35.8336520414415
20
-0.781816468923239
30
0
41
1
10
-35.9170265205595
20
-0.724639041942595
30
0
41
1
10
-36
20
-0.667220103106189
30
0
0
SPLINE
5
10C
100
AcDbEntity
8
SK1
62
256
6
ByLayer
370
18
48
1
60
0
100
AcDbSpline
70
4
71
3
72
22
73
18
40
0
40
0
40
0
40
0
40
0.062499999999998
40
0.062499999999998
40
0.124999999999996
40
0.124999999999996
40
0.249999999999997
40
0.249999999999997
40
0.374999999999997
40
0.374999999999997
40
0.499999999999997
40
0.499999999999997
40
0.624999999999998
40
0.624999999999998
40
0.749999999999998
40
0.749999999999998
40
1
40
1
40
1
40
1
41
1
10
-35.65
20
-1.00278420877297
30
0
41
1
10
-35.65
20
-0.998786487959137
30
0
41
1
10
-35.6502718586019
20
-0.994635757896759
30
0
41
1
10
-35.6512913504498
20
-0.986264470154225
30
0
41
1
10
-35.652030658643
20
-0.982074490269724
30
0
41
1
10
-35.6548298230237
20
-0.969493325597711
30
0
41
1
10
-35.6575061245997
20
-0.961001933001711
30
0
41
1
10
-35.6638376796887
20
-0.944670168618273
30
0
41
1
10
-35.6674983282837
20
-0.936765144989494
30
0
41
1
10
-35.6756151818521
20
-0.92137387868766
30
0
41
1
10
-35.6800682064548
20
-0.913916257519418
30
0
41
1
10
-35.6893906957631
20
-0.899807825820147
30
0
41
1
10
-35.6942952881823
20
-0.893091904724571
30
0
41
1
10
-35.7045485857552
20
-0.880270925121494
30
0
41
1
10
-35.7099306774388
20
-0.87413320293345
30
0
41
1
10
-35.7265024515808
20
-0.8568932111896
30
0
41
1
10
-35.7380004903212
20
-0.847004592740035
30
0
41
1
10
-35.7500000000001
20
-0.838826727211199
30
0
0
SPLINE
5
10D
100
AcDbEntity
8
SK1
62
256
6
ByLayer
370
18
48
1
60
0
100
AcDbSpline
70
4
71
3
72
22
73
18
40
0
40
0
40
0
40
0
40
0.25
40
0.25
40
0.375
40
0.375
40
0.5
40
0.5
40
0.625
40
0.625
40
0.75
40
0.75
40
0.874999999999999
40
0.874999999999999
40
0.9375
40
0.9375
40
1
40
1
40
1
40
1
41
1
10
-35.75
20
-1.98540472794488
30
0
41
1
10
-35.7379956523281
20
-1.9935858906465
30
0
41
1
10
-35.7264866986603
20
-2.00028664586193
30
0
41
1
10
-35.7098921057742
20
-2.00820800726308
30
0
41
1
10
-35.7045257065493
20
-2.01045683388037
30
0
41
1
10
-35.6942964893128
20
-2.01407805184778
30
0
41
1
10
-35.6894060316865
20
-2.01546455040312
30
0
41
1
10
-35.6801144608566
20
-2.0172922188797
30
0
41
1
10
-35.6756964104891
20
-2.01773599298343
30
0
41
1
10
-35.6675285377629
20
-2.01744205909893
30
0
41
1
10
-35.6638529491705
20
-2.01671238266769
30
0
41
1
10
-35.6575076548177
20
-2.0138053776175
30
0
41
1
10
-35.6548318331324
20
-2.01159599433285
30
0
41
1
10
-35.6520304488211
20
-2.00699054204344
30
0
41
1
10
-35.65129058319
20
-2.00523667195589
30
0
41
1
10
-35.650270741394
20
-2.0012111549222
30
0
41
1
10
-35.65
20
-1.99895397200109
30
0
41
1
10
-35.65
20
-1.99648514274196
30
0
0
SPLINE
5
10E
100
AcDbEntity
8
SK1
62
256
6
ByLayer
370
18
48
1
60
0
100
AcDbSpline
70
4
71
3
72
8
73
4
40
0
40
0
40
0
40
0
40
1
40
1
40
1
40
1
41
1
10
-36
20
-1.81379810383964
30
0
41
1
10
-35.9170408659687
20
-1.8712071154296
30
0
41
1
10
-35.8336648546738
20
-1.92838573722565
30
0
41
1
10
-35.7499999999999
20
-1.98540472794477
30
0
0
SPLINE
5
10F
100
AcDbEntity
8
1
62
256
6
ByLayer
370
18
48
1
60
0
100
AcDbSpline
70
4
71
3
72
14
73
10
40
0
40
0
40
0
40
0
40
0.0034103507955534
40
0.209001269408989
40
0.369013104123805
40
0.485841763923636
40
0.615488388769001
40
0.793945452836151
40
1
40
1
40
1
40
1
41
1
10
28.0552560037619
20
0.923235469369047
30
0
41
1
10
28.0518675128852
20
0.92439634624165
30
0
41
1
10
27.844215639353
20
0.995568931675251
30
0
41
1
10
27.4792832102835
20
1.12633669213952
30
0
41
1
10
27.0030911080147
20
1.29987604515549
30
0
41
1
10
26.6031232362135
20
1.44937794337483
30
0
41
1
10
26.1859837186927
20
1.60826374053207
30
0
41
1
10
25.6827973481129
20
1.8043593720376
30
0
41
1
10
25.3081079920574
20
1.95505538522966
30
0
41
1
10
25.1077652871275
20
2.0369319122932
30
0
0
SPLINE
5
110
100
AcDbEntity
8
1
62
256
6
ByLayer
370
18
48
1
60
0
100
AcDbSpline
70
4
71
3
72
29
73
25
40
0
40
0
40
0
40
0
40
9.08553210068E-05
40
0.0001615167252595
40
0.0002232173907839
40
0.0002845884016788
40
0.000639746419154
40
0.0009191699413076
40
0.001454195673859
40
0.0025247666081456
40
0.0048045261347423
40
0.0100516653365513
40
0.0740076239483084
40
0.151846904798392
40
0.238880517374246
40
0.332161344498511
40
0.407441742208108
40
0.517380246982325
40
0.616694402481814
40
0.701882263407967
40
0.749116302495444
40
0.81678243633134
40
0.911350429120717
40
1
40
1
40
1
40
1
41
1
10
14.5013759615859
20
0.0304405702729866
30
0
41
1
10
14.5013650112853
20
0.0304432052383277
30
0
41
1
10
14.5013010909208
20
0.0304609816263905
30
0
41
1
10
14.5010965622299
20
0.0305202289676174
30
0
41
1
10
14.5008003114213
20
0.0306072406903297
30
0
41
1
10
14.4999202607981
20
0.0308674276613772
30
0
41
1
10
14.4985598395175
20
0.0312719405337702
30
0
41
1
10
14.4963833612576
20
0.0319157253870515
30
0
41
1
10
14.4928237974858
20
0.0329678609036534
30
0
41
1
10
14.4854928333067
20
0.0351288714271618
30
0
41
1
10
14.469179420329
20
0.0399243573989736
30
0
41
1
10
14.3330079359988
20
0.0798371520416765
30
0
41
1
10
14.0512731216885
20
0.162940721947194
30
0
41
1
10
13.6138238407934
20
0.295843194746368
30
0
41
1
10
13.1209773297055
20
0.450339174671996
30
0
41
1
10
12.6345761698811
20
0.60800010983337
30
0
41
1
10
12.1060458812066
20
0.784516379831587
30
0
41
1
10
11.5679202079173
20
0.970035605193942
30
0
41
1
10
11.0130802437823
20
1.16801232410762
30
0
41
1
10
10.5778778183704
20
1.32789212031179
30
0
41
1
10
10.2030320024081
20
1.46839488520425
30
0
41
1
10
9.8114937690066
20
1.61774980273447
30
0
41
1
10
9.3438381736911
20
1.80006810293273
30
0
41
1
10
9.00379070077008
20
1.93695115729005
30
0
41
1
10
8.83957235722261
20
2.00398470520483
30
0
0
SPLINE
5
111
100
AcDbEntity
8
1
62
256
6
ByLayer
370
18
48
1
60
0
100
AcDbSpline
70
4
71
3
72
18
73
14
40
0
40
0
40
0
40
0
40
0.100062563484087
40
0.171452432050391
40
0.225979970896339
40
0.296370455919882
40
0.377747621131919
40
0.521064392118601
40
0.63894849216129
40
0.737823755960947
40
0.856215283534804
40
0.974281493096708
40
1
40
1
40
1
40
1
41
1
10
13.0943380157977
20
-2.77409596062461
30
0
41
1
10
13.275898823051
20
-2.77451890892505
30
0
41
1
10
13.5869895749626
20
-2.77521695246762
30
0
41
1
10
13.9973027079349
20
-2.77617233062188
30
0
41
1
10
14.3532783483657
20
-2.77681747002629
30
0
41
1
10
14.7277796943063
20
-2.777329576064
30
0
41
1
10
15.2633626531187
20
-2.77936334572712
30
0
41
1
10
15.8851711164882
20
-2.77988367691501
30
0
41
1
10
16.5386795878888
20
-2.780572956871
30
0
41
1
10
17.1470137348275
20
-2.78273417056926
30
0
41
1
10
17.7556681646193
20
-2.78418465323762
30
0
41
1
10
18.2315430599874
20
-2.78481141883981
30
0
41
1
10
18.492526418889
20
-2.784687991201
30
0
41
1
10
18.539207927303
20
-2.78466603523589
30
0
0
SPLINE
5
112
100
AcDbEntity
8
1
62
256
6
ByLayer
370
18
48
1
60
0
100
AcDbSpline
70
4
71
3
72
19
73
15
40
0
40
0
40
0
40
0
40
0.0987518605135491
40
0.169532314961129
40
0.214018261559106
40
0.255345551467125
40
0.3008496926112
40
0.350004947112203
40
0.400676789688997
40
0.543143752689322
40
0.662393375468521
40
0.761478960595958
40
0.87881347015816
40
1
40
1
40
1
40
1
41
1
10
20.1596800135373
20
2.78888474655224
30
0
41
1
10
19.9814491957575
20
2.78863914663299
30
0
41
1
10
19.6754728162653
20
2.78795163744985
30
0
41
1
10
19.289216484768
20
2.78589861900053
30
0
41
1
10
19.0065931527283
20
2.78483532933677
30
0
41
1
10
18.7695954717698
20
2.7845757961897
30
0
41
1
10
18.524162525705
20
2.78464541114562
30
0
41
1
10
18.2618646681825
20
2.78480862147305
30
0
41
1
10
17.8245650867472
20
2.78457788231273
30
0
41
1
10
17.2607674805888
20
2.78279657419139
30
0
41
1
10
16.6095658248159
20
2.78085314694766
30
0
41
1
10
16.0038217794936
20
2.77984651319693
30
0
41
1
10
15.3944954555193
20
2.77981680332925
30
0
41
1
10
14.9640261856461
20
2.77812706049593
30
0
41
1
10
14.7452975048261
20
2.77755094702283
30
0
0
LINE
5
82
100
AcDbEntity
8
4
62
256
6
ByLayer
370
18
48
0.05
60
0
100
AcDbLine
10
0
20
0
30
0
11
30
21
0
31
0
39
0
210
0
220
0
230
1
0
LINE
5
84
100
AcDbEntity
8
81
62
256
6
ByLayer
370
18
48
1
60
0
100
AcDbLine
10
30
20
0
30
0
11
33
21
0
31
0
39
0
210
0
220
0
230
1
0
LINE
5
85
100
AcDbEntity
8
80
62
256
6
ByLayer
370
18
48
1
60
0
100
AcDbLine
10
0
20
0
30
0
11
-3
21
0
31
0
39
0
210
0
220
0
230
1
0
LINE
5
86
100
AcDbEntity
8
SK4
62
256
6
ByLayer
370
18
48
0.05
60
0
100
AcDbLine
10
-39
20
0
30
0
11
33
21
0
31
0
39
0
210
0
220
0
230
1
0
LINE
5
88
100
AcDbEntity
8
1
62
256
6
ByLayer
370
18
48
1
60
0
100
AcDbLine
10
0
20
3
30
0
11
0
21
-3
31
0
39
0
210
0
220
0
230
1
0
LINE
5
89
100
AcDbEntity
8
1
62
256
6
ByLayer
370
13
48
1
60
0
100
AcDbLine
10
29.928487
20
0.332869
30
0
11
29.292751
21
0.907984
31
0
39
0
210
0
220
0
230
1
0
LINE
5
8A
100
AcDbEntity
8
1
62
256
6
ByLayer
370
13
48
1
60
0
100
AcDbLine
10
0.133185
20
-2.949204
30
0
11
0.133185
21
2.949204
31
0
39
0
210
0
220
0
230
1
0
LINE
5
8B
100
AcDbEntity
8
1
62
256
6
ByLayer
370
18
48
1
60
0
100
AcDbLine
10
11.300304
20
-2.725756
30
0
11
11.300304
21
0.215201
31
0
39
0
210
0
220
0
230
1
0
LINE
5
8C
100
AcDbEntity
8
1
62
256
6
ByLayer
370
18
48
1
60
0
100
AcDbLine
10
11.300304
20
-2.837397
30
0
11
11.300304
21
-2.850338
31
0
39
0
210
0
220
0
230
1
0
LINE
5
8D
100
AcDbEntity
8
1
62
256
6
ByLayer
370
13
48
1
60
0
100
AcDbLine
10
0.26673
20
-2.898407
30
0
11
0.26673
21
2.898407
31
0
39
0
210
0
220
0
230
1
0
LINE
5
8E
100
AcDbEntity
8
SK1
62
256
6
ByLayer
370
18
48
1
60
0
100
AcDbLine
10
-36
20
-0.667219
30
0
11
-36
21
-1.813798
31
0
39
0
210
0
220
0
230
1
0
LINE
5
90
100
AcDbEntity
8
SK1
62
256
6
ByLayer
370
13
48
1
60
0
100
AcDbLine
10
-35.75
20
-1.985405
30
0
11
-35.75
21
-0.838811
31
0
39
0
210
0
220
0
230
1
0
LINE
5
91
100
AcDbEntity
8
SK1
62
256
6
ByLayer
370
18
48
1
60
0
100
AcDbLine
10
-36
20
2.065
30
0
11
-36
21
-0.66722
31
0
39
0
210
0
220
0
230
1
0
LINE
5
92
100
AcDbEntity
8
SK1
62
256
6
ByLayer
370
18
48
1
60
0
100
AcDbLine
10
-35.65
20
-1.996485
30
0
11
-35.65
21
-1.002784
31
0
39
0
210
0
220
0
230
1
0
LINE
5
93
100
AcDbEntity
8
SK1
62
256
6
ByLayer
370
18
48
1
60
0
100
AcDbLine
10
-36
20
-2.065
30
0
11
-36
21
-1.813798
31
0
39
0
210
0
220
0
230
1
0
LINE
5
94
100
AcDbEntity
8
SK1
62
256
6
ByLayer
370
18
48
1
60
0
100
AcDbLine
10
0
20
3
30
0
11
0
21
-3
31
0
39
0
210
0
220
0
230
1
0
LINE
5
95
100
AcDbEntity
8
SK1
62
256
6
ByLayer
370
18
48
1
60
0
100
AcDbLine
10
-35.065
20
-3
30
0
11
-35.065
21
3
31
0
39
0
210
0
220
0
230
1
0
LINE
5
96
100
AcDbEntity
8
1
62
256
6
ByLayer
370
18
48
1
60
0
100
AcDbLine
10
0.26673
20
-2.898407
30
0
11
4.620781
21
-2.906245
31
0
39
0
210
0
220
0
230
1
0
LINE
5
97
100
AcDbEntity
8
1
62
256
6
ByLayer
370
18
48
1
60
0
100
AcDbLine
10
12.529952
20
-2.920481
30
0
11
13.096633
21
-2.921501
31
0
39
0
210
0
220
0
230
1
0
LINE
5
98
100
AcDbEntity
8
1
62
256
6
ByLayer
370
18
48
1
60
0
100
AcDbLine
10
20.163804
20
-2.934222
30
0
11
20.921904
21
-2.935587
31
0
39
0
210
0
220
0
230
1
0
LINE
5
99
100
AcDbEntity
8
1
62
256
6
ByLayer
370
18
48
1
60
0
100
AcDbLine
10
20.921904
20
2.935587
30
0
11
20.163804
21
2.934222
31
0
39
0
210
0
220
0
230
1
0
LINE
5
9A
100
AcDbEntity
8
1
62
256
6
ByLayer
370
18
48
1
60
0
100
AcDbLine
10
13.096633
20
2.921501
30
0
11
12.529952
21
2.920481
31
0
39
0
210
0
220
0
230
1
0
LINE
5
9B
100
AcDbEntity
8
1
62
256
6
ByLayer
370
18
48
1
60
0
100
AcDbLine
10
4.620781
20
2.906245
30
0
11
0.26673
21
2.898407
31
0
39
0
210
0
220
0
230
1
0
LINE
5
9C
100
AcDbEntity
8
SK1
62
256
6
ByLayer
370
18
48
1
60
0
100
AcDbLine
10
-36
20
-2.065
30
0
11
-35.065
21
-3
31
0
39
0
210
0
220
0
230
1
0
LINE
5
9D
100
AcDbEntity
8
SK1
62
256
6
ByLayer
370
18
48
1
60
0
100
AcDbLine
10
-35.065
20
3
30
0
11
-36
21
2.065
31
0
39
0
210
0
220
0
230
1
0
LINE
5
9E
100
AcDbEntity
8
SK1
62
256
6
ByLayer
370
18
48
1
60
0
100
AcDbLine
10
-35.065
20
-3
30
0
11
0
21
-3
31
0
39
0
210
0
220
0
230
1
0
LINE
5
9F
100
AcDbEntity
8
SK1
62
256
6
ByLayer
370
18
48
1
60
0
100
AcDbLine
10
0
20
3
30
0
11
-35.065
21
3
31
0
39
0
210
0
220
0
230
1
0
LINE
5
A0
100
AcDbEntity
8
2
62
256
6
ByLayer
370
13
48
1
60
0
100
AcDbLine
10
37.5
20
27.249084
30
0
11
37.5
21
-10.45
31
0
39
0
210
0
220
0
230
1
0
LINE
5
A2
100
AcDbEntity
8
2
62
256
6
ByLayer
370
13
48
1
60
0
100
AcDbLine
10
31.5875
20
2.95
30
0
11
39.5
21
2.95
31
0
39
0
210
0
220
0
230
1
0
LINE
5
A3
100
AcDbEntity
8
2
62
256
6
ByLayer
370
13
48
1
60
0
100
AcDbLine
10
31.5875
20
-2.95
30
0
11
39.5
21
-2.95
31
0
39
0
210
0
220
0
230
1
0
LINE
5
A4
100
AcDbEntity
8
1
62
256
6
ByLayer
370
18
48
1
60
1
100
AcDbLine
10
37.5
20
2.95
30
0
11
37.039216
21
6.449998
31
0
39
0
210
0
220
0
230
1
0
LINE
5
A5
100
AcDbEntity
8
1
62
256
6
ByLayer
370
18
48
1
60
1
100
AcDbLine
10
37.039216
20
6.449998
30
0
11
37.960784
21
6.450002
31
0
39
0
210
0
220
0
230
1
0
LINE
5
A6
100
AcDbEntity
8
1
62
256
6
ByLayer
370
18
48
1
60
1
100
AcDbLine
10
37.960784
20
6.450002
30
0
11
37.5
21
2.95
31
0
39
0
210
0
220
0
230
1
0
LINE
5
A7
100
AcDbEntity
8
1
62
256
6
ByLayer
370
18
48
1
60
1
100
AcDbLine
10
37.5
20
-2.95
30
0
11
37.960784
21
-6.449998
31
0
39
0
210
0
220
0
230
1
0
LINE
5
A8
100
AcDbEntity
8
1
62
256
6
ByLayer
370
18
48
1
60
1
100
AcDbLine
10
37.960784
20
-6.449998
30
0
11
37.039216
21
-6.450002
31
0
39
0
210
0
220
0
230
1
0
LINE
5
A9
100
AcDbEntity
8
1
62
256
6
ByLayer
370
18
48
1
60
1
100
AcDbLine
10
37.039216
20
-6.450002
30
0
11
37.5
21
-2.95
31
0
39
0
210
0
220
0
230
1
0
LINE
5
AA
100
AcDbEntity
8
SK2
62
256
6
ByLayer
370
13
48
1
60
0
100
AcDbLine
10
-44.5
20
13.841828
30
0
11
-44.5
21
-10.5
31
0
39
0
210
0
220
0
230
1
0
LINE
5
AC
100
AcDbEntity
8
SK2
62
256
6
ByLayer
370
13
48
1
60
0
100
AcDbLine
10
-37.5875
20
3
30
0
11
-46.5
21
3
31
0
39
0
210
0
220
0
230
1
0
LINE
5
AD
100
AcDbEntity
8
SK2
62
256
6
ByLayer
370
13
48
1
60
0
100
AcDbLine
10
-37.5875
20
-3
30
0
11
-46.5
21
-3
31
0
39
0
210
0
220
0
230
1
0
LINE
5
AE
100
AcDbEntity
8
1
62
256
6
ByLayer
370
18
48
1
60
1
100
AcDbLine
10
-44.5
20
3
30
0
11
-44.960784
21
6.499998
31
0
39
0
210
0
220
0
230
1
0
LINE
5
AF
100
AcDbEntity
8
1
62
256
6
ByLayer
370
18
48
1
60
1
100
AcDbLine
10
-44.960784
20
6.499998
30
0
11
-44.039216
21
6.500002
31
0
39
0
210
0
220
0
230
1
0
LINE
5
B0
100
AcDbEntity
8
1
62
256
6
ByLayer
370
18
48
1
60
1
100
AcDbLine
10
-44.039216
20
6.500002
30
0
11
-44.5
21
3
31
0
39
0
210
0
220
0
230
1
0
LINE
5
B1
100
AcDbEntity
8
1
62
256
6
ByLayer
370
18
48
1
60
1
100
AcDbLine
10
-44.5
20
-3
30
0
11
-44.039216
21
-6.499998
31
0
39
0
210
0
220
0
230
1
0
LINE
5
B2
100
AcDbEntity
8
1
62
256
6
ByLayer
370
18
48
1
60
1
100
AcDbLine
10
-44.039216
20
-6.499998
30
0
11
-44.960784
21
-6.500002
31
0
39
0
210
0
220
0
230
1
0
LINE
5
B3
100
AcDbEntity
8
1
62
256
6
ByLayer
370
18
48
1
60
1
100
AcDbLine
10
-44.960784
20
-6.500002
30
0
11
-44.5
21
-3
31
0
39
0
210
0
220
0
230
1
0
LINE
5
B4
100
AcDbEntity
8
SK2
62
256
6
ByLayer
370
13
48
1
60
0
100
AcDbLine
10
30.543085
20
1.491715
30
0
11
37.057659
21
19.385563
31
0
39
0
210
0
220
0
230
1
0
LINE
5
B5
100
AcDbEntity
8
SK2
62
256
6
ByLayer
370
13
48
1
60
0
100
AcDbLine
10
30.543085
20
-1.491715
30
0
11
37.057659
21
-19.385563
31
0
39
0
210
0
220
0
230
1
0
LINE
5
B6
100
AcDbEntity
8
1
62
256
6
ByLayer
370
18
48
1
60
1
100
AcDbLine
10
36.373457
20
17.506236
30
0
11
39.780351
21
16.581367
31
0
39
0
210
0
220
0
230
1
0
LINE
5
B7
100
AcDbEntity
8
1
62
256
6
ByLayer
370
18
48
1
60
1
100
AcDbLine
10
39.780351
20
16.581367
30
0
11
39.424893
21
15.731111
31
0
39
0
210
0
220
0
230
1
0
LINE
5
B8
100
AcDbEntity
8
1
62
256
6
ByLayer
370
18
48
1
60
1
100
AcDbLine
10
39.424893
20
15.731111
30
0
11
36.373457
21
17.506236
31
0
39
0
210
0
220
0
230
1
0
LINE
5
B9
100
AcDbEntity
8
1
62
256
6
ByLayer
370
18
48
1
60
1
100
AcDbLine
10
36.373457
20
-17.506236
30
0
11
39.42489
21
-15.731112
31
0
39
0
210
0
220
0
230
1
0
LINE
5
BA
100
AcDbEntity
8
1
62
256
6
ByLayer
370
18
48
1
60
1
100
AcDbLine
10
39.42489
20
-15.731112
30
0
11
39.780354
21
-16.581366
31
0
39
0
210
0
220
0
230
1
0
LINE
5
BB
100
AcDbEntity
8
1
62
256
6
ByLayer
370
18
48
1
60
1
100
AcDbLine
10
39.780354
20
-16.581366
30
0
11
36.373457
21
-17.506236
31
0
39
0
210
0
220
0
230
1
0
LINE
5
113
100
AcDbEntity
8
1
62
256
6
ByLayer
370
13
48
0.05
60
0
100
AcDbLine
10
-42.5
20
0
30
0
11
35.402149
21
0
31
0
39
0
210
0
220
0
230
1
0
LINE
5
118
100
AcDbEntity
8
1
62
256
6
ByLayer
370
18
48
1
60
1
100
AcDbLine
10
37.5
20
2.95
30
0
11
37.039216
21
6.449998
31
0
39
0
210
0
220
0
230
1
0
LINE
5
119
100
AcDbEntity
8
1
62
256
6
ByLayer
370
18
48
1
60
1
100
AcDbLine
10
37.039216
20
6.449998
30
0
11
37.960784
21
6.450002
31
0
39
0
210
0
220
0
230
1
0
LINE
5
11A
100
AcDbEntity
8
1
62
256
6
ByLayer
370
18
48
1
60
1
100
AcDbLine
10
37.960784
20
6.450002
30
0
11
37.5
21
2.95
31
0
39
0
210
0
220
0
230
1
0
LINE
5
11C
100
AcDbEntity
8
1
62
256
6
ByLayer
370
18
48
1
60
1
100
AcDbLine
10
37.5
20
-2.95
30
0
11
37.960784
21
-6.449998
31
0
39
0
210
0
220
0
230
1
0
LINE
5
11D
100
AcDbEntity
8
1
62
256
6
ByLayer
370
18
48
1
60
1
100
AcDbLine
10
37.960784
20
-6.449998
30
0
11
37.039216
21
-6.450002
31
0
39
0
210
0
220
0
230
1
0
LINE
5
11E
100
AcDbEntity
8
1
62
256
6
ByLayer
370
18
48
1
60
1
100
AcDbLine
10
37.039216
20
-6.450002
30
0
11
37.5
21
-2.95
31
0
39
0
210
0
220
0
230
1
0
LINE
5
122
100
AcDbEntity
8
1
62
256
6
ByLayer
370
18
48
1
60
1
100
AcDbLine
10
-44.5
20
3
30
0
11
-44.960784
21
6.499998
31
0
39
0
210
0
220
0
230
1
0
LINE
5
123
100
AcDbEntity
8
1
62
256
6
ByLayer
370
18
48
1
60
1
100
AcDbLine
10
-44.960784
20
6.499998
30
0
11
-44.039216
21
6.500002
31
0
39
0
210
0
220
0
230
1
0
LINE
5
124
100
AcDbEntity
8
1
62
256
6
ByLayer
370
18
48
1
60
1
100
AcDbLine
10
-44.039216
20
6.500002
30
0
11
-44.5
21
3
31
0
39
0
210
0
220
0
230
1
0
LINE
5
126
100
AcDbEntity
8
1
62
256
6
ByLayer
370
18
48
1
60
1
100
AcDbLine
10
-44.5
20
-3
30
0
11
-44.039216
21
-6.499998
31
0
39
0
210
0
220
0
230
1
0
LINE
5
127
100
AcDbEntity
8
1
62
256
6
ByLayer
370
18
48
1
60
1
100
AcDbLine
10
-44.039216
20
-6.499998
30
0
11
-44.960784
21
-6.500002
31
0
39
0
210
0
220
0
230
1
0
LINE
5
128
100
AcDbEntity
8
1
62
256
6
ByLayer
370
18
48
1
60
1
100
AcDbLine
10
-44.960784
20
-6.500002
30
0
11
-44.5
21
-3
31
0
39
0
210
0
220
0
230
1
0
LINE
5
12B
100
AcDbEntity
8
1
62
256
6
ByLayer
370
18
48
1
60
1
100
AcDbLine
10
36.373457
20
17.506236
30
0
11
39.780351
21
16.581367
31
0
39
0
210
0
220
0
230
1
0
LINE
5
12C
100
AcDbEntity
8
1
62
256
6
ByLayer
370
18
48
1
60
1
100
AcDbLine
10
39.780351
20
16.581367
30
0
11
39.424893
21
15.731111
31
0
39
0
210
0
220
0
230
1
0
LINE
5
12D
100
AcDbEntity
8
1
62
256
6
ByLayer
370
18
48
1
60
1
100
AcDbLine
10
39.424893
20
15.731111
30
0
11
36.373457
21
17.506236
31
0
39
0
210
0
220
0
230
1
0
LINE
5
12F
100
AcDbEntity
8
1
62
256
6
ByLayer
370
18
48
1
60
1
100
AcDbLine
10
36.373457
20
-17.506236
30
0
11
39.42489
21
-15.731112
31
0
39
0
210
0
220
0
230
1
0
LINE
5
130
100
AcDbEntity
8
1
62
256
6
ByLayer
370
18
48
1
60
1
100
AcDbLine
10
39.42489
20
-15.731112
30
0
11
39.780354
21
-16.581366
31
0
39
0
210
0
220
0
230
1
0
LINE
5
131
100
AcDbEntity
8
1
62
256
6
ByLayer
370
18
48
1
60
1
100
AcDbLine
10
39.780354
20
-16.581366
30
0
11
36.373457
21
-17.506236
31
0
39
0
210
0
220
0
230
1
0
MTEXT
5
114
100
AcDbEntity
8
2
62
256
6
ByLayer
370
18
48
1
60
0
100
AcDbMText
10
36.158886
20
16.608437
30
0
210
0
220
0
230
1
1
%%c
40
3
41
0
44
1.084337
50
90
71
7
72
5
7
iso_b_vert
0
MTEXT
5
117
100
AcDbEntity
8
2
62
256
6
ByLayer
370
18
48
1
60
0
100
AcDbMText
10
36.158886
20
22.585
30
0
210
0
220
0
230
1
1
\W0.7276;5.9
40
3
41
0
44
1.084337
50
90
71
7
72
5
7
iso_b_vert
0
MTEXT
5
120
100
AcDbEntity
8
SK2
62
256
6
ByLayer
370
18
48
1
60
0
100
AcDbMText
10
-45.841114
20
6.658437
30
0
210
0
220
0
230
1
1
%%c
40
3
41
0
44
1.084337
50
90
71
7
72
5
7
iso_b_vert
0
MTEXT
5
121
100
AcDbEntity
8
SK2
62
256
6
ByLayer
370
18
48
1
60
0
100
AcDbMText
10
-45.841114
20
12.635
30
0
210
0
220
0
230
1
1
\W0.5404;6
40
3
41
0
44
1.084337
50
90
71
7
72
5
7
iso_b_vert
0
MTEXT
5
12A
100
AcDbEntity
8
SK2
62
256
6
ByLayer
370
18
48
1
60
0
100
AcDbMText
10
45.189675
20
-2.114886
30
0
210
0
220
0
230
1
1
\W0.7071;140%%d
40
3
41
0
44
1.084337
50
0
71
7
72
5
7
iso_b_vert
0
MTEXT
5
133
100
AcDbEntity
8
SK6
62
256
6
ByLayer
370
18
48
1
60
0
100
AcDbMText
10
-27.600659
20
-77.114886
30
0
210
0
220
0
230
1
1
\W0.7415;860.1-0590-018A1-SD S2BM
40
3
41
0
44
1.084337
50
0
71
7
72
5
7
iso_b_vert
0
HATCH
5
11B
100
AcDbEntity
8
2
62
256
6
ByLayer
370
13
48
1
60
0
100
AcDbHatch
10
0
20
0
30
0
210
0
220
0
230
1
2
ANSI31
70
0
71
0
91
1
92
5
93
3
72
1
10
37.5
20
2.94999999999999
11
37.0392162584472
21
6.4499983074468
72
1
10
37.0392162584472
20
6.4499983074468
11
37.9607837415528
21
6.45000169255317
72
1
10
37.9607837415528
20
6.45000169255317
11
37.5
21
2.94999999999999
97
0
75
0
76
1
52
0
41
0.0062
77
0
78
1
53
45
43
0
44
0
45
-0.0139193969876572
46
0.0139193969876572
79
0
47
0
98
1
10
0
20
0
0
HATCH
5
11F
100
AcDbEntity
8
2
62
256
6
ByLayer
370
13
48
1
60
0
100
AcDbHatch
10
0
20
0
30
0
210
0
220
0
230
1
2
ANSI31
70
0
71
0
91
1
92
5
93
3
72
1
10
37.5
20
-2.95000000000002
11
37.9607837415528
21
-6.44999830744683
72
1
10
37.9607837415528
20
-6.44999830744683
11
37.0392162584472
21
-6.4500016925532
72
1
10
37.0392162584472
20
-6.4500016925532
11
37.5
21
-2.95000000000002
97
0
75
0
76
1
52
0
41
0.0062
77
0
78
1
53
45
43
0
44
0
45
-0.0139193969876572
46
0.0139193969876572
79
0
47
0
98
1
10
0
20
0
0
HATCH
5
125
100
AcDbEntity
8
SK2
62
256
6
ByLayer
370
13
48
1
60
0
100
AcDbHatch
10
0
20
0
30
0
210
0
220
0
230
1
2
ANSI31
70
0
71
0
91
1
92
5
93
3
72
1
10
-44.5
20
3
11
-44.9607837415528
21
6.49999830744682
72
1
10
-44.9607837415528
20
6.49999830744682
11
-44.0392162584472
21
6.50000169255318
72
1
10
-44.0392162584472
20
6.50000169255318
11
-44.5
21
3
97
0
75
0
76
1
52
0
41
0.0062
77
0
78
1
53
45
43
0
44
0
45
-0.0139193969876572
46
0.0139193969876572
79
0
47
0
98
1
10
0
20
0
0
HATCH
5
129
100
AcDbEntity
8
SK2
62
256
6
ByLayer
370
13
48
1
60
0
100
AcDbHatch
10
0
20
0
30
0
210
0
220
0
230
1
2
ANSI31
70
0
71
0
91
1
92
5
93
3
72
1
10
-44.5
20
-3
11
-44.0392162584472
21
-6.49999830744682
72
1
10
-44.0392162584472
20
-6.49999830744682
11
-44.9607837415528
21
-6.50000169255318
72
1
10
-44.9607837415528
20
-6.50000169255318
11
-44.5
21
-3
97
0
75
0
76
1
52
0
41
0.0062
77
0
78
1
53
45
43
0
44
0
45
-0.0139193969876572
46
0.0139193969876572
79
0
47
0
98
1
10
0
20
0
0
HATCH
5
12E
100
AcDbEntity
8
SK2
62
256
6
ByLayer
370
13
48
1
60
0
100
AcDbHatch
10
0
20
0
30
0
210
0
220
0
230
1
2
ANSI31
70
0
71
0
91
1
92
5
93
3
72
1
10
36.3734568392443
20
17.5062361971788
11
39.7803509423765
21
16.5813673531512
72
1
10
39.7803509423765
20
16.5813673531512
11
39.4248930708234
21
15.7311107286666
72
1
10
39.4248930708234
20
15.7311107286666
11
36.3734568392443
21
17.5062361971788
97
0
75
0
76
1
52
0
41
0.0062
77
0
78
1
53
45
43
0
44
0
45
-0.0139193969876572
46
0.0139193969876572
79
0
47
0
98
1
10
0
20
0
0
HATCH
5
132
100
AcDbEntity
8
SK2
62
256
6
ByLayer
370
13
48
1
60
0
100
AcDbHatch
10
0
20
0
30
0
210
0
220
0
230
1
2
ANSI31
70
0
71
0
91
1
92
5
93
3
72
1
10
36.3734568392443
20
-17.5062361971788
11
39.4248899476612
21
-15.7311120343478
72
1
10
39.4248899476612
20
-15.7311120343478
11
39.7803540655387
21
-16.5813660474701
72
1
10
39.7803540655387
20
-16.5813660474701
11
36.3734568392443
21
-17.5062361971788
97
0
75
0
76
1
52
0
41
0.0062
77
0
78
1
53
45
43
0
44
0
45
-0.0139193969876572
46
0.0139193969876572
79
0
47
0
98
1
10
0
20
0
0
DIMENSION
5
136
100
AcDbEntity
8
SK2
62
256
6
ByLayer
370
18
48
1
60
0
100
AcDbDimension
2
_U0
10
11.3
20
-18.481499
30
0
11
20.65
21
-18.481499
31
0
70
32
71
1
72
1
41
1
210
0
220
0
230
1
3
Standard
100
AcDbAlignedDimension
13
30
23
-2.95
33
0
14
11.3
24
-2.95
34
0
50
0
100
AcDbRotatedDimension
1001
ACAD
1000
DSTYLE
1002
{
1070
   371
1070
    13
1070
   372
1070
    13
1070
   170
1070
     0
1070
   144
1040
1.0
1070
   277
1070
     2
1070
   284
1070
     8
1070
   278
1070
    46
1070
   146
1040
1.166667
1070
   345
1005
16
1070
   347
1005
16
1070
   346
1005
16
1070
   344
1005
0
1070
   343
1005
0
1070
   172
1070
     1
1070
    76
1070
     0
1070
    75
1070
     0
1070
   282
1070
     0
1070
   281
1070
     0
1070
     3
1000

1070
    71
1070
     0
1070
    74
1070
     0
1070
   279
1070
     0
1070
   173
1070
     1
1070
   340
1005
115
1070
   271
1070
     2
1070
   272
1070
     2
1070
    77
1070
     1
1070
    73
1070
     1
1070
   171
1070
     3
1070
   274
1070
     4
1070
   177
1070
     2
1070
   176
1070
     2
1070
   178
1070
     2
1070
    78
1070
     8
1070
    48
1040
-0.1
1070
    41
1040
3.5
1070
   147
1040
1.5
1070
    42
1040
1.5875
1070
    44
1040
2.0
1070
   140
1040
3.0
1002
}
1001
ACAD_DSTYLE_DIM_LINETYPE
1070
   380
1005
16
1001
ACAD_DSTYLE_DIM_EXT1_LINETYPE
1070
   381
1005
16
1001
ACAD_DSTYLE_DIM_EXT2_LINETYPE
1070
   382
1005
16
0
DIMENSION
5
151
100
AcDbEntity
8
SK2
62
256
6
ByLayer
370
18
48
1
60
0
100
AcDbDimension
2
_U1
10
2
20
-28.481499
30
0
11
16
21
-28.481499
31
0
70
32
71
1
72
1
41
1
210
0
220
0
230
1
3
Standard
100
AcDbAlignedDimension
13
30
23
-2.95
33
0
14
2
24
-2.95
34
0
50
0
100
AcDbRotatedDimension
1001
ACAD
1000
DSTYLE
1002
{
1070
   371
1070
    13
1070
   372
1070
    13
1070
     3
1000

1070
   170
1070
     0
1070
   144
1040
1.0
1070
   277
1070
     2
1070
   284
1070
     8
1070
   278
1070
    46
1070
   146
1040
1.166667
1070
   345
1005
16
1070
   347
1005
16
1070
   346
1005
16
1070
   344
1005
0
1070
   343
1005
0
1070
   172
1070
     1
1070
    76
1070
     0
1070
    75
1070
     0
1070
   282
1070
     0
1070
   281
1070
     0
1070
    71
1070
     0
1070
    74
1070
     0
1070
   279
1070
     0
1070
   173
1070
     1
1070
   340
1005
115
1070
   271
1070
     2
1070
   272
1070
     2
1070
    77
1070
     1
1070
    73
1070
     1
1070
   171
1070
     3
1070
   274
1070
     4
1070
   177
1070
     2
1070
   176
1070
     2
1070
   178
1070
     2
1070
    78
1070
     8
1070
    48
1040
-0.1
1070
    41
1040
3.5
1070
   147
1040
1.5
1070
    42
1040
1.5875
1070
    44
1040
2.0
1070
   140
1040
3.0
1002
}
1001
ACAD_DSTYLE_DIM_LINETYPE
1070
   380
1005
16
1001
ACAD_DSTYLE_DIM_EXT1_LINETYPE
1070
   381
1005
16
1001
ACAD_DSTYLE_DIM_EXT2_LINETYPE
1070
   382
1005
16
0
DIMENSION
5
169
100
AcDbEntity
8
SK2
62
256
6
ByLayer
370
18
48
1
60
0
100
AcDbDimension
2
_U2
10
0
20
-36.481499
30
0
11
-18
21
-36.481499
31
0
70
32
71
1
72
1
41
1
210
0
220
0
230
1
3
Standard
100
AcDbAlignedDimension
13
-36
23
-3
33
0
14
0
24
-3
34
0
50
0
100
AcDbRotatedDimension
1001
ACAD
1000
DSTYLE
1002
{
1070
   371
1070
    13
1070
   372
1070
    13
1070
     3
1000

1070
   170
1070
     0
1070
   144
1040
1.0
1070
   277
1070
     2
1070
   284
1070
     8
1070
   278
1070
    46
1070
   146
1040
1.166667
1070
   345
1005
16
1070
   347
1005
16
1070
   346
1005
16
1070
   344
1005
0
1070
   343
1005
0
1070
   172
1070
     1
1070
    76
1070
     0
1070
    75
1070
     0
1070
   282
1070
     0
1070
   281
1070
     0
1070
    71
1070
     0
1070
    74
1070
     0
1070
   279
1070
     0
1070
   173
1070
     1
1070
   340
1005
115
1070
   271
1070
     2
1070
   272
1070
     2
1070
    77
1070
     1
1070
    73
1070
     1
1070
   171
1070
     3
1070
   274
1070
     4
1070
   177
1070
     2
1070
   176
1070
     2
1070
   178
1070
     2
1070
    78
1070
     8
1070
    48
1040
-0.1
1070
    41
1040
3.5
1070
   147
1040
1.5
1070
    42
1040
1.5875
1070
    44
1040
2.0
1070
   140
1040
3.0
1002
}
1001
ACAD_DSTYLE_DIM_LINETYPE
1070
   380
1005
16
1001
ACAD_DSTYLE_DIM_EXT1_LINETYPE
1070
   381
1005
16
1001
ACAD_DSTYLE_DIM_EXT2_LINETYPE
1070
   382
1005
16
0
DIMENSION
5
181
100
AcDbEntity
8
SK2
62
256
6
ByLayer
370
18
48
1
60
0
100
AcDbDimension
2
_U3
10
30
20
-44.481499
30
0
11
-3
21
-44.481499
31
0
70
32
71
1
72
1
41
1
210
0
220
0
230
1
3
Standard
100
AcDbAlignedDimension
13
-36
23
-3
33
0
14
30
24
-2.95
34
0
50
0
100
AcDbRotatedDimension
1001
ACAD
1000
DSTYLE
1002
{
1070
   371
1070
    13
1070
   372
1070
    13
1070
     3
1000

1070
   170
1070
     0
1070
   144
1040
1.0
1070
   277
1070
     2
1070
   284
1070
     8
1070
   278
1070
    46
1070
   146
1040
1.166667
1070
   345
1005
16
1070
   347
1005
16
1070
   346
1005
16
1070
   344
1005
0
1070
   343
1005
0
1070
   172
1070
     1
1070
    76
1070
     0
1070
    75
1070
     0
1070
   282
1070
     0
1070
   281
1070
     0
1070
    71
1070
     0
1070
    74
1070
     0
1070
   279
1070
     0
1070
   173
1070
     1
1070
   340
1005
115
1070
   271
1070
     2
1070
   272
1070
     2
1070
    77
1070
     1
1070
    73
1070
     1
1070
   171
1070
     3
1070
   274
1070
     4
1070
   177
1070
     2
1070
   176
1070
     2
1070
   178
1070
     2
1070
    78
1070
     8
1070
    48
1040
-0.1
1070
    41
1040
3.5
1070
   147
1040
1.5
1070
    42
1040
1.5875
1070
    44
1040
2.0
1070
   140
1040
3.0
1002
}
1001
ACAD_DSTYLE_DIM_LINETYPE
1070
   380
1005
16
1001
ACAD_DSTYLE_DIM_EXT1_LINETYPE
1070
   381
1005
16
1001
ACAD_DSTYLE_DIM_EXT2_LINETYPE
1070
   382
1005
16
0
DIMENSION
5
199
100
AcDbEntity
8
2
62
256
6
ByLayer
370
18
48
1
60
0
100
AcDbDimension
2
_U4
10
0
20
-36.481499
30
0
11
15
21
-36.481499
31
0
70
32
71
1
72
1
41
1
210
0
220
0
230
1
3
Standard
100
AcDbAlignedDimension
13
30
23
-2.95
33
0
14
0
24
-2.95
34
0
50
0
100
AcDbRotatedDimension
1001
ACAD
1000
DSTYLE
1002
{
1070
   371
1070
    13
1070
   372
1070
    13
1070
     3
1000

1070
   170
1070
     0
1070
   144
1040
1.0
1070
   277
1070
     2
1070
   284
1070
     8
1070
   278
1070
    46
1070
   146
1040
1.166667
1070
   345
1005
16
1070
   347
1005
16
1070
   346
1005
16
1070
   344
1005
0
1070
   343
1005
0
1070
   172
1070
     1
1070
    76
1070
     0
1070
    75
1070
     0
1070
   282
1070
     0
1070
   281
1070
     0
1070
    71
1070
     0
1070
    74
1070
     0
1070
   279
1070
     0
1070
   173
1070
     1
1070
   340
1005
115
1070
   271
1070
     2
1070
   272
1070
     2
1070
    77
1070
     1
1070
    73
1070
     1
1070
   171
1070
     3
1070
   274
1070
     4
1070
   177
1070
     2
1070
   176
1070
     2
1070
   178
1070
     2
1070
    78
1070
     8
1070
    48
1040
-0.1
1070
    41
1040
3.5
1070
   147
1040
1.5
1070
    42
1040
1.5875
1070
    44
1040
2.0
1070
   140
1040
3.0
1002
}
1001
ACAD_DSTYLE_DIM_LINETYPE
1070
   380
1005
16
1001
ACAD_DSTYLE_DIM_EXT1_LINETYPE
1070
   381
1005
16
1001
ACAD_DSTYLE_DIM_EXT2_LINETYPE
1070
   382
1005
16
0
ENDSEC
0
SECTION
2
OBJECTS
0
DICTIONARY
5
221
330
0
100
AcDbDictionary
280
0
281
1
3
ACAD_GROUP
350
222
3
ACAD_MLINESTYLE
350
223
0
DICTIONARY
5
222
330
0
100
AcDbDictionary
280
0
281
1
0
DICTIONARY
5
223
330
0
100
AcDbDictionary
280
0
281
1
3
Standard
350
18
0
MLINESTYLE
5
18
330
223
100
AcDbMlineStyle
2
Standard
70
0
3

62
256
51
90
52
90
71
2
49
-0.5
62
256
6
ByLayer
49
0.5
62
256
6
ByLayer
0
RASTERVARIABLES
5
20f
330

100
AcDbRasterVariables
90
0
70
1
71
1
72
1
0
ENDSEC
0
EOF
