0
SECTION
2
HEADER
9
$ACADVER
1
AC1015
9
$DWGCODEPAGE
3
ANSI_1252
9
$HANDSEED
5
236
9
$ANGBASE
50
0
9
$ANGDIR
70
0
9
$ATTMODE
70
1
9
$AUNITS
70
0
9
$AUPREC
70
0
9
$CECOLOR
62
256
9
$CELTSCALE
40
1
9
$CELTYPE
6
ByLayer
9
$CELWEIGHT
370
18
9
$CLAYER
8
0
9
$CMLJUST
70
0
9
$CMLSCALE
40
1
9
$CMLSTYLE
2
Standard
9
$DIMSTYLE
2
Standard
9
$TEXTSIZE
40
0.2
9
$TEXTSTYLE
7
Standard
9
$LUNITS
70
2
9
$LUPREC
70
4
9
$EXTNAMES
290
1
9
$INSUNITS
70
4
9
$LTSCALE
40
1
9
$LWDISPLAY
290
1
9
$PDMODE
70
0
9
$PDSIZE
40
0
9
$PLINEGEN
70
0
0
ENDSEC
0
SECTION
2
CLASSES
0
CLASS
1
RASTERVARIABLES
2
AcDbRasterVariables
3
ISM
90
0
280
0
281
0
0
ENDSEC
0
SECTION
2
TABLES
0
TABLE
2
VPORT
5
22c
100
AcDbSymbolTable
0
VPORT
5
1
100
AcDbSymbolTableRecord
100
AcDbViewportTableRecord
2
*Active
70
0
10
0
20
0
11
1
21
1
12
-1
22
1
13
0
23
0
14
0.5
24
0.5
15
10
25
10
16
0
26
0
36
1
17
0
27
0
37
0
0
ENDTAB
0
TABLE
2
LTYPE
5
22d
100
AcDbSymbolTable
0
LTYPE
5
14
100
AcDbSymbolTableRecord
100
AcDbLinetypeTableRecord
70
0
2
ByBlock
3

72
65
73
0
40
0
0
LTYPE
5
15
100
AcDbSymbolTableRecord
100
AcDbLinetypeTableRecord
70
0
2
ByLayer
3

72
65
73
0
40
0
0
LTYPE
5
16
100
AcDbSymbolTableRecord
100
AcDbLinetypeTableRecord
70
0
2
Continuous
3
Solid line
72
65
73
0
40
0
0
LTYPE
5
6E
100
AcDbSymbolTableRecord
100
AcDbLinetypeTableRecord
70
0
2
CENTER
3
____ _ ____ _ ____ _ ____
72
65
73
4
40
47.5
49
22
74
0
49
-8.5
74
0
49
8.5
74
0
49
-8.5
74
0
0
LTYPE
5
6F
100
AcDbSymbolTableRecord
100
AcDbLinetypeTableRecord
70
0
2
DASHED
3
__ __ __ __ __ __ __ __ __
72
65
73
2
40
25.72
49
12.86
74
0
49
-12.86
74
0
0
ENDTAB
0
TABLE
2
LAYER
5
22e
100
AcDbSymbolTable
0
LAYER
5
10
100
AcDbSymbolTableRecord
100
AcDbLayerTableRecord
2
0
70
0
62
7
6
Continuous
290
1
370
-3
390
0
0
LAYER
5
71
100
AcDbSymbolTableRecord
100
AcDbLayerTableRecord
2
80
70
0
62
-6
6
Continuous
290
1
370
-3
390
0
0
LAYER
5
73
100
AcDbSymbolTableRecord
100
AcDbLayerTableRecord
2
81
70
0
62
-3
6
Continuous
290
1
370
-3
390
0
0
LAYER
5
75
100
AcDbSymbolTableRecord
100
AcDbLayerTableRecord
2
1
70
0
62
4
6
Continuous
290
1
370
-3
390
0
0
LAYER
5
83
100
AcDbSymbolTableRecord
100
AcDbLayerTableRecord
2
4
70
0
62
-2
6
CENTER
290
1
370
-3
390
0
0
LAYER
5
A9
100
AcDbSymbolTableRecord
100
AcDbLayerTableRecord
2
2
70
0
62
7
6
Continuous
290
1
370
-3
390
0
0
LAYER
5
141
100
AcDbSymbolTableRecord
100
AcDbLayerTableRecord
2
Defpoints
70
0
62
7
6
Continuous
290
0
370
-3
390
0
0
LAYER
5
218
100
AcDbSymbolTableRecord
100
AcDbLayerTableRecord
2
SK4
70
0
62
2
6
CENTER
290
1
370
-3
390
0
0
LAYER
5
219
100
AcDbSymbolTableRecord
100
AcDbLayerTableRecord
2
SK1
70
0
62
4
6
Continuous
290
1
370
-3
390
0
0
LAYER
5
21a
100
AcDbSymbolTableRecord
100
AcDbLayerTableRecord
2
SK2
70
0
62
7
6
Continuous
290
1
370
-3
390
0
0
LAYER
5
21b
100
AcDbSymbolTableRecord
100
AcDbLayerTableRecord
2
SK6
70
0
62
5
6
Continuous
290
1
370
-3
390
0
0
ENDTAB
0
TABLE
2
STYLE
5
22f
100
AcDbSymbolTable
0
STYLE
5
11
100
AcDbSymbolTableRecord
100
AcDbTextStyleTableRecord
2
Standard
3
txt
70
0
71
0
40
0
41
1
42
0
50
0
0
STYLE
5
11D
100
AcDbSymbolTableRecord
100
AcDbTextStyleTableRecord
2
iso_b_vert
3
simplex.shx
70
0
71
0
40
0
41
1
42
0
50
0
0
STYLE
5
11E
100
AcDbSymbolTableRecord
100
AcDbTextStyleTableRecord
2
DWGDirectTextStyle
3
simplex
70
0
71
0
40
0
41
1
42
0
50
0
0
ENDTAB
0
TABLE
2
DIMSTYLE
5
230
100
AcDbSymbolTable
100
AcDbDimStyleTable
0
DIMSTYLE
105
27
100
AcDbSymbolTableRecord
100
AcDbDimStyleTableRecord
2
Standard
70
0
3
<>
41
0.18
42
0.0625
44
0.18
140
0.18
147
0.09
73
0
74
0
77
1
271
2
275
0
278
52
280
0
340
11
0
ENDTAB
0
TABLE
2
VIEW
5
231
100
AcDbSymbolTable
0
ENDTAB
0
TABLE
2
UCS
5
232
100
AcDbSymbolTable
0
ENDTAB
0
TABLE
2
APPID
5
233
100
AcDbSymbolTable
0
APPID
5
12
100
AcDbSymbolTableRecord
100
AcDbRegAppTableRecord
2
ACAD
70
0
0
APPID
5
13D
100
AcDbSymbolTableRecord
100
AcDbRegAppTableRecord
2
ACAD_DSTYLE_DIMBREAK
70
0
0
APPID
5
1D7
100
AcDbSymbolTableRecord
100
AcDbRegAppTableRecord
2
ACAD_DSTYLE_DIM_LINETYPE
70
0
0
APPID
5
1D8
100
AcDbSymbolTableRecord
100
AcDbRegAppTableRecord
2
ACAD_DSTYLE_DIM_EXT1_LINETYPE
70
0
0
APPID
5
1D9
100
AcDbSymbolTableRecord
100
AcDbRegAppTableRecord
2
ACAD_DSTYLE_DIM_EXT2_LINETYPE
70
0
0
APPID
5
214
100
AcDbSymbolTableRecord
100
AcDbRegAppTableRecord
2
ACAD_MLEADERVER
70
0
0
ENDTAB
0
TABLE
2
BLOCK_RECORD
5
234
100
AcDbSymbolTable
0
BLOCK_RECORD
5
1F
100
AcDbSymbolTableRecord
100
AcDbBlockTableRecord
2
*Model_Space
340
0
70
0
0
BLOCK_RECORD
5
1B
100
AcDbSymbolTableRecord
100
AcDbBlockTableRecord
2
*Paper_Space
340
0
70
0
0
BLOCK_RECORD
5
23
100
AcDbSymbolTableRecord
100
AcDbBlockTableRecord
2
*Paper_Space0
340
0
70
0
0
BLOCK_RECORD
5
142
100
AcDbSymbolTableRecord
100
AcDbBlockTableRecord
2
*D1
340
0
70
0
0
BLOCK_RECORD
5
14E
100
AcDbSymbolTableRecord
100
AcDbBlockTableRecord
2
_U0
340
0
70
0
0
BLOCK_RECORD
5
15C
100
AcDbSymbolTableRecord
100
AcDbBlockTableRecord
2
*D3
340
0
70
0
0
BLOCK_RECORD
5
168
100
AcDbSymbolTableRecord
100
AcDbBlockTableRecord
2
_U1
340
0
70
0
0
BLOCK_RECORD
5
174
100
AcDbSymbolTableRecord
100
AcDbBlockTableRecord
2
*D5
340
0
70
0
0
BLOCK_RECORD
5
180
100
AcDbSymbolTableRecord
100
AcDbBlockTableRecord
2
_U2
340
0
70
0
0
BLOCK_RECORD
5
18C
100
AcDbSymbolTableRecord
100
AcDbBlockTableRecord
2
*D7
340
0
70
0
0
BLOCK_RECORD
5
198
100
AcDbSymbolTableRecord
100
AcDbBlockTableRecord
2
_U3
340
0
70
0
0
BLOCK_RECORD
5
1A4
100
AcDbSymbolTableRecord
100
AcDbBlockTableRecord
2
*D9
340
0
70
0
0
BLOCK_RECORD
5
1B0
100
AcDbSymbolTableRecord
100
AcDbBlockTableRecord
2
_U4
340
0
70
0
0
ENDTAB
0
ENDSEC
0
SECTION
2
BLOCKS
0
BLOCK
5
20
100
AcDbEntity
8
0
100
AcDbBlockBegin
2
*Model_Space
70
0
10
0
20
0
30
0
3
*Model_Space
0
ENDBLK
5
21
100
AcDbEntity
8
0
100
AcDbBlockEnd
0
BLOCK
5
1C
100
AcDbEntity
8
0
100
AcDbBlockBegin
2
*Paper_Space
70
0
10
0
20
0
30
0
3
*Paper_Space
0
ENDBLK
5
1D
100
AcDbEntity
8
0
100
AcDbBlockEnd
0
BLOCK
5
24
100
AcDbEntity
8
0
100
AcDbBlockBegin
2
*Paper_Space0
70
0
10
0
20
0
30
0
3
*Paper_Space0
0
ENDBLK
5
25
100
AcDbEntity
8
0
100
AcDbBlockEnd
0
BLOCK
5
143
100
AcDbEntity
8
0
100
AcDbBlockBegin
2
*D1
70
1
10
0
20
0
30
0
3
*D1
0
LINE
5
145
100
AcDbEntity
8
0
62
256
6
ByLayer
370
-2
48
1
60
0
100
AcDbLine
10
68
20
-4.4875
30
0
11
68
21
-20.506187
31
0
39
0
210
0
220
0
230
1
0
LINE
5
146
100
AcDbEntity
8
0
62
256
6
ByLayer
370
-2
48
1
60
0
100
AcDbLine
10
20.6
20
-4.4875
30
0
11
20.6
21
-20.506187
31
0
39
0
210
0
220
0
230
1
0
LINE
5
147
100
AcDbEntity
8
0
62
256
6
ByLayer
370
-2
48
1
60
0
100
AcDbLine
10
64.5
20
-18.506187
30
0
11
24.1
21
-18.506187
31
0
39
0
210
0
220
0
230
1
0
SOLID
5
148
100
AcDbEntity
8
0
62
256
6
ByLayer
370
-1
48
1
60
0
100
AcDbTrace
10
64.5
20
-19.089521
30
0
11
64.5
21
-17.922854
31
0
12
68
22
-18.506187
32
0
13
68
23
-18.506187
33
0
39
0
210
0
220
0
230
1
0
SOLID
5
149
100
AcDbEntity
8
0
62
256
6
ByLayer
370
-1
48
1
60
0
100
AcDbTrace
10
24.1
20
-17.922854
30
0
11
24.1
21
-19.089521
31
0
12
20.6
22
-18.506187
32
0
13
20.6
23
-18.506187
33
0
39
0
210
0
220
0
230
1
0
MTEXT
5
14A
100
AcDbEntity
8
0
62
256
6
ByLayer
370
18
48
1
60
0
100
AcDbMText
10
44.3
20
-12.506187
30
0
210
0
220
0
230
1
1
\A1;47.4
40
3
41
0
44
1
50
0
71
5
72
5
7
iso_b_vert
0
POINT
5
14B
100
AcDbEntity
8
Defpoints
62
0
6
ByLayer
370
-1
48
1
60
0
100
AcDbPoint
10
68
20
-2.9
30
0
39
0
210
0
220
0
230
1
50
360
0
POINT
5
14C
100
AcDbEntity
8
Defpoints
62
0
6
ByLayer
370
-1
48
1
60
0
100
AcDbPoint
10
20.6
20
-2.9
30
0
39
0
210
0
220
0
230
1
50
360
0
POINT
5
14D
100
AcDbEntity
8
Defpoints
62
0
6
ByLayer
370
-1
48
1
60
0
100
AcDbPoint
10
20.6
20
-18.506187
30
0
39
0
210
0
220
0
230
1
50
360
0
ENDBLK
5
144
100
AcDbEntity
8
0
100
AcDbBlockEnd
0
BLOCK
5
157
100
AcDbEntity
8
0
100
AcDbBlockBegin
2
_U0
70
0
10
0
20
0
30
0
3
_U0
0
MTEXT
5
14F
100
AcDbEntity
8
SK2
62
256
6
ByLayer
370
18
48
1
60
0
100
AcDbMText
10
40.622658
20
-16.308573
30
0
210
0
220
0
230
1
1
\W0.7865;47.4
40
3
41
0
44
1.084337
50
0
71
7
72
5
7
iso_b_vert
0
MTEXT
5
150
100
AcDbEntity
8
SK2
62
256
6
ByLayer
370
18
48
1
60
0
100
AcDbMText
10
38.522658
20
-16.308573
30
0
210
0
220
0
230
1
1
\W1.1313;{\H1.88x;(}
40
3
41
0
44
1.084337
50
0
71
7
72
5
7
iso_b_vert
0
MTEXT
5
151
100
AcDbEntity
8
SK2
62
256
6
ByLayer
370
18
48
1
60
0
100
AcDbMText
10
48.295342
20
-16.308573
30
0
210
0
220
0
230
1
1
\W1.1313;{\H1.88x;)}
40
3
41
0
44
1.084337
50
0
71
7
72
5
7
iso_b_vert
0
LINE
5
152
100
AcDbEntity
8
SK2
62
256
6
ByLayer
370
13
48
1
60
0
100
AcDbLine
10
68
20
-4.4875
30
0
11
68
21
-20.506187
31
0
39
0
210
0
220
0
230
1
0
LINE
5
153
100
AcDbEntity
8
SK2
62
256
6
ByLayer
370
13
48
1
60
0
100
AcDbLine
10
20.6
20
-4.4875
30
0
11
20.6
21
-20.506187
31
0
39
0
210
0
220
0
230
1
0
LINE
5
154
100
AcDbEntity
8
SK2
62
256
6
ByLayer
370
13
48
1
60
0
100
AcDbLine
10
68
20
-18.506187
30
0
11
20.6
21
-18.506187
31
0
39
0
210
0
220
0
230
1
0
SOLID
5
155
100
AcDbEntity
8
SK2
62
256
6
ByLayer
370
18
48
1
60
0
100
AcDbTrace
10
68
20
-18.506187
30
0
11
64.500002
21
-18.966971
31
0
12
64.499998
22
-18.045404
32
0
13
64.499998
23
-18.045404
33
0
39
0
210
0
220
0
230
1
0
SOLID
5
156
100
AcDbEntity
8
SK2
62
256
6
ByLayer
370
18
48
1
60
0
100
AcDbTrace
10
20.6
20
-18.506187
30
0
11
24.099998
21
-18.045404
31
0
12
24.100002
22
-18.966971
32
0
13
24.100002
23
-18.966971
33
0
39
0
210
0
220
0
230
1
0
ENDBLK
5
158
100
AcDbEntity
8
0
100
AcDbBlockEnd
0
BLOCK
5
15D
100
AcDbEntity
8
0
100
AcDbBlockBegin
2
*D3
70
1
10
0
20
0
30
0
3
*D3
0
LINE
5
15F
100
AcDbEntity
8
0
62
256
6
ByLayer
370
-2
48
1
60
0
100
AcDbLine
10
68
20
-4.4875
30
0
11
68
21
-30.506187
31
0
39
0
210
0
220
0
230
1
0
LINE
5
160
100
AcDbEntity
8
0
62
256
6
ByLayer
370
-2
48
1
60
0
100
AcDbLine
10
6
20
-4.4875
30
0
11
6
21
-30.506187
31
0
39
0
210
0
220
0
230
1
0
LINE
5
161
100
AcDbEntity
8
0
62
256
6
ByLayer
370
-2
48
1
60
0
100
AcDbLine
10
64.5
20
-28.506187
30
0
11
9.5
21
-28.506187
31
0
39
0
210
0
220
0
230
1
0
SOLID
5
162
100
AcDbEntity
8
0
62
256
6
ByLayer
370
-1
48
1
60
0
100
AcDbTrace
10
64.5
20
-29.089521
30
0
11
64.5
21
-27.922854
31
0
12
68
22
-28.506187
32
0
13
68
23
-28.506187
33
0
39
0
210
0
220
0
230
1
0
SOLID
5
163
100
AcDbEntity
8
0
62
256
6
ByLayer
370
-1
48
1
60
0
100
AcDbTrace
10
9.5
20
-27.922854
30
0
11
9.5
21
-29.089521
31
0
12
6
22
-28.506187
32
0
13
6
23
-28.506187
33
0
39
0
210
0
220
0
230
1
0
MTEXT
5
164
100
AcDbEntity
8
0
62
256
6
ByLayer
370
18
48
1
60
0
100
AcDbMText
10
37
20
-22.506187
30
0
210
0
220
0
230
1
1
\A1;62
40
3
41
0
44
1
50
0
71
5
72
5
7
iso_b_vert
0
POINT
5
165
100
AcDbEntity
8
Defpoints
62
0
6
ByLayer
370
-1
48
1
60
0
100
AcDbPoint
10
68
20
-2.9
30
0
39
0
210
0
220
0
230
1
50
360
0
POINT
5
166
100
AcDbEntity
8
Defpoints
62
0
6
ByLayer
370
-1
48
1
60
0
100
AcDbPoint
10
6
20
-2.9
30
0
39
0
210
0
220
0
230
1
50
360
0
POINT
5
167
100
AcDbEntity
8
Defpoints
62
0
6
ByLayer
370
-1
48
1
60
0
100
AcDbPoint
10
6
20
-28.506187
30
0
39
0
210
0
220
0
230
1
50
360
0
ENDBLK
5
15E
100
AcDbEntity
8
0
100
AcDbBlockEnd
0
BLOCK
5
16F
100
AcDbEntity
8
0
100
AcDbBlockBegin
2
_U1
70
0
10
0
20
0
30
0
3
_U1
0
MTEXT
5
169
100
AcDbEntity
8
SK2
62
256
6
ByLayer
370
18
48
1
60
0
100
AcDbMText
10
35.367172
20
-27.621073
30
0
210
0
220
0
230
1
1
\W0.6740;62
40
3
41
0
44
1.084337
50
0
71
7
72
5
7
iso_b_vert
0
LINE
5
16A
100
AcDbEntity
8
SK2
62
256
6
ByLayer
370
13
48
1
60
0
100
AcDbLine
10
68
20
-4.4875
30
0
11
68
21
-30.506187
31
0
39
0
210
0
220
0
230
1
0
LINE
5
16B
100
AcDbEntity
8
SK2
62
256
6
ByLayer
370
13
48
1
60
0
100
AcDbLine
10
6
20
-4.4875
30
0
11
6
21
-30.506187
31
0
39
0
210
0
220
0
230
1
0
LINE
5
16C
100
AcDbEntity
8
SK2
62
256
6
ByLayer
370
13
48
1
60
0
100
AcDbLine
10
68
20
-28.506187
30
0
11
6
21
-28.506187
31
0
39
0
210
0
220
0
230
1
0
SOLID
5
16D
100
AcDbEntity
8
SK2
62
256
6
ByLayer
370
18
48
1
60
0
100
AcDbTrace
10
68
20
-28.506187
30
0
11
64.500002
21
-28.966971
31
0
12
64.499998
22
-28.045404
32
0
13
64.499998
23
-28.045404
33
0
39
0
210
0
220
0
230
1
0
SOLID
5
16E
100
AcDbEntity
8
SK2
62
256
6
ByLayer
370
18
48
1
60
0
100
AcDbTrace
10
6
20
-28.506187
30
0
11
9.499998
21
-28.045404
31
0
12
9.500002
22
-28.966971
32
0
13
9.500002
23
-28.966971
33
0
39
0
210
0
220
0
230
1
0
ENDBLK
5
170
100
AcDbEntity
8
0
100
AcDbBlockEnd
0
BLOCK
5
175
100
AcDbEntity
8
0
100
AcDbBlockBegin
2
*D5
70
1
10
0
20
0
30
0
3
*D5
0
LINE
5
177
100
AcDbEntity
8
0
62
256
6
ByLayer
370
-2
48
1
60
0
100
AcDbLine
10
-36
20
-4.5875
30
0
11
-36
21
-38.506187
31
0
39
0
210
0
220
0
230
1
0
LINE
5
178
100
AcDbEntity
8
0
62
256
6
ByLayer
370
-2
48
1
60
0
100
AcDbLine
10
0
20
-4.5875
30
0
11
0
21
-38.506187
31
0
39
0
210
0
220
0
230
1
0
LINE
5
179
100
AcDbEntity
8
0
62
256
6
ByLayer
370
-2
48
1
60
0
100
AcDbLine
10
-32.5
20
-36.506187
30
0
11
-3.5
21
-36.506187
31
0
39
0
210
0
220
0
230
1
0
SOLID
5
17A
100
AcDbEntity
8
0
62
256
6
ByLayer
370
-1
48
1
60
0
100
AcDbTrace
10
-32.5
20
-35.922854
30
0
11
-32.5
21
-37.089521
31
0
12
-36
22
-36.506187
32
0
13
-36
23
-36.506187
33
0
39
0
210
0
220
0
230
1
0
SOLID
5
17B
100
AcDbEntity
8
0
62
256
6
ByLayer
370
-1
48
1
60
0
100
AcDbTrace
10
-3.5
20
-37.089521
30
0
11
-3.5
21
-35.922854
31
0
12
0
22
-36.506187
32
0
13
0
23
-36.506187
33
0
39
0
210
0
220
0
230
1
0
MTEXT
5
17C
100
AcDbEntity
8
0
62
256
6
ByLayer
370
18
48
1
60
0
100
AcDbMText
10
-18
20
-30.506187
30
0
210
0
220
0
230
1
1
\A1;36
40
3
41
0
44
1
50
0
71
5
72
5
7
iso_b_vert
0
POINT
5
17D
100
AcDbEntity
8
Defpoints
62
0
6
ByLayer
370
-1
48
1
60
0
100
AcDbPoint
10
-36
20
-3
30
0
39
0
210
0
220
0
230
1
50
360
0
POINT
5
17E
100
AcDbEntity
8
Defpoints
62
0
6
ByLayer
370
-1
48
1
60
0
100
AcDbPoint
10
0
20
-3
30
0
39
0
210
0
220
0
230
1
50
360
0
POINT
5
17F
100
AcDbEntity
8
Defpoints
62
0
6
ByLayer
370
-1
48
1
60
0
100
AcDbPoint
10
0
20
-36.506187
30
0
39
0
210
0
220
0
230
1
50
360
0
ENDBLK
5
176
100
AcDbEntity
8
0
100
AcDbBlockEnd
0
BLOCK
5
187
100
AcDbEntity
8
0
100
AcDbBlockBegin
2
_U2
70
0
10
0
20
0
30
0
3
_U2
0
MTEXT
5
181
100
AcDbEntity
8
SK2
62
256
6
ByLayer
370
18
48
1
60
0
100
AcDbMText
10
-19.632828
20
-35.621073
30
0
210
0
220
0
230
1
1
\W0.6740;36
40
3
41
0
44
1.084337
50
0
71
7
72
5
7
iso_b_vert
0
LINE
5
182
100
AcDbEntity
8
SK2
62
256
6
ByLayer
370
13
48
1
60
0
100
AcDbLine
10
-36
20
-4.5875
30
0
11
-36
21
-38.506187
31
0
39
0
210
0
220
0
230
1
0
LINE
5
183
100
AcDbEntity
8
SK2
62
256
6
ByLayer
370
13
48
1
60
0
100
AcDbLine
10
0
20
-4.5875
30
0
11
0
21
-38.506187
31
0
39
0
210
0
220
0
230
1
0
LINE
5
184
100
AcDbEntity
8
SK2
62
256
6
ByLayer
370
13
48
1
60
0
100
AcDbLine
10
-36
20
-36.506187
30
0
11
0
21
-36.506187
31
0
39
0
210
0
220
0
230
1
0
SOLID
5
185
100
AcDbEntity
8
SK2
62
256
6
ByLayer
370
18
48
1
60
0
100
AcDbTrace
10
-36
20
-36.506187
30
0
11
-32.500002
21
-36.045404
31
0
12
-32.499998
22
-36.966971
32
0
13
-32.499998
23
-36.966971
33
0
39
0
210
0
220
0
230
1
0
SOLID
5
186
100
AcDbEntity
8
SK2
62
256
6
ByLayer
370
18
48
1
60
0
100
AcDbTrace
10
0
20
-36.506187
30
0
11
-3.499998
21
-36.966971
31
0
12
-3.500002
22
-36.045404
32
0
13
-3.500002
23
-36.045404
33
0
39
0
210
0
220
0
230
1
0
ENDBLK
5
188
100
AcDbEntity
8
0
100
AcDbBlockEnd
0
BLOCK
5
18D
100
AcDbEntity
8
0
100
AcDbBlockBegin
2
*D7
70
1
10
0
20
0
30
0
3
*D7
0
LINE
5
18F
100
AcDbEntity
8
0
62
256
6
ByLayer
370
-2
48
1
60
0
100
AcDbLine
10
-36
20
-4.5875
30
0
11
-36
21
-46.506187
31
0
39
0
210
0
220
0
230
1
0
LINE
5
190
100
AcDbEntity
8
0
62
256
6
ByLayer
370
-2
48
1
60
0
100
AcDbLine
10
68
20
-4.4875
30
0
11
68
21
-46.506187
31
0
39
0
210
0
220
0
230
1
0
LINE
5
191
100
AcDbEntity
8
0
62
256
6
ByLayer
370
-2
48
1
60
0
100
AcDbLine
10
-32.5
20
-44.506187
30
0
11
64.5
21
-44.506187
31
0
39
0
210
0
220
0
230
1
0
SOLID
5
192
100
AcDbEntity
8
0
62
256
6
ByLayer
370
-1
48
1
60
0
100
AcDbTrace
10
-32.5
20
-43.922854
30
0
11
-32.5
21
-45.089521
31
0
12
-36
22
-44.506187
32
0
13
-36
23
-44.506187
33
0
39
0
210
0
220
0
230
1
0
SOLID
5
193
100
AcDbEntity
8
0
62
256
6
ByLayer
370
-1
48
1
60
0
100
AcDbTrace
10
64.5
20
-45.089521
30
0
11
64.5
21
-43.922854
31
0
12
68
22
-44.506187
32
0
13
68
23
-44.506187
33
0
39
0
210
0
220
0
230
1
0
MTEXT
5
194
100
AcDbEntity
8
0
62
256
6
ByLayer
370
18
48
1
60
0
100
AcDbMText
10
16
20
-38.506187
30
0
210
0
220
0
230
1
1
\A1;104
40
3
41
0
44
1
50
0
71
5
72
5
7
iso_b_vert
0
POINT
5
195
100
AcDbEntity
8
Defpoints
62
0
6
ByLayer
370
-1
48
1
60
0
100
AcDbPoint
10
-36
20
-3
30
0
39
0
210
0
220
0
230
1
50
360
0
POINT
5
196
100
AcDbEntity
8
Defpoints
62
0
6
ByLayer
370
-1
48
1
60
0
100
AcDbPoint
10
68
20
-2.9
30
0
39
0
210
0
220
0
230
1
50
360
0
POINT
5
197
100
AcDbEntity
8
Defpoints
62
0
6
ByLayer
370
-1
48
1
60
0
100
AcDbPoint
10
68
20
-44.506187
30
0
39
0
210
0
220
0
230
1
50
360
0
ENDBLK
5
18E
100
AcDbEntity
8
0
100
AcDbBlockEnd
0
BLOCK
5
19F
100
AcDbEntity
8
0
100
AcDbBlockBegin
2
_U3
70
0
10
0
20
0
30
0
3
_U3
0
MTEXT
5
199
100
AcDbEntity
8
SK2
62
256
6
ByLayer
370
18
48
1
60
0
100
AcDbMText
10
13.463258
20
-43.621073
30
0
210
0
220
0
230
1
1
\W0.6506;104
40
3
41
0
44
1.084337
50
0
71
7
72
5
7
iso_b_vert
0
LINE
5
19A
100
AcDbEntity
8
SK2
62
256
6
ByLayer
370
13
48
1
60
0
100
AcDbLine
10
-36
20
-4.5875
30
0
11
-36
21
-46.506187
31
0
39
0
210
0
220
0
230
1
0
LINE
5
19B
100
AcDbEntity
8
SK2
62
256
6
ByLayer
370
13
48
1
60
0
100
AcDbLine
10
68
20
-4.4875
30
0
11
68
21
-46.506187
31
0
39
0
210
0
220
0
230
1
0
LINE
5
19C
100
AcDbEntity
8
SK2
62
256
6
ByLayer
370
13
48
1
60
0
100
AcDbLine
10
-36
20
-44.506187
30
0
11
68
21
-44.506187
31
0
39
0
210
0
220
0
230
1
0
SOLID
5
19D
100
AcDbEntity
8
SK2
62
256
6
ByLayer
370
18
48
1
60
0
100
AcDbTrace
10
-36
20
-44.506187
30
0
11
-32.500002
21
-44.045404
31
0
12
-32.499998
22
-44.966971
32
0
13
-32.499998
23
-44.966971
33
0
39
0
210
0
220
0
230
1
0
SOLID
5
19E
100
AcDbEntity
8
SK2
62
256
6
ByLayer
370
18
48
1
60
0
100
AcDbTrace
10
68
20
-44.506187
30
0
11
64.500002
21
-44.966971
31
0
12
64.499998
22
-44.045404
32
0
13
64.499998
23
-44.045404
33
0
39
0
210
0
220
0
230
1
0
ENDBLK
5
1A0
100
AcDbEntity
8
0
100
AcDbBlockEnd
0
BLOCK
5
1A5
100
AcDbEntity
8
0
100
AcDbBlockBegin
2
*D9
70
1
10
0
20
0
30
0
3
*D9
0
LINE
5
1A7
100
AcDbEntity
8
0
62
256
6
ByLayer
370
-2
48
1
60
0
100
AcDbLine
10
68
20
-4.4875
30
0
11
68
21
-38.506187
31
0
39
0
210
0
220
0
230
1
0
LINE
5
1A8
100
AcDbEntity
8
0
62
256
6
ByLayer
370
-2
48
1
60
0
100
AcDbLine
10
0
20
-4.4875
30
0
11
0
21
-38.506187
31
0
39
0
210
0
220
0
230
1
0
LINE
5
1A9
100
AcDbEntity
8
0
62
256
6
ByLayer
370
-2
48
1
60
0
100
AcDbLine
10
64.5
20
-36.506187
30
0
11
3.5
21
-36.506187
31
0
39
0
210
0
220
0
230
1
0
SOLID
5
1AA
100
AcDbEntity
8
0
62
256
6
ByLayer
370
-1
48
1
60
0
100
AcDbTrace
10
64.5
20
-37.089521
30
0
11
64.5
21
-35.922854
31
0
12
68
22
-36.506187
32
0
13
68
23
-36.506187
33
0
39
0
210
0
220
0
230
1
0
SOLID
5
1AB
100
AcDbEntity
8
0
62
256
6
ByLayer
370
-1
48
1
60
0
100
AcDbTrace
10
3.5
20
-35.922854
30
0
11
3.5
21
-37.089521
31
0
12
0
22
-36.506187
32
0
13
0
23
-36.506187
33
0
39
0
210
0
220
0
230
1
0
MTEXT
5
1AC
100
AcDbEntity
8
0
62
256
6
ByLayer
370
18
48
1
60
0
100
AcDbMText
10
34
20
-30.506187
30
0
210
0
220
0
230
1
1
\A1;68
40
3
41
0
44
1
50
0
71
5
72
5
7
iso_b_vert
0
POINT
5
1AD
100
AcDbEntity
8
Defpoints
62
0
6
ByLayer
370
-1
48
1
60
0
100
AcDbPoint
10
68
20
-2.9
30
0
39
0
210
0
220
0
230
1
50
360
0
POINT
5
1AE
100
AcDbEntity
8
Defpoints
62
0
6
ByLayer
370
-1
48
1
60
0
100
AcDbPoint
10
0
20
-2.9
30
0
39
0
210
0
220
0
230
1
50
360
0
POINT
5
1AF
100
AcDbEntity
8
Defpoints
62
0
6
ByLayer
370
-1
48
1
60
0
100
AcDbPoint
10
0
20
-36.506187
30
0
39
0
210
0
220
0
230
1
50
360
0
ENDBLK
5
1A6
100
AcDbEntity
8
0
100
AcDbBlockEnd
0
BLOCK
5
1B7
100
AcDbEntity
8
0
100
AcDbBlockBegin
2
_U4
70
0
10
0
20
0
30
0
3
_U4
0
MTEXT
5
1B1
100
AcDbEntity
8
2
62
256
6
ByLayer
370
18
48
1
60
0
100
AcDbMText
10
32.367172
20
-35.621073
30
0
210
0
220
0
230
1
1
\W0.6740;68
40
3
41
0
44
1.084337
50
0
71
7
72
5
7
iso_b_vert
0
LINE
5
1B2
100
AcDbEntity
8
2
62
256
6
ByLayer
370
13
48
1
60
0
100
AcDbLine
10
68
20
-4.4875
30
0
11
68
21
-38.506187
31
0
39
0
210
0
220
0
230
1
0
LINE
5
1B3
100
AcDbEntity
8
2
62
256
6
ByLayer
370
13
48
1
60
0
100
AcDbLine
10
0
20
-4.4875
30
0
11
0
21
-38.506187
31
0
39
0
210
0
220
0
230
1
0
LINE
5
1B4
100
AcDbEntity
8
2
62
256
6
ByLayer
370
13
48
1
60
0
100
AcDbLine
10
68
20
-36.506187
30
0
11
0
21
-36.506187
31
0
39
0
210
0
220
0
230
1
0
SOLID
5
1B5
100
AcDbEntity
8
2
62
256
6
ByLayer
370
18
48
1
60
0
100
AcDbTrace
10
68
20
-36.506187
30
0
11
64.500002
21
-36.966971
31
0
12
64.499998
22
-36.045404
32
0
13
64.499998
23
-36.045404
33
0
39
0
210
0
220
0
230
1
0
SOLID
5
1B6
100
AcDbEntity
8
2
62
256
6
ByLayer
370
18
48
1
60
0
100
AcDbTrace
10
0
20
-36.506187
30
0
11
3.499998
21
-36.045404
31
0
12
3.500002
22
-36.966971
32
0
13
3.500002
23
-36.966971
33
0
39
0
210
0
220
0
230
1
0
ENDBLK
5
1B8
100
AcDbEntity
8
0
100
AcDbBlockEnd
0
ENDSEC
0
SECTION
2
ENTITIES
0
ARC
5
C4
100
AcDbEntity
8
1
62
256
6
ByLayer
370
18
48
1
60
0
100
AcDbCircle
39
0
10
0.357142
20
-2.980138
30
0
40
0.199999999999998
210
0
220
0
230
1
100
AcDbArc
50
89.896868
51
153.234231
0
ARC
5
C5
100
AcDbEntity
8
1
62
256
6
ByLayer
370
18
48
1
60
0
100
AcDbCircle
39
0
10
0.357142
20
2.980138
30
0
40
0.199999999999998
210
0
220
0
230
1
100
AcDbArc
50
206.765769
51
270.103132
0
ARC
5
C6
100
AcDbEntity
8
1
62
256
6
ByLayer
370
18
48
1
60
0
100
AcDbCircle
39
0
10
0
20
-2.8
30
0
40
0.200000000000005
210
0
220
0
230
1
100
AcDbArc
50
270
51
333.234231
0
ARC
5
C7
100
AcDbEntity
8
1
62
256
6
ByLayer
370
18
48
1
60
0
100
AcDbCircle
39
0
10
0
20
2.8
30
0
40
0.200000000000005
210
0
220
0
230
1
100
AcDbArc
50
26.765769
51
90
0
ARC
5
C8
100
AcDbEntity
8
SK2
62
256
6
ByLayer
370
13
48
1
60
0
100
AcDbCircle
39
0
10
68
20
0
30
0
40
18.7355274025307
210
0
220
0
230
1
100
AcDbArc
50
9.21407
51
69.991516
0
ARC
5
C9
100
AcDbEntity
8
SK2
62
256
6
ByLayer
370
13
48
1
60
0
100
AcDbCircle
39
0
10
68
20
0
30
0
40
18.7355274025307
210
0
220
0
230
1
100
AcDbArc
50
290.008484
51
350.78593
0
ELLIPSE
5
CA
100
AcDbEntity
8
1
62
256
6
ByLayer
370
18
48
1
60
0
100
AcDbEllipse
10
39.099503
20
-2.805531
30
0
11
-0.1
21
1.22460635382238E-17
31
0
210
0
220
0
230
1
40
1
41
-1.56091136788521
42
-0.00020527697327582
0
ELLIPSE
5
CB
100
AcDbEntity
8
1
62
256
6
ByLayer
370
18
48
1
60
0
100
AcDbEllipse
10
39.099503
20
2.805531
30
0
11
-0.1
21
1.22460635382238E-17
31
0
210
0
220
0
230
1
40
1
41
0.000205276969927387
42
1.59643192869663
0
POINT
5
70
100
AcDbEntity
8
80
62
256
6
ByLayer
370
18
48
1
60
0
100
AcDbPoint
10
0
20
0
30
0
39
0
210
0
220
0
230
1
50
360
0
POINT
5
72
100
AcDbEntity
8
81
62
256
6
ByLayer
370
18
48
1
60
0
100
AcDbPoint
10
68
20
0
30
0
39
0
210
0
220
0
230
1
50
360
0
POINT
5
74
100
AcDbEntity
8
1
62
256
6
ByLayer
370
18
48
1
60
0
100
AcDbPoint
10
-202.807236
20
-200
30
0
39
0
210
0
220
0
230
1
50
360
0
POINT
5
76
100
AcDbEntity
8
1
62
256
6
ByLayer
370
13
48
1
60
1
100
AcDbPoint
10
-37.5
20
0
30
0
39
0
210
0
220
0
230
1
50
360
0
POINT
5
77
100
AcDbEntity
8
1
62
256
6
ByLayer
370
13
48
1
60
1
100
AcDbPoint
10
68.421904
20
0
30
0
39
0
210
0
220
0
230
1
50
360
0
POINT
5
78
100
AcDbEntity
8
1
62
256
6
ByLayer
370
18
48
1
60
1
100
AcDbPoint
10
68
20
-2.9
30
0
39
0
210
0
220
0
230
1
50
360
0
POINT
5
79
100
AcDbEntity
8
1
62
256
6
ByLayer
370
18
48
1
60
1
100
AcDbPoint
10
20.6
20
-2.9
30
0
39
0
210
0
220
0
230
1
50
360
0
POINT
5
7A
100
AcDbEntity
8
1
62
256
6
ByLayer
370
18
48
1
60
1
100
AcDbPoint
10
68
20
-2.9
30
0
39
0
210
0
220
0
230
1
50
360
0
POINT
5
7B
100
AcDbEntity
8
1
62
256
6
ByLayer
370
18
48
1
60
1
100
AcDbPoint
10
6
20
-2.9
30
0
39
0
210
0
220
0
230
1
50
360
0
POINT
5
7C
100
AcDbEntity
8
1
62
256
6
ByLayer
370
18
48
1
60
1
100
AcDbPoint
10
-36
20
-3
30
0
39
0
210
0
220
0
230
1
50
360
0
POINT
5
7D
100
AcDbEntity
8
1
62
256
6
ByLayer
370
18
48
1
60
1
100
AcDbPoint
10
0
20
-3
30
0
39
0
210
0
220
0
230
1
50
360
0
POINT
5
7E
100
AcDbEntity
8
1
62
256
6
ByLayer
370
18
48
1
60
1
100
AcDbPoint
10
-36
20
-3
30
0
39
0
210
0
220
0
230
1
50
360
0
POINT
5
7F
100
AcDbEntity
8
1
62
256
6
ByLayer
370
18
48
1
60
1
100
AcDbPoint
10
68
20
-2.9
30
0
39
0
210
0
220
0
230
1
50
360
0
POINT
5
80
100
AcDbEntity
8
1
62
256
6
ByLayer
370
18
48
1
60
1
100
AcDbPoint
10
68
20
-2.9
30
0
39
0
210
0
220
0
230
1
50
360
0
POINT
5
81
100
AcDbEntity
8
1
62
256
6
ByLayer
370
18
48
1
60
1
100
AcDbPoint
10
0
20
-2.9
30
0
39
0
210
0
220
0
230
1
50
360
0
SPLINE
5
CC
100
AcDbEntity
8
1
62
256
6
ByLayer
370
18
48
1
60
0
100
AcDbSpline
70
4
71
3
72
8
73
4
40
0
40
0
40
0
40
0
40
1
40
1
40
1
40
1
41
1
10
67.7100895814261
20
0.945565725036715
30
0
41
1
10
67.783885587762
20
0.73966184782708
30
0
41
1
10
67.8570925004606
20
0.533550497427711
30
0
41
1
10
67.929698866432
20
0.327227640168957
30
0
0
SPLINE
5
CD
100
AcDbEntity
8
1
62
256
6
ByLayer
370
18
48
1
60
0
100
AcDbSpline
70
4
71
3
72
8
73
4
40
0
40
0
40
0
40
0
40
1
40
1
40
1
40
1
41
1
10
67.929698866432
20
0.327227640168957
30
0
41
1
10
67.9522003871547
20
0.263285890901244
30
0
41
1
10
67.9751635043571
20
0.199607099335708
30
0
41
1
10
67.9985960987667
20
0.136185448248227
30
0
0
SPLINE
5
CE
100
AcDbEntity
8
1
62
256
6
ByLayer
370
18
48
1
60
0
100
AcDbSpline
70
4
71
3
72
10
73
6
40
0
40
0
40
0
40
0
40
0.452579808095755
40
0.452579808095755
40
1
40
1
40
1
40
1
41
1
10
67.3323945219693
20
-0.512265840982622
30
0
41
1
10
67.3617575509721
20
-0.531929341280829
30
0
41
1
10
67.3916735282157
20
-0.551921616399653
30
0
41
1
10
67.4586044755282
20
-0.596733251383114
30
0
41
1
10
67.4958025757585
20
-0.621689425193665
30
0
41
1
10
67.5333874360572
20
-0.647096414009894
30
0
0
SPLINE
5
CF
100
AcDbEntity
8
1
62
256
6
ByLayer
370
18
48
1
60
0
100
AcDbSpline
70
4
71
3
72
33
73
29
40
0
40
0
40
0
40
0
40
0.125000000000025
40
0.125000000000025
40
0.187500000000031
40
0.187500000000031
40
0.218750000000041
40
0.218750000000041
40
0.250000000000051
40
0.250000000000051
40
0.375000000000091
40
0.375000000000091
40
0.437500000000111
40
0.437500000000111
40
0.468750000000121
40
0.468750000000121
40
0.50000000000013
40
0.50000000000013
40
0.625000000000123
40
0.625000000000123
40
0.750000000000116
40
0.750000000000116
40
0.781250000000103
40
0.781250000000103
40
0.812500000000091
40
0.875000000000065
40
0.875000000000065
40
1
40
1
40
1
40
1
41
1
10
67.9985960987575
20
0.136185448251325
30
0
41
1
10
67.9829554585015
20
0.0906288411241576
30
0
41
1
10
67.9662724572074
20
0.0455675995541753
30
0
41
1
10
67.9397215301311
20
-0.0212839722131548
30
0
41
1
10
67.9306159101893
20
-0.0434440100646611
30
0
41
1
10
67.9165698198842
20
-0.0764941137590256
30
0
41
1
10
67.9118184390694
20
-0.087488916257314
30
0
41
1
10
67.9022697207437
20
-0.109223501784385
30
0
41
1
10
67.8974626855617
20
-0.119986516595105
30
0
41
1
10
67.8732704048334
20
-0.173284521515001
30
0
41
1
10
67.8534176635006
20
-0.214277279998299
30
0
41
1
10
67.8229641251324
20
-0.273274394176269
30
0
41
1
10
67.8126997952796
20
-0.292523019132773
30
0
41
1
10
67.7971357241002
20
-0.32074982289987
30
0
41
1
10
67.7919197195054
20
-0.330050936024207
30
0
41
1
10
67.7814314415502
20
-0.348432347749537
30
0
41
1
10
67.7761467228852
20
-0.357533571024504
30
0
41
1
10
67.7497384091599
20
-0.402205525875218
30
0
41
1
10
67.7288138693067
20
-0.435048680264799
30
0
41
1
10
67.6873826721331
20
-0.495045102011375
30
0
41
1
10
67.6668761540029
20
-0.522200151537902
30
0
41
1
10
67.6414912569756
20
-0.552361298310586
30
0
41
1
10
67.6364243101964
20
-0.55820455076244
30
0
41
1
10
67.6264189314874
20
-0.569386817205469
30
0
41
1
10
67.6115638526793
20
-0.585451748834515
30
0
41
1
10
67.5971533446213
20
-0.599423655292696
30
0
41
1
10
67.5688930503831
20
-0.624610710078457
30
0
41
1
10
67.5507989801102
20
-0.637743900352461
30
0
41
1
10
67.5333874360572
20
-0.647096414009866
30
0
0
SPLINE
5
D0
100
AcDbEntity
8
1
62
256
6
ByLayer
370
18
48
1
60
0
100
AcDbSpline
70
4
71
3
72
69
73
65
40
0
40
0
40
0
40
0
40
0.0624999999999964
40
0.0624999999999964
40
0.124999999999993
40
0.124999999999993
40
0.187499999999989
40
0.187499999999989
40
0.203124999999986
40
0.203124999999986
40
0.218749999999983
40
0.249999999999976
40
0.249999999999976
40
0.281249999999969
40
0.281249999999969
40
0.312499999999962
40
0.312499999999962
40
0.328124999999963
40
0.328124999999963
40
0.343749999999963
40
0.374999999999973
40
0.406249999999983
40
0.406249999999983
40
0.421874999999984
40
0.421874999999984
40
0.437499999999985
40
0.437499999999985
40
0.499999999999982
40
0.499999999999982
40
0.562499999999978
40
0.562499999999978
40
0.578124999999977
40
0.578124999999977
40
0.593749999999975
40
0.593749999999975
40
0.624999999999974
40
0.656249999999973
40
0.656249999999973
40
0.671874999999973
40
0.671874999999973
40
0.687499999999972
40
0.687499999999972
40
0.718749999999972
40
0.718749999999972
40
0.749999999999971
40
0.749999999999971
40
0.812499999999973
40
0.812499999999973
40
0.828124999999973
40
0.828124999999973
40
0.843749999999974
40
0.843749999999974
40
0.874999999999975
40
0.874999999999975
40
0.890624999999979
40
0.890624999999979
40
0.906249999999983
40
0.906249999999983
40
0.937499999999992
40
0.937499999999992
40
0.953124999999996
40
0.953124999999996
40
0.96875
40
1
40
1
40
1
40
1
41
1
10
67.5333874360572
20
-0.647096414009866
30
0
41
1
10
67.5286495074631
20
-0.680662857987755
30
0
41
1
10
67.5214861633502
20
-0.715669002059059
30
0
41
1
10
67.5025011443055
20
-0.788641046275387
30
0
41
1
10
67.4912152504448
20
-0.824566065689567
30
0
41
1
10
67.4655839436452
20
-0.895411684279594
30
0
41
1
10
67.451829052508
20
-0.928698986993965
30
0
41
1
10
67.4337394138145
20
-0.967857588163326
30
0
41
1
10
67.4300832208243
20
-0.975545976438895
30
0
41
1
10
67.4227801491052
20
-0.99047708801811
30
0
41
1
10
67.4118042588999
20
-1.01228056291745
30
0
41
1
10
67.4007747412136
20
-1.03238086950717
30
0
41
1
10
67.3860298019364
20
-1.05771631490165
30
0
41
1
10
67.3786184632119
20
-1.06967276447372
30
0
41
1
10
67.3640626228444
20
-1.09165425869497
30
0
41
1
10
67.3568809975724
20
-1.10174714211789
30
0
41
1
10
67.3462462477513
20
-1.11556203768794
30
0
41
1
10
67.3427268736786
20
-1.11994081992901
30
0
41
1
10
67.3358115496756
20
-1.12816388565324
30
0
41
1
10
67.3255895665114
20
-1.13974029203047
30
0
41
1
10
67.3092748699049
20
-1.15535278545391
30
0
41
1
10
67.2969514361158
20
-1.16396286928799
30
0
41
1
10
67.2879767719232
20
-1.16891049395789
30
0
41
1
10
67.2850368013189
20
-1.17030181345663
30
0
41
1
10
67.2793192988809
20
-1.17254299911207
30
0
41
1
10
67.2765325568205
20
-1.17339818797998
30
0
41
1
10
67.2629477702072
20
-1.17636038979185
30
0
41
1
10
67.2531802199303
20
-1.17459309820839
30
0
41
1
10
67.2358217445777
20
-1.16208474428575
30
0
41
1
10
67.2285800373032
20
-1.15158247088047
30
0
41
1
10
67.2213001558681
20
-1.13304703121591
30
0
41
1
10
67.2199336245992
20
-1.12906475614645
30
0
41
1
10
67.2173844008748
20
-1.12052796786838
30
0
41
1
10
67.2161980940422
20
-1.11595683599686
30
0
41
1
10
67.2129531721983
20
-1.10145691741175
30
0
41
1
10
67.209494456552
20
-1.08022615073361
30
0
41
1
10
67.2077507727435
20
-1.05520626922683
30
0
41
1
10
67.2071231603047
20
-1.03493792320967
30
0
41
1
10
67.2070277913417
20
-1.02793032867615
30
0
41
1
10
67.2070777185648
20
-1.01338536943317
30
0
41
1
10
67.2072238220288
20
-1.00589218166243
30
0
41
1
10
67.2080213698583
20
-0.98300875061949
30
0
41
1
10
67.2090299111408
20
-0.967116629719811
30
0
41
1
10
67.2120304175485
20
-0.934046049537471
30
0
41
1
10
67.2140253797936
20
-0.91684293974032
30
0
41
1
10
67.2216207578521
20
-0.863311575028945
30
0
41
1
10
67.228523553246
20
-0.827000885087784
30
0
41
1
10
67.2396049585154
20
-0.780873727095667
30
0
41
1
10
67.24194475269
20
-0.771623090284891
30
0
41
1
10
67.2467909059311
20
-0.753388229688795
30
0
41
1
10
67.2493073334579
20
-0.744361014793299
30
0
41
1
10
67.2571346172459
20
-0.71754389600153
30
0
41
1
10
67.2627222517932
20
-0.700017280899232
30
0
41
1
10
67.2716727887398
20
-0.674254005284837
30
0
41
1
10
67.2747586680681
20
-0.665737963772244
30
0
41
1
10
67.2810235951519
20
-0.649148822591314
30
0
41
1
10
67.2842136140108
20
-0.641042504093434
30
0
41
1
10
67.2939531062885
20
-0.617266373469391
30
0
41
1
10
67.3006714714868
20
-0.602137010664222
30
0
41
1
10
67.3110851065848
20
-0.580486170038085
30
0
41
1
10
67.3146249743089
20
-0.57342033072959
30
0
41
1
10
67.3217465234072
20
-0.559773592964461
30
0
41
1
10
67.3324859526352
20
-0.540035387283467
30
0
41
1
10
67.3433918514211
20
-0.52238203486661
30
0
41
1
10
67.3507329321597
20
-0.51149174166892
30
0
0
SPLINE
5
D1
100
AcDbEntity
8
1
62
256
6
ByLayer
370
18
48
1
60
0
100
AcDbSpline
70
4
71
3
72
8
73
4
40
0
40
0
40
0
40
0
40
1
40
1
40
1
40
1
41
1
10
67.3507329321597
20
-0.511491741668948
30
0
41
1
10
67.3426943253149
20
-0.483276510038394
30
0
41
1
10
67.3358253327677
20
-0.451789459496524
30
0
41
1
10
67.3300035940391
20
-0.417185555974896
30
0
0
SPLINE
5
D2
100
AcDbEntity
8
1
62
256
6
ByLayer
370
18
48
1
60
0
100
AcDbSpline
70
4
71
3
72
8
73
4
40
0
40
0
40
0
40
0
40
1
40
1
40
1
40
1
41
1
10
67.3300035940391
20
-0.417185555974839
30
0
41
1
10
67.2882384399682
20
-0.168937149545599
30
0
41
1
10
67.2333223474786
20
0.0855600689906169
30
0
41
1
10
67.1653748771176
20
0.346249289133198
30
0
0
SPLINE
5
D3
100
AcDbEntity
8
1
62
256
6
ByLayer
370
18
48
1
60
0
100
AcDbSpline
70
4
71
3
72
13
73
9
40
0
40
0
40
0
40
0
40
0.499999999999972
40
0.499999999999972
40
0.624999999999979
40
0.624999999999979
40
0.749999999999986
40
1
40
1
40
1
40
1
41
1
10
67.0600065833637
20
-2.60814174963608
30
0
41
1
10
67.0388482184998
20
-2.63969717391177
30
0
41
1
10
67.01919347998
20
-2.66678862742938
30
0
41
1
10
66.9965570352738
20
-2.694218783704
30
0
41
1
10
66.9921357309
20
-2.69936898035712
30
0
41
1
10
66.9835877992832
20
-2.70889443822023
30
0
41
1
10
66.971168541935
20
-2.72206836842085
30
0
41
1
10
66.959908099862
20
-2.73194904753763
30
0
41
1
10
66.9528756770723
20
-2.73710534907892
30
0
0
SPLINE
5
D4
100
AcDbEntity
8
1
62
256
6
ByLayer
370
18
48
1
60
0
100
AcDbSpline
70
4
71
3
72
8
73
4
40
0
40
0
40
0
40
0
40
1
40
1
40
1
40
1
41
1
10
67.7100895814261
20
-0.945565725036687
30
0
41
1
10
67.783885587762
20
-0.73966184782708
30
0
41
1
10
67.8570925004606
20
-0.533550497427711
30
0
41
1
10
67.929698866432
20
-0.327227640168985
30
0
0
SPLINE
5
D5
100
AcDbEntity
8
1
62
256
6
ByLayer
370
18
48
1
60
0
100
AcDbSpline
70
4
71
3
72
8
73
4
40
0
40
0
40
0
40
0
40
1
40
1
40
1
40
1
41
1
10
67.929698866432
20
-0.327227640168957
30
0
41
1
10
67.9522003871546
20
-0.263285890901471
30
0
41
1
10
67.9751635043569
20
-0.199607099336134
30
0
41
1
10
67.9985960987664
20
-0.136185448248853
30
0
0
SPLINE
5
D6
100
AcDbEntity
8
1
62
256
6
ByLayer
370
18
48
1
60
0
100
AcDbSpline
70
4
71
3
72
8
73
4
40
0
40
0
40
0
40
0
40
1
40
1
40
1
40
1
41
1
10
67.9985960987615
20
0.136185448253826
30
0
41
1
10
68.0004651733749
20
0.0455306510368132
30
0
41
1
10
68.0004707691461
20
-0.0452592421239899
30
0
41
1
10
67.9985960987616
20
-0.136185448252405
30
0
0
SPLINE
5
D7
100
AcDbEntity
8
1
62
256
6
ByLayer
370
18
48
1
60
0
100
AcDbSpline
70
4
71
3
72
22
73
18
40
0
40
0
40
0
40
0
40
0.0457558521764606
40
0.0457558521764606
40
0.141180266958815
40
0.141180266958815
40
0.236604681741168
40
0.236604681741168
40
0.427453511305876
40
0.427453511305876
40
0.52287792608823
40
0.52287792608823
40
0.618302340870584
40
0.618302340870584
40
0.809151170435292
40
0.809151170435292
40
1
40
1
40
1
40
1
41
1
10
66.5817869087416
20
0.670263172388758
30
0
41
1
10
66.591274363437
20
0.674095555730787
30
0
41
1
10
66.6008523739454
20
0.678018881535394
30
0
41
1
10
66.6307021784422
20
0.690381046429934
30
0
41
1
10
66.6513495598603
20
0.699114488810523
30
0
41
1
10
66.6929749586253
20
0.716825973882948
30
0
41
1
10
66.7140213047464
20
0.725831525193797
30
0
41
1
10
66.7779917848216
20
0.752949299660685
30
0
41
1
10
66.8217378353343
20
0.771185022705396
30
0
41
1
10
66.8895494292144
20
0.79732366382504
30
0
41
1
10
66.9125243118339
20
0.8058209639089
30
0
41
1
10
66.9592971114705
20
0.822156695175607
30
0
41
1
10
66.9831209948725
20
0.829999219541293
30
0
41
1
10
67.0546681796968
20
0.851902076624583
30
0
41
1
10
67.1028586577369
20
0.864500691545203
30
0
41
1
10
67.2004277164571
20
0.884675654150698
30
0
41
1
10
67.2498082402436
20
0.892243003135235
30
0
41
1
10
67.2998323068978
20
0.897032757101329
30
0
0
SPLINE
5
D8
100
AcDbEntity
8
1
62
256
6
ByLayer
370
18
48
1
60
0
100
AcDbSpline
70
4
71
3
72
8
73
4
40
0
40
0
40
0
40
0
40
1
40
1
40
1
40
1
41
1
10
67.2998323068978
20
0.897032757100618
30
0
41
1
10
67.4368693123972
20
0.910153912266367
30
0
41
1
10
67.5738303940565
20
0.925702628570008
30
0
41
1
10
67.7100895814265
20
0.945565725036516
30
0
0
SPLINE
5
D9
100
AcDbEntity
8
1
62
256
6
ByLayer
370
18
48
1
60
0
100
AcDbSpline
70
4
71
3
72
27
73
23
40
0
40
0
40
0
40
0
40
0.249999999999983
40
0.249999999999983
40
0.374999999999974
40
0.374999999999974
40
0.499999999999966
40
0.499999999999966
40
0.531249999999963
40
0.531249999999963
40
0.562499999999962
40
0.562499999999962
40
0.624999999999966
40
0.624999999999966
40
0.749999999999974
40
0.749999999999974
40
0.874999999999982
40
0.874999999999982
40
0.906249999999987
40
0.906249999999987
40
0.937499999999991
40
1
40
1
40
1
40
1
41
1
10
67.0600065833635
20
2.60814174963656
30
0
41
1
10
67.1087846995439
20
2.46608569555704
30
0
41
1
10
67.1582287553765
20
2.32333877732251
30
0
41
1
10
67.2336647889698
20
2.10876003866102
30
0
41
1
10
67.258984638987
20
2.03725087501454
30
0
41
1
10
67.3100005864555
20
1.89429002467767
30
0
41
1
10
67.3357079915822
20
1.82280476244344
30
0
41
1
10
67.3680416851627
20
1.73358620255567
30
0
41
1
10
67.3745168352764
20
1.71575524882692
30
0
41
1
10
67.3874818191736
20
1.68011455683703
30
0
41
1
10
67.3940223150349
20
1.66237816247144
30
0
41
1
10
67.4137555544921
20
1.60932157531866
30
0
41
1
10
67.4270892479375
20
1.57419641439526
30
0
41
1
10
67.467703023751
20
1.46960191280348
30
0
41
1
10
67.4955989440521
20
1.4009173905996
30
0
41
1
10
67.5534152693118
20
1.26583030804642
30
0
41
1
10
67.5833339710404
20
1.19942559993152
30
0
41
1
10
67.6222408595026
20
1.11797733476425
30
0
41
1
10
67.6301124948534
20
1.1017367382866
30
0
41
1
10
67.6459406273881
20
1.06956202257999
30
0
41
1
10
67.6697721109089
20
1.02183395995624
30
0
41
1
10
67.6938829346423
20
0.975670450626495
30
0
41
1
10
67.7100895814261
20
0.945565725036658
30
0
0
SPLINE
5
DA
100
AcDbEntity
8
1
62
256
6
ByLayer
370
18
48
1
60
0
100
AcDbSpline
70
4
71
3
72
8
73
4
40
0
40
0
40
0
40
0
40
1
40
1
40
1
40
1
41
1
10
66.9614834333291
20
2.77911323343534
30
0
41
1
10
66.9942949444177
20
2.7221315321535
30
0
41
1
10
67.0271394024111
20
2.66513364539568
30
0
41
1
10
67.0600065833634
20
2.60814174963653
30
0
0
SPLINE
5
DB
100
AcDbEntity
8
1
62
256
6
ByLayer
370
18
48
1
60
0
100
AcDbSpline
70
4
71
3
72
8
73
4
40
0
40
0
40
0
40
0
40
1
40
1
40
1
40
1
41
1
10
38.9995027274438
20
1.6795552598457
30
0
41
1
10
38.9995027274438
20
1.67239464979002
30
0
41
1
10
38.9995027274439
20
1.66494995417617
30
0
41
1
10
38.9995027274439
20
1.65722482422845
30
0
0
SPLINE
5
DC
100
AcDbEntity
8
1
62
256
6
ByLayer
370
18
48
1
60
0
100
AcDbSpline
70
4
71
3
72
14
73
10
40
0
40
0
40
0
40
0
40
0.12499999999999
40
0.12499999999999
40
0.24999999999998
40
0.24999999999998
40
0.499999999999987
40
0.499999999999987
40
1
40
1
40
1
40
1
41
1
10
67.1653748771177
20
0.346249289133198
30
0
41
1
10
67.1548802417827
20
0.338812074781032
30
0
41
1
10
67.1444191538433
20
0.331057432312349
30
0
41
1
10
67.1235707714063
20
0.315000790153419
30
0
41
1
10
67.1131834458419
20
0.306672552618323
30
0
41
1
10
67.0821446165707
20
0.280587370483232
30
0
41
1
10
67.0616170930213
20
0.261694639058391
30
0
41
1
10
67.0006247256783
20
0.200650996157634
30
0
41
1
10
66.9607553896577
20
0.154090146228015
30
0
41
1
10
66.9218794560749
20
0.102532296731823
30
0
0
SPLINE
5
DD
100
AcDbEntity
8
1
62
256
6
ByLayer
370
18
48
1
60
0
100
AcDbSpline
70
4
71
3
72
26
73
22
40
0
40
0
40
0
40
0
40
0.164304732237361
40
0.164304732237361
40
0.328609464474722
40
0.328609464474722
40
0.410761830593403
40
0.410761830593403
40
0.492914196712084
40
0.492914196712084
40
0.575066562830764
40
0.575066562830764
40
0.657218928949445
40
0.657218928949445
40
0.821523661186807
40
0.821523661186807
40
0.903676027305475
40
0.903676027305475
40
0.985828393424144
40
0.985828393424144
40
1
40
1
40
1
40
1
41
1
10
67.1653748771176
20
0.346249289133198
30
0
41
1
10
67.107101594486
20
0.382914637367065
30
0
41
1
10
67.0488359826048
20
0.41874956463306
30
0
41
1
10
66.9323247786239
20
0.488252115360723
30
0
41
1
10
66.8740787464792
20
0.521967377253048
30
0
41
1
10
66.7867259819379
20
0.57077743008017
30
0
41
1
10
66.7576111822104
20
0.586745575029823
30
0
41
1
10
66.699386051905
20
0.618198043226414
30
0
41
1
10
66.67031707559
20
0.633685449705837
30
0
41
1
10
66.6123106301435
20
0.664186767599261
30
0
41
1
10
66.5833707511152
20
0.679181036267209
30
0
41
1
10
66.5256938980305
20
0.708348294352504
30
0
41
1
10
66.4969579083668
20
0.722517299336687
30
0
41
1
10
66.4110862401956
20
0.76366310129012
30
0
41
1
10
66.3542915097867
20
0.789259874909988
30
0
41
1
10
66.2699256431149
20
0.824310786652234
30
0
41
1
10
66.2419301152686
20
0.835482694419994
30
0
41
1
10
66.1860674217525
20
0.857306950523309
30
0
41
1
10
66.1582091095329
20
0.867923463585385
30
0
41
1
10
66.1257655184468
20
0.879479316558729
30
0
41
1
10
66.1209962846077
20
0.881156723661462
30
0
41
1
10
66.1162351335112
20
0.882809226533055
30
0
0
SPLINE
5
DE
100
AcDbEntity
8
1
62
256
6
ByLayer
370
18
48
1
60
0
100
AcDbSpline
70
4
71
3
72
27
73
23
40
0
40
0
40
0
40
0
40
0.249999999999998
40
0.249999999999998
40
0.375
40
0.375
40
0.500000000000004
40
0.500000000000004
40
0.531250000000003
40
0.531250000000003
40
0.562500000000002
40
0.562500000000002
40
0.625
40
0.625
40
0.749999999999997
40
0.749999999999997
40
0.874999999999994
40
0.874999999999994
40
0.906249999999995
40
0.906249999999995
40
0.937499999999997
40
1
40
1
40
1
40
1
41
1
10
67.0600065833635
20
-2.60814174963667
30
0
41
1
10
67.1087846995439
20
-2.46608569555713
30
0
41
1
10
67.1582287553765
20
-2.32333877732259
30
0
41
1
10
67.2336647889698
20
-2.10876003866108
30
0
41
1
10
67.258984638987
20
-2.03725087501462
30
0
41
1
10
67.3100005864555
20
-1.89429002467773
30
0
41
1
10
67.3357079915822
20
-1.8228047624435
30
0
41
1
10
67.3680416851627
20
-1.73358620255573
30
0
41
1
10
67.3745168352764
20
-1.71575524882698
30
0
41
1
10
67.3874818191736
20
-1.68011455683703
30
0
41
1
10
67.3940223150349
20
-1.66237816247147
30
0
41
1
10
67.4137555544921
20
-1.60932157531869
30
0
41
1
10
67.4270892479375
20
-1.57419641439529
30
0
41
1
10
67.467703023751
20
-1.46960191280351
30
0
41
1
10
67.4955989440521
20
-1.40091739059963
30
0
41
1
10
67.5534152693118
20
-1.26583030804642
30
0
41
1
10
67.5833339710404
20
-1.19942559993154
30
0
41
1
10
67.6222408595026
20
-1.11797733476428
30
0
41
1
10
67.6301124948535
20
-1.1017367382866
30
0
41
1
10
67.6459406273881
20
-1.06956202258002
30
0
41
1
10
67.6697721109089
20
-1.02183395995627
30
0
41
1
10
67.6938829346423
20
-0.975670450626495
30
0
41
1
10
67.7100895814262
20
-0.945565725036658
30
0
0
SPLINE
5
DF
100
AcDbEntity
8
1
62
256
6
ByLayer
370
18
48
1
60
0
100
AcDbSpline
70
4
71
3
72
8
73
4
40
0
40
0
40
0
40
0
40
1
40
1
40
1
40
1
41
1
10
66.9614834333132
20
-2.77911323346299
30
0
41
1
10
66.9942949444071
20
-2.722131532172
30
0
41
1
10
67.0271394024057
20
-2.66513364540498
30
0
41
1
10
67.0600065833634
20
-2.60814174963664
30
0
0
SPLINE
5
E0
100
AcDbEntity
8
1
62
256
6
ByLayer
370
18
48
1
60
0
100
AcDbSpline
70
4
71
3
72
34
73
30
40
0
40
0
40
0
40
0
40
0.337662689153858
40
0.337662689153858
40
0.56470599313101
40
0.56470599313101
40
0.713870688271428
40
0.713870688271428
40
0.811816230001758
40
0.811816230001758
40
0.87628362848511
40
0.87628362848511
40
0.919197084423679
40
0.919197084423679
40
0.947789216169158
40
0.947789216169158
40
0.966045270788339
40
0.966045270788339
40
0.977670698329001
40
0.977670698329001
40
0.985410860224703
40
0.985410860224703
40
0.993002133648214
40
0.993002133648214
40
0.996528008980297
40
0.996528008980297
40
0.999519168233245
40
0.999519168233245
40
1
40
1
40
1
40
1
41
1
10
66.8877565009818
20
2.89986241895429
30
0
41
1
10
66.8960632758931
20
2.88634551336517
30
0
41
1
10
66.9043673092499
20
2.87280528967756
30
0
41
1
10
66.9182418711216
20
2.85013907287418
30
0
41
1
10
66.9238176800056
20
2.84101787197756
30
0
41
1
10
66.933078031155
20
2.82583588547263
30
0
41
1
10
66.9367553713944
20
2.81979837048945
30
0
41
1
10
66.9428629091706
20
2.80975375080516
30
0
41
1
10
66.9452892383273
20
2.80575817655801
30
0
41
1
10
66.9493154136306
20
2.79912276288403
30
0
41
1
10
66.9509124633333
20
2.79649043443635
30
0
41
1
10
66.9535470707518
20
2.79215822334388
30
0
41
1
10
66.954589678418
20
2.79044817931103
30
0
41
1
10
66.9563177770765
20
2.78761662813292
30
0
41
1
10
66.9570131482074
20
2.78647540792395
30
0
41
1
10
66.9581795336784
20
2.78454723058667
30
0
41
1
10
66.958640835305
20
2.78378138811092
30
0
41
1
10
66.9594047944454
20
2.7825073404594
30
0
41
1
10
66.9597046447407
20
2.78200571526617
30
0
41
1
10
66.9602001432143
20
2.78117915494221
30
0
41
1
10
66.9603974701678
20
2.78085055493989
30
0
41
1
10
66.960779283741
20
2.78021887282327
30
0
41
1
10
66.960967130054
20
2.7799098138081
30
0
41
1
10
66.961212552928
20
2.77951569970671
30
0
41
1
10
66.9612868767165
20
2.77939806873872
30
0
41
1
10
66.9613991448904
20
2.77922715743549
30
0
41
1
10
66.961440794704
20
2.77916728367572
30
0
41
1
10
66.9614722760911
20
2.77912692449357
30
0
41
1
10
66.9614777762885
20
2.77912004942212
30
0
41
1
10
66.9614834060791
20
2.77911328010003
30
0
0
SPLINE
5
E1
100
AcDbEntity
8
1
62
256
6
ByLayer
370
18
48
1
60
0
100
AcDbSpline
70
4
71
3
72
24
73
20
40
0
40
0
40
0
40
0
40
0.22172949302308
40
0.22172949302308
40
0.332594239534616
40
0.332594239534616
40
0.443458986046152
40
0.443458986046152
40
0.554323732557688
40
0.554323732557688
40
0.665188479069225
40
0.665188479069225
40
0.886917972092296
40
0.886917972092296
40
0.942350345348068
40
0.942350345348068
40
0.99778271860384
40
0.99778271860384
40
1
40
1
40
1
40
1
41
1
10
66.9614834333935
20
2.779113233462
30
0
41
1
10
66.6691900104952
20
2.78258306395085
30
0
41
1
10
66.3776261785675
20
2.7725749863406
30
0
41
1
10
65.9399293334367
20
2.73820562732078
30
0
41
1
10
65.7939696551111
20
2.72352408005062
30
0
41
1
10
65.501702482784
20
2.68780931628115
30
0
41
1
10
65.3552963366924
20
2.66676156020648
30
0
41
1
10
65.0624884490213
20
2.61845419299519
30
0
41
1
10
64.916110139457
20
2.59120033043377
30
0
41
1
10
64.6233219653652
20
2.5305825252735
30
0
41
1
10
64.4770624752315
20
2.49724584714613
30
0
41
1
10
64.0386635774773
20
2.38836160818849
30
0
41
1
10
63.7467713399556
20
2.30393960295973
30
0
41
1
10
63.3811519419457
20
2.18520548925747
30
0
41
1
10
63.3079578237184
20
2.16078495569332
30
0
41
1
10
63.1616391492872
20
2.11071530833442
30
0
41
1
10
63.0885331750108
20
2.08507480851699
30
0
41
1
10
63.0125435703729
20
2.0578013904755
30
0
41
1
10
63.0096209757479
20
2.05675148241974
30
0
41
1
10
63.0066984455886
20
2.05570063894257
30
0
0
SPLINE
5
E2
100
AcDbEntity
8
1
62
256
6
ByLayer
370
18
48
1
60
0
100
AcDbSpline
70
4
71
3
72
22
73
18
40
0
40
0
40
0
40
0
40
0.0845843350695854
40
0.0845843350695854
40
0.176125901562635
40
0.176125901562635
40
0.22189668480916
40
0.22189668480916
40
0.267667468055685
40
0.267667468055685
40
0.450750601041764
40
0.450750601041764
40
0.633833734027842
40
0.633833734027842
40
0.816916867013921
40
0.816916867013921
40
1
40
1
40
1
40
1
41
1
10
43.7555788763267
20
-0.754814324438115
30
0
41
1
10
43.6207751042382
20
-0.685533030798695
30
0
41
1
10
43.4860363923759
20
-0.61553765888064
30
0
41
1
10
43.2054298690767
20
-0.468639312974972
30
0
41
1
10
43.0595617949299
20
-0.391634300155744
30
0
41
1
10
42.8405533371357
20
-0.275450454249295
30
0
41
1
10
42.767516636004
20
-0.236608807070496
30
0
41
1
10
42.6213477344094
20
-0.158746171717013
30
0
41
1
10
42.5481584003567
20
-0.119697541306209
30
0
41
1
10
42.1825961406174
20
0.0754405415913197
30
0
41
1
10
41.8920502495928
20
0.230924751362409
30
0
41
1
10
41.3129116030813
20
0.537273273288349
30
0
41
1
10
41.0243275180823
20
0.688125607311349
30
0
41
1
10
40.4474500370322
20
0.982027236350064
30
0
41
1
10
40.1591179379399
20
1.12504604022874
30
0
41
1
10
39.5808845057025
20
1.40009268713195
30
0
41
1
10
39.2910183133353
20
1.5321878818358
30
0
41
1
10
38.9995027274439
20
1.65722482422581
30
0
0
SPLINE
5
E3
100
AcDbEntity
8
1
62
256
6
ByLayer
370
18
48
1
60
0
100
AcDbSpline
70
4
71
3
72
34
73
30
40
0
40
0
40
0
40
0
40
0.337662689327484
40
0.337662689327484
40
0.564705993420637
40
0.564705993420637
40
0.713870688638082
40
0.713870688638082
40
0.811816230419647
40
0.811816230419647
40
0.876283628936336
40
0.876283628936336
40
0.919197084897047
40
0.919197084897047
40
0.947789216657204
40
0.947789216657204
40
0.966045271285962
40
0.966045271285962
40
0.977670698832834
40
0.977670698832834
40
0.98541086073265
40
0.98541086073265
40
0.993002134159717
40
0.993002134159717
40
0.996528009493767
40
0.996528009493767
40
0.999519168748221
40
0.999519168748221
40
1
40
1
40
1
40
1
41
1
10
66.8877565009818
20
-2.89986241895429
30
0
41
1
10
66.8960632758931
20
-2.8863455133652
30
0
41
1
10
66.9043673092499
20
-2.87280528967759
30
0
41
1
10
66.9182418711216
20
-2.8501390728743
30
0
41
1
10
66.9238176800055
20
-2.84101787197773
30
0
41
1
10
66.9330780311549
20
-2.82583588547283
30
0
41
1
10
66.9367553713943
20
-2.81979837048962
30
0
41
1
10
66.9428629091706
20
-2.8097537508053
30
0
41
1
10
66.9452892383273
20
-2.80575817655813
30
0
41
1
10
66.9493154136306
20
-2.79912276288411
30
0
41
1
10
66.9509124633333
20
-2.79649043443644
30
0
41
1
10
66.9535470707518
20
-2.79215822334396
30
0
41
1
10
66.954589678418
20
-2.79044817931111
30
0
41
1
10
66.9563177770764
20
-2.78761662813301
30
0
41
1
10
66.9570131482073
20
-2.786475407924
30
0
41
1
10
66.9581795336783
20
-2.78454723058673
30
0
41
1
10
66.958640835305
20
-2.78378138811098
30
0
41
1
10
66.9594047944453
20
-2.78250734045943
30
0
41
1
10
66.9597046447407
20
-2.78200571526625
30
0
41
1
10
66.9602001432143
20
-2.78117915494227
30
0
41
1
10
66.9603974701678
20
-2.78085055493995
30
0
41
1
10
66.960779283741
20
-2.7802188728233
30
0
41
1
10
66.9609671300539
20
-2.77990981380816
30
0
41
1
10
66.961212552928
20
-2.77951569970676
30
0
41
1
10
66.9612868767165
20
-2.77939806873874
30
0
41
1
10
66.9613991448904
20
-2.77922715743554
30
0
41
1
10
66.9614407947039
20
-2.77916728367575
30
0
41
1
10
66.9614722760837
20
-2.77912692450297
30
0
41
1
10
66.9614777762849
20
-2.77912004942681
30
0
41
1
10
66.961483406079
20
-2.77911328009984
30
0
0
SPLINE
5
E4
100
AcDbEntity
8
1
62
256
6
ByLayer
370
18
48
1
60
0
100
AcDbSpline
70
4
71
3
72
62
73
58
40
0
40
0
40
0
40
0
40
0.0127394696049897
40
0.0127394696049897
40
0.0775713913301221
40
0.0775713913301221
40
0.142403313055254
40
0.142403313055254
40
0.174819273917821
40
0.174819273917821
40
0.191027254349104
40
0.191027254349104
40
0.207235234780387
40
0.207235234780387
40
0.22344321521167
40
0.22344321521167
40
0.239651195642953
40
0.239651195642953
40
0.272067156505521
40
0.272067156505521
40
0.30448311736809
40
0.30448311736809
40
0.336899078230659
40
0.336899078230659
40
0.369315039093227
40
0.369315039093227
40
0.401730999955796
40
0.401730999955796
40
0.466562921680931
40
0.466562921680931
40
0.482770902112214
40
0.482770902112214
40
0.498978882543498
40
0.498978882543498
40
0.531394843406065
40
0.531394843406065
40
0.5962267651312
40
0.5962267651312
40
0.661058686856335
40
0.661058686856335
40
0.72589060858147
40
0.72589060858147
40
0.758306569444037
40
0.758306569444037
40
0.790722530306605
40
0.790722530306605
40
0.855554452031742
40
0.855554452031742
40
0.887970412894309
40
0.887970412894309
40
0.904178393325594
40
0.904178393325594
40
0.920386373756879
40
0.920386373756879
40
0.985218295482023
40
0.985218295482023
40
1
40
1
40
1
40
1
41
1
10
60.1277627327431
20
-0.76610649709815
30
0
41
1
10
60.0709567939056
20
-0.736930333616698
30
0
41
1
10
60.0141726316103
20
-0.707627155352185
30
0
41
1
10
59.6685043069049
20
-0.528496946246321
30
0
41
1
10
59.3799869038818
20
-0.375811977364577
30
0
41
1
10
58.8019065732085
20
-0.0680265267422158
30
0
41
1
10
58.5123559133142
20
0.0870902056531691
30
0
41
1
10
58.0759422742086
20
0.319065207487654
30
0
41
1
10
57.9301270493872
20
0.396281262404756
30
0
41
1
10
57.7107359065001
20
0.51166449935252
30
0
41
1
10
57.6374995430496
20
0.550046407927397
30
0
41
1
10
57.4911114294941
20
0.626426644440983
30
0
41
1
10
57.4179290681682
20
0.664440482978506
30
0
41
1
10
57.2715621724412
20
0.740064365814021
30
0
41
1
10
57.1983602530933
20
0.777684959144665
30
0
41
1
10
57.052069020023
20
0.852384371595264
30
0
41
1
10
56.9789672655546
20
0.889467790404922
30
0
41
1
10
56.7597484999812
20
0.999851051680679
30
0
41
1
10
56.6137241674458
20
1.0722963120933
30
0
41
1
10
56.3216622810109
20
1.2144920347109
30
0
41
1
10
56.1756227205397
20
1.28423854010185
30
0
41
1
10
55.8832945564645
20
1.42065225680747
30
0
41
1
10
55.7369274737748
20
1.48733413182205
30
0
41
1
10
55.4442226063883
20
1.61701438382738
30
0
41
1
10
55.2978964208705
20
1.68001774385178
30
0
41
1
10
55.0052187955199
20
1.80188961963779
30
0
41
1
10
54.8589978642148
20
1.86070038387177
30
0
41
1
10
54.4207243478702
20
2.03010187116993
30
0
41
1
10
54.1288723563676
20
2.13375675796621
30
0
41
1
10
53.763330736615
20
2.25051356932019
30
0
41
1
10
53.6901378001992
20
2.27323682539318
30
0
41
1
10
53.5438871314318
20
2.3172965344454
30
0
41
1
10
53.4708764790578
20
2.33861844684316
30
0
41
1
10
53.2521409681031
20
2.40042690987207
30
0
41
1
10
53.106717335744
20
2.43876628523739
30
0
41
1
10
52.6713617376703
20
2.54497562065953
30
0
41
1
10
52.3823372318222
20
2.60401244827972
30
0
41
1
10
51.8049675567644
20
2.69688173407803
30
0
41
1
10
51.5166229038371
20
2.73085404228252
30
0
41
1
10
50.9387424822176
20
2.7736371177524
30
0
41
1
10
50.6491966951791
20
2.78246256088946
30
0
41
1
10
50.2127334397498
20
2.77645450451712
30
0
41
1
10
50.0668844457671
20
2.77123154276885
30
0
41
1
10
49.7742380482081
20
2.75415057766088
30
0
41
1
10
49.6281003278683
20
2.74232940150762
30
0
41
1
10
49.1902399923653
20
2.69697464518353
30
0
41
1
10
48.8989183964097
20
2.65363196272287
30
0
41
1
10
48.4612925369732
20
2.57024248673383
30
0
41
1
10
48.315309282073
20
2.53937719314629
30
0
41
1
10
48.0960231210716
20
2.48859437555183
30
0
41
1
10
48.0228401741344
20
2.47091010703443
30
0
41
1
10
47.8766267486307
20
2.43413965710786
30
0
41
1
10
47.8035721109322
20
2.41504862868305
30
0
41
1
10
47.4384874600954
20
2.31614184698969
30
0
41
1
10
47.1470155713714
20
2.22600256801948
30
0
41
1
10
46.788779484373
20
2.10272444728108
30
0
41
1
10
46.7222526092938
20
2.07930294406123
30
0
41
1
10
46.6557004567656
20
2.05536474485319
30
0
0
SPLINE
5
E5
100
AcDbEntity
8
1
62
256
6
ByLayer
370
18
48
1
60
0
100
AcDbSpline
70
4
71
3
72
14
73
10
40
0
40
0
40
0
40
0
40
0.25
40
0.25
40
0.5
40
0.5
40
0.75
40
0.75
40
1
40
1
40
1
40
1
41
1
10
66.9496694712403
20
-2.75148797314827
30
0
41
1
10
66.9503652175943
20
-2.75036350186946
30
0
41
1
10
66.951075728883
20
-2.74916831377439
30
0
41
1
10
66.9524500724223
20
-2.74673169623628
30
0
41
1
10
66.95310701073
20
-2.74549829608483
30
0
41
1
10
66.9541523045248
20
-2.74335884069305
30
0
41
1
10
66.9545403844537
20
-2.74245034799984
30
0
41
1
10
66.9549553369022
20
-2.74120230152013
30
0
41
1
10
66.9549953486069
20
-2.74084128458062
30
0
41
1
10
66.9549092927653
20
-2.74069776113416
30
0
0
SPLINE
5
E6
100
AcDbEntity
8
1
62
256
6
ByLayer
370
18
48
1
60
0
100
AcDbSpline
70
4
71
3
72
51
73
47
40
0
40
0
40
0
40
0
40
0.0145213662440189
40
0.0145213662440189
40
0.0663832052652372
40
0.0663832052652372
40
0.118245044286456
40
0.118245044286456
40
0.170106883307674
40
0.196037802818285
40
0.196037802818285
40
0.221968722328896
40
0.221968722328896
40
0.273830561350118
40
0.273830561350118
40
0.325692400371341
40
0.325692400371341
40
0.377554239392563
40
0.377554239392563
40
0.429416078413785
40
0.429416078413785
40
0.481277917435007
40
0.481277917435007
40
0.53313975645623
40
0.53313975645623
40
0.585001595477452
40
0.585001595477452
40
0.636863434498674
40
0.636863434498674
40
0.662794354009285
40
0.662794354009285
40
0.688725273519897
40
0.688725273519897
40
0.740587112541119
40
0.740587112541119
40
0.792448951562341
40
0.792448951562341
40
0.844310790583563
40
0.844310790583563
40
0.896172629604786
40
0.896172629604786
40
0.948034468626008
40
0.948034468626008
40
0.99989630764723
40
0.99989630764723
40
1
40
1
40
1
40
1
41
1
10
41.6275924354306
20
2.7192371202934
30
0
41
1
10
41.6678230007649
20
2.72029551402704
30
0
41
1
10
41.7080606207812
20
2.72110064582105
30
0
41
1
10
41.8920669295531
20
2.72355864114985
30
0
41
1
10
42.035965173368
20
2.7221606348065
30
0
41
1
10
42.3241260874482
20
2.71309740747111
30
0
41
1
10
42.4684044719262
20
2.70540100834666
30
0
41
1
10
42.7577216150615
20
2.68340387021016
30
0
41
1
10
42.9752597348962
20
2.66198478142849
30
0
41
1
10
43.1937106071297
20
2.63347178958998
30
0
41
1
10
43.3395575503569
20
2.61292011555818
30
0
41
1
10
43.4125242504869
20
2.60188029097819
30
0
41
1
10
43.6308837309156
20
2.56665386931883
30
0
41
1
10
43.7759958580078
20
2.54032765061567
30
0
41
1
10
44.0653813175772
20
2.4823897880502
30
0
41
1
10
44.2096867774493
20
2.45072270623902
30
0
41
1
10
44.4981196610721
20
2.3812885033561
30
0
41
1
10
44.6422248199915
20
2.34358299357501
30
0
41
1
10
44.9303360861965
20
2.26283954336009
30
0
41
1
10
45.0743290665224
20
2.21980308783915
30
0
41
1
10
45.3620854566845
20
2.1290521369753
30
0
41
1
10
45.5058518560678
20
2.08131605464376
30
0
41
1
10
45.793267129424
20
1.98128023443036
30
0
41
1
10
45.9369633371643
20
1.92896824046409
30
0
41
1
10
46.2252589346534
20
1.81947325949261
30
0
41
1
10
46.3698099243762
20
1.76232322083999
30
0
41
1
10
46.659614129526
20
1.64383728594237
30
0
41
1
10
46.8048719681121
20
1.5824900456617
30
0
41
1
10
47.0232928379853
20
1.487563836129
30
0
41
1
10
47.096246239468
20
1.45541030976636
30
0
41
1
10
47.2420617769228
20
1.39027798969229
30
0
41
1
10
47.3148420129465
20
1.35733519758529
30
0
41
1
10
47.5328299603692
20
1.25743889089662
30
0
41
1
10
47.6776985092301
20
1.18943143908254
30
0
41
1
10
47.9668863032607
20
1.05108135516465
30
0
41
1
10
48.1111846362344
20
0.980718772781955
30
0
41
1
10
48.3992819726303
20
0.837918723175903
30
0
41
1
10
48.5431383745346
20
0.765545554285097
30
0
41
1
10
48.8309855509059
20
0.619658716094449
30
0
41
1
10
48.9749404546066
20
0.546101148321839
30
0
41
1
10
49.2628624060279
20
0.397829509090315
30
0
41
1
10
49.4068320118911
20
0.323118323769279
30
0
41
1
10
49.6947955334721
20
0.172667737791926
30
0
41
1
10
49.8387818999092
20
0.0969134493588797
30
0
41
1
10
49.9830837019426
20
0.020534926225622
30
0
41
1
10
49.9833716431405
20
0.0203825186991651
30
0
41
1
10
49.9836595848079
20
0.0202301098502744
30
0
0
SPLINE
5
E7
100
AcDbEntity
8
1
62
256
6
ByLayer
370
18
48
1
60
0
100
AcDbSpline
70
4
71
3
72
8
73
4
40
0
40
0
40
0
40
0
40
1
40
1
40
1
40
1
41
1
10
66.9208585169623
20
-0.289486443986988
30
0
41
1
10
66.9227629290305
20
-0.28992293107288
30
0
41
1
10
66.9237765939924
20
-0.295018865199495
30
0
41
1
10
66.9231346537721
20
-0.300840741488941
30
0
0
SPLINE
5
E8
100
AcDbEntity
8
1
62
256
6
ByLayer
370
18
48
1
60
0
100
AcDbSpline
70
4
71
3
72
8
73
4
40
0
40
0
40
0
40
0
40
1
40
1
40
1
40
1
41
1
10
66.8692482725635
20
-2.88090941064337
30
0
41
1
10
66.896010822815
20
-2.83803066463528
30
0
41
1
10
66.922815439412
20
-2.79488969180707
30
0
41
1
10
66.9496694712403
20
-2.75148797314827
30
0
0
SPLINE
5
E9
100
AcDbEntity
8
1
62
256
6
ByLayer
370
18
48
1
60
0
100
AcDbSpline
70
4
71
3
72
38
73
34
40
0
40
0
40
0
40
0
40
0.0283720147266239
40
0.0283720147266239
40
0.0567440294532481
40
0.113488058906496
40
0.113488058906496
40
0.226976117812993
40
0.226976117812993
40
0.340464176719489
40
0.340464176719489
40
0.397208206172735
40
0.425580220899358
40
0.425580220899358
40
0.453952235625981
40
0.453952235625981
40
0.510696265079231
40
0.510696265079231
40
0.567440294532482
40
0.567440294532482
40
0.680928353438986
40
0.680928353438986
40
0.709300368165613
40
0.709300368165613
40
0.73767238289224
40
0.73767238289224
40
0.794416412345495
40
0.794416412345495
40
0.851160441798749
40
0.851160441798749
40
0.907904471252003
40
0.907904471252003
40
1
40
1
40
1
40
1
41
1
10
66.9496694763175
20
-2.75148797342413
30
0
41
1
10
66.8769768548474
20
-2.74753848381138
30
0
41
1
10
66.8043627353472
20
-2.7428805869319
30
0
41
1
10
66.6593007581569
20
-2.73187347026462
30
0
41
1
10
66.4419397054983
20
-2.71297108496469
30
0
41
1
10
66.2251563583526
20
-2.68698689891809
30
0
41
1
10
65.7920384683662
20
-2.62580866854557
30
0
41
1
10
65.5038905538072
20
-2.5727372233018
30
0
41
1
10
64.9272178638894
20
-2.44354411360067
30
0
41
1
10
64.6387136123336
20
-2.36744234461554
30
0
41
1
10
64.2043937393019
20
-2.23700197456219
30
0
41
1
10
63.9868255503985
20
-2.16768662237922
30
0
41
1
10
63.7683703564413
20
-2.09245329731968
30
0
41
1
10
63.6225049444949
20
-2.04100951756814
30
0
41
1
10
63.5494680506003
20
-2.01464563643151
30
0
41
1
10
63.330677466193
20
-1.93392993512674
30
0
41
1
10
63.1849965857647
20
-1.87787059960007
30
0
41
1
10
62.8939116973829
20
-1.76160085298855
30
0
41
1
10
62.7485309063819
20
-1.70139542990586
30
0
41
1
10
62.3123414881408
20
-1.51504663717338
30
0
41
1
10
62.0214162291801
20
-1.38313250282036
30
0
41
1
10
61.656459183217
20
-1.21050646681337
30
0
41
1
10
61.5833916556049
20
-1.17559026654962
30
0
41
1
10
61.4375959878785
20
-1.10526122299498
30
0
41
1
10
61.3648071015259
20
-1.0698190608901
30
0
41
1
10
61.1467398606513
20
-0.962718130279825
30
0
41
1
10
61.0017692465573
20
-0.890273129262908
30
0
41
1
10
60.712357381939
20
-0.743808700762827
30
0
41
1
10
60.5679097927564
20
-0.66979685496031
30
0
41
1
10
60.279330317548
20
-0.520616612616976
30
0
41
1
10
60.1352008447834
20
-0.445445582956694
30
0
41
1
10
59.7572889900783
20
-0.247285374027285
30
0
41
1
10
59.5236073902521
20
-0.123653813659701
30
0
41
1
10
59.289620968975
20
0.000114311728538
30
0
0
SPLINE
5
EA
100
AcDbEntity
8
1
62
256
6
ByLayer
370
18
48
1
60
0
100
AcDbSpline
70
4
71
3
72
51
73
47
40
0
40
0
40
0
40
0
40
0.0243384856903081
40
0.0243384856903081
40
0.0495859093488219
40
0.0495859093488219
40
0.100080756665849
40
0.100080756665849
40
0.150575603982878
40
0.150575603982878
40
0.201070451299905
40
0.201070451299905
40
0.251565298616933
40
0.251565298616933
40
0.302060145933961
40
0.302060145933961
40
0.352554993250989
40
0.352554993250989
40
0.377802416909503
40
0.377802416909503
40
0.403049840568017
40
0.403049840568017
40
0.453544687885041
40
0.453544687885041
40
0.504039535202065
40
0.504039535202065
40
0.554534382519089
40
0.554534382519089
40
0.605029229836113
40
0.605029229836113
40
0.655524077153137
40
0.655524077153137
40
0.706018924470161
40
0.706018924470161
40
0.756513771787185
40
0.756513771787185
40
0.807008619104209
40
0.807008619104209
40
0.832256042762723
40
0.832256042762723
40
0.857503466421238
40
0.907998313738265
40
0.907998313738265
40
0.958493161055293
40
0.958493161055293
40
1
40
1
40
1
40
1
41
1
10
50.4064689534607
20
-0.213283491819396
30
0
41
1
10
50.33663068088
20
-0.176824868852663
30
0
41
1
10
50.2669027129805
20
-0.140301033502226
30
0
41
1
10
50.1250931996182
20
-0.0657359060419367
30
0
41
1
10
50.0530367224338
20
-0.0276662431662658
30
0
41
1
10
49.8369488147264
20
0.0862882797404723
30
0
41
1
10
49.6929166765998
20
0.161793879135047
30
0
41
1
10
49.4048658901528
20
0.311778388469804
30
0
41
1
10
49.2608548327451
20
0.386272065057227
30
0
41
1
10
48.9728533813795
20
0.534139398434718
30
0
41
1
10
48.8288606308312
20
0.607510564143098
30
0
41
1
10
48.5409398917202
20
0.753055880441508
30
0
41
1
10
48.3970470893083
20
0.82527309585646
30
0
41
1
10
48.1088724277663
20
0.967771030248002
30
0
41
1
10
47.9645364813158
20
1.03799329300375
30
0
41
1
10
47.6752818924907
20
1.17609934319702
30
0
41
1
10
47.530381338593
20
1.2439976992458
30
0
41
1
10
47.3123468687381
20
1.34374321462221
30
0
41
1
10
47.2395516894859
20
1.37663845360649
30
0
41
1
10
47.0937087518708
20
1.4416837735248
30
0
41
1
10
47.0207362247808
20
1.47380044754971
30
0
41
1
10
46.8022618736202
20
1.56862758010638
30
0
41
1
10
46.6569679353693
20
1.62992753009013
30
0
41
1
10
46.3670899781702
20
1.74835432248719
30
0
41
1
10
46.222501961025
20
1.80549389743788
30
0
41
1
10
45.9341306400226
20
1.91500646622401
30
0
41
1
10
45.7903917562639
20
1.96733795452778
30
0
41
1
10
45.5028853550994
20
2.06742461826164
30
0
41
1
10
45.359073877128
20
2.11519895058637
30
0
41
1
10
45.0712317671284
20
2.20605775289212
30
0
41
1
10
44.9271987254671
20
2.24916440772299
30
0
41
1
10
44.6390124789822
20
2.33008398582936
30
0
41
1
10
44.4948717190692
20
2.36789442113474
30
0
41
1
10
44.2063694989714
20
2.43756859601101
30
0
41
1
10
44.0620270917481
20
2.46936643123018
30
0
41
1
10
43.7725661204595
20
2.5275821886041
30
0
41
1
10
43.6274191792892
20
2.5540602048215
30
0
41
1
10
43.4090143750812
20
2.58953682657304
30
0
41
1
10
43.3360347028259
20
2.60066345960644
30
0
41
1
10
43.1901556249786
20
2.62139636685652
30
0
41
1
10
42.9716554824297
20
2.6501911265423
30
0
41
1
10
42.7540648468679
20
2.67192036064262
30
0
41
1
10
42.4646746678777
20
2.69435434428041
30
0
41
1
10
42.3203574148201
20
2.70228026063884
30
0
41
1
10
42.057768825241
20
2.71097251365816
30
0
41
1
10
41.939423963752
20
2.71278352914965
30
0
41
1
10
41.8211809042004
20
2.71238169076381
30
0
0
SPLINE
5
EB
100
AcDbEntity
8
1
62
256
6
ByLayer
370
13
48
1
60
0
100
AcDbSpline
70
4
71
3
72
32
73
28
40
0
40
0
40
0
40
0
40
0.0910961760551236
40
0.0910961760551236
40
0.145067479445839
40
0.145067479445839
40
0.199038782836554
40
0.199038782836554
40
0.306981389617985
40
0.306981389617985
40
0.3609526930087
40
0.3609526930087
40
0.414923996399415
40
0.414923996399415
40
0.522866603180846
40
0.522866603180846
40
0.576837906571561
40
0.576837906571561
40
0.630809209962276
40
0.630809209962276
40
0.738751816743707
40
0.738751816743707
40
0.792723120134423
40
0.792723120134423
40
0.846694423525138
40
0.846694423525138
40
1
40
1
40
1
40
1
41
1
10
39.1002970302634
20
2.70553396276244
30
0
41
1
10
39.1002854670499
20
2.70556168300723
30
0
41
1
10
39.1002737478151
20
2.70331512816105
30
0
41
1
10
39.1002548306378
20
2.69612305643602
30
0
41
1
10
39.1002477361085
20
2.69264952567792
30
0
41
1
10
39.1002334276227
20
2.68409601859167
30
0
41
1
10
39.1002262070722
20
2.67900920303686
30
0
41
1
10
39.1002044565131
20
2.66140335580965
30
0
41
1
10
39.1001898108284
20
2.64653175941447
30
0
41
1
10
39.1001675553829
20
2.61954569130572
30
0
41
1
10
39.1001600887419
20
2.60976951850566
30
0
41
1
10
39.1001450434055
20
2.58864683481505
30
0
41
1
10
39.100137460105
20
2.57729144456815
30
0
41
1
10
39.1001146198054
20
2.54102135954327
30
0
41
1
10
39.1000992414839
20
2.51386533470313
30
0
41
1
10
39.1000758263224
20
2.46868638615678
30
0
41
1
10
39.1000679630385
20
2.4528849331885
30
0
41
1
10
39.1000520962533
20
2.41978969924381
30
0
41
1
10
39.1000440903071
20
2.40248889813023
30
0
41
1
10
39.1000199367437
20
2.34858723743011
30
0
41
1
10
39.1000036178672
20
2.30991705703156
30
0
41
1
10
39.0999786568969
20
2.24782322642398
30
0
41
1
10
39.0999702559089
20
2.22644295119747
30
0
41
1
10
39.0999532632791
20
2.18230930094831
30
0
41
1
10
39.0999446722164
20
2.15955606813097
30
0
41
1
10
39.0999114249022
20
2.06998344494312
30
0
41
1
10
39.0998862217902
20
1.99894317000366
30
0
41
1
10
39.0998600567673
20
1.9230870140502
30
0
0
SPLINE
5
EC
100
AcDbEntity
8
1
62
256
6
ByLayer
370
18
48
1
60
0
100
AcDbSpline
70
4
71
3
72
49
73
45
40
0
40
0
40
0
40
0
40
0.0062702778793419
40
0.0062702778793419
40
0.0568366198747798
40
0.0821197908724968
40
0.0821197908724968
40
0.107402961870214
40
0.107402961870214
40
0.157969303865644
40
0.157969303865644
40
0.208535645861075
40
0.208535645861075
40
0.259101987856505
40
0.259101987856505
40
0.309668329851935
40
0.309668329851935
40
0.410801013842797
40
0.410801013842797
40
0.511933697833658
40
0.511933697833658
40
0.537216868831372
40
0.537216868831372
40
0.562500039829087
40
0.562500039829087
40
0.613066381824515
40
0.613066381824515
40
0.663632723819944
40
0.663632723819944
40
0.714199065815373
40
0.714199065815373
40
0.81533174980623
40
0.81533174980623
40
0.86589809180166
40
0.86589809180166
40
0.891181262799375
40
0.891181262799375
40
0.91646443379709
40
0.91646443379709
40
0.967030775792521
40
0.967030775792521
40
0.992313946790236
40
0.992313946790236
40
1
40
1
40
1
40
1
41
1
10
42.5288088128818
20
0.225148210754128
30
0
41
1
10
42.5468011484642
20
0.215815905949199
30
0
41
1
10
42.5647975479696
20
0.206477019304657
30
0
41
1
10
42.7279635259727
20
0.121768544944985
30
0
41
1
10
42.9461188119349
20
0.0081055596846795
30
0
41
1
10
43.1651272075639
20
-0.106022614770325
30
0
41
1
10
43.3113507027135
20
-0.182157957109354
30
0
41
1
10
43.3846172000796
20
-0.220274424968579
30
0
41
1
10
43.6038677743978
20
-0.334140443473814
30
0
41
1
10
43.7495811499396
20
-0.409549010832564
30
0
41
1
10
44.0403703915433
20
-0.558879369516092
30
0
41
1
10
44.1854435511814
20
-0.632804469250402
30
0
41
1
10
44.4751260725276
20
-0.778807935370111
30
0
41
1
10
44.6197374305875
20
-0.850886882086428
30
0
41
1
10
44.9087214465694
20
-0.992873278975964
30
0
41
1
10
45.0530931528573
20
-1.06277885780344
30
0
41
1
10
45.4861553489003
20
-1.26861269993716
30
0
41
1
10
45.7747958197227
20
-1.40064299118472
30
0
41
1
10
46.3536547286971
20
-1.65127425110074
30
0
41
1
10
46.6438554280574
20
-1.76989954020431
30
0
41
1
10
47.0086642011281
20
-1.90806911159916
30
0
41
1
10
47.0817303362407
20
-1.93519646274575
30
0
41
1
10
47.2280916257747
20
-1.9883781129021
30
0
41
1
10
47.3011516555984
20
-2.01434657102723
30
0
41
1
10
47.5199989216919
20
-2.09032905833425
30
0
41
1
10
47.6654603971219
20
-2.13843181843672
30
0
41
1
10
47.9558061507677
20
-2.22946758822991
30
0
41
1
10
48.1006811910444
20
-2.27238223745957
30
0
41
1
10
48.3899673155637
20
-2.35257681815142
30
0
41
1
10
48.5344168797922
20
-2.3899122291763
30
0
41
1
10
48.9675372495816
20
-2.49354991324739
30
0
41
1
10
49.2559029537416
20
-2.55141633173798
30
0
41
1
10
49.689131163879
20
-2.62071020658072
30
0
41
1
10
49.8336546691024
20
-2.64086962013945
30
0
41
1
10
50.0507516210589
20
-2.66626253076566
30
0
41
1
10
50.1231735300364
20
-2.67393699670868
30
0
41
1
10
50.2681947921176
20
-2.68784769052891
30
0
41
1
10
50.3407889297686
20
-2.69406681044896
30
0
41
1
10
50.5587994618041
20
-2.71032280151883
30
0
41
1
10
50.7044532263009
20
-2.7179878087799
30
0
41
1
10
50.9235763175664
20
-2.7246692673632
30
0
41
1
10
50.9967517410899
20
-2.72609228644109
30
0
41
1
10
51.0920185802132
20
-2.7268928909331
30
0
41
1
10
51.1142223320137
20
-2.72700498377233
30
0
41
1
10
51.1364208925275
20
-2.72704264500601
30
0
0
SPLINE
5
ED
100
AcDbEntity
8
1
62
256
6
ByLayer
370
18
48
1
60
0
100
AcDbSpline
70
4
71
3
72
8
73
4
40
0
40
0
40
0
40
0
40
1
40
1
40
1
40
1
41
1
10
66.9231346537625
20
-0.300840741483853
30
0
41
1
10
66.9099414762562
20
-0.293857838387339
30
0
41
1
10
66.8967508726965
20
-0.28687474520504
30
0
41
1
10
66.8835627664703
20
-0.279891604123861
30
0
0
SPLINE
5
EE
100
AcDbEntity
8
1
62
256
6
ByLayer
370
18
48
1
60
0
100
AcDbSpline
70
4
71
3
72
46
73
42
40
0
40
0
40
0
40
0
40
0.0838628611057105
40
0.0838628611057105
40
0.184720152487887
40
0.184720152487887
40
0.235148798178977
40
0.235148798178977
40
0.285577443870067
40
0.285577443870067
40
0.336006089561157
40
0.336006089561157
40
0.361220412406704
40
0.361220412406704
40
0.386434735252251
40
0.386434735252251
40
0.436863380943345
40
0.436863380943345
40
0.487292026634439
40
0.487292026634439
40
0.588149318016626
40
0.588149318016626
40
0.613363640862175
40
0.613363640862175
40
0.638577963707724
40
0.638577963707724
40
0.689006609398825
40
0.689006609398825
40
0.739435255089926
40
0.739435255089926
40
0.789863900781027
40
0.789863900781027
40
0.840292546472128
40
0.840292546472128
40
0.89072119216323
40
0.89072119216323
40
0.941149837854331
40
0.941149837854331
40
0.991578483545432
40
0.991578483545432
40
1
40
1
40
1
40
1
41
1
10
66.7766632309876
20
-0.223261555780681
30
0
41
1
10
66.535892499161
20
-0.0956617670065043
30
0
41
1
10
66.2958866134096
20
0.0318256540708433
30
0
41
1
10
65.767893527504
20
0.310476359537347
30
0
41
1
10
65.4800314667186
20
0.461192962962883
30
0
41
1
10
65.0480336729827
20
0.683299162609359
30
0
41
1
10
64.9039985153889
20
0.756674335575525
30
0
41
1
10
64.6157486863464
20
0.90176266433906
30
0
41
1
10
64.471550975606
20
0.973487466939304
30
0
41
1
10
64.1825508921648
20
1.11467703840609
30
0
41
1
10
64.0377273593778
20
1.18412092902403
30
0
41
1
10
63.8198809654576
20
1.2863008500633
30
0
41
1
10
63.7471643573025
20
1.32003045111352
30
0
41
1
10
63.6015096231412
20
1.38678664186134
30
0
41
1
10
63.5285834139827
20
1.41980692172467
30
0
41
1
10
63.3101292978814
20
1.51744774706842
30
0
41
1
10
63.1646986713881
20
1.58076547837894
30
0
41
1
10
62.8742146678222
20
1.70335606565021
30
0
41
1
10
62.7291909657586
20
1.76260274199362
30
0
41
1
10
62.2939484811763
20
1.93402788178682
30
0
41
1
10
62.0034214606127
20
2.03996733486065
30
0
41
1
10
61.6391627594909
20
2.16019518758512
30
0
41
1
10
61.5662393877933
20
2.18363691038786
30
0
41
1
10
61.4207561778118
20
2.22908708020447
30
0
41
1
10
61.3481372521084
20
2.2511145385663
30
0
41
1
10
61.1306379716374
20
2.31501669112851
30
0
41
1
10
60.9861476190584
20
2.35465995080125
30
0
41
1
10
60.6974640474763
20
2.42858825746905
30
0
41
1
10
60.5532247468227
20
2.46293335329301
30
0
41
1
10
60.2650568382475
20
2.52583697554258
30
0
41
1
10
60.121153466109
20
2.55436455943501
30
0
41
1
10
59.8334803916662
20
2.60544841308925
30
0
41
1
10
59.6896970947656
20
2.62803890691492
30
0
41
1
10
59.4022043401503
20
2.6666045578736
30
0
41
1
10
59.2585294249994
20
2.682462507194
30
0
41
1
10
58.9706830661012
20
2.70859873139597
30
0
41
1
10
58.8264715272216
20
2.71900402476726
30
0
41
1
10
58.5374074789761
20
2.73389629334494
30
0
41
1
10
58.3925608325425
20
2.73836388492202
30
0
41
1
10
58.2231417413596
20
2.73967186768223
30
0
41
1
10
58.1988887198817
20
2.73976595335506
30
0
41
1
10
58.1746263550153
20
2.73976472508809
30
0
0
SPLINE
5
EF
100
AcDbEntity
8
1
62
256
6
ByLayer
370
13
48
1
60
0
100
AcDbSpline
70
4
71
3
72
22
73
18
40
0
40
0
40
0
40
0
40
0.0635548716808782
40
0.0635548716808782
40
0.164116660004182
40
0.164116660004182
40
0.365240236650789
40
0.365240236650789
40
0.465802024974092
40
0.465802024974092
40
0.566363813297396
40
0.566363813297396
40
0.767487389944003
40
0.767487389944003
40
0.96861096659061
40
0.96861096659061
40
1
40
1
40
1
40
1
41
1
10
39.1004750037097
20
-2.47097724616896
30
0
41
1
10
39.1004720303866
20
-2.48077940709663
30
0
41
1
10
39.1004689868722
20
-2.49029130500492
30
0
41
1
10
39.1004609664512
20
-2.51406306018055
30
0
41
1
10
39.1004558954124
20
-2.52786675014281
30
0
41
1
10
39.1004402462027
20
-2.56700432658093
30
0
41
1
10
39.1004292336493
20
-2.59006874306897
30
0
41
1
10
39.1004119472325
20
-2.620105755335
30
0
41
1
10
39.1004060496007
20
-2.62936601476497
30
0
41
1
10
39.1003940609695
20
-2.64628138454623
30
0
41
1
10
39.1003879672018
20
-2.65394379427161
30
0
41
1
10
39.1003694074918
20
-2.67456131531094
30
0
41
1
10
39.1003566648105
20
-2.68515089419813
30
0
41
1
10
39.1003305054325
20
-2.7000038605332
30
0
41
1
10
39.1003170628233
20
-2.70425547002088
30
0
41
1
10
39.1003013017016
20
-2.70544593181899
30
0
41
1
10
39.1002991686506
20
-2.70552883643782
30
0
41
1
10
39.1002970302639
20
-2.70553396276102
30
0
0
SPLINE
5
F0
100
AcDbEntity
8
1
62
256
6
ByLayer
370
18
48
1
60
0
100
AcDbSpline
70
4
71
3
72
42
73
38
40
0
40
0
40
0
40
0
40
0.0300679090743555
40
0.0300679090743555
40
0.137838141399431
40
0.137838141399431
40
0.191723257561971
40
0.191723257561971
40
0.245608373724511
40
0.245608373724511
40
0.29949348988705
40
0.29949348988705
40
0.326436047968318
40
0.326436047968318
40
0.353378606049586
40
0.353378606049586
40
0.461148838374662
40
0.461148838374662
40
0.515033954537202
40
0.515033954537202
40
0.568919070699742
40
0.568919070699742
40
0.59586162878101
40
0.59586162878101
40
0.622804186862278
40
0.622804186862278
40
0.67668930302481
40
0.67668930302481
40
0.784459535349873
40
0.784459535349873
40
0.892229767674937
40
0.892229767674937
40
0.946114883837468
40
0.973057441918734
40
0.986528720959367
40
0.986528720959367
40
1
40
1
40
1
40
1
41
1
10
58.8897965970464
20
0.221812130886178
30
0
41
1
10
58.9704270840503
20
0.179484961082295
30
0
41
1
10
59.0509863703204
20
0.137102224140932
30
0
41
1
10
59.4200515650428
20
-0.0572703556126157
30
0
41
1
10
59.7079882341568
20
-0.209388175511378
30
0
41
1
10
60.1402399227951
20
-0.435316287007822
30
0
41
1
10
60.2843770626915
20
-0.51026015054299
30
0
41
1
10
60.5729691464667
20
-0.65901091513723
30
0
41
1
10
60.7174213558762
20
-0.732821127262639
30
0
41
1
10
61.0068430163918
20
-0.878900215830896
30
0
41
1
10
61.1518192447189
20
-0.951160519097812
30
0
41
1
10
61.3698888249608
20
-1.05800747976289
30
0
41
1
10
61.4426774616024
20
-1.09336890068724
30
0
41
1
10
61.5884709022359
20
-1.16354362364058
30
0
41
1
10
61.661536024197
20
-1.19838608641626
30
0
41
1
10
62.0264805463837
20
-1.37066044071352
30
0
41
1
10
62.3174012016499
20
-1.50235321645167
30
0
41
1
10
62.7535926439338
20
-1.68845056335377
30
0
41
1
10
62.8989763650724
20
-1.74858465231918
30
0
41
1
10
63.1900609421975
20
-1.86474982279344
30
0
41
1
10
63.3357384357026
20
-1.9207758142451
30
0
41
1
10
63.554523239298
20
-2.00146205925728
30
0
41
1
10
63.6275577656137
20
-2.02781948650644
30
0
41
1
10
63.7734188841824
20
-2.07925778948146
30
0
41
1
10
63.8462360270635
20
-2.10433652721755
30
0
41
1
10
64.064394346134
20
-2.17761287320076
30
0
41
1
10
64.2094422916649
20
-2.22384920593132
30
0
41
1
10
64.6437783051796
20
-2.35441465824707
30
0
41
1
10
64.9323013626631
20
-2.43066439518469
30
0
41
1
10
65.5090130255753
20
-2.56026839354237
30
0
41
1
10
65.7971833200197
20
-2.61360135779077
30
0
41
1
10
66.2303366979195
20
-2.67525071172008
30
0
41
1
10
66.4471383968209
20
-2.70149027048424
30
0
41
1
10
66.7007467476097
20
-2.72387631954371
30
0
41
1
10
66.8096095945923
20
-2.73168429202241
30
0
41
1
10
66.8822266453291
20
-2.73649009109471
30
0
41
1
10
66.9185528359035
20
-2.73866990486979
30
0
41
1
10
66.9549092927652
20
-2.74069776113416
30
0
0
SPLINE
5
F1
100
AcDbEntity
8
1
62
256
6
ByLayer
370
18
48
1
60
0
100
AcDbSpline
70
4
71
3
72
8
73
4
40
0
40
0
40
0
40
0
40
1
40
1
40
1
40
1
41
1
10
66.9549092927653
20
-2.74069776113416
30
0
41
1
10
66.9542310608973
20
-2.73956660985596
30
0
41
1
10
66.9535532050312
20
-2.7383691006481
30
0
41
1
10
66.9528756770723
20
-2.73710534907883
30
0
0
SPLINE
5
F2
100
AcDbEntity
8
1
62
256
6
ByLayer
370
18
48
1
60
0
100
AcDbSpline
70
4
71
3
72
46
73
42
40
0
40
0
40
0
40
0
40
0.0624999999999994
40
0.0624999999999994
40
0.0937499999999985
40
0.0937499999999985
40
0.124999999999998
40
0.124999999999998
40
0.187499999999997
40
0.187499999999997
40
0.218749999999997
40
0.218749999999997
40
0.249999999999996
40
0.249999999999996
40
0.374999999999997
40
0.374999999999997
40
0.437499999999997
40
0.437499999999997
40
0.468749999999997
40
0.468749999999997
40
0.499999999999997
40
0.499999999999997
40
0.562499999999997
40
0.562499999999997
40
0.593749999999997
40
0.593749999999997
40
0.624999999999997
40
0.624999999999997
40
0.687499999999997
40
0.687499999999997
40
0.718749999999997
40
0.718749999999997
40
0.749999999999998
40
0.749999999999998
40
0.812499999999998
40
0.812499999999998
40
0.843749999999998
40
0.843749999999998
40
0.874999999999999
40
0.874999999999999
40
1
40
1
40
1
40
1
41
1
10
66.9231346537725
20
-0.300840741484734
30
0
41
1
10
66.9146631807029
20
-0.377670120035759
30
0
41
1
10
66.907246100454
20
-0.45398444883304
30
0
41
1
10
66.8974486281528
20
-0.567663488943083
30
0
41
1
10
66.8944046143625
20
-0.60542428122892
30
0
41
1
10
66.8887230140963
20
-0.680676301777254
30
0
41
1
10
66.8860829006875
20
-0.718207046039311
30
0
41
1
10
66.8787399758173
20
-0.830090987977258
30
0
41
1
10
66.8746200602467
20
-0.903591549214667
30
0
41
1
10
66.8693846318036
20
-1.01220738254369
30
0
41
1
10
66.867797428837
20
-1.04813982385028
30
0
41
1
10
66.8649084975264
20
-1.11945464685317
30
0
41
1
10
66.8636048436036
20
-1.15489938330188
30
0
41
1
10
66.8577641100203
20
-1.3297724138435
30
0
41
1
10
66.8551981717596
20
-1.46229093424674
30
0
41
1
10
66.853401774206
20
-1.65034755340699
30
0
41
1
10
66.8531544646335
20
-1.71123670968913
30
0
41
1
10
66.8532515653667
20
-1.79983448886227
30
0
41
1
10
66.8533624678544
20
-1.82891050019595
30
0
41
1
10
66.8537379132031
20
-1.88613502103067
30
0
41
1
10
66.8540031553548
20
-1.91432753155931
30
0
41
1
10
66.8550236432411
20
-1.99697341014399
30
0
41
1
10
66.8560009952856
20
-2.04960783296394
30
0
41
1
10
66.8579309793619
20
-2.12488644888793
30
0
41
1
10
66.8586521989567
20
-2.1493663285716
30
0
41
1
10
66.8602603643
20
-2.19709374850694
30
0
41
1
10
66.8611482638692
20
-2.22035839166759
30
0
41
1
10
66.864068436075
20
-2.28798740283887
30
0
41
1
10
66.8663575366401
20
-2.33028569615436
30
0
41
1
10
66.8704099584378
20
-2.389572443319
30
0
41
1
10
66.8718644311618
20
-2.40864031877763
30
0
41
1
10
66.8750049560886
20
-2.44537968233513
30
0
41
1
10
66.8766920191056
20
-2.46305568360057
30
0
41
1
10
66.88211651249
20
-2.51373857498709
30
0
41
1
10
66.886221982209
20
-2.54449201734701
30
0
41
1
10
66.893291776923
20
-2.58609158106555
30
0
41
1
10
66.8958007955617
20
-2.59920201792235
30
0
41
1
10
66.9011595585898
20
-2.62390259467267
30
0
41
1
10
66.9040086099021
20
-2.63548407353434
30
0
41
1
10
66.9191148542836
20
-2.68928534796353
30
0
41
1
10
66.9339824172901
20
-2.71953307439404
30
0
41
1
10
66.9528756770723
20
-2.73710534907883
30
0
0
SPLINE
5
F3
100
AcDbEntity
8
1
62
256
6
ByLayer
370
18
48
1
60
0
100
AcDbSpline
70
4
71
3
72
47
73
43
40
0
40
0
40
0
40
0
40
0.0144514916784469
40
0.0144514916784469
40
0.0408227995597411
40
0.0408227995597411
40
0.0935654153223295
40
0.0935654153223295
40
0.119936723203626
40
0.119936723203626
40
0.146308031084921
40
0.146308031084921
40
0.199050646847514
40
0.199050646847514
40
0.304535878372698
40
0.304535878372698
40
0.357278494135292
40
0.357278494135292
40
0.410021109897886
40
0.410021109897886
40
0.46276372566048
40
0.46276372566048
40
0.489135033541777
40
0.489135033541777
40
0.515506341423074
40
0.515506341423074
40
0.62099157294827
40
0.62099157294827
40
0.726476804473466
40
0.726476804473466
40
0.779219420236064
40
0.779219420236064
40
0.831962035998662
40
0.831962035998662
40
0.88470465176126
40
0.88470465176126
40
0.937447267523858
40
0.937447267523858
40
0.963818575405159
40
0.963818575405159
40
0.99018988328646
40
1
40
1
40
1
40
1
41
1
10
51.184970433736
20
-2.73686556553895
30
0
41
1
10
51.1449681052547
20
-2.73708058151132
30
0
41
1
10
51.104949912354
20
-2.73705313434792
30
0
41
1
10
50.9918538636595
20
-2.73628875425169
30
0
41
1
10
50.9186757875987
20
-2.73498300772178
30
0
41
1
10
50.6995477417181
20
-2.72864383164529
30
0
41
1
10
50.5538928752834
20
-2.72119452993684
30
0
41
1
10
50.3358832784044
20
-2.7052449550676
30
0
41
1
10
50.2632901498365
20
-2.69912518296729
30
0
41
1
10
50.1182748535788
20
-2.68540507745519
30
0
41
1
10
50.0458571988018
20
-2.67782180378686
30
0
41
1
10
49.8287685386606
20
-2.65269424831797
30
0
41
1
10
49.6842489605089
20
-2.632700101653
30
0
41
1
10
49.2510391629095
20
-2.56385507472865
30
0
41
1
10
48.9626871773503
20
-2.50622846214819
30
0
41
1
10
48.5295871373621
20
-2.40286696814732
30
0
41
1
10
48.3851460326218
20
-2.36560779510916
30
0
41
1
10
48.0958702962184
20
-2.28553964962143
30
0
41
1
10
47.9509978971442
20
-2.24267523441466
30
0
41
1
10
47.6606578335964
20
-2.1517029448465
30
0
41
1
10
47.5151984508712
20
-2.10361419328879
30
0
41
1
10
47.2963478924219
20
-2.02763084033154
30
0
41
1
10
47.2232858046572
20
-2.00165834359518
30
0
41
1
10
47.0769190583784
20
-1.94845984948139
30
0
41
1
10
47.0038514746465
20
-1.92132055225809
30
0
41
1
10
46.6390376395375
20
-1.78307105661483
30
0
41
1
10
46.3488414926642
20
-1.66432363530106
30
0
41
1
10
45.7700046891174
20
-1.41333373955953
30
0
41
1
10
45.4813823611837
20
-1.28106441514657
30
0
41
1
10
45.0483400743724
20
-1.07479492690382
30
0
41
1
10
44.9039742904206
20
-1.00473097361493
30
0
41
1
10
44.615002433138
20
-0.862397587741356
30
0
41
1
10
44.4703969324542
20
-0.790130723904952
30
0
41
1
10
44.1807239023744
20
-0.643724113854404
30
0
41
1
10
44.0356551186714
20
-0.569582403238002
30
0
41
1
10
43.7448703718883
20
-0.419790890819115
30
0
41
1
10
43.5991566582007
20
-0.344138646580291
30
0
41
1
10
43.3799006959799
20
-0.229888324201795
30
0
41
1
10
43.3066312775214
20
-0.191640208833491
30
0
41
1
10
43.160403877071
20
-0.115237769466205
30
0
41
1
10
43.0602422065954
20
-0.0628569999067849
30
0
41
1
10
42.9602599754457
20
-0.0105695106928181
30
0
41
1
10
42.9331636068734
20
0.0035993757901451
30
0
0
SPLINE
5
F4
100
AcDbEntity
8
1
62
256
6
ByLayer
370
18
48
1
60
0
100
AcDbSpline
70
4
71
3
72
46
73
42
40
0
40
0
40
0
40
0
40
0.0242356244337497
40
0.0242356244337497
40
0.0495867381929956
40
0.0495867381929956
40
0.150991193229977
40
0.150991193229977
40
0.20169342074847
40
0.20169342074847
40
0.252395648266963
40
0.252395648266963
40
0.303097875785456
40
0.303097875785456
40
0.353800103303948
40
0.353800103303948
40
0.404502330822441
40
0.404502330822441
40
0.429853444581688
40
0.429853444581688
40
0.455204558340934
40
0.455204558340934
40
0.556609013377931
40
0.556609013377931
40
0.60731124089643
40
0.60731124089643
40
0.658013468414928
40
0.658013468414928
40
0.683364582174179
40
0.683364582174179
40
0.70871569593343
40
0.70871569593343
40
0.759417923451932
40
0.759417923451932
40
0.810120150970435
40
0.810120150970435
40
0.860822378488937
40
0.860822378488937
40
0.962226833525938
40
0.962226833525938
40
1
40
1
40
1
40
1
41
1
10
57.8204040590324
20
2.74188883370124
30
0
41
1
10
57.8899633047338
20
2.74485822279263
30
0
41
1
10
57.9596779890334
20
2.74696049583733
30
0
41
1
10
58.1019736812049
20
2.74957083554259
30
0
41
1
10
58.1746306515691
20
2.75000684945883
30
0
41
1
10
58.5375094817114
20
2.74799584652678
30
0
41
1
10
58.8264743744257
20
2.7329863868288
30
0
41
1
10
59.2581298178126
20
2.69455895001667
30
0
41
1
10
59.401765274618
20
2.6789611442598
30
0
41
1
10
59.6891807965611
20
2.64089718859319
30
0
41
1
10
59.8329242902275
20
2.61853900123964
30
0
41
1
10
60.1205149225497
20
2.56788842307242
30
0
41
1
10
60.2643760305385
20
2.53956532936996
30
0
41
1
10
60.5524588890879
20
2.47703907362669
30
0
41
1
10
60.6966555547787
20
2.44286197664931
30
0
41
1
10
60.9852513806452
20
2.36924241743193
30
0
41
1
10
61.1296966422469
20
2.32974886087351
30
0
41
1
10
61.3471297680054
20
2.26605088413248
30
0
41
1
10
61.4197268503384
20
2.24408644554225
30
0
41
1
10
61.565166972271
20
2.19875246225487
30
0
41
1
10
61.6380704387045
20
2.17536335254241
30
0
41
1
10
62.0022694152124
20
2.05536346936438
30
0
41
1
10
62.2927399404063
20
1.94953670495531
30
0
41
1
10
62.7278843625583
20
1.7781862571224
30
0
41
1
10
62.872873818254
20
1.71895550967926
30
0
41
1
10
63.1632882057897
20
1.59636170558349
30
0
41
1
10
63.3086826577933
20
1.53301937120364
30
0
41
1
10
63.5270823586012
20
1.43531414262674
30
0
41
1
10
63.5999893572815
20
1.40226868556619
30
0
41
1
10
63.7456262645324
20
1.33544404345261
30
0
41
1
10
63.8183330714609
20
1.3016762737758
30
0
41
1
10
64.0361473605902
20
1.19936987223679
30
0
41
1
10
64.1809456145559
20
1.12982480927073
30
0
41
1
10
64.4698889319962
20
0.988404117255556
30
0
41
1
10
64.6140566329412
20
0.916553193323495
30
0
41
1
10
64.9022456879303
20
0.771184863041469
30
0
41
1
10
65.046248165108
20
0.697650989121342
30
0
41
1
10
65.4781422595755
20
0.475018210087967
30
0
41
1
10
65.7659302964327
20
0.323889764039848
30
0
41
1
10
66.1614946731727
20
0.114425446723089
30
0
41
1
10
66.2689111426911
20
0.0573716029697948
30
0
41
1
10
66.376429163406
20
0.0001911136669719
30
0
0
SPLINE
5
F5
100
AcDbEntity
8
1
62
256
6
ByLayer
370
18
48
1
60
0
100
AcDbSpline
70
4
71
3
72
8
73
4
40
0
40
0
40
0
40
0
40
1
40
1
40
1
40
1
41
1
10
66.8739881933985
20
-0.277532581905035
30
0
41
1
10
66.8895895636905
20
-0.281916088817212
30
0
41
1
10
66.905209371302
20
-0.285899693986948
30
0
41
1
10
66.9208585169623
20
-0.289486443987073
30
0
0
SPLINE
5
F6
100
AcDbEntity
8
1
62
256
6
ByLayer
370
18
48
1
60
0
100
AcDbSpline
70
4
71
3
72
62
73
58
40
0
40
0
40
0
40
0
40
0.045619416988811
40
0.045619416988811
40
0.0774321030891795
40
0.0774321030891795
40
0.109244789189548
40
0.109244789189548
40
0.141057475289917
40
0.141057475289917
40
0.156963818340102
40
0.156963818340102
40
0.172870161390287
40
0.172870161390287
40
0.188776504440473
40
0.188776504440473
40
0.204682847490658
40
0.204682847490658
40
0.236495533591029
40
0.236495533591029
40
0.300120905791768
40
0.300120905791768
40
0.331933591892139
40
0.331933591892139
40
0.36374627799251
40
0.36374627799251
40
0.39555896409288
40
0.39555896409288
40
0.411465307143066
40
0.419418478668159
40
0.419418478668159
40
0.427371650193251
40
0.427371650193251
40
0.490997022394004
40
0.490997022394004
40
0.554622394594757
40
0.554622394594757
40
0.61824776679551
40
0.61824776679551
40
0.681873138996263
40
0.681873138996263
40
0.697779482046451
40
0.697779482046451
40
0.713685825096639
40
0.745498511197012
40
0.745498511197012
40
0.809123883397758
40
0.809123883397758
40
0.872749255598504
40
0.872749255598504
40
0.93637462779925
40
0.93637462779925
40
0.952280970849437
40
0.952280970849437
40
0.968187313899625
40
0.968187313899625
40
1
40
1
40
1
40
1
41
1
10
52.7242834368559
20
-2.73807013873017
30
0
41
1
10
52.5175427152643
20
-2.77246642475217
30
0
41
1
10
52.3109176722944
20
-2.80032800765292
30
0
41
1
10
51.9598628345441
20
-2.8363066900697
30
0
41
1
10
51.8155372295541
20
-2.84784827303895
30
0
41
1
10
51.5265190120348
20
-2.86435576698565
30
0
41
1
10
51.3818238125148
20
-2.8693177346268
30
0
41
1
10
51.0917484426056
20
-2.87254727565838
30
0
41
1
10
50.9463695542674
20
-2.87081685223274
30
0
41
1
10
50.727608919527
20
-2.86314315754464
30
0
41
1
10
50.654518981606
20
-2.85973568735994
30
0
41
1
10
50.5083241055262
20
-2.8512330786838
30
0
41
1
10
50.4353435517821
20
-2.84614662400711
30
0
41
1
10
50.2895878625698
20
-2.83432717414624
30
0
41
1
10
50.2168153851259
20
-2.82759400299258
30
0
41
1
10
50.0714987935641
20
-2.81248305578561
30
0
41
1
10
49.998949529759
20
-2.8041058006792
30
0
41
1
10
49.781498304826
20
-2.77657389035713
30
0
41
1
10
49.6368065526613
20
-2.7550172534747
30
0
41
1
10
49.2032838529908
20
-2.68099623694673
30
0
41
1
10
48.9149676337807
20
-2.6192025159591
30
0
41
1
10
48.4822737014928
20
-2.50888726120112
30
0
41
1
10
48.3380301911552
20
-2.46915436134174
30
0
41
1
10
48.0492137478793
20
-2.38401649993693
30
0
41
1
10
47.904630883581
20
-2.33862442565564
30
0
41
1
10
47.6149393547263
20
-2.24233427782264
30
0
41
1
10
47.4698265764023
20
-2.19143820390656
30
0
41
1
10
47.2515388125472
20
-2.11117478697494
30
0
41
1
10
47.1422412280063
20
-2.07006270678767
30
0
41
1
10
47.0326869294796
20
-2.02750114839335
30
0
41
1
10
46.9595904821071
20
-1.99880719562995
30
0
41
1
10
46.9229948727219
20
-1.98429338532836
30
0
41
1
10
46.5940249099829
20
-1.85251573698119
30
0
41
1
10
46.3035021796981
20
-1.72690182629867
30
0
41
1
10
45.7244284367109
20
-1.4617793868818
30
0
41
1
10
45.435866476567
20
-1.32228339960349
30
0
41
1
10
44.8587181505677
20
-1.03277405988933
30
0
41
1
10
44.5701639405893
20
-0.882711148606035
30
0
41
1
10
43.9913628959635
20
-0.574925597648956
30
0
41
1
10
43.7011320864625
20
-0.417167920486463
30
0
41
1
10
43.3360130750021
20
-0.21738938539346
30
0
41
1
10
43.2627903990648
20
-0.177260704040805
30
0
41
1
10
43.1165488266842
20
-0.097056041975577
30
0
41
1
10
42.8975333076763
20
0.0231492504059361
30
0
41
1
10
42.679423540047
20
0.142808495866518
30
0
41
1
10
42.2440698781835
20
0.380789116973574
30
0
41
1
10
41.9550113139356
20
0.537702906029267
30
0
41
1
10
41.3775065551736
20
0.844924506921586
30
0
41
1
10
41.0890103749996
20
0.995139883190319
30
0
41
1
10
40.5106711502294
20
1.28547832601529
30
0
41
1
10
40.2208246102969
20
1.42559425536825
30
0
41
1
10
39.8564435908136
20
1.59227763014346
30
0
41
1
10
39.7834643950612
20
1.62519244166759
30
0
41
1
10
39.637274656283
20
1.69013343982172
30
0
41
1
10
39.5640168218181
20
1.72217974612465
30
0
41
1
10
39.3443127107452
20
1.81672437801072
30
0
41
1
10
39.1979024859549
20
1.87764630643878
30
0
41
1
10
39.0514591654382
20
1.93632644117741
30
0
0
SPLINE
5
F7
100
AcDbEntity
8
1
62
256
6
ByLayer
370
18
48
1
60
0
100
AcDbSpline
70
4
71
3
72
16
73
12
40
0
40
0
40
0
40
0
40
0.250000000000318
40
0.250000000000318
40
0.375000000000337
40
0.375000000000337
40
0.500000000000352
40
0.500000000000352
40
0.750000000000176
40
0.750000000000176
40
1
40
1
40
1
40
1
41
1
10
39.0514591654382
20
1.93632644117741
30
0
41
1
10
39.0435694804198
20
1.93948785392257
30
0
41
1
10
39.0364306777061
20
1.94333941811766
30
0
41
1
10
39.0268173496091
20
1.9501069595558
30
0
41
1
10
39.0237825493102
20
1.95254764085433
30
0
41
1
10
39.0182567353269
20
1.95763257051459
30
0
41
1
10
39.0157461709492
20
1.96028694853703
30
0
41
1
10
39.0089599880656
20
1.968576740674
30
0
41
1
10
39.0054072418414
20
1.97461869065279
30
0
41
1
10
39.0007149878218
20
1.98692110925228
30
0
41
1
10
38.9995027274437
20
1.99328528255293
30
0
41
1
10
38.9995027274437
20
1.9996944167421
30
0
0
SPLINE
5
F8
100
AcDbEntity
8
1
62
256
6
ByLayer
370
18
48
1
60
0
100
AcDbSpline
70
4
71
3
72
98
73
94
40
0
40
0
40
0
40
0
40
0.0367003482733134
40
0.0367003482733134
40
0.0487569662042754
40
0.0487569662042754
40
0.0608135841352375
40
0.0608135841352375
40
0.0849268199971599
40
0.0849268199971599
40
0.109040055859082
40
0.109040055859082
40
0.133153291721005
40
0.133153291721005
40
0.181379763444851
40
0.181379763444851
40
0.205492999306775
40
0.205492999306775
40
0.229606235168698
40
0.229606235168698
40
0.241662853099659
40
0.241662853099659
40
0.253719471030619
40
0.253719471030619
40
0.277832706892541
40
0.277832706892541
40
0.301945942754462
40
0.301945942754462
40
0.326059178616384
40
0.326059178616384
40
0.350172414478305
40
0.350172414478305
40
0.374285650340227
40
0.374285650340227
40
0.398398886202148
40
0.398398886202148
40
0.42251212206407
40
0.42251212206407
40
0.446625357925991
40
0.446625357925991
40
0.458681975856953
40
0.458681975856953
40
0.470738593787914
40
0.470738593787914
40
0.494851829649838
40
0.494851829649838
40
0.518965065511761
40
0.518965065511761
40
0.543078301373684
40
0.543078301373684
40
0.555134919304645
40
0.555134919304645
40
0.567191537235606
40
0.567191537235606
40
0.591304773097527
40
0.591304773097527
40
0.615418008959449
40
0.615418008959449
40
0.63953124482137
40
0.63953124482137
40
0.651587862752332
40
0.651587862752332
40
0.663644480683293
40
0.663644480683293
40
0.687757716545215
40
0.687757716545215
40
0.711870952407136
40
0.711870952407136
40
0.735984188269058
40
0.735984188269058
40
0.760097424130979
40
0.760097424130979
40
0.784210659992901
40
0.784210659992901
40
0.808323895854822
40
0.808323895854822
40
0.832437131716744
40
0.832437131716744
40
0.856550367578665
40
0.856550367578665
40
0.868606985509626
40
0.868606985509626
40
0.880663603440587
40
0.880663603440587
40
0.904776839302508
40
0.904776839302508
40
0.953003311026353
40
0.953003311026353
40
0.965059928957314
40
0.965059928957314
40
0.977116546888275
40
0.977116546888275
40
1
40
1
40
1
40
1
41
1
10
40.2285212514591
20
2.71588935662621
30
0
41
1
10
40.4499752271955
20
2.7531554215048
30
0
41
1
10
40.6716788987291
20
2.78307067492852
30
0
41
1
10
40.9667756555213
20
2.81289184616594
30
0
41
1
10
41.0398501959156
20
2.81946268569283
30
0
41
1
10
41.1856557983383
20
2.83094039896983
30
0
41
1
10
41.2584023280952
20
2.83585166065856
30
0
41
1
10
41.4762247464242
20
2.84808461775248
30
0
41
1
10
41.6209293216907
20
2.85288511801684
30
0
41
1
10
41.9099928291826
20
2.85580787831069
30
0
41
1
10
42.05430032111
20
2.85394711834502
30
0
41
1
10
42.3425535329958
20
2.84367505670568
30
0
41
1
10
42.4865230679788
20
2.83526022198834
30
0
41
1
10
42.9184705769687
20
2.80039132873529
30
0
41
1
10
43.2063915472286
20
2.76434087109686
30
0
41
1
10
43.6388756038666
20
2.69121695126881
30
0
41
1
10
43.7831277472181
20
2.66365412792925
30
0
41
1
10
44.0719277883244
20
2.60206835053776
30
0
41
1
10
44.2165365550114
20
2.56807320963716
30
0
41
1
10
44.4343252170439
20
2.51270808090081
30
0
41
1
10
44.5070559360255
20
2.49351787553897
30
0
41
1
10
44.6527918529106
20
2.45367170646804
30
0
41
1
10
44.7258602376241
20
2.43299767355316
30
0
41
1
10
44.9445727652854
20
2.36904583916205
30
0
41
1
10
45.0899474196069
20
2.32376361809756
30
0
41
1
10
45.379726580274
20
2.22782506536041
30
0
41
1
10
45.5241374230885
20
2.17717027407315
30
0
41
1
10
45.8122265834117
20
2.07073106864217
30
0
41
1
10
45.9559779630642
20
2.01502920097107
30
0
41
1
10
46.2437261073839
20
1.89983262630938
30
0
41
1
10
46.3876518261458
20
1.84025602989186
30
0
41
1
10
46.6755169932563
20
1.7170797611715
30
0
41
1
10
46.8194629931393
20
1.65348715431384
30
0
41
1
10
47.1074450424395
20
1.52236424290771
30
0
41
1
10
47.2514753243241
20
1.45482401325958
30
0
41
1
10
47.5397487938787
20
1.31591659086314
30
0
41
1
10
47.6840326521095
20
1.2446100982537
30
0
41
1
10
47.9734119341181
20
1.09911607254927
30
0
41
1
10
48.1184588647498
20
1.02485165326505
30
0
41
1
10
48.3366111709175
20
0.911193131722627
30
0
41
1
10
48.4095112672845
20
0.872921055396972
30
0
41
1
10
48.555041445448
20
0.796182915087826
30
0
41
1
10
48.6277215097302
20
0.757686200909433
30
0
41
1
10
48.8455674668528
20
0.641925279135023
30
0
41
1
10
48.9905133729861
20
0.564341784644768
30
0
41
1
10
49.2797530270446
20
0.408196427455266
30
0
41
1
10
49.4240516642529
20
0.329643842324771
30
0
41
1
10
49.7120693429445
20
0.171696098452514
30
0
41
1
10
49.8557719941159
20
0.0922705602407916
30
0
41
1
10
50.0709932288156
20
-0.0273074875005364
30
0
41
1
10
50.142710340347
20
-0.0671804206080537
30
0
41
1
10
50.286291153639
20
-0.146596118641014
30
0
41
1
10
50.358134527396
20
-0.186176616498386
30
0
41
1
10
50.5737824212333
20
-0.304613065002229
30
0
41
1
10
50.7177077243626
20
-0.383158537307935
30
0
41
1
10
51.0058423255321
20
-0.5394920245854
30
0
41
1
10
51.1500494303134
20
-0.617284001689569
30
0
41
1
10
51.4388079204801
20
-0.771994888397757
30
0
41
1
10
51.5833781820342
20
-0.848878813481974
30
0
41
1
10
51.8008104743558
20
-0.962960683157462
30
0
41
1
10
51.8733860105793
20
-1.00077707088795
30
0
41
1
10
52.0188029318744
20
-1.07586017668609
30
0
41
1
10
52.091714905452
20
-1.11315896369177
30
0
41
1
10
52.3100407012622
20
-1.2236242801871
30
0
41
1
10
52.4552304961696
20
-1.29551806418314
30
0
41
1
10
52.7448360238153
20
-1.43599576844372
30
0
41
1
10
52.8892480253708
20
-1.50458368030797
30
0
41
1
10
53.1773347099297
20
-1.63838016877514
30
0
41
1
10
53.321041491322
20
-1.70352991407987
30
0
41
1
10
53.6083119028087
20
-1.8295424538849
30
0
41
1
10
53.751873186509
20
-1.89041092423935
30
0
41
1
10
54.039252713465
20
-2.00736525884273
30
0
41
1
10
54.1830460984688
20
-2.06349255123558
30
0
41
1
10
54.4707946521158
20
-2.17111944084624
30
0
41
1
10
54.6147472711037
20
-2.22262058311347
30
0
41
1
10
54.9028695292527
20
-2.32084679537451
30
0
41
1
10
55.0470670497655
20
-2.36753250467245
30
0
41
1
10
55.3362084683169
20
-2.45545606065355
30
0
41
1
10
55.4811295833027
20
-2.49672401802383
30
0
41
1
10
55.6991362690275
20
-2.55441748123053
30
0
41
1
10
55.771975544164
20
-2.57295530932163
30
0
41
1
10
55.9173173898189
20
-2.60840071767183
30
0
41
1
10
55.9898833053404
20
-2.62532566316409
30
0
41
1
10
56.2073476106905
20
-2.67367784355352
30
0
41
1
10
56.352000248349
20
-2.70269568861588
30
0
41
1
10
56.7852074407577
20
-2.78017400484089
30
0
41
1
10
57.0729565188095
20
-2.81914175198699
30
0
41
1
10
57.4317100717345
20
-2.8517962495319
30
0
41
1
10
57.5034102072694
20
-2.8575219860567
30
0
41
1
10
57.646731656242
20
-2.8673408990376
30
0
41
1
10
57.7183738037571
20
-2.87142729105659
30
0
41
1
10
57.9262255844983
20
-2.88084650382805
30
0
41
1
10
58.062585981948
20
-2.88402516696866
30
0
41
1
10
58.199163473864
20
-2.88425295612518
30
0
0
SPLINE
5
F9
100
AcDbEntity
8
1
62
256
6
ByLayer
370
18
48
1
60
0
100
AcDbSpline
70
4
71
3
72
121
73
117
40
0
40
0
40
0
40
0
40
0.0098942941016683
40
0.0098942941016683
40
0.0323813644690229
40
0.0323813644690229
40
0.0436248996527002
40
0.0436248996527002
40
0.0548684348363775
40
0.0548684348363775
40
0.0773555052037321
40
0.0773555052037321
40
0.0998425755710866
40
0.0998425755710866
40
0.122329645938441
40
0.122329645938441
40
0.144816716305796
40
0.144816716305796
40
0.156060251489473
40
0.156060251489473
40
0.16730378667315
40
0.16730378667315
40
0.189790857040505
40
0.189790857040505
40
0.212277927407859
40
0.212277927407859
40
0.223521462591537
40
0.223521462591537
40
0.234764997775214
40
0.234764997775214
40
0.25725206814257
40
0.25725206814257
40
0.279739138509926
40
0.279739138509926
40
0.302226208877283
40
0.302226208877283
40
0.324713279244639
40
0.324713279244639
40
0.347200349611995
40
0.347200349611995
40
0.369687419979351
40
0.369687419979351
40
0.392174490346707
40
0.392174490346707
40
0.403418025530385
40
0.403418025530385
40
0.414661560714064
40
0.414661560714064
40
0.437148631081418
40
0.437148631081418
40
0.459635701448773
40
0.459635701448773
40
0.482122771816127
40
0.482122771816127
40
0.493366306999805
40
0.493366306999805
40
0.504609842183484
40
0.504609842183484
40
0.515853377367162
40
0.515853377367162
40
0.52709691255084
40
0.52709691255084
40
0.549583982918196
40
0.549583982918196
40
0.572071053285552
40
0.572071053285552
40
0.594558123652909
40
0.594558123652909
40
0.617045194020265
40
0.617045194020265
40
0.639532264387621
40
0.639532264387621
40
0.662019334754977
40
0.662019334754977
40
0.673262869938655
40
0.673262869938655
40
0.684506405122332
40
0.684506405122332
40
0.695749940306009
40
0.695749940306009
40
0.706993475489687
40
0.706993475489687
40
0.72948054585704
40
0.72948054585704
40
0.751967616224393
40
0.751967616224393
40
0.774454686591746
40
0.774454686591746
40
0.796941756959099
40
0.796941756959099
40
0.819428827326452
40
0.819428827326452
40
0.841915897693805
40
0.841915897693805
40
0.853159432877481
40
0.858781200469319
40
0.858781200469319
40
0.864402968061156
40
0.864402968061156
40
0.875646503244831
40
0.875646503244831
40
0.886890038428506
40
0.886890038428506
40
0.909377108795858
40
0.909377108795858
40
0.931864179163209
40
0.931864179163209
40
0.954351249530561
40
0.954351249530561
40
0.976838319897912
40
0.976838319897912
40
0.988081855081587
40
0.988081855081587
40
0.999325390265262
40
0.999325390265262
40
1
40
1
40
1
40
1
41
1
10
63.0083003733212
20
-2.05436909334398
30
0
41
1
10
62.9411870144597
20
-2.08067492912548
30
0
41
1
10
62.8741395462589
20
-2.10643294011092
30
0
41
1
10
62.6548377037234
20
-2.18883321653683
30
0
41
1
10
62.502785671513
20
-2.2431198990129
30
0
41
1
10
62.2748688798434
20
-2.31997803393216
30
0
41
1
10
62.1989265542842
20
-2.3448395741577
30
0
41
1
10
62.0471336191034
20
-2.39308166368895
30
0
41
1
10
61.9712916495016
20
-2.41646993849267
30
0
41
1
10
61.7437965620068
20
-2.48429112485198
30
0
41
1
10
61.5921232600547
20
-2.52633095389581
30
0
41
1
10
61.2884138468422
20
-2.60376896656996
30
0
41
1
10
61.1363647159577
20
-2.63916222255327
30
0
41
1
10
60.8317997959378
20
-2.7032087520885
30
0
41
1
10
60.6793954251916
20
-2.73192752204932
30
0
41
1
10
60.3736789586063
20
-2.78221256416472
30
0
41
1
10
60.2203701073333
20
-2.80378998913247
30
0
41
1
10
59.9895262004201
20
-2.83064718468083
30
0
41
1
10
59.9126064082867
20
-2.83865783467314
30
0
41
1
10
59.7591076180768
20
-2.85278738174304
30
0
41
1
10
59.6824913997562
20
-2.858913847124
30
0
41
1
10
59.4530514409124
20
-2.87448975836855
30
0
41
1
10
59.3005634803366
20
-2.88110782134896
30
0
41
1
10
58.9959680367961
20
-2.88684485837027
30
0
41
1
10
58.8438928584952
20
-2.88597514045614
30
0
41
1
10
58.6159378744354
20
-2.87914249850189
30
0
41
1
10
58.5399859033753
20
-2.87594365813786
30
0
41
1
10
58.3881836583154
20
-2.86769492741689
30
0
41
1
10
58.3123319739742
20
-2.8626434519488
30
0
41
1
10
58.0847726964329
20
-2.84473142856319
30
0
41
1
10
57.9330251934286
20
-2.82912539079479
30
0
41
1
10
57.6291622072742
20
-2.79070536893766
30
0
41
1
10
57.4770167692903
20
-2.7679116336981
30
0
41
1
10
57.172304803001
20
-2.71510529693768
30
0
41
1
10
57.0198188827297
20
-2.68502649926157
30
0
41
1
10
56.7138598641442
20
-2.61786529575457
30
0
41
1
10
56.5604153807547
20
-2.5807707218072
30
0
41
1
10
56.25234242802
20
-2.49969123744501
30
0
41
1
10
56.0988125050487
20
-2.45600421897973
30
0
41
1
10
55.7928427493434
20
-2.36232687848738
30
0
41
1
10
55.6402886574842
20
-2.31244517783514
30
0
41
1
10
55.3355649377528
20
-2.20720881979832
30
0
41
1
10
55.1834113300318
20
-2.15184102057279
30
0
41
1
10
54.9553585826411
20
-2.06487628350678
30
0
41
1
10
54.8793826646941
20
-2.03522064418959
30
0
41
1
10
54.727532476543
20
-1.97454632403452
30
0
41
1
10
54.6516494318759
20
-1.9435381146171
30
0
41
1
10
54.4239663022172
20
-1.84871363241749
30
0
41
1
10
54.2721196717197
20
-1.78311756035973
30
0
41
1
10
53.968055685497
20
-1.64754915595006
30
0
41
1
10
53.8157971821389
20
-1.57764432232764
30
0
41
1
10
53.5109285609589
20
-1.43339355396512
30
0
41
1
10
53.358338732924
20
-1.35900040657563
30
0
41
1
10
53.128686440089
20
-1.24483112525758
30
0
41
1
10
53.0520189468695
20
-1.20632776494526
30
0
41
1
10
52.8984170677684
20
-1.12847794934331
30
0
41
1
10
52.8214450774075
20
-1.0891121864685
30
0
41
1
10
52.6673582511746
20
-1.00967529145873
30
0
41
1
10
52.5904400366955
20
-0.969705505655071
30
0
41
1
10
52.4368849424453
20
-0.889207001029121
30
0
41
1
10
52.3602591643493
20
-0.848657912732989
30
0
41
1
10
52.1307240673824
20
-0.726318505098533
30
0
41
1
10
51.9780933157975
20
-0.643952769058728
30
0
41
1
10
51.6732264557481
20
-0.478329190739629
30
0
41
1
10
51.5209854842808
20
-0.395080456562567
30
0
41
1
10
51.2167874558817
20
-0.227896771678218
30
0
41
1
10
51.0649547719234
20
-0.143732535171438
30
0
41
1
10
50.7611959730116
20
0.0245876503987574
30
0
41
1
10
50.6092549233064
20
0.108715829478115
30
0
41
1
10
50.3049945333728
20
0.276436949611565
30
0
41
1
10
50.1526374146415
20
0.359959812345323
30
0
41
1
10
49.8476345519529
20
0.526637719051422
30
0
41
1
10
49.694934398921
20
0.609692498448595
30
0
41
1
10
49.4651122795501
20
0.732971738622069
30
0
41
1
10
49.3883872889151
20
0.773868075622914
30
0
41
1
10
49.2346682834809
20
0.85520477109128
30
0
41
1
10
49.1576154538462
20
0.895672042013871
30
0
41
1
10
49.0034680314581
20
0.975963378719911
30
0
41
1
10
48.9265249796899
20
1.01571824496122
30
0
41
1
10
48.7729366315941
20
1.09452107837382
30
0
41
1
10
48.6962956833092
20
1.13357555645317
30
0
41
1
10
48.4666773215336
20
1.2494292320109
30
0
41
1
10
48.3139606623096
20
1.32484421252826
30
0
41
1
10
48.0089374191604
20
1.47159385342914
30
0
41
1
10
47.8566047801388
20
1.54289101840675
30
0
41
1
10
47.5522921377604
20
1.68136703200102
30
0
41
1
10
47.4004113972829
20
1.7486857836501
30
0
41
1
10
47.0964715566401
20
1.87839090902389
30
0
41
1
10
46.9444376264291
20
1.9408214049071
30
0
41
1
10
46.6399838532952
20
2.06049929816879
30
0
41
1
10
46.4875496206973
20
2.11773467577504
30
0
41
1
10
46.1824120918739
20
2.22711845045285
30
0
41
1
10
46.0296004423629
20
2.27912211624303
30
0
41
1
10
45.7996207541788
20
2.352590764507
30
0
41
1
10
45.6844540549451
20
2.38820794169678
30
0
41
1
10
45.5689836401959
20
2.42209982485679
30
0
41
1
10
45.4919312910841
20
2.44430519014745
30
0
41
1
10
45.4533460304649
20
2.45521947215943
30
0
41
1
10
45.3376865346024
20
2.48732637682343
30
0
41
1
10
45.2607199323948
20
2.50788382184149
30
0
41
1
10
45.1070946162102
20
2.54733970116001
30
0
41
1
10
45.0304283088814
20
2.5662291642943
30
0
41
1
10
44.8007032611905
20
2.62025537229698
30
0
41
1
10
44.6478968624963
20
2.65273697214778
30
0
41
1
10
44.3427037364673
20
2.71058104768403
30
0
41
1
10
44.1902752624796
20
2.7359259945583
30
0
41
1
10
43.8858586021447
20
2.77957397024022
30
0
41
1
10
43.7339077173693
20
2.79787266695305
30
0
41
1
10
43.4297843635136
20
2.82711636810052
30
0
41
1
10
43.2776586111184
20
2.83808953813326
30
0
41
1
10
43.0491782777618
20
2.84904713449134
30
0
41
1
10
42.9729676841253
20
2.85178324144394
30
0
41
1
10
42.8204806151357
20
2.85541916181072
30
0
41
1
10
42.7442159211921
20
2.85631871218302
30
0
41
1
10
42.663319628092
20
2.85628574283723
30
0
41
1
10
42.6587403518252
20
2.85628052333968
30
0
41
1
10
42.654160813802
20
2.85627195009556
30
0
0
SPLINE
5
FA
100
AcDbEntity
8
1
62
256
6
ByLayer
370
18
48
1
60
0
100
AcDbSpline
70
4
71
3
72
118
73
114
40
0
40
0
40
0
40
0
40
0.0207402626920763
40
0.0207402626920763
40
0.032136014150284
40
0.032136014150284
40
0.0435317656084917
40
0.0435317656084917
40
0.0663232685249068
40
0.0663232685249068
40
0.0891147714413219
40
0.0891147714413219
40
0.111906274357737
40
0.111906274357737
40
0.134697777274152
40
0.134697777274152
40
0.157489280190568
40
0.157489280190568
40
0.180280783106983
40
0.180280783106983
40
0.203072286023398
40
0.203072286023398
40
0.214468037481606
40
0.214468037481606
40
0.225863788939813
40
0.225863788939813
40
0.248655291856229
40
0.248655291856229
40
0.271446794772644
40
0.271446794772644
40
0.294238297689059
40
0.294238297689059
40
0.317029800605474
40
0.317029800605474
40
0.328425552063682
40
0.328425552063682
40
0.339821303521889
40
0.339821303521889
40
0.351217054980097
40
0.351217054980097
40
0.362612806438305
40
0.362612806438305
40
0.38540430935472
40
0.38540430935472
40
0.408195812271135
40
0.408195812271135
40
0.430987315187551
40
0.430987315187551
40
0.453778818103966
40
0.453778818103966
40
0.476570321020381
40
0.476570321020381
40
0.499361823936796
40
0.499361823936796
40
0.510757575395004
40
0.510757575395004
40
0.522153326853212
40
0.522153326853212
40
0.527851202582316
40
0.527851202582316
40
0.53354907831142
40
0.544944829769629
40
0.544944829769629
40
0.567736332686048
40
0.567736332686048
40
0.590527835602466
40
0.590527835602466
40
0.613319338518884
40
0.613319338518884
40
0.636110841435303
40
0.636110841435303
40
0.658902344351721
40
0.658902344351721
40
0.68169384726814
40
0.68169384726814
40
0.693089598726349
40
0.693089598726349
40
0.704485350184558
40
0.704485350184558
40
0.710183225913663
40
0.710183225913663
40
0.715881101642767
40
0.727276853100975
40
0.727276853100975
40
0.750068356017392
40
0.750068356017392
40
0.772859858933809
40
0.772859858933809
40
0.795651361850226
40
0.795651361850226
40
0.807047113308434
40
0.807047113308434
40
0.818442864766642
40
0.818442864766642
40
0.841234367683057
40
0.841234367683057
40
0.864025870599472
40
0.864025870599472
40
0.886817373515887
40
0.886817373515887
40
0.898213124974095
40
0.898213124974095
40
0.909608876432302
40
0.909608876432302
40
0.932400379348716
40
0.932400379348716
40
0.943796130806923
40
0.943796130806923
40
0.955191882265131
40
0.955191882265131
40
0.977983385181544
40
0.977983385181544
40
1
40
1
40
1
40
1
41
1
10
30.229534621106
20
-2.07975304763536
30
0
41
1
10
30.0898485561477
20
-2.13140748031103
30
0
41
1
10
29.9504393948081
20
-2.18061083855412
30
0
41
1
10
29.7347166532496
20
-2.25294909100214
30
0
41
1
10
29.6582805016947
20
-2.2778486975418
30
0
41
1
10
29.5055762252875
20
-2.32619607921137
30
0
41
1
10
29.4293128903831
20
-2.34964721782828
30
0
41
1
10
29.2006255391608
20
-2.41765305806243
30
0
41
1
10
29.0482556637983
20
-2.45981301470309
30
0
41
1
10
28.7433866129364
20
-2.53754848977883
30
0
41
1
10
28.5908602753648
20
-2.57310796333846
30
0
41
1
10
28.2856464422018
20
-2.63762554176341
30
0
41
1
10
28.1330678742752
20
-2.66664447397812
30
0
41
1
10
27.8271936013667
20
-2.71760277914183
30
0
41
1
10
27.6739255043003
20
-2.73957112545094
30
0
41
1
10
27.3664701358036
20
-2.77631618872908
30
0
41
1
10
27.2122661148201
20
-2.79110045649441
30
0
41
1
10
26.9030966007325
20
-2.8133675369927
30
0
41
1
10
26.7490964538296
20
-2.82071853147386
30
0
41
1
10
26.4417288642044
20
-2.82793267753536
30
0
41
1
10
26.2883844650385
20
-2.8278083175403
30
0
41
1
10
26.0587452426188
20
-2.82213014426478
30
0
41
1
10
25.9822746523456
20
-2.8193213068171
30
0
41
1
10
25.8295148900174
20
-2.81186419807244
30
0
41
1
10
25.7532160790437
20
-2.80721547629025
30
0
41
1
10
25.5243872295428
20
-2.79054645915428
30
0
41
1
10
25.3719075141469
20
-2.77581248838027
30
0
41
1
10
25.066845564442
20
-2.73925800724854
30
0
41
1
10
24.9142168246918
20
-2.71746729991139
30
0
41
1
10
24.6089252438617
20
-2.66675517799774
30
0
41
1
10
24.4562866004761
20
-2.63779495424683
30
0
41
1
10
24.1502557052543
20
-2.5730936436386
30
0
41
1
10
23.996916309757
20
-2.53732780243703
30
0
41
1
10
23.7662260850019
20
-2.47868461730013
30
0
41
1
10
23.6892158005948
20
-2.4583056039497
30
0
41
1
10
23.535009355677
20
-2.41582667343016
30
0
41
1
10
23.4578257718866
20
-2.39371248080519
30
0
41
1
10
23.303213628816
20
-2.34778846436575
30
0
41
1
10
23.2259809350672
20
-2.32404943088275
30
0
41
1
10
23.0717805098756
20
-2.27519260604802
30
0
41
1
10
22.9947861666252
20
-2.25005787883487
30
0
41
1
10
22.7640716230696
20
-2.17261448719373
30
0
41
1
10
22.6105908837761
20
-2.11830503996404
30
0
41
1
10
22.3042255718275
20
-2.00448120267046
30
0
41
1
10
22.1514798390345
20
-1.94477457931245
30
0
41
1
10
21.8461575739574
20
-1.82073069738738
30
0
41
1
10
21.6935752450438
20
-1.7564092575667
30
0
41
1
10
21.3883202694869
20
-1.6235743577499
30
0
41
1
10
21.2356101742621
20
-1.55512511401369
30
0
41
1
10
20.9302601895091
20
-1.41376626601252
30
0
41
1
10
20.7775375931147
20
-1.34097476553978
30
0
41
1
10
20.4713581139684
20
-1.1921986166293
30
0
41
1
10
20.3179450037454
20
-1.11614638105019
30
0
41
1
10
20.0871713659749
20
-0.999848916670572
30
0
41
1
10
20.0101448989791
20
-0.960701049143978
30
0
41
1
10
19.855935613201
20
-0.881538808596673
30
0
41
1
10
19.7787525658276
20
-0.841523366325475
30
0
41
1
10
19.6627719821519
20
-0.781002485448596
30
0
41
1
10
19.6240804924246
20
-0.760749652658689
30
0
41
1
10
19.5467992092997
20
-0.720198464755555
30
0
41
1
10
19.4309639824671
20
-0.659262855829525
30
0
41
1
10
19.3153710018544
20
-0.598033980308287
30
0
41
1
10
19.0844581725026
20
-0.47527827720819
30
0
41
1
10
18.9308375635515
20
-0.393125506390078
30
0
41
1
10
18.6243190154637
20
-0.228026572461374
30
0
41
1
10
18.4715056480028
20
-0.144921082353818
30
0
41
1
10
18.1659642587776
20
0.0208712236731685
30
0
41
1
10
18.0132796419256
20
0.103641497493044
30
0
41
1
10
17.7078299832123
20
0.268459723805705
30
0
41
1
10
17.5550738929138
20
0.35052538147508
30
0
41
1
10
17.2496454226308
20
0.514238197425186
30
0
41
1
10
17.0968291068429
20
0.595615061843318
30
0
41
1
10
16.7905082960947
20
0.756507285752008
30
0
41
1
10
16.6370197008736
20
0.836052925034778
30
0
41
1
10
16.4061937747677
20
0.953831438993177
30
0
41
1
10
16.3291691556623
20
0.992864092016816
30
0
41
1
10
16.1749682341231
20
1.070498304083
30
0
41
1
10
16.097780535935
20
1.10907879325518
30
0
41
1
10
15.9817747320896
20
1.16642232408608
30
0
41
1
10
15.9430506443181
20
1.18545778755825
30
0
41
1
10
15.8656936037399
20
1.22326352154505
30
0
41
1
10
15.7497462676606
20
1.27959853523137
30
0
41
1
10
15.6340453588063
20
1.33479126275279
30
0
41
1
10
15.4029212954038
20
1.4435916052694
30
0
41
1
10
15.2491607852508
20
1.51393926103094
30
0
41
1
10
14.9425069752924
20
1.65069010527543
30
0
41
1
10
14.7895818957348
20
1.71702312015793
30
0
41
1
10
14.4838137805062
20
1.84454568919296
30
0
41
1
10
14.331023213692
20
1.90582197458039
30
0
41
1
10
14.1017937828458
20
1.99379278215415
30
0
41
1
10
14.0253806550908
20
2.02246518781038
30
0
41
1
10
13.8725972359608
20
2.07856836560791
30
0
41
1
10
13.7962371303505
20
2.10601075909565
30
0
41
1
10
13.5670936358398
20
2.1862947383953
30
0
41
1
10
13.4141850160122
20
2.23701790780325
30
0
41
1
10
13.1077346222609
20
2.33246814210136
30
0
41
1
10
12.9541733858239
20
2.3771806977096
30
0
41
1
10
12.6463807307813
20
2.46053494456143
30
0
41
1
10
12.4922776158211
20
2.49928660685316
30
0
41
1
10
12.2602189407841
20
2.55237882482305
30
0
41
1
10
12.1826922956532
20
2.56924687386098
30
0
41
1
10
12.0280720408421
20
2.60113639496026
30
0
41
1
10
11.9508853876671
20
2.61618007004333
30
0
41
1
10
11.7196439775882
20
2.65861074119763
30
0
41
1
10
11.5658896492207
20
2.68329924209368
30
0
41
1
10
11.3360254395598
20
2.71508016386127
30
0
41
1
10
11.2595137642778
20
2.72478444076191
30
0
41
1
10
11.1065879021575
20
2.74236813200517
30
0
41
1
10
11.0301774110975
20
2.7502504598508
30
0
41
1
10
10.801059005466
20
2.77117758714564
30
0
41
1
10
10.6484569788303
20
2.78150140340344
30
0
41
1
10
10.3485219184697
20
2.79470704920362
30
0
41
1
10
10.2012542349178
20
2.79784021353646
30
0
41
1
10
10.0539865722321
20
2.79759161188858
30
0
0
SPLINE
5
FB
100
AcDbEntity
8
1
62
256
6
ByLayer
370
18
48
1
60
0
100
AcDbSpline
70
4
71
3
72
66
73
62
40
0
40
0
40
0
40
0
40
0.0072123251523038
40
0.0072123251523038
40
0.0183424813540685
40
0.0183424813540685
40
0.0406027937575979
40
0.0406027937575979
40
0.0851234185646558
40
0.0851234185646558
40
0.174164668178772
40
0.174164668178772
40
0.185294824380537
40
0.185294824380537
40
0.196424980582302
40
0.196424980582302
40
0.21868529298583
40
0.21868529298583
40
0.263205917792887
40
0.263205917792887
40
0.352247167407001
40
0.352247167407001
40
0.363377323608766
40
0.363377323608766
40
0.37450747981053
40
0.37450747981053
40
0.396767792214059
40
0.396767792214059
40
0.441288417021117
40
0.441288417021117
40
0.530329666635234
40
0.530329666635234
40
0.552589979038763
40
0.552589979038763
40
0.563720135240528
40
0.563720135240528
40
0.574850291442293
40
0.574850291442293
40
0.619370916249351
40
0.619370916249351
40
0.708412165863467
40
0.708412165863467
40
0.730672478266996
40
0.730672478266996
40
0.74180263446876
40
0.74180263446876
40
0.752932790670525
40
0.752932790670525
40
0.797453415477586
40
0.797453415477586
40
0.886494665091707
40
0.886494665091707
40
0.908754977495237
40
0.908754977495237
40
0.919885133697003
40
0.919885133697003
40
0.931015289898769
40
0.931015289898769
40
0.975535914705834
40
0.975535914705834
40
1
40
1
40
1
40
1
41
1
10
13.9053585679491
20
2.06129037194538
30
0
41
1
10
13.9544385630411
20
2.07931038679038
30
0
41
1
10
14.0035375714659
20
2.09706393345317
30
0
41
1
10
14.1281979473013
20
2.1414251152778
30
0
41
1
10
14.2037189356802
20
2.16763178720609
30
0
41
1
10
14.4299656909507
20
2.24407478951863
30
0
41
1
10
14.580380298233
20
2.29212877626867
30
0
41
1
10
15.0307078234526
20
2.42732079036585
30
0
41
1
10
15.3297279589444
20
2.50545466776171
30
0
41
1
10
16.226275321381
20
2.70154807006872
30
0
41
1
10
16.8231559848736
20
2.78126213502642
30
0
41
1
10
17.5027727151404
20
2.8073283920167
30
0
41
1
10
17.578430962382
20
2.80934210630099
30
0
41
1
10
17.7298747757173
20
2.81158106277056
30
0
41
1
10
17.8054654059426
20
2.81180415315379
30
0
41
1
10
18.0318950062802
20
2.80980946872418
30
0
41
1
10
18.1823968421109
20
2.80492874077973
30
0
41
1
10
18.6328912601358
20
2.77983216985547
30
0
41
1
10
18.9318842142989
20
2.74915510407624
30
0
41
1
10
19.8279600373932
20
2.61701553511577
30
0
41
1
10
20.4240319530191
20
2.47535755653033
30
0
41
1
10
21.102134286681
20
2.26138178481617
30
0
41
1
10
21.1775846955242
20
2.23685027519295
30
0
41
1
10
21.3287282561376
20
2.18629517138467
30
0
41
1
10
21.4044891442127
20
2.1602469466485
30
0
41
1
10
21.6312084712257
20
2.0802558163914
30
0
41
1
10
21.781864076884
20
2.02439248885014
30
0
41
1
10
22.2327174193099
20
1.84977002599493
30
0
41
1
10
22.5318011178064
20
1.72397311648322
30
0
41
1
10
23.4277310366852
20
1.32344176137428
30
0
41
1
10
24.0231527402111
20
1.02539187803714
30
0
41
1
10
24.775074832193
20
0.630349407678494
30
0
41
1
10
24.9258459180363
20
0.550226478010359
30
0
41
1
10
25.1527789371452
20
0.428698209292151
30
0
41
1
10
25.2283508989867
20
0.38807393989083
30
0
41
1
10
25.3792051326549
20
0.306756647826774
30
0
41
1
10
25.4545170997868
20
0.266049500520182
30
0
41
1
10
25.8305647896646
20
0.0623880221801301
30
0
41
1
10
26.1297706234605
20
-0.100929165516987
30
0
41
1
10
27.0256527149137
20
-0.586170759886187
30
0
41
1
10
27.620516777093
20
-0.903525748732875
30
0
41
1
10
28.3710567025359
20
-1.27420975050987
30
0
41
1
10
28.5215173605045
20
-1.34703828351198
30
0
41
1
10
28.7479309556001
20
-1.45396402634125
30
0
41
1
10
28.8236063975616
20
-1.48925678155791
30
0
41
1
10
28.9746374235324
20
-1.55873267646618
30
0
41
1
10
29.0500287589144
20
-1.59293220176184
30
0
41
1
10
29.4264346298566
20
-1.76115674952828
30
0
41
1
10
29.7257875238714
20
-1.88687092047863
30
0
41
1
10
30.6217180738809
20
-2.2335253630132
30
0
41
1
10
31.2160964774454
20
-2.42406057620315
30
0
41
1
10
31.965377494043
20
-2.59999322631467
30
0
41
1
10
32.1155542430373
20
-2.63206548503859
30
0
41
1
10
32.3414924144646
20
-2.67528830710961
30
0
41
1
10
32.4169176520357
20
-2.68888140393102
30
0
41
1
10
32.5680276745763
20
-2.71440159697752
30
0
41
1
10
32.6435480007765
20
-2.72629944445117
30
0
41
1
10
33.0203356428198
20
-2.78135808505414
30
0
41
1
10
33.3198583010803
20
-2.81135685773432
30
0
41
1
10
33.7826672772928
20
-2.83607193801703
30
0
41
1
10
33.9465365385231
20
-2.84059439975897
30
0
41
1
10
34.1103138952025
20
-2.84088793300702
30
0
0
SPLINE
5
FC
100
AcDbEntity
8
1
62
256
6
ByLayer
370
18
48
1
60
0
100
AcDbSpline
70
4
71
3
72
70
73
66
40
0
40
0
40
0
40
0
40
0.012516376095665
40
0.012516376095665
40
0.0618905572908869
40
0.0618905572908869
40
0.0865776478884987
40
0.0865776478884987
40
0.0989211931873037
40
0.0989211931873037
40
0.111264738486109
40
0.111264738486109
40
0.160638919681325
40
0.160638919681325
40
0.210013100876542
40
0.210013100876542
40
0.259387282071758
40
0.259387282071758
40
0.284074372669366
40
0.284074372669366
40
0.29641791796817
40
0.29641791796817
40
0.308761463266973
40
0.358135644462187
40
0.358135644462187
40
0.382822735059794
40
0.395166280358598
40
0.395166280358598
40
0.407509825657402
40
0.407509825657402
40
0.456884006852618
40
0.456884006852618
40
0.481571097450226
40
0.481571097450226
40
0.49391464274903
40
0.49391464274903
40
0.506258188047833
40
0.506258188047833
40
0.555632369243053
40
0.555632369243053
40
0.605006550438273
40
0.605006550438273
40
0.654380731633493
40
0.654380731633493
40
0.703754912828713
40
0.703754912828713
40
0.716098458127518
40
0.716098458127518
40
0.728442003426322
40
0.75312909402393
40
0.75312909402393
40
0.802503275219146
40
0.802503275219146
40
0.814846820517951
40
0.814846820517951
40
0.827190365816755
40
0.851877456414361
40
0.851877456414361
40
0.901251637609574
40
0.901251637609574
40
0.925938728207181
40
0.925938728207181
40
0.950625818804787
40
0.950625818804787
40
1
40
1
40
1
40
1
41
1
10
49.2508535633535
20
2.77983666131209
30
0
41
1
10
49.3248099390661
20
2.78998836190385
30
0
41
1
10
49.3987202186918
20
2.79929441003242
30
0
41
1
10
49.7640365542819
20
2.84111176805823
30
0
41
1
10
50.0549806890506
20
2.86126685840259
30
0
41
1
10
50.4919874143642
20
2.87134052539727
30
0
41
1
10
50.6377576290753
20
2.87133696116325
30
0
41
1
10
50.8567526668672
20
2.8662447856907
30
0
41
1
10
50.9297368564654
20
2.86370005943905
30
0
41
1
10
51.0753854919577
20
2.85694196216241
30
0
41
1
10
51.1480980972454
20
2.85272760687877
30
0
41
1
10
51.5111831515297
20
2.82752940567997
30
0
41
1
10
51.8001296238862
20
2.79416286200146
30
0
41
1
10
52.3769420365691
20
2.70237836129212
30
0
41
1
10
52.6648045229726
20
2.64397262858702
30
0
41
1
10
53.2410600818431
20
2.50330029773124
30
0
41
1
10
53.5294532162891
20
2.42102343324601
30
0
41
1
10
53.9638408104509
20
2.28069187088354
30
0
41
1
10
54.108938104973
20
2.23109755223422
30
0
41
1
10
54.3272223965005
20
2.15262390948442
30
0
41
1
10
54.4000954337984
20
2.12578384646409
30
0
41
1
10
54.5460649634765
20
2.07077623649533
30
0
41
1
10
54.9106750042474
20
1.93026710482817
30
0
41
1
10
55.2741057534751
20
1.77536615218227
30
0
41
1
10
55.7104807006417
20
1.57766920174984
30
0
41
1
10
55.9287346668323
20
1.47586924300052
30
0
41
1
10
56.1473687295681
20
1.37004996141951
30
0
41
1
10
56.2932413374141
20
1.29865810185237
30
0
41
1
10
56.3662201423169
20
1.26254645697887
30
0
41
1
10
56.7306675691482
20
1.08040830316861
30
0
41
1
10
57.021449923042
20
0.929354588635476
30
0
41
1
10
57.4578867127303
20
0.697247162557801
30
0
41
1
10
57.603400465646
20
0.61894134085847
30
0
41
1
10
57.821879619199
20
0.500347124605582
30
0
41
1
10
57.8947409835308
20
0.460626833275796
30
0
41
1
10
58.0405622777398
20
0.380857691791988
30
0
41
1
10
58.113567101651
20
0.340784010209091
30
0
41
1
10
58.4777573823488
20
0.14036144056729
30
0
41
1
10
58.7671930043747
20
-0.0205623407239273
30
0
41
1
10
59.3442302844002
20
-0.339939815983712
30
0
41
1
10
59.6318404454585
20
-0.498377933109481
30
0
41
1
10
60.2071781607888
20
-0.809274632646492
30
0
41
1
10
60.4948754197482
20
-0.961789354025257
30
0
41
1
10
61.0720970409004
20
-1.25777177741878
30
0
41
1
10
61.3616254679543
20
-1.40123090978292
30
0
41
1
10
61.7259152284141
20
-1.57269283270091
30
0
41
1
10
61.7988594733434
20
-1.60657456895424
30
0
41
1
10
61.9445295593455
20
-1.67328085637621
30
0
41
1
10
62.1628807010557
20
-1.7718377755655
30
0
41
1
10
62.3808917430159
20
-1.86572366060562
30
0
41
1
10
62.8168071975074
20
-2.04679566341287
30
0
41
1
10
63.1072710652659
20
-2.1585789680538
30
0
41
1
10
63.4714149241394
20
-2.28547225812679
30
0
41
1
10
63.5443312463731
20
-2.31021963620825
30
0
41
1
10
63.6899950092045
20
-2.35828896642425
30
0
41
1
10
63.9083224726533
20
-2.42828669372861
30
0
41
1
10
64.1262899381749
20
-2.49184234624627
30
0
41
1
10
64.5621145971498
20
-2.61006071552421
30
0
41
1
10
64.8525109511638
20
-2.67702953558296
30
0
41
1
10
65.2891619449401
20
-2.75861878549873
30
0
41
1
10
65.4350086678048
20
-2.78267748460181
30
0
41
1
10
65.726000756288
20
-2.82412596366851
30
0
41
1
10
65.8712856873645
20
-2.84154658305673
30
0
41
1
10
66.3068936984459
20
-2.88379536251236
30
0
41
1
10
66.5969755739289
20
-2.89860257189349
30
0
41
1
10
66.8877565009818
20
-2.89986241895429
30
0
0
SPLINE
5
FD
100
AcDbEntity
8
1
62
256
6
ByLayer
370
18
48
1
60
0
100
AcDbSpline
70
4
71
3
72
10
73
6
40
0
40
0
40
0
40
0
40
0.5
40
0.5
40
1
40
1
40
1
40
1
41
1
10
66.8692482725556
20
-2.88090941065698
30
0
41
1
10
66.8723245682471
20
-2.88696841674835
30
0
41
1
10
66.875404017467
20
-2.89158154333029
30
0
41
1
10
66.8815762401394
20
-2.89790696985901
30
0
41
1
10
66.8846702956329
20
-2.89961533327002
30
0
41
1
10
66.8877565009817
20
-2.89986241895429
30
0
0
SPLINE
5
FE
100
AcDbEntity
8
1
62
256
6
ByLayer
370
18
48
1
60
0
100
AcDbSpline
70
4
71
3
72
71
73
67
40
0
40
0
40
0
40
0
40
0.0551267921746988
40
0.0551267921746988
40
0.0826901882620492
40
0.0826901882620492
40
0.0964718863057244
40
0.0964718863057244
40
0.1102535843494
40
0.1102535843494
40
0.1653803765241
40
0.1653803765241
40
0.220507168698801
40
0.220507168698801
40
0.248070564786151
40
0.248070564786151
40
0.2756339608735
40
0.2756339608735
40
0.330760753048199
40
0.330760753048199
40
0.337651602070037
40
0.337651602070037
40
0.344542451091875
40
0.358324149135549
40
0.358324149135549
40
0.3858875452229
40
0.3858875452229
40
0.441014337397599
40
0.441014337397599
40
0.468577733484948
40
0.468577733484948
40
0.496141129572297
40
0.496141129572297
40
0.551267921746994
40
0.551267921746994
40
0.565049619790669
40
0.565049619790669
40
0.578831317834344
40
0.578831317834344
40
0.606394713921693
40
0.606394713921693
40
0.661521506096392
40
0.661521506096392
40
0.689084902183742
40
0.689084902183742
40
0.716648298271092
40
0.716648298271092
40
0.744211694358443
40
0.744211694358443
40
0.771775090445793
40
0.771775090445793
40
0.799338486533143
40
0.799338486533143
40
0.826901882620494
40
0.826901882620494
40
0.854465278707844
40
0.854465278707844
40
0.882028674795194
40
0.882028674795194
40
0.937155466969893
40
0.937155466969893
40
0.964718863057243
40
0.964718863057243
40
0.992282259144592
40
0.992282259144592
40
1
40
1
40
1
40
1
41
1
10
66.8692482725628
20
-2.8809094106569
30
0
41
1
10
66.5784316580243
20
-2.86184352405357
30
0
41
1
10
66.288161388376
20
-2.82930086100308
30
0
41
1
10
65.8522445886301
20
-2.76099597178722
30
0
41
1
10
65.7068543416106
20
-2.73497809048706
30
0
41
1
10
65.4884851501034
20
-2.69114992678161
30
0
41
1
10
65.415647976849
20
-2.67574026121093
30
0
41
1
10
65.269850881545
20
-2.64333238725479
30
0
41
1
10
65.1968323896657
20
-2.62631914427359
30
0
41
1
10
64.8324937898582
20
-2.53759598301497
30
0
41
1
10
64.5429360632648
20
-2.45478409748188
30
0
41
1
10
63.9655750345719
20
-2.26803526437919
30
0
41
1
10
63.6777489680401
20
-2.1641268972121
30
0
41
1
10
63.2458580190153
20
-1.99435860946866
30
0
41
1
10
63.1018711799542
20
-1.93545217478584
30
0
41
1
10
62.8137621199253
20
-1.81310215093797
30
0
41
1
10
62.6696368006497
20
-1.749657408665
30
0
41
1
10
62.2364564997899
20
-1.55331439348007
30
0
41
1
10
61.9466108799507
20
-1.41440140839754
30
0
41
1
10
61.618333608855
20
-1.25048685154982
30
0
41
1
10
61.5818093913637
20
-1.23215895834792
30
0
41
1
10
61.5088441848512
20
-1.19536790906315
30
0
41
1
10
61.3994864976071
20
-1.13996144746022
30
0
41
1
10
61.2903891538456
20
-1.08391398748481
30
0
41
1
10
61.0725123806928
20
-0.971018130173434
30
0
41
1
10
60.9276819061377
20
-0.894691650708779
30
0
41
1
10
60.4939246225495
20
-0.663483642499472
30
0
41
1
10
60.2057704126737
20
-0.506306002529641
30
0
41
1
10
59.7737893875423
20
-0.268321977772786
30
0
41
1
10
59.6298329633678
20
-0.188632474196368
30
0
41
1
10
59.3417988731034
20
-0.0288886692974586
30
0
41
1
10
59.1977210890318
20
0.0511656576803432
30
0
41
1
10
58.7648490114946
20
0.291036650637523
30
0
41
1
10
58.4754217506837
20
0.450571122700438
30
0
41
1
10
58.111451797071
20
0.647437466642856
30
0
41
1
10
58.0385482935614
20
0.686682740374266
30
0
41
1
10
57.8925019436196
20
0.764880439645253
30
0
41
1
10
57.8195013727354
20
0.80375632895462
30
0
41
1
10
57.6009960469907
20
0.919421507355452
30
0
41
1
10
57.4557943632001
20
0.995345001072224
30
0
41
1
10
57.0211226206159
20
1.21878979323242
30
0
41
1
10
56.7325772922982
20
1.36197301884923
30
0
41
1
10
56.3001751705642
20
1.56592555225885
30
0
41
1
10
56.1561143357566
20
1.63211379965847
30
0
41
1
10
55.8679791362598
20
1.76065678776581
30
0
41
1
10
55.7239015542739
20
1.8230046969521
30
0
41
1
10
55.4354277729304
20
1.94340847231967
30
0
41
1
10
55.2910355758511
20
2.00147206749426
30
0
41
1
10
55.001781061693
20
2.11307205419072
30
0
41
1
10
54.8569149452174
20
2.16660101353736
30
0
41
1
10
54.5663816778448
20
2.26865733817431
30
0
41
1
10
54.4206993074414
20
2.31719461610857
30
0
41
1
10
54.1283824092581
20
2.40892656782947
30
0
41
1
10
53.9827035316954
20
2.45182087874798
30
0
41
1
10
53.6920771396993
20
2.53156187633852
30
0
41
1
10
53.5471317780946
20
2.56841195724249
30
0
41
1
10
53.2578090273706
20
2.63599813161201
30
0
41
1
10
53.1134268035232
20
2.66672607618818
30
0
41
1
10
52.6806210687351
20
2.74943426333269
30
0
41
1
10
52.3925514835083
20
2.79196157411519
30
0
41
1
10
51.9598628345443
20
2.8363066900697
30
0
41
1
10
51.8155372295543
20
2.84784827303895
30
0
41
1
10
51.5265190120349
20
2.86435576698563
30
0
41
1
10
51.3818238125151
20
2.86931773462678
30
0
41
1
10
51.1961756286509
20
2.87138464029832
30
0
41
1
10
51.1555383794658
20
2.871574512932
30
0
41
1
10
51.1148717384996
20
2.87150124103565
30
0
0
SPLINE
5
FF
100
AcDbEntity
8
1
62
256
6
ByLayer
370
18
48
1
60
0
100
AcDbSpline
70
4
71
3
72
28
73
24
40
0
40
0
40
0
40
0
40
0.125000000000079
40
0.125000000000079
40
0.187500000000122
40
0.187500000000122
40
0.250000000000164
40
0.250000000000164
40
0.375000000000249
40
0.375000000000249
40
0.437500000000293
40
0.437500000000293
40
0.500000000000338
40
0.500000000000338
40
0.625000000000253
40
0.625000000000253
40
0.687500000000211
40
0.687500000000211
40
0.750000000000169
40
0.750000000000169
40
0.875000000000084
40
0.875000000000084
40
1
40
1
40
1
40
1
41
1
10
38.9995027274438
20
-2.5171839878964
30
0
41
1
10
38.9995027274438
20
-2.51308537234797
30
0
41
1
10
39.0006290264832
20
-2.50904298491253
30
0
41
1
10
39.0039583795227
20
-2.50306642299816
30
0
41
1
10
39.0053586853415
20
-2.50107541112624
30
0
41
1
10
39.0086564102261
20
-2.49722376230727
30
0
41
1
10
39.0105528767846
20
-2.49535681618721
30
0
41
1
10
39.0169705169898
20
-2.48993306610797
30
0
41
1
10
39.0223079948785
20
-2.48651042443484
30
0
41
1
10
39.0314146537703
20
-2.48200583242084
30
0
41
1
10
39.0346358652202
20
-2.4806025071301
30
0
41
1
10
39.0414497597473
20
-2.47799564005891
30
0
41
1
10
39.0450669093295
20
-2.47678525604999
30
0
41
1
10
39.0563240471075
20
-2.47352479397171
30
0
41
1
10
39.0642584478875
20
-2.47186056604437
30
0
41
1
10
39.0767987293453
20
-2.47013579633833
30
0
41
1
10
39.0810973305153
20
-2.46969259771998
30
0
41
1
10
39.0896637801245
20
-2.46909598404105
30
0
41
1
10
39.0939618780868
20
-2.46893749703759
30
0
41
1
10
39.1069003759101
20
-2.46887835843952
30
0
41
1
10
39.1156756406797
20
-2.46941143476428
30
0
41
1
10
39.1323982003489
20
-2.47154750955124
30
0
41
1
10
39.1405085407613
20
-2.47315578267663
30
0
41
1
10
39.1481476069148
20
-2.47527574471985
30
0
0
SPLINE
5
100
100
AcDbEntity
8
1
62
256
6
ByLayer
370
18
48
1
60
0
100
AcDbSpline
70
4
71
3
72
18
73
14
40
0
40
0
40
0
40
0
40
0.323519846995015
40
0.323519846995015
40
0.64703969399003
40
0.64703969399003
40
0.72791965573879
40
0.72791965573879
40
0.80879961748755
40
0.80879961748755
40
0.970559540985081
40
0.970559540985081
40
1
40
1
40
1
40
1
41
1
10
39.1481476069148
20
-2.47527574471985
30
0
41
1
10
39.4386805646023
20
-2.55590324947363
30
0
41
1
10
39.7291200195745
20
-2.6235845897761
30
0
41
1
10
40.3107601539989
20
-2.73362840945018
30
0
41
1
10
40.6019181668085
20
-2.7760209643358
30
0
41
1
10
40.9667756555213
20
-2.81289184616594
30
0
41
1
10
41.0398501959156
20
-2.81946268569283
30
0
41
1
10
41.1856557983383
20
-2.83094039896983
30
0
41
1
10
41.2584023280953
20
-2.83585166065856
30
0
41
1
10
41.4762247464242
20
-2.84808461775248
30
0
41
1
10
41.6209293216908
20
-2.85288511801684
30
0
41
1
10
41.7917659912682
20
-2.85461247073218
30
0
41
1
10
41.8180634785741
20
-2.85476839958821
30
0
41
1
10
41.8443537988525
20
-2.85481456729076
30
0
0
SPLINE
5
101
100
AcDbEntity
8
1
62
256
6
ByLayer
370
18
48
1
60
0
100
AcDbSpline
70
4
71
3
72
53
73
49
40
0
40
0
40
0
40
0
40
0.0778388208439959
40
0.0778388208439959
40
0.098797029461178
40
0.098797029461178
40
0.11975523807836
40
0.11975523807836
40
0.161671655312721
40
0.161671655312721
40
0.203588072547082
40
0.203588072547082
40
0.245504489781443
40
0.245504489781443
40
0.266462698398623
40
0.266462698398623
40
0.287420907015804
40
0.287420907015804
40
0.329337324250167
40
0.329337324250167
40
0.371253741484532
40
0.371253741484532
40
0.413170158718896
40
0.413170158718896
40
0.45508657595326
40
0.45508657595326
40
0.497002993187623
40
0.497002993187623
40
0.580835827656348
40
0.580835827656348
40
0.622752244890709
40
0.622752244890709
40
0.64371045350789
40
0.64371045350789
40
0.66466866212507
40
0.66466866212507
40
0.748501496593801
40
0.748501496593801
40
0.790417913828166
40
0.790417913828166
40
0.832334331062532
40
0.832334331062532
40
0.916167165531266
40
0.916167165531266
40
0.958083582765633
40
0.979041791382816
40
0.979041791382816
40
1
40
1
40
1
40
1
41
1
10
56.5583348445704
20
2.73940653571844
30
0
41
1
10
56.8263515103416
20
2.78568069928207
30
0
41
1
10
57.0934771055012
20
2.82100957863923
30
0
41
1
10
57.4317100717345
20
2.8517962495319
30
0
41
1
10
57.5034102072694
20
2.8575219860567
30
0
41
1
10
57.6467316562421
20
2.8673408990376
30
0
41
1
10
57.7183738037572
20
2.87142729105659
30
0
41
1
10
57.9335413261934
20
2.88117803107005
30
0
41
1
10
58.0772429746025
20
2.88435818057783
30
0
41
1
10
58.3651267075721
20
2.88417005911407
30
0
41
1
10
58.5093047844056
20
2.88080269088076
30
0
41
1
10
58.7980741017366
20
2.86744619811225
30
0
41
1
10
58.9426615992534
20
2.85745378596394
30
0
41
1
10
59.1599003360433
20
2.83734105081297
30
0
41
1
10
59.2323824489425
20
2.82978357717855
30
0
41
1
10
59.3775958263893
20
2.81298061066397
30
0
41
1
10
59.4503720224361
20
2.80372819921061
30
0
41
1
10
59.6682404841193
20
2.77363364480215
30
0
41
1
10
59.813141302755
20
2.75041783774267
30
0
41
1
10
60.1022521122721
20
2.69782177917534
30
0
41
1
10
60.2464765647325
20
2.66844448458204
30
0
41
1
10
60.5345170271897
20
2.60378385226156
30
0
41
1
10
60.6783105443796
20
2.56848996983487
30
0
41
1
10
60.9653830606473
20
2.491903226586
30
0
41
1
10
61.1087050643877
20
2.45063297333414
30
0
41
1
10
61.3955993690798
20
2.36280410892579
30
0
41
1
10
61.539141545449
20
2.31622770866195
30
0
41
1
10
61.9701563856984
20
2.1686591795274
30
0
41
1
10
62.2579973036176
20
2.05982337705677
30
0
41
1
10
62.6913363604383
20
1.88141696688802
30
0
41
1
10
62.8360786323539
20
1.8194523511979
30
0
41
1
10
63.0540824955435
20
1.72336708723679
30
0
41
1
10
63.126896541418
20
1.6908051969784
30
0
41
1
10
63.2721516813513
20
1.62491602310678
30
0
41
1
10
63.3446749860265
20
1.59155267269267
30
0
41
1
10
63.7067891438293
20
1.4226845357436
30
0
41
1
10
63.9948665617603
20
1.28102252204565
30
0
41
1
10
64.4254995051554
20
1.06028260752225
30
0
41
1
10
64.5688204376301
20
0.985363909953293
30
0
41
1
10
64.8556090660068
20
0.833886129385292
30
0
41
1
10
64.9990591759333
20
0.757300411432993
30
0
41
1
10
65.4296309297143
20
0.525117364630518
30
0
41
1
10
65.7169697790067
20
0.367087864319586
30
0
41
1
10
66.1494314195608
20
0.126914722856924
30
0
41
1
10
66.3660307847549
20
0.0060526485919752
30
0
41
1
10
66.5834912039392
20
-0.115435295132698
30
0
41
1
10
66.7286893479605
20
-0.196508071013
30
0
41
1
10
66.8013682525301
20
-0.237066618281119
30
0
41
1
10
66.8739881933986
20
-0.277532581906343
30
0
0
SPLINE
5
102
100
AcDbEntity
8
1
62
256
6
ByLayer
370
18
48
1
60
0
100
AcDbSpline
70
4
71
3
72
10
73
6
40
0
40
0
40
0
40
0
40
0.5
40
0.5
40
1
40
1
40
1
40
1
41
1
10
66.8739881933935
20
-0.27753258190728
30
0
41
1
10
66.8805127346002
20
-0.214512801950832
30
0
41
1
10
66.8877236201683
20
-0.15112567134338
30
0
41
1
10
66.9037255089985
20
-0.0236773919266398
30
0
41
1
10
66.9124231579669
20
0.0396343956971634
30
0
41
1
10
66.9218794560748
20
0.102532296731823
30
0
0
SPLINE
5
103
100
AcDbEntity
8
1
62
256
6
ByLayer
370
18
48
1
60
0
100
AcDbSpline
70
4
71
3
72
51
73
47
40
0
40
0
40
0
40
0
40
0.0573986899591292
40
0.0573986899591292
40
0.114797379918258
40
0.114797379918258
40
0.172196069877388
40
0.172196069877388
40
0.229594759836517
40
0.229594759836517
40
0.286993449795646
40
0.286993449795646
40
0.315692794775209
40
0.315692794775209
40
0.344392139754771
40
0.344392139754771
40
0.401790829713896
40
0.401790829713896
40
0.41614050220368
40
0.41614050220368
40
0.430490174693463
40
0.45918951967303
40
0.45918951967303
40
0.516588209632163
40
0.516588209632163
40
0.573986899591296
40
0.573986899591296
40
0.602686244570861
40
0.602686244570861
40
0.631385589550425
40
0.631385589550425
40
0.688784279509555
40
0.688784279509555
40
0.746182969468684
40
0.746182969468684
40
0.803581659427813
40
0.803581659427813
40
0.860980349386943
40
0.860980349386943
40
0.889679694366507
40
0.889679694366507
40
0.918379039346072
40
0.918379039346072
40
0.975777729305201
40
0.975777729305201
40
1
40
1
40
1
40
1
41
1
10
66.9218794560749
20
0.102532296731795
30
0
41
1
10
66.768819889973
20
0.187988972940275
30
0
41
1
10
66.616327099721
20
0.273270249990077
30
0
41
1
10
66.3117798918476
20
0.442208649753297
30
0
41
1
10
66.1597659937775
20
0.525944519518617
30
0
41
1
10
65.8559834747335
20
0.691486435427208
30
0
41
1
10
65.7042395916467
20
0.773339295299223
30
0
41
1
10
65.4010549517627
20
0.935217747131134
30
0
41
1
10
65.2494954505062
20
1.01503232395436
30
0
41
1
10
64.9460296659178
20
1.17170892194059
30
0
41
1
10
64.7941286316332
20
1.24858206689757
30
0
41
1
10
64.5659113015907
20
1.3614996654386
30
0
41
1
10
64.4897921288533
20
1.39876347983753
30
0
41
1
10
64.3374575877434
20
1.47252913026387
30
0
41
1
10
64.261233106336
20
1.50901575829866
30
0
41
1
10
64.0322292154125
20
1.61702505816939
30
0
41
1
10
63.8791249677372
20
1.68710741387585
30
0
41
1
10
63.6870322858859
20
1.77202393443034
30
0
41
1
10
63.6485551281908
20
1.78888263601706
30
0
41
1
10
63.5716586907953
20
1.82226547652419
30
0
41
1
10
63.4564047391759
20
1.87183366584128
30
0
41
1
10
63.3414345600929
20
1.91991473593865
30
0
41
1
10
63.1119164253483
20
2.01416908441834
30
0
41
1
10
62.9594237547221
20
2.07438832857969
30
0
41
1
10
62.6548377037234
20
2.18883321653686
30
0
41
1
10
62.5027856715131
20
2.2431198990129
30
0
41
1
10
62.2748688798434
20
2.31997803393213
30
0
41
1
10
62.1989265542842
20
2.3448395741577
30
0
41
1
10
62.0471336191034
20
2.39308166368895
30
0
41
1
10
61.9712916495016
20
2.41646993849267
30
0
41
1
10
61.7437965620068
20
2.48429112485198
30
0
41
1
10
61.5921232600547
20
2.52633095389581
30
0
41
1
10
61.2884138468422
20
2.60376896656996
30
0
41
1
10
61.1363647159578
20
2.63916222255327
30
0
41
1
10
60.8317997959378
20
2.70320875208847
30
0
41
1
10
60.6793954251916
20
2.73192752204932
30
0
41
1
10
60.3736789586062
20
2.78221256416472
30
0
41
1
10
60.2203701073332
20
2.80378998913247
30
0
41
1
10
59.9895262004201
20
2.83064718468083
30
0
41
1
10
59.9126064082867
20
2.83865783467314
30
0
41
1
10
59.7591076180768
20
2.85278738174304
30
0
41
1
10
59.6824913997562
20
2.858913847124
30
0
41
1
10
59.4530514409124
20
2.87448975836855
30
0
41
1
10
59.3005634803366
20
2.88110782134896
30
0
41
1
10
59.083996057541
20
2.88518685584711
30
0
41
1
10
59.0197659880238
20
2.88573165044562
30
0
41
1
10
58.9555667306254
20
2.88561469614996
30
0
0
SPLINE
5
104
100
AcDbEntity
8
1
62
256
6
ByLayer
370
18
48
1
60
0
100
AcDbSpline
70
4
71
3
72
127
73
123
40
0
40
0
40
0
40
0
40
0.0121652143073378
40
0.0121652143073378
40
0.0348615375192339
40
0.0348615375192339
40
0.0462096991251821
40
0.0518837799281554
40
0.0518837799281554
40
0.0575578607311288
40
0.0575578607311288
40
0.0689060223370737
40
0.0689060223370737
40
0.0802541839430188
40
0.0802541839430188
40
0.102950507154909
40
0.102950507154909
40
0.125646830366799
40
0.125646830366799
40
0.148343153578688
40
0.148343153578688
40
0.171039476790578
40
0.171039476790578
40
0.182387638396524
40
0.182387638396524
40
0.19373580000247
40
0.19373580000247
40
0.21643212321436
40
0.21643212321436
40
0.227780284820306
40
0.227780284820306
40
0.233454365623278
40
0.233454365623278
40
0.23912844642625
40
0.23912844642625
40
0.250476608032194
40
0.250476608032194
40
0.261824769638138
40
0.261824769638138
40
0.284521092850025
40
0.284521092850025
40
0.307217416061912
40
0.307217416061912
40
0.329913739273799
40
0.329913739273799
40
0.352610062485686
40
0.352610062485686
40
0.36395822409163
40
0.36395822409163
40
0.375306385697574
40
0.375306385697574
40
0.398002708909461
40
0.398002708909461
40
0.409350870515404
40
0.409350870515404
40
0.415024951318376
40
0.415024951318376
40
0.420699032121348
40
0.420699032121348
40
0.443395355333236
40
0.443395355333236
40
0.466091678545125
40
0.466091678545125
40
0.488788001757013
40
0.488788001757013
40
0.511484324968901
40
0.511484324968901
40
0.53418064818079
40
0.53418064818079
40
0.545528809786735
40
0.545528809786735
40
0.55687697139268
40
0.55687697139268
40
0.57957329460457
40
0.57957329460457
40
0.590921456210515
40
0.590921456210515
40
0.60226961781646
40
0.60226961781646
40
0.62496594102835
40
0.62496594102835
40
0.64766226424024
40
0.64766226424024
40
0.659010425846186
40
0.659010425846186
40
0.670358587452131
40
0.670358587452131
40
0.693054910664025
40
0.693054910664025
40
0.715751233875918
40
0.715751233875918
40
0.727099395481864
40
0.727099395481864
40
0.738447557087809
40
0.738447557087809
40
0.761143880299701
40
0.761143880299701
40
0.772492041905648
40
0.772492041905648
40
0.783840203511594
40
0.783840203511594
40
0.806536526723488
40
0.806536526723488
40
0.829232849935381
40
0.829232849935381
40
0.840581011541328
40
0.840581011541328
40
0.851929173147275
40
0.851929173147275
40
0.87462549635917
40
0.87462549635917
40
0.897321819571065
40
0.897321819571065
40
0.92001814278296
40
0.92001814278296
40
0.942714465994855
40
0.942714465994855
40
0.96541078920675
40
0.96541078920675
40
0.988107112418645
40
0.988107112418645
40
1
40
1
40
1
40
1
41
1
10
46.5801839645487
20
-2.08228066634484
30
0
41
1
10
46.4984957205967
20
-2.11306619907572
30
0
41
1
10
46.4167576136197
20
-2.14311174748769
30
0
41
1
10
46.1824120918739
20
-2.22711845045285
30
0
41
1
10
46.0296004423629
20
-2.27912211624303
30
0
41
1
10
45.7996207541788
20
-2.352590764507
30
0
41
1
10
45.6844540549451
20
-2.38820794169678
30
0
41
1
10
45.568983640196
20
-2.42209982485679
30
0
41
1
10
45.4919312910841
20
-2.44430519014745
30
0
41
1
10
45.4533460304649
20
-2.45521947215943
30
0
41
1
10
45.3376865346024
20
-2.48732637682343
30
0
41
1
10
45.2607199323948
20
-2.50788382184149
30
0
41
1
10
45.1070946162102
20
-2.54733970116001
30
0
41
1
10
45.0304283088814
20
-2.5662291642943
30
0
41
1
10
44.8007032611905
20
-2.62025537229698
30
0
41
1
10
44.6478968624963
20
-2.65273697214778
30
0
41
1
10
44.3427037364673
20
-2.71058104768403
30
0
41
1
10
44.1902752624796
20
-2.7359259945583
30
0
41
1
10
43.8858586021447
20
-2.77957397024022
30
0
41
1
10
43.7339077173693
20
-2.79787266695305
30
0
41
1
10
43.4297843635136
20
-2.82711636810052
30
0
41
1
10
43.2776586111185
20
-2.83808953813326
30
0
41
1
10
43.0491782777618
20
-2.84904713449134
30
0
41
1
10
42.9729676841253
20
-2.85178324144394
30
0
41
1
10
42.8204806151357
20
-2.85541916181072
30
0
41
1
10
42.7442159211921
20
-2.85631871218302
30
0
41
1
10
42.5152641026184
20
-2.85622540269517
30
0
41
1
10
42.362345082946
20
-2.8524372652596
30
0
41
1
10
42.1322214177487
20
-2.84114215102923
30
0
41
1
10
42.0553954565213
20
-2.83644172982306
30
0
41
1
10
41.939953546647
20
-2.8279854643001
30
0
41
1
10
41.9014386183046
20
-2.82493257876135
30
0
41
1
10
41.8243390130587
20
-2.81835718345846
30
0
41
1
10
41.7857318695587
20
-2.81483223650992
30
0
41
1
10
41.6700192113398
20
-2.8035669767865
30
0
41
1
10
41.5930313578535
20
-2.79513538879539
30
0
41
1
10
41.43935196737
20
-2.77643878042494
30
0
41
1
10
41.3626502333962
20
-2.7661767731004
30
0
41
1
10
41.1327901588421
20
-2.73274822105103
30
0
41
1
10
40.979891915515
20
-2.70693607671035
30
0
41
1
10
40.6745165399593
20
-2.64854195060826
30
0
41
1
10
40.5219983999243
20
-2.61599712403924
30
0
41
1
10
40.2174888910242
20
-2.54410322944858
30
0
41
1
10
40.0654472237722
20
-2.50477416151833
30
0
41
1
10
39.7611408089046
20
-2.41993220344725
30
0
41
1
10
39.608921091304
20
-2.37438665835165
30
0
41
1
10
39.3803067440442
20
-2.30158492827647
30
0
41
1
10
39.3040591065468
20
-2.2765662904921
30
0
41
1
10
39.1515189120628
20
-2.22496996777599
30
0
41
1
10
39.0752336253259
20
-2.19838220848322
30
0
41
1
10
38.8461774733993
20
-2.11640793563447
30
0
41
1
10
38.6931555578517
20
-2.05887427310066
30
0
41
1
10
38.4629002691675
20
-1.96853036613766
30
0
41
1
10
38.3860308606974
20
-1.93773841352302
30
0
41
1
10
38.2705241320041
20
-1.89056450388949
30
0
41
1
10
38.2319878432737
20
-1.87467599458637
30
0
41
1
10
38.1548508763196
20
-1.84256399468825
30
0
41
1
10
38.1162274370126
20
-1.82633076648855
30
0
41
1
10
37.92328391756
20
-1.7444389933668
30
0
41
1
10
37.769624075207
20
-1.67652591020507
30
0
41
1
10
37.4629458900302
20
-1.53710333509133
30
0
41
1
10
37.3099499297999
20
-1.46556307133619
30
0
41
1
10
37.0043782634121
20
-1.31930633327832
30
0
41
1
10
36.8517877332423
20
-1.24461818134822
30
0
41
1
10
36.5471650945081
20
-1.09184476555782
30
0
41
1
10
36.3950196696612
20
-1.01394621607798
30
0
41
1
10
36.0905277141648
20
-0.856061952088936
30
0
41
1
10
35.9382090676025
20
-0.776030273541721
30
0
41
1
10
35.7094783988207
20
-0.654610402234709
30
0
41
1
10
35.6332028900544
20
-0.613890122281475
30
0
41
1
10
35.4806239616693
20
-0.53188416219993
30
0
41
1
10
35.4043132860125
20
-0.490611149510045
30
0
41
1
10
35.1751480974216
20
-0.366288896807191
30
0
41
1
10
35.0220337634363
20
-0.28278774114932
30
0
41
1
10
34.7916579979023
20
-0.156970319006461
30
0
41
1
10
34.7147476393774
20
-0.114938967884342
30
0
41
1
10
34.5606632320254
20
-0.0307403465018865
30
0
41
1
10
34.4834393319638
20
0.011463222229338
30
0
41
1
10
34.2517991776017
20
0.138234950966108
30
0
41
1
10
34.0980529819282
20
0.22263759973589
30
0
41
1
10
33.7911579149123
20
0.389770610793704
30
0
41
1
10
33.6380568267112
20
0.472598313018182
30
0
41
1
10
33.4087228206375
20
0.595391200403554
30
0
41
1
10
33.3323299650605
20
0.636078979483585
30
0
41
1
10
33.179686784681
20
0.717042173170626
30
0
41
1
10
33.1034488844753
20
0.757339771295193
30
0
41
1
10
32.8748828889173
20
0.877489094286005
30
0
41
1
10
32.7226274726428
20
0.956461582960316
30
0
41
1
10
32.4179485856054
20
1.11144500967112
30
0
41
1
10
32.265526292688
20
1.1874610945338
30
0
41
1
10
32.0366947360821
20
1.29914894443979
30
0
41
1
10
31.9604028773675
20
1.336019387546
30
0
41
1
10
31.8077808603304
20
1.40902054697776
30
0
41
1
10
31.7314398925927
20
1.4451328868185
30
0
41
1
10
31.5021531932084
20
1.55201566547038
30
0
41
1
10
31.3489588465109
20
1.62135823401084
30
0
41
1
10
31.1184724024481
20
1.72218899009997
30
0
41
1
10
31.0415232582605
20
1.75526185262316
30
0
41
1
10
30.8873814117896
20
1.82032391787865
30
0
41
1
10
30.8101610803072
20
1.85233653260403
30
0
41
1
10
30.5784142364661
20
1.94674262603823
30
0
41
1
10
30.4245506593375
20
2.00705990723102
30
0
41
1
10
30.1174258663556
20
2.1216503023274
30
0
41
1
10
29.9642089669373
20
2.17599349140943
30
0
41
1
10
29.7347166532496
20
2.25294909100214
30
0
41
1
10
29.6582805016948
20
2.27784869754177
30
0
41
1
10
29.5055762252875
20
2.32619607921137
30
0
41
1
10
29.4293128903831
20
2.34964721782828
30
0
41
1
10
29.2006255391607
20
2.41765305806246
30
0
41
1
10
29.0482556637983
20
2.45981301470306
30
0
41
1
10
28.7433866129364
20
2.53754848977883
30
0
41
1
10
28.5908602753648
20
2.57310796333846
30
0
41
1
10
28.2856464422019
20
2.63762554176341
30
0
41
1
10
28.1330678742752
20
2.66664447397812
30
0
41
1
10
27.8271936013667
20
2.71760277914183
30
0
41
1
10
27.6739255043003
20
2.73957112545094
30
0
41
1
10
27.3664701358036
20
2.77631618872908
30
0
41
1
10
27.2122661148201
20
2.79110045649441
30
0
41
1
10
26.9030966007325
20
2.8133675369927
30
0
41
1
10
26.7490964538297
20
2.82071853147386
30
0
41
1
10
26.5148822542586
20
2.82621571303241
30
0
41
1
10
26.434445039622
20
2.82708125715593
30
0
41
1
10
26.3540883809451
20
2.82693235787761
30
0
0
SPLINE
5
105
100
AcDbEntity
8
1
62
256
6
ByLayer
370
18
48
1
60
0
100
AcDbSpline
70
4
71
3
72
36
73
32
40
0
40
0
40
0
40
0
40
0.0327260412701656
40
0.0327260412701656
40
0.113332204497648
40
0.113332204497648
40
0.193938367725132
40
0.193938367725132
40
0.274544530952615
40
0.274544530952615
40
0.314847612566359
40
0.314847612566359
40
0.355150694180101
40
0.355150694180101
40
0.435756857407591
40
0.435756857407591
40
0.476059939021335
40
0.476059939021335
40
0.51636302063508
40
0.51636302063508
40
0.596969183862567
40
0.596969183862567
40
0.677575347090053
40
0.677575347090053
40
0.75818151031754
40
0.75818151031754
40
0.838787673545027
40
0.838787673545027
40
0.919393836772513
40
0.919393836772513
40
1
40
1
40
1
40
1
41
1
10
13.9059066756126
20
-2.06627292739645
30
0
41
1
10
13.8438848607744
20
-2.08886271660788
30
0
41
1
10
13.7818773557554
20
-2.11104192896931
30
0
41
1
10
13.5670936358398
20
-2.1862947383953
30
0
41
1
10
13.4141850160122
20
-2.23701790780325
30
0
41
1
10
13.107734622261
20
-2.33246814210136
30
0
41
1
10
12.9541733858239
20
-2.3771806977096
30
0
41
1
10
12.6463807307813
20
-2.46053494456143
30
0
41
1
10
12.4922776158211
20
-2.49928660685316
30
0
41
1
10
12.260218940784
20
-2.55237882482305
30
0
41
1
10
12.1826922956532
20
-2.56924687386098
30
0
41
1
10
12.0280720408421
20
-2.60113639496026
30
0
41
1
10
11.9508853876671
20
-2.61618007004333
30
0
41
1
10
11.7196439775883
20
-2.65861074119761
30
0
41
1
10
11.5658896492207
20
-2.68329924209368
30
0
41
1
10
11.3360254395598
20
-2.71508016386127
30
0
41
1
10
11.2595137642778
20
-2.72478444076191
30
0
41
1
10
11.1065879021575
20
-2.74236813200517
30
0
41
1
10
11.0301774110975
20
-2.7502504598508
30
0
41
1
10
10.801059005466
20
-2.77117758714564
30
0
41
1
10
10.6484569788303
20
-2.78150140340344
30
0
41
1
10
10.3433349987734
20
-2.79493542071919
30
0
41
1
10
10.1908880160042
20
-2.79805660424339
30
0
41
1
10
9.88598607165213
20
-2.79704898454392
30
0
41
1
10
9.73348066073834
20
-2.7929171284022
30
0
41
1
10
9.42800929251058
20
-2.77741852341202
30
0
41
1
10
9.27504430674188
20
-2.76606220067609
30
0
41
1
10
8.96866919830043
20
-2.73603425303921
30
0
41
1
10
8.81527642990829
20
-2.71733179921588
30
0
41
1
10
8.50725223737214
20
-2.6728245832791
30
0
41
1
10
8.35267907789273
20
-2.64700689189218
30
0
41
1
10
8.19742619593183
20
-2.61767685868611
30
0
0
SPLINE
5
106
100
AcDbEntity
8
1
62
256
6
ByLayer
370
18
48
1
60
0
100
AcDbSpline
70
4
71
3
72
28
73
24
40
0
40
0
40
0
40
0
40
0.119225041924811
40
0.119225041924811
40
0.178837562887217
40
0.178837562887217
40
0.238450083849623
40
0.238450083849623
40
0.476900167699248
40
0.476900167699248
40
0.50670642818045
40
0.50670642818045
40
0.536512688661651
40
0.536512688661651
40
0.596125209624054
40
0.596125209624054
40
0.715350251548863
40
0.715350251548863
40
0.953800335398481
40
0.953800335398481
40
0.983606595879683
40
0.983606595879683
40
1
40
1
40
1
40
1
41
1
10
10.221782125643
20
-0.326779394196166
30
0
41
1
10
10.5250507361113
20
-0.488976675778957
30
0
41
1
10
10.8262908272289
20
-0.64834278262316
30
0
41
1
10
11.2764598369814
20
-0.880840922387279
30
0
41
1
10
11.4262209615103
20
-0.957270606608176
30
0
41
1
10
11.725495315825
20
-1.10739302251036
30
0
41
1
10
11.8750168132188
20
-1.18107303793735
30
0
41
1
10
12.6225164820612
20
-1.5417846394808
30
0
41
1
10
13.2201051625965
20
-1.80581224759314
30
0
41
1
10
13.9010718576451
20
-2.05993081440511
30
0
41
1
10
13.976910950909
20
-2.08758868241222
30
0
41
1
10
14.1281979473013
20
-2.1414251152778
30
0
41
1
10
14.2037189356802
20
-2.16763178720609
30
0
41
1
10
14.4299656909507
20
-2.24407478951863
30
0
41
1
10
14.580380298233
20
-2.29212877626864
30
0
41
1
10
15.0307078234526
20
-2.42732079036585
30
0
41
1
10
15.3297279589444
20
-2.50545466776171
30
0
41
1
10
16.226275321381
20
-2.70154807006872
30
0
41
1
10
16.8231559848736
20
-2.78126213502642
30
0
41
1
10
17.5027727151404
20
-2.8073283920167
30
0
41
1
10
17.578430962382
20
-2.80934210630099
30
0
41
1
10
17.6957998182719
20
-2.81107729609471
30
0
41
1
10
17.7374070565599
20
-2.81142185162349
30
0
41
1
10
17.7789774421596
20
-2.81149664910438
30
0
0
SPLINE
5
107
100
AcDbEntity
8
1
62
256
6
ByLayer
370
18
48
1
60
0
100
AcDbSpline
70
4
71
3
72
28
73
24
40
0
40
0
40
0
40
0
40
0.18133443825226
40
0.18133443825226
40
0.232501035861487
40
0.232501035861487
40
0.258084334666103
40
0.258084334666103
40
0.283667633470719
40
0.283667633470719
40
0.386000828689184
40
0.386000828689184
40
0.590667219126112
40
0.590667219126112
40
0.641833816735344
40
0.641833816735344
40
0.66741711553996
40
0.66741711553996
40
0.693000414344576
40
0.693000414344576
40
0.795333609563051
40
0.795333609563051
40
1
40
1
40
1
40
1
41
1
10
30.2286014472333
20
2.07986424395551
30
0
41
1
10
30.7573018381216
20
2.27632030307609
30
0
41
1
10
31.2844308583462
20
2.44010562266672
30
0
41
1
10
31.965377494043
20
2.59999322631467
30
0
41
1
10
32.1155542430373
20
2.63206548503859
30
0
41
1
10
32.3414924144645
20
2.67528830710961
30
0
41
1
10
32.4169176520357
20
2.68888140393102
30
0
41
1
10
32.5680276745763
20
2.71440159697752
30
0
41
1
10
32.6435480007765
20
2.72629944445117
30
0
41
1
10
33.0203356428198
20
2.78135808505414
30
0
41
1
10
33.3198583010803
20
2.81135685773435
30
0
41
1
10
34.2159066322423
20
2.85920793146045
30
0
41
1
10
34.8098684748186
20
2.83491051594478
30
0
41
1
10
35.5580125998117
20
2.73509460223724
30
0
41
1
10
35.7079294916082
20
2.71166299138565
30
0
41
1
10
35.9334302578694
20
2.67133927285823
30
0
41
1
10
36.0087015530021
20
2.65703540023785
30
0
41
1
10
36.159487221441
20
2.62670866268883
30
0
41
1
10
36.235084807855
20
2.61066641675527
30
0
41
1
10
36.6122653409234
20
2.52651968650486
30
0
41
1
10
36.9119745643728
20
2.44649073358522
30
0
41
1
10
37.8082126247487
20
2.17218061989723
30
0
41
1
10
38.4018146973586
20
1.94362748402961
30
0
41
1
10
38.9995027274553
20
1.67955525984016
30
0
0
SPLINE
5
108
100
AcDbEntity
8
1
62
256
6
ByLayer
370
18
48
1
60
0
100
AcDbSpline
70
4
71
3
72
52
73
48
40
0
40
0
40
0
40
0
40
0.0188964482020004
40
0.0188964482020004
40
0.0377928964040008
40
0.0377928964040008
40
0.0755857928080016
40
0.0755857928080016
40
0.151171585616003
40
0.151171585616003
40
0.226757378424005
40
0.226757378424005
40
0.245653826626005
40
0.245653826626005
40
0.264550274828004
40
0.302343171232001
40
0.302343171232001
40
0.377928964039997
40
0.377928964039997
40
0.396825412241998
40
0.396825412241998
40
0.415721860443999
40
0.453514756848004
40
0.453514756848004
40
0.529100549656017
40
0.529100549656017
40
0.54799699785802
40
0.54799699785802
40
0.566893446060023
40
0.566893446060023
40
0.60468634246403
40
0.60468634246403
40
0.680272135272042
40
0.680272135272042
40
0.755857928080055
40
0.755857928080055
40
0.831443720888068
40
0.831443720888068
40
0.85034016909007
40
0.85034016909007
40
0.869236617292071
40
0.869236617292071
40
0.907029513696075
40
0.907029513696075
40
0.982615306504085
40
0.982615306504085
40
1
40
1
40
1
40
1
41
1
10
38.9995027274438
20
1.71526408357275
30
0
41
1
10
39.0726355872612
20
1.68340444247352
30
0
41
1
10
39.1457658784643
20
1.65103460042133
30
0
41
1
10
39.2920507134113
20
1.58531728985591
30
0
41
1
10
39.365225864003
20
1.55195993096865
30
0
41
1
10
39.5844391450744
20
1.45067103136861
30
0
41
1
10
39.7302822827137
20
1.38147125268372
30
0
41
1
10
40.1672755170744
20
1.1694676795488
30
0
41
1
10
40.4578936611514
20
1.02226620851724
30
0
41
1
10
41.0395720522682
20
0.719341859369962
30
0
41
1
10
41.3306177627319
20
0.563594291576663
30
0
41
1
10
41.695831567171
20
0.365531906124289
30
0
41
1
10
41.7689834880363
20
0.325731207912895
30
0
41
1
10
41.9151081027936
20
0.246043097938753
30
0
41
1
10
42.1341262295689
20
0.126326858461766
30
0
41
1
10
42.352781270334
20
0.0063211611363556
30
0
41
1
10
42.789985726431
20
-0.233383074823507
30
0
41
1
10
43.0813260200314
20
-0.392755561994818
30
0
41
1
10
43.4464551277926
20
-0.589392002390582
30
0
41
1
10
43.5195648316265
20
-0.628608852173215
30
0
41
1
10
43.6657323821928
20
-0.706633717742136
30
0
41
1
10
43.8848042774662
20
-0.823004043040612
30
0
41
1
10
44.1034749472253
20
-0.937139041778977
30
0
41
1
10
44.5406478295993
20
-1.16180573426601
30
0
41
1
10
44.8318823552046
20
-1.30676151012372
30
0
41
1
10
45.1968139436868
20
-1.47997815016919
30
0
41
1
10
45.2698440183072
20
-1.51422363314018
30
0
41
1
10
45.416020646359
20
-1.58186987439433
30
0
41
1
10
45.4890081719484
20
-1.61519680237211
30
0
41
1
10
45.7076034837507
20
-1.7135833408143
30
0
41
1
10
45.8528920127292
20
-1.77707077963098
30
0
41
1
10
46.2877961363835
20
-1.96078449901591
30
0
41
1
10
46.576453777048
20
-2.07425360547174
30
0
41
1
10
47.1531183099137
20
-2.28097030205728
30
0
41
1
10
47.4411113373292
20
-2.37423976185337
30
0
41
1
10
48.0181789041881
20
-2.53860632841909
30
0
41
1
10
48.3072575174857
20
-2.60969439642361
30
0
41
1
10
48.6704891674718
20
-2.68337811137846
30
0
41
1
10
48.7432298874394
20
-2.69735612080703
30
0
41
1
10
48.8889307726088
20
-2.72376251809834
30
0
41
1
10
48.9619292558947
20
-2.73619694137241
30
0
41
1
10
49.1810424962479
20
-2.77108736962509
30
0
41
1
10
49.3268811366415
20
-2.79107106954177
30
0
41
1
10
49.7640365542819
20
-2.84111176805823
30
0
41
1
10
50.0549806890506
20
-2.86126685840259
30
0
41
1
10
50.4133260540646
20
-2.86952726188642
30
0
41
1
10
50.4803550385145
20
-2.8703606070489
30
0
41
1
10
50.5474176428268
20
-2.87047977458477
30
0
0
SPLINE
5
109
100
AcDbEntity
8
1
62
256
6
ByLayer
370
18
48
1
60
0
100
AcDbSpline
70
4
71
3
72
21
73
17
40
0
40
0
40
0
40
0
40
0.0880072528387666
40
0.0880072528387666
40
0.145006799536348
40
0.145006799536348
40
0.202006346233928
40
0.316005439629081
40
0.316005439629081
40
0.544003626419388
40
0.544003626419388
40
0.658002719814541
40
0.658002719814541
40
0.772001813209694
40
0.772001813209694
40
1
40
1
40
1
40
1
41
1
10
63.0615665696159
20
2.13802666261077
30
0
41
1
10
63.1738178540398
20
2.18019435675274
30
0
41
1
10
63.286138589132
20
2.22090897318088
30
0
41
1
10
63.4714149241394
20
2.28547225812679
30
0
41
1
10
63.544331246373
20
2.31021963620822
30
0
41
1
10
63.6899950092045
20
2.35828896642425
30
0
41
1
10
63.9083224726533
20
2.42828669372861
30
0
41
1
10
64.1262899381749
20
2.4918423462463
30
0
41
1
10
64.5621145971497
20
2.61006071552421
30
0
41
1
10
64.8525109511638
20
2.67702953558296
30
0
41
1
10
65.2891619449401
20
2.75861878549873
30
0
41
1
10
65.4350086678047
20
2.78267748460181
30
0
41
1
10
65.726000756288
20
2.82412596366851
30
0
41
1
10
65.8712856873645
20
2.84154658305673
30
0
41
1
10
66.306893698446
20
2.88379536251236
30
0
41
1
10
66.5969755739289
20
2.89860257189349
30
0
41
1
10
66.8877565009818
20
2.89986241895429
30
0
0
SPLINE
5
10A
100
AcDbEntity
8
1
62
256
6
ByLayer
370
18
48
1
60
0
100
AcDbSpline
70
4
71
3
72
10
73
6
40
0
40
0
40
0
40
0
40
0.539647217916736
40
0.539647217916736
40
1
40
1
40
1
40
1
41
1
10
12.8159776287402
20
-1.6167469136166
30
0
41
1
10
11.9742170975981
20
-1.80080332578925
30
0
41
1
10
11.1378873612534
20
-1.98424088445097
30
0
41
1
10
9.60007426173354
20
-2.31813087235179
30
0
41
1
10
8.89668856546444
20
-2.46949407186841
30
0
41
1
10
8.19742619590801
20
-2.61767685869114
30
0
0
SPLINE
5
10B
100
AcDbEntity
8
1
62
256
6
ByLayer
370
18
48
1
60
0
100
AcDbSpline
70
4
71
3
72
98
73
94
40
0
40
0
40
0
40
0
40
0.0625000000000481
40
0.0625000000000481
40
0.125000000000096
40
0.125000000000096
40
0.15625000000012
40
0.15625000000012
40
0.171875000000133
40
0.171875000000133
40
0.187500000000146
40
0.187500000000146
40
0.218750000000172
40
0.218750000000172
40
0.250000000000198
40
0.250000000000198
40
0.26562500000021
40
0.26562500000021
40
0.281250000000222
40
0.281250000000222
40
0.312500000000246
40
0.312500000000246
40
0.320312500000253
40
0.320312500000253
40
0.328125000000259
40
0.328125000000259
40
0.343750000000271
40
0.343750000000271
40
0.359375000000283
40
0.359375000000283
40
0.367187500000289
40
0.367187500000289
40
0.375000000000295
40
0.390625000000307
40
0.390625000000307
40
0.398437500000313
40
0.398437500000313
40
0.406250000000319
40
0.406250000000319
40
0.437500000000342
40
0.437500000000342
40
0.445312500000349
40
0.445312500000349
40
0.453125000000355
40
0.453125000000355
40
0.468750000000367
40
0.468750000000367
40
0.500000000000393
40
0.500000000000393
40
0.507812500000398
40
0.507812500000398
40
0.515625000000403
40
0.531250000000414
40
0.531250000000414
40
0.562500000000434
40
0.562500000000434
40
0.593750000000455
40
0.593750000000455
40
0.625000000000475
40
0.625000000000475
40
0.656250000000495
40
0.656250000000495
40
0.671875000000506
40
0.675781250000509
40
0.67773437500051
40
0.67773437500051
40
0.679687500000511
40
0.679687500000511
40
0.681640625000512
40
0.681640625000512
40
0.682617187500512
40
0.682617187500512
40
0.683593750000513
40
0.683593750000513
40
0.687500000000507
40
0.687500000000507
40
0.691406250000502
40
0.691406250000502
40
0.695312500000496
40
0.695312500000496
40
0.703125000000485
40
0.703125000000485
40
0.718750000000461
40
0.718750000000461
40
0.750000000000409
40
0.750000000000409
40
0.812500000000307
40
0.812500000000307
40
0.875000000000205
40
0.875000000000205
40
0.937500000000102
40
0.937500000000102
40
1
40
1
40
1
40
1
41
1
10
8.19743106722621
20
-2.61767414590517
30
0
41
1
10
8.0375731243314
20
-2.58756862805288
30
0
41
1
10
7.87996536220882
20
-2.55282007607607
30
0
41
1
10
7.57021120893026
20
-2.47172979046013
30
0
41
1
10
7.41804794945603
20
-2.42542566120267
30
0
41
1
10
7.19511047519993
20
-2.34444676782346
30
0
41
1
10
7.12168894628593
20
-2.31551905448703
30
0
41
1
10
7.01314288668405
20
-2.26865241740453
30
0
41
1
10
6.97722609989748
20
-2.25244910816616
30
0
41
1
10
6.90597809806582
20
-2.21875480041797
30
0
41
1
10
6.87062451692253
20
-2.201252447234
30
0
41
1
10
6.76568715637546
20
-2.14665886114213
30
0
41
1
10
6.69760795837848
20
-2.10770340779772
30
0
41
1
10
6.5660550307978
20
-2.02349310696286
30
0
41
1
10
6.50257098388619
20
-1.97825227384973
30
0
41
1
10
6.41178617089889
20
-1.90430250529568
30
0
41
1
10
6.38239094550801
20
-1.87872312851596
30
0
41
1
10
6.32582006085045
20
-1.82572223158832
30
0
41
1
10
6.29860239963753
20
-1.79826794001102
30
0
41
1
10
6.22057410503081
20
-1.71266760721465
30
0
41
1
10
6.17332286871022
20
-1.65134133684816
30
0
41
1
10
6.12234991524576
20
-1.56746846558727
30
0
41
1
10
6.11254117649486
20
-1.55028256173256
30
0
41
1
10
6.09394461002751
20
-1.51534707526062
30
0
41
1
10
6.08517106238315
20
-1.49763102373001
30
0
41
1
10
6.06049735167855
20
-1.44370442213739
30
0
41
1
10
6.04624046344324
20
-1.40671706533857
30
0
41
1
10
6.0225761988942
20
-1.33045638751938
30
0
41
1
10
6.01316732544299
20
-1.29118373592095
30
0
41
1
10
6.00313918157153
20
-1.23035573807428
30
0
41
1
10
6.00050055549943
20
-1.20986225126106
30
0
41
1
10
5.99668798230232
20
-1.16882556692227
30
0
41
1
10
5.99313699288015
20
-1.10702250228863
30
0
41
1
10
5.99605680425452
20
-1.04448368808934
30
0
41
1
10
6.00328121256501
20
-0.981462411083811
30
0
41
1
10
6.00640716054886
20
-0.960374874247577
30
0
41
1
10
6.01409767334624
20
-0.918039851739877
30
0
41
1
10
6.01868337689831
20
-0.896716645226007
30
0
41
1
10
6.04487754349685
20
-0.79100200335435
30
0
41
1
10
6.07619186595991
20
-0.708871942894547
30
0
41
1
10
6.12580721477764
20
-0.60871060576477
30
0
41
1
10
6.13628561352823
20
-0.588758328775384
30
0
41
1
10
6.15804970472797
20
-0.549450825469449
30
0
41
1
10
6.16934660960655
20
-0.530066910964933
30
0
41
1
10
6.204380209595
20
-0.472659152062619
30
0
41
1
10
6.2292560740334
20
-0.435376895310697
30
0
41
1
10
6.30779620783011
20
-0.326081533943693
30
0
41
1
10
6.36534163115951
20
-0.256599593775007
30
0
41
1
10
6.44230357458912
20
-0.173039764974305
30
0
41
1
10
6.45797312350916
20
-0.156470779752368
30
0
41
1
10
6.48966401184833
20
-0.123780695275229
30
0
41
1
10
6.53771413447757
20
-0.0754283360385557
30
0
41
1
10
6.58718908977033
20
-0.0289688327188458
30
0
41
1
10
6.68779346846119
20
0.061753581768528
30
0
41
1
10
6.7570576505521
20
0.119321554576032
30
0
41
1
10
6.89905837068068
20
0.229853238532996
30
0
41
1
10
6.97180085040497
20
0.28280902449643
30
0
41
1
10
7.12016101287699
20
0.384912979811276
30
0
41
1
10
7.19578165222063
20
0.4340572057001
30
0
41
1
10
7.34947421305083
20
0.529103658176354
30
0
41
1
10
7.42728227204506
20
0.574840697809151
30
0
41
1
10
7.54518635037806
20
0.641139492694521
30
0
41
1
10
7.59455518805709
20
0.66827837547055
30
0
41
1
10
7.64915954593687
20
0.697504613532146
30
0
41
1
10
7.66407518648253
20
0.705424975075744
30
0
41
1
10
7.67402444103951
20
0.710693550386708
30
0
41
1
10
7.67904244381091
20
0.713264311556657
30
0
41
1
10
7.68945738572523
20
0.717551808732878
30
0
41
1
10
7.69485555421073
20
0.71927087143672
30
0
41
1
10
7.70298389566327
20
0.721359017170755
30
0
41
1
10
7.7057104945907
20
0.721959604621418
30
0
41
1
10
7.71120790975917
20
0.722914835422927
30
0
41
1
10
7.71397711584572
20
0.723278436237536
30
0
41
1
10
7.72785083168378
20
0.724942446212538
30
0
41
1
10
7.73923820463023
20
0.725011612641168
30
0
41
1
10
7.76148386296714
20
0.723177983926888
30
0
41
1
10
7.77245008376488
20
0.721250289884352
30
0
41
1
10
7.79414400522992
20
0.715852344124329
30
0
41
1
10
7.80485832303319
20
0.712421541910658
30
0
41
1
10
7.83708004526503
20
0.702721438401454
30
0
41
1
10
7.85854000392646
20
0.696182478043141
30
0
41
1
10
7.9228554379558
20
0.676350264909217
30
0
41
1
10
7.96564598275017
20
0.662845747569776
30
0
41
1
10
8.09375723253243
20
0.621480047340953
30
0
41
1
10
8.17878775383701
20
0.592781544815722
30
0
41
1
10
8.43277218100792
20
0.503390602779604
30
0
41
1
10
8.60074960707041
20
0.439330876603634
30
0
41
1
10
8.93291045871581
20
0.303567906079422
30
0
41
1
10
9.09721516683339
20
0.231829136882425
30
0
41
1
10
9.42282671313205
20
0.0817721260990822
30
0
41
1
10
9.58414161750926
20
0.0034709891268392
30
0
41
1
10
9.90448716199938
20
-0.158227953306579
30
0
41
1
10
10.0635114152541
20
-0.241639508156481
30
0
41
1
10
10.2217855070446
20
-0.326778596207817
30
0
0
SPLINE
5
10C
100
AcDbEntity
8
SK1
62
256
6
ByLayer
370
18
48
1
60
0
100
AcDbSpline
70
4
71
3
72
12
73
8
40
0
40
0
40
0
40
0
40
0.591960083773988
40
0.591960083773988
40
0.887940125660987
40
0.887940125660987
40
1
40
1
40
1
40
1
41
1
10
-35.75
20
0.0391603550279456
30
0
41
1
10
-35.7379956523281
20
0.0352531976767807
30
0
41
1
10
-35.7264866986603
20
0.0293000724452384
30
0
41
1
10
-35.7098921057742
20
0.0174668446122723
30
0
41
1
10
-35.7045257065493
20
0.0130563797169145
30
0
41
1
10
-35.697474675477
20
0.0064204025180175
30
0
41
1
10
-35.6955703834186
20
0.0045375857219767
30
0
41
1
10
-35.6936993354508
20
0.0025919337959408
30
0
0
SPLINE
5
10D
100
AcDbEntity
8
SK1
62
256
6
ByLayer
370
18
48
1
60
0
100
AcDbSpline
70
4
71
3
72
8
73
4
40
0
40
0
40
0
40
0
40
1
40
1
40
1
40
1
41
1
10
-36
20
0.121116197654885
30
0
41
1
10
-35.9170258767126
20
0.093693864424921
30
0
41
1
10
-35.8336514665573
20
0.0663871108189369
30
0
41
1
10
-35.7499999999999
20
0.0391603550278603
30
0
0
SPLINE
5
10E
100
AcDbEntity
8
SK1
62
256
6
ByLayer
370
18
48
1
60
0
100
AcDbSpline
70
4
71
3
72
8
73
4
40
0
40
0
40
0
40
0
40
1
40
1
40
1
40
1
41
1
10
-35.75
20
1.38795600839001
30
0
41
1
10
-35.8336531785511
20
1.36072869538171
30
0
41
1
10
-35.9170277940203
20
1.33342186533696
30
0
41
1
10
-36
20
1.30600016576298
30
0
0
SPLINE
5
10F
100
AcDbEntity
8
SK1
62
256
6
ByLayer
370
18
48
1
60
0
100
AcDbSpline
70
4
71
3
72
22
73
18
40
0
40
0
40
0
40
0
40
0.0624999999999985
40
0.0624999999999985
40
0.124999999999997
40
0.124999999999997
40
0.250000000000001
40
0.250000000000001
40
0.375000000000004
40
0.375000000000004
40
0.500000000000006
40
0.500000000000006
40
0.625000000000004
40
0.625000000000004
40
0.750000000000003
40
0.750000000000003
40
1
40
1
40
1
40
1
41
1
10
-35.65
20
1.33461219182149
30
0
41
1
10
-35.65
20
1.33827464957508
30
0
41
1
10
-35.6502718586019
20
1.34181224717298
30
0
41
1
10
-35.6512913504498
20
1.34848583493755
30
0
41
1
10
-35.652030658643
20
1.35160195453364
30
0
41
1
10
-35.6548298230237
20
1.36039069354024
30
0
41
1
10
-35.6575061245997
20
1.36555052003084
30
0
41
1
10
-35.6638376796887
20
1.37431534969713
30
0
41
1
10
-35.6674983282837
20
1.37797449212456
30
0
41
1
10
-35.6756151818521
20
1.38413878170152
30
0
41
1
10
-35.6800682064548
20
1.38662098983949
30
0
41
1
10
-35.6893906957631
20
1.39045642565674
30
0
41
1
10
-35.6942952881823
20
1.39183490828279
30
0
41
1
10
-35.7045485857552
20
1.39362584241695
30
0
41
1
10
-35.7099306774388
20
1.39403596716289
30
0
41
1
10
-35.7265024515808
20
1.39383339798127
30
0
41
1
10
-35.7380004903212
20
1.39186159107848
30
0
41
1
10
-35.7500000000001
20
1.38795600839015
30
0
0
SPLINE
5
110
100
AcDbEntity
8
SK1
62
256
6
ByLayer
370
18
48
1
60
0
100
AcDbSpline
70
4
71
3
72
22
73
18
40
0
40
0
40
0
40
0
40
0.249999999999997
40
0.249999999999997
40
0.374999999999998
40
0.374999999999998
40
0.499999999999999
40
0.499999999999999
40
0.624999999999999
40
0.624999999999999
40
0.75
40
0.75
40
0.875000000000001
40
0.875000000000001
40
0.9375
40
0.9375
40
1
40
1
40
1
40
1
41
1
10
-35.75
20
-0.0391603550279456
30
0
41
1
10
-35.7379956523281
20
-0.0352531976767807
30
0
41
1
10
-35.7264866986603
20
-0.0293000724452384
30
0
41
1
10
-35.7098921057742
20
-0.0174668446122723
30
0
41
1
10
-35.7045257065493
20
-0.0130563797169145
30
0
41
1
10
-35.6942964893128
20
-0.0034292979967745
30
0
41
1
10
-35.6894060316865
20
0.0018054745079894
30
0
41
1
10
-35.6801144608566
20
0.0132079436193067
30
0
41
1
10
-35.6756964104891
20
0.0193978452039119
30
0
41
1
10
-35.6675285377629
20
0.0328321929815445
30
0
41
1
10
-35.6638529491705
20
0.0399448031035092
30
0
41
1
10
-35.6575076548177
20
0.0551492484556775
30
0
41
1
10
-35.6548318331324
20
0.0633073918020273
30
0
41
1
10
-35.6520304488211
20
0.0759155191619811
30
0
41
1
10
-35.65129058319
20
0.0801992038802553
30
0
41
1
10
-35.650270741394
20
0.0889584232174059
30
0
41
1
10
-35.65
20
0.0933936715908033
30
0
41
1
10
-35.65
20
0.0977780101926555
30
0
0
SPLINE
5
111
100
AcDbEntity
8
SK1
62
256
6
ByLayer
370
18
48
1
60
0
100
AcDbSpline
70
4
71
3
72
8
73
4
40
0
40
0
40
0
40
0
40
1
40
1
40
1
40
1
41
1
10
-36
20
-0.121116197654913
30
0
41
1
10
-35.9170258767126
20
-0.093693864424921
30
0
41
1
10
-35.8336514665573
20
-0.0663871108189369
30
0
41
1
10
-35.7499999999999
20
-0.0391603550278603
30
0
0
SPLINE
5
112
100
AcDbEntity
8
1
62
256
6
ByLayer
370
18
48
1
60
0
100
AcDbSpline
70
4
71
3
72
11
73
7
40
0
40
0
40
0
40
0
40
0.095347952597737
40
0.340174201525176
40
0.65341933828253
40
1
40
1
40
1
40
1
41
1
10
66.1167622902022
20
0.883464512466048
30
0
41
1
10
66.0230842072529
20
0.91550795111749
30
0
41
1
10
65.6892375359427
20
1.03084970113881
30
0
41
1
10
65.0510186392391
20
1.26086166727674
30
0
41
1
10
64.1715557572792
20
1.59054843291716
30
0
41
1
10
63.5347771750968
20
1.84275440028483
30
0
41
1
10
63.2014943453626
20
1.97828583654473
30
0
0
SPLINE
5
113
100
AcDbEntity
8
1
62
256
6
ByLayer
370
18
48
1
60
0
100
AcDbSpline
70
4
71
3
72
29
73
25
40
0
40
0
40
0
40
0
40
1.9568134071E-06
40
6.08475582177E-05
40
0.0001160344067152
40
0.0001679467274901
40
0.0002166157077205
40
0.0003056087357992
40
0.00139755942708
40
0.0023092768030032
40
0.0040582185785981
40
0.0075669205749317
40
0.0146801880094085
40
0.0287762385334511
40
0.0583391287837676
40
0.125135354498896
40
0.260703553544027
40
0.359575543047727
40
0.445661378622024
40
0.548384198891833
40
0.639136971599807
40
0.741673438395102
40
0.87701799951981
40
1
40
1
40
1
40
1
41
1
10
36.0352888250488
20
0.0471954204372258
30
0
41
1
10
36.0352885787268
20
0.0471963897287656
30
0
41
1
10
36.0352882977286
20
0.0471974091272528
30
0
41
1
10
36.0352644512588
20
0.0472072210762917
30
0
41
1
10
36.0351683302833
20
0.0472393247751484
30
0
41
1
10
36.0350241067214
20
0.0472848333376135
30
0
41
1
10
36.0347902533576
20
0.0473566754945693
30
0
41
1
10
36.0327422371853
20
0.047968569386029
30
0
41
1
10
36.0288095034132
20
0.0491188741833355
30
0
41
1
10
36.022089454963
20
0.051098307811742
30
0
41
1
10
36.0108957263336
20
0.0543873232794567
30
0
41
1
10
35.9885041358098
20
0.0609662950772929
30
0
41
1
10
35.9436450724524
20
0.0741523021230819
30
0
41
1
10
35.8515493374032
20
0.101315588625738
30
0
41
1
10
35.6510976898956
20
0.160859907350812
30
0
41
1
10
35.2303908021392
20
0.288033501241216
30
0
41
1
10
34.685113468152
20
0.45906782692262
30
0
41
1
10
34.1073596512134
20
0.647830037156723
30
0
41
1
10
33.5905332232022
20
0.821961536040618
30
0
41
1
10
33.0898738312859
20
0.995852509760994
30
0
41
1
10
32.5614229278769
20
1.18497907162288
30
0
41
1
10
31.9766572931773
20
1.40055110442381
30
0
41
1
10
31.3369168281408
20
1.64399171351755
30
0
41
1
10
30.8816056199053
20
1.82516823670565
30
0
41
1
10
30.6653829407977
20
1.91285612062416
30
0
0
SPLINE
5
114
100
AcDbEntity
8
1
62
256
6
ByLayer
370
18
48
1
60
0
100
AcDbSpline
70
4
71
3
72
29
73
25
40
0
40
0
40
0
40
0
40
5.86398875819E-05
40
0.0001367577412479
40
0.0002056148480972
40
0.0002655621119189
40
0.0008724809065089
40
0.0013719768980602
40
0.0023187529482733
40
0.0041843833319731
40
0.0080742569883889
40
0.0513088903017143
40
0.113672907694786
40
0.180649921063491
40
0.252197905636037
40
0.328314369830832
40
0.400430480686342
40
0.484268254369287
40
0.518821616808183
40
0.574973167214466
40
0.654639917759101
40
0.757811478513349
40
0.88448933047496
40
1
40
1
40
1
40
1
41
1
10
52.4377334584024
20
0.0305338861426492
30
0
41
1
10
52.4377486811937
20
0.0305298145347876
30
0
41
1
10
52.4377595148728
20
0.0305275020482441
30
0
41
1
10
52.4376781347502
20
0.0305524181859482
30
0
41
1
10
52.4374889096032
20
0.0306086401269567
30
0
41
1
10
52.4363790886298
20
0.0309350403662734
30
0
41
1
10
52.4340465728602
20
0.0316168415900222
30
0
41
1
10
52.4303392995721
20
0.0327024594637066
30
0
41
1
10
52.4241970038788
20
0.0345004991976623
30
0
41
1
10
52.4118571652736
20
0.0381141974666264
30
0
41
1
10
52.3211861974088
20
0.064681500655837
30
0
41
1
10
52.1177386922573
20
0.124704496022872
30
0
41
1
10
51.7975082754217
20
0.221095497373966
30
0
41
1
10
51.4253870215125
20
0.335843849174722
30
0
41
1
10
51.02850464305
20
0.461336738156575
30
0
41
1
10
50.6228609354737
20
0.592991531458466
30
0
41
1
10
50.1954141350315
20
0.735306816862391
30
0
41
1
10
49.8454268770778
20
0.85491314171378
30
0
41
1
10
49.525479132805
20
0.966378205181712
30
0
41
1
10
49.2136891191289
20
1.07658692859656
30
0
41
1
10
48.7773336468416
20
1.23411309321568
30
0
41
1
10
48.2140249969924
20
1.44324061215519
30
0
41
1
10
47.5878495829561
20
1.68312794776216
30
0
41
1
10
47.1510198344478
20
1.85729832635232
30
0
41
1
10
46.9431538273351
20
1.94163375113175
30
0
0
SPLINE
5
115
100
AcDbEntity
8
1
62
256
6
ByLayer
370
18
48
1
60
0
100
AcDbSpline
70
4
71
3
72
24
73
20
40
0
40
0
40
0
40
0
40
6.72952909248E-05
40
0.0001252416662765
40
0.0001717415316395
40
0.0002111949501634
40
0.0005377815890509
40
0.0008085744291785
40
0.0098457881673778
40
0.0569582828664213
40
0.120056457473622
40
0.195278938911605
40
0.264546629628805
40
0.365721795522426
40
0.459295738067254
40
0.56203549951371
40
0.688392359365787
40
0.857047008593362
40
1
40
1
40
1
40
1
41
1
10
19.7587513677846
20
0.0244379236870884
30
0
41
1
10
19.7587665160249
20
0.0244334971329181
30
0
41
1
10
19.7587742699089
20
0.0244312054466604
30
0
41
1
10
19.7586888546801
20
0.0244561412866631
30
0
41
1
10
19.7585464880164
20
0.0244978015543893
30
0
41
1
10
19.7579612865349
20
0.0246695125610188
30
0
41
1
10
19.7567691949017
20
0.0250201713314482
30
0
41
1
10
19.7400421588563
20
0.0299366017388252
30
0
41
1
10
19.6380803881162
20
0.0598324995593771
30
0
41
1
10
19.4243732801037
20
0.122943298340147
30
0
41
1
10
19.0897842846397
20
0.223517809735341
30
0
41
1
10
18.7156742114754
20
0.338887501580132
30
0
41
1
10
18.2737848044223
20
0.47872983393566
30
0
41
1
10
17.8001646215964
20
0.633096283278803
30
0
41
1
10
17.2682330880719
20
0.812178443520224
30
0
41
1
10
16.6931166342679
20
1.01192531046877
30
0
41
1
10
15.9869380401949
20
1.26621565219742
30
0
41
1
10
15.2127090218919
20
1.55615465335424
30
0
41
1
10
14.6656585995713
20
1.77272900450205
30
0
41
1
10
14.4153995373451
20
1.87404114128304
30
0
0
SPLINE
5
116
100
AcDbEntity
8
1
62
256
6
ByLayer
370
18
48
1
60
0
100
AcDbSpline
70
4
71
3
72
15
73
11
40
0
40
0
40
0
40
0
40
0.0882437760717253
40
0.146037086246121
40
0.182613915340033
40
0.21891213502854
40
0.255696985538819
40
0.402452067641385
40
0.67155943894534
40
1
40
1
40
1
40
1
41
1
10
51.1148425430834
20
-2.72700628304992
30
0
41
1
10
51.2749418617502
20
-2.72723940638568
30
0
41
1
10
51.5398958799116
20
-2.72768077976969
30
0
41
1
10
51.8712133325628
20
-2.72837024000347
30
0
41
1
10
52.108286929177
20
-2.72889041943708
30
0
41
1
10
52.3072447964697
20
-2.72923628885493
30
0
41
1
10
52.7061008141091
20
-2.72968241858456
30
0
41
1
10
53.527346301364
20
-2.73133069604773
30
0
41
1
10
54.8777501823419
20
-2.73193667237567
30
0
41
1
10
55.9618886783731
20
-2.736084294156
30
0
41
1
10
56.5577840141888
20
-2.73624530270936
30
0
0
SPLINE
5
117
100
AcDbEntity
8
1
62
256
6
ByLayer
370
18
48
1
60
0
100
AcDbSpline
70
4
71
3
72
16
73
12
40
0
40
0
40
0
40
0
40
0.175572923744234
40
0.290430349004219
40
0.363231200918924
40
0.435405114197109
40
0.507126365373386
40
0.588399073203113
40
0.677028597677139
40
0.825055217955141
40
1
40
1
40
1
40
1
41
1
10
41.8426314064293
20
2.71245336377726
30
0
41
1
10
41.6821383084923
20
2.71155496822453
30
0
41
1
10
41.4166500152414
20
2.71046842797554
30
0
41
1
10
41.084605227056
20
2.70960367133946
30
0
41
1
10
40.8470814435719
20
2.70975578082846
30
0
41
1
10
40.6489903342669
20
2.70991751154492
30
0
41
1
10
40.4431548349597
20
2.71004748379883
30
0
41
1
10
40.2222764008883
20
2.71004604631784
30
0
41
1
10
39.9316439215482
20
2.70971752046216
30
0
41
1
10
39.5553840165326
20
2.70863634208365
30
0
41
1
10
39.2601495757782
20
2.70668997009204
30
0
41
1
10
39.100230553577
20
2.70534999540672
30
0
0
SPLINE
5
118
100
AcDbEntity
8
1
62
256
6
ByLayer
370
18
48
1
60
0
100
AcDbSpline
70
4
71
3
72
16
73
12
40
0
40
0
40
0
40
0
40
0.0916854514491095
40
0.151474491621062
40
0.20184929780457
40
0.255560259035403
40
0.309522870921377
40
0.363488041081094
40
0.617826438658738
40
0.906831195181945
40
1
40
1
40
1
40
1
41
1
10
58.197101942126
20
2.73976203653368
30
0
41
1
10
58.0298693801651
20
2.73959393623687
30
0
41
1
10
57.7535736885834
20
2.73908069509804
30
0
41
1
10
57.3853206281629
20
2.73644703668174
30
0
41
1
10
57.0864137889167
20
2.73614366794524
30
0
41
1
10
56.798046423908
20
2.73615080265938
30
0
41
1
10
56.5031526751276
20
2.73632618786999
30
0
41
1
10
55.8422196765115
20
2.73629100862149
30
0
41
1
10
54.7524808919109
20
2.73158638614828
30
0
41
1
10
53.5912054819909
20
2.73117543644139
30
0
41
1
10
52.8939572508547
20
2.73006263277281
30
0
41
1
10
52.7239772682892
20
2.72980345144006
30
0
0
SPLINE
5
119
100
AcDbEntity
8
1
62
256
6
ByLayer
370
18
48
1
60
0
100
AcDbSpline
70
4
71
3
72
11
73
7
40
0
40
0
40
0
40
0
40
0.374220601428311
40
0.686463591219442
40
0.894644756005522
40
1
40
1
40
1
40
1
41
1
10
39.1002280729658
20
-2.70537122953786
30
0
41
1
10
39.2409191836645
20
-2.70655594062632
30
0
41
1
10
39.4990025943281
20
-2.70830925630267
30
0
41
1
10
39.8353603157841
20
-2.70946819877915
30
0
41
1
10
40.0706345987003
20
-2.70988904683532
30
0
41
1
10
40.1885150143801
20
-2.70998440773863
30
0
41
1
10
40.2281254720464
20
-2.71000558191543
30
0
0
SPLINE
5
11A
100
AcDbEntity
8
1
62
256
6
ByLayer
370
18
48
1
60
0
100
AcDbSpline
70
4
71
1
72
4
73
2
40
0
40
0
40
1
40
1
41
1
10
42.9326780736851
20
0.0038533095553248
30
0
41
1
10
42.9326611885644
20
0.0038605175951716
30
0
0
LINE
5
82
100
AcDbEntity
8
4
62
256
6
ByLayer
370
18
48
0.05
60
0
100
AcDbLine
10
0
20
0
30
0
11
68
21
0
31
0
39
0
210
0
220
0
230
1
0
LINE
5
84
100
AcDbEntity
8
81
62
256
6
ByLayer
370
18
48
1
60
0
100
AcDbLine
10
68
20
0
30
0
11
71
21
0
31
0
39
0
210
0
220
0
230
1
0
LINE
5
85
100
AcDbEntity
8
80
62
256
6
ByLayer
370
18
48
1
60
0
100
AcDbLine
10
0
20
0
30
0
11
-3
21
0
31
0
39
0
210
0
220
0
230
1
0
LINE
5
86
100
AcDbEntity
8
SK4
62
256
6
ByLayer
370
18
48
0.05
60
0
100
AcDbLine
10
-39
20
0
30
0
11
71
21
0
31
0
39
0
210
0
220
0
230
1
0
LINE
5
88
100
AcDbEntity
8
1
62
256
6
ByLayer
370
18
48
1
60
0
100
AcDbLine
10
0
20
3
30
0
11
0
21
-3
31
0
39
0
210
0
220
0
230
1
0
LINE
5
89
100
AcDbEntity
8
1
62
256
6
ByLayer
370
13
48
1
60
0
100
AcDbLine
10
67.929699
20
0.327228
30
0
11
67.299832
21
0.897033
31
0
39
0
210
0
220
0
230
1
0
LINE
5
8A
100
AcDbEntity
8
1
62
256
6
ByLayer
370
13
48
1
60
0
100
AcDbLine
10
0.178571
20
-2.890069
30
0
11
0.178571
21
2.890069
31
0
39
0
210
0
220
0
230
1
0
LINE
5
8B
100
AcDbEntity
8
1
62
256
6
ByLayer
370
18
48
1
60
0
100
AcDbLine
10
38.999503
20
2.849694
30
0
11
38.999503
21
1.999694
31
0
39
0
210
0
220
0
230
1
0
LINE
5
8C
100
AcDbEntity
8
1
62
256
6
ByLayer
370
18
48
1
60
0
100
AcDbLine
10
38.999503
20
-2.517184
30
0
11
38.999503
21
-2.849694
31
0
39
0
210
0
220
0
230
1
0
LINE
5
8D
100
AcDbEntity
8
1
62
256
6
ByLayer
370
18
48
1
60
0
100
AcDbLine
10
38.999503
20
1.715264
30
0
11
38.999503
21
1.679555
31
0
39
0
210
0
220
0
230
1
0
LINE
5
8E
100
AcDbEntity
8
1
62
256
6
ByLayer
370
13
48
1
60
0
100
AcDbLine
10
0.357502
20
-2.780138
30
0
11
0.357502
21
2.780138
31
0
39
0
210
0
220
0
230
1
0
LINE
5
8F
100
AcDbEntity
8
SK1
62
256
6
ByLayer
370
18
48
1
60
0
100
AcDbLine
10
-36
20
1.306
30
0
11
-36
21
0.121116
31
0
39
0
210
0
220
0
230
1
0
LINE
5
91
100
AcDbEntity
8
SK1
62
256
6
ByLayer
370
13
48
1
60
0
100
AcDbLine
10
-35.75
20
0.03916
30
0
11
-35.75
21
1.387956
31
0
39
0
210
0
220
0
230
1
0
LINE
5
92
100
AcDbEntity
8
SK1
62
256
6
ByLayer
370
18
48
1
60
0
100
AcDbLine
10
-36
20
1.306
30
0
11
-36
21
2.065
31
0
39
0
210
0
220
0
230
1
0
LINE
5
93
100
AcDbEntity
8
SK1
62
256
6
ByLayer
370
18
48
1
60
0
100
AcDbLine
10
-35.65
20
0.097778
30
0
11
-35.65
21
1.334612
31
0
39
0
210
0
220
0
230
1
0
LINE
5
94
100
AcDbEntity
8
SK1
62
256
6
ByLayer
370
18
48
1
60
0
100
AcDbLine
10
-36
20
-2.065
30
0
11
-36
21
-0.121116
31
0
39
0
210
0
220
0
230
1
0
LINE
5
95
100
AcDbEntity
8
SK1
62
256
6
ByLayer
370
18
48
1
60
0
100
AcDbLine
10
0
20
3
30
0
11
0
21
-3
31
0
39
0
210
0
220
0
230
1
0
LINE
5
96
100
AcDbEntity
8
SK1
62
256
6
ByLayer
370
18
48
1
60
0
100
AcDbLine
10
-35.065
20
-3
30
0
11
-35.065
21
3
31
0
39
0
210
0
220
0
230
1
0
LINE
5
97
100
AcDbEntity
8
1
62
256
6
ByLayer
370
18
48
1
60
0
100
AcDbLine
10
51.39758
20
2.727451
30
0
11
51.392822
21
2.727443
31
0
39
0
210
0
220
0
230
1
0
LINE
5
98
100
AcDbEntity
8
1
62
256
6
ByLayer
370
18
48
1
60
0
100
AcDbLine
10
0.357502
20
-2.780138
30
0
11
10.05308
21
-2.79759
31
0
39
0
210
0
220
0
230
1
0
LINE
5
99
100
AcDbEntity
8
1
62
256
6
ByLayer
370
18
48
1
60
0
100
AcDbLine
10
17.778688
20
-2.811496
30
0
11
26.353869
21
-2.826931
31
0
39
0
210
0
220
0
230
1
0
LINE
5
9A
100
AcDbEntity
8
1
62
256
6
ByLayer
370
18
48
1
60
0
100
AcDbLine
10
34.110475
20
-2.840893
30
0
11
38.999503
21
-2.849694
31
0
39
0
210
0
220
0
230
1
0
LINE
5
9B
100
AcDbEntity
8
1
62
256
6
ByLayer
370
18
48
1
60
0
100
AcDbLine
10
41.844062
20
-2.854814
30
0
11
42.654822
21
-2.856273
31
0
39
0
210
0
220
0
230
1
0
LINE
5
9C
100
AcDbEntity
8
1
62
256
6
ByLayer
370
18
48
1
60
0
100
AcDbLine
10
50.547155
20
-2.870479
30
0
11
51.11459
21
-2.871501
31
0
39
0
210
0
220
0
230
1
0
LINE
5
9D
100
AcDbEntity
8
1
62
256
6
ByLayer
370
18
48
1
60
0
100
AcDbLine
10
58.19937
20
-2.884253
30
0
11
58.955851
21
-2.885615
31
0
39
0
210
0
220
0
230
1
0
LINE
5
9E
100
AcDbEntity
8
1
62
256
6
ByLayer
370
18
48
1
60
0
100
AcDbLine
10
58.955851
20
2.885615
30
0
11
58.19937
21
2.884253
31
0
39
0
210
0
220
0
230
1
0
LINE
5
9F
100
AcDbEntity
8
1
62
256
6
ByLayer
370
18
48
1
60
0
100
AcDbLine
10
51.11459
20
2.871501
30
0
11
50.547155
21
2.870479
31
0
39
0
210
0
220
0
230
1
0
LINE
5
A0
100
AcDbEntity
8
1
62
256
6
ByLayer
370
18
48
1
60
0
100
AcDbLine
10
42.654822
20
2.856273
30
0
11
41.844062
21
2.854814
31
0
39
0
210
0
220
0
230
1
0
LINE
5
A1
100
AcDbEntity
8
1
62
256
6
ByLayer
370
18
48
1
60
0
100
AcDbLine
10
38.999503
20
2.849694
30
0
11
34.110475
21
2.840893
31
0
39
0
210
0
220
0
230
1
0
LINE
5
A2
100
AcDbEntity
8
1
62
256
6
ByLayer
370
18
48
1
60
0
100
AcDbLine
10
26.353869
20
2.826931
30
0
11
17.778688
21
2.811496
31
0
39
0
210
0
220
0
230
1
0
LINE
5
A3
100
AcDbEntity
8
1
62
256
6
ByLayer
370
18
48
1
60
0
100
AcDbLine
10
10.05308
20
2.79759
30
0
11
0.357502
21
2.780138
31
0
39
0
210
0
220
0
230
1
0
LINE
5
A4
100
AcDbEntity
8
SK1
62
256
6
ByLayer
370
18
48
1
60
0
100
AcDbLine
10
-36
20
-2.065
30
0
11
-35.065
21
-3
31
0
39
0
210
0
220
0
230
1
0
LINE
5
A5
100
AcDbEntity
8
SK1
62
256
6
ByLayer
370
18
48
1
60
0
100
AcDbLine
10
-35.065
20
3
30
0
11
-36
21
2.065
31
0
39
0
210
0
220
0
230
1
0
LINE
5
A6
100
AcDbEntity
8
SK1
62
256
6
ByLayer
370
18
48
1
60
0
100
AcDbLine
10
-35.065
20
-3
30
0
11
0
21
-3
31
0
39
0
210
0
220
0
230
1
0
LINE
5
A7
100
AcDbEntity
8
SK1
62
256
6
ByLayer
370
18
48
1
60
0
100
AcDbLine
10
0
20
3
30
0
11
-35.065
21
3
31
0
39
0
210
0
220
0
230
1
0
LINE
5
A8
100
AcDbEntity
8
2
62
256
6
ByLayer
370
13
48
1
60
0
100
AcDbLine
10
75.5
20
27.199084
30
0
11
75.5
21
-10.4
31
0
39
0
210
0
220
0
230
1
0
LINE
5
AA
100
AcDbEntity
8
2
62
256
6
ByLayer
370
13
48
1
60
0
100
AcDbLine
10
69.5875
20
2.9
30
0
11
77.5
21
2.9
31
0
39
0
210
0
220
0
230
1
0
LINE
5
AB
100
AcDbEntity
8
2
62
256
6
ByLayer
370
13
48
1
60
0
100
AcDbLine
10
69.5875
20
-2.9
30
0
11
77.5
21
-2.9
31
0
39
0
210
0
220
0
230
1
0
LINE
5
AC
100
AcDbEntity
8
1
62
256
6
ByLayer
370
18
48
1
60
1
100
AcDbLine
10
75.5
20
2.9
30
0
11
75.039216
21
6.399998
31
0
39
0
210
0
220
0
230
1
0
LINE
5
AD
100
AcDbEntity
8
1
62
256
6
ByLayer
370
18
48
1
60
1
100
AcDbLine
10
75.039216
20
6.399998
30
0
11
75.960784
21
6.400002
31
0
39
0
210
0
220
0
230
1
0
LINE
5
AE
100
AcDbEntity
8
1
62
256
6
ByLayer
370
18
48
1
60
1
100
AcDbLine
10
75.960784
20
6.400002
30
0
11
75.5
21
2.9
31
0
39
0
210
0
220
0
230
1
0
LINE
5
AF
100
AcDbEntity
8
1
62
256
6
ByLayer
370
18
48
1
60
1
100
AcDbLine
10
75.5
20
-2.9
30
0
11
75.960784
21
-6.399998
31
0
39
0
210
0
220
0
230
1
0
LINE
5
B0
100
AcDbEntity
8
1
62
256
6
ByLayer
370
18
48
1
60
1
100
AcDbLine
10
75.960784
20
-6.399998
30
0
11
75.039216
21
-6.400002
31
0
39
0
210
0
220
0
230
1
0
LINE
5
B1
100
AcDbEntity
8
1
62
256
6
ByLayer
370
18
48
1
60
1
100
AcDbLine
10
75.039216
20
-6.400002
30
0
11
75.5
21
-2.9
31
0
39
0
210
0
220
0
230
1
0
LINE
5
B2
100
AcDbEntity
8
SK2
62
256
6
ByLayer
370
13
48
1
60
0
100
AcDbLine
10
-44.5
20
13.841828
30
0
11
-44.5
21
-10.5
31
0
39
0
210
0
220
0
230
1
0
LINE
5
B4
100
AcDbEntity
8
SK2
62
256
6
ByLayer
370
13
48
1
60
0
100
AcDbLine
10
-37.5875
20
3
30
0
11
-46.5
21
3
31
0
39
0
210
0
220
0
230
1
0
LINE
5
B5
100
AcDbEntity
8
SK2
62
256
6
ByLayer
370
13
48
1
60
0
100
AcDbLine
10
-37.5875
20
-3
30
0
11
-46.5
21
-3
31
0
39
0
210
0
220
0
230
1
0
LINE
5
B6
100
AcDbEntity
8
1
62
256
6
ByLayer
370
18
48
1
60
1
100
AcDbLine
10
-44.5
20
3
30
0
11
-44.960784
21
6.499998
31
0
39
0
210
0
220
0
230
1
0
LINE
5
B7
100
AcDbEntity
8
1
62
256
6
ByLayer
370
18
48
1
60
1
100
AcDbLine
10
-44.960784
20
6.499998
30
0
11
-44.039216
21
6.500002
31
0
39
0
210
0
220
0
230
1
0
LINE
5
B8
100
AcDbEntity
8
1
62
256
6
ByLayer
370
18
48
1
60
1
100
AcDbLine
10
-44.039216
20
6.500002
30
0
11
-44.5
21
3
31
0
39
0
210
0
220
0
230
1
0
LINE
5
B9
100
AcDbEntity
8
1
62
256
6
ByLayer
370
18
48
1
60
1
100
AcDbLine
10
-44.5
20
-3
30
0
11
-44.039216
21
-6.499998
31
0
39
0
210
0
220
0
230
1
0
LINE
5
BA
100
AcDbEntity
8
1
62
256
6
ByLayer
370
18
48
1
60
1
100
AcDbLine
10
-44.039216
20
-6.499998
30
0
11
-44.960784
21
-6.500002
31
0
39
0
210
0
220
0
230
1
0
LINE
5
BB
100
AcDbEntity
8
1
62
256
6
ByLayer
370
18
48
1
60
1
100
AcDbLine
10
-44.960784
20
-6.500002
30
0
11
-44.5
21
-3
31
0
39
0
210
0
220
0
230
1
0
LINE
5
BC
100
AcDbEntity
8
SK2
62
256
6
ByLayer
370
13
48
1
60
0
100
AcDbLine
10
68.543178
20
1.491682
30
0
11
75.094853
21
19.483972
31
0
39
0
210
0
220
0
230
1
0
LINE
5
BD
100
AcDbEntity
8
SK2
62
256
6
ByLayer
370
13
48
1
60
0
100
AcDbLine
10
68.543178
20
-1.491682
30
0
11
75.094853
21
-19.483972
31
0
39
0
210
0
220
0
230
1
0
LINE
5
BE
100
AcDbEntity
8
1
62
256
6
ByLayer
370
18
48
1
60
1
100
AcDbLine
10
74.410535
20
17.604688
30
0
11
77.817613
21
16.680499
31
0
39
0
210
0
220
0
230
1
0
LINE
5
BF
100
AcDbEntity
8
1
62
256
6
ByLayer
370
18
48
1
60
1
100
AcDbLine
10
77.817613
20
16.680499
30
0
11
77.462325
21
15.830171
31
0
39
0
210
0
220
0
230
1
0
LINE
5
C0
100
AcDbEntity
8
1
62
256
6
ByLayer
370
18
48
1
60
1
100
AcDbLine
10
77.462325
20
15.830171
30
0
11
74.410535
21
17.604688
31
0
39
0
210
0
220
0
230
1
0
LINE
5
C1
100
AcDbEntity
8
1
62
256
6
ByLayer
370
18
48
1
60
1
100
AcDbLine
10
74.410535
20
-17.604688
30
0
11
77.462322
21
-15.830172
31
0
39
0
210
0
220
0
230
1
0
LINE
5
C2
100
AcDbEntity
8
1
62
256
6
ByLayer
370
18
48
1
60
1
100
AcDbLine
10
77.462322
20
-15.830172
30
0
11
77.817616
21
-16.680497
31
0
39
0
210
0
220
0
230
1
0
LINE
5
C3
100
AcDbEntity
8
1
62
256
6
ByLayer
370
18
48
1
60
1
100
AcDbLine
10
77.817616
20
-16.680497
30
0
11
74.410535
21
-17.604688
31
0
39
0
210
0
220
0
230
1
0
LINE
5
11B
100
AcDbEntity
8
1
62
256
6
ByLayer
370
13
48
0.05
60
0
100
AcDbLine
10
-42.5
20
0
30
0
11
73.421904
21
0
31
0
39
0
210
0
220
0
230
1
0
LINE
5
120
100
AcDbEntity
8
1
62
256
6
ByLayer
370
18
48
1
60
1
100
AcDbLine
10
75.5
20
2.9
30
0
11
75.039216
21
6.399998
31
0
39
0
210
0
220
0
230
1
0
LINE
5
121
100
AcDbEntity
8
1
62
256
6
ByLayer
370
18
48
1
60
1
100
AcDbLine
10
75.039216
20
6.399998
30
0
11
75.960784
21
6.400002
31
0
39
0
210
0
220
0
230
1
0
LINE
5
122
100
AcDbEntity
8
1
62
256
6
ByLayer
370
18
48
1
60
1
100
AcDbLine
10
75.960784
20
6.400002
30
0
11
75.5
21
2.9
31
0
39
0
210
0
220
0
230
1
0
LINE
5
124
100
AcDbEntity
8
1
62
256
6
ByLayer
370
18
48
1
60
1
100
AcDbLine
10
75.5
20
-2.9
30
0
11
75.960784
21
-6.399998
31
0
39
0
210
0
220
0
230
1
0
LINE
5
125
100
AcDbEntity
8
1
62
256
6
ByLayer
370
18
48
1
60
1
100
AcDbLine
10
75.960784
20
-6.399998
30
0
11
75.039216
21
-6.400002
31
0
39
0
210
0
220
0
230
1
0
LINE
5
126
100
AcDbEntity
8
1
62
256
6
ByLayer
370
18
48
1
60
1
100
AcDbLine
10
75.039216
20
-6.400002
30
0
11
75.5
21
-2.9
31
0
39
0
210
0
220
0
230
1
0
LINE
5
12A
100
AcDbEntity
8
1
62
256
6
ByLayer
370
18
48
1
60
1
100
AcDbLine
10
-44.5
20
3
30
0
11
-44.960784
21
6.499998
31
0
39
0
210
0
220
0
230
1
0
LINE
5
12B
100
AcDbEntity
8
1
62
256
6
ByLayer
370
18
48
1
60
1
100
AcDbLine
10
-44.960784
20
6.499998
30
0
11
-44.039216
21
6.500002
31
0
39
0
210
0
220
0
230
1
0
LINE
5
12C
100
AcDbEntity
8
1
62
256
6
ByLayer
370
18
48
1
60
1
100
AcDbLine
10
-44.039216
20
6.500002
30
0
11
-44.5
21
3
31
0
39
0
210
0
220
0
230
1
0
LINE
5
12E
100
AcDbEntity
8
1
62
256
6
ByLayer
370
18
48
1
60
1
100
AcDbLine
10
-44.5
20
-3
30
0
11
-44.039216
21
-6.499998
31
0
39
0
210
0
220
0
230
1
0
LINE
5
12F
100
AcDbEntity
8
1
62
256
6
ByLayer
370
18
48
1
60
1
100
AcDbLine
10
-44.039216
20
-6.499998
30
0
11
-44.960784
21
-6.500002
31
0
39
0
210
0
220
0
230
1
0
LINE
5
130
100
AcDbEntity
8
1
62
256
6
ByLayer
370
18
48
1
60
1
100
AcDbLine
10
-44.960784
20
-6.500002
30
0
11
-44.5
21
-3
31
0
39
0
210
0
220
0
230
1
0
LINE
5
133
100
AcDbEntity
8
1
62
256
6
ByLayer
370
18
48
1
60
1
100
AcDbLine
10
74.410535
20
17.604688
30
0
11
77.817613
21
16.680499
31
0
39
0
210
0
220
0
230
1
0
LINE
5
134
100
AcDbEntity
8
1
62
256
6
ByLayer
370
18
48
1
60
1
100
AcDbLine
10
77.817613
20
16.680499
30
0
11
77.462325
21
15.830171
31
0
39
0
210
0
220
0
230
1
0
LINE
5
135
100
AcDbEntity
8
1
62
256
6
ByLayer
370
18
48
1
60
1
100
AcDbLine
10
77.462325
20
15.830171
30
0
11
74.410535
21
17.604688
31
0
39
0
210
0
220
0
230
1
0
LINE
5
137
100
AcDbEntity
8
1
62
256
6
ByLayer
370
18
48
1
60
1
100
AcDbLine
10
74.410535
20
-17.604688
30
0
11
77.462322
21
-15.830172
31
0
39
0
210
0
220
0
230
1
0
LINE
5
138
100
AcDbEntity
8
1
62
256
6
ByLayer
370
18
48
1
60
1
100
AcDbLine
10
77.462322
20
-15.830172
30
0
11
77.817616
21
-16.680497
31
0
39
0
210
0
220
0
230
1
0
LINE
5
139
100
AcDbEntity
8
1
62
256
6
ByLayer
370
18
48
1
60
1
100
AcDbLine
10
77.817616
20
-16.680497
30
0
11
74.410535
21
-17.604688
31
0
39
0
210
0
220
0
230
1
0
MTEXT
5
11C
100
AcDbEntity
8
2
62
256
6
ByLayer
370
18
48
1
60
0
100
AcDbMText
10
74.158886
20
16.558437
30
0
210
0
220
0
230
1
1
%%c
40
3
41
0
44
1.084337
50
90
71
7
72
5
7
iso_b_vert
0
MTEXT
5
11F
100
AcDbEntity
8
2
62
256
6
ByLayer
370
18
48
1
60
0
100
AcDbMText
10
74.158886
20
22.535
30
0
210
0
220
0
230
1
1
\W0.7121;5.8
40
3
41
0
44
1.084337
50
90
71
7
72
5
7
iso_b_vert
0
MTEXT
5
128
100
AcDbEntity
8
SK2
62
256
6
ByLayer
370
18
48
1
60
0
100
AcDbMText
10
-45.841114
20
6.658437
30
0
210
0
220
0
230
1
1
%%c
40
3
41
0
44
1.084337
50
90
71
7
72
5
7
iso_b_vert
0
MTEXT
5
129
100
AcDbEntity
8
SK2
62
256
6
ByLayer
370
18
48
1
60
0
100
AcDbMText
10
-45.841114
20
12.635
30
0
210
0
220
0
230
1
1
\W0.5404;6
40
3
41
0
44
1.084337
50
90
71
7
72
5
7
iso_b_vert
0
MTEXT
5
132
100
AcDbEntity
8
SK2
62
256
6
ByLayer
370
18
48
1
60
0
100
AcDbMText
10
83.294871
20
-2.114886
30
0
210
0
220
0
230
1
1
\W0.7071;140%%d
40
3
41
0
44
1.084337
50
0
71
7
72
5
7
iso_b_vert
0
MTEXT
5
13B
100
AcDbEntity
8
SK6
62
256
6
ByLayer
370
18
48
1
60
0
100
AcDbMText
10
-9.080947
20
-77.114886
30
0
210
0
220
0
230
1
1
\W0.7562;860.1-0580-047A1-SD S2BM
40
3
41
0
44
1.084337
50
0
71
7
72
5
7
iso_b_vert
0
HATCH
5
123
100
AcDbEntity
8
2
62
256
6
ByLayer
370
13
48
1
60
0
100
AcDbHatch
10
0
20
0
30
0
210
0
220
0
230
1
2
ANSI31
70
0
71
0
91
1
92
5
93
3
72
1
10
75.5
20
2.89999999999998
11
75.0392162584472
21
6.39999830744679
72
1
10
75.0392162584472
20
6.39999830744679
11
75.9607837415528
21
6.40000169255316
72
1
10
75.9607837415528
20
6.40000169255316
11
75.5
21
2.89999999999998
97
0
75
0
76
1
52
0
41
0.0062
77
0
78
1
53
45
43
0
44
0
45
-0.0139193969876572
46
0.0139193969876572
79
0
47
0
98
1
10
0
20
0
0
HATCH
5
127
100
AcDbEntity
8
2
62
256
6
ByLayer
370
13
48
1
60
0
100
AcDbHatch
10
0
20
0
30
0
210
0
220
0
230
1
2
ANSI31
70
0
71
0
91
1
92
5
93
3
72
1
10
75.5
20
-2.90000000000001
11
75.9607837415528
21
-6.39999830744682
72
1
10
75.9607837415528
20
-6.39999830744682
11
75.0392162584472
21
-6.40000169255319
72
1
10
75.0392162584472
20
-6.40000169255319
11
75.5
21
-2.90000000000001
97
0
75
0
76
1
52
0
41
0.0062
77
0
78
1
53
45
43
0
44
0
45
-0.0139193969876572
46
0.0139193969876572
79
0
47
0
98
1
10
0
20
0
0
HATCH
5
12D
100
AcDbEntity
8
SK2
62
256
6
ByLayer
370
13
48
1
60
0
100
AcDbHatch
10
0
20
0
30
0
210
0
220
0
230
1
2
ANSI31
70
0
71
0
91
1
92
5
93
3
72
1
10
-44.5
20
3
11
-44.9607837415528
21
6.49999830744682
72
1
10
-44.9607837415528
20
6.49999830744682
11
-44.0392162584472
21
6.50000169255318
72
1
10
-44.0392162584472
20
6.50000169255318
11
-44.5
21
3
97
0
75
0
76
1
52
0
41
0.0062
77
0
78
1
53
45
43
0
44
0
45
-0.0139193969876572
46
0.0139193969876572
79
0
47
0
98
1
10
0
20
0
0
HATCH
5
131
100
AcDbEntity
8
SK2
62
256
6
ByLayer
370
13
48
1
60
0
100
AcDbHatch
10
0
20
0
30
0
210
0
220
0
230
1
2
ANSI31
70
0
71
0
91
1
92
5
93
3
72
1
10
-44.5
20
-3
11
-44.0392162584472
21
-6.49999830744682
72
1
10
-44.0392162584472
20
-6.49999830744682
11
-44.9607837415528
21
-6.50000169255318
72
1
10
-44.9607837415528
20
-6.50000169255318
11
-44.5
21
-3
97
0
75
0
76
1
52
0
41
0.0062
77
0
78
1
53
45
43
0
44
0
45
-0.0139193969876572
46
0.0139193969876572
79
0
47
0
98
1
10
0
20
0
0
HATCH
5
136
100
AcDbEntity
8
SK2
62
256
6
ByLayer
370
13
48
1
60
0
100
AcDbHatch
10
0
20
0
30
0
210
0
220
0
230
1
2
ANSI31
70
0
71
0
91
1
92
5
93
3
72
1
10
74.4105345989424
20
17.6046878190652
11
77.8176131337997
21
16.6804986252717
72
1
10
77.8176131337997
20
16.6804986252717
11
77.4623248846492
21
15.8301711084028
72
1
10
77.4623248846492
20
15.8301711084028
11
74.4105345989424
21
17.6046878190652
97
0
75
0
76
1
52
0
41
0.0062
77
0
78
1
53
45
43
0
44
0
45
-0.0139193969876572
46
0.0139193969876572
79
0
47
0
98
1
10
0
20
0
0
HATCH
5
13A
100
AcDbEntity
8
SK2
62
256
6
ByLayer
370
13
48
1
60
0
100
AcDbHatch
10
0
20
0
30
0
210
0
220
0
230
1
2
ANSI31
70
0
71
0
91
1
92
5
93
3
72
1
10
74.4105345989424
20
-17.6046878190652
11
77.4623217612266
21
-15.8301724134609
72
1
10
77.4623217612266
20
-15.8301724134609
11
77.8176162572223
21
-16.6804973202137
72
1
10
77.8176162572223
20
-16.6804973202137
11
74.4105345989424
21
-17.6046878190652
97
0
75
0
76
1
52
0
41
0.0062
77
0
78
1
53
45
43
0
44
0
45
-0.0139193969876572
46
0.0139193969876572
79
0
47
0
98
1
10
0
20
0
0
DIMENSION
5
13E
100
AcDbEntity
8
SK2
62
256
6
ByLayer
370
18
48
1
60
0
100
AcDbDimension
2
_U0
10
20.6
20
-18.506187
30
0
11
44.3
21
-18.506187
31
0
70
32
71
1
72
1
41
1
210
0
220
0
230
1
3
Standard
100
AcDbAlignedDimension
13
68
23
-2.9
33
0
14
20.6
24
-2.9
34
0
50
0
100
AcDbRotatedDimension
1001
ACAD
1000
DSTYLE
1002
{
1070
   371
1070
    13
1070
   372
1070
    13
1070
   170
1070
     0
1070
   144
1040
1.0
1070
   277
1070
     2
1070
   284
1070
     8
1070
   278
1070
    46
1070
   146
1040
1.166667
1070
   345
1005
16
1070
   347
1005
16
1070
   346
1005
16
1070
   344
1005
0
1070
   343
1005
0
1070
   172
1070
     1
1070
    76
1070
     0
1070
    75
1070
     0
1070
   282
1070
     0
1070
   281
1070
     0
1070
     3
1000

1070
    71
1070
     0
1070
    74
1070
     0
1070
   279
1070
     0
1070
   173
1070
     1
1070
   340
1005
11D
1070
   271
1070
     2
1070
   272
1070
     2
1070
    77
1070
     1
1070
    73
1070
     1
1070
   171
1070
     3
1070
   274
1070
     4
1070
   177
1070
     2
1070
   176
1070
     2
1070
   178
1070
     2
1070
    78
1070
     8
1070
    48
1040
-0.1
1070
    41
1040
3.5
1070
   147
1040
1.5
1070
    42
1040
1.5875
1070
    44
1040
2.0
1070
   140
1040
3.0
1002
}
1001
ACAD_DSTYLE_DIM_LINETYPE
1070
   380
1005
16
1001
ACAD_DSTYLE_DIM_EXT1_LINETYPE
1070
   381
1005
16
1001
ACAD_DSTYLE_DIM_EXT2_LINETYPE
1070
   382
1005
16
0
DIMENSION
5
159
100
AcDbEntity
8
SK2
62
256
6
ByLayer
370
18
48
1
60
0
100
AcDbDimension
2
_U1
10
6
20
-28.506187
30
0
11
37
21
-28.506187
31
0
70
32
71
1
72
1
41
1
210
0
220
0
230
1
3
Standard
100
AcDbAlignedDimension
13
68
23
-2.9
33
0
14
6
24
-2.9
34
0
50
0
100
AcDbRotatedDimension
1001
ACAD
1000
DSTYLE
1002
{
1070
   371
1070
    13
1070
   372
1070
    13
1070
     3
1000

1070
   170
1070
     0
1070
   144
1040
1.0
1070
   277
1070
     2
1070
   284
1070
     8
1070
   278
1070
    46
1070
   146
1040
1.166667
1070
   345
1005
16
1070
   347
1005
16
1070
   346
1005
16
1070
   344
1005
0
1070
   343
1005
0
1070
   172
1070
     1
1070
    76
1070
     0
1070
    75
1070
     0
1070
   282
1070
     0
1070
   281
1070
     0
1070
    71
1070
     0
1070
    74
1070
     0
1070
   279
1070
     0
1070
   173
1070
     1
1070
   340
1005
11D
1070
   271
1070
     2
1070
   272
1070
     2
1070
    77
1070
     1
1070
    73
1070
     1
1070
   171
1070
     3
1070
   274
1070
     4
1070
   177
1070
     2
1070
   176
1070
     2
1070
   178
1070
     2
1070
    78
1070
     8
1070
    48
1040
-0.1
1070
    41
1040
3.5
1070
   147
1040
1.5
1070
    42
1040
1.5875
1070
    44
1040
2.0
1070
   140
1040
3.0
1002
}
1001
ACAD_DSTYLE_DIM_LINETYPE
1070
   380
1005
16
1001
ACAD_DSTYLE_DIM_EXT1_LINETYPE
1070
   381
1005
16
1001
ACAD_DSTYLE_DIM_EXT2_LINETYPE
1070
   382
1005
16
0
DIMENSION
5
171
100
AcDbEntity
8
SK2
62
256
6
ByLayer
370
18
48
1
60
0
100
AcDbDimension
2
_U2
10
0
20
-36.506187
30
0
11
-18
21
-36.506187
31
0
70
32
71
1
72
1
41
1
210
0
220
0
230
1
3
Standard
100
AcDbAlignedDimension
13
-36
23
-3
33
0
14
0
24
-3
34
0
50
0
100
AcDbRotatedDimension
1001
ACAD
1000
DSTYLE
1002
{
1070
   371
1070
    13
1070
   372
1070
    13
1070
     3
1000

1070
   170
1070
     0
1070
   144
1040
1.0
1070
   277
1070
     2
1070
   284
1070
     8
1070
   278
1070
    46
1070
   146
1040
1.166667
1070
   345
1005
16
1070
   347
1005
16
1070
   346
1005
16
1070
   344
1005
0
1070
   343
1005
0
1070
   172
1070
     1
1070
    76
1070
     0
1070
    75
1070
     0
1070
   282
1070
     0
1070
   281
1070
     0
1070
    71
1070
     0
1070
    74
1070
     0
1070
   279
1070
     0
1070
   173
1070
     1
1070
   340
1005
11D
1070
   271
1070
     2
1070
   272
1070
     2
1070
    77
1070
     1
1070
    73
1070
     1
1070
   171
1070
     3
1070
   274
1070
     4
1070
   177
1070
     2
1070
   176
1070
     2
1070
   178
1070
     2
1070
    78
1070
     8
1070
    48
1040
-0.1
1070
    41
1040
3.5
1070
   147
1040
1.5
1070
    42
1040
1.5875
1070
    44
1040
2.0
1070
   140
1040
3.0
1002
}
1001
ACAD_DSTYLE_DIM_LINETYPE
1070
   380
1005
16
1001
ACAD_DSTYLE_DIM_EXT1_LINETYPE
1070
   381
1005
16
1001
ACAD_DSTYLE_DIM_EXT2_LINETYPE
1070
   382
1005
16
0
DIMENSION
5
189
100
AcDbEntity
8
SK2
62
256
6
ByLayer
370
18
48
1
60
0
100
AcDbDimension
2
_U3
10
68
20
-44.506187
30
0
11
16
21
-44.506187
31
0
70
32
71
1
72
1
41
1
210
0
220
0
230
1
3
Standard
100
AcDbAlignedDimension
13
-36
23
-3
33
0
14
68
24
-2.9
34
0
50
0
100
AcDbRotatedDimension
1001
ACAD
1000
DSTYLE
1002
{
1070
   371
1070
    13
1070
   372
1070
    13
1070
     3
1000

1070
   170
1070
     0
1070
   144
1040
1.0
1070
   277
1070
     2
1070
   284
1070
     8
1070
   278
1070
    46
1070
   146
1040
1.166667
1070
   345
1005
16
1070
   347
1005
16
1070
   346
1005
16
1070
   344
1005
0
1070
   343
1005
0
1070
   172
1070
     1
1070
    76
1070
     0
1070
    75
1070
     0
1070
   282
1070
     0
1070
   281
1070
     0
1070
    71
1070
     0
1070
    74
1070
     0
1070
   279
1070
     0
1070
   173
1070
     1
1070
   340
1005
11D
1070
   271
1070
     2
1070
   272
1070
     2
1070
    77
1070
     1
1070
    73
1070
     1
1070
   171
1070
     3
1070
   274
1070
     4
1070
   177
1070
     2
1070
   176
1070
     2
1070
   178
1070
     2
1070
    78
1070
     8
1070
    48
1040
-0.1
1070
    41
1040
3.5
1070
   147
1040
1.5
1070
    42
1040
1.5875
1070
    44
1040
2.0
1070
   140
1040
3.0
1002
}
1001
ACAD_DSTYLE_DIM_LINETYPE
1070
   380
1005
16
1001
ACAD_DSTYLE_DIM_EXT1_LINETYPE
1070
   381
1005
16
1001
ACAD_DSTYLE_DIM_EXT2_LINETYPE
1070
   382
1005
16
0
DIMENSION
5
1A1
100
AcDbEntity
8
2
62
256
6
ByLayer
370
18
48
1
60
0
100
AcDbDimension
2
_U4
10
0
20
-36.506187
30
0
11
34
21
-36.506187
31
0
70
32
71
1
72
1
41
1
210
0
220
0
230
1
3
Standard
100
AcDbAlignedDimension
13
68
23
-2.9
33
0
14
0
24
-2.9
34
0
50
0
100
AcDbRotatedDimension
1001
ACAD
1000
DSTYLE
1002
{
1070
   371
1070
    13
1070
   372
1070
    13
1070
     3
1000

1070
   170
1070
     0
1070
   144
1040
1.0
1070
   277
1070
     2
1070
   284
1070
     8
1070
   278
1070
    46
1070
   146
1040
1.166667
1070
   345
1005
16
1070
   347
1005
16
1070
   346
1005
16
1070
   344
1005
0
1070
   343
1005
0
1070
   172
1070
     1
1070
    76
1070
     0
1070
    75
1070
     0
1070
   282
1070
     0
1070
   281
1070
     0
1070
    71
1070
     0
1070
    74
1070
     0
1070
   279
1070
     0
1070
   173
1070
     1
1070
   340
1005
11D
1070
   271
1070
     2
1070
   272
1070
     2
1070
    77
1070
     1
1070
    73
1070
     1
1070
   171
1070
     3
1070
   274
1070
     4
1070
   177
1070
     2
1070
   176
1070
     2
1070
   178
1070
     2
1070
    78
1070
     8
1070
    48
1040
-0.1
1070
    41
1040
3.5
1070
   147
1040
1.5
1070
    42
1040
1.5875
1070
    44
1040
2.0
1070
   140
1040
3.0
1002
}
1001
ACAD_DSTYLE_DIM_LINETYPE
1070
   380
1005
16
1001
ACAD_DSTYLE_DIM_EXT1_LINETYPE
1070
   381
1005
16
1001
ACAD_DSTYLE_DIM_EXT2_LINETYPE
1070
   382
1005
16
0
ENDSEC
0
SECTION
2
OBJECTS
0
DICTIONARY
5
229
330
0
100
AcDbDictionary
280
0
281
1
3
ACAD_GROUP
350
22a
3
ACAD_MLINESTYLE
350
22b
0
DICTIONARY
5
22a
330
0
100
AcDbDictionary
280
0
281
1
0
DICTIONARY
5
22b
330
0
100
AcDbDictionary
280
0
281
1
3
Standard
350
18
0
MLINESTYLE
5
18
330
22b
100
AcDbMlineStyle
2
Standard
70
0
3

62
256
51
90
52
90
71
2
49
-0.5
62
256
6
ByLayer
49
0.5
62
256
6
ByLayer
0
RASTERVARIABLES
5
217
330

100
AcDbRasterVariables
90
0
70
1
71
1
72
1
0
ENDSEC
0
EOF
