0
SECTION
2
HEADER
9
$ACADVER
1
AC1015
9
$DWGCODEPAGE
3
ANSI_1252
9
$HANDSEED
5
22c
9
$ANGBASE
50
0
9
$ANGDIR
70
0
9
$ATTMODE
70
1
9
$AUNITS
70
0
9
$AUPREC
70
0
9
$CECOLOR
62
256
9
$CELTSCALE
40
1
9
$CELTYPE
6
ByLayer
9
$CELWEIGHT
370
18
9
$CLAYER
8
0
9
$CMLJUST
70
0
9
$CMLSCALE
40
1
9
$CMLSTYLE
2
Standard
9
$DIMSTYLE
2
Standard
9
$TEXTSIZE
40
0.2
9
$TEXTSTYLE
7
Standard
9
$LUNITS
70
2
9
$LUPREC
70
4
9
$EXTNAMES
290
1
9
$INSUNITS
70
4
9
$LTSCALE
40
1
9
$LWDISPLAY
290
1
9
$PDMODE
70
0
9
$PDSIZE
40
0
9
$PLINEGEN
70
0
0
ENDSEC
0
SECTION
2
CLASSES
0
CLASS
1
RASTERVARIABLES
2
AcDbRasterVariables
3
ISM
90
0
280
0
281
0
0
ENDSEC
0
SECTION
2
TABLES
0
TABLE
2
VPORT
5
222
100
AcDbSymbolTable
0
VPORT
5
1
100
AcDbSymbolTableRecord
100
AcDbViewportTableRecord
2
*Active
70
0
10
0
20
0
11
1
21
1
12
-1
22
1
13
0
23
0
14
0.5
24
0.5
15
10
25
10
16
0
26
0
36
1
17
0
27
0
37
0
0
ENDTAB
0
TABLE
2
LTYPE
5
223
100
AcDbSymbolTable
0
LTYPE
5
14
100
AcDbSymbolTableRecord
100
AcDbLinetypeTableRecord
70
0
2
ByBlock
3

72
65
73
0
40
0
0
LTYPE
5
15
100
AcDbSymbolTableRecord
100
AcDbLinetypeTableRecord
70
0
2
ByLayer
3

72
65
73
0
40
0
0
LTYPE
5
16
100
AcDbSymbolTableRecord
100
AcDbLinetypeTableRecord
70
0
2
Continuous
3
Solid line
72
65
73
0
40
0
0
LTYPE
5
6E
100
AcDbSymbolTableRecord
100
AcDbLinetypeTableRecord
70
0
2
CENTER
3
____ _ ____ _ ____ _ ____
72
65
73
4
40
47.5
49
22
74
0
49
-8.5
74
0
49
8.5
74
0
49
-8.5
74
0
0
LTYPE
5
6F
100
AcDbSymbolTableRecord
100
AcDbLinetypeTableRecord
70
0
2
DASHED
3
__ __ __ __ __ __ __ __ __
72
65
73
2
40
25.72
49
12.86
74
0
49
-12.86
74
0
0
ENDTAB
0
TABLE
2
LAYER
5
224
100
AcDbSymbolTable
0
LAYER
5
10
100
AcDbSymbolTableRecord
100
AcDbLayerTableRecord
2
0
70
0
62
7
6
Continuous
290
1
370
-3
390
0
0
LAYER
5
71
100
AcDbSymbolTableRecord
100
AcDbLayerTableRecord
2
80
70
0
62
-6
6
Continuous
290
1
370
-3
390
0
0
LAYER
5
73
100
AcDbSymbolTableRecord
100
AcDbLayerTableRecord
2
81
70
0
62
-3
6
Continuous
290
1
370
-3
390
0
0
LAYER
5
75
100
AcDbSymbolTableRecord
100
AcDbLayerTableRecord
2
1
70
0
62
4
6
Continuous
290
1
370
-3
390
0
0
LAYER
5
83
100
AcDbSymbolTableRecord
100
AcDbLayerTableRecord
2
4
70
0
62
-2
6
CENTER
290
1
370
-3
390
0
0
LAYER
5
A6
100
AcDbSymbolTableRecord
100
AcDbLayerTableRecord
2
2
70
0
62
7
6
Continuous
290
1
370
-3
390
0
0
LAYER
5
137
100
AcDbSymbolTableRecord
100
AcDbLayerTableRecord
2
Defpoints
70
0
62
7
6
Continuous
290
0
370
-3
390
0
0
LAYER
5
20e
100
AcDbSymbolTableRecord
100
AcDbLayerTableRecord
2
SK4
70
0
62
2
6
CENTER
290
1
370
-3
390
0
0
LAYER
5
20f
100
AcDbSymbolTableRecord
100
AcDbLayerTableRecord
2
SK1
70
0
62
4
6
Continuous
290
1
370
-3
390
0
0
LAYER
5
210
100
AcDbSymbolTableRecord
100
AcDbLayerTableRecord
2
SK2
70
0
62
7
6
Continuous
290
1
370
-3
390
0
0
LAYER
5
211
100
AcDbSymbolTableRecord
100
AcDbLayerTableRecord
2
SK6
70
0
62
5
6
Continuous
290
1
370
-3
390
0
0
ENDTAB
0
TABLE
2
STYLE
5
225
100
AcDbSymbolTable
0
STYLE
5
11
100
AcDbSymbolTableRecord
100
AcDbTextStyleTableRecord
2
Standard
3
txt
70
0
71
0
40
0
41
1
42
0
50
0
0
STYLE
5
113
100
AcDbSymbolTableRecord
100
AcDbTextStyleTableRecord
2
iso_b_vert
3
simplex.shx
70
0
71
0
40
0
41
1
42
0
50
0
0
STYLE
5
114
100
AcDbSymbolTableRecord
100
AcDbTextStyleTableRecord
2
DWGDirectTextStyle
3
simplex
70
0
71
0
40
0
41
1
42
0
50
0
0
ENDTAB
0
TABLE
2
DIMSTYLE
5
226
100
AcDbSymbolTable
100
AcDbDimStyleTable
0
DIMSTYLE
105
27
100
AcDbSymbolTableRecord
100
AcDbDimStyleTableRecord
2
Standard
70
0
3
<>
41
0.18
42
0.0625
44
0.18
140
0.18
147
0.09
73
0
74
0
77
1
271
2
275
0
278
52
280
0
340
11
0
ENDTAB
0
TABLE
2
VIEW
5
227
100
AcDbSymbolTable
0
ENDTAB
0
TABLE
2
UCS
5
228
100
AcDbSymbolTable
0
ENDTAB
0
TABLE
2
APPID
5
229
100
AcDbSymbolTable
0
APPID
5
12
100
AcDbSymbolTableRecord
100
AcDbRegAppTableRecord
2
ACAD
70
0
0
APPID
5
133
100
AcDbSymbolTableRecord
100
AcDbRegAppTableRecord
2
ACAD_DSTYLE_DIMBREAK
70
0
0
APPID
5
1CD
100
AcDbSymbolTableRecord
100
AcDbRegAppTableRecord
2
ACAD_DSTYLE_DIM_LINETYPE
70
0
0
APPID
5
1CE
100
AcDbSymbolTableRecord
100
AcDbRegAppTableRecord
2
ACAD_DSTYLE_DIM_EXT1_LINETYPE
70
0
0
APPID
5
1CF
100
AcDbSymbolTableRecord
100
AcDbRegAppTableRecord
2
ACAD_DSTYLE_DIM_EXT2_LINETYPE
70
0
0
APPID
5
20A
100
AcDbSymbolTableRecord
100
AcDbRegAppTableRecord
2
ACAD_MLEADERVER
70
0
0
ENDTAB
0
TABLE
2
BLOCK_RECORD
5
22a
100
AcDbSymbolTable
0
BLOCK_RECORD
5
1F
100
AcDbSymbolTableRecord
100
AcDbBlockTableRecord
2
*Model_Space
340
0
70
0
0
BLOCK_RECORD
5
1B
100
AcDbSymbolTableRecord
100
AcDbBlockTableRecord
2
*Paper_Space
340
0
70
0
0
BLOCK_RECORD
5
23
100
AcDbSymbolTableRecord
100
AcDbBlockTableRecord
2
*Paper_Space0
340
0
70
0
0
BLOCK_RECORD
5
138
100
AcDbSymbolTableRecord
100
AcDbBlockTableRecord
2
*D1
340
0
70
0
0
BLOCK_RECORD
5
144
100
AcDbSymbolTableRecord
100
AcDbBlockTableRecord
2
_U0
340
0
70
0
0
BLOCK_RECORD
5
152
100
AcDbSymbolTableRecord
100
AcDbBlockTableRecord
2
*D3
340
0
70
0
0
BLOCK_RECORD
5
15E
100
AcDbSymbolTableRecord
100
AcDbBlockTableRecord
2
_U1
340
0
70
0
0
BLOCK_RECORD
5
16A
100
AcDbSymbolTableRecord
100
AcDbBlockTableRecord
2
*D5
340
0
70
0
0
BLOCK_RECORD
5
176
100
AcDbSymbolTableRecord
100
AcDbBlockTableRecord
2
_U2
340
0
70
0
0
BLOCK_RECORD
5
182
100
AcDbSymbolTableRecord
100
AcDbBlockTableRecord
2
*D7
340
0
70
0
0
BLOCK_RECORD
5
18E
100
AcDbSymbolTableRecord
100
AcDbBlockTableRecord
2
_U3
340
0
70
0
0
BLOCK_RECORD
5
19A
100
AcDbSymbolTableRecord
100
AcDbBlockTableRecord
2
*D9
340
0
70
0
0
BLOCK_RECORD
5
1A6
100
AcDbSymbolTableRecord
100
AcDbBlockTableRecord
2
_U4
340
0
70
0
0
ENDTAB
0
ENDSEC
0
SECTION
2
BLOCKS
0
BLOCK
5
20
100
AcDbEntity
8
0
100
AcDbBlockBegin
2
*Model_Space
70
0
10
0
20
0
30
0
3
*Model_Space
0
ENDBLK
5
21
100
AcDbEntity
8
0
100
AcDbBlockEnd
0
BLOCK
5
1C
100
AcDbEntity
8
0
100
AcDbBlockBegin
2
*Paper_Space
70
0
10
0
20
0
30
0
3
*Paper_Space
0
ENDBLK
5
1D
100
AcDbEntity
8
0
100
AcDbBlockEnd
0
BLOCK
5
24
100
AcDbEntity
8
0
100
AcDbBlockBegin
2
*Paper_Space0
70
0
10
0
20
0
30
0
3
*Paper_Space0
0
ENDBLK
5
25
100
AcDbEntity
8
0
100
AcDbBlockEnd
0
BLOCK
5
139
100
AcDbEntity
8
0
100
AcDbBlockBegin
2
*D1
70
1
10
0
20
0
30
0
3
*D1
0
LINE
5
13B
100
AcDbEntity
8
0
62
256
6
ByLayer
370
-2
48
1
60
0
100
AcDbLine
10
46
20
-4.2875
30
0
11
46
21
-20.265705
31
0
39
0
210
0
220
0
230
1
0
LINE
5
13C
100
AcDbEntity
8
0
62
256
6
ByLayer
370
-2
48
1
60
0
100
AcDbLine
10
18.1
20
-4.2875
30
0
11
18.1
21
-20.265705
31
0
39
0
210
0
220
0
230
1
0
LINE
5
13D
100
AcDbEntity
8
0
62
256
6
ByLayer
370
-2
48
1
60
0
100
AcDbLine
10
42.5
20
-18.265705
30
0
11
21.6
21
-18.265705
31
0
39
0
210
0
220
0
230
1
0
SOLID
5
13E
100
AcDbEntity
8
0
62
256
6
ByLayer
370
-1
48
1
60
0
100
AcDbTrace
10
42.5
20
-18.849039
30
0
11
42.5
21
-17.682372
31
0
12
46
22
-18.265705
32
0
13
46
23
-18.265705
33
0
39
0
210
0
220
0
230
1
0
SOLID
5
13F
100
AcDbEntity
8
0
62
256
6
ByLayer
370
-1
48
1
60
0
100
AcDbTrace
10
21.6
20
-17.682372
30
0
11
21.6
21
-18.849039
31
0
12
18.1
22
-18.265705
32
0
13
18.1
23
-18.265705
33
0
39
0
210
0
220
0
230
1
0
MTEXT
5
140
100
AcDbEntity
8
0
62
256
6
ByLayer
370
18
48
1
60
0
100
AcDbMText
10
32.05
20
-12.265705
30
0
210
0
220
0
230
1
1
\A1;27.9
40
3
41
0
44
1
50
0
71
5
72
5
7
iso_b_vert
0
POINT
5
141
100
AcDbEntity
8
Defpoints
62
0
6
ByLayer
370
-1
48
1
60
0
100
AcDbPoint
10
46
20
-2.7
30
0
39
0
210
0
220
0
230
1
50
360
0
POINT
5
142
100
AcDbEntity
8
Defpoints
62
0
6
ByLayer
370
-1
48
1
60
0
100
AcDbPoint
10
18.1
20
-2.7
30
0
39
0
210
0
220
0
230
1
50
360
0
POINT
5
143
100
AcDbEntity
8
Defpoints
62
0
6
ByLayer
370
-1
48
1
60
0
100
AcDbPoint
10
18.1
20
-18.265705
30
0
39
0
210
0
220
0
230
1
50
360
0
ENDBLK
5
13A
100
AcDbEntity
8
0
100
AcDbBlockEnd
0
BLOCK
5
14D
100
AcDbEntity
8
0
100
AcDbBlockBegin
2
_U0
70
0
10
0
20
0
30
0
3
_U0
0
MTEXT
5
145
100
AcDbEntity
8
SK2
62
256
6
ByLayer
370
18
48
1
60
0
100
AcDbMText
10
28.688544
20
-16.068091
30
0
210
0
220
0
230
1
1
\W0.7457;27.9
40
3
41
0
44
1.084337
50
0
71
7
72
5
7
iso_b_vert
0
MTEXT
5
146
100
AcDbEntity
8
SK2
62
256
6
ByLayer
370
18
48
1
60
0
100
AcDbMText
10
26.588544
20
-16.068091
30
0
210
0
220
0
230
1
1
\W1.1313;{\H1.88x;(}
40
3
41
0
44
1.084337
50
0
71
7
72
5
7
iso_b_vert
0
MTEXT
5
147
100
AcDbEntity
8
SK2
62
256
6
ByLayer
370
18
48
1
60
0
100
AcDbMText
10
35.729456
20
-16.068091
30
0
210
0
220
0
230
1
1
\W1.1313;{\H1.88x;)}
40
3
41
0
44
1.084337
50
0
71
7
72
5
7
iso_b_vert
0
LINE
5
148
100
AcDbEntity
8
SK2
62
256
6
ByLayer
370
13
48
1
60
0
100
AcDbLine
10
46
20
-4.2875
30
0
11
46
21
-20.265705
31
0
39
0
210
0
220
0
230
1
0
LINE
5
149
100
AcDbEntity
8
SK2
62
256
6
ByLayer
370
13
48
1
60
0
100
AcDbLine
10
18.1
20
-4.2875
30
0
11
18.1
21
-20.265705
31
0
39
0
210
0
220
0
230
1
0
LINE
5
14A
100
AcDbEntity
8
SK2
62
256
6
ByLayer
370
13
48
1
60
0
100
AcDbLine
10
46
20
-18.265705
30
0
11
18.1
21
-18.265705
31
0
39
0
210
0
220
0
230
1
0
SOLID
5
14B
100
AcDbEntity
8
SK2
62
256
6
ByLayer
370
18
48
1
60
0
100
AcDbTrace
10
46
20
-18.265705
30
0
11
42.500002
21
-18.726489
31
0
12
42.499998
22
-17.804922
32
0
13
42.499998
23
-17.804922
33
0
39
0
210
0
220
0
230
1
0
SOLID
5
14C
100
AcDbEntity
8
SK2
62
256
6
ByLayer
370
18
48
1
60
0
100
AcDbTrace
10
18.1
20
-18.265705
30
0
11
21.599998
21
-17.804922
31
0
12
21.600002
22
-18.726489
32
0
13
21.600002
23
-18.726489
33
0
39
0
210
0
220
0
230
1
0
ENDBLK
5
14E
100
AcDbEntity
8
0
100
AcDbBlockEnd
0
BLOCK
5
153
100
AcDbEntity
8
0
100
AcDbBlockBegin
2
*D3
70
1
10
0
20
0
30
0
3
*D3
0
LINE
5
155
100
AcDbEntity
8
0
62
256
6
ByLayer
370
-2
48
1
60
0
100
AcDbLine
10
46
20
-4.2875
30
0
11
46
21
-30.265705
31
0
39
0
210
0
220
0
230
1
0
LINE
5
156
100
AcDbEntity
8
0
62
256
6
ByLayer
370
-2
48
1
60
0
100
AcDbLine
10
2
20
-4.2875
30
0
11
2
21
-30.265705
31
0
39
0
210
0
220
0
230
1
0
LINE
5
157
100
AcDbEntity
8
0
62
256
6
ByLayer
370
-2
48
1
60
0
100
AcDbLine
10
42.5
20
-28.265705
30
0
11
5.5
21
-28.265705
31
0
39
0
210
0
220
0
230
1
0
SOLID
5
158
100
AcDbEntity
8
0
62
256
6
ByLayer
370
-1
48
1
60
0
100
AcDbTrace
10
42.5
20
-28.849039
30
0
11
42.5
21
-27.682372
31
0
12
46
22
-28.265705
32
0
13
46
23
-28.265705
33
0
39
0
210
0
220
0
230
1
0
SOLID
5
159
100
AcDbEntity
8
0
62
256
6
ByLayer
370
-1
48
1
60
0
100
AcDbTrace
10
5.5
20
-27.682372
30
0
11
5.5
21
-28.849039
31
0
12
2
22
-28.265705
32
0
13
2
23
-28.265705
33
0
39
0
210
0
220
0
230
1
0
MTEXT
5
15A
100
AcDbEntity
8
0
62
256
6
ByLayer
370
18
48
1
60
0
100
AcDbMText
10
24
20
-22.265705
30
0
210
0
220
0
230
1
1
\A1;44
40
3
41
0
44
1
50
0
71
5
72
5
7
iso_b_vert
0
POINT
5
15B
100
AcDbEntity
8
Defpoints
62
0
6
ByLayer
370
-1
48
1
60
0
100
AcDbPoint
10
46
20
-2.7
30
0
39
0
210
0
220
0
230
1
50
360
0
POINT
5
15C
100
AcDbEntity
8
Defpoints
62
0
6
ByLayer
370
-1
48
1
60
0
100
AcDbPoint
10
2
20
-2.7
30
0
39
0
210
0
220
0
230
1
50
360
0
POINT
5
15D
100
AcDbEntity
8
Defpoints
62
0
6
ByLayer
370
-1
48
1
60
0
100
AcDbPoint
10
2
20
-28.265705
30
0
39
0
210
0
220
0
230
1
50
360
0
ENDBLK
5
154
100
AcDbEntity
8
0
100
AcDbBlockEnd
0
BLOCK
5
165
100
AcDbEntity
8
0
100
AcDbBlockBegin
2
_U1
70
0
10
0
20
0
30
0
3
_U1
0
MTEXT
5
15F
100
AcDbEntity
8
SK2
62
256
6
ByLayer
370
18
48
1
60
0
100
AcDbMText
10
22.051286
20
-27.380591
30
0
210
0
220
0
230
1
1
\W0.7685;44
40
3
41
0
44
1.084337
50
0
71
7
72
5
7
iso_b_vert
0
LINE
5
160
100
AcDbEntity
8
SK2
62
256
6
ByLayer
370
13
48
1
60
0
100
AcDbLine
10
46
20
-4.2875
30
0
11
46
21
-30.265705
31
0
39
0
210
0
220
0
230
1
0
LINE
5
161
100
AcDbEntity
8
SK2
62
256
6
ByLayer
370
13
48
1
60
0
100
AcDbLine
10
2
20
-4.2875
30
0
11
2
21
-30.265705
31
0
39
0
210
0
220
0
230
1
0
LINE
5
162
100
AcDbEntity
8
SK2
62
256
6
ByLayer
370
13
48
1
60
0
100
AcDbLine
10
46
20
-28.265705
30
0
11
2
21
-28.265705
31
0
39
0
210
0
220
0
230
1
0
SOLID
5
163
100
AcDbEntity
8
SK2
62
256
6
ByLayer
370
18
48
1
60
0
100
AcDbTrace
10
46
20
-28.265705
30
0
11
42.500002
21
-28.726489
31
0
12
42.499998
22
-27.804922
32
0
13
42.499998
23
-27.804922
33
0
39
0
210
0
220
0
230
1
0
SOLID
5
164
100
AcDbEntity
8
SK2
62
256
6
ByLayer
370
18
48
1
60
0
100
AcDbTrace
10
2
20
-28.265705
30
0
11
5.499998
21
-27.804922
31
0
12
5.500002
22
-28.726489
32
0
13
5.500002
23
-28.726489
33
0
39
0
210
0
220
0
230
1
0
ENDBLK
5
166
100
AcDbEntity
8
0
100
AcDbBlockEnd
0
BLOCK
5
16B
100
AcDbEntity
8
0
100
AcDbBlockBegin
2
*D5
70
1
10
0
20
0
30
0
3
*D5
0
LINE
5
16D
100
AcDbEntity
8
0
62
256
6
ByLayer
370
-2
48
1
60
0
100
AcDbLine
10
-36
20
-4.5875
30
0
11
-36
21
-38.265705
31
0
39
0
210
0
220
0
230
1
0
LINE
5
16E
100
AcDbEntity
8
0
62
256
6
ByLayer
370
-2
48
1
60
0
100
AcDbLine
10
0
20
-4.5875
30
0
11
0
21
-38.265705
31
0
39
0
210
0
220
0
230
1
0
LINE
5
16F
100
AcDbEntity
8
0
62
256
6
ByLayer
370
-2
48
1
60
0
100
AcDbLine
10
-32.5
20
-36.265705
30
0
11
-3.5
21
-36.265705
31
0
39
0
210
0
220
0
230
1
0
SOLID
5
170
100
AcDbEntity
8
0
62
256
6
ByLayer
370
-1
48
1
60
0
100
AcDbTrace
10
-32.5
20
-35.682372
30
0
11
-32.5
21
-36.849039
31
0
12
-36
22
-36.265705
32
0
13
-36
23
-36.265705
33
0
39
0
210
0
220
0
230
1
0
SOLID
5
171
100
AcDbEntity
8
0
62
256
6
ByLayer
370
-1
48
1
60
0
100
AcDbTrace
10
-3.5
20
-36.849039
30
0
11
-3.5
21
-35.682372
31
0
12
0
22
-36.265705
32
0
13
0
23
-36.265705
33
0
39
0
210
0
220
0
230
1
0
MTEXT
5
172
100
AcDbEntity
8
0
62
256
6
ByLayer
370
18
48
1
60
0
100
AcDbMText
10
-18
20
-30.265705
30
0
210
0
220
0
230
1
1
\A1;36
40
3
41
0
44
1
50
0
71
5
72
5
7
iso_b_vert
0
POINT
5
173
100
AcDbEntity
8
Defpoints
62
0
6
ByLayer
370
-1
48
1
60
0
100
AcDbPoint
10
-36
20
-3
30
0
39
0
210
0
220
0
230
1
50
360
0
POINT
5
174
100
AcDbEntity
8
Defpoints
62
0
6
ByLayer
370
-1
48
1
60
0
100
AcDbPoint
10
0
20
-3
30
0
39
0
210
0
220
0
230
1
50
360
0
POINT
5
175
100
AcDbEntity
8
Defpoints
62
0
6
ByLayer
370
-1
48
1
60
0
100
AcDbPoint
10
0
20
-36.265705
30
0
39
0
210
0
220
0
230
1
50
360
0
ENDBLK
5
16C
100
AcDbEntity
8
0
100
AcDbBlockEnd
0
BLOCK
5
17D
100
AcDbEntity
8
0
100
AcDbBlockBegin
2
_U2
70
0
10
0
20
0
30
0
3
_U2
0
MTEXT
5
177
100
AcDbEntity
8
SK2
62
256
6
ByLayer
370
18
48
1
60
0
100
AcDbMText
10
-19.632828
20
-35.380591
30
0
210
0
220
0
230
1
1
\W0.6740;36
40
3
41
0
44
1.084337
50
0
71
7
72
5
7
iso_b_vert
0
LINE
5
178
100
AcDbEntity
8
SK2
62
256
6
ByLayer
370
13
48
1
60
0
100
AcDbLine
10
-36
20
-4.5875
30
0
11
-36
21
-38.265705
31
0
39
0
210
0
220
0
230
1
0
LINE
5
179
100
AcDbEntity
8
SK2
62
256
6
ByLayer
370
13
48
1
60
0
100
AcDbLine
10
0
20
-4.5875
30
0
11
0
21
-38.265705
31
0
39
0
210
0
220
0
230
1
0
LINE
5
17A
100
AcDbEntity
8
SK2
62
256
6
ByLayer
370
13
48
1
60
0
100
AcDbLine
10
-36
20
-36.265705
30
0
11
0
21
-36.265705
31
0
39
0
210
0
220
0
230
1
0
SOLID
5
17B
100
AcDbEntity
8
SK2
62
256
6
ByLayer
370
18
48
1
60
0
100
AcDbTrace
10
-36
20
-36.265705
30
0
11
-32.500002
21
-35.804922
31
0
12
-32.499998
22
-36.726489
32
0
13
-32.499998
23
-36.726489
33
0
39
0
210
0
220
0
230
1
0
SOLID
5
17C
100
AcDbEntity
8
SK2
62
256
6
ByLayer
370
18
48
1
60
0
100
AcDbTrace
10
0
20
-36.265705
30
0
11
-3.499998
21
-36.726489
31
0
12
-3.500002
22
-35.804922
32
0
13
-3.500002
23
-35.804922
33
0
39
0
210
0
220
0
230
1
0
ENDBLK
5
17E
100
AcDbEntity
8
0
100
AcDbBlockEnd
0
BLOCK
5
183
100
AcDbEntity
8
0
100
AcDbBlockBegin
2
*D7
70
1
10
0
20
0
30
0
3
*D7
0
LINE
5
185
100
AcDbEntity
8
0
62
256
6
ByLayer
370
-2
48
1
60
0
100
AcDbLine
10
-36
20
-4.5875
30
0
11
-36
21
-46.265705
31
0
39
0
210
0
220
0
230
1
0
LINE
5
186
100
AcDbEntity
8
0
62
256
6
ByLayer
370
-2
48
1
60
0
100
AcDbLine
10
46
20
-4.2875
30
0
11
46
21
-46.265705
31
0
39
0
210
0
220
0
230
1
0
LINE
5
187
100
AcDbEntity
8
0
62
256
6
ByLayer
370
-2
48
1
60
0
100
AcDbLine
10
-32.5
20
-44.265705
30
0
11
42.5
21
-44.265705
31
0
39
0
210
0
220
0
230
1
0
SOLID
5
188
100
AcDbEntity
8
0
62
256
6
ByLayer
370
-1
48
1
60
0
100
AcDbTrace
10
-32.5
20
-43.682372
30
0
11
-32.5
21
-44.849039
31
0
12
-36
22
-44.265705
32
0
13
-36
23
-44.265705
33
0
39
0
210
0
220
0
230
1
0
SOLID
5
189
100
AcDbEntity
8
0
62
256
6
ByLayer
370
-1
48
1
60
0
100
AcDbTrace
10
42.5
20
-44.849039
30
0
11
42.5
21
-43.682372
31
0
12
46
22
-44.265705
32
0
13
46
23
-44.265705
33
0
39
0
210
0
220
0
230
1
0
MTEXT
5
18A
100
AcDbEntity
8
0
62
256
6
ByLayer
370
18
48
1
60
0
100
AcDbMText
10
5
20
-38.265705
30
0
210
0
220
0
230
1
1
\A1;82
40
3
41
0
44
1
50
0
71
5
72
5
7
iso_b_vert
0
POINT
5
18B
100
AcDbEntity
8
Defpoints
62
0
6
ByLayer
370
-1
48
1
60
0
100
AcDbPoint
10
-36
20
-3
30
0
39
0
210
0
220
0
230
1
50
360
0
POINT
5
18C
100
AcDbEntity
8
Defpoints
62
0
6
ByLayer
370
-1
48
1
60
0
100
AcDbPoint
10
46
20
-2.7
30
0
39
0
210
0
220
0
230
1
50
360
0
POINT
5
18D
100
AcDbEntity
8
Defpoints
62
0
6
ByLayer
370
-1
48
1
60
0
100
AcDbPoint
10
46
20
-44.265705
30
0
39
0
210
0
220
0
230
1
50
360
0
ENDBLK
5
184
100
AcDbEntity
8
0
100
AcDbBlockEnd
0
BLOCK
5
195
100
AcDbEntity
8
0
100
AcDbBlockBegin
2
_U3
70
0
10
0
20
0
30
0
3
_U3
0
MTEXT
5
18F
100
AcDbEntity
8
SK2
62
256
6
ByLayer
370
18
48
1
60
0
100
AcDbMText
10
3.367172
20
-43.380591
30
0
210
0
220
0
230
1
1
\W0.6740;82
40
3
41
0
44
1.084337
50
0
71
7
72
5
7
iso_b_vert
0
LINE
5
190
100
AcDbEntity
8
SK2
62
256
6
ByLayer
370
13
48
1
60
0
100
AcDbLine
10
-36
20
-4.5875
30
0
11
-36
21
-46.265705
31
0
39
0
210
0
220
0
230
1
0
LINE
5
191
100
AcDbEntity
8
SK2
62
256
6
ByLayer
370
13
48
1
60
0
100
AcDbLine
10
46
20
-4.2875
30
0
11
46
21
-46.265705
31
0
39
0
210
0
220
0
230
1
0
LINE
5
192
100
AcDbEntity
8
SK2
62
256
6
ByLayer
370
13
48
1
60
0
100
AcDbLine
10
-36
20
-44.265705
30
0
11
46
21
-44.265705
31
0
39
0
210
0
220
0
230
1
0
SOLID
5
193
100
AcDbEntity
8
SK2
62
256
6
ByLayer
370
18
48
1
60
0
100
AcDbTrace
10
-36
20
-44.265705
30
0
11
-32.500002
21
-43.804922
31
0
12
-32.499998
22
-44.726489
32
0
13
-32.499998
23
-44.726489
33
0
39
0
210
0
220
0
230
1
0
SOLID
5
194
100
AcDbEntity
8
SK2
62
256
6
ByLayer
370
18
48
1
60
0
100
AcDbTrace
10
46
20
-44.265705
30
0
11
42.500002
21
-44.726489
31
0
12
42.499998
22
-43.804922
32
0
13
42.499998
23
-43.804922
33
0
39
0
210
0
220
0
230
1
0
ENDBLK
5
196
100
AcDbEntity
8
0
100
AcDbBlockEnd
0
BLOCK
5
19B
100
AcDbEntity
8
0
100
AcDbBlockBegin
2
*D9
70
1
10
0
20
0
30
0
3
*D9
0
LINE
5
19D
100
AcDbEntity
8
0
62
256
6
ByLayer
370
-2
48
1
60
0
100
AcDbLine
10
46
20
-4.2875
30
0
11
46
21
-38.265705
31
0
39
0
210
0
220
0
230
1
0
LINE
5
19E
100
AcDbEntity
8
0
62
256
6
ByLayer
370
-2
48
1
60
0
100
AcDbLine
10
0
20
-4.2875
30
0
11
0
21
-38.265705
31
0
39
0
210
0
220
0
230
1
0
LINE
5
19F
100
AcDbEntity
8
0
62
256
6
ByLayer
370
-2
48
1
60
0
100
AcDbLine
10
42.5
20
-36.265705
30
0
11
3.5
21
-36.265705
31
0
39
0
210
0
220
0
230
1
0
SOLID
5
1A0
100
AcDbEntity
8
0
62
256
6
ByLayer
370
-1
48
1
60
0
100
AcDbTrace
10
42.5
20
-36.849039
30
0
11
42.5
21
-35.682372
31
0
12
46
22
-36.265705
32
0
13
46
23
-36.265705
33
0
39
0
210
0
220
0
230
1
0
SOLID
5
1A1
100
AcDbEntity
8
0
62
256
6
ByLayer
370
-1
48
1
60
0
100
AcDbTrace
10
3.5
20
-35.682372
30
0
11
3.5
21
-36.849039
31
0
12
0
22
-36.265705
32
0
13
0
23
-36.265705
33
0
39
0
210
0
220
0
230
1
0
MTEXT
5
1A2
100
AcDbEntity
8
0
62
256
6
ByLayer
370
18
48
1
60
0
100
AcDbMText
10
23
20
-30.265705
30
0
210
0
220
0
230
1
1
\A1;46
40
3
41
0
44
1
50
0
71
5
72
5
7
iso_b_vert
0
POINT
5
1A3
100
AcDbEntity
8
Defpoints
62
0
6
ByLayer
370
-1
48
1
60
0
100
AcDbPoint
10
46
20
-2.7
30
0
39
0
210
0
220
0
230
1
50
360
0
POINT
5
1A4
100
AcDbEntity
8
Defpoints
62
0
6
ByLayer
370
-1
48
1
60
0
100
AcDbPoint
10
0
20
-2.7
30
0
39
0
210
0
220
0
230
1
50
360
0
POINT
5
1A5
100
AcDbEntity
8
Defpoints
62
0
6
ByLayer
370
-1
48
1
60
0
100
AcDbPoint
10
0
20
-36.265705
30
0
39
0
210
0
220
0
230
1
50
360
0
ENDBLK
5
19C
100
AcDbEntity
8
0
100
AcDbBlockEnd
0
BLOCK
5
1AD
100
AcDbEntity
8
0
100
AcDbBlockBegin
2
_U4
70
0
10
0
20
0
30
0
3
_U4
0
MTEXT
5
1A7
100
AcDbEntity
8
2
62
256
6
ByLayer
370
18
48
1
60
0
100
AcDbMText
10
21.209229
20
-35.380591
30
0
210
0
220
0
230
1
1
\W0.7361;46
40
3
41
0
44
1.084337
50
0
71
7
72
5
7
iso_b_vert
0
LINE
5
1A8
100
AcDbEntity
8
2
62
256
6
ByLayer
370
13
48
1
60
0
100
AcDbLine
10
46
20
-4.2875
30
0
11
46
21
-38.265705
31
0
39
0
210
0
220
0
230
1
0
LINE
5
1A9
100
AcDbEntity
8
2
62
256
6
ByLayer
370
13
48
1
60
0
100
AcDbLine
10
0
20
-4.2875
30
0
11
0
21
-38.265705
31
0
39
0
210
0
220
0
230
1
0
LINE
5
1AA
100
AcDbEntity
8
2
62
256
6
ByLayer
370
13
48
1
60
0
100
AcDbLine
10
46
20
-36.265705
30
0
11
0
21
-36.265705
31
0
39
0
210
0
220
0
230
1
0
SOLID
5
1AB
100
AcDbEntity
8
2
62
256
6
ByLayer
370
18
48
1
60
0
100
AcDbTrace
10
46
20
-36.265705
30
0
11
42.500002
21
-36.726489
31
0
12
42.499998
22
-35.804922
32
0
13
42.499998
23
-35.804922
33
0
39
0
210
0
220
0
230
1
0
SOLID
5
1AC
100
AcDbEntity
8
2
62
256
6
ByLayer
370
18
48
1
60
0
100
AcDbTrace
10
0
20
-36.265705
30
0
11
3.499998
21
-35.804922
31
0
12
3.500002
22
-36.726489
32
0
13
3.500002
23
-36.726489
33
0
39
0
210
0
220
0
230
1
0
ENDBLK
5
1AE
100
AcDbEntity
8
0
100
AcDbBlockEnd
0
ENDSEC
0
SECTION
2
ENTITIES
0
ARC
5
C1
100
AcDbEntity
8
1
62
256
6
ByLayer
370
18
48
1
60
0
100
AcDbCircle
39
0
10
1.034206
20
-3.420826
30
0
40
0.799999999999999
210
0
220
0
230
1
100
AcDbArc
50
89.896868
51
130.269151
0
ARC
5
C2
100
AcDbEntity
8
1
62
256
6
ByLayer
370
18
48
1
60
0
100
AcDbCircle
39
0
10
1.034206
20
3.420826
30
0
40
0.799999999999999
210
0
220
0
230
1
100
AcDbArc
50
229.730849
51
270.103132
0
ARC
5
C3
100
AcDbEntity
8
1
62
256
6
ByLayer
370
18
48
1
60
0
100
AcDbCircle
39
0
10
0
20
-2.2
30
0
40
0.800000000000003
210
0
220
0
230
1
100
AcDbArc
50
270
51
310.269151
0
ARC
5
C4
100
AcDbEntity
8
1
62
256
6
ByLayer
370
18
48
1
60
0
100
AcDbCircle
39
0
10
0
20
2.2
30
0
40
0.800000000000003
210
0
220
0
230
1
100
AcDbArc
50
49.730849
51
90
0
ARC
5
C5
100
AcDbEntity
8
SK2
62
256
6
ByLayer
370
13
48
1
60
0
100
AcDbCircle
39
0
10
46
20
0
30
0
40
18.2042376813794
210
0
220
0
230
1
100
AcDbArc
50
9.48543
51
69.994747
0
ARC
5
C6
100
AcDbEntity
8
SK2
62
256
6
ByLayer
370
13
48
1
60
0
100
AcDbCircle
39
0
10
46
20
0
30
0
40
18.2042376813794
210
0
220
0
230
1
100
AcDbArc
50
290.005253
51
350.51457
0
ELLIPSE
5
C7
100
AcDbEntity
8
1
62
256
6
ByLayer
370
18
48
1
60
0
100
AcDbEllipse
10
19.100299
20
2.618608
30
0
11
0.1
21
0
31
0
210
0
220
0
230
1
40
0.99981
41
-3.06917013938964
42
-1.56037586409954
0
POINT
5
70
100
AcDbEntity
8
80
62
256
6
ByLayer
370
18
48
1
60
0
100
AcDbPoint
10
0
20
0
30
0
39
0
210
0
220
0
230
1
50
360
0
POINT
5
72
100
AcDbEntity
8
81
62
256
6
ByLayer
370
18
48
1
60
0
100
AcDbPoint
10
46
20
0
30
0
39
0
210
0
220
0
230
1
50
360
0
POINT
5
74
100
AcDbEntity
8
1
62
256
6
ByLayer
370
18
48
1
60
0
100
AcDbPoint
10
-214.072881
20
-200
30
0
39
0
210
0
220
0
230
1
50
360
0
POINT
5
76
100
AcDbEntity
8
1
62
256
6
ByLayer
370
13
48
1
60
1
100
AcDbPoint
10
-37.5
20
0
30
0
39
0
210
0
220
0
230
1
50
360
0
POINT
5
77
100
AcDbEntity
8
1
62
256
6
ByLayer
370
13
48
1
60
1
100
AcDbPoint
10
46.513268
20
0
30
0
39
0
210
0
220
0
230
1
50
360
0
POINT
5
78
100
AcDbEntity
8
1
62
256
6
ByLayer
370
18
48
1
60
1
100
AcDbPoint
10
46
20
-2.7
30
0
39
0
210
0
220
0
230
1
50
360
0
POINT
5
79
100
AcDbEntity
8
1
62
256
6
ByLayer
370
18
48
1
60
1
100
AcDbPoint
10
18.1
20
-2.7
30
0
39
0
210
0
220
0
230
1
50
360
0
POINT
5
7A
100
AcDbEntity
8
1
62
256
6
ByLayer
370
18
48
1
60
1
100
AcDbPoint
10
46
20
-2.7
30
0
39
0
210
0
220
0
230
1
50
360
0
POINT
5
7B
100
AcDbEntity
8
1
62
256
6
ByLayer
370
18
48
1
60
1
100
AcDbPoint
10
2
20
-2.7
30
0
39
0
210
0
220
0
230
1
50
360
0
POINT
5
7C
100
AcDbEntity
8
1
62
256
6
ByLayer
370
18
48
1
60
1
100
AcDbPoint
10
-36
20
-3
30
0
39
0
210
0
220
0
230
1
50
360
0
POINT
5
7D
100
AcDbEntity
8
1
62
256
6
ByLayer
370
18
48
1
60
1
100
AcDbPoint
10
0
20
-3
30
0
39
0
210
0
220
0
230
1
50
360
0
POINT
5
7E
100
AcDbEntity
8
1
62
256
6
ByLayer
370
18
48
1
60
1
100
AcDbPoint
10
-36
20
-3
30
0
39
0
210
0
220
0
230
1
50
360
0
POINT
5
7F
100
AcDbEntity
8
1
62
256
6
ByLayer
370
18
48
1
60
1
100
AcDbPoint
10
46
20
-2.7
30
0
39
0
210
0
220
0
230
1
50
360
0
POINT
5
80
100
AcDbEntity
8
1
62
256
6
ByLayer
370
18
48
1
60
1
100
AcDbPoint
10
46
20
-2.7
30
0
39
0
210
0
220
0
230
1
50
360
0
POINT
5
81
100
AcDbEntity
8
1
62
256
6
ByLayer
370
18
48
1
60
1
100
AcDbPoint
10
0
20
-2.7
30
0
39
0
210
0
220
0
230
1
50
360
0
SPLINE
5
C8
100
AcDbEntity
8
1
62
256
6
ByLayer
370
18
48
1
60
0
100
AcDbSpline
70
4
71
3
72
8
73
4
40
0
40
0
40
0
40
0
40
1
40
1
40
1
40
1
41
1
10
45.7244978591577
20
0.895935154891163
30
0
41
1
10
45.7950964487654
20
0.699048531679978
30
0
41
1
10
45.8651167522259
20
0.501958241443702
30
0
41
1
10
45.9345472204723
20
0.304660216707958
30
0
0
SPLINE
5
C9
100
AcDbEntity
8
1
62
256
6
ByLayer
370
18
48
1
60
0
100
AcDbSpline
70
4
71
3
72
8
73
4
40
0
40
0
40
0
40
0
40
1
40
1
40
1
40
1
41
1
10
45.9345472204723
20
0.304660216707958
30
0
41
1
10
45.9554969327087
20
0.245128184915473
30
0
41
1
10
45.9768763867926
20
0.185841036550727
30
0
41
1
10
45.9986929195418
20
0.126793348370455
30
0
0
SPLINE
5
CA
100
AcDbEntity
8
1
62
256
6
ByLayer
370
18
48
1
60
0
100
AcDbSpline
70
4
71
3
72
12
73
8
40
0
40
0
40
0
40
0
40
0.002930245876751
40
0.002930245876751
40
0.501465122938376
40
0.501465122938376
40
1
40
1
40
1
40
1
41
1
10
45.391655442759
20
-0.511963211673532
30
0
41
1
10
45.3917938123759
20
-0.512058640151537
30
0
41
1
10
45.3919322058855
20
-0.51215407857319
30
0
41
1
10
45.415620109016
20
-0.528488530084729
30
0
41
1
10
45.4399378879189
20
-0.545068672386662
30
0
41
1
10
45.4895989676647
20
-0.578744737793045
30
0
41
1
10
45.514949141465
20
-0.595843422289619
30
0
41
1
10
45.5406802298068
20
-0.613173434358856
30
0
0
SPLINE
5
CB
100
AcDbEntity
8
1
62
256
6
ByLayer
370
18
48
1
60
0
100
AcDbSpline
70
4
71
3
72
32
73
28
40
0
40
0
40
0
40
0
40
0.125000000000019
40
0.125000000000019
40
0.187500000000028
40
0.187500000000028
40
0.250000000000038
40
0.250000000000038
40
0.375000000000042
40
0.375000000000042
40
0.437500000000044
40
0.437500000000044
40
0.500000000000046
40
0.500000000000046
40
0.625000000000035
40
0.625000000000035
40
0.687500000000029
40
0.687500000000029
40
0.750000000000023
40
0.750000000000023
40
0.875000000000011
40
0.875000000000011
40
0.937500000000006
40
0.937500000000006
40
0.968750000000003
40
0.968750000000003
40
1
40
1
40
1
40
1
41
1
10
45.9986929195329
20
0.126793348373468
30
0
41
1
10
45.9831696770192
20
0.0815786865078678
30
0
41
1
10
45.9665443538187
20
0.0368877627728352
30
0
41
1
10
45.9399916343385
20
-0.0293644360296526
30
0
41
1
10
45.9308705153736
20
-0.0513172780077298
30
0
41
1
10
45.9120790058453
20
-0.094953276696998
30
0
41
1
10
45.9025378218603
20
-0.116336158674301
30
0
41
1
10
45.8735291187486
20
-0.179163981395931
30
0
41
1
10
45.8536725825551
20
-0.219314434378674
30
0
41
1
10
45.8231813354889
20
-0.27687838911055
30
0
41
1
10
45.8128989537451
20
-0.295620627799622
30
0
41
1
10
45.7920967919032
20
-0.332173952650066
30
0
41
1
10
45.7815565401281
20
-0.350010364579333
30
0
41
1
10
45.7502636541553
20
-0.400938769195761
30
0
41
1
10
45.7296193974661
20
-0.431868403481985
30
0
41
1
10
45.6989826541071
20
-0.473699441299487
30
0
41
1
10
45.6888250437271
20
-0.486878468226564
30
0
41
1
10
45.6686156519976
20
-0.511649047469973
30
0
41
1
10
45.6585379110329
20
-0.523260301585651
30
0
41
1
10
45.6290986454874
20
-0.554919699368725
30
0
41
1
10
45.6103166420031
20
-0.572092468129597
30
0
41
1
10
45.5832749155661
20
-0.592017059657138
30
0
41
1
10
45.5744501566805
20
-0.597680893498222
30
0
41
1
10
45.5614845121086
20
-0.604670429343258
30
0
41
1
10
45.5572089679239
20
-0.606746769761912
30
0
41
1
10
45.5488324338034
20
-0.610355611512063
30
0
41
1
10
45.5447200716567
20
-0.611894607694751
30
0
41
1
10
45.5406802298067
20
-0.613173434358885
30
0
0
SPLINE
5
CC
100
AcDbEntity
8
1
62
256
6
ByLayer
370
18
48
1
60
0
100
AcDbSpline
70
4
71
3
72
89
73
85
40
0
40
0
40
0
40
0
40
0.0312499999999969
40
0.0312499999999969
40
0.0468749999999966
40
0.0468749999999966
40
0.0624999999999963
40
0.0624999999999963
40
0.0937499999999958
40
0.0937499999999958
40
0.109374999999996
40
0.109374999999996
40
0.124999999999995
40
0.124999999999995
40
0.156250000000001
40
0.156250000000001
40
0.187500000000007
40
0.187500000000007
40
0.203125000000009
40
0.203125000000009
40
0.218750000000012
40
0.218750000000012
40
0.250000000000019
40
0.250000000000019
40
0.281250000000025
40
0.281250000000025
40
0.312500000000031
40
0.312500000000031
40
0.32812500000003
40
0.32812500000003
40
0.343750000000029
40
0.343750000000029
40
0.375000000000028
40
0.375000000000028
40
0.390625000000024
40
0.390625000000024
40
0.406250000000019
40
0.406250000000019
40
0.437500000000011
40
0.468750000000003
40
0.468750000000003
40
0.499999999999994
40
0.499999999999994
40
0.562499999999977
40
0.562499999999977
40
0.578124999999974
40
0.578124999999974
40
0.59374999999997
40
0.59374999999997
40
0.624999999999961
40
0.624999999999961
40
0.640624999999957
40
0.640624999999957
40
0.656249999999952
40
0.656249999999952
40
0.687499999999943
40
0.687499999999943
40
0.703124999999939
40
0.703124999999939
40
0.718749999999935
40
0.718749999999935
40
0.749999999999928
40
0.749999999999928
40
0.765624999999928
40
0.765624999999928
40
0.781249999999927
40
0.781249999999927
40
0.812499999999925
40
0.812499999999925
40
0.828124999999927
40
0.828124999999927
40
0.843749999999929
40
0.843749999999929
40
0.87499999999994
40
0.87499999999994
40
0.906249999999951
40
0.906249999999951
40
0.937499999999962
40
0.937499999999962
40
0.953124999999971
40
0.953124999999971
40
0.968749999999981
40
0.968749999999981
40
1
40
1
40
1
40
1
41
1
10
45.5406802298068
20
-0.613173434358856
30
0
41
1
10
45.5397856933657
20
-0.62950290344088
30
0
41
1
10
45.5381291488002
20
-0.64675041309394
30
0
41
1
10
45.5344365277087
20
-0.674102998874218
30
0
41
1
10
45.5329951640692
20
-0.683508304185835
30
0
41
1
10
45.5297661842051
20
-0.702414425782678
30
0
41
1
10
45.5279741865085
20
-0.711957597197539
30
0
41
1
10
45.5220837730565
20
-0.740853765052719
30
0
41
1
10
45.5174738598629
20
-0.760471670531587
30
0
41
1
10
45.5095521093712
20
-0.790446035313778
30
0
41
1
10
45.5067438085985
20
-0.800519146856828
30
0
41
1
10
45.5009130422016
20
-0.82044419815557
30
0
41
1
10
45.4978773751203
20
-0.830347464546378
30
0
41
1
10
45.4884303950111
20
-0.859888275560081
30
0
41
1
10
45.481676467545
20
-0.879370611878272
30
0
41
1
10
45.4673397740974
20
-0.917854456849739
30
0
41
1
10
45.459935156802
20
-0.936381748731066
30
0
41
1
10
45.4485303405705
20
-0.963203040026599
30
0
41
1
10
45.4446786793583
20
-0.971980879291607
30
0
41
1
10
45.4368804739571
20
-0.989218102572323
30
0
41
1
10
45.4329233363177
20
-0.99769935732283
30
0
41
1
10
45.4209867157222
20
-1.02251599884954
30
0
41
1
10
45.4130268796476
20
-1.03805988652474
30
0
41
1
10
45.3971179927088
20
-1.06730424774537
30
0
41
1
10
45.3891688554754
20
-1.08100367499904
30
0
41
1
10
45.3732855392939
20
-1.10657789246017
30
0
41
1
10
45.3654414558561
20
-1.1183039769424
30
0
41
1
10
45.3538820502246
20
-1.13424546482614
30
0
41
1
10
45.3500617879927
20
-1.13928504730561
30
0
41
1
10
45.342566853429
20
-1.14872183935844
30
0
41
1
10
45.3388786711802
20
-1.15313774662303
30
0
41
1
10
45.3279840777499
20
-1.16550165005862
30
0
41
1
10
45.3209470395335
20
-1.17257005300945
30
0
41
1
10
45.310710822015
20
-1.1814240094661
30
0
41
1
10
45.307352124064
20
-1.18408281550509
30
0
41
1
10
45.3007399365184
20
-1.18880443700246
30
0
41
1
10
45.2974753383775
20
-1.1908729392986
30
0
41
1
10
45.2879280308985
20
-1.19610762621178
30
0
41
1
10
45.2758882498678
20
-1.20050712055556
30
0
41
1
10
45.2651340149609
20
-1.19984662301692
30
0
41
1
10
45.255011309889
20
-1.19655653142715
30
0
41
1
10
45.2502424651508
20
-1.19355545333104
30
0
41
1
10
45.2372904863882
20
-1.18068108389028
30
0
41
1
10
45.2302969234411
20
-1.16704937396395
30
0
41
1
10
45.2236677667853
20
-1.14303137294041
30
0
41
1
10
45.2224548347739
20
-1.13788140758123
30
0
41
1
10
45.2202900807657
20
-1.12704060628786
30
0
41
1
10
45.2193324254614
20
-1.12132984309531
30
0
41
1
10
45.2168317403038
20
-1.10332480213992
30
0
41
1
10
45.2156582270247
20
-1.09016330417487
30
0
41
1
10
45.2146773568284
20
-1.06858491459533
30
0
41
1
10
45.2144809493388
20
-1.06108480048144
30
0
41
1
10
45.2143650655692
20
-1.04543468757828
30
0
41
1
10
45.2144470830298
20
-1.03734936949394
30
0
41
1
10
45.2151106812258
20
-1.01256201938906
30
0
41
1
10
45.2161057276745
20
-0.995233960147857
30
0
41
1
10
45.2184634925489
20
-0.968013694272116
30
0
41
1
10
45.2193943589903
20
-0.958734667205363
30
0
41
1
10
45.2215621066542
20
-0.939749351515388
30
0
41
1
10
45.2228062786953
20
-0.929997986284747
30
0
41
1
10
45.2269434552791
20
-0.900667338890116
30
0
41
1
10
45.2302492463908
20
-0.880876336086345
30
0
41
1
10
45.2360507409715
20
-0.85084638803275
30
0
41
1
10
45.238125729135
20
-0.840778894355083
30
0
41
1
10
45.2425702247179
20
-0.820527707082647
30
0
41
1
10
45.2449507730944
20
-0.810303386247142
30
0
41
1
10
45.2524105704767
20
-0.780040614270234
30
0
41
1
10
45.2578358928305
20
-0.760254994356927
30
0
41
1
10
45.2666549619567
20
-0.731143248257922
30
0
41
1
10
45.2697086428542
20
-0.721534222958638
30
0
41
1
10
45.2760500890165
20
-0.702508094800237
30
0
41
1
10
45.2793356105248
20
-0.693102809375034
30
0
41
1
10
45.2893668026019
20
-0.665672282604959
30
0
41
1
10
45.2963432584395
20
-0.648253319790513
30
0
41
1
10
45.3108647314381
20
-0.615051834009279
30
0
41
1
10
45.3184672744164
20
-0.599171258210845
30
0
41
1
10
45.333839516999
20
-0.569814654848585
30
0
41
1
10
45.3416336351547
20
-0.556261255499521
30
0
41
1
10
45.3534790954442
20
-0.537509968055844
30
0
41
1
10
45.3574533257977
20
-0.531523853116681
30
0
41
1
10
45.3654522948642
20
-0.520075104270006
30
0
41
1
10
45.3694788720889
20
-0.514612546352538
30
0
41
1
10
45.3814708574614
20
-0.49920821338398
30
0
41
1
10
45.3894035114503
20
-0.490163921815736
30
0
41
1
10
45.3972706532562
20
-0.482271290794472
30
0
0
SPLINE
5
CD
100
AcDbEntity
8
1
62
256
6
ByLayer
370
18
48
1
60
0
100
AcDbSpline
70
4
71
3
72
8
73
4
40
0
40
0
40
0
40
0
40
1
40
1
40
1
40
1
41
1
10
45.3972706532563
20
-0.482271290794472
30
0
41
1
10
45.3890216648898
20
-0.454478469355223
30
0
41
1
10
45.3820507264899
20
-0.423129460715131
30
0
41
1
10
45.3762102427199
20
-0.388414138315824
30
0
0
SPLINE
5
CE
100
AcDbEntity
8
1
62
256
6
ByLayer
370
18
48
1
60
0
100
AcDbSpline
70
4
71
3
72
8
73
4
40
0
40
0
40
0
40
0
40
1
40
1
40
1
40
1
41
1
10
45.3762102427199
20
-0.388414138315824
30
0
41
1
10
45.3378175102268
20
-0.160211109464655
30
0
41
1
10
45.2874880965886
20
0.0736682384385574
30
0
41
1
10
45.2253270609578
20
0.313173946007055
30
0
0
SPLINE
5
CF
100
AcDbEntity
8
1
62
256
6
ByLayer
370
18
48
1
60
0
100
AcDbSpline
70
4
71
3
72
13
73
9
40
0
40
0
40
0
40
0
40
0.500000000000029
40
0.500000000000029
40
0.625000000000022
40
0.625000000000022
40
0.750000000000014
40
1
40
1
40
1
40
1
41
1
10
45.1243980713396
20
-2.42918064148216
30
0
41
1
10
45.1048588111422
20
-2.45830716348254
30
0
41
1
10
45.0866940056126
20
-2.48334455406368
30
0
41
1
10
45.0657559251025
20
-2.50874358157603
30
0
41
1
10
45.0616713628155
20
-2.51350844371578
30
0
41
1
10
45.0537684989014
20
-2.52233291402283
30
0
41
1
10
45.0422825224628
20
-2.53454956161906
30
0
41
1
10
45.0318573449734
20
-2.54374983987361
30
0
41
1
10
45.0253422122521
20
-2.54857171741557
30
0
0
SPLINE
5
D0
100
AcDbEntity
8
1
62
256
6
ByLayer
370
18
48
1
60
0
100
AcDbSpline
70
4
71
3
72
8
73
4
40
0
40
0
40
0
40
0
40
1
40
1
40
1
40
1
41
1
10
45.7244978591577
20
-0.895935154891163
30
0
41
1
10
45.7950964487654
20
-0.699048531679949
30
0
41
1
10
45.865116752226
20
-0.501958241443646
30
0
41
1
10
45.9345472204724
20
-0.304660216707873
30
0
0
SPLINE
5
D1
100
AcDbEntity
8
1
62
256
6
ByLayer
370
18
48
1
60
0
100
AcDbSpline
70
4
71
3
72
8
73
4
40
0
40
0
40
0
40
0
40
1
40
1
40
1
40
1
41
1
10
45.9345472204724
20
-0.304660216707873
30
0
41
1
10
45.9554969327086
20
-0.245128184915728
30
0
41
1
10
45.9768763867925
20
-0.185841036551295
30
0
41
1
10
45.9986929195414
20
-0.126793348371393
30
0
0
SPLINE
5
D2
100
AcDbEntity
8
1
62
256
6
ByLayer
370
18
48
1
60
0
100
AcDbSpline
70
4
71
3
72
8
73
4
40
0
40
0
40
0
40
0
40
1
40
1
40
1
40
1
41
1
10
45.9986929195368
20
0.126793348375998
30
0
41
1
10
46.0004332601824
20
0.0423824708303187
30
0
41
1
10
46.0004381336058
20
-0.0421460975948946
30
0
41
1
10
45.9986929195368
20
-0.126793348374804
30
0
0
SPLINE
5
D3
100
AcDbEntity
8
1
62
256
6
ByLayer
370
18
48
1
60
0
100
AcDbSpline
70
4
71
3
72
24
73
20
40
0
40
0
40
0
40
0
40
0.0738395283704855
40
0.0738395283704855
40
0.158035934882232
40
0.158035934882232
40
0.326428747905767
40
0.326428747905767
40
0.410625154417535
40
0.410625154417535
40
0.494821560929302
40
0.494821560929302
40
0.663214373952886
40
0.663214373952886
40
0.831607186976469
40
0.831607186976469
40
0.915803593488235
40
0.915803593488235
40
1
40
1
40
1
40
1
41
1
10
44.6390967756826
20
0.611021999387759
30
0
41
1
10
44.6531116821658
20
0.617911187332567
30
0
41
1
10
44.6674475673164
20
0.625063440530766
30
0
41
1
10
44.6984698466962
20
0.640635948291902
30
0
41
1
10
44.7152463123782
20
0.649113060384764
30
0
41
1
10
44.7664383648815
20
0.674828100797868
30
0
41
1
10
44.80175907441
20
0.692271193414769
30
0
41
1
10
44.856772201175
20
0.718289476900367
30
0
41
1
10
44.8754365012553
20
0.726961272594679
30
0
41
1
10
44.9135279939359
20
0.744089281350426
30
0
41
1
10
44.933032895068
20
0.75256415375074
30
0
41
1
10
44.9919278761354
20
0.776867108411153
30
0
41
1
10
45.0319183656047
20
0.791658447687809
30
0
41
1
10
45.1137457760868
20
0.816848091496894
30
0
41
1
10
45.1555599747446
20
0.82731538718437
30
0
41
1
10
45.2195880417965
20
0.839763126080101
30
0
41
1
10
45.241186451713
20
0.843369847504107
30
0
41
1
10
45.2843706962717
20
0.849384974010633
30
0
41
1
10
45.3060072198276
20
0.851805580513627
30
0
41
1
10
45.3276907982002
20
0.853649346897242
30
0
0
SPLINE
5
D4
100
AcDbEntity
8
1
62
256
6
ByLayer
370
18
48
1
60
0
100
AcDbSpline
70
4
71
3
72
8
73
4
40
0
40
0
40
0
40
0
40
1
40
1
40
1
40
1
41
1
10
45.3276907982001
20
0.853649346897214
30
0
41
1
10
45.4603272273048
20
0.864927494121019
30
0
41
1
10
45.5926902844237
20
0.878301732388536
30
0
41
1
10
45.7244978591576
20
0.895935154891077
30
0
0
SPLINE
5
D5
100
AcDbEntity
8
1
62
256
6
ByLayer
370
18
48
1
60
0
100
AcDbSpline
70
4
71
3
72
28
73
24
40
0
40
0
40
0
40
0
40
0.249999999999982
40
0.249999999999982
40
0.374999999999973
40
0.374999999999973
40
0.437499999999969
40
0.437499999999969
40
0.468749999999967
40
0.468749999999967
40
0.499999999999964
40
0.499999999999964
40
0.562499999999969
40
0.562499999999969
40
0.624999999999973
40
0.624999999999973
40
0.749999999999982
40
0.749999999999982
40
0.874999999999991
40
0.874999999999991
40
0.937499999999995
40
0.937499999999995
40
1
40
1
40
1
40
1
41
1
10
45.124398071339
20
2.42918064148338
30
0
41
1
10
45.1694676723501
20
2.29790338086622
30
0
41
1
10
45.2150542158095
20
2.16593741602313
30
0
41
1
10
45.2841830640731
20
1.9678821212276
30
0
41
1
10
45.3073519167913
20
1.90182815095412
30
0
41
1
10
45.3422808720065
20
1.80279135523872
30
0
41
1
10
45.353954563571
20
1.76978287326267
30
0
41
1
10
45.3715143958415
20
1.72027753435006
30
0
41
1
10
45.3773569974746
20
1.70377325022679
30
0
41
1
10
45.3891865931498
20
1.67079254130732
30
0
41
1
10
45.3951487476726
20
1.65431130970285
30
0
41
1
10
45.4131865588554
20
1.60489798513535
30
0
41
1
10
45.4254292014705
20
1.5719764035245
30
0
41
1
10
45.4501615019719
20
1.50676863281416
30
0
41
1
10
45.4626742877035
20
1.47441425628529
30
0
41
1
10
45.5006984136039
20
1.37810702776747
30
0
41
1
10
45.526697506702
20
1.31491392536685
30
0
41
1
10
45.5803280185276
20
1.1907610014737
30
0
41
1
10
45.6079608459077
20
1.12980286937022
30
0
41
1
10
45.6508539086349
20
1.0401564595696
30
0
41
1
10
45.6654370543155
20
1.01047992722229
30
0
41
1
10
45.6947978088737
20
0.952343711459832
30
0
41
1
10
45.7095885923399
20
0.923854089773471
30
0
41
1
10
45.7244978591578
20
0.895935154891305
30
0
0
SPLINE
5
D6
100
AcDbEntity
8
1
62
256
6
ByLayer
370
18
48
1
60
0
100
AcDbSpline
70
4
71
3
72
8
73
4
40
0
40
0
40
0
40
0
40
1
40
1
40
1
40
1
41
1
10
45.0330811824395
20
2.58774763505016
30
0
41
1
10
45.0634974801843
20
2.53490194691625
30
0
41
1
10
45.0939391847253
20
2.48204101819366
30
0
41
1
10
45.1243980713389
20
2.42918064148336
30
0
0
SPLINE
5
D7
100
AcDbEntity
8
1
62
256
6
ByLayer
370
18
48
1
60
0
100
AcDbSpline
70
4
71
3
72
14
73
10
40
0
40
0
40
0
40
0
40
0.25
40
0.25
40
0.5
40
0.5
40
0.75
40
0.75
40
1
40
1
40
1
40
1
41
1
10
45.2253270609578
20
0.313173946007055
30
0
41
1
10
45.2062269167731
20
0.302540837290735
30
0
41
1
10
45.1871497294301
20
0.290465631783121
30
0
41
1
10
45.1491186206646
20
0.263583252260077
30
0
41
1
10
45.1301638862228
20
0.248765818072997
30
0
41
1
10
45.0924392587405
20
0.216261034714222
30
0
41
1
10
45.0736690490296
20
0.198554907369356
30
0
41
1
10
45.0363837347714
20
0.160391046208275
30
0
41
1
10
45.01792279476
20
0.139997333654293
30
0
41
1
10
44.9997306298025
20
0.11846416362485
30
0
0
SPLINE
5
D8
100
AcDbEntity
8
1
62
256
6
ByLayer
370
18
48
1
60
0
100
AcDbSpline
70
4
71
3
72
26
73
22
40
0
40
0
40
0
40
0
40
0.0933053200884061
40
0.0933053200884061
40
0.186610640176812
40
0.186610640176812
40
0.279915960265218
40
0.279915960265218
40
0.373221280353625
40
0.373221280353625
40
0.559831920530437
40
0.559831920530437
40
0.65313724061886
40
0.65313724061886
40
0.746442560707283
40
0.746442560707283
40
0.839747880795706
40
0.839747880795706
40
0.933053200884129
40
0.933053200884129
40
1
40
1
40
1
40
1
41
1
10
45.2253270609578
20
0.313173946006657
30
0
41
1
10
45.2012829519484
20
0.327326411898696
30
0
41
1
10
45.1772095719615
20
0.341330350013777
30
0
41
1
10
45.1290200708241
20
0.369121347593904
30
0
41
1
10
45.1049022456656
20
0.382899760525419
30
0
41
1
10
45.0565958826199
20
0.410097773484353
30
0
41
1
10
45.0323817996415
20
0.423526435858605
30
0
41
1
10
44.9840779338357
20
0.449862099174737
30
0
41
1
10
44.959972207029
20
0.462779113184752
30
0
41
1
10
44.8878140023236
20
0.500667197333684
30
0
41
1
10
44.8399301104689
20
0.524723142446504
30
0
41
1
10
44.768467016992
20
0.558837997999632
30
0
41
1
10
44.7447048625703
20
0.569890019624751
30
0
41
1
10
44.6973016132964
20
0.591336922821938
30
0
41
1
10
44.6736317237742
20
0.60174864639464
30
0
41
1
10
44.6266098171672
20
0.621765079242209
30
0
41
1
10
44.603273505712
20
0.63131452848009
30
0
41
1
10
44.5568413654165
20
0.649781702466584
30
0
41
1
10
44.5336940522222
20
0.65883467161612
30
0
41
1
10
44.4942294984692
20
0.673618702573151
30
0
41
1
10
44.4778424686648
20
0.679533093955541
30
0
41
1
10
44.461577730913
20
0.68512623598474
30
0
0
SPLINE
5
D9
100
AcDbEntity
8
1
62
256
6
ByLayer
370
18
48
1
60
0
100
AcDbSpline
70
4
71
3
72
28
73
24
40
0
40
0
40
0
40
0
40
0.250000000000005
40
0.250000000000005
40
0.375000000000003
40
0.375000000000003
40
0.437500000000002
40
0.437500000000002
40
0.468750000000002
40
0.468750000000002
40
0.500000000000002
40
0.500000000000002
40
0.562500000000001
40
0.562500000000001
40
0.625000000000001
40
0.625000000000001
40
0.750000000000001
40
0.750000000000001
40
0.875
40
0.875
40
0.9375
40
0.9375
40
1
40
1
40
1
40
1
41
1
10
45.124398071339
20
-2.42918064148347
30
0
41
1
10
45.1694676723501
20
-2.2979033808663
30
0
41
1
10
45.2150542158094
20
-2.16593741602318
30
0
41
1
10
45.284183064073
20
-1.96788212122766
30
0
41
1
10
45.3073519167913
20
-1.90182815095415
30
0
41
1
10
45.3422808720065
20
-1.80279135523875
30
0
41
1
10
45.353954563571
20
-1.7697828732627
30
0
41
1
10
45.3715143958416
20
-1.72027753435009
30
0
41
1
10
45.3773569974746
20
-1.70377325022682
30
0
41
1
10
45.3891865931498
20
-1.67079254130735
30
0
41
1
10
45.3951487476726
20
-1.65431130970288
30
0
41
1
10
45.4131865588554
20
-1.60489798513535
30
0
41
1
10
45.4254292014705
20
-1.5719764035245
30
0
41
1
10
45.4501615019719
20
-1.50676863281416
30
0
41
1
10
45.4626742877034
20
-1.47441425628529
30
0
41
1
10
45.5006984136039
20
-1.3781070277675
30
0
41
1
10
45.526697506702
20
-1.31491392536688
30
0
41
1
10
45.5803280185276
20
-1.19076100147373
30
0
41
1
10
45.6079608459077
20
-1.12980286937022
30
0
41
1
10
45.6508539086349
20
-1.04015645956957
30
0
41
1
10
45.6654370543155
20
-1.01047992722226
30
0
41
1
10
45.6947978088737
20
-0.952343711459804
30
0
41
1
10
45.7095885923399
20
-0.923854089773499
30
0
41
1
10
45.7244978591578
20
-0.895935154891305
30
0
0
SPLINE
5
DA
100
AcDbEntity
8
1
62
256
6
ByLayer
370
18
48
1
60
0
100
AcDbSpline
70
4
71
3
72
8
73
4
40
0
40
0
40
0
40
0
40
1
40
1
40
1
40
1
41
1
10
45.0330811824716
20
-2.5877476349944
30
0
41
1
10
45.0634974802057
20
-2.53490194687907
30
0
41
1
10
45.093939184736
20
-2.48204101817512
30
0
41
1
10
45.1243980713389
20
-2.42918064148344
30
0
0
SPLINE
5
DB
100
AcDbEntity
8
1
62
256
6
ByLayer
370
18
48
1
60
0
100
AcDbSpline
70
4
71
3
72
32
73
28
40
0
40
0
40
0
40
0
40
0.331077382044401
40
0.331077382044401
40
0.55620520859109
40
0.55620520859109
40
0.706236977053592
40
0.706236977053592
40
0.806337885606854
40
0.806337885606854
40
0.873071416021214
40
0.873071416021214
40
0.91745474874651
40
0.91745474874651
40
0.947045408944082
40
0.947045408944082
40
0.966954130106469
40
0.966954130106469
40
0.980406889969121
40
0.980406889969121
40
0.989100008097567
40
0.989100008097567
40
0.994468416106931
40
0.994468416106931
40
0.999900760095522
40
0.999900760095522
40
1
40
1
40
1
40
1
41
1
10
44.9648243753365
20
2.69988737278493
30
0
41
1
10
44.9723488776021
20
2.68760137096154
30
0
41
1
10
44.9798773382791
20
2.67528288713615
30
0
41
1
10
44.9925328231402
20
2.65453141122126
30
0
41
1
10
44.9976589543571
20
2.64611309861306
30
0
41
1
10
45.0061971205668
20
2.63207566963513
30
0
41
1
10
45.0096100021044
20
2.6264607180016
30
0
41
1
10
45.015291277491
20
2.61711000623293
30
0
41
1
10
45.0175604047134
20
2.61337534386658
30
0
41
1
10
45.0213508065244
20
2.60712886713344
30
0
41
1
10
45.0228698075948
20
2.60462321755429
30
0
41
1
10
45.0254092543034
20
2.60042756947485
30
0
41
1
10
45.0264280240621
20
2.59874170891635
30
0
41
1
10
45.028122084942
20
2.59593970914088
30
0
41
1
10
45.0287983082402
20
2.59482183776981
30
0
41
1
10
45.0299195168651
20
2.5929727606846
30
0
41
1
10
45.0303678808855
20
2.59223453063456
30
0
41
1
10
45.0311107358157
20
2.59101492653252
30
0
41
1
10
45.031407641684
20
2.59052885007438
30
0
41
1
10
45.0319148556609
20
2.58968927341655
30
0
41
1
10
45.0321188003196
20
2.58934934355099
30
0
41
1
10
45.0324523807283
20
2.58879045107676
30
0
41
1
10
45.032580460128
20
2.58857548288492
30
0
41
1
10
45.0328337612825
20
2.58815263015288
30
0
41
1
10
45.0329625908789
20
2.58793844937867
30
0
41
1
10
45.0330732693403
20
2.58776035806611
30
0
41
1
10
45.0330772976171
20
2.58775387944075
30
0
41
1
10
45.0330813284473
20
2.58774740240364
30
0
0
SPLINE
5
DC
100
AcDbEntity
8
1
62
256
6
ByLayer
370
18
48
1
60
0
100
AcDbSpline
70
4
71
3
72
28
73
24
40
0
40
0
40
0
40
0
40
0.103071521346486
40
0.103071521346486
40
0.206143042692971
40
0.206143042692971
40
0.309214564039457
40
0.309214564039457
40
0.360750324712704
40
0.360750324712704
40
0.412286085385951
40
0.412286085385951
40
0.515357606732444
40
0.515357606732444
40
0.618429128078938
40
0.618429128078938
40
0.721500649425432
40
0.721500649425432
40
0.824572170771926
40
0.824572170771926
40
0.92764369211842
40
0.92764369211842
40
1
40
1
40
1
40
1
41
1
10
45.0330811824445
20
2.58774763503621
30
0
41
1
10
44.897070073738
20
2.58921654946556
30
0
41
1
10
44.7611195756993
20
2.58797126861069
30
0
41
1
10
44.4892075989345
20
2.58025348209512
30
0
41
1
10
44.3532359767732
20
2.57373355920112
30
0
41
1
10
44.081079394613
20
2.55540965595438
30
0
41
1
10
43.9448841404539
20
2.54361084213613
30
0
41
1
10
43.7403682899072
20
2.5220711015065
30
0
41
1
10
43.6722272638398
20
2.5142578122225
30
0
41
1
10
43.5361763292918
20
2.49738919465091
30
0
41
1
10
43.4682344566702
20
2.48833163244384
30
0
41
1
10
43.2646090589886
20
2.45928324480451
30
0
41
1
10
43.1291208489297
20
2.43737071182181
30
0
41
1
10
42.8585591951825
20
2.38878765611
30
0
41
1
10
42.7234779392564
20
2.36208965805727
30
0
41
1
10
42.4535407782983
20
2.30398966751719
30
0
41
1
10
42.3186817996384
20
2.27259089399129
30
0
41
1
10
42.0490524394884
20
2.20529219753789
30
0
41
1
10
41.9143182850125
20
2.1694068964955
30
0
41
1
10
41.6447942025641
20
2.09338345977318
30
0
41
1
10
41.5099727817465
20
2.05319183850784
30
0
41
1
10
41.2802991435264
20
1.9812590167723
30
0
41
1
10
41.1855123562215
20
1.95057884575533
30
0
41
1
10
41.0906357803165
20
1.9189145139587
30
0
0
SPLINE
5
DD
100
AcDbEntity
8
1
62
256
6
ByLayer
370
18
48
1
60
0
100
AcDbSpline
70
4
71
3
72
20
73
16
40
0
40
0
40
0
40
0
40
0.023119371544816
40
0.023119371544816
40
0.18593280962068
40
0.18593280962068
40
0.348746247696543
40
0.348746247696543
40
0.511559685772407
40
0.511559685772407
40
0.674373123848272
40
0.674373123848272
40
0.837186561924135
40
0.837186561924135
40
1
40
1
40
1
40
1
41
1
10
21.4928835096124
20
-0.542254730687318
30
0
41
1
10
21.4736342160057
20
-0.532897595823044
30
0
41
1
10
21.4543895282055
20
-0.523530593135717
30
0
41
1
10
21.2996542779016
20
-0.448120757126105
30
0
41
1
10
21.1643979863613
20
-0.38157751943038
30
0
41
1
10
20.8940658355029
20
-0.248076303698525
30
0
41
1
10
20.7589932353124
20
-0.181111081731075
30
0
41
1
10
20.4889377824647
20
-0.046952576821468
30
0
41
1
10
20.3539446394654
20
0.0202201264772555
30
0
41
1
10
20.0838528627053
20
0.154395832602148
30
0
41
1
10
19.9487490017777
20
0.221388131666004
30
0
41
1
10
19.6783098043845
20
0.354944232755002
30
0
41
1
10
19.5430171223653
20
0.421594846352633
30
0
41
1
10
19.272033519539
20
0.554126251214939
30
0
41
1
10
19.1363087765864
20
0.619938955754492
30
0
41
1
10
19.0002987779962
20
0.685190655521978
30
0
0
SPLINE
5
DE
100
AcDbEntity
8
1
62
256
6
ByLayer
370
18
48
1
60
0
100
AcDbSpline
70
4
71
3
72
32
73
28
40
0
40
0
40
0
40
0
40
0.331077381945596
40
0.331077381945596
40
0.5562052084252
40
0.5562052084252
40
0.706236976842867
40
0.706236976842867
40
0.806337885366558
40
0.806337885366558
40
0.873071415760922
40
0.873071415760922
40
0.917454748472916
40
0.917454748472916
40
0.947045408661749
40
0.947045408661749
40
0.966954129818223
40
0.966954129818223
40
0.980406889676884
40
0.980406889676884
40
0.989100007802712
40
0.989100007802712
40
0.994468415810483
40
0.994468415810483
40
0.999900759797559
40
0.999900759797559
40
1
40
1
40
1
40
1
41
1
10
44.9648243753365
20
-2.6998873727849
30
0
41
1
10
44.9723488776021
20
-2.68760137096152
30
0
41
1
10
44.9798773382791
20
-2.67528288713612
30
0
41
1
10
44.9925328231402
20
-2.65453141122126
30
0
41
1
10
44.9976589543571
20
-2.64611309861303
30
0
41
1
10
45.0061971205667
20
-2.63207566963507
30
0
41
1
10
45.0096100021045
20
-2.62646071800162
30
0
41
1
10
45.015291277491
20
-2.61711000623296
30
0
41
1
10
45.0175604047134
20
-2.61337534386655
30
0
41
1
10
45.0213508065244
20
-2.60712886713341
30
0
41
1
10
45.0228698075948
20
-2.60462321755429
30
0
41
1
10
45.0254092543034
20
-2.60042756947485
30
0
41
1
10
45.0264280240621
20
-2.59874170891635
30
0
41
1
10
45.028122084942
20
-2.59593970914091
30
0
41
1
10
45.0287983082401
20
-2.59482183776981
30
0
41
1
10
45.0299195168651
20
-2.5929727606846
30
0
41
1
10
45.0303678808855
20
-2.59223453063456
30
0
41
1
10
45.0311107358157
20
-2.59101492653252
30
0
41
1
10
45.031407641684
20
-2.59052885007438
30
0
41
1
10
45.0319148556609
20
-2.58968927341655
30
0
41
1
10
45.0321188003196
20
-2.58934934355096
30
0
41
1
10
45.0324523807283
20
-2.58879045107673
30
0
41
1
10
45.032580460128
20
-2.58857548288495
30
0
41
1
10
45.0328337612826
20
-2.58815263015288
30
0
41
1
10
45.032962590879
20
-2.58793844937864
30
0
41
1
10
45.0330732693523
20
-2.58776035804686
30
0
41
1
10
45.0330772976232
20
-2.58775387943112
30
0
41
1
10
45.0330813284475
20
-2.58774740240355
30
0
0
SPLINE
5
DF
100
AcDbEntity
8
1
62
256
6
ByLayer
370
18
48
1
60
0
100
AcDbSpline
70
4
71
3
72
79
73
75
40
0
40
0
40
0
40
0
40
0.0113967788785704
40
0.0113967788785704
40
0.0414674446332959
40
0.0414674446332959
40
0.0715381103880215
40
0.0715381103880215
40
0.0865734432653855
40
0.0865734432653855
40
0.101608776142749
40
0.131679441897477
40
0.131679441897477
40
0.161750107652205
40
0.161750107652205
40
0.191820773406933
40
0.191820773406933
40
0.221891439161662
40
0.221891439161662
40
0.25196210491639
40
0.25196210491639
40
0.282032770671118
40
0.282032770671118
40
0.312103436425846
40
0.312103436425846
40
0.342174102180574
40
0.342174102180574
40
0.372244767935302
40
0.372244767935302
40
0.40231543369003
40
0.40231543369003
40
0.432386099444758
40
0.432386099444758
40
0.462456765199486
40
0.462456765199486
40
0.47749209807685
40
0.47749209807685
40
0.492527430954214
40
0.492527430954214
40
0.522598096708945
40
0.522598096708945
40
0.582739428218405
40
0.582739428218405
40
0.612810093973136
40
0.612810093973136
40
0.642880759727867
40
0.642880759727867
40
0.672951425482597
40
0.672951425482597
40
0.703022091237327
40
0.703022091237327
40
0.733092756992058
40
0.733092756992058
40
0.763163422746788
40
0.763163422746788
40
0.778198755624154
40
0.778198755624154
40
0.793234088501519
40
0.793234088501519
40
0.823304754256247
40
0.823304754256247
40
0.853375420010975
40
0.853375420010975
40
0.883446085765703
40
0.883446085765703
40
0.913516751520433
40
0.913516751520433
40
0.928552084397797
40
0.928552084397797
40
0.943587417275161
40
0.943587417275161
40
0.97365808302989
40
0.97365808302989
40
1
40
1
40
1
40
1
41
1
10
38.265985636455
20
-0.74601983254999
30
0
41
1
10
38.2144453628783
20
-0.721463149077721
30
0
41
1
10
38.1629082729286
20
-0.696799552022384
30
0
41
1
10
37.9753733374915
20
-0.606713866491731
30
0
41
1
10
37.8393764990687
20
-0.540695272510419
30
0
41
1
10
37.5672184892759
20
-0.40760273314973
30
0
41
1
10
37.4310502665567
20
-0.340530544277243
30
0
41
1
10
37.226526748116
20
-0.239412492928608
30
0
41
1
10
37.1583708334612
20
-0.205653705438152
30
0
41
1
10
37.0222628002184
20
-0.138163093178576
30
0
41
1
10
36.8183189664569
20
-0.0369249257998092
30
0
41
1
10
36.6150390625904
20
0.0643945624303797
30
0
41
1
10
36.3443328514279
20
0.198932791579779
30
0
41
1
10
36.2091525410827
20
0.265929806892331
30
0
41
1
10
35.9390132105753
20
0.399196670835977
30
0
41
1
10
35.8040460063916
20
0.465436027173297
30
0
41
1
10
35.5341346796856
20
0.596756850189337
30
0
41
1
10
35.399183635025
20
0.661825317263862
30
0
41
1
10
35.1291803109644
20
0.790600260355632
30
0
41
1
10
34.9941700690504
20
0.854399954198072
30
0
41
1
10
34.7238701215657
20
0.980267468959511
30
0
41
1
10
34.5885513660277
20
1.04225654855347
30
0
41
1
10
34.3174877527594
20
1.16421958205825
30
0
41
1
10
34.1817386829845
20
1.22418237573143
30
0
41
1
10
33.9096120011873
20
1.34167925668626
30
0
41
1
10
33.7731003280257
20
1.39926575116857
30
0
41
1
10
33.5006540223815
20
1.51119531659859
30
0
41
1
10
33.3646160224698
20
1.56567114619253
30
0
41
1
10
33.0927519568186
20
1.67138055501468
30
0
41
1
10
32.9568835249491
20
1.72252009019715
30
0
41
1
10
32.6851087946532
20
1.82106255342637
30
0
41
1
10
32.5492198472303
20
1.86854872897797
30
0
41
1
10
32.2772435957983
20
1.95955547761807
30
0
41
1
10
32.1411556603211
20
2.00306925377495
30
0
41
1
10
31.9367439219389
20
2.0652504682256
30
0
41
1
10
31.8685120353605
20
2.08547489731956
30
0
41
1
10
31.7322582806635
20
2.12484212334161
30
0
41
1
10
31.6642295327406
20
2.14399854834551
30
0
41
1
10
31.460408182313
20
2.19982178739915
30
0
41
1
10
31.3248682686515
20
2.23480286899593
30
0
41
1
10
30.9189619836833
20
2.33230794511439
30
0
41
1
10
30.649391892787
20
2.38789109119395
30
0
41
1
10
30.2455598327608
20
2.45620871323129
30
0
41
1
10
30.1110240660008
20
2.47647846581464
30
0
41
1
10
29.8420734423374
20
2.51223884940845
30
0
41
1
10
29.7076539242156
20
2.52774190689434
30
0
41
1
10
29.4386259921843
20
2.55348504732976
30
0
41
1
10
29.3040340045563
20
2.56374360676239
30
0
41
1
10
29.0345848754776
20
2.57914368257815
30
0
41
1
10
28.8997153677737
20
2.58422645945723
30
0
41
1
10
28.6295048610344
20
2.5890806991197
30
0
41
1
10
28.4941547738997
20
2.58885169348966
30
0
41
1
10
28.2228913223312
20
2.58330698811605
30
0
41
1
10
28.0870194679537
20
2.57804029118421
30
0
41
1
10
27.8826199244705
20
2.56614070149612
30
0
41
1
10
27.8144063665432
20
2.56149215609187
30
0
41
1
10
27.6780310603625
20
2.55085533342651
30
0
41
1
10
27.6098460423115
20
2.54488006614264
30
0
41
1
10
27.4053146708659
20
2.52501191675802
30
0
41
1
10
27.2688970140874
20
2.50914093783374
30
0
41
1
10
26.9963654473942
20
2.47217848206142
30
0
41
1
10
26.8602387148613
20
2.45108827359564
30
0
41
1
10
26.5881023735622
20
2.40396982112634
30
0
41
1
10
26.4521308655055
20
2.3779663431925
30
0
41
1
10
26.1801703277504
20
2.32119505497909
30
0
41
1
10
26.0441455806748
20
2.29037421539849
30
0
41
1
10
25.8399423177785
20
2.24063083239517
30
0
41
1
10
25.7718494018537
20
2.22346955448387
30
0
41
1
10
25.6355873422303
20
2.18799510741283
30
0
41
1
10
25.5673747248151
20
2.16966969018506
30
0
41
1
10
25.3629903647011
20
2.11309929489786
30
0
41
1
10
25.2270567244421
20
2.07325637537704
30
0
41
1
10
24.9724985989568
20
1.99476374464317
30
0
41
1
10
24.8538277151937
20
1.9565781630678
30
0
41
1
10
24.7353128093435
20
1.91696215406034
30
0
0
SPLINE
5
E0
100
AcDbEntity
8
1
62
256
6
ByLayer
370
18
48
1
60
0
100
AcDbSpline
70
4
71
3
72
47
73
43
40
0
40
0
40
0
40
0
40
0.0638646298004291
40
0.0638646298004291
40
0.110617635113085
40
0.110617635113085
40
0.157370640425742
40
0.157370640425742
40
0.204123645738398
40
0.204123645738398
40
0.250876651051055
40
0.250876651051055
40
0.274253153707382
40
0.274253153707382
40
0.29762965636371
40
0.29762965636371
40
0.344382661676362
40
0.344382661676362
40
0.391135666989015
40
0.391135666989015
40
0.437888672301668
40
0.437888672301668
40
0.531394682926975
40
0.531394682926975
40
0.578147688239629
40
0.578147688239629
40
0.624900693552282
40
0.624900693552282
40
0.71840670417759
40
0.71840670417759
40
0.741783206833916
40
0.741783206833916
40
0.765159709490242
40
0.811912714802895
40
0.811912714802895
40
0.858665720115548
40
0.858665720115548
40
0.9054187254282
40
0.9054187254282
40
0.998924736053508
40
0.998924736053508
40
1
40
1
40
1
40
1
41
1
10
28.5764941198144
20
-0.22003594206771
30
0
41
1
10
28.3935796999745
20
-0.13161400978052
30
0
41
1
10
28.2106353242947
20
-0.0429843879077509
30
0
41
1
10
27.8937592360048
20
0.111065071723374
30
0
41
1
10
27.7598523230656
20
0.176395561546087
30
0
41
1
10
27.4917045170826
20
0.306653916493076
30
0
41
1
10
27.3574391829621
20
0.371524917746967
30
0
41
1
10
27.0884514413406
20
0.50061880021579
30
0
41
1
10
26.9537459571333
20
0.564883284701921
30
0
41
1
10
26.6836461516398
20
0.692237435338598
30
0
41
1
10
26.548236193736
20
0.75528882807356
30
0
41
1
10
26.344516787055
20
0.848801497277805
30
0
41
1
10
26.276610689821
20
0.879750994102096
30
0
41
1
10
26.1410456646918
20
0.941072493056282
30
0
41
1
10
26.073348761843
20
0.971461415445418
30
0
41
1
10
25.8705160210396
20
1.06177490779305
30
0
41
1
10
25.7356334978348
20
1.12085284077557
30
0
41
1
10
25.4666364498144
20
1.23644880018324
30
0
41
1
10
25.3325694377722
20
1.29296524516894
30
0
41
1
10
25.0645986484353
20
1.40312361988683
30
0
41
1
10
24.9306427323954
20
1.45675124753012
30
0
41
1
10
24.5288082912331
20
1.61308646335908
30
0
41
1
10
24.2610036895921
20
1.71133626612212
30
0
41
1
10
23.8594755661979
20
1.8475932332291
30
0
41
1
10
23.7256950615899
20
1.89112894746103
30
0
41
1
10
23.4577646969665
20
1.97450752534519
30
0
41
1
10
23.3235740658286
20
2.01437872893976
30
0
41
1
10
22.9202611254715
20
2.12816371535328
30
0
41
1
10
22.6504707688263
20
2.19624462113046
30
0
41
1
10
22.3114934470367
20
2.27005976793436
30
0
41
1
10
22.2435503002689
20
2.28426904794625
30
0
41
1
10
22.1078358851281
20
2.31145008628431
30
0
41
1
10
21.9045198909152
20
2.35037104995848
30
0
41
1
10
21.7018722859912
20
2.38368339255641
30
0
41
1
10
21.4321027710834
20
2.42300233198901
30
0
41
1
10
21.297450921871
20
2.44006228518381
30
0
41
1
10
21.0281774698638
20
2.46957264040924
30
0
41
1
10
20.8935172517384
20
2.48210409537046
30
0
41
1
10
20.4894728591343
20
2.51257947816185
30
0
41
1
10
20.2201150472637
20
2.52329245961596
30
0
41
1
10
19.9473707731188
20
2.52317448308264
30
0
41
1
10
19.9442699964914
20
2.52317170937633
30
0
41
1
10
19.941169183926
20
2.5231675014993
30
0
0
SPLINE
5
E1
100
AcDbEntity
8
1
62
256
6
ByLayer
370
13
48
1
60
0
100
AcDbSpline
70
4
71
3
72
38
73
34
40
0
40
0
40
0
40
0
40
0.136308543339856
40
0.136308543339856
40
0.172295687367362
40
0.172295687367362
40
0.208282831394869
40
0.208282831394869
40
0.280257119449881
40
0.352231407504893
40
0.352231407504893
40
0.388218551532399
40
0.388218551532399
40
0.424205695559905
40
0.424205695559905
40
0.496179983614917
40
0.496179983614917
40
0.532167127642423
40
0.532167127642423
40
0.568154271669929
40
0.568154271669929
40
0.64012855972494
40
0.676115703752446
40
0.676115703752446
40
0.712102847779952
40
0.712102847779952
40
0.856051423889976
40
0.856051423889976
40
0.928025711944988
40
0.928025711944988
40
0.964012855972494
40
0.964012855972494
40
1
40
1
40
1
40
1
41
1
10
19.1011780964037
20
2.5186357585379
30
0
41
1
10
19.1011623331206
20
2.51604331454237
30
0
41
1
10
19.1011445048185
20
2.50283153092053
30
0
41
1
10
19.1011195270775
20
2.47217872017302
30
0
41
1
10
19.1011141754017
20
2.46500013337123
30
0
41
1
10
19.1011033038822
20
2.44922769848506
30
0
41
1
10
19.1010977718536
20
2.4406196751022
30
0
41
1
10
19.1010808940674
20
2.41265832829734
30
0
41
1
10
19.1010576417814
20
2.36968468216998
30
0
41
1
10
19.1010329024155
20
2.31543869140785
30
0
41
1
10
19.1010137617459
20
2.27047729917629
30
0
41
1
10
19.1010072834956
20
2.25477640180387
30
0
41
1
10
19.1009941219568
20
2.22192687666509
30
0
41
1
10
19.1009874290388
20
2.20475185407315
30
0
41
1
10
19.1009671525918
20
2.15135519297902
30
0
41
1
10
19.1009533435525
20
2.11319839981627
30
0
41
1
10
19.1009321342923
20
2.05214440088736
30
0
41
1
10
19.1009249816389
20
2.03115573103315
30
0
41
1
10
19.1009104972196
20
1.98789652969953
30
0
41
1
10
19.1009031612512
20
1.9656121945074
30
0
41
1
10
19.100880966034
20
1.89714421056684
30
0
41
1
10
19.1008583500261
20
1.82531146913391
30
0
41
1
10
19.1008349663217
20
1.74845099093935
30
0
41
1
10
19.1008191876999
20
1.69608407385516
30
0
41
1
10
19.1008112049585
20
1.66934062706883
30
0
41
1
10
19.1007710621703
20
1.53378291268118
30
0
41
1
10
19.1007379978196
20
1.41874261729856
30
0
41
1
10
19.1006861160779
20
1.23656325766174
30
0
41
1
10
19.1006684393957
20
1.1742249155271
30
0
41
1
10
19.1006412199247
20
1.07825483653571
30
0
41
1
10
19.1006320291704
20
1.04585383198443
30
0
41
1
10
19.1006133881081
20
0.980215411328516
30
0
41
1
10
19.1006039418081
20
0.946992340150643
30
0
41
1
10
19.100594404126
20
0.913521900425508
30
0
0
SPLINE
5
E2
100
AcDbEntity
8
1
62
256
6
ByLayer
370
18
48
1
60
0
100
AcDbSpline
70
4
71
3
72
42
73
38
40
0
40
0
40
0
40
0
40
0.0194565760489611
40
0.0194565760489611
40
0.112997572444491
40
0.112997572444491
40
0.206538568840021
40
0.206538568840021
40
0.229923817938904
40
0.229923817938904
40
0.253309067037787
40
0.253309067037787
40
0.300079565235553
40
0.300079565235553
40
0.346850063433319
40
0.346850063433319
40
0.393620561631085
40
0.393620561631085
40
0.487161558026614
40
0.487161558026614
40
0.580702554422144
40
0.580702554422144
40
0.674243550817674
40
0.674243550817674
40
0.697628799916556
40
0.697628799916556
40
0.721014049015438
40
0.721014049015438
40
0.767784547213201
40
0.767784547213201
40
0.814555045410964
40
0.814555045410964
40
0.861325543608726
40
0.861325543608726
40
0.954866540004252
40
0.954866540004252
40
1
40
1
40
1
40
1
41
1
10
20.5558119676774
20
0.230856635433867
30
0
41
1
10
20.6119204433954
20
0.203781636883775
30
0
41
1
10
20.6680233045699
20
0.17666554621303
30
0
41
1
10
20.9938533181327
20
0.0190192149032953
30
0
41
1
10
21.2636054339494
20
-0.112115635557359
30
0
41
1
10
21.8044010919499
20
-0.373038345265485
30
0
41
1
10
22.0754276021944
20
-0.502858052035151
30
0
41
1
10
22.4157302322981
20
-0.662806778475272
30
0
41
1
10
22.4838420894755
20
-0.69466719539912
30
0
41
1
10
22.619762708838
20
-0.757891468143498
30
0
41
1
10
22.687629812181
20
-0.78928280896821
30
0
41
1
10
22.8909871090348
20
-0.882741060217
30
0
41
1
10
23.0262340437384
20
-0.944092660555953
30
0
41
1
10
23.2962610418753
20
-1.06459898539768
30
0
41
1
10
23.4310362440552
20
-1.1237485096745
30
0
41
1
10
23.7002177906894
20
-1.239465466366
30
0
41
1
10
23.8346285000828
20
-1.29604361212788
30
0
41
1
10
24.2375817660873
20
-1.46169732199459
30
0
41
1
10
24.5058378480731
20
-1.5666785668005
30
0
41
1
10
25.0427069778036
20
-1.76367418863916
30
0
41
1
10
25.3113534931485
20
-1.85565541663223
30
0
41
1
10
25.8503225809905
20
-2.0245216790737
30
0
41
1
10
26.1206156113136
20
-2.10142073529306
30
0
41
1
10
26.460276502431
20
-2.18708973524542
30
0
41
1
10
26.5283613580357
20
-2.2037140296633
30
0
41
1
10
26.664399087667
20
-2.23579243684264
30
0
41
1
10
26.7323190316533
20
-2.25123920831064
30
0
41
1
10
26.9358031474991
20
-2.29576927919248
30
0
41
1
10
27.0710985372878
20
-2.3230577224962
30
0
41
1
10
27.3411971838223
20
-2.37291259525949
30
0
41
1
10
27.4759926065433
20
-2.3954577009286
30
0
41
1
10
27.7451704187096
20
-2.43549853198266
30
0
41
1
10
27.8795575523937
20
-2.45301496572381
30
0
41
1
10
28.2823742672013
20
-2.49818494885443
30
0
41
1
10
28.5504548797615
20
-2.51845880259666
30
0
41
1
10
28.9480589316731
20
-2.53376175403176
30
0
41
1
10
29.077491877171
20
-2.53641384529814
30
0
41
1
10
29.2070276899111
20
-2.53664543057678
30
0
0
SPLINE
5
E3
100
AcDbEntity
8
1
62
256
6
ByLayer
370
18
48
1
60
0
100
AcDbSpline
70
4
71
3
72
8
73
4
40
0
40
0
40
0
40
0
40
1
40
1
40
1
40
1
41
1
10
45.0271363363394
20
-2.55172679956476
30
0
41
1
10
45.0265379833481
20
-2.55073056793222
30
0
41
1
10
45.0259399548071
20
-2.5496788433569
30
0
41
1
10
45.025342212252
20
-2.54857171741585
30
0
0
SPLINE
5
E4
100
AcDbEntity
8
1
62
256
6
ByLayer
370
18
48
1
60
0
100
AcDbSpline
70
4
71
3
72
44
73
40
40
0
40
0
40
0
40
0
40
0.0624999999999994
40
0.0624999999999994
40
0.0937499999999986
40
0.0937499999999986
40
0.124999999999998
40
0.124999999999998
40
0.187499999999997
40
0.187499999999997
40
0.218749999999997
40
0.218749999999997
40
0.249999999999997
40
0.249999999999997
40
0.374999999999998
40
0.374999999999998
40
0.437499999999998
40
0.437499999999998
40
0.468749999999998
40
0.468749999999998
40
0.499999999999999
40
0.499999999999999
40
0.562499999999999
40
0.562499999999999
40
0.593749999999999
40
0.593749999999999
40
0.625
40
0.625
40
0.6875
40
0.6875
40
0.71875
40
0.71875
40
0.750000000000001
40
0.750000000000001
40
0.8125
40
0.8125
40
0.875
40
0.875
40
1
40
1
40
1
40
1
41
1
10
44.9999107380958
20
-0.25773826629495
30
0
41
1
10
44.9917703912225
20
-0.329823478529903
30
0
41
1
10
44.9846378981942
20
-0.401453494248898
30
0
41
1
10
44.9752100288625
20
-0.508195612027095
30
0
41
1
10
44.9722796421476
20
-0.543659037546661
30
0
41
1
10
44.9668079269698
20
-0.614346360812249
30
0
41
1
10
44.9642639961309
20
-0.649610145965539
30
0
41
1
10
44.9571874689406
20
-0.754722017716034
30
0
41
1
10
44.9532124204684
20
-0.823797536546891
30
0
41
1
10
44.9481546614751
20
-0.92590864149426
30
0
41
1
10
44.9466200475803
20
-0.959695004363454
30
0
41
1
10
44.9438242763014
20
-1.0267620170566
30
0
41
1
10
44.9425613897506
20
-1.06009890914586
30
0
41
1
10
44.9368990270128
20
-1.22450117372287
30
0
41
1
10
44.934385952944
20
-1.34916085757194
30
0
41
1
10
44.9325732542308
20
-1.52616313648323
30
0
41
1
10
44.9323041187301
20
-1.58349042534275
30
0
41
1
10
44.9323450122389
20
-1.66692932388608
30
0
41
1
10
44.9324332431693
20
-1.69431639355415
30
0
41
1
10
44.9327553703874
20
-1.74822470529276
30
0
41
1
10
44.9329898127049
20
-1.77477152677704
30
0
41
1
10
44.93390498756
20
-1.85255085087843
30
0
41
1
10
44.9347957761965
20
-1.90209927057418
30
0
41
1
10
44.936569239109
20
-1.97298027796762
30
0
41
1
10
44.9372338154246
20
-1.99603289758681
30
0
41
1
10
44.9387191252245
20
-2.04098247946939
30
0
41
1
10
44.9395401214865
20
-2.06287767502644
30
0
41
1
10
44.9422437098468
20
-2.12651810960139
30
0
41
1
10
44.9443680920369
20
-2.16633061337714
30
0
41
1
10
44.948137579814
20
-2.2221406124751
30
0
41
1
10
44.949491746307
20
-2.24009160722156
30
0
41
1
10
44.9524185591837
20
-2.27468046077192
30
0
41
1
10
44.9539900822252
20
-2.29129989653546
30
0
41
1
10
44.9590473717998
20
-2.3389612602391
30
0
41
1
10
44.9628799189309
20
-2.36788364793634
30
0
41
1
10
44.9716942240426
20
-2.42004080141544
30
0
41
1
10
44.9766921667793
20
-2.44331476333733
30
0
41
1
10
44.9936569665386
20
-2.50387945456686
30
0
41
1
10
45.0075915674075
20
-2.53221013344407
30
0
41
1
10
45.025342212252
20
-2.54857171741582
30
0
0
SPLINE
5
E5
100
AcDbEntity
8
1
62
256
6
ByLayer
370
18
48
1
60
0
100
AcDbSpline
70
4
71
3
72
8
73
4
40
0
40
0
40
0
40
0
40
1
40
1
40
1
40
1
41
1
10
44.9476090814846
20
-2.68271048805875
30
0
41
1
10
44.9723366015003
20
-2.64285956429279
30
0
41
1
10
44.9970980481983
20
-2.60279415295483
30
0
41
1
10
45.0218992835915
20
-2.5625153632553
30
0
0
SPLINE
5
E6
100
AcDbEntity
8
1
62
256
6
ByLayer
370
18
48
1
60
0
100
AcDbSpline
70
4
71
3
72
14
73
10
40
0
40
0
40
0
40
0
40
0.25
40
0.25
40
0.5
40
0.5
40
0.75
40
0.75
40
1
40
1
40
1
40
1
41
1
10
45.0218992835915
20
-2.5625153632553
30
0
41
1
10
45.0225940914445
20
-2.56138695094236
30
0
41
1
10
45.0233003532161
20
-2.56019387995562
30
0
41
1
10
45.0246661662512
20
-2.55776555388772
30
0
41
1
10
45.0253179827004
20
-2.55654006043665
30
0
41
1
10
45.0263600951633
20
-2.5544097717366
30
0
41
1
10
45.0267522748074
20
-2.55349840902559
30
0
41
1
10
45.0271782632675
20
-2.55223491677779
30
0
41
1
10
45.0272220463589
20
-2.55186950300879
30
0
41
1
10
45.0271363363395
20
-2.5517267995649
30
0
0
SPLINE
5
E7
100
AcDbEntity
8
1
62
256
6
ByLayer
370
18
48
1
60
0
100
AcDbSpline
70
4
71
3
72
43
73
39
40
0
40
0
40
0
40
0
40
0.0995947920688422
40
0.0995947920688422
40
0.124606047844704
40
0.124606047844704
40
0.149617303620565
40
0.149617303620565
40
0.199639815172293
40
0.199639815172293
40
0.299684838275744
40
0.299684838275744
40
0.349707349827471
40
0.349707349827471
40
0.374718605603335
40
0.374718605603335
40
0.399729861379199
40
0.399729861379199
40
0.499774884482662
40
0.499774884482662
40
0.599819907586126
40
0.599819907586126
40
0.64984241913786
40
0.64984241913786
40
0.699864930689593
40
0.699864930689593
40
0.749887442241327
40
0.749887442241327
40
0.799909953793061
40
0.799909953793061
40
0.849932465344795
40
0.849932465344795
40
0.899954976896528
40
0.899954976896528
40
0.949977488448262
40
0.974988744224131
40
0.974988744224131
40
1
40
1
40
1
40
1
41
1
10
36.929036629456
20
0.222044520737114
30
0
41
1
10
37.1966285549582
20
0.0914645315959604
30
0
41
1
10
37.4648291037481
20
-0.0404042631988659
30
0
41
1
10
37.8019172596385
20
-0.20543264441983
30
0
41
1
10
37.8696563022751
20
-0.238558565830061
30
0
41
1
10
38.0053127125087
20
-0.304763239332999
30
0
41
1
10
38.0732783382527
20
-0.337864919590231
30
0
41
1
10
38.2770438909971
20
-0.436816937074667
30
0
41
1
10
38.4127103903274
20
-0.502319710247832
30
0
41
1
10
38.819384838062
20
-0.6970384250655
30
0
41
1
10
39.090075199555
20
-0.824458580013925
30
0
41
1
10
39.4964455009785
20
-1.01002236527344
30
0
41
1
10
39.6319588859084
20
-1.07094757604753
30
0
41
1
10
39.8354445153157
20
-1.16068993195279
30
0
41
1
10
39.9033085817506
20
-1.1903307025739
30
0
41
1
10
40.0391259902397
20
-1.24903141945526
30
0
41
1
10
40.1071020608566
20
-1.2781005294834
30
0
41
1
10
40.4463038340609
20
-1.42151091056439
30
0
41
1
10
40.7162140246911
20
-1.53035985052136
30
0
41
1
10
41.2543261931887
20
-1.7346155929871
30
0
41
1
10
41.5225301014595
20
-1.83000882203322
30
0
41
1
10
41.9244946125155
20
-1.96147053262465
30
0
41
1
10
42.058431043254
20
-2.00336536048974
30
0
41
1
10
42.3263996316596
20
-2.08317965741705
30
0
41
1
10
42.4604233707536
20
-2.12108590277003
30
0
41
1
10
42.7286373658875
20
-2.19259886242696
30
0
41
1
10
42.8628356117869
20
-2.22622083809344
30
0
41
1
10
43.1316278115665
20
-2.28912762968176
30
0
41
1
10
43.2662170978895
20
-2.31840368030873
30
0
41
1
10
43.5359059889482
20
-2.37235952474501
30
0
41
1
10
43.671006579442
20
-2.39704097935885
30
0
41
1
10
43.9418672142844
20
-2.44159867609326
30
0
41
1
10
44.0777782932086
20
-2.46149025220799
30
0
41
1
10
44.3491925432935
20
-2.49610856821732
30
0
41
1
10
44.5525921310778
20
-2.51823428945622
30
0
41
1
10
44.7559466346891
20
-2.53454124717362
30
0
41
1
10
44.891527335012
20
-2.54411117402313
30
0
41
1
10
44.9593131335471
20
-2.54820595210839
30
0
41
1
10
45.0271363363372
20
-2.55172679956476
30
0
0
SPLINE
5
E8
100
AcDbEntity
8
1
62
256
6
ByLayer
370
18
48
1
60
0
100
AcDbSpline
70
4
71
3
72
43
73
39
40
0
40
0
40
0
40
0
40
0.0264396379478827
40
0.0264396379478827
40
0.0528792758957659
40
0.105758551791531
40
0.105758551791531
40
0.158637827687297
40
0.158637827687297
40
0.211517103583062
40
0.211517103583062
40
0.264396379478827
40
0.264396379478827
40
0.317275655374593
40
0.317275655374593
40
0.370154931270358
40
0.370154931270358
40
0.423034207166124
40
0.423034207166124
40
0.528792758957655
40
0.528792758957655
40
0.634551310749187
40
0.634551310749187
40
0.660990948697072
40
0.660990948697072
40
0.687430586644958
40
0.687430586644958
40
0.74030986254073
40
0.74030986254073
40
0.84606841433227
40
0.84606841433227
40
0.89894769022804
40
0.89894769022804
40
0.925387328175925
40
0.925387328175925
40
0.95182696612381
40
0.95182696612381
40
1
40
1
40
1
40
1
41
1
10
45.0218992835917
20
-2.56251536325533
30
0
41
1
10
44.9540904988629
20
-2.55909612661927
30
0
41
1
10
44.8862952979189
20
-2.55509515444038
30
0
41
1
10
44.7507178331903
20
-2.54571103070353
30
0
41
1
10
44.5473675832077
20
-2.52967342978573
30
0
41
1
10
44.3439697345765
20
-2.50778945499783
30
0
41
1
10
44.0725541633047
20
-2.47346956516617
30
0
41
1
10
43.936641397367
20
-2.45371535463775
30
0
41
1
10
43.6657842921548
20
-2.40940835099769
30
0
41
1
10
43.5306871616322
20
-2.38484018593439
30
0
41
1
10
43.2610081185113
20
-2.33108655351555
30
0
41
1
10
43.1264252837218
20
-2.30189942778915
30
0
41
1
10
42.8576500707612
20
-2.23914381625559
30
0
41
1
10
42.7234620893081
20
-2.20558409751484
30
0
41
1
10
42.4552674203871
20
-2.13417359435198
30
0
41
1
10
42.3212532695225
20
-2.09630743358704
30
0
41
1
10
42.0533073205483
20
-2.01654384848447
30
0
41
1
10
41.9193835151097
20
-1.97465976468047
30
0
41
1
10
41.517451832774
20
-1.84319381240371
30
0
41
1
10
41.2492647850573
20
-1.74774771470567
30
0
41
1
10
40.7111752642073
20
-1.54328019894993
30
0
41
1
10
40.4412704142213
20
-1.43427300297486
30
0
41
1
10
40.1020647393698
20
-1.29059409486351
30
0
41
1
10
40.034087320435
20
-1.26146766652815
30
0
41
1
10
39.8982694580968
20
-1.20264668504979
30
0
41
1
10
39.8304055248571
20
-1.17294263017976
30
0
41
1
10
39.6269214183346
20
-1.0830006841193
30
0
41
1
10
39.4914109126752
20
-1.02192888266058
30
0
41
1
10
39.0850478791327
20
-0.83589224168756
30
0
41
1
10
38.8143592080363
20
-0.708114746904926
30
0
41
1
10
38.407684011156
20
-0.512791092057768
30
0
41
1
10
38.272016781407
20
-0.447075005924489
30
0
41
1
10
38.0682495562242
20
-0.347784194849311
30
0
41
1
10
38.0002841646301
20
-0.314566769443871
30
0
41
1
10
37.8646299719971
20
-0.2481266478907
30
0
41
1
10
37.7968926216904
20
-0.214880843800245
30
0
41
1
10
37.6059582856526
20
-0.121059413512768
30
0
41
1
10
37.4829409048849
20
-0.0604865144611608
30
0
41
1
10
37.3601220053426
20
-3.53370885193E-05
30
0
0
SPLINE
5
E9
100
AcDbEntity
8
1
62
256
6
ByLayer
370
18
48
1
60
0
100
AcDbSpline
70
4
71
3
72
41
73
37
40
0
40
0
40
0
40
0
40
0.0247465039763248
40
0.0247465039763248
40
0.0727980143824011
40
0.0727980143824011
40
0.16890103519455
40
0.16890103519455
40
0.216952545600623
40
0.216952545600623
40
0.265004056006696
40
0.265004056006696
40
0.313055566412768
40
0.313055566412768
40
0.337081321615803
40
0.337081321615803
40
0.361107076818838
40
0.361107076818838
40
0.457210097630981
40
0.457210097630981
40
0.553313118443124
40
0.553313118443124
40
0.649416139255268
40
0.649416139255268
40
0.69746764966134
40
0.69746764966134
40
0.745519160067411
40
0.745519160067411
40
0.793570670473483
40
0.817596425676518
40
0.817596425676518
40
0.841622180879554
40
0.841622180879554
40
0.9377252016917
40
0.9377252016917
40
1
40
1
40
1
40
1
41
1
10
29.4238584156153
20
-2.54431461651768
30
0
41
1
10
29.3546526967999
20
-2.54575093019432
30
0
41
1
10
29.2854899756323
20
-2.54651473661252
30
0
41
1
10
29.0821297818379
20
-2.54677348279995
30
0
41
1
10
28.9480115369307
20
-2.54433172828868
30
0
41
1
10
28.5457461521767
20
-2.52947203602622
30
0
41
1
10
28.2776866137759
20
-2.50956948675929
30
0
41
1
10
27.8748998220804
20
-2.46489327499299
30
0
41
1
10
27.74052250825
20
-2.44753079503278
30
0
41
1
10
27.471359994805
20
-2.40777614798773
30
0
41
1
10
27.3365703866811
20
-2.38536328818458
30
0
41
1
10
27.0664826733641
20
-2.33574476310145
30
0
41
1
10
26.9311919335637
20
-2.30856043282086
30
0
41
1
10
26.7277092456965
20
-2.26416803284727
30
0
41
1
10
26.659788902437
20
-2.24876407773095
30
0
41
1
10
26.5237491765394
20
-2.21676424070685
30
0
41
1
10
26.4556633443397
20
-2.20017588274217
30
0
41
1
10
26.1160026424047
20
-2.11466944853785
30
0
41
1
10
25.8457184981073
20
-2.03784741371567
30
0
41
1
10
25.3067798548418
20
-1.86903633846066
30
0
41
1
10
25.0381563163341
20
-1.7770295244126
30
0
41
1
10
24.50132886714
20
-1.57988273756413
30
0
41
1
10
24.2330928944625
20
-1.47477715245609
30
0
41
1
10
23.8301718571514
20
-1.30885193134154
30
0
41
1
10
23.6957722240506
20
-1.25216908140118
30
0
41
1
10
23.4266073827898
20
-1.13622232506091
30
0
41
1
10
23.291838269902
20
-1.0769468648061
30
0
41
1
10
23.0218223270481
20
-0.956157651357756
30
0
41
1
10
22.8189585063832
20
-0.863896430744376
30
0
41
1
10
22.615358937392
20
-0.769460061107651
30
0
41
1
10
22.4794380145577
20
-0.706054260570539
30
0
41
1
10
22.4113250482399
20
-0.674099657263042
30
0
41
1
10
22.0710176816948
20
-0.513667653025152
30
0
41
1
10
21.7999929659523
20
-0.383420628358806
30
0
41
1
10
21.3543877923298
20
-0.167646222471376
30
0
41
1
10
21.1794460520569
20
-0.0825044713498357
30
0
41
1
10
21.0046060361171
20
0.0025784454642803
30
0
0
SPLINE
5
EA
100
AcDbEntity
8
1
62
256
6
ByLayer
370
18
48
1
60
0
100
AcDbSpline
70
4
71
3
72
8
73
4
40
0
40
0
40
0
40
0
40
1
40
1
40
1
40
1
41
1
10
44.9999107380958
20
-0.25773826629495
30
0
41
1
10
44.9855910410169
20
-0.250643941979234
30
0
41
1
10
44.971271206691
20
-0.243549246114895
30
0
41
1
10
44.9569511606246
20
-0.236454329808026
30
0
0
SPLINE
5
EB
100
AcDbEntity
8
1
62
256
6
ByLayer
370
18
48
1
60
0
100
AcDbSpline
70
4
71
3
72
47
73
43
40
0
40
0
40
0
40
0
40
0.0852367971260674
40
0.0852367971260674
40
0.108640654490938
40
0.108640654490938
40
0.132044511855808
40
0.178852226585548
40
0.178852226585548
40
0.225659941315288
40
0.225659941315288
40
0.272467656045028
40
0.272467656045028
40
0.319275370774768
40
0.319275370774768
40
0.366083085504509
40
0.366083085504509
40
0.459698514963989
40
0.459698514963989
40
0.55331394442347
40
0.55331394442347
40
0.576717801788337
40
0.576717801788337
40
0.600121659153204
40
0.600121659153204
40
0.646929373882943
40
0.646929373882943
40
0.693737088612681
40
0.693737088612681
40
0.74054480334242
40
0.74054480334242
40
0.787352518072158
40
0.787352518072158
40
0.810756375437026
40
0.810756375437026
40
0.834160232801893
40
0.834160232801893
40
0.927775662261362
40
0.927775662261362
40
0.974583376991096
40
0.974583376991096
40
1
40
1
40
1
40
1
41
1
10
44.9273649990904
20
-0.221795660862682
30
0
41
1
10
44.6813531829664
20
-0.0999070545798872
30
0
41
1
10
44.4352637367895
20
0.0220158977438984
30
0
41
1
10
44.1210240586997
20
0.176483115101917
30
0
41
1
10
44.0532921391636
20
0.209704551516978
30
0
41
1
10
43.9180506596954
20
0.275862415296302
30
0
41
1
10
43.7154092070692
20
0.374727220270245
30
0
41
1
10
43.5133894228601
20
0.472360755742244
30
0
41
1
10
43.2445085742231
20
0.601240847221362
30
0
41
1
10
43.1103067696642
20
0.665033493539198
30
0
41
1
10
42.8423544405392
20
0.791094816551578
30
0
41
1
10
42.7086116340207
20
0.853368516667274
30
0
41
1
10
42.4413135061656
20
0.976000699312209
30
0
41
1
10
42.3077485679066
20
1.0363536488363
30
0
41
1
10
42.0407413601784
20
1.15485546868379
30
0
41
1
10
41.90731557037
20
1.21300590542162
30
0
41
1
10
41.5066748489679
20
1.38367185011495
30
0
41
1
10
41.2390154780903
20
1.49237159041888
30
0
41
1
10
40.701876227097
20
1.69786967601021
30
0
41
1
10
40.4324116325393
20
1.79471043621828
30
0
41
1
10
40.0938747815163
20
1.90661817777155
30
0
41
1
10
40.026066415826
20
1.92854771745348
30
0
41
1
10
39.8906884154691
20
1.97129773600207
30
0
41
1
10
39.8230677391605
20
1.99213458892206
30
0
41
1
10
39.6204039939548
20
2.05293920971272
30
0
41
1
10
39.4855995450118
20
2.0911381145209
30
0
41
1
10
39.2157860992841
20
2.16354211712567
30
0
41
1
10
39.0807221985135
20
2.19780710095077
30
0
41
1
10
38.8103519639491
20
2.26217493458711
30
0
41
1
10
38.6750542776767
20
2.29228835685825
30
0
41
1
10
38.4043494447549
20
2.34770797852951
30
0
41
1
10
38.2689534629665
20
2.37300647273972
30
0
41
1
10
38.0657197020635
20
2.40690095502097
30
0
41
1
10
37.9980155354224
20
2.41749717380293
30
0
41
1
10
37.8629029002326
20
2.43736347814988
30
0
41
1
10
37.795446642512
20
2.44664680024755
30
0
41
1
10
37.4583970835835
20
2.49020731542339
30
0
41
1
10
37.1892988329156
20
2.51627045641453
30
0
41
1
10
36.7868755464212
20
2.53962433735461
30
0
41
1
10
36.6529508210206
20
2.54478036655027
30
0
41
1
10
36.4465649555659
20
2.54839493707206
30
0
41
1
10
36.3739909402726
20
2.54881106723977
30
0
41
1
10
36.3014304283407
20
2.54847382367021
30
0
0
SPLINE
5
EC
100
AcDbEntity
8
1
62
256
6
ByLayer
370
18
48
1
60
0
100
AcDbSpline
70
4
71
3
72
8
73
4
40
0
40
0
40
0
40
0
40
1
40
1
40
1
40
1
41
1
10
44.9976379282778
20
-0.24652965883007
30
0
41
1
10
44.9995329456599
20
-0.246950928998984
30
0
41
1
10
45.0005616384236
20
-0.251974348736383
30
0
41
1
10
44.9999107380958
20
-0.257738266294922
30
0
0
SPLINE
5
ED
100
AcDbEntity
8
1
62
256
6
ByLayer
370
13
48
1
60
0
100
AcDbSpline
70
4
71
3
72
8
73
4
40
0
40
0
40
0
40
0
40
1
40
1
40
1
40
1
41
1
10
19.1462590692858
20
2.62019209147488
30
0
41
1
10
19.1457928520271
20
2.58652432357525
30
0
41
1
10
19.1453209744645
20
2.55285761366881
30
0
41
1
10
19.1448434354486
20
2.5191920123452
30
0
0
SPLINE
5
EE
100
AcDbEntity
8
1
62
256
6
ByLayer
370
18
48
1
60
0
100
AcDbSpline
70
4
71
3
72
47
73
43
40
0
40
0
40
0
40
0
40
0.0323396341803455
40
0.0323396341803455
40
0.127736728534496
40
0.127736728534496
40
0.175435275711572
40
0.175435275711572
40
0.223133822888649
40
0.223133822888649
40
0.270832370065726
40
0.294681643654264
40
0.294681643654264
40
0.318530917242802
40
0.318530917242802
40
0.413928011596953
40
0.413928011596953
40
0.461626558774028
40
0.461626558774028
40
0.509325105951104
40
0.509325105951104
40
0.604722200305254
40
0.604722200305254
40
0.652420747482329
40
0.652420747482329
40
0.700119294659403
40
0.700119294659403
40
0.747817841836477
40
0.747817841836477
40
0.771667115425014
40
0.771667115425014
40
0.79551638901355
40
0.79551638901355
40
0.843214936190622
40
0.843214936190622
40
0.890913483367695
40
0.890913483367695
40
0.938612030544768
40
0.938612030544768
40
0.98631057772184
40
0.98631057772184
40
1
40
1
40
1
40
1
41
1
10
19.6803215366471
20
2.5287701218227
30
0
41
1
10
19.7717879667282
20
2.53151093122088
30
0
41
1
10
19.8632027034935
20
2.5329590967354
30
0
41
1
10
20.2241566750593
20
2.53374529419807
30
0
41
1
10
20.4934403382877
20
2.52346621143693
30
0
41
1
10
20.8973690229603
20
2.49358070016649
30
0
41
1
10
21.0319888679523
20
2.48123514306394
30
0
41
1
10
21.3011830294723
20
2.45207841233824
30
0
41
1
10
21.4357976508101
20
2.43518712882946
30
0
41
1
10
21.705497339394
20
2.39618295225998
30
0
41
1
10
21.908094793855
20
2.36308898113342
30
0
41
1
10
22.1113655627336
20
2.32435953018569
30
0
41
1
10
22.2470511150148
20
2.29730015220488
30
0
41
1
10
22.3149820510491
20
2.28314841879131
30
0
41
1
10
22.6538936893617
20
2.20960572072909
30
0
41
1
10
22.9236226402161
20
2.14169367282798
30
0
41
1
10
23.3268272270573
20
2.02807815021546
30
0
41
1
10
23.460978088173
20
1.98824817600354
30
0
41
1
10
23.7288280913113
20
1.90493465187055
30
0
41
1
10
23.8625704345416
20
1.86142638206582
30
0
41
1
10
24.2639878031574
20
1.72521544920116
30
0
41
1
10
24.5317160009321
20
1.62693646048194
30
0
41
1
10
24.9334279541351
20
1.47046952746339
30
0
41
1
10
25.0673416170167
20
1.41678271788743
30
0
41
1
10
25.3352282986951
20
1.30648373775696
30
0
41
1
10
25.4692560227114
20
1.24989181585343
30
0
41
1
10
25.7381819011978
20
1.13412282225781
30
0
41
1
10
25.8730301924616
20
1.07494180584504
30
0
41
1
10
26.0758130443006
20
0.984449798044153
30
0
41
1
10
26.1434936540541
20
0.953997615007296
30
0
41
1
10
26.2790266535551
20
0.892541752743824
30
0
41
1
10
26.3469149216198
20
0.861521978668833
30
0
41
1
10
26.5505979740104
20
0.767779747718862
30
0
41
1
10
26.6859795632424
20
0.704562349598291
30
0
41
1
10
26.9560180814374
20
0.576857942078846
30
0
41
1
10
27.0906920684508
20
0.51241169733666
30
0
41
1
10
27.3596137764387
20
0.382933436771935
30
0
41
1
10
27.4938430311523
20
0.317857141848862
30
0
41
1
10
27.7619164487207
20
0.187170639980366
30
0
41
1
10
27.8957865408217
20
0.121619798636544
30
0
41
1
10
28.0681064148066
20
0.0375292468812631
30
0
41
1
10
28.1065332941531
20
0.0187899783584555
30
0
41
1
10
28.1449597209931
20
6.25516537696E-05
30
0
0
SPLINE
5
EF
100
AcDbEntity
8
1
62
256
6
ByLayer
370
18
48
1
60
0
100
AcDbSpline
70
4
71
3
72
47
73
43
40
0
40
0
40
0
40
0
40
0.0362772506153381
40
0.0362772506153381
40
0.105114589857101
40
0.105114589857101
40
0.173951929098864
40
0.173951929098864
40
0.242789268340627
40
0.242789268340627
40
0.259998603151068
40
0.259998603151068
40
0.277207937961509
40
0.31162660758239
40
0.31162660758239
40
0.346045277203271
40
0.346045277203271
40
0.380463946824153
40
0.380463946824153
40
0.449301286065916
40
0.449301286065916
40
0.518138625307677
40
0.518138625307677
40
0.586975964549439
40
0.586975964549439
40
0.60418529935988
40
0.60418529935988
40
0.62139463417032
40
0.655813303791201
40
0.655813303791201
40
0.724650643032962
40
0.724650643032962
40
0.793487982274724
40
0.793487982274724
40
0.862325321516485
40
0.862325321516485
40
0.896743991137366
40
0.913953325947805
40
0.913953325947805
40
0.931162660758245
40
0.931162660758245
40
1
40
1
40
1
40
1
41
1
10
30.816340155736
20
-2.54407470693442
30
0
41
1
10
30.6742971802462
20
-2.56633718091607
30
0
41
1
10
30.5325068248621
20
-2.58571646512468
30
0
41
1
10
30.122111365649
20
-2.6334283737929
30
0
41
1
10
29.8538612921313
20
-2.65416862182457
30
0
41
1
10
29.3171432739663
20
-2.67441084501866
30
0
41
1
10
29.0487538417406
20
-2.67390650970077
30
0
41
1
10
28.5103119904344
20
-2.65143403657998
30
0
41
1
10
28.2402702873216
20
-2.62948445731365
30
0
41
1
10
27.9009146832629
20
-2.5885989112295
30
0
41
1
10
27.8329457731941
20
-2.5797481341049
30
0
41
1
10
27.6968334582435
20
-2.56070667429768
30
0
41
1
10
27.4929628378071
20
-2.53021366062211
30
0
41
1
10
27.2898853381033
20
-2.49403902438763
30
0
41
1
10
27.0196821272517
20
-2.44091709299835
30
0
41
1
10
26.8848617483809
20
-2.41191138915755
30
0
41
1
10
26.6155608378323
20
-2.34924971310576
30
0
41
1
10
26.4810822385933
20
-2.31559398149176
30
0
41
1
10
26.0779726571501
20
-2.20788878397613
30
0
41
1
10
25.8096454715328
20
-2.12712089064851
30
0
41
1
10
25.272549286232
20
-1.94917369172438
30
0
41
1
10
25.0038009646849
20
-1.85195911249963
30
0
41
1
10
24.4644181380888
20
-1.64295121875935
30
0
41
1
10
24.1937860640551
20
-1.53116616099473
30
0
41
1
10
23.8535444204816
20
-1.38334480985066
30
0
41
1
10
23.7854472149123
20
-1.3533971111795
30
0
41
1
10
23.6495569142507
20
-1.29296752726461
30
0
41
1
10
23.4459949007895
20
-1.20144493656741
30
0
41
1
10
23.2431566107418
20
-1.10747630352478
30
0
41
1
10
22.8382156607698
20
-0.916726925980669
30
0
41
1
10
22.569220169431
20
-0.785839184757947
30
0
41
1
10
22.0317281806467
20
-0.519431837328909
30
0
41
1
10
21.7632446832625
20
-0.383888781891727
30
0
41
1
10
21.2255985055327
20
-0.110505304184016
30
0
41
1
10
20.9564415477718
20
0.0273478583890778
30
0
41
1
10
20.5511808962881
20
0.233834877562543
30
0
41
1
10
20.3481641593403
20
0.336994493857361
30
0
41
1
10
20.1443622959723
20
0.439615389871364
30
0
41
1
10
20.0082976124718
20
0.507864562261375
30
0
41
1
10
19.9401347054158
20
0.541922585890404
30
0
41
1
10
19.5995597789486
20
0.711299753451669
30
0
41
1
10
19.3273587540562
20
0.84411131783034
30
0
41
1
10
19.0548697414097
20
0.973202208606722
30
0
0
SPLINE
5
F0
100
AcDbEntity
8
1
62
256
6
ByLayer
370
18
48
1
60
0
100
AcDbSpline
70
4
71
3
72
16
73
12
40
0
40
0
40
0
40
0
40
0.249999999999941
40
0.249999999999941
40
0.374999999999984
40
0.374999999999984
40
0.500000000000027
40
0.500000000000027
40
0.750000000000014
40
0.750000000000014
40
1
40
1
40
1
40
1
41
1
10
19.0548697414097
20
0.973202208606722
30
0
41
1
10
19.0466356289241
20
0.977103095857899
30
0
41
1
10
19.039163507734
20
0.981952618291217
30
0
41
1
10
19.0290689198021
20
0.990603191192349
30
0
41
1
10
19.0258813637866
20
0.993737935888618
30
0
41
1
10
19.0200777086134
20
1.00029174515106
30
0
41
1
10
19.0174362643821
20
1.00372883620187
30
0
41
1
10
19.0102849416755
20
1.01451307517172
30
0
41
1
10
19.0065384859111
20
1.02241741695943
30
0
41
1
10
19.0015863494012
20
1.03857815762638
30
0
41
1
10
19.0002987779951
20
1.047014013264
30
0
41
1
10
19.0002987779951
20
1.05549405453695
30
0
0
SPLINE
5
F1
100
AcDbEntity
8
1
62
256
6
ByLayer
370
18
48
1
60
0
100
AcDbSpline
70
4
71
3
72
27
73
23
40
0
40
0
40
0
40
0
40
0.124999999999963
40
0.124999999999963
40
0.187499999999945
40
0.187499999999945
40
0.249999999999926
40
0.312499999999908
40
0.312499999999908
40
0.37499999999989
40
0.37499999999989
40
0.499999999999854
40
0.499999999999854
40
0.624999999999817
40
0.624999999999817
40
0.687499999999848
40
0.687499999999848
40
0.749999999999878
40
0.749999999999878
40
0.874999999999939
40
0.874999999999939
40
1
40
1
40
1
40
1
41
1
10
19.0002987779954
20
2.63247691128629
30
0
41
1
10
19.0002987779954
20
2.63140263154992
30
0
41
1
10
19.0013937449356
20
2.63031191868697
30
0
41
1
10
19.0046291090001
20
2.62865783163656
30
0
41
1
10
19.0059895665636
20
2.62809953689146
30
0
41
1
10
19.009198688335
20
2.62700494286284
30
0
41
1
10
19.0128901099457
20
2.62593065610528
30
0
41
1
10
19.0175251138816
20
2.62490206927654
30
0
41
1
10
19.0226448668932
20
2.62390056811222
30
0
41
1
10
19.0254428324846
20
2.62341527080773
30
0
41
1
10
19.0343266082928
20
2.62204727834009
30
0
41
1
10
19.0409933544889
20
2.62123392897863
30
0
41
1
10
19.055692339318
20
2.61986104460894
30
0
41
1
10
19.0634624121196
20
2.61932475966461
30
0
41
1
10
19.0757348592573
20
2.61875789071968
30
0
41
1
10
19.0799568973664
20
2.61860865061891
30
0
41
1
10
19.0883928727123
20
2.61840112374875
30
0
41
1
10
19.0926254202381
20
2.61834141884904
30
0
41
1
10
19.1053659919248
20
2.61829333718836
30
0
41
1
10
19.1140361188175
20
2.61844152654535
30
0
41
1
10
19.130622968209
20
2.61907425327664
30
0
41
1
10
19.1386038387613
20
2.61955344140984
30
0
41
1
10
19.1462590692858
20
2.62019209147488
30
0
0
SPLINE
5
F2
100
AcDbEntity
8
1
62
256
6
ByLayer
370
18
48
1
60
0
100
AcDbSpline
70
4
71
3
72
84
73
80
40
0
40
0
40
0
40
0
40
0.0469770276028923
40
0.0469770276028923
40
0.0939540552057847
40
0.0939540552057847
40
0.105698312106508
40
0.105698312106508
40
0.117442569007232
40
0.117442569007232
40
0.140931082808678
40
0.140931082808678
40
0.18790811041157
40
0.18790811041157
40
0.234885138014463
40
0.234885138014463
40
0.258373651815909
40
0.258373651815909
40
0.281862165617355
40
0.281862165617355
40
0.328839193220249
40
0.328839193220249
40
0.340583450120972
40
0.340583450120972
40
0.352327707021696
40
0.352327707021696
40
0.375816220823143
40
0.375816220823143
40
0.39930473462459
40
0.39930473462459
40
0.422793248426037
40
0.422793248426037
40
0.446281762227484
40
0.446281762227484
40
0.469770276028931
40
0.469770276028931
40
0.493258789830378
40
0.493258789830378
40
0.516747303631825
40
0.516747303631825
40
0.540235817433272
40
0.540235817433272
40
0.551980074333995
40
0.551980074333995
40
0.563724331234717
40
0.563724331234717
40
0.587212845036165
40
0.587212845036165
40
0.610701358837612
40
0.610701358837612
40
0.634189872639059
40
0.634189872639059
40
0.657678386440506
40
0.657678386440506
40
0.681166900241953
40
0.681166900241953
40
0.7046554140434
40
0.7046554140434
40
0.751632441646296
40
0.751632441646296
40
0.775120955447744
40
0.775120955447744
40
0.786865212348469
40
0.786865212348469
40
0.798609469249194
40
0.798609469249194
40
0.845586496852094
40
0.845586496852094
40
0.869075010653544
40
0.869075010653544
40
0.892563524454994
40
0.892563524454994
40
0.916052038256444
40
0.916052038256444
40
0.939540552057894
40
0.939540552057894
40
0.986517579660792
40
0.986517579660792
40
1
40
1
40
1
40
1
41
1
10
19.1462590692858
20
2.62019209147488
30
0
41
1
10
19.4168268827844
20
2.64276465165341
30
0
41
1
10
19.6873010289719
20
2.65417115756577
30
0
41
1
10
20.2286994948945
20
2.65559743451451
30
0
41
1
10
20.4995923508503
20
2.64562077209331
30
0
41
1
10
20.8387595273297
20
2.61978183931706
30
0
41
1
10
20.9066180051147
20
2.61394268608069
30
0
41
1
10
21.0423815811428
20
2.60090539302229
30
0
41
1
10
21.1102795049943
20
2.5937040922602
30
0
41
1
10
21.3134741229863
20
2.57012670953225
30
0
41
1
10
21.4484993084233
20
2.55176605706669
30
0
41
1
10
21.8528954979179
20
2.48921245279078
30
0
41
1
10
22.1214985474829
20
2.43751653226278
30
0
41
1
10
22.6579998170128
20
2.31566446929162
30
0
41
1
10
22.9258659562848
20
2.24549701364359
30
0
41
1
10
23.3277049448937
20
2.12703046527295
30
0
41
1
10
23.4616328667283
20
2.08530768054115
30
0
41
1
10
23.7295151668811
20
1.99738669883118
30
0
41
1
10
23.8635355258949
20
1.95126254177569
30
0
41
1
10
24.266696445336
20
1.80759057867951
30
0
41
1
10
24.5366891676549
20
1.70449071264903
30
0
41
1
10
24.8756276890164
20
1.56607629900745
30
0
41
1
10
24.9435442200692
20
1.53789455672174
30
0
41
1
10
25.0790413866363
20
1.48078335959565
30
0
41
1
10
25.1466640848592
20
1.45182783150196
30
0
41
1
10
25.3492135008862
20
1.36386489657104
30
0
41
1
10
25.4838660137363
20
1.30383749750661
30
0
41
1
10
25.7530048153494
20
1.1821155309724
30
0
41
1
10
25.887434708245
20
1.1203227392206
30
0
41
1
10
26.1559649393902
20
0.994807363660925
30
0
41
1
10
26.2900705654785
20
0.931093907583232
30
0
41
1
10
26.5580073925688
20
0.801842288958198
30
0
41
1
10
26.6918305901275
20
0.73628863093117
30
0
41
1
10
26.9592796415182
20
0.603490020784392
30
0
41
1
10
27.09294162359
20
0.536313181951357
30
0
41
1
10
27.3605162828075
20
0.40113644883408
30
0
41
1
10
27.4943916810856
20
0.333065154606203
30
0
41
1
10
27.7623593520871
20
0.196027324881754
30
0
41
1
10
27.8964933298783
20
0.127142143011184
30
0
41
1
10
28.1654865348822
20
-0.0104950522634795
30
0
41
1
10
28.3003087646157
20
-0.0793196951548225
30
0
41
1
10
28.5029862332756
20
-0.182664175593402
30
0
41
1
10
28.5706200255646
20
-0.217129264539778
30
0
41
1
10
28.7060374945827
20
-0.286095999667367
30
0
41
1
10
28.7738608751223
20
-0.320619198628407
30
0
41
1
10
28.9773008201541
20
-0.424087311056752
30
0
41
1
10
29.1124374709365
20
-0.492705506157563
30
0
41
1
10
29.3819380810992
20
-0.62879402838945
30
0
41
1
10
29.5163773674471
20
-0.696108254149266
30
0
41
1
10
29.7851007900477
20
-0.828415838967118
30
0
41
1
10
29.919336858543
20
-0.893509973792561
30
0
41
1
10
30.1874719638076
20
-1.02178190776098
30
0
41
1
10
30.321373324026
20
-1.08495360067485
30
0
41
1
10
30.5888886449705
20
-1.20927486065384
30
0
41
1
10
30.7225163399317
20
-1.27039702454175
30
0
41
1
10
30.9897754245821
20
-1.39008360547322
30
0
41
1
10
31.1234196444044
20
-1.44862451834285
30
0
41
1
10
31.5249538610479
20
-1.61941986408533
30
0
41
1
10
31.7933041646735
20
-1.72712535014608
30
0
41
1
10
32.1967433120898
20
-1.87937923233741
30
0
41
1
10
32.3314096547329
20
-1.92851636716353
30
0
41
1
10
32.5339820815487
20
-1.99933593228278
30
0
41
1
10
32.6016006181455
20
-2.02246360404345
30
0
41
1
10
32.7370663111293
20
-2.06770256901657
30
0
41
1
10
32.8048631304094
20
-2.08979453680612
30
0
41
1
10
33.1431968888193
20
-2.19720182311977
30
0
41
1
10
33.4126625348759
20
-2.27385995458232
30
0
41
1
10
33.8150905628786
20
-2.37522854524738
30
0
41
1
10
33.9489679141706
20
-2.40669899543906
30
0
41
1
10
34.2165268643335
20
-2.46471458578213
30
0
41
1
10
34.3501910101114
20
-2.49128064128394
30
0
41
1
10
34.6173635821609
20
-2.53947263610883
30
0
41
1
10
34.7508904098564
20
-2.56107915585426
30
0
41
1
10
35.018180120116
20
-2.5991154446865
30
0
41
1
10
35.1519315667788
20
-2.61555687077262
30
0
41
1
10
35.5536964751636
20
-2.65710059760974
30
0
41
1
10
35.8221484115842
20
-2.67450755859534
30
0
41
1
10
36.168497246592
20
-2.68316103566505
30
0
41
1
10
36.2458014580963
20
-2.68420077676669
30
0
41
1
10
36.3232279813686
20
-2.68434329426916
30
0
0
SPLINE
5
F3
100
AcDbEntity
8
1
62
256
6
ByLayer
370
18
48
1
60
0
100
AcDbSpline
70
4
71
3
72
118
73
114
40
0
40
0
40
0
40
0
40
0.0107860655817882
40
0.0107860655817882
40
0.0415155837766066
40
0.0415155837766066
40
0.0568803428740166
40
0.0568803428740166
40
0.0722451019714265
40
0.0722451019714265
40
0.102974620166245
40
0.102974620166245
40
0.133704138361063
40
0.133704138361063
40
0.149068897458473
40
0.149068897458473
40
0.164433656555883
40
0.164433656555883
40
0.179798415653293
40
0.179798415653293
40
0.195163174750703
40
0.195163174750703
40
0.225892692945522
40
0.225892692945522
40
0.24125745204293
40
0.24125745204293
40
0.256622211140338
40
0.256622211140338
40
0.287351729335155
40
0.287351729335155
40
0.302716488432564
40
0.302716488432564
40
0.318081247529974
40
0.318081247529974
40
0.333446006627383
40
0.333446006627383
40
0.348810765724792
40
0.348810765724792
40
0.364175524822201
40
0.364175524822201
40
0.371857904370905
40
0.371857904370905
40
0.379540283919609
40
0.379540283919609
40
0.394905043017018
40
0.394905043017018
40
0.410269802114427
40
0.410269802114427
40
0.440999320309247
40
0.440999320309247
40
0.471728838504067
40
0.471728838504067
40
0.487093597601478
40
0.487093597601478
40
0.502458356698889
40
0.502458356698889
40
0.517823115796299
40
0.517823115796299
40
0.53318787489371
40
0.53318787489371
40
0.548552633991121
40
0.548552633991121
40
0.556235013539826
40
0.556235013539826
40
0.563917393088532
40
0.563917393088532
40
0.579282152185944
40
0.579282152185944
40
0.594646911283356
40
0.594646911283356
40
0.625376429478179
40
0.625376429478179
40
0.640741188575591
40
0.640741188575591
40
0.656105947673002
40
0.656105947673002
40
0.686835465867826
40
0.686835465867826
40
0.717564984062649
40
0.717564984062649
40
0.73292974316006
40
0.73292974316006
40
0.74829450225747
40
0.74829450225747
40
0.763659261354881
40
0.763659261354881
40
0.779024020452292
40
0.779024020452292
40
0.809753538647114
40
0.809753538647114
40
0.825118297744525
40
0.825118297744525
40
0.840483056841936
40
0.840483056841936
40
0.871212575036758
40
0.871212575036758
40
0.886577334134169
40
0.886577334134169
40
0.90194209323158
40
0.90194209323158
40
0.917306852328991
40
0.917306852328991
40
0.924989231877698
40
0.924989231877698
40
0.932671611426404
40
0.932671611426404
40
0.963401129621229
40
0.963401129621229
40
0.978765888718642
40
0.978765888718642
40
0.994130647816055
40
0.994130647816055
40
1
40
1
40
1
40
1
41
1
10
41.422780847183
20
-1.80283890035133
30
0
41
1
10
41.3480930614152
20
-1.83163398866233
30
0
41
1
10
41.2735114913656
20
-1.85980885556941
30
0
41
1
10
40.9867984346226
20
-1.96576497948749
30
0
41
1
10
40.7752241900789
20
-2.03887150450012
30
0
41
1
10
40.458598071108
20
-2.1404841740908
30
0
41
1
10
40.3531852317604
20
-2.17301876691718
30
0
41
1
10
40.1425221506834
20
-2.23531568366184
30
0
41
1
10
40.0372718690372
20
-2.26508107448453
30
0
41
1
10
39.7218840004009
20
-2.35033486537029
30
0
41
1
10
39.5118524257892
20
-2.40148411116439
30
0
41
1
10
39.0910720475556
20
-2.49140830728248
30
0
41
1
10
38.8803905164428
20
-2.53027039486184
30
0
41
1
10
38.5637257776076
20
-2.57922172727495
30
0
41
1
10
38.4580355059715
20
-2.59396361549233
30
0
41
1
10
38.2464131757932
20
-2.6202793749832
30
0
41
1
10
38.14052317467
20
-2.63186794207971
30
0
41
1
10
37.9282847219948
20
-2.65172117112976
30
0
41
1
10
37.821948194219
20
-2.65999356395304
30
0
41
1
10
37.6087104435391
20
-2.67316380393436
30
0
41
1
10
37.502264069412
20
-2.67803216495645
30
0
41
1
10
37.1835428118983
20
-2.68756939415454
30
0
41
1
10
36.9718601639369
20
-2.68718069856351
30
0
41
1
10
36.6551231689273
20
-2.67666810833279
30
0
41
1
10
36.5497131478611
20
-2.67150362687249
30
0
41
1
10
36.3391591824244
20
-2.65785321962028
30
0
41
1
10
36.2339669817001
20
-2.64937768464753
30
0
41
1
10
35.918439543014
20
-2.61909377349514
30
0
41
1
10
35.7080926605177
20
-2.59246431687791
30
0
41
1
10
35.3923082425134
20
-2.54309621349876
30
0
41
1
10
35.2870118585881
20
-2.52506180072157
30
0
41
1
10
35.0762764200979
20
-2.48587044644614
30
0
41
1
10
34.9708114895733
20
-2.46473562006889
30
0
41
1
10
34.7598021473107
20
-2.41926041157493
30
0
41
1
10
34.6542372000972
20
-2.3949293700903
30
0
41
1
10
34.4427195761
20
-2.3432829857351
30
0
41
1
10
34.3367856751104
20
-2.31595240274965
30
0
41
1
10
34.1244317734121
20
-2.25840120684617
30
0
41
1
10
34.0180127232734
20
-2.22818195001238
30
0
41
1
10
33.8580018081269
20
-2.18069261174179
30
0
41
1
10
33.804611362255
20
-2.16450428860023
30
0
41
1
10
33.6980308562589
20
-2.13151197313644
30
0
41
1
10
33.644799276081
20
-2.11469646459881
30
0
41
1
10
33.4852716149564
20
-2.06330756754548
30
0
41
1
10
33.3791289867332
20
-2.02780995734051
30
0
41
1
10
33.1672256369574
20
-1.95440427692023
30
0
41
1
10
33.0615254639355
20
-1.9164106265101
30
0
41
1
10
32.7448225086988
20
-1.79905888667488
30
0
41
1
10
32.534150377138
20
-1.71642931591751
30
0
41
1
10
32.1128878570137
20
-1.54381921675761
30
0
41
1
10
31.9023980372471
20
-1.45368800030474
30
0
41
1
10
31.5865294792774
20
-1.31333301200371
30
0
41
1
10
31.4812163822757
20
-1.26569124193193
30
0
41
1
10
31.2706046712876
20
-1.16856448254654
30
0
41
1
10
31.1652495623615
20
-1.11917704581441
30
0
41
1
10
30.9542528775295
20
-1.01908643952845
30
0
41
1
10
30.8486192377789
20
-0.968369372243046
30
0
41
1
10
30.6369604172975
20
-0.865818513526563
30
0
41
1
10
30.5309427469976
20
-0.813971545211331
30
0
41
1
10
30.3185105049208
20
-0.709164345249121
30
0
41
1
10
30.21209836859
20
-0.656198839981556
30
0
41
1
10
30.0521396000419
20
-0.575983088518427
30
0
41
1
10
29.9987200844236
20
-0.549099233375529
30
0
41
1
10
29.8920131604763
20
-0.495240103636547
30
0
41
1
10
29.8387215485094
20
-0.468257240824158
30
0
41
1
10
29.6790646934292
20
-0.387080682706482
30
0
41
1
10
29.5729289811498
20
-0.332636123046768
30
0
41
1
10
29.3609574489224
20
-0.223719168373236
30
0
41
1
10
29.2551390639572
20
-0.169210283779023
30
0
41
1
10
28.9379855084333
20
-0.0059296232902568
30
0
41
1
10
28.7269251871615
20
0.102545360334432
30
0
41
1
10
28.4107329665391
20
0.264389429287405
30
0
41
1
10
28.3053981508552
20
0.318184447981253
30
0
41
1
10
28.0947653500223
20
0.425294112856761
30
0
41
1
10
27.9895217316759
20
0.478715849872543
30
0
41
1
10
27.6738388091941
20
0.638238694362457
30
0
41
1
10
27.4632586503578
20
0.743227408820616
30
0
41
1
10
27.0409192294264
20
0.948700251532216
30
0
41
1
10
26.829248177903
20
1.04935676225699
30
0
41
1
10
26.5107048674145
20
1.19665947396726
30
0
41
1
10
26.4043228316882
20
1.24509445780174
30
0
41
1
10
26.1912697530316
20
1.34083048402277
30
0
41
1
10
26.0844236085554
20
1.38811566835491
30
0
41
1
10
25.8713510270246
20
1.48042207054709
30
0
41
1
10
25.7650274926607
20
1.52552635923973
30
0
41
1
10
25.5526674133724
20
1.6134496873978
30
0
41
1
10
25.4466351373186
20
1.65627787291396
30
0
41
1
10
25.1289464289182
20
1.78136596481838
30
0
41
1
10
24.9177053805298
20
1.86024311878273
30
0
41
1
10
24.601352226147
20
1.97138867565138
30
0
41
1
10
24.4960541439639
20
2.00733149439273
30
0
41
1
10
24.2854834400536
20
2.07661713963725
30
0
41
1
10
24.1802120004909
20
2.10996402368127
30
0
41
1
10
23.8642532213781
20
2.20590725012013
30
0
41
1
10
23.6533655638449
20
2.26435522952497
30
0
41
1
10
23.3364955864801
20
2.34359880658491
30
0
41
1
10
23.2307868542099
20
2.36860932716416
30
0
41
1
10
23.0190912668671
20
2.41570199469376
30
0
41
1
10
22.9131315486785
20
2.43781038346063
30
0
41
1
10
22.7009949518817
20
2.47910443746696
30
0
41
1
10
22.5947603553758
20
2.49824140575356
30
0
41
1
10
22.4350343062456
20
2.52457071455083
30
0
41
1
10
22.3817316363071
20
2.53295260902547
30
0
41
1
10
22.2749873105222
20
2.5489135954262
30
0
41
1
10
22.2215203458095
20
2.55649467440748
30
0
41
1
10
21.9546218486133
20
2.59227351513596
30
0
41
1
10
21.7419404711433
20
2.61421291973377
30
0
41
1
10
21.4239236657053
20
2.63725019105354
30
0
41
1
10
21.3180502637318
20
2.64327400331754
30
0
41
1
10
21.106678004068
20
2.65204275655
30
0
41
1
10
21.0011758561442
20
2.65477873647942
30
0
41
1
10
20.8554250153397
20
2.65626262982195
30
0
41
1
10
20.8151463772786
20
2.65643085120675
30
0
41
1
10
20.7748725429435
20
2.65635803345211
30
0
0
SPLINE
5
F4
100
AcDbEntity
8
1
62
256
6
ByLayer
370
18
48
1
60
0
100
AcDbSpline
70
4
71
3
72
32
73
28
40
0
40
0
40
0
40
0
40
0.0362993879653362
40
0.0362993879653362
40
0.116607772301558
40
0.116607772301558
40
0.196916156637779
40
0.196916156637779
40
0.277224540974001
40
0.277224540974001
40
0.357532925310222
40
0.357532925310222
40
0.397687117478336
40
0.397687117478336
40
0.437841309646449
40
0.437841309646449
40
0.51814969398267
40
0.51814969398267
40
0.598458078318892
40
0.598458078318892
40
0.678766462655113
40
0.678766462655113
40
0.759074846991335
40
0.759074846991335
40
0.839383231327556
40
0.839383231327556
40
1
40
1
40
1
40
1
41
1
10
8.32578041387055
20
-1.94053989226384
30
0
41
1
10
8.27802692680302
20
-1.95683312412672
30
0
41
1
10
8.23026243859445
20
-1.97287784210098
30
0
41
1
10
8.07678723893588
20
-2.02361978071545
30
0
41
1
10
7.97103341621082
20
-2.05734884645062
30
0
41
1
10
7.75935339587039
20
-2.12227965314358
30
0
41
1
10
7.65339704988492
20
-2.15344659000419
30
0
41
1
10
7.44136278033059
20
-2.21328739711208
30
0
41
1
10
7.33528578414604
20
-2.2419560847494
30
0
41
1
10
7.12270650782614
20
-2.2964202404595
30
0
41
1
10
7.01622552143024
20
-2.32224080636982
30
0
41
1
10
6.85611464373133
20
-2.35874267936541
30
0
41
1
10
6.80267891418777
20
-2.37053825136943
30
0
41
1
10
6.69567359642963
20
-2.39338194201593
30
0
41
1
10
6.64207906915328
20
-2.40443468089799
30
0
41
1
10
6.48146253212241
20
-2.43639303496462
30
0
41
1
10
6.37451199785562
20
-2.45612405053836
30
0
41
1
10
6.16082621417587
20
-2.49243045741605
30
0
41
1
10
6.05407961436492
20
-2.50899783401113
30
0
41
1
10
5.84072978611459
20
-2.53893927345771
30
0
41
1
10
5.73418218517361
20
-2.55234366828822
30
0
41
1
10
5.52124416811117
20
-2.57592889222704
30
0
41
1
10
5.41484257701336
20
-2.58610165567049
30
0
41
1
10
5.20192038245261
20
-2.60310294318563
30
0
41
1
10
5.09537877932064
20
-2.60992689672392
30
0
41
1
10
4.77529528572671
20
-2.62537562072328
30
0
41
1
10
4.56133338725192
20
-2.62898840494151
30
0
41
1
10
4.34647924350259
20
-2.62603538392472
30
0
0
SPLINE
5
F5
100
AcDbEntity
8
1
62
256
6
ByLayer
370
18
48
1
60
0
100
AcDbSpline
70
4
71
3
72
35
73
31
40
0
40
0
40
0
40
0
40
0.128766424247073
40
0.128766424247073
40
0.19314963637061
40
0.19314963637061
40
0.257532848494146
40
0.257532848494146
40
0.321916060617683
40
0.321916060617683
40
0.386299272741219
40
0.386299272741219
40
0.450682484864756
40
0.450682484864756
40
0.515065696988293
40
0.515065696988293
40
0.579448909111829
40
0.579448909111829
40
0.611640515173596
40
0.611640515173596
40
0.643832121235363
40
0.708215333358895
40
0.708215333358895
40
0.772598545482426
40
0.772598545482426
40
0.836981757605958
40
0.836981757605958
40
0.901364969729489
40
0.901364969729489
40
1
40
1
40
1
40
1
41
1
10
5.75892800299283
20
-0.863177436574318
30
0
41
1
10
6.03763174819849
20
-0.99644254625116
30
0
41
1
10
6.31470715476095
20
-1.1251664696197
30
0
41
1
10
6.7287688928094
20
-1.31000863933994
30
0
41
1
10
6.86653792985902
20
-1.37023350498538
30
0
41
1
10
7.14179061821233
20
-1.48754774301062
30
0
41
1
10
7.27926836664776
20
-1.54464908743759
30
0
41
1
10
7.55403639784106
20
-1.65556409684945
30
0
41
1
10
7.69137121760718
20
-1.70930409883493
30
0
41
1
10
7.96617516101782
20
-1.81300683163892
30
0
41
1
10
8.10360144788586
20
-1.86303562931891
30
0
41
1
10
8.37863595878113
20
-1.95923699741169
30
0
41
1
10
8.51624627368449
20
-2.00540547409224
30
0
41
1
10
8.7918550334789
20
-2.09357381818248
30
0
41
1
10
8.92986564437405
20
-2.135560190045
30
0
41
1
10
9.20638232284608
20
-2.21518400262394
30
0
41
1
10
9.34491643350071
20
-2.25278389540702
30
0
41
1
10
9.55336828887172
20
-2.3055687290865
30
0
41
1
10
9.62300976113988
20
-2.32258361250015
30
0
41
1
10
9.76222281499128
20
-2.35535270626408
30
0
41
1
10
9.97072853736216
20
-2.40256283244671
30
0
41
1
10
10.1783788552542
20
-2.44390434722908
30
0
41
1
10
10.4546835371
20
-2.49371381010144
30
0
41
1
10
10.5925731655728
20
-2.51595194481342
30
0
41
1
10
10.8679101507702
20
-2.55508340867755
30
0
41
1
10
11.0053624053948
20
-2.57196665918903
30
0
41
1
10
11.2801869984382
20
-2.60024370929946
30
0
41
1
10
11.4175363174815
20
-2.61165473431825
30
0
41
1
10
11.7652098890227
20
-2.63363958132854
30
0
41
1
10
11.9755145433292
20
-2.64051995306724
30
0
41
1
10
12.1860854631103
20
-2.64089776579428
30
0
0
SPLINE
5
F6
100
AcDbEntity
8
1
62
256
6
ByLayer
370
18
48
1
60
0
100
AcDbSpline
70
4
71
3
72
57
73
53
40
0
40
0
40
0
40
0
40
0.0087969062555443
40
0.0087969062555443
40
0.0211869449273489
40
0.0211869449273489
40
0.0335769835991535
40
0.0335769835991535
40
0.0583570609427628
40
0.107917215629981
40
0.107917215629981
40
0.207037525004418
40
0.207037525004418
40
0.256597679691638
40
0.256597679691638
40
0.268987718363443
40
0.268987718363443
40
0.281377757035249
40
0.30615783437886
40
0.30615783437886
40
0.405278143753299
40
0.405278143753299
40
0.504398453127738
40
0.504398453127738
40
0.516788491799544
40
0.516788491799544
40
0.52917853047135
40
0.553958607814964
40
0.553958607814964
40
0.603518762502191
40
0.603518762502191
40
0.653078917189419
40
0.653078917189419
40
0.702639071876646
40
0.702639071876646
40
0.72741914922026
40
0.72741914922026
40
0.739809187892067
40
0.739809187892067
40
0.752199226563874
40
0.752199226563874
40
0.801759381251099
40
0.801759381251099
40
0.900879690625551
40
0.900879690625551
40
0.950439845312775
40
0.950439845312775
40
0.975219922656387
40
0.975219922656387
40
0.987609961328193
40
0.987609961328193
40
1
40
1
40
1
40
1
41
1
10
28.6151304084264
20
2.67047035214785
30
0
41
1
10
28.6632722892068
20
2.67055661544436
30
0
41
1
10
28.7114498369772
20
2.67030065724631
30
0
41
1
10
28.8275785642705
20
2.66885572019319
30
0
41
1
10
28.8955689341717
20
2.667328667671
30
0
41
1
10
29.0317298412812
20
2.66290200973498
30
0
41
1
10
29.0999654649152
20
2.6599986667461
30
0
41
1
10
29.3044436454852
20
2.64924799944402
30
0
41
1
10
29.7122161974169
20
2.61961939069906
30
0
41
1
10
30.1172003017868
20
2.56618218210681
30
0
41
1
10
30.9254865723964
20
2.42919290300452
30
0
41
1
10
31.4620970643655
20
2.2976864367925
30
0
41
1
10
32.2714591204054
20
2.04709651839312
30
0
41
1
10
32.5420011683573
20
1.95469854949485
30
0
41
1
10
32.8820045480368
20
1.82901255380784
30
0
41
1
10
32.9501145069326
20
1.80335936668445
30
0
41
1
10
33.0864643409478
20
1.75108676740487
30
0
41
1
10
33.2906854162
20
1.6714203917949
30
0
41
1
10
33.4940929450128
20
1.58815819200723
30
0
41
1
10
34.1707113446446
20
1.30335776489025
30
0
41
1
10
34.7074870366296
20
1.05222863563367
30
0
41
1
10
35.7828655539333
20
0.52336529238795
30
0
41
1
10
36.3214489834739
20
0.245602927654801
30
0
41
1
10
36.9344428080679
20
-0.0703587411119599
30
0
41
1
10
37.0025725620783
20
-0.105472946770561
30
0
41
1
10
37.1385374204057
20
-0.175490531697108
30
0
41
1
10
37.3422014121119
20
-0.280282568726534
30
0
41
1
10
37.5451159788738
20
-0.38417985980243
30
0
41
1
10
37.9502127247193
20
-0.590277047434057
30
0
41
1
10
38.2193087315116
20
-0.725395329686137
30
0
41
1
10
38.7569008121837
20
-0.988588388804743
30
0
41
1
10
39.025380017885
20
-1.11669503257616
30
0
41
1
10
39.5630230752867
20
-1.36349936560555
30
0
41
1
10
39.8321903388451
20
-1.48218989775538
30
0
41
1
10
40.2375046533889
20
-1.6512710711375
30
0
41
1
10
40.3728711394718
20
-1.70613768586861
30
0
41
1
10
40.5764371762846
20
-1.78597510784542
30
0
41
1
10
40.6443783964005
20
-1.81217744340688
30
0
41
1
10
40.7804536246557
20
-1.86372414355893
30
0
41
1
10
40.8486019711814
20
-1.88907257503675
30
0
41
1
10
41.1885238666098
20
-2.01308827833233
30
0
41
1
10
41.4589123299326
20
-2.10398585605449
30
0
41
1
10
42.2675643385297
20
-2.34965657955129
30
0
41
1
10
42.8033788992515
20
-2.47732702556772
30
0
41
1
10
43.6099860568115
20
-2.60798905842017
30
0
41
1
10
43.8793433626821
20
-2.64140312694056
30
0
41
1
10
44.2851151238759
20
-2.67552675080205
30
0
41
1
10
44.4206622997885
20
-2.68423498902095
30
0
41
1
10
44.6245521770189
20
-2.69320105734451
30
0
41
1
10
44.6926439981743
20
-2.6955073296036
30
0
41
1
10
44.8287490296211
20
-2.69873409203041
30
0
41
1
10
44.8967878644928
20
-2.69965639989721
30
0
41
1
10
44.9648243753365
20
-2.69988737278493
30
0
0
SPLINE
5
F7
100
AcDbEntity
8
1
62
256
6
ByLayer
370
18
48
1
60
0
100
AcDbSpline
70
4
71
3
72
10
73
6
40
0
40
0
40
0
40
0
40
0.5
40
0.5
40
1
40
1
40
1
40
1
41
1
10
44.9476090814744
20
-2.68271048807648
30
0
41
1
10
44.9504704765544
20
-2.68826856367392
30
0
41
1
10
44.9533348493629
20
-2.69248296807268
30
0
41
1
10
44.9590760263735
20
-2.69821577934789
30
0
41
1
10
44.9619538608051
20
-2.69973038122208
30
0
41
1
10
44.9648243753365
20
-2.69988737278493
30
0
0
SPLINE
5
F8
100
AcDbEntity
8
1
62
256
6
ByLayer
370
18
48
1
60
0
100
AcDbSpline
70
4
71
3
72
69
73
65
40
0
40
0
40
0
40
0
40
0.051287312141267
40
0.051287312141267
40
0.102574624282534
40
0.102574624282534
40
0.11539645231785
40
0.11539645231785
40
0.128218280353166
40
0.128218280353166
40
0.153861936423801
40
0.153861936423801
40
0.179505592494435
40
0.179505592494435
40
0.20514924856507
40
0.20514924856507
40
0.307723872847604
40
0.307723872847604
40
0.333367528918237
40
0.333367528918237
40
0.346189356953555
40
0.346189356953555
40
0.359011184988873
40
0.359011184988873
40
0.410298497130146
40
0.410298497130146
40
0.435942153200784
40
0.435942153200784
40
0.461585809271422
40
0.461585809271422
40
0.512873121412695
40
0.512873121412695
40
0.564160433553968
40
0.564160433553968
40
0.589804089624605
40
0.589804089624605
40
0.602625917659922
40
0.602625917659922
40
0.615447745695239
40
0.641091401765876
40
0.641091401765876
40
0.666735057836513
40
0.666735057836513
40
0.692378713907149
40
0.692378713907149
40
0.718022369977786
40
0.718022369977786
40
0.769309682119057
40
0.769309682119057
40
0.794953338189692
40
0.794953338189692
40
0.820596994260326
40
0.820596994260326
40
0.833418822295645
40
0.833418822295645
40
0.846240650330963
40
0.846240650330963
40
0.8718843064016
40
0.8718843064016
40
0.923171618542873
40
0.923171618542873
40
0.974458930684146
40
0.974458930684146
40
1
40
1
40
1
40
1
41
1
10
44.9476090814837
20
-2.68271048807637
30
0
41
1
10
44.6767602427022
20
-2.66636416611652
30
0
41
1
10
44.4064081751111
20
-2.63911695930622
30
0
41
1
10
43.8653075906417
20
-2.56363237856195
30
0
41
1
10
43.5945725245403
20
-2.51539714432664
30
0
41
1
10
43.2551747585379
20
-2.44239588918947
30
0
41
1
10
43.1872142862336
20
-2.42715178373876
30
0
41
1
10
43.0515767889218
20
-2.39549561985257
30
0
41
1
10
42.9838556692276
20
-2.37907450590555
30
0
41
1
10
42.7809574406871
20
-2.32806872814007
30
0
41
1
10
42.6460410801665
20
-2.29174450273848
30
0
41
1
10
42.3766670145641
20
-2.21476065567808
30
0
41
1
10
42.2422156734246
20
-2.17409640229525
30
0
41
1
10
41.9736805150971
20
-2.0885772185058
30
0
41
1
10
41.8395915754522
20
-2.04372627173871
30
0
41
1
10
41.1694658979313
20
-1.80980051699612
30
0
41
1
10
40.6344149302198
20
-1.59168233000287
30
0
41
1
10
39.9605084686004
20
-1.28983377376113
30
0
41
1
10
39.8254744054381
20
-1.22800161525785
30
0
41
1
10
39.622433122167
20
-1.13321930393818
30
0
41
1
10
39.5546707407547
20
-1.10128650231067
30
0
41
1
10
39.4189532159137
20
-1.03678987936661
30
0
41
1
10
39.3509645285375
20
-1.00420947210742
30
0
41
1
10
39.0117860151034
20
-0.84049157612975
30
0
41
1
10
38.7419103899443
20
-0.706430256601578
30
0
41
1
10
38.3383328116936
20
-0.502619506483626
30
0
41
1
10
38.2040129173176
20
-0.434229488476376
30
0
41
1
10
37.9356491031093
20
-0.296812606281065
30
0
41
1
10
37.8016038038303
20
-0.227788430516171
30
0
41
1
10
37.3995357324957
20
-0.0204462668871486
30
0
41
1
10
37.1315876227078
20
0.118154717777372
30
0
41
1
10
36.5947022151406
20
0.393754924673175
30
0
41
1
10
36.3257870732629
20
0.530798350333669
30
0
41
1
10
35.9206254010523
20
0.733085268379455
30
0
41
1
10
35.7852688433108
20
0.799958864973974
30
0
41
1
10
35.5816507477984
20
0.899179560657899
30
0
41
1
10
35.5136175184239
20
0.932101518777444
30
0
41
1
10
35.3777983393212
20
0.997316525054515
30
0
41
1
10
35.1743514070111
20
1.0942388617085
30
0
41
1
10
34.971655313164
20
1.1883168251419
30
0
41
1
10
34.7019347463031
20
1.31103764664022
30
0
41
1
10
34.5673422300173
20
1.37103323307369
30
0
41
1
10
34.2984725013215
20
1.4879435554962
30
0
41
1
10
34.1641988964231
20
1.54486636263636
30
0
41
1
10
33.895865403565
20
1.6554865068029
30
0
41
1
10
33.7618021136955
20
1.70917626450429
30
0
41
1
10
33.3595743418147
20
1.86485876331093
30
0
41
1
10
33.0913796674538
20
1.96148230325497
30
0
41
1
10
32.6881071092309
20
2.09436115712629
30
0
41
1
10
32.5535204353255
20
2.13664643772697
30
0
41
1
10
32.2839053002893
20
2.21701897469029
30
0
41
1
10
32.1488745464281
20
2.25510122341214
30
0
41
1
10
31.9458093967376
20
2.30882424282893
30
0
41
1
10
31.8780348697407
20
2.32616596303885
30
0
41
1
10
31.7422935498394
20
2.35969045578011
30
0
41
1
10
31.6742651752884
20
2.37588712388742
30
0
41
1
10
31.4703311818461
20
2.42259075861159
30
0
41
1
10
31.3347583787604
20
2.45117478006486
30
0
41
1
10
30.9289449637151
20
2.52920348070825
30
0
41
1
10
30.6596301151877
20
2.57093731813006
30
0
41
1
10
30.122111365649
20
2.6334283737929
30
0
41
1
10
29.8538612921313
20
2.65416862182454
30
0
41
1
10
29.4518595599981
20
2.66933004460307
30
0
41
1
10
29.3182092918934
20
2.67173520495095
30
0
41
1
10
29.1844525418955
20
2.67149206673659
30
0
0
SPLINE
5
F9
100
AcDbEntity
8
1
62
256
6
ByLayer
370
18
48
1
60
0
100
AcDbSpline
70
4
71
3
72
27
73
23
40
0
40
0
40
0
40
0
40
0.124999999999999
40
0.124999999999999
40
0.187499999999999
40
0.187499999999999
40
0.25
40
0.3125
40
0.3125
40
0.375
40
0.375
40
0.5
40
0.5
40
0.625
40
0.625
40
0.6875
40
0.6875
40
0.75
40
0.75
40
0.875
40
0.875
40
1
40
1
40
1
40
1
41
1
10
19.0002987779954
20
-2.63247691128632
30
0
41
1
10
19.0002987779954
20
-2.63140263154992
30
0
41
1
10
19.0013937449356
20
-2.63031191868697
30
0
41
1
10
19.0046291090001
20
-2.62865783163656
30
0
41
1
10
19.0059895665635
20
-2.62809953689146
30
0
41
1
10
19.009198688335
20
-2.62700494286284
30
0
41
1
10
19.0128900999924
20
-2.62593064637605
30
0
41
1
10
19.0175251138816
20
-2.62490206927654
30
0
41
1
10
19.0226448668932
20
-2.62390056811222
30
0
41
1
10
19.0254428324846
20
-2.62341527080773
30
0
41
1
10
19.0343266082928
20
-2.62204727834009
30
0
41
1
10
19.0409933544889
20
-2.62123392897863
30
0
41
1
10
19.055692339318
20
-2.61986104460894
30
0
41
1
10
19.0634624121196
20
-2.61932475966461
30
0
41
1
10
19.0757348592573
20
-2.61875789071968
30
0
41
1
10
19.0799568973664
20
-2.61860865061891
30
0
41
1
10
19.0883928727123
20
-2.61840112374875
30
0
41
1
10
19.0926254202381
20
-2.61834141884904
30
0
41
1
10
19.1053659919248
20
-2.61829333718836
30
0
41
1
10
19.1140361188175
20
-2.61844152654535
30
0
41
1
10
19.130622968209
20
-2.61907425327664
30
0
41
1
10
19.1386038387613
20
-2.61955344140984
30
0
41
1
10
19.1462590692858
20
-2.62019209147488
30
0
0
SPLINE
5
FA
100
AcDbEntity
8
1
62
256
6
ByLayer
370
18
48
1
60
0
100
AcDbSpline
70
4
71
3
72
10
73
6
40
0
40
0
40
0
40
0
40
0.5
40
0.5
40
1
40
1
40
1
40
1
41
1
10
44.9540151505576
20
-0.235783271653872
30
0
41
1
10
44.960287141884
20
-0.176724390459043
30
0
41
1
10
44.9672496529286
20
-0.117087295058752
30
0
41
1
10
44.9824689853163
20
0.0011915584228177
30
0
41
1
10
44.9907390471524
20
0.0599970832215888
30
0
41
1
10
44.9997306298025
20
0.118464163624822
30
0
0
SPLINE
5
FB
100
AcDbEntity
8
1
62
256
6
ByLayer
370
18
48
1
60
0
100
AcDbSpline
70
4
71
3
72
44
73
40
40
0
40
0
40
0
40
0
40
0.079980807616025
40
0.079980807616025
40
0.15996161523205
40
0.15996161523205
40
0.199952019040062
40
0.199952019040062
40
0.239942422848075
40
0.239942422848075
40
0.279932826656087
40
0.279932826656087
40
0.3199232304641
40
0.3199232304641
40
0.399904038080125
40
0.399904038080125
40
0.439894441888135
40
0.439894441888135
40
0.479884845696146
40
0.479884845696146
40
0.559865653312171
40
0.559865653312171
40
0.599856057120184
40
0.599856057120184
40
0.639846460928196
40
0.639846460928196
40
0.719827268544217
40
0.719827268544217
40
0.799808076160238
40
0.799808076160238
40
0.839798479968248
40
0.839798479968248
40
0.879788883776259
40
0.879788883776259
40
0.919779287584269
40
0.919779287584269
40
0.95976969139228
40
0.95976969139228
40
1
40
1
40
1
40
1
41
1
10
44.9997306298025
20
0.118464163624907
30
0
41
1
10
44.7876865825098
20
0.22899121998131
30
0
41
1
10
44.5764639679619
20
0.338746901240143
30
0
41
1
10
44.1546442510882
20
0.554798914141429
30
0
41
1
10
43.9441238582761
20
0.661255779595678
30
0
41
1
10
43.6286628100405
20
0.818116530194487
30
0
41
1
10
43.5235292021337
20
0.869870275680626
30
0
41
1
10
43.3134089893443
20
0.972506033156378
30
0
41
1
10
43.2084107473267
20
1.02336392544237
30
0
41
1
10
42.9982670036856
20
1.12365911177747
30
0
41
1
10
42.8931402694143
20
1.17313128774316
30
0
41
1
10
42.6826435610335
20
1.27048885894078
30
0
41
1
10
42.5772722662725
20
1.31837267482916
30
0
41
1
10
42.2607518032819
20
1.45957364218307
30
0
41
1
10
42.0492253077985
20
1.55049083490431
30
0
41
1
10
41.7307676766416
20
1.6813015850463
30
0
41
1
10
41.6244795717238
20
1.72407307624118
30
0
41
1
10
41.4114293919849
20
1.80759695312256
30
0
41
1
10
41.3051326585113
20
1.84812310835375
30
0
41
1
10
40.9867984346226
20
1.96576497948752
30
0
41
1
10
40.7752241900789
20
2.03887150450015
30
0
41
1
10
40.458598071108
20
2.1404841740908
30
0
41
1
10
40.3531852317604
20
2.17301876691718
30
0
41
1
10
40.1425221506834
20
2.23531568366184
30
0
41
1
10
40.0372718690373
20
2.26508107448453
30
0
41
1
10
39.7218840004009
20
2.35033486537026
30
0
41
1
10
39.5118524257892
20
2.40148411116439
30
0
41
1
10
39.0910720475556
20
2.49140830728248
30
0
41
1
10
38.8803905164429
20
2.53027039486184
30
0
41
1
10
38.5637257776077
20
2.57922172727495
30
0
41
1
10
38.4580355059715
20
2.59396361549233
30
0
41
1
10
38.2464131757932
20
2.62027937498317
30
0
41
1
10
38.1405231746699
20
2.63186794207971
30
0
41
1
10
37.9282847219948
20
2.65172117112976
30
0
41
1
10
37.8219481942191
20
2.65999356395304
30
0
41
1
10
37.6087104435392
20
2.67316380393436
30
0
41
1
10
37.502264069412
20
2.67803216495645
30
0
41
1
10
37.289145888506
20
2.68440938922268
30
0
41
1
10
37.1824700757435
20
2.68590052691809
30
0
41
1
10
37.0759614005014
20
2.68570083601691
30
0
0
SPLINE
5
FC
100
AcDbEntity
8
1
62
256
6
ByLayer
370
18
48
1
60
0
100
AcDbSpline
70
4
71
3
72
122
73
118
40
0
40
0
40
0
40
0
40
0.0201774285100077
40
0.0201774285100077
40
0.0355800527526926
40
0.0355800527526926
40
0.0509826769953774
40
0.0509826769953774
40
0.0817879254807483
40
0.0817879254807483
40
0.0971905497234343
40
0.0971905497234343
40
0.11259317396612
40
0.11259317396612
40
0.127995798208806
40
0.127995798208806
40
0.135697110330149
40
0.135697110330149
40
0.143398422451492
40
0.143398422451492
40
0.174203670936865
40
0.174203670936865
40
0.189606295179551
40
0.189606295179551
40
0.205008919422237
40
0.205008919422237
40
0.220411543664923
40
0.220411543664923
40
0.23581416790761
40
0.23581416790761
40
0.266619416392982
40
0.266619416392982
40
0.297424664878355
40
0.297424664878355
40
0.31282728912104
40
0.31282728912104
40
0.320528601242383
40
0.320528601242383
40
0.328229913363725
40
0.328229913363725
40
0.34363253760641
40
0.34363253760641
40
0.359035161849096
40
0.359035161849096
40
0.389840410334465
40
0.389840410334465
40
0.420645658819834
40
0.420645658819834
40
0.436048283062519
40
0.436048283062519
40
0.451450907305204
40
0.451450907305204
40
0.466853531547888
40
0.466853531547888
40
0.482256155790573
40
0.482256155790573
40
0.513061404275943
40
0.513061404275943
40
0.520762716397286
40
0.520762716397286
40
0.528464028518629
40
0.528464028518629
40
0.543866652761315
40
0.543866652761315
40
0.574671901246687
40
0.574671901246687
40
0.590074525489374
40
0.590074525489374
40
0.60547714973206
40
0.60547714973206
40
0.620879773974747
40
0.620879773974747
40
0.636282398217434
40
0.636282398217434
40
0.667087646702807
40
0.667087646702807
40
0.682490270945494
40
0.682490270945494
40
0.697892895188181
40
0.697892895188181
40
0.713295519430868
40
0.713295519430868
40
0.728698143673555
40
0.728698143673555
40
0.759503392158929
40
0.759503392158929
40
0.774906016401617
40
0.774906016401617
40
0.790308640644304
40
0.790308640644304
40
0.805711264886992
40
0.805711264886992
40
0.82111388912968
40
0.82111388912968
40
0.836516513372367
40
0.836516513372367
40
0.851919137615055
40
0.851919137615055
40
0.867321761857742
40
0.867321761857742
40
0.88272438610043
40
0.88272438610043
40
0.890425698221773
40
0.890425698221773
40
0.898127010343117
40
0.898127010343117
40
0.913529634585804
40
0.913529634585804
40
0.92893225882849
40
0.92893225882849
40
0.944334883071177
40
0.944334883071177
40
0.959737507313864
40
0.959737507313864
40
0.97514013155655
40
0.97514013155655
40
1
40
1
40
1
40
1
41
1
10
25.1217216765125
20
-1.78266170827447
30
0
41
1
10
24.983230321753
20
-1.83522229410929
30
0
41
1
10
24.8449440917078
20
-1.88580661910689
30
0
41
1
10
24.601352226147
20
-1.97138867565138
30
0
41
1
10
24.4960541439639
20
-2.00733149439276
30
0
41
1
10
24.2854834400536
20
-2.07661713963728
30
0
41
1
10
24.1802120004908
20
-2.10996402368127
30
0
41
1
10
23.8642532213781
20
-2.20590725012013
30
0
41
1
10
23.6533655638449
20
-2.26435522952497
30
0
41
1
10
23.3364955864801
20
-2.34359880658488
30
0
41
1
10
23.2307868542099
20
-2.36860932716416
30
0
41
1
10
23.0190912668671
20
-2.41570199469379
30
0
41
1
10
22.9131315486785
20
-2.43781038346063
30
0
41
1
10
22.7009949518817
20
-2.47910443746696
30
0
41
1
10
22.5947603553758
20
-2.49824140575356
30
0
41
1
10
22.4350343062456
20
-2.52457071455083
30
0
41
1
10
22.3817316363071
20
-2.53295260902547
30
0
41
1
10
22.2749873105222
20
-2.5489135954262
30
0
41
1
10
22.2215203458095
20
-2.55649467440748
30
0
41
1
10
21.9546218486133
20
-2.59227351513596
30
0
41
1
10
21.7419404711433
20
-2.61421291973377
30
0
41
1
10
21.4239236657053
20
-2.63725019105354
30
0
41
1
10
21.3180502637318
20
-2.64327400331754
30
0
41
1
10
21.106678004068
20
-2.65204275655
30
0
41
1
10
21.0011758561442
20
-2.65477873647942
30
0
41
1
10
20.7902485865699
20
-2.65692619284641
30
0
41
1
10
20.6848436666948
20
-2.65634191684387
30
0
41
1
10
20.4740162010582
20
-2.65188981359185
30
0
41
1
10
20.3685909368956
20
-2.64802449524302
30
0
41
1
10
20.052250139183
20
-2.63155091555586
30
0
41
1
10
19.8413034238291
20
-2.61405808060283
30
0
41
1
10
19.4188053525072
20
-2.56612743611865
30
0
41
1
10
19.20749620563
20
-2.53553912977853
30
0
41
1
10
18.8892565731962
20
-2.48018367312906
30
0
41
1
10
18.7829694603208
20
-2.46015959202467
30
0
41
1
10
18.623176442461
20
-2.42779769955544
30
0
41
1
10
18.5698532299386
20
-2.41662156816324
30
0
41
1
10
18.4630868011453
20
-2.39349000615354
30
0
41
1
10
18.409618437403
20
-2.38152823880765
30
0
41
1
10
18.2491983522585
20
-2.34451115552477
30
0
41
1
10
18.1425044153479
20
-2.31838264974596
30
0
41
1
10
17.9295254864078
20
-2.2633507241288
30
0
41
1
10
17.8232393342239
20
-2.23445123874697
30
0
41
1
10
17.5051237830157
20
-2.14345787141139
30
0
41
1
10
17.2937655042226
20
-2.07735556423978
30
0
41
1
10
16.8712869390892
20
-1.93595246735754
30
0
41
1
10
16.660238607526
20
-1.86058275765231
30
0
41
1
10
16.3437721784985
20
-1.74083811143618
30
0
41
1
10
16.2382699986229
20
-1.69985353130508
30
0
41
1
10
16.0272874093249
20
-1.61566095253693
30
0
41
1
10
15.9218487599028
20
-1.57238264157815
30
0
41
1
10
15.7107627133045
20
-1.4839437738197
30
0
41
1
10
15.6051295376096
20
-1.43876229822237
30
0
41
1
10
15.3935541231954
20
-1.34669288583899
30
0
41
1
10
15.2876028370593
20
-1.2998220045155
30
0
41
1
10
14.9692139860395
20
-1.15677864445277
30
0
41
1
10
14.7562917362951
20
-1.05808411962352
30
0
41
1
10
14.4889741456559
20
-0.931062101783454
30
0
41
1
10
14.4354429943332
20
-0.905465324708416
30
0
41
1
10
14.3286214682269
20
-0.854005920499134
30
0
41
1
10
14.2752902636812
20
-0.828124678250049
30
0
41
1
10
14.1154677958917
20
-0.750163139764453
30
0
41
1
10
14.009133372536
20
-0.697794000203601
30
0
41
1
10
13.6905666139378
20
-0.53991582146773
30
0
41
1
10
13.4787025921067
20
-0.43377356738867
30
0
41
1
10
13.1614285237972
20
-0.27372161698446
30
0
41
1
10
13.0557667661914
20
-0.220212573363511
30
0
41
1
10
12.8445586822726
20
-0.113032885486689
30
0
41
1
10
12.7389896119066
20
-0.0594079626983159
30
0
41
1
10
12.5280543941456
20
0.0481793008474085
30
0
41
1
10
12.4226519142592
20
0.102068380485264
30
0
41
1
10
12.2117215747567
20
0.209523357227226
30
0
41
1
10
12.1062119523259
20
0.263125946290387
30
0
41
1
10
11.7893467140677
20
0.423151904059154
30
0
41
1
10
11.5776782355995
20
0.528841093263196
30
0
41
1
10
11.259385853871
20
0.685576425655142
30
0
41
1
10
11.1531347567769
20
0.737477661829786
30
0
41
1
10
10.9403112659665
20
0.84056348609019
30
0
41
1
10
10.8338004261957
20
0.891870937609582
30
0
41
1
10
10.6203009602339
20
0.993455069437545
30
0
41
1
10
10.5132001089335
20
1.04377525337151
30
0
41
1
10
10.2996617134008
20
1.14253832638553
30
0
41
1
10
10.1930751945698
20
1.19102801716053
30
0
41
1
10
9.87379067735674
20
1.33375526855582
30
0
41
1
10
9.66162571182142
20
1.42536011613623
30
0
41
1
10
9.34404288655824
20
1.55691136652041
30
0
41
1
10
9.23831351425414
20
1.59982091661038
30
0
41
1
10
9.02712245338705
20
1.68375097303826
30
0
41
1
10
8.92160128108441
20
1.72467467421447
30
0
41
1
10
8.71054532168566
20
1.80420002092228
30
0
41
1
10
8.60501237143075
20
1.84280519953359
30
0
41
1
10
8.3938282961341
20
1.9175621998036
30
0
41
1
10
8.28818558875403
20
1.95372730223335
30
0
41
1
10
8.07678723893588
20
2.02361978071548
30
0
41
1
10
7.97103341621084
20
2.05734884645062
30
0
41
1
10
7.75935339587039
20
2.12227965314358
30
0
41
1
10
7.65339704988492
20
2.15344659000419
30
0
41
1
10
7.44136278033062
20
2.21328739711208
30
0
41
1
10
7.33528578414607
20
2.2419560847494
30
0
41
1
10
7.12270650782614
20
2.2964202404595
30
0
41
1
10
7.01622552143024
20
2.32224080636985
30
0
41
1
10
6.8561146437313
20
2.35874267936541
30
0
41
1
10
6.80267891418777
20
2.37053825136943
30
0
41
1
10
6.69567359642963
20
2.39338194201593
30
0
41
1
10
6.64207906915331
20
2.40443468089799
30
0
41
1
10
6.48146253212241
20
2.43639303496462
30
0
41
1
10
6.37451199785568
20
2.45612405053836
30
0
41
1
10
6.16082621417593
20
2.49243045741605
30
0
41
1
10
6.05407961436492
20
2.50899783401113
30
0
41
1
10
5.84072978611459
20
2.53893927345771
30
0
41
1
10
5.73418218517364
20
2.55234366828822
30
0
41
1
10
5.52124416811119
20
2.57592889222704
30
0
41
1
10
5.41484257701333
20
2.58610165567049
30
0
41
1
10
5.20192038245261
20
2.60310294318563
30
0
41
1
10
5.09537877932064
20
2.60992689672395
30
0
41
1
10
4.81647913389395
20
2.6233878959068
30
0
41
1
10
4.64390088300374
20
2.62734482029748
30
0
41
1
10
4.4707816951161
20
2.62701060601646
30
0
0
SPLINE
5
FD
100
AcDbEntity
8
1
62
256
6
ByLayer
370
18
48
1
60
0
100
AcDbSpline
70
4
71
3
72
55
73
51
40
0
40
0
40
0
40
0
40
0.0308386914679365
40
0.0308386914679365
40
0.0696051438092202
40
0.0696051438092202
40
0.108371596150504
40
0.108371596150504
40
0.127754822321146
40
0.127754822321146
40
0.147138048491788
40
0.18590450083307
40
0.18590450083307
40
0.224670953174352
40
0.224670953174352
40
0.263437405515634
40
0.263437405515634
40
0.302203857856916
40
0.302203857856916
40
0.379736762539481
40
0.379736762539481
40
0.418503214880763
40
0.418503214880763
40
0.457269667222045
40
0.457269667222045
40
0.476652893392686
40
0.476652893392686
40
0.496036119563327
40
0.496036119563327
40
0.534802571904609
40
0.534802571904609
40
0.573569024245892
40
0.573569024245892
40
0.612335476587174
40
0.612335476587174
40
0.689868381269738
40
0.689868381269738
40
0.72863483361102
40
0.72863483361102
40
0.767401285952303
40
0.767401285952303
40
0.844934190634868
40
0.844934190634868
40
0.864317416805509
40
0.864317416805509
40
0.88370064297615
40
0.88370064297615
40
0.922467095317433
40
0.922467095317433
40
1
40
1
40
1
40
1
41
1
10
8.32549830616767
20
1.94040244429743
30
0
41
1
10
8.43492684517904
20
1.97803278866289
30
0
41
1
10
8.54442734533652
20
2.01442071157635
30
0
41
1
10
8.79185503347887
20
2.09357381818248
30
0
41
1
10
8.92986564437405
20
2.13556019004497
30
0
41
1
10
9.20638232284605
20
2.21518400262394
30
0
41
1
10
9.34491643350071
20
2.25278389540702
30
0
41
1
10
9.5533682888717
20
2.30556872908647
30
0
41
1
10
9.62300976113983
20
2.32258361250013
30
0
41
1
10
9.76222281499128
20
2.35535270626408
30
0
41
1
10
9.97072853736211
20
2.40256283244671
30
0
41
1
10
10.1783788552542
20
2.44390434722908
30
0
41
1
10
10.4546835371
20
2.49371381010144
30
0
41
1
10
10.5925731655728
20
2.51595194481342
30
0
41
1
10
10.8679101507702
20
2.55508340867755
30
0
41
1
10
11.0053624053948
20
2.57196665918903
30
0
41
1
10
11.2801869984382
20
2.60024370929946
30
0
41
1
10
11.4175363174815
20
2.61165473431825
30
0
41
1
10
11.8294719569083
20
2.63770313935154
30
0
41
1
10
12.1039985083439
20
2.64412436344924
30
0
41
1
10
12.5167215077593
20
2.6370696853572
30
0
41
1
10
12.6544131455221
20
2.6319305755369
30
0
41
1
10
12.930386578741
20
2.61607994259666
30
0
41
1
10
13.0686775458324
20
2.60537995068009
30
0
41
1
10
13.276588833653
20
2.58512788180735
30
0
41
1
10
13.3459746913144
20
2.5776770304943
30
0
41
1
10
13.4849323251801
20
2.56137121051654
30
0
41
1
10
13.5545725385575
20
2.55250620594833
30
0
41
1
10
13.7631235345665
20
2.52390019278687
30
0
41
1
10
13.9017464339544
20
2.50214897059942
30
0
41
1
10
14.1783572313713
20
2.45347795468814
30
0
41
1
10
14.3163034122203
20
2.42652455484597
30
0
41
1
10
14.5917943363891
20
2.36768001848162
30
0
41
1
10
14.7293707925762
20
2.3358226512558
30
0
41
1
10
15.141651615397
20
2.23307623030465
30
0
41
1
10
15.4158869695112
20
2.15497131857705
30
0
41
1
10
15.8274640295617
20
2.02471062859456
30
0
41
1
10
15.9646616905096
20
1.97906715576713
30
0
41
1
10
16.2393032639814
20
1.88361493453328
30
0
41
1
10
16.376792276611
20
1.83387147575891
30
0
41
1
10
16.7899262765255
20
1.67880439967723
30
0
41
1
10
17.066132553282
20
1.56747105554245
30
0
41
1
10
17.4133322468529
20
1.41959637780801
30
0
41
1
10
17.4829388459565
20
1.38956372336924
30
0
41
1
10
17.6218707120471
20
1.32884343215153
30
0
41
1
10
17.6912246935288
20
1.29814013322493
30
0
41
1
10
17.8990196422643
20
1.20513042942741
30
0
41
1
10
18.0372130017363
20
1.14196027748798
30
0
41
1
10
18.4510900120018
20
0.949561032687001
30
0
41
1
10
18.7258945978315
20
0.817111004788586
30
0
41
1
10
19.000298777984
20
0.681865741466225
30
0
0
SPLINE
5
FE
100
AcDbEntity
8
1
62
256
6
ByLayer
370
18
48
1
60
0
100
AcDbSpline
70
4
71
3
72
34
73
30
40
0
40
0
40
0
40
0
40
0.0422922387718977
40
0.0634383581578474
40
0.0634383581578474
40
0.0845844775437971
40
0.0845844775437971
40
0.169168955087599
40
0.169168955087599
40
0.338337910175204
40
0.338337910175204
40
0.422922387719006
40
0.422922387719006
40
0.465214626490908
40
0.465214626490908
40
0.50750686526281
40
0.50750686526281
40
0.592091342806614
40
0.592091342806614
40
0.634383581578516
40
0.655529700964467
40
0.655529700964467
40
0.676675820350418
40
0.676675820350418
40
0.845844775438014
40
0.845844775438014
40
0.93042925298181
40
0.93042925298181
40
1
40
1
40
1
40
1
41
1
10
19.0002987779954
20
0.719896496583146
30
0
41
1
10
19.1368273762933
20
0.653010827108801
30
0
41
1
10
19.3415463207188
20
0.551586131522981
30
0
41
1
10
19.5463586847538
20
0.448908222596799
30
0
41
1
10
19.6829433674354
20
0.380220838195328
30
0
41
1
10
19.7512664100759
20
0.345755092433677
30
0
41
1
10
20.0922276676911
20
0.173352231749675
30
0
41
1
10
20.3635433180948
20
0.0348562336156988
30
0
41
1
10
21.1750810547525
20
-0.37848324826129
30
0
41
1
10
21.7129184684624
20
-0.651115848711896
30
0
41
1
10
22.5228000392373
20
-1.04013351798781
30
0
41
1
10
22.7932811341801
20
-1.16648639827034
30
0
41
1
10
23.2008527230965
20
-1.34897113414624
30
0
41
1
10
23.3370288974507
20
-1.40862756779015
30
0
41
1
10
23.6101224759766
20
-1.52526365123381
30
0
41
1
10
23.7464696750022
20
-1.5819993990184
30
0
41
1
10
24.1551646868473
20
-1.74708766867508
30
0
41
1
10
24.4271652037509
20
-1.85031954888322
30
0
41
1
10
24.8355139699601
20
-1.99341790709025
30
0
41
1
10
25.0397758113745
20
-2.06202999069706
30
0
41
1
10
25.2443639648192
20
-2.12596160470204
30
0
41
1
10
25.3808498490608
20
-2.16751296251337
30
0
41
1
10
25.4490489001871
20
-2.18772577933598
30
0
41
1
10
26.0617923831999
20
-2.36427979166291
30
0
41
1
10
26.6006604190429
20
-2.48351267542222
30
0
41
1
10
27.4086852058389
20
-2.60052546215286
30
0
41
1
10
27.6779641579469
20
-2.62926118440313
30
0
41
1
10
28.1697349162127
20
-2.66232262390076
30
0
41
1
10
28.3920496317243
20
-2.67007061898209
30
0
41
1
10
28.6151301973135
20
-2.67047035176958
30
0
0
SPLINE
5
FF
100
AcDbEntity
8
1
62
256
6
ByLayer
370
18
48
1
60
0
100
AcDbSpline
70
4
71
3
72
16
73
12
40
0
40
0
40
0
40
0
40
0.13978513948176
40
0.13978513948176
40
0.569892569740881
40
0.569892569740881
40
0.78494628487045
40
0.78494628487045
40
0.892473142435225
40
0.892473142435225
40
1
40
1
40
1
40
1
41
1
10
43.0790992803715
20
2.518775609041
30
0
41
1
10
43.1664026330452
20
2.53505378989982
30
0
41
1
10
43.2537344217906
20
2.55027997116184
30
0
41
1
10
43.6099860568114
20
2.60798905842017
30
0
41
1
10
43.8793433626821
20
2.64140312694056
30
0
41
1
10
44.2851151238759
20
2.67552675080205
30
0
41
1
10
44.4206622997885
20
2.68423498902095
30
0
41
1
10
44.6245521770188
20
2.69320105734451
30
0
41
1
10
44.6926439981743
20
2.6955073296036
30
0
41
1
10
44.8287490296211
20
2.69873409203041
30
0
41
1
10
44.8967878644928
20
2.69965639989721
30
0
41
1
10
44.9648243753365
20
2.69988737278493
30
0
0
SPLINE
5
100
100
AcDbEntity
8
1
62
256
6
ByLayer
370
18
48
1
60
0
100
AcDbSpline
70
4
71
3
72
49
73
45
40
0
40
0
40
0
40
0
40
0.0177288699819209
40
0.0177288699819209
40
0.0650057235263769
40
0.0650057235263769
40
0.112282577070833
40
0.112282577070833
40
0.206836284159741
40
0.206836284159741
40
0.230474710931968
40
0.230474710931968
40
0.254113137704195
40
0.254113137704195
40
0.301389991248648
40
0.301389991248648
40
0.348666844793103
40
0.348666844793103
40
0.395943698337556
40
0.395943698337556
40
0.44322055188201
40
0.44322055188201
40
0.466858978654235
40
0.466858978654235
40
0.49049740542646
40
0.49049740542646
40
0.58505111251536
40
0.58505111251536
40
0.67960481960426
40
0.67960481960426
40
0.726881673148712
40
0.726881673148712
40
0.774158526693164
40
0.774158526693164
40
0.821435380237616
40
0.821435380237616
40
0.868712233782068
40
0.868712233782068
40
0.91598908732652
40
0.939627514098746
40
0.939627514098746
40
0.963265940870972
40
0.963265940870972
40
1
40
1
40
1
40
1
41
1
10
35.9679129875335
20
2.55121084533081
30
0
41
1
10
36.0180456825304
20
2.55299261279401
30
0
41
1
10
36.0681622118589
20
2.55446089999506
30
0
41
1
10
36.2518635395354
20
2.55873852305385
30
0
41
1
10
36.385389258466
20
2.55958816427642
30
0
41
1
10
36.6528202086746
20
2.5554709729206
30
0
41
1
10
36.786703817677
20
2.55058812094367
30
0
41
1
10
37.1890058799128
20
2.52801811145446
30
0
41
1
10
37.4580275148535
20
2.50242408266996
30
0
41
1
10
37.7949766540939
20
2.45939386927785
30
0
41
1
10
37.8624125823139
20
2.45021626269289
30
0
41
1
10
37.9974850914335
20
2.43056086904215
30
0
41
1
10
38.0651659767198
20
2.42007167491798
30
0
41
1
10
38.2683659490451
20
2.38648278172025
30
0
41
1
10
38.4037378551445
20
2.36137191581488
30
0
41
1
10
38.6743917078888
20
2.30629395376155
30
0
41
1
10
38.8096624239587
20
2.27633305301137
30
0
41
1
10
39.0799739970495
20
2.21223592226963
30
0
41
1
10
39.2150067598022
20
2.17808801831018
30
0
41
1
10
39.4847515686971
20
2.10589691217149
30
0
41
1
10
39.6195193866721
20
2.06780468554857
30
0
41
1
10
39.8221311271296
20
2.00714686211469
30
0
41
1
10
39.8897346840046
20
1.98635452439532
30
0
41
1
10
40.0250787535008
20
1.94368459498509
30
0
41
1
10
40.0928715245618
20
1.92179008851002
30
0
41
1
10
40.4313636129107
20
1.81002597260326
30
0
41
1
10
40.7007801078141
20
1.71323886474715
30
0
41
1
10
41.2378013928367
20
1.50773083436235
30
0
41
1
10
41.5053924848912
20
1.3989701003309
30
0
41
1
10
41.9059173800352
20
1.22813342397137
30
0
41
1
10
42.0393028311011
20
1.16991685713714
30
0
41
1
10
42.3062287810926
20
1.05125803553207
30
0
41
1
10
42.4397521480087
20
0.990810032088376
30
0
41
1
10
42.7069661888468
20
0.867959767825226
30
0
41
1
10
42.8406664657975
20
0.805564818209945
30
0
41
1
10
43.1085339567379
20
0.679232859225266
30
0
41
1
10
43.2426934677972
20
0.615288935647271
30
0
41
1
10
43.5114901477156
20
0.486076034370853
30
0
41
1
10
43.7134474637065
20
0.388172128089053
30
0
41
1
10
43.9160278860595
20
0.28900571649541
30
0
41
1
10
44.0512290515685
20
0.222639823134671
30
0
41
1
10
44.118941113108
20
0.189310768016156
30
0
41
1
10
44.291800613176
20
0.104032276608564
30
0
41
1
10
44.396894128367
20
0.0520040150454975
30
0
41
1
10
44.5019330463216
20
-0.0001047416775464
30
0
0
SPLINE
5
101
100
AcDbEntity
8
1
62
256
6
ByLayer
370
18
48
1
60
0
100
AcDbSpline
70
4
71
3
72
8
73
4
40
0
40
0
40
0
40
0
40
1
40
1
40
1
40
1
41
1
10
44.9540151505641
20
-0.235783271650547
30
0
41
1
10
44.9685382442013
20
-0.239711180020578
30
0
41
1
10
44.9830760358192
20
-0.243292490161508
30
0
41
1
10
44.9976379282779
20
-0.246529658830127
30
0
0
SPLINE
5
102
100
AcDbEntity
8
1
62
256
6
ByLayer
370
18
48
1
60
0
100
AcDbSpline
70
4
71
3
72
10
73
6
40
0
40
0
40
0
40
0
40
0.988141883230903
40
0.988141883230903
40
1
40
1
40
1
40
1
41
1
10
19.1462590692858
20
-2.62019209147488
30
0
41
1
10
19.4168268827844
20
-2.64276465165341
30
0
41
1
10
19.687301028972
20
-2.65417115756577
30
0
41
1
10
19.9612487661898
20
-2.65489285400076
30
0
41
1
10
19.96449729833
20
-2.65489987252249
30
0
41
1
10
19.9677458587812
20
-2.65490535159731
30
0
0
SPLINE
5
103
100
AcDbEntity
8
1
62
256
6
ByLayer
370
18
48
1
60
0
100
AcDbSpline
70
4
71
3
72
56
73
52
40
0
40
0
40
0
40
0
40
0.0204146003882663
40
0.0204146003882663
40
0.0595980163727355
40
0.0595980163727355
40
0.137964848341671
40
0.137964848341671
40
0.177148264326141
40
0.177148264326141
40
0.196739972318376
40
0.196739972318376
40
0.216331680310611
40
0.216331680310611
40
0.255515096295077
40
0.255515096295077
40
0.294698512279544
40
0.294698512279544
40
0.33388192826401
40
0.33388192826401
40
0.373065344248477
40
0.373065344248477
40
0.412248760232943
40
0.412248760232943
40
0.45143217621741
40
0.45143217621741
40
0.490615592201876
40
0.490615592201876
40
0.529799008186342
40
0.529799008186342
40
0.549390716178577
40
0.549390716178577
40
0.568982424170812
40
0.568982424170812
40
0.608165840155282
40
0.608165840155282
40
0.686532672124221
40
0.686532672124221
40
0.725716088108692
40
0.725716088108692
40
0.764899504093163
40
0.764899504093163
40
0.804082920077634
40
0.804082920077634
40
0.843266336062105
40
0.843266336062105
40
0.921633168031051
40
0.921633168031051
40
0.960816584015526
40
0.960816584015526
40
1
40
1
40
1
40
1
41
1
10
34.6757189528868
20
2.54827808564966
30
0
41
1
10
34.7453090861887
20
2.55957776033227
30
0
41
1
10
34.8149061567813
20
2.5701888272946
30
0
41
1
10
35.018180120116
20
2.5991154446865
30
0
41
1
10
35.1519315667788
20
2.61555687077262
30
0
41
1
10
35.5536964751636
20
2.65710059760974
30
0
41
1
10
35.8221484115842
20
2.67450755859534
30
0
41
1
10
36.2258182928732
20
2.68459319396757
30
0
41
1
10
36.3605832220996
20
2.68525388240818
30
0
41
1
10
36.5634688395873
20
2.68213567006657
30
0
41
1
10
36.6312691110656
20
2.68041103240532
30
0
41
1
10
36.7666201651135
20
2.67561684082966
30
0
41
1
10
36.8342172405976
20
2.67254770816101
30
0
41
1
10
37.0367930106316
20
2.66135424235293
30
0
41
1
10
37.1715490925291
20
2.65124697831413
30
0
41
1
10
37.4404263846157
20
2.62578590112966
30
0
41
1
10
37.5745447339912
20
2.6104289070982
30
0
41
1
10
37.8421662176781
20
2.57443306409422
30
0
41
1
10
37.9757069929174
20
2.55379838379611
30
0
41
1
10
38.2429448790776
20
2.50773161478085
30
0
41
1
10
38.3766133490646
20
2.48229622958888
30
0
41
1
10
38.6440656028757
20
2.42672807872359
30
0
41
1
10
38.7778406671698
20
2.39659190004542
30
0
41
1
10
39.0453430697534
20
2.33146236096297
30
0
41
1
10
39.179070620634
20
2.29646715253179
30
0
41
1
10
39.446435234949
20
2.22141897446966
30
0
41
1
10
39.5801066851416
20
2.18138208662449
30
0
41
1
10
39.8482693373838
20
2.09721415159706
30
0
41
1
10
39.9827341748864
20
2.05307083714669
30
0
41
1
10
40.1850088078918
20
1.98378896237824
30
0
41
1
10
40.2525305378215
20
1.96018395450278
30
0
41
1
10
40.3877742236236
20
1.91195672232868
30
0
41
1
10
40.4555532408384
20
1.88731320532347
30
0
41
1
10
40.6587856279672
20
1.81201986546424
30
0
41
1
10
40.7938889681145
20
1.7601006299497
30
0
41
1
10
41.1981919586112
20
1.59944819882566
30
0
41
1
10
41.466377118573
20
1.48581327631487
30
0
41
1
10
41.8672808518987
20
1.30663750298882
30
0
41
1
10
42.0007007053668
20
1.24547785450366
30
0
41
1
10
42.2675832383356
20
1.12112710949736
30
0
41
1
10
42.4010351024363
20
1.05792129345107
30
0
41
1
10
42.6679788986821
20
0.929496385459657
30
0
41
1
10
42.8014750141409
20
0.864282367719056
30
0
41
1
10
43.0687963505228
20
0.732380669933292
30
0
41
1
10
43.2026199491996
20
0.665692388560984
30
0
41
1
10
43.6046301618239
20
0.463505959317928
30
0
41
1
10
43.8733453616459
20
0.325867535576094
30
0
41
1
10
44.2782010499917
20
0.116357331207496
30
0
41
1
10
44.4135951800412
20
0.0459416624466371
30
0
41
1
10
44.6839332614814
20
-0.0949087687984047
30
0
41
1
10
44.8189871903929
20
-0.165399395383901
30
0
41
1
10
44.9540151505639
20
-0.235783271651911
30
0
0
SPLINE
5
104
100
AcDbEntity
8
1
62
256
6
ByLayer
370
18
48
1
60
0
100
AcDbSpline
70
4
71
3
72
10
73
6
40
0
40
0
40
0
40
0
40
0.493344745928788
40
0.493344745928788
40
1
40
1
40
1
40
1
41
1
10
7.60949498376289
20
-1.67476605863487
30
0
41
1
10
7.06786867766101
20
-1.82827719919908
30
0
41
1
10
6.5286026515567
20
-1.98371730939942
30
0
41
1
10
5.44063228567063
20
-2.30121202614058
30
0
41
1
10
4.89223179272929
20
-2.46326845467584
30
0
41
1
10
4.34645033286699
20
-2.62604400632065
30
0
0
SPLINE
5
105
100
AcDbEntity
8
1
62
256
6
ByLayer
370
18
48
1
60
0
100
AcDbSpline
70
4
71
3
72
107
73
103
40
0
40
0
40
0
40
0
40
0.062499999999995
40
0.062499999999995
40
0.12499999999999
40
0.12499999999999
40
0.156249999999989
40
0.156249999999989
40
0.187499999999987
40
0.187499999999987
40
0.203124999999986
40
0.203124999999986
40
0.218749999999986
40
0.218749999999986
40
0.249999999999982
40
0.249999999999982
40
0.265624999999981
40
0.265624999999981
40
0.281249999999979
40
0.281249999999979
40
0.312499999999977
40
0.312499999999977
40
0.343749999999976
40
0.343749999999976
40
0.351562499999976
40
0.351562499999976
40
0.359374999999976
40
0.359374999999976
40
0.374999999999977
40
0.374999999999977
40
0.390624999999979
40
0.390624999999979
40
0.398437499999979
40
0.398437499999979
40
0.40624999999998
40
0.421874999999981
40
0.421874999999981
40
0.429687499999982
40
0.429687499999982
40
0.437499999999983
40
0.437499999999983
40
0.468749999999985
40
0.468749999999985
40
0.476562499999986
40
0.476562499999986
40
0.484374999999986
40
0.484374999999986
40
0.499999999999988
40
0.499999999999988
40
0.531249999999989
40
0.531249999999989
40
0.53906249999999
40
0.53906249999999
40
0.54687499999999
40
0.562499999999991
40
0.562499999999991
40
0.593749999999993
40
0.593749999999993
40
0.624999999999994
40
0.624999999999994
40
0.640624999999994
40
0.640624999999994
40
0.656249999999994
40
0.656249999999994
40
0.687499999999996
40
0.687499999999996
40
0.703124999999997
40
0.703124999999997
40
0.710937499999998
40
0.710937499999998
40
0.71484375
40
0.71484375
40
0.716796875
40
0.716796875
40
0.71875
40
0.71875
40
0.720703125
40
0.720703125
40
0.7216796875
40
0.7216796875
40
0.72265625
40
0.72265625
40
0.724609374999999
40
0.724609374999999
40
0.726562499999999
40
0.726562499999999
40
0.730468749999999
40
0.730468749999999
40
0.734374999999999
40
0.734374999999999
40
0.742187499999998
40
0.742187499999998
40
0.749999999999997
40
0.812499999999999
40
0.812499999999999
40
0.84375
40
0.84375
40
0.875000000000001
40
0.875000000000001
40
0.9375
40
0.9375
40
1
40
1
40
1
40
1
41
1
10
4.34641983352208
20
-2.62603456720512
30
0
41
1
10
4.19332624229642
20
-2.62392035119379
30
0
41
1
10
4.04196460273516
20
-2.61840693575809
30
0
41
1
10
3.74335136852332
20
-2.59898252459064
30
0
41
1
10
3.5960905444233
20
-2.58509209807642
30
0
41
1
10
3.37906214113446
20
-2.55609682881092
30
0
41
1
10
3.30736698262726
20
-2.54506321290162
30
0
41
1
10
3.1654756628941
20
-2.5197842793547
30
0
41
1
10
3.09527820617967
20
-2.50554183082804
30
0
41
1
10
2.99131897941868
20
-2.48127998314095
30
0
41
1
10
2.95691363366132
20
-2.47271214961785
30
0
41
1
10
2.8888905502838
20
-2.4545859328411
30
0
41
1
10
2.85523953874179
20
-2.44502012882478
30
0
41
1
10
2.75547053894744
20
-2.41466570317385
30
0
41
1
10
2.69052638287224
20
-2.39223442147019
30
0
41
1
10
2.59601902483587
20
-2.35449326514399
30
0
41
1
10
2.56500360714006
20
-2.34122737899523
30
0
41
1
10
2.50407658816096
20
-2.31313888565256
30
0
41
1
10
2.47415991645565
20
-2.29830724170017
30
0
41
1
10
2.38710977516615
20
-2.25159016075986
30
0
41
1
10
2.33237981344547
20
-2.21739150549226
30
0
41
1
10
2.23133020180217
20
-2.14121303019576
30
0
41
1
10
2.18497795303543
20
-2.09926267492884
30
0
41
1
10
2.13419407037128
20
-2.04021469872416
30
0
41
1
10
2.12439991321011
20
-2.02807025633368
30
0
41
1
10
2.10560882467564
20
-2.00304584505778
30
0
41
1
10
2.09666780721767
20
-1.9902367178596
30
0
41
1
10
2.07141038401306
20
-1.95105878268083
30
0
41
1
10
2.05660012633408
20
-1.92386721145937
30
0
41
1
10
2.03147763946126
20
-1.86711195525288
30
0
41
1
10
2.0211639482149
20
-1.83754899438028
30
0
41
1
10
2.00949367079755
20
-1.79120848657536
30
0
41
1
10
2.00623822722838
20
-1.77539430769346
30
0
41
1
10
2.00114285491043
20
-1.74356120835486
30
0
41
1
10
1.99557341014565
20
-1.69534183481298
30
0
41
1
10
1.99620832919169
20
-1.64572358821133
30
0
41
1
10
2.00099086360362
20
-1.5951803092222
30
0
41
1
10
2.00327664924151
20
-1.57817830901035
30
0
41
1
10
2.00923898418583
20
-1.5438662925277
30
0
41
1
10
2.01292928925031
20
-1.52650286260285
30
0
41
1
10
2.03471545153019
20
-1.43955230245749
30
0
41
1
10
2.06236890540876
20
-1.37071436227382
30
0
41
1
10
2.1072821061004
20
-1.28545830595866
30
0
41
1
10
2.11681363727541
20
-1.26840217670133
30
0
41
1
10
2.13672674585553
20
-1.23461504560052
30
0
41
1
10
2.14709772995681
20
-1.21789553717161
30
0
41
1
10
2.17935031054532
20
-1.16821740813245
30
0
41
1
10
2.20236770035149
20
-1.13573763083906
30
0
41
1
10
2.27530935313644
20
-1.03995058812029
30
0
41
1
10
2.32909107744163
20
-0.978282649743136
30
0
41
1
10
2.40129730061634
20
-0.903348132130589
30
0
41
1
10
2.41601142671956
20
-0.888449433035618
30
0
41
1
10
2.44575961557379
20
-0.859011144267271
30
0
41
1
10
2.4908924912331
20
-0.815358468456282
30
0
41
1
10
2.53743909815637
20
-0.773105611099794
30
0
41
1
10
2.6321697336891
20
-0.690226318008598
30
0
41
1
10
2.69749518545706
20
-0.637130829073641
30
0
41
1
10
2.83156913019334
20
-0.53436249265846
30
0
41
1
10
2.90032372642293
20
-0.484695563633636
30
0
41
1
10
3.00557595906651
20
-0.412329118877921
30
0
41
1
10
3.04101528658526
20
-0.38856443367311
30
0
41
1
10
3.11254653756396
20
-0.341693912853742
30
0
41
1
10
3.1486638473832
20
-0.318572565904702
30
0
41
1
10
3.25767489393897
20
-0.250278117813707
30
0
41
1
10
3.33124782932879
20
-0.206152242433177
30
0
41
1
10
3.44275649076647
20
-0.141762116688113
30
0
41
1
10
3.48011814097074
20
-0.120599359076181
30
0
41
1
10
3.53642888573779
20
-0.0892754958701119
30
0
41
1
10
3.55524231762024
20
-0.078905185486974
30
0
41
1
10
3.58351976658349
20
-0.0634554996206589
30
0
41
1
10
3.59295540149009
20
-0.0583230881980512
30
0
41
1
10
3.60712333438977
20
-0.0506502589861384
30
0
41
1
10
3.61184256163423
20
-0.0480858839190716
30
0
41
1
10
3.62130761590788
20
-0.0430072937086265
30
0
41
1
10
3.62611003291201
20
-0.0405932240206823
30
0
41
1
10
3.63600552623919
20
-0.0364418099443071
30
0
41
1
10
3.64111164415732
20
-0.0347948262611055
30
0
41
1
10
3.64881027187974
20
-0.0327250540522357
30
0
41
1
10
3.6513959024436
20
-0.0321330298520763
30
0
41
1
10
3.65661796219695
20
-0.031205063300547
30
0
41
1
10
3.6592510016367
20
-0.030852032832513
30
0
41
1
10
3.6671572878837
20
-0.0298290735795774
30
0
41
1
10
3.67251094786488
20
-0.0294053012881648
30
0
41
1
10
3.68315885636423
20
-0.0292011035027429
30
0
41
1
10
3.68845437438185
20
-0.0293511656791736
30
0
41
1
10
3.70426594935384
20
-0.0304662376679516
30
0
41
1
10
3.71469857782966
20
-0.032171058094832
30
0
41
1
10
3.73539064079799
20
-0.0371165473970336
30
0
41
1
10
3.74556749850791
20
-0.0404233965208789
30
0
41
1
10
3.7760653147439
20
-0.0500809070813659
30
0
41
1
10
3.79640031088033
20
-0.0565095042695418
30
0
41
1
10
3.83701045148354
20
-0.0695541104708752
30
0
41
1
10
4.01959113979532
20
-0.12878276592744
30
0
41
1
10
4.20052231315822
20
-0.192745685674282
30
0
41
1
10
4.43982292415439
20
-0.282994126886621
30
0
41
1
10
4.51926868887946
20
-0.313903345870329
30
0
41
1
10
4.67733335170027
20
-0.377142214378239
30
0
41
1
10
4.75598262734744
20
-0.409483543935636
30
0
41
1
10
4.99086572288707
20
-0.508430878360002
30
0
41
1
10
5.14602798820241
20
-0.576973890144302
30
0
41
1
10
5.45404372979343
20
-0.717741224587428
30
0
41
1
10
5.60690567101733
20
-0.78994687243798
30
0
41
1
10
5.75893131354957
20
-0.863178212094084
30
0
0
SPLINE
5
106
100
AcDbEntity
8
SK1
62
256
6
ByLayer
370
18
48
1
60
0
100
AcDbSpline
70
4
71
3
72
8
73
4
40
0
40
0
40
0
40
0
40
1
40
1
40
1
40
1
41
1
10
-35.75
20
-1.03654319872865
30
0
41
1
10
-35.8336522127477
20
-0.973473653921786
30
0
41
1
10
-35.9170267124118
20
-0.91021928485668
30
0
41
1
10
-36
20
-0.846697900196403
30
0
0
SPLINE
5
107
100
AcDbEntity
8
SK1
62
256
6
ByLayer
370
18
48
1
60
0
100
AcDbSpline
70
4
71
3
72
22
73
18
40
0
40
0
40
0
40
0
40
0.0625000000000013
40
0.0625000000000013
40
0.125000000000002
40
0.125000000000002
40
0.250000000000002
40
0.250000000000002
40
0.375000000000002
40
0.375000000000002
40
0.500000000000001
40
0.500000000000001
40
0.625000000000001
40
0.625000000000001
40
0.750000000000001
40
0.750000000000001
40
1
40
1
40
1
40
1
41
1
10
-35.65
20
-1.2034511373503
30
0
41
1
10
-35.65
20
-1.1996411684253
30
0
41
1
10
-35.6502718586019
20
-1.1956562339866
30
0
41
1
10
-35.6512913504498
20
-1.18756862399769
30
0
41
1
10
-35.652030658643
20
-1.18349598551683
30
0
41
1
10
-35.6548298230237
20
-1.17120470827893
30
0
41
1
10
-35.6575061245997
20
-1.16282408925039
30
0
41
1
10
-35.6638376796887
20
-1.1465779157966
30
0
41
1
10
-35.6674983282837
20
-1.13865018614132
30
0
41
1
10
-35.6756151818521
20
-1.12310913738597
30
0
41
1
10
-35.6800682064548
20
-1.11552345648408
30
0
41
1
10
-35.6893906957631
20
-1.10107814955939
30
0
41
1
10
-35.6942952881823
20
-1.09415268893284
30
0
41
1
10
-35.7045485857552
20
-1.08083925565722
30
0
41
1
10
-35.7099306774388
20
-1.07441660718069
30
0
41
1
10
-35.7265024515808
20
-1.05622735763268
30
0
41
1
10
-35.7380004903212
20
-1.04559022317056
30
0
41
1
10
-35.7500000000001
20
-1.03654319872865
30
0
0
SPLINE
5
108
100
AcDbEntity
8
SK1
62
256
6
ByLayer
370
18
48
1
60
0
100
AcDbSpline
70
4
71
3
72
22
73
18
40
0
40
0
40
0
40
0
40
0.249999999999998
40
0.249999999999998
40
0.374999999999998
40
0.374999999999998
40
0.499999999999998
40
0.499999999999998
40
0.624999999999998
40
0.624999999999998
40
0.749999999999997
40
0.749999999999997
40
0.874999999999997
40
0.874999999999997
40
0.937499999999999
40
0.937499999999999
40
1
40
1
40
1
40
1
41
1
10
-35.75
20
-2.08785288169327
30
0
41
1
10
-35.7379956523281
20
-2.09690355373769
30
0
41
1
10
-35.7264866986603
20
-2.10461918286137
30
0
41
1
10
-35.7098921057742
20
-2.11426759845239
30
0
41
1
10
-35.7045257065493
20
-2.11712229756552
30
0
41
1
10
-35.6942964893128
20
-2.12199677586895
30
0
41
1
10
-35.6894060316865
20
-2.12403341711555
30
0
41
1
10
-35.6801144608566
20
-2.12721312124734
30
0
41
1
10
-35.6756964104891
20
-2.12836136989751
30
0
41
1
10
-35.6675285377629
20
-2.12952881037666
30
0
41
1
10
-35.6638529491705
20
-2.12954196952751
30
0
41
1
10
-35.6575076548177
20
-2.1281504673172
30
0
41
1
10
-35.6548318331324
20
-2.1267193186649
30
0
41
1
10
-35.6520304488211
20
-2.12325256553461
30
0
41
1
10
-35.65129058319
20
-2.12187540512775
30
0
41
1
10
-35.650270741394
20
-2.11859656182944
30
0
41
1
10
-35.65
20
-2.11670569099513
30
0
41
1
10
-35.65
20
-2.11458619591949
30
0
0
SPLINE
5
109
100
AcDbEntity
8
SK1
62
256
6
ByLayer
370
18
48
1
60
0
100
AcDbSpline
70
4
71
3
72
8
73
4
40
0
40
0
40
0
40
0
40
1
40
1
40
1
40
1
41
1
10
-36
20
-1.89800758316085
30
0
41
1
10
-35.91702017368
20
-1.96153397364054
30
0
41
1
10
-35.8336463751128
20
-2.02478773816816
30
0
41
1
10
-35.7499999999999
20
-2.08785288169315
30
0
0
SPLINE
5
10A
100
AcDbEntity
8
1
62
256
6
ByLayer
370
18
48
1
60
0
100
AcDbSpline
70
4
71
3
72
15
73
11
40
0
40
0
40
0
40
0
40
0.0563033916920398
40
0.226625393538692
40
0.305038120697363
40
0.375947736596619
40
0.469074044083053
40
0.609169011624258
40
0.796203907357101
40
1
40
1
40
1
40
1
41
1
10
44.4688095361807
20
0.683403981064799
30
0
41
1
10
44.4141041716738
20
0.701552435190422
30
0
41
1
10
44.1940758303985
20
0.775068537968934
30
0
41
1
10
43.8991725057293
20
0.87761870077486
30
0
41
1
10
43.5906217295448
20
0.986358936140817
30
0
41
1
10
43.3569638254281
20
1.06984651807349
30
0
41
1
10
43.064295176282
20
1.17580322273111
30
0
41
1
10
42.6607710015978
20
1.32469863281321
30
0
41
1
10
42.1525249353558
20
1.51693983498123
30
0
41
1
10
41.7799793906983
20
1.66249942868728
30
0
41
1
10
41.586129852251
20
1.73946442040119
30
0
0
SPLINE
5
10B
100
AcDbEntity
8
1
62
256
6
ByLayer
370
18
48
1
60
0
100
AcDbSpline
70
4
71
3
72
27
73
23
40
0
40
0
40
0
40
0
40
4.75394443624E-05
40
0.0001289292008338
40
0.0001987253907679
40
0.0002619621496257
40
0.0004997248079297
40
0.0020211408974812
40
0.0032641452946931
40
0.0055926788068814
40
0.0100981591733739
40
0.0192521644509857
40
0.0391361863773314
40
0.0831839309553433
40
0.170980839121564
40
0.33105459199628
40
0.415050082059491
40
0.499750693500706
40
0.587531011029626
40
0.704699440512815
40
0.861819845918296
40
1
40
1
40
1
40
1
41
1
10
13.8907846652974
20
0.0137774393112693
30
0
41
1
10
13.8907906532216
20
0.0137780119665081
30
0
41
1
10
13.8907939251587
20
0.0137833578002358
30
0
41
1
10
13.8907370536157
20
0.0138095189662408
30
0
41
1
10
13.8905616767635
20
0.0138699768916126
30
0
41
1
10
13.8900569841006
20
0.0140275815717246
30
0
41
1
10
13.8872392760919
20
0.0148805231875144
30
0
41
1
10
13.8822771421289
20
0.0163386799026171
30
0
41
1
10
13.8741138196171
20
0.0187692750276369
30
0
41
1
10
13.8610570274811
20
0.0226404161005007
30
0
41
1
10
13.8352446813265
20
0.0302941024552865
30
0
41
1
10
13.780941655121
20
0.0463782257507432
30
0
41
1
10
13.662413935935
20
0.0815494374062666
30
0
41
1
10
13.4160476525372
20
0.155313443136208
30
0
41
1
10
12.9429773766008
20
0.300084822028822
30
0
41
1
10
12.4066779375098
20
0.470836686852664
30
0
41
1
10
11.8774335605009
20
0.645771512788997
30
0
41
1
10
11.4656386513196
20
0.7853294122188
30
0
41
1
10
11.0019182293275
20
0.946398632770979
30
0
41
1
10
10.4239448617809
20
1.15312990812728
30
0
41
1
10
9.76794010364767
20
1.3958269654002
30
0
41
1
10
9.30104977986923
20
1.57703343947489
30
0
41
1
10
9.08311477617849
20
1.66331176995683
30
0
0
SPLINE
5
10C
100
AcDbEntity
8
1
62
256
6
ByLayer
370
18
48
1
60
0
100
AcDbSpline
70
4
71
3
72
25
73
21
40
0
40
0
40
0
40
0
40
7.73444032283E-05
40
0.0001256025955097
40
0.0001672351307244
40
0.0003146546490052
40
0.0012988590604832
40
0.0020971604261488
40
0.0035816584320357
40
0.0064207058631748
40
0.0120910510559824
40
0.0241336037463487
40
0.0517557618843701
40
0.209460204599997
40
0.334938794955665
40
0.431970399746711
40
0.536227584451463
40
0.665973765372808
40
0.833030494017358
40
1
40
1
40
1
40
1
41
1
10
30.299536322684
20
-0.0049799720110286
30
0
41
1
10
30.2995454972414
20
-0.0049802087570185
30
0
41
1
10
30.2995366167711
20
-0.0049736407235912
30
0
41
1
10
30.2994530718318
20
-0.0049441258409217
30
0
41
1
10
30.2992010935636
20
-0.0048644328086596
30
0
41
1
10
30.2974449848731
20
-0.0043305577959529
30
0
41
1
10
30.294096993827
20
-0.0033429234699724
30
0
41
1
10
30.288775735442
20
-0.0017546549938459
30
0
41
1
10
30.2802941239588
20
0.000767006579764
30
0
41
1
10
30.2638075235708
20
0.0056674229134046
30
0
41
1
10
30.2297672387289
20
0.0157637753376889
30
0
41
1
10
30.1545291894582
20
0.0380589786452674
30
0
41
1
10
29.8261792754978
20
0.135606169682148
30
0
41
1
10
29.3066229638231
20
0.294322366916589
30
0
41
1
10
28.6744473551723
20
0.496982854210017
30
0
41
1
10
28.1327989443981
20
0.67674090905021
30
0
41
1
10
27.5857302754558
20
0.86389811140009
30
0
41
1
10
26.9253372935337
20
1.09774236190447
30
0
41
1
10
26.1650139014724
20
1.37779300504397
30
0
41
1
10
25.6207601644501
20
1.58852486004289
30
0
41
1
10
25.3494889939374
20
1.69601817127111
30
0
0
SPLINE
5
10D
100
AcDbEntity
8
1
62
256
6
ByLayer
370
18
48
1
60
0
100
AcDbSpline
70
4
71
3
72
22
73
18
40
0
40
0
40
0
40
0
40
0.0921836680254944
40
0.160269464171925
40
0.209499228438284
40
0.258220837075165
40
0.307764274003937
40
0.352424664688623
40
0.411751155309959
40
0.496838968207115
40
0.57704540490315
40
0.630203968055026
40
0.701681847334472
40
0.799542427722293
40
0.912270189206662
40
0.983149866829189
40
1
40
1
40
1
40
1
41
1
10
29.1851287183599
20
-2.53660845394904
30
0
41
1
10
29.353737596656
20
-2.53694102844375
30
0
41
1
10
29.6468910434199
20
-2.53749417828538
30
0
41
1
10
30.0305719359797
20
-2.53815844600038
30
0
41
1
10
30.334053286052
20
-2.53865437869075
30
0
41
1
10
30.603985835562
20
-2.53909319250866
30
0
41
1
10
30.8656106387324
20
-2.53965124263561
30
0
41
1
10
31.1466301222251
20
-2.54033352408072
30
0
41
1
10
31.4927176886293
20
-2.54088617161131
30
0
41
1
10
31.9038684429632
20
-2.54101859772456
30
0
41
1
10
32.3037271602777
20
-2.54199788929876
30
0
41
1
10
32.6786746606068
20
-2.54311643328012
30
0
41
1
10
33.0859336127007
20
-2.54365587003042
30
0
41
1
10
33.6022594227706
20
-2.54331122513295
30
0
41
1
10
34.1173591005307
20
-2.54484678529087
30
0
41
1
10
34.484488035895
20
-2.5457065881798
30
0
41
1
10
34.6448801943919
20
-2.54619160603721
30
0
41
1
10
34.6756727236171
20
-2.54628115833188
30
0
0
SPLINE
5
10E
100
AcDbEntity
8
1
62
256
6
ByLayer
370
18
48
1
60
0
100
AcDbSpline
70
4
71
2
72
6
73
3
40
0
40
0
40
0
40
1
40
1
40
1
41
1
10
19.9646965451461
20
2.52319652660901
30
0
41
1
10
19.5329669997149
20
2.5229635446982
30
0
41
1
10
19.1011605943285
20
2.51886488967867
30
0
0
SPLINE
5
10F
100
AcDbEntity
8
1
62
256
6
ByLayer
370
18
48
1
60
0
100
AcDbSpline
70
4
71
3
72
24
73
20
40
0
40
0
40
0
40
0
40
0.0909884548728432
40
0.157591244479804
40
0.201269570886123
40
0.245121761015936
40
0.297257668499686
40
0.351231760205613
40
0.398154937219077
40
0.437969886096523
40
0.488876499722707
40
0.531941347386485
40
0.572612409370787
40
0.631858783269394
40
0.744247292784597
40
0.826468215547675
40
0.935391014936792
40
0.985769835434823
40
1
40
1
40
1
40
1
41
1
10
36.3237512783492
20
2.54858253701298
30
0
41
1
10
36.1567178842656
20
2.54775385410358
30
0
41
1
10
35.8674208706668
20
2.54678101121405
30
0
41
1
10
35.4979263809434
20
2.54706962322354
30
0
41
1
10
35.2149986263332
20
2.54719443962927
30
0
41
1
10
34.9586502160452
20
2.54705800241408
30
0
41
1
10
34.6833388837625
20
2.54636131813194
30
0
41
1
10
34.4024016347402
20
2.54541529911558
30
0
41
1
10
34.1440816059051
20
2.54490769052251
30
0
41
1
10
33.8913946551877
20
2.5442543937464
30
0
41
1
10
33.6457879541604
20
2.54363458399837
30
0
41
1
10
33.3986158480434
20
2.54351285112603
30
0
41
1
10
33.1361346250978
20
2.54352282246609
30
0
41
1
10
32.7463747694395
20
2.54340948326745
30
0
41
1
10
32.2803510559174
20
2.54177480324427
30
0
41
1
10
31.7231224123205
20
2.54089718340077
30
0
41
1
10
31.2797212803486
20
2.54067173077254
30
0
41
1
10
30.9611692354807
20
2.53987780897461
30
0
41
1
10
30.8425423300864
20
2.53961120350965
30
0
41
1
10
30.8164163182312
20
2.5395535986342
30
0
0
SPLINE
5
110
100
AcDbEntity
8
1
62
256
6
ByLayer
370
18
48
1
60
0
100
AcDbSpline
70
4
71
1
72
4
73
2
40
0
40
0
40
1
40
1
41
1
10
37.3607870438767
20
-0.0003612391108163
30
0
41
1
10
37.3607721048373
20
-0.0003543713619649
30
0
0
LINE
5
82
100
AcDbEntity
8
4
62
256
6
ByLayer
370
18
48
0.05
60
0
100
AcDbLine
10
0
20
0
30
0
11
46
21
0
31
0
39
0
210
0
220
0
230
1
0
LINE
5
84
100
AcDbEntity
8
81
62
256
6
ByLayer
370
18
48
1
60
0
100
AcDbLine
10
46
20
0
30
0
11
49
21
0
31
0
39
0
210
0
220
0
230
1
0
LINE
5
85
100
AcDbEntity
8
80
62
256
6
ByLayer
370
18
48
1
60
0
100
AcDbLine
10
0
20
0
30
0
11
-3
21
0
31
0
39
0
210
0
220
0
230
1
0
LINE
5
86
100
AcDbEntity
8
SK4
62
256
6
ByLayer
370
18
48
0.05
60
0
100
AcDbLine
10
-39
20
0
30
0
11
49
21
0
31
0
39
0
210
0
220
0
230
1
0
LINE
5
88
100
AcDbEntity
8
1
62
256
6
ByLayer
370
18
48
1
60
0
100
AcDbLine
10
0
20
3
30
0
11
0
21
-3
31
0
39
0
210
0
220
0
230
1
0
LINE
5
89
100
AcDbEntity
8
1
62
256
6
ByLayer
370
13
48
1
60
0
100
AcDbLine
10
45.934547
20
0.30466
30
0
11
45.327691
21
0.853649
31
0
39
0
210
0
220
0
230
1
0
LINE
5
8A
100
AcDbEntity
8
1
62
256
6
ByLayer
370
13
48
1
60
0
100
AcDbLine
10
0.517103
20
-2.810413
30
0
11
0.517103
21
2.810413
31
0
39
0
210
0
220
0
230
1
0
LINE
5
8B
100
AcDbEntity
8
1
62
256
6
ByLayer
370
18
48
1
60
0
100
AcDbLine
10
19.101184
20
2.519111
30
0
11
19.101178
21
2.518635
31
0
39
0
210
0
220
0
230
1
0
LINE
5
8C
100
AcDbEntity
8
1
62
256
6
ByLayer
370
18
48
1
60
0
100
AcDbLine
10
19.000299
20
-2.632477
30
0
11
19.000299
21
-2.653164
31
0
39
0
210
0
220
0
230
1
0
LINE
5
8D
100
AcDbEntity
8
1
62
256
6
ByLayer
370
18
48
1
60
0
100
AcDbLine
10
19.000299
20
0.719896
30
0
11
19.000299
21
0.681866
31
0
39
0
210
0
220
0
230
1
0
LINE
5
8E
100
AcDbEntity
8
1
62
256
6
ByLayer
370
13
48
1
60
0
100
AcDbLine
10
1.035646
20
-2.620828
30
0
11
1.035646
21
2.620828
31
0
39
0
210
0
220
0
230
1
0
LINE
5
8F
100
AcDbEntity
8
SK1
62
256
6
ByLayer
370
18
48
1
60
0
100
AcDbLine
10
-36
20
-0.846657
30
0
11
-36
21
-1.898008
31
0
39
0
210
0
220
0
230
1
0
LINE
5
91
100
AcDbEntity
8
SK1
62
256
6
ByLayer
370
13
48
1
60
0
100
AcDbLine
10
-35.75
20
-2.087853
30
0
11
-35.75
21
-1.036542
31
0
39
0
210
0
220
0
230
1
0
LINE
5
92
100
AcDbEntity
8
SK1
62
256
6
ByLayer
370
18
48
1
60
0
100
AcDbLine
10
-35.65
20
-2.114586
30
0
11
-35.65
21
-1.203451
31
0
39
0
210
0
220
0
230
1
0
LINE
5
93
100
AcDbEntity
8
SK1
62
256
6
ByLayer
370
18
48
1
60
0
100
AcDbLine
10
-36
20
-2.065
30
0
11
-36
21
-1.898008
31
0
39
0
210
0
220
0
230
1
0
LINE
5
94
100
AcDbEntity
8
SK1
62
256
6
ByLayer
370
18
48
1
60
0
100
AcDbLine
10
-36
20
2.065
30
0
11
-36
21
-0.846698
31
0
39
0
210
0
220
0
230
1
0
LINE
5
95
100
AcDbEntity
8
SK1
62
256
6
ByLayer
370
18
48
1
60
0
100
AcDbLine
10
0
20
3
30
0
11
0
21
-3
31
0
39
0
210
0
220
0
230
1
0
LINE
5
96
100
AcDbEntity
8
SK1
62
256
6
ByLayer
370
18
48
1
60
0
100
AcDbLine
10
-35.065
20
-3
30
0
11
-35.065
21
3
31
0
39
0
210
0
220
0
230
1
0
LINE
5
97
100
AcDbEntity
8
1
62
256
6
ByLayer
370
18
48
1
60
0
100
AcDbLine
10
1.035646
20
-2.620828
30
0
11
4.470359
21
-2.62701
31
0
39
0
210
0
220
0
230
1
0
LINE
5
98
100
AcDbEntity
8
1
62
256
6
ByLayer
370
18
48
1
60
0
100
AcDbLine
10
12.185792
20
-2.640898
30
0
11
19.000299
21
-2.653164
31
0
39
0
210
0
220
0
230
1
0
LINE
5
99
100
AcDbEntity
8
1
62
256
6
ByLayer
370
18
48
1
60
0
100
AcDbLine
10
19.967547
20
-2.654905
30
0
11
20.77421
21
-2.656357
31
0
39
0
210
0
220
0
230
1
0
LINE
5
9A
100
AcDbEntity
8
1
62
256
6
ByLayer
370
18
48
1
60
0
100
AcDbLine
10
28.614793
20
-2.67047
30
0
11
29.184474
21
-2.671496
31
0
39
0
210
0
220
0
230
1
0
LINE
5
9B
100
AcDbEntity
8
1
62
256
6
ByLayer
370
18
48
1
60
0
100
AcDbLine
10
36.323329
20
-2.684345
30
0
11
37.076264
21
-2.685701
31
0
39
0
210
0
220
0
230
1
0
LINE
5
9C
100
AcDbEntity
8
1
62
256
6
ByLayer
370
18
48
1
60
0
100
AcDbLine
10
37.076264
20
2.685701
30
0
11
36.323329
21
2.684345
31
0
39
0
210
0
220
0
230
1
0
LINE
5
9D
100
AcDbEntity
8
1
62
256
6
ByLayer
370
18
48
1
60
0
100
AcDbLine
10
29.184474
20
2.671496
30
0
11
28.614793
21
2.67047
31
0
39
0
210
0
220
0
230
1
0
LINE
5
9E
100
AcDbEntity
8
1
62
256
6
ByLayer
370
18
48
1
60
0
100
AcDbLine
10
20.77421
20
2.656357
30
0
11
19.967547
21
2.654905
31
0
39
0
210
0
220
0
230
1
0
LINE
5
9F
100
AcDbEntity
8
1
62
256
6
ByLayer
370
18
48
1
60
0
100
AcDbLine
10
19.000299
20
2.653164
30
0
11
12.185792
21
2.640898
31
0
39
0
210
0
220
0
230
1
0
LINE
5
A0
100
AcDbEntity
8
1
62
256
6
ByLayer
370
18
48
1
60
0
100
AcDbLine
10
4.470359
20
2.62701
30
0
11
1.035646
21
2.620828
31
0
39
0
210
0
220
0
230
1
0
LINE
5
A1
100
AcDbEntity
8
SK1
62
256
6
ByLayer
370
18
48
1
60
0
100
AcDbLine
10
-36
20
-2.065
30
0
11
-35.065
21
-3
31
0
39
0
210
0
220
0
230
1
0
LINE
5
A2
100
AcDbEntity
8
SK1
62
256
6
ByLayer
370
18
48
1
60
0
100
AcDbLine
10
-35.065
20
3
30
0
11
-36
21
2.065
31
0
39
0
210
0
220
0
230
1
0
LINE
5
A3
100
AcDbEntity
8
SK1
62
256
6
ByLayer
370
18
48
1
60
0
100
AcDbLine
10
-35.065
20
-3
30
0
11
0
21
-3
31
0
39
0
210
0
220
0
230
1
0
LINE
5
A4
100
AcDbEntity
8
SK1
62
256
6
ByLayer
370
18
48
1
60
0
100
AcDbLine
10
0
20
3
30
0
11
-35.065
21
3
31
0
39
0
210
0
220
0
230
1
0
LINE
5
A5
100
AcDbEntity
8
2
62
256
6
ByLayer
370
13
48
1
60
0
100
AcDbLine
10
53.5
20
27.31497
30
0
11
53.5
21
-10.2
31
0
39
0
210
0
220
0
230
1
0
LINE
5
A7
100
AcDbEntity
8
2
62
256
6
ByLayer
370
13
48
1
60
0
100
AcDbLine
10
47.5875
20
2.7
30
0
11
55.5
21
2.7
31
0
39
0
210
0
220
0
230
1
0
LINE
5
A8
100
AcDbEntity
8
2
62
256
6
ByLayer
370
13
48
1
60
0
100
AcDbLine
10
47.5875
20
-2.7
30
0
11
55.5
21
-2.7
31
0
39
0
210
0
220
0
230
1
0
LINE
5
A9
100
AcDbEntity
8
1
62
256
6
ByLayer
370
18
48
1
60
1
100
AcDbLine
10
53.5
20
2.7
30
0
11
53.039216
21
6.199998
31
0
39
0
210
0
220
0
230
1
0
LINE
5
AA
100
AcDbEntity
8
1
62
256
6
ByLayer
370
18
48
1
60
1
100
AcDbLine
10
53.039216
20
6.199998
30
0
11
53.960784
21
6.200002
31
0
39
0
210
0
220
0
230
1
0
LINE
5
AB
100
AcDbEntity
8
1
62
256
6
ByLayer
370
18
48
1
60
1
100
AcDbLine
10
53.960784
20
6.200002
30
0
11
53.5
21
2.7
31
0
39
0
210
0
220
0
230
1
0
LINE
5
AC
100
AcDbEntity
8
1
62
256
6
ByLayer
370
18
48
1
60
1
100
AcDbLine
10
53.5
20
-2.7
30
0
11
53.960784
21
-6.199998
31
0
39
0
210
0
220
0
230
1
0
LINE
5
AD
100
AcDbEntity
8
1
62
256
6
ByLayer
370
18
48
1
60
1
100
AcDbLine
10
53.960784
20
-6.199998
30
0
11
53.039216
21
-6.200002
31
0
39
0
210
0
220
0
230
1
0
LINE
5
AE
100
AcDbEntity
8
1
62
256
6
ByLayer
370
18
48
1
60
1
100
AcDbLine
10
53.039216
20
-6.200002
30
0
11
53.5
21
-2.7
31
0
39
0
210
0
220
0
230
1
0
LINE
5
AF
100
AcDbEntity
8
SK2
62
256
6
ByLayer
370
13
48
1
60
0
100
AcDbLine
10
-44.5
20
13.841828
30
0
11
-44.5
21
-10.5
31
0
39
0
210
0
220
0
230
1
0
LINE
5
B1
100
AcDbEntity
8
SK2
62
256
6
ByLayer
370
13
48
1
60
0
100
AcDbLine
10
-37.5875
20
3
30
0
11
-46.5
21
3
31
0
39
0
210
0
220
0
230
1
0
LINE
5
B2
100
AcDbEntity
8
SK2
62
256
6
ByLayer
370
13
48
1
60
0
100
AcDbLine
10
-37.5875
20
-3
30
0
11
-46.5
21
-3
31
0
39
0
210
0
220
0
230
1
0
LINE
5
B3
100
AcDbEntity
8
1
62
256
6
ByLayer
370
18
48
1
60
1
100
AcDbLine
10
-44.5
20
3
30
0
11
-44.960784
21
6.499998
31
0
39
0
210
0
220
0
230
1
0
LINE
5
B4
100
AcDbEntity
8
1
62
256
6
ByLayer
370
18
48
1
60
1
100
AcDbLine
10
-44.960784
20
6.499998
30
0
11
-44.039216
21
6.500002
31
0
39
0
210
0
220
0
230
1
0
LINE
5
B5
100
AcDbEntity
8
1
62
256
6
ByLayer
370
18
48
1
60
1
100
AcDbLine
10
-44.039216
20
6.500002
30
0
11
-44.5
21
3
31
0
39
0
210
0
220
0
230
1
0
LINE
5
B6
100
AcDbEntity
8
1
62
256
6
ByLayer
370
18
48
1
60
1
100
AcDbLine
10
-44.5
20
-3
30
0
11
-44.039216
21
-6.499998
31
0
39
0
210
0
220
0
230
1
0
LINE
5
B7
100
AcDbEntity
8
1
62
256
6
ByLayer
370
18
48
1
60
1
100
AcDbLine
10
-44.039216
20
-6.499998
30
0
11
-44.960784
21
-6.500002
31
0
39
0
210
0
220
0
230
1
0
LINE
5
B8
100
AcDbEntity
8
1
62
256
6
ByLayer
370
18
48
1
60
1
100
AcDbLine
10
-44.960784
20
-6.500002
30
0
11
-44.5
21
-3
31
0
39
0
210
0
220
0
230
1
0
LINE
5
B9
100
AcDbEntity
8
SK2
62
256
6
ByLayer
370
13
48
1
60
0
100
AcDbLine
10
46.543094
20
1.491712
30
0
11
52.911997
21
18.985139
31
0
39
0
210
0
220
0
230
1
0
LINE
5
BA
100
AcDbEntity
8
SK2
62
256
6
ByLayer
370
13
48
1
60
0
100
AcDbLine
10
46.543094
20
-1.491712
30
0
11
52.911997
21
-18.985139
31
0
39
0
210
0
220
0
230
1
0
LINE
5
BB
100
AcDbEntity
8
1
62
256
6
ByLayer
370
18
48
1
60
1
100
AcDbLine
10
52.227784
20
17.105817
30
0
11
55.633664
21
16.177218
31
0
39
0
210
0
220
0
230
1
0
LINE
5
BC
100
AcDbEntity
8
1
62
256
6
ByLayer
370
18
48
1
60
1
100
AcDbLine
10
55.633664
20
16.177218
30
0
11
55.277275
21
15.327351
31
0
39
0
210
0
220
0
230
1
0
LINE
5
BD
100
AcDbEntity
8
1
62
256
6
ByLayer
370
18
48
1
60
1
100
AcDbLine
10
55.277275
20
15.327351
30
0
11
52.227784
21
17.105817
31
0
39
0
210
0
220
0
230
1
0
LINE
5
BE
100
AcDbEntity
8
1
62
256
6
ByLayer
370
18
48
1
60
1
100
AcDbLine
10
52.227784
20
-17.105817
30
0
11
55.277272
21
-15.327352
31
0
39
0
210
0
220
0
230
1
0
LINE
5
BF
100
AcDbEntity
8
1
62
256
6
ByLayer
370
18
48
1
60
1
100
AcDbLine
10
55.277272
20
-15.327352
30
0
11
55.633667
21
-16.177217
31
0
39
0
210
0
220
0
230
1
0
LINE
5
C0
100
AcDbEntity
8
1
62
256
6
ByLayer
370
18
48
1
60
1
100
AcDbLine
10
55.633667
20
-16.177217
30
0
11
52.227784
21
-17.105817
31
0
39
0
210
0
220
0
230
1
0
LINE
5
111
100
AcDbEntity
8
1
62
256
6
ByLayer
370
13
48
0.05
60
0
100
AcDbLine
10
-42.5
20
0
30
0
11
51.513268
21
0
31
0
39
0
210
0
220
0
230
1
0
LINE
5
116
100
AcDbEntity
8
1
62
256
6
ByLayer
370
18
48
1
60
1
100
AcDbLine
10
53.5
20
2.7
30
0
11
53.039216
21
6.199998
31
0
39
0
210
0
220
0
230
1
0
LINE
5
117
100
AcDbEntity
8
1
62
256
6
ByLayer
370
18
48
1
60
1
100
AcDbLine
10
53.039216
20
6.199998
30
0
11
53.960784
21
6.200002
31
0
39
0
210
0
220
0
230
1
0
LINE
5
118
100
AcDbEntity
8
1
62
256
6
ByLayer
370
18
48
1
60
1
100
AcDbLine
10
53.960784
20
6.200002
30
0
11
53.5
21
2.7
31
0
39
0
210
0
220
0
230
1
0
LINE
5
11A
100
AcDbEntity
8
1
62
256
6
ByLayer
370
18
48
1
60
1
100
AcDbLine
10
53.5
20
-2.7
30
0
11
53.960784
21
-6.199998
31
0
39
0
210
0
220
0
230
1
0
LINE
5
11B
100
AcDbEntity
8
1
62
256
6
ByLayer
370
18
48
1
60
1
100
AcDbLine
10
53.960784
20
-6.199998
30
0
11
53.039216
21
-6.200002
31
0
39
0
210
0
220
0
230
1
0
LINE
5
11C
100
AcDbEntity
8
1
62
256
6
ByLayer
370
18
48
1
60
1
100
AcDbLine
10
53.039216
20
-6.200002
30
0
11
53.5
21
-2.7
31
0
39
0
210
0
220
0
230
1
0
LINE
5
120
100
AcDbEntity
8
1
62
256
6
ByLayer
370
18
48
1
60
1
100
AcDbLine
10
-44.5
20
3
30
0
11
-44.960784
21
6.499998
31
0
39
0
210
0
220
0
230
1
0
LINE
5
121
100
AcDbEntity
8
1
62
256
6
ByLayer
370
18
48
1
60
1
100
AcDbLine
10
-44.960784
20
6.499998
30
0
11
-44.039216
21
6.500002
31
0
39
0
210
0
220
0
230
1
0
LINE
5
122
100
AcDbEntity
8
1
62
256
6
ByLayer
370
18
48
1
60
1
100
AcDbLine
10
-44.039216
20
6.500002
30
0
11
-44.5
21
3
31
0
39
0
210
0
220
0
230
1
0
LINE
5
124
100
AcDbEntity
8
1
62
256
6
ByLayer
370
18
48
1
60
1
100
AcDbLine
10
-44.5
20
-3
30
0
11
-44.039216
21
-6.499998
31
0
39
0
210
0
220
0
230
1
0
LINE
5
125
100
AcDbEntity
8
1
62
256
6
ByLayer
370
18
48
1
60
1
100
AcDbLine
10
-44.039216
20
-6.499998
30
0
11
-44.960784
21
-6.500002
31
0
39
0
210
0
220
0
230
1
0
LINE
5
126
100
AcDbEntity
8
1
62
256
6
ByLayer
370
18
48
1
60
1
100
AcDbLine
10
-44.960784
20
-6.500002
30
0
11
-44.5
21
-3
31
0
39
0
210
0
220
0
230
1
0
LINE
5
129
100
AcDbEntity
8
1
62
256
6
ByLayer
370
18
48
1
60
1
100
AcDbLine
10
52.227784
20
17.105817
30
0
11
55.633664
21
16.177218
31
0
39
0
210
0
220
0
230
1
0
LINE
5
12A
100
AcDbEntity
8
1
62
256
6
ByLayer
370
18
48
1
60
1
100
AcDbLine
10
55.633664
20
16.177218
30
0
11
55.277275
21
15.327351
31
0
39
0
210
0
220
0
230
1
0
LINE
5
12B
100
AcDbEntity
8
1
62
256
6
ByLayer
370
18
48
1
60
1
100
AcDbLine
10
55.277275
20
15.327351
30
0
11
52.227784
21
17.105817
31
0
39
0
210
0
220
0
230
1
0
LINE
5
12D
100
AcDbEntity
8
1
62
256
6
ByLayer
370
18
48
1
60
1
100
AcDbLine
10
52.227784
20
-17.105817
30
0
11
55.277272
21
-15.327352
31
0
39
0
210
0
220
0
230
1
0
LINE
5
12E
100
AcDbEntity
8
1
62
256
6
ByLayer
370
18
48
1
60
1
100
AcDbLine
10
55.277272
20
-15.327352
30
0
11
55.633667
21
-16.177217
31
0
39
0
210
0
220
0
230
1
0
LINE
5
12F
100
AcDbEntity
8
1
62
256
6
ByLayer
370
18
48
1
60
1
100
AcDbLine
10
55.633667
20
-16.177217
30
0
11
52.227784
21
-17.105817
31
0
39
0
210
0
220
0
230
1
0
MTEXT
5
112
100
AcDbEntity
8
2
62
256
6
ByLayer
370
18
48
1
60
0
100
AcDbMText
10
52.158886
20
16.358437
30
0
210
0
220
0
230
1
1
%%c
40
3
41
0
44
1.084337
50
90
71
7
72
5
7
iso_b_vert
0
MTEXT
5
115
100
AcDbEntity
8
2
62
256
6
ByLayer
370
18
48
1
60
0
100
AcDbMText
10
52.158886
20
22.335
30
0
210
0
220
0
230
1
1
\W0.7451;5.4
40
3
41
0
44
1.084337
50
90
71
7
72
5
7
iso_b_vert
0
MTEXT
5
11E
100
AcDbEntity
8
SK2
62
256
6
ByLayer
370
18
48
1
60
0
100
AcDbMText
10
-45.841114
20
6.658437
30
0
210
0
220
0
230
1
1
%%c
40
3
41
0
44
1.084337
50
90
71
7
72
5
7
iso_b_vert
0
MTEXT
5
11F
100
AcDbEntity
8
SK2
62
256
6
ByLayer
370
18
48
1
60
0
100
AcDbMText
10
-45.841114
20
12.635
30
0
210
0
220
0
230
1
1
\W0.5404;6
40
3
41
0
44
1.084337
50
90
71
7
72
5
7
iso_b_vert
0
MTEXT
5
128
100
AcDbEntity
8
SK2
62
256
6
ByLayer
370
18
48
1
60
0
100
AcDbMText
10
60.763581
20
-2.114886
30
0
210
0
220
0
230
1
1
\W0.7071;140%%d
40
3
41
0
44
1.084337
50
0
71
7
72
5
7
iso_b_vert
0
MTEXT
5
131
100
AcDbEntity
8
SK6
62
256
6
ByLayer
370
18
48
1
60
0
100
AcDbMText
10
-20.346591
20
-77.114886
30
0
210
0
220
0
230
1
1
\W0.7562;860.1-0540-027A1-SD S2BM
40
3
41
0
44
1.084337
50
0
71
7
72
5
7
iso_b_vert
0
HATCH
5
119
100
AcDbEntity
8
2
62
256
6
ByLayer
370
13
48
1
60
0
100
AcDbHatch
10
0
20
0
30
0
210
0
220
0
230
1
2
ANSI31
70
0
71
0
91
1
92
5
93
3
72
1
10
53.5
20
2.69999999999999
11
53.0392162584472
21
6.1999983074468
72
1
10
53.0392162584472
20
6.1999983074468
11
53.9607837415528
21
6.20000169255317
72
1
10
53.9607837415528
20
6.20000169255317
11
53.5
21
2.69999999999999
97
0
75
0
76
1
52
0
41
0.0062
77
0
78
1
53
45
43
0
44
0
45
-0.0139193969876572
46
0.0139193969876572
79
0
47
0
98
1
10
0
20
0
0
HATCH
5
11D
100
AcDbEntity
8
2
62
256
6
ByLayer
370
13
48
1
60
0
100
AcDbHatch
10
0
20
0
30
0
210
0
220
0
230
1
2
ANSI31
70
0
71
0
91
1
92
5
93
3
72
1
10
53.5
20
-2.69999999999999
11
53.9607837415528
21
-6.1999983074468
72
1
10
53.9607837415528
20
-6.1999983074468
11
53.0392162584472
21
-6.20000169255317
72
1
10
53.0392162584472
20
-6.20000169255317
11
53.5
21
-2.69999999999999
97
0
75
0
76
1
52
0
41
0.0062
77
0
78
1
53
45
43
0
44
0
45
-0.0139193969876572
46
0.0139193969876572
79
0
47
0
98
1
10
0
20
0
0
HATCH
5
123
100
AcDbEntity
8
SK2
62
256
6
ByLayer
370
13
48
1
60
0
100
AcDbHatch
10
0
20
0
30
0
210
0
220
0
230
1
2
ANSI31
70
0
71
0
91
1
92
5
93
3
72
1
10
-44.5
20
3
11
-44.9607837415528
21
6.49999830744682
72
1
10
-44.9607837415528
20
6.49999830744682
11
-44.0392162584472
21
6.50000169255318
72
1
10
-44.0392162584472
20
6.50000169255318
11
-44.5
21
3
97
0
75
0
76
1
52
0
41
0.0062
77
0
78
1
53
45
43
0
44
0
45
-0.0139193969876572
46
0.0139193969876572
79
0
47
0
98
1
10
0
20
0
0
HATCH
5
127
100
AcDbEntity
8
SK2
62
256
6
ByLayer
370
13
48
1
60
0
100
AcDbHatch
10
0
20
0
30
0
210
0
220
0
230
1
2
ANSI31
70
0
71
0
91
1
92
5
93
3
72
1
10
-44.5
20
-3
11
-44.0392162584472
21
-6.49999830744682
72
1
10
-44.0392162584472
20
-6.49999830744682
11
-44.9607837415528
21
-6.50000169255318
72
1
10
-44.9607837415528
20
-6.50000169255318
11
-44.5
21
-3
97
0
75
0
76
1
52
0
41
0.0062
77
0
78
1
53
45
43
0
44
0
45
-0.0139193969876572
46
0.0139193969876572
79
0
47
0
98
1
10
0
20
0
0
HATCH
5
12C
100
AcDbEntity
8
SK2
62
256
6
ByLayer
370
13
48
1
60
0
100
AcDbHatch
10
0
20
0
30
0
210
0
220
0
230
1
2
ANSI31
70
0
71
0
91
1
92
5
93
3
72
1
10
52.2277844359824
20
17.1058168638358
11
55.6336637527268
21
16.1772179792883
72
1
10
55.6336637527268
20
16.1772179792883
11
55.2772750518062
21
15.3273510957206
72
1
10
55.2772750518062
20
15.3273510957206
11
52.2277844359824
21
17.1058168638358
97
0
75
0
76
1
52
0
41
0.0062
77
0
78
1
53
45
43
0
44
0
45
-0.0139193969876572
46
0.0139193969876572
79
0
47
0
98
1
10
0
20
0
0
HATCH
5
130
100
AcDbEntity
8
SK2
62
256
6
ByLayer
370
13
48
1
60
0
100
AcDbHatch
10
0
20
0
30
0
210
0
220
0
230
1
2
ANSI31
70
0
71
0
91
1
92
5
93
3
72
1
10
52.2277844359824
20
-17.1058168638358
11
55.2772719300756
21
-15.3273524048209
72
1
10
55.2772719300756
20
-15.3273524048209
11
55.6336668744573
21
-16.1772166701881
72
1
10
55.6336668744573
20
-16.1772166701881
11
52.2277844359824
21
-17.1058168638358
97
0
75
0
76
1
52
0
41
0.0062
77
0
78
1
53
45
43
0
44
0
45
-0.0139193969876572
46
0.0139193969876572
79
0
47
0
98
1
10
0
20
0
0
DIMENSION
5
134
100
AcDbEntity
8
SK2
62
256
6
ByLayer
370
18
48
1
60
0
100
AcDbDimension
2
_U0
10
18.1
20
-18.265705
30
0
11
32.05
21
-18.265705
31
0
70
32
71
1
72
1
41
1
210
0
220
0
230
1
3
Standard
100
AcDbAlignedDimension
13
46
23
-2.7
33
0
14
18.1
24
-2.7
34
0
50
0
100
AcDbRotatedDimension
1001
ACAD
1000
DSTYLE
1002
{
1070
   371
1070
    13
1070
   372
1070
    13
1070
   170
1070
     0
1070
   144
1040
1.0
1070
   277
1070
     2
1070
   284
1070
     8
1070
   278
1070
    46
1070
   146
1040
1.166667
1070
   345
1005
16
1070
   347
1005
16
1070
   346
1005
16
1070
   344
1005
0
1070
   343
1005
0
1070
   172
1070
     1
1070
    76
1070
     0
1070
    75
1070
     0
1070
   282
1070
     0
1070
   281
1070
     0
1070
     3
1000

1070
    71
1070
     0
1070
    74
1070
     0
1070
   279
1070
     0
1070
   173
1070
     1
1070
   340
1005
113
1070
   271
1070
     2
1070
   272
1070
     2
1070
    77
1070
     1
1070
    73
1070
     1
1070
   171
1070
     3
1070
   274
1070
     4
1070
   177
1070
     2
1070
   176
1070
     2
1070
   178
1070
     2
1070
    78
1070
     8
1070
    48
1040
-0.1
1070
    41
1040
3.5
1070
   147
1040
1.5
1070
    42
1040
1.5875
1070
    44
1040
2.0
1070
   140
1040
3.0
1002
}
1001
ACAD_DSTYLE_DIM_LINETYPE
1070
   380
1005
16
1001
ACAD_DSTYLE_DIM_EXT1_LINETYPE
1070
   381
1005
16
1001
ACAD_DSTYLE_DIM_EXT2_LINETYPE
1070
   382
1005
16
0
DIMENSION
5
14F
100
AcDbEntity
8
SK2
62
256
6
ByLayer
370
18
48
1
60
0
100
AcDbDimension
2
_U1
10
2
20
-28.265705
30
0
11
24
21
-28.265705
31
0
70
32
71
1
72
1
41
1
210
0
220
0
230
1
3
Standard
100
AcDbAlignedDimension
13
46
23
-2.7
33
0
14
2
24
-2.7
34
0
50
0
100
AcDbRotatedDimension
1001
ACAD
1000
DSTYLE
1002
{
1070
   371
1070
    13
1070
   372
1070
    13
1070
     3
1000

1070
   170
1070
     0
1070
   144
1040
1.0
1070
   277
1070
     2
1070
   284
1070
     8
1070
   278
1070
    46
1070
   146
1040
1.166667
1070
   345
1005
16
1070
   347
1005
16
1070
   346
1005
16
1070
   344
1005
0
1070
   343
1005
0
1070
   172
1070
     1
1070
    76
1070
     0
1070
    75
1070
     0
1070
   282
1070
     0
1070
   281
1070
     0
1070
    71
1070
     0
1070
    74
1070
     0
1070
   279
1070
     0
1070
   173
1070
     1
1070
   340
1005
113
1070
   271
1070
     2
1070
   272
1070
     2
1070
    77
1070
     1
1070
    73
1070
     1
1070
   171
1070
     3
1070
   274
1070
     4
1070
   177
1070
     2
1070
   176
1070
     2
1070
   178
1070
     2
1070
    78
1070
     8
1070
    48
1040
-0.1
1070
    41
1040
3.5
1070
   147
1040
1.5
1070
    42
1040
1.5875
1070
    44
1040
2.0
1070
   140
1040
3.0
1002
}
1001
ACAD_DSTYLE_DIM_LINETYPE
1070
   380
1005
16
1001
ACAD_DSTYLE_DIM_EXT1_LINETYPE
1070
   381
1005
16
1001
ACAD_DSTYLE_DIM_EXT2_LINETYPE
1070
   382
1005
16
0
DIMENSION
5
167
100
AcDbEntity
8
SK2
62
256
6
ByLayer
370
18
48
1
60
0
100
AcDbDimension
2
_U2
10
0
20
-36.265705
30
0
11
-18
21
-36.265705
31
0
70
32
71
1
72
1
41
1
210
0
220
0
230
1
3
Standard
100
AcDbAlignedDimension
13
-36
23
-3
33
0
14
0
24
-3
34
0
50
0
100
AcDbRotatedDimension
1001
ACAD
1000
DSTYLE
1002
{
1070
   371
1070
    13
1070
   372
1070
    13
1070
     3
1000

1070
   170
1070
     0
1070
   144
1040
1.0
1070
   277
1070
     2
1070
   284
1070
     8
1070
   278
1070
    46
1070
   146
1040
1.166667
1070
   345
1005
16
1070
   347
1005
16
1070
   346
1005
16
1070
   344
1005
0
1070
   343
1005
0
1070
   172
1070
     1
1070
    76
1070
     0
1070
    75
1070
     0
1070
   282
1070
     0
1070
   281
1070
     0
1070
    71
1070
     0
1070
    74
1070
     0
1070
   279
1070
     0
1070
   173
1070
     1
1070
   340
1005
113
1070
   271
1070
     2
1070
   272
1070
     2
1070
    77
1070
     1
1070
    73
1070
     1
1070
   171
1070
     3
1070
   274
1070
     4
1070
   177
1070
     2
1070
   176
1070
     2
1070
   178
1070
     2
1070
    78
1070
     8
1070
    48
1040
-0.1
1070
    41
1040
3.5
1070
   147
1040
1.5
1070
    42
1040
1.5875
1070
    44
1040
2.0
1070
   140
1040
3.0
1002
}
1001
ACAD_DSTYLE_DIM_LINETYPE
1070
   380
1005
16
1001
ACAD_DSTYLE_DIM_EXT1_LINETYPE
1070
   381
1005
16
1001
ACAD_DSTYLE_DIM_EXT2_LINETYPE
1070
   382
1005
16
0
DIMENSION
5
17F
100
AcDbEntity
8
SK2
62
256
6
ByLayer
370
18
48
1
60
0
100
AcDbDimension
2
_U3
10
46
20
-44.265705
30
0
11
5
21
-44.265705
31
0
70
32
71
1
72
1
41
1
210
0
220
0
230
1
3
Standard
100
AcDbAlignedDimension
13
-36
23
-3
33
0
14
46
24
-2.7
34
0
50
0
100
AcDbRotatedDimension
1001
ACAD
1000
DSTYLE
1002
{
1070
   371
1070
    13
1070
   372
1070
    13
1070
     3
1000

1070
   170
1070
     0
1070
   144
1040
1.0
1070
   277
1070
     2
1070
   284
1070
     8
1070
   278
1070
    46
1070
   146
1040
1.166667
1070
   345
1005
16
1070
   347
1005
16
1070
   346
1005
16
1070
   344
1005
0
1070
   343
1005
0
1070
   172
1070
     1
1070
    76
1070
     0
1070
    75
1070
     0
1070
   282
1070
     0
1070
   281
1070
     0
1070
    71
1070
     0
1070
    74
1070
     0
1070
   279
1070
     0
1070
   173
1070
     1
1070
   340
1005
113
1070
   271
1070
     2
1070
   272
1070
     2
1070
    77
1070
     1
1070
    73
1070
     1
1070
   171
1070
     3
1070
   274
1070
     4
1070
   177
1070
     2
1070
   176
1070
     2
1070
   178
1070
     2
1070
    78
1070
     8
1070
    48
1040
-0.1
1070
    41
1040
3.5
1070
   147
1040
1.5
1070
    42
1040
1.5875
1070
    44
1040
2.0
1070
   140
1040
3.0
1002
}
1001
ACAD_DSTYLE_DIM_LINETYPE
1070
   380
1005
16
1001
ACAD_DSTYLE_DIM_EXT1_LINETYPE
1070
   381
1005
16
1001
ACAD_DSTYLE_DIM_EXT2_LINETYPE
1070
   382
1005
16
0
DIMENSION
5
197
100
AcDbEntity
8
2
62
256
6
ByLayer
370
18
48
1
60
0
100
AcDbDimension
2
_U4
10
0
20
-36.265705
30
0
11
23
21
-36.265705
31
0
70
32
71
1
72
1
41
1
210
0
220
0
230
1
3
Standard
100
AcDbAlignedDimension
13
46
23
-2.7
33
0
14
0
24
-2.7
34
0
50
0
100
AcDbRotatedDimension
1001
ACAD
1000
DSTYLE
1002
{
1070
   371
1070
    13
1070
   372
1070
    13
1070
     3
1000

1070
   170
1070
     0
1070
   144
1040
1.0
1070
   277
1070
     2
1070
   284
1070
     8
1070
   278
1070
    46
1070
   146
1040
1.166667
1070
   345
1005
16
1070
   347
1005
16
1070
   346
1005
16
1070
   344
1005
0
1070
   343
1005
0
1070
   172
1070
     1
1070
    76
1070
     0
1070
    75
1070
     0
1070
   282
1070
     0
1070
   281
1070
     0
1070
    71
1070
     0
1070
    74
1070
     0
1070
   279
1070
     0
1070
   173
1070
     1
1070
   340
1005
113
1070
   271
1070
     2
1070
   272
1070
     2
1070
    77
1070
     1
1070
    73
1070
     1
1070
   171
1070
     3
1070
   274
1070
     4
1070
   177
1070
     2
1070
   176
1070
     2
1070
   178
1070
     2
1070
    78
1070
     8
1070
    48
1040
-0.1
1070
    41
1040
3.5
1070
   147
1040
1.5
1070
    42
1040
1.5875
1070
    44
1040
2.0
1070
   140
1040
3.0
1002
}
1001
ACAD_DSTYLE_DIM_LINETYPE
1070
   380
1005
16
1001
ACAD_DSTYLE_DIM_EXT1_LINETYPE
1070
   381
1005
16
1001
ACAD_DSTYLE_DIM_EXT2_LINETYPE
1070
   382
1005
16
0
ENDSEC
0
SECTION
2
OBJECTS
0
DICTIONARY
5
21f
330
0
100
AcDbDictionary
280
0
281
1
3
ACAD_GROUP
350
220
3
ACAD_MLINESTYLE
350
221
0
DICTIONARY
5
220
330
0
100
AcDbDictionary
280
0
281
1
0
DICTIONARY
5
221
330
0
100
AcDbDictionary
280
0
281
1
3
Standard
350
18
0
MLINESTYLE
5
18
330
221
100
AcDbMlineStyle
2
Standard
70
0
3

62
256
51
90
52
90
71
2
49
-0.5
62
256
6
ByLayer
49
0.5
62
256
6
ByLayer
0
RASTERVARIABLES
5
20d
330

100
AcDbRasterVariables
90
0
70
1
71
1
72
1
0
ENDSEC
0
EOF
