0
SECTION
2
HEADER
9
$ACADVER
1
AC1015
9
$DWGCODEPAGE
3
ANSI_1252
9
$HANDSEED
5
230
9
$ANGBASE
50
0
9
$ANGDIR
70
0
9
$ATTMODE
70
1
9
$AUNITS
70
0
9
$AUPREC
70
0
9
$CECOLOR
62
256
9
$CELTSCALE
40
1
9
$CELTYPE
6
ByLayer
9
$CELWEIGHT
370
18
9
$CLAYER
8
0
9
$CMLJUST
70
0
9
$CMLSCALE
40
1
9
$CMLSTYLE
2
Standard
9
$DIMSTYLE
2
Standard
9
$TEXTSIZE
40
0.2
9
$TEXTSTYLE
7
Standard
9
$LUNITS
70
2
9
$LUPREC
70
4
9
$EXTNAMES
290
1
9
$INSUNITS
70
4
9
$LTSCALE
40
1
9
$LWDISPLAY
290
1
9
$PDMODE
70
0
9
$PDSIZE
40
0
9
$PLINEGEN
70
0
0
ENDSEC
0
SECTION
2
CLASSES
0
CLASS
1
RASTERVARIABLES
2
AcDbRasterVariables
3
ISM
90
0
280
0
281
0
0
ENDSEC
0
SECTION
2
TABLES
0
TABLE
2
VPORT
5
226
100
AcDbSymbolTable
0
VPORT
5
1
100
AcDbSymbolTableRecord
100
AcDbViewportTableRecord
2
*Active
70
0
10
0
20
0
11
1
21
1
12
-1
22
1
13
0
23
0
14
0.5
24
0.5
15
10
25
10
16
0
26
0
36
1
17
0
27
0
37
0
0
ENDTAB
0
TABLE
2
LTYPE
5
227
100
AcDbSymbolTable
0
LTYPE
5
14
100
AcDbSymbolTableRecord
100
AcDbLinetypeTableRecord
70
0
2
ByBlock
3

72
65
73
0
40
0
0
LTYPE
5
15
100
AcDbSymbolTableRecord
100
AcDbLinetypeTableRecord
70
0
2
ByLayer
3

72
65
73
0
40
0
0
LTYPE
5
16
100
AcDbSymbolTableRecord
100
AcDbLinetypeTableRecord
70
0
2
Continuous
3
Solid line
72
65
73
0
40
0
0
LTYPE
5
6E
100
AcDbSymbolTableRecord
100
AcDbLinetypeTableRecord
70
0
2
CENTER
3
____ _ ____ _ ____ _ ____
72
65
73
4
40
47.5
49
22
74
0
49
-8.5
74
0
49
8.5
74
0
49
-8.5
74
0
0
LTYPE
5
6F
100
AcDbSymbolTableRecord
100
AcDbLinetypeTableRecord
70
0
2
DASHED
3
__ __ __ __ __ __ __ __ __
72
65
73
2
40
25.72
49
12.86
74
0
49
-12.86
74
0
0
ENDTAB
0
TABLE
2
LAYER
5
228
100
AcDbSymbolTable
0
LAYER
5
10
100
AcDbSymbolTableRecord
100
AcDbLayerTableRecord
2
0
70
0
62
7
6
Continuous
290
1
370
-3
390
0
0
LAYER
5
71
100
AcDbSymbolTableRecord
100
AcDbLayerTableRecord
2
80
70
0
62
-6
6
Continuous
290
1
370
-3
390
0
0
LAYER
5
73
100
AcDbSymbolTableRecord
100
AcDbLayerTableRecord
2
81
70
0
62
-3
6
Continuous
290
1
370
-3
390
0
0
LAYER
5
75
100
AcDbSymbolTableRecord
100
AcDbLayerTableRecord
2
1
70
0
62
4
6
Continuous
290
1
370
-3
390
0
0
LAYER
5
83
100
AcDbSymbolTableRecord
100
AcDbLayerTableRecord
2
4
70
0
62
-2
6
CENTER
290
1
370
-3
390
0
0
LAYER
5
A6
100
AcDbSymbolTableRecord
100
AcDbLayerTableRecord
2
2
70
0
62
7
6
Continuous
290
1
370
-3
390
0
0
LAYER
5
13B
100
AcDbSymbolTableRecord
100
AcDbLayerTableRecord
2
Defpoints
70
0
62
7
6
Continuous
290
0
370
-3
390
0
0
LAYER
5
212
100
AcDbSymbolTableRecord
100
AcDbLayerTableRecord
2
SK4
70
0
62
2
6
CENTER
290
1
370
-3
390
0
0
LAYER
5
213
100
AcDbSymbolTableRecord
100
AcDbLayerTableRecord
2
SK1
70
0
62
4
6
Continuous
290
1
370
-3
390
0
0
LAYER
5
214
100
AcDbSymbolTableRecord
100
AcDbLayerTableRecord
2
SK2
70
0
62
7
6
Continuous
290
1
370
-3
390
0
0
LAYER
5
215
100
AcDbSymbolTableRecord
100
AcDbLayerTableRecord
2
SK6
70
0
62
5
6
Continuous
290
1
370
-3
390
0
0
ENDTAB
0
TABLE
2
STYLE
5
229
100
AcDbSymbolTable
0
STYLE
5
11
100
AcDbSymbolTableRecord
100
AcDbTextStyleTableRecord
2
Standard
3
txt
70
0
71
0
40
0
41
1
42
0
50
0
0
STYLE
5
117
100
AcDbSymbolTableRecord
100
AcDbTextStyleTableRecord
2
iso_b_vert
3
simplex.shx
70
0
71
0
40
0
41
1
42
0
50
0
0
STYLE
5
118
100
AcDbSymbolTableRecord
100
AcDbTextStyleTableRecord
2
DWGDirectTextStyle
3
simplex
70
0
71
0
40
0
41
1
42
0
50
0
0
ENDTAB
0
TABLE
2
DIMSTYLE
5
22a
100
AcDbSymbolTable
100
AcDbDimStyleTable
0
DIMSTYLE
105
27
100
AcDbSymbolTableRecord
100
AcDbDimStyleTableRecord
2
Standard
70
0
3
<>
41
0.18
42
0.0625
44
0.18
140
0.18
147
0.09
73
0
74
0
77
1
271
2
275
0
278
52
280
0
340
11
0
ENDTAB
0
TABLE
2
VIEW
5
22b
100
AcDbSymbolTable
0
ENDTAB
0
TABLE
2
UCS
5
22c
100
AcDbSymbolTable
0
ENDTAB
0
TABLE
2
APPID
5
22d
100
AcDbSymbolTable
0
APPID
5
12
100
AcDbSymbolTableRecord
100
AcDbRegAppTableRecord
2
ACAD
70
0
0
APPID
5
137
100
AcDbSymbolTableRecord
100
AcDbRegAppTableRecord
2
ACAD_DSTYLE_DIMBREAK
70
0
0
APPID
5
1D1
100
AcDbSymbolTableRecord
100
AcDbRegAppTableRecord
2
ACAD_DSTYLE_DIM_LINETYPE
70
0
0
APPID
5
1D2
100
AcDbSymbolTableRecord
100
AcDbRegAppTableRecord
2
ACAD_DSTYLE_DIM_EXT1_LINETYPE
70
0
0
APPID
5
1D3
100
AcDbSymbolTableRecord
100
AcDbRegAppTableRecord
2
ACAD_DSTYLE_DIM_EXT2_LINETYPE
70
0
0
APPID
5
20E
100
AcDbSymbolTableRecord
100
AcDbRegAppTableRecord
2
ACAD_MLEADERVER
70
0
0
ENDTAB
0
TABLE
2
BLOCK_RECORD
5
22e
100
AcDbSymbolTable
0
BLOCK_RECORD
5
1F
100
AcDbSymbolTableRecord
100
AcDbBlockTableRecord
2
*Model_Space
340
0
70
0
0
BLOCK_RECORD
5
1B
100
AcDbSymbolTableRecord
100
AcDbBlockTableRecord
2
*Paper_Space
340
0
70
0
0
BLOCK_RECORD
5
23
100
AcDbSymbolTableRecord
100
AcDbBlockTableRecord
2
*Paper_Space0
340
0
70
0
0
BLOCK_RECORD
5
13C
100
AcDbSymbolTableRecord
100
AcDbBlockTableRecord
2
*D1
340
0
70
0
0
BLOCK_RECORD
5
148
100
AcDbSymbolTableRecord
100
AcDbBlockTableRecord
2
_U0
340
0
70
0
0
BLOCK_RECORD
5
156
100
AcDbSymbolTableRecord
100
AcDbBlockTableRecord
2
*D3
340
0
70
0
0
BLOCK_RECORD
5
162
100
AcDbSymbolTableRecord
100
AcDbBlockTableRecord
2
_U1
340
0
70
0
0
BLOCK_RECORD
5
16E
100
AcDbSymbolTableRecord
100
AcDbBlockTableRecord
2
*D5
340
0
70
0
0
BLOCK_RECORD
5
17A
100
AcDbSymbolTableRecord
100
AcDbBlockTableRecord
2
_U2
340
0
70
0
0
BLOCK_RECORD
5
186
100
AcDbSymbolTableRecord
100
AcDbBlockTableRecord
2
*D7
340
0
70
0
0
BLOCK_RECORD
5
192
100
AcDbSymbolTableRecord
100
AcDbBlockTableRecord
2
_U3
340
0
70
0
0
BLOCK_RECORD
5
19E
100
AcDbSymbolTableRecord
100
AcDbBlockTableRecord
2
*D9
340
0
70
0
0
BLOCK_RECORD
5
1AA
100
AcDbSymbolTableRecord
100
AcDbBlockTableRecord
2
_U4
340
0
70
0
0
ENDTAB
0
ENDSEC
0
SECTION
2
BLOCKS
0
BLOCK
5
20
100
AcDbEntity
8
0
100
AcDbBlockBegin
2
*Model_Space
70
0
10
0
20
0
30
0
3
*Model_Space
0
ENDBLK
5
21
100
AcDbEntity
8
0
100
AcDbBlockEnd
0
BLOCK
5
1C
100
AcDbEntity
8
0
100
AcDbBlockBegin
2
*Paper_Space
70
0
10
0
20
0
30
0
3
*Paper_Space
0
ENDBLK
5
1D
100
AcDbEntity
8
0
100
AcDbBlockEnd
0
BLOCK
5
24
100
AcDbEntity
8
0
100
AcDbBlockBegin
2
*Paper_Space0
70
0
10
0
20
0
30
0
3
*Paper_Space0
0
ENDBLK
5
25
100
AcDbEntity
8
0
100
AcDbBlockEnd
0
BLOCK
5
13D
100
AcDbEntity
8
0
100
AcDbBlockBegin
2
*D1
70
1
10
0
20
0
30
0
3
*D1
0
LINE
5
13F
100
AcDbEntity
8
0
62
256
6
ByLayer
370
-2
48
1
60
0
100
AcDbLine
10
46
20
-4.2375
30
0
11
46
21
-20.248635
31
0
39
0
210
0
220
0
230
1
0
LINE
5
140
100
AcDbEntity
8
0
62
256
6
ByLayer
370
-2
48
1
60
0
100
AcDbLine
10
18.6
20
-4.2375
30
0
11
18.6
21
-20.248635
31
0
39
0
210
0
220
0
230
1
0
LINE
5
141
100
AcDbEntity
8
0
62
256
6
ByLayer
370
-2
48
1
60
0
100
AcDbLine
10
42.5
20
-18.248635
30
0
11
22.1
21
-18.248635
31
0
39
0
210
0
220
0
230
1
0
SOLID
5
142
100
AcDbEntity
8
0
62
256
6
ByLayer
370
-1
48
1
60
0
100
AcDbTrace
10
42.5
20
-18.831969
30
0
11
42.5
21
-17.665302
31
0
12
46
22
-18.248635
32
0
13
46
23
-18.248635
33
0
39
0
210
0
220
0
230
1
0
SOLID
5
143
100
AcDbEntity
8
0
62
256
6
ByLayer
370
-1
48
1
60
0
100
AcDbTrace
10
22.1
20
-17.665302
30
0
11
22.1
21
-18.831969
31
0
12
18.6
22
-18.248635
32
0
13
18.6
23
-18.248635
33
0
39
0
210
0
220
0
230
1
0
MTEXT
5
144
100
AcDbEntity
8
0
62
256
6
ByLayer
370
18
48
1
60
0
100
AcDbMText
10
32.3
20
-12.248635
30
0
210
0
220
0
230
1
1
\A1;27.4
40
3
41
0
44
1
50
0
71
5
72
5
7
iso_b_vert
0
POINT
5
145
100
AcDbEntity
8
Defpoints
62
0
6
ByLayer
370
-1
48
1
60
0
100
AcDbPoint
10
46
20
-2.65
30
0
39
0
210
0
220
0
230
1
50
360
0
POINT
5
146
100
AcDbEntity
8
Defpoints
62
0
6
ByLayer
370
-1
48
1
60
0
100
AcDbPoint
10
18.6
20
-2.65
30
0
39
0
210
0
220
0
230
1
50
360
0
POINT
5
147
100
AcDbEntity
8
Defpoints
62
0
6
ByLayer
370
-1
48
1
60
0
100
AcDbPoint
10
18.6
20
-18.248635
30
0
39
0
210
0
220
0
230
1
50
360
0
ENDBLK
5
13E
100
AcDbEntity
8
0
100
AcDbBlockEnd
0
BLOCK
5
151
100
AcDbEntity
8
0
100
AcDbBlockBegin
2
_U0
70
0
10
0
20
0
30
0
3
_U0
0
MTEXT
5
149
100
AcDbEntity
8
SK2
62
256
6
ByLayer
370
18
48
1
60
0
100
AcDbMText
10
28.780601
20
-16.051021
30
0
210
0
220
0
230
1
1
\W0.7528;27.4
40
3
41
0
44
1.084337
50
0
71
7
72
5
7
iso_b_vert
0
MTEXT
5
14A
100
AcDbEntity
8
SK2
62
256
6
ByLayer
370
18
48
1
60
0
100
AcDbMText
10
26.680601
20
-16.051021
30
0
210
0
220
0
230
1
1
\W1.1313;{\H1.88x;(}
40
3
41
0
44
1.084337
50
0
71
7
72
5
7
iso_b_vert
0
MTEXT
5
14B
100
AcDbEntity
8
SK2
62
256
6
ByLayer
370
18
48
1
60
0
100
AcDbMText
10
36.137399
20
-16.051021
30
0
210
0
220
0
230
1
1
\W1.1313;{\H1.88x;)}
40
3
41
0
44
1.084337
50
0
71
7
72
5
7
iso_b_vert
0
LINE
5
14C
100
AcDbEntity
8
SK2
62
256
6
ByLayer
370
13
48
1
60
0
100
AcDbLine
10
46
20
-4.2375
30
0
11
46
21
-20.248635
31
0
39
0
210
0
220
0
230
1
0
LINE
5
14D
100
AcDbEntity
8
SK2
62
256
6
ByLayer
370
13
48
1
60
0
100
AcDbLine
10
18.6
20
-4.2375
30
0
11
18.6
21
-20.248635
31
0
39
0
210
0
220
0
230
1
0
LINE
5
14E
100
AcDbEntity
8
SK2
62
256
6
ByLayer
370
13
48
1
60
0
100
AcDbLine
10
46
20
-18.248635
30
0
11
18.6
21
-18.248635
31
0
39
0
210
0
220
0
230
1
0
SOLID
5
14F
100
AcDbEntity
8
SK2
62
256
6
ByLayer
370
18
48
1
60
0
100
AcDbTrace
10
46
20
-18.248635
30
0
11
42.500002
21
-18.709419
31
0
12
42.499998
22
-17.787852
32
0
13
42.499998
23
-17.787852
33
0
39
0
210
0
220
0
230
1
0
SOLID
5
150
100
AcDbEntity
8
SK2
62
256
6
ByLayer
370
18
48
1
60
0
100
AcDbTrace
10
18.6
20
-18.248635
30
0
11
22.099998
21
-17.787852
31
0
12
22.100002
22
-18.709419
32
0
13
22.100002
23
-18.709419
33
0
39
0
210
0
220
0
230
1
0
ENDBLK
5
152
100
AcDbEntity
8
0
100
AcDbBlockEnd
0
BLOCK
5
157
100
AcDbEntity
8
0
100
AcDbBlockBegin
2
*D3
70
1
10
0
20
0
30
0
3
*D3
0
LINE
5
159
100
AcDbEntity
8
0
62
256
6
ByLayer
370
-2
48
1
60
0
100
AcDbLine
10
46
20
-4.2375
30
0
11
46
21
-30.248635
31
0
39
0
210
0
220
0
230
1
0
LINE
5
15A
100
AcDbEntity
8
0
62
256
6
ByLayer
370
-2
48
1
60
0
100
AcDbLine
10
2
20
-4.2375
30
0
11
2
21
-30.248635
31
0
39
0
210
0
220
0
230
1
0
LINE
5
15B
100
AcDbEntity
8
0
62
256
6
ByLayer
370
-2
48
1
60
0
100
AcDbLine
10
42.5
20
-28.248635
30
0
11
5.5
21
-28.248635
31
0
39
0
210
0
220
0
230
1
0
SOLID
5
15C
100
AcDbEntity
8
0
62
256
6
ByLayer
370
-1
48
1
60
0
100
AcDbTrace
10
42.5
20
-28.831969
30
0
11
42.5
21
-27.665302
31
0
12
46
22
-28.248635
32
0
13
46
23
-28.248635
33
0
39
0
210
0
220
0
230
1
0
SOLID
5
15D
100
AcDbEntity
8
0
62
256
6
ByLayer
370
-1
48
1
60
0
100
AcDbTrace
10
5.5
20
-27.665302
30
0
11
5.5
21
-28.831969
31
0
12
2
22
-28.248635
32
0
13
2
23
-28.248635
33
0
39
0
210
0
220
0
230
1
0
MTEXT
5
15E
100
AcDbEntity
8
0
62
256
6
ByLayer
370
18
48
1
60
0
100
AcDbMText
10
24
20
-22.248635
30
0
210
0
220
0
230
1
1
\A1;44
40
3
41
0
44
1
50
0
71
5
72
5
7
iso_b_vert
0
POINT
5
15F
100
AcDbEntity
8
Defpoints
62
0
6
ByLayer
370
-1
48
1
60
0
100
AcDbPoint
10
46
20
-2.65
30
0
39
0
210
0
220
0
230
1
50
360
0
POINT
5
160
100
AcDbEntity
8
Defpoints
62
0
6
ByLayer
370
-1
48
1
60
0
100
AcDbPoint
10
2
20
-2.65
30
0
39
0
210
0
220
0
230
1
50
360
0
POINT
5
161
100
AcDbEntity
8
Defpoints
62
0
6
ByLayer
370
-1
48
1
60
0
100
AcDbPoint
10
2
20
-28.248635
30
0
39
0
210
0
220
0
230
1
50
360
0
ENDBLK
5
158
100
AcDbEntity
8
0
100
AcDbBlockEnd
0
BLOCK
5
169
100
AcDbEntity
8
0
100
AcDbBlockBegin
2
_U1
70
0
10
0
20
0
30
0
3
_U1
0
MTEXT
5
163
100
AcDbEntity
8
SK2
62
256
6
ByLayer
370
18
48
1
60
0
100
AcDbMText
10
22.051286
20
-27.363521
30
0
210
0
220
0
230
1
1
\W0.7685;44
40
3
41
0
44
1.084337
50
0
71
7
72
5
7
iso_b_vert
0
LINE
5
164
100
AcDbEntity
8
SK2
62
256
6
ByLayer
370
13
48
1
60
0
100
AcDbLine
10
46
20
-4.2375
30
0
11
46
21
-30.248635
31
0
39
0
210
0
220
0
230
1
0
LINE
5
165
100
AcDbEntity
8
SK2
62
256
6
ByLayer
370
13
48
1
60
0
100
AcDbLine
10
2
20
-4.2375
30
0
11
2
21
-30.248635
31
0
39
0
210
0
220
0
230
1
0
LINE
5
166
100
AcDbEntity
8
SK2
62
256
6
ByLayer
370
13
48
1
60
0
100
AcDbLine
10
46
20
-28.248635
30
0
11
2
21
-28.248635
31
0
39
0
210
0
220
0
230
1
0
SOLID
5
167
100
AcDbEntity
8
SK2
62
256
6
ByLayer
370
18
48
1
60
0
100
AcDbTrace
10
46
20
-28.248635
30
0
11
42.500002
21
-28.709419
31
0
12
42.499998
22
-27.787852
32
0
13
42.499998
23
-27.787852
33
0
39
0
210
0
220
0
230
1
0
SOLID
5
168
100
AcDbEntity
8
SK2
62
256
6
ByLayer
370
18
48
1
60
0
100
AcDbTrace
10
2
20
-28.248635
30
0
11
5.499998
21
-27.787852
31
0
12
5.500002
22
-28.709419
32
0
13
5.500002
23
-28.709419
33
0
39
0
210
0
220
0
230
1
0
ENDBLK
5
16A
100
AcDbEntity
8
0
100
AcDbBlockEnd
0
BLOCK
5
16F
100
AcDbEntity
8
0
100
AcDbBlockBegin
2
*D5
70
1
10
0
20
0
30
0
3
*D5
0
LINE
5
171
100
AcDbEntity
8
0
62
256
6
ByLayer
370
-2
48
1
60
0
100
AcDbLine
10
-36
20
-4.5875
30
0
11
-36
21
-38.248635
31
0
39
0
210
0
220
0
230
1
0
LINE
5
172
100
AcDbEntity
8
0
62
256
6
ByLayer
370
-2
48
1
60
0
100
AcDbLine
10
0
20
-4.5875
30
0
11
0
21
-38.248635
31
0
39
0
210
0
220
0
230
1
0
LINE
5
173
100
AcDbEntity
8
0
62
256
6
ByLayer
370
-2
48
1
60
0
100
AcDbLine
10
-32.5
20
-36.248635
30
0
11
-3.5
21
-36.248635
31
0
39
0
210
0
220
0
230
1
0
SOLID
5
174
100
AcDbEntity
8
0
62
256
6
ByLayer
370
-1
48
1
60
0
100
AcDbTrace
10
-32.5
20
-35.665302
30
0
11
-32.5
21
-36.831969
31
0
12
-36
22
-36.248635
32
0
13
-36
23
-36.248635
33
0
39
0
210
0
220
0
230
1
0
SOLID
5
175
100
AcDbEntity
8
0
62
256
6
ByLayer
370
-1
48
1
60
0
100
AcDbTrace
10
-3.5
20
-36.831969
30
0
11
-3.5
21
-35.665302
31
0
12
0
22
-36.248635
32
0
13
0
23
-36.248635
33
0
39
0
210
0
220
0
230
1
0
MTEXT
5
176
100
AcDbEntity
8
0
62
256
6
ByLayer
370
18
48
1
60
0
100
AcDbMText
10
-18
20
-30.248635
30
0
210
0
220
0
230
1
1
\A1;36
40
3
41
0
44
1
50
0
71
5
72
5
7
iso_b_vert
0
POINT
5
177
100
AcDbEntity
8
Defpoints
62
0
6
ByLayer
370
-1
48
1
60
0
100
AcDbPoint
10
-36
20
-3
30
0
39
0
210
0
220
0
230
1
50
360
0
POINT
5
178
100
AcDbEntity
8
Defpoints
62
0
6
ByLayer
370
-1
48
1
60
0
100
AcDbPoint
10
0
20
-3
30
0
39
0
210
0
220
0
230
1
50
360
0
POINT
5
179
100
AcDbEntity
8
Defpoints
62
0
6
ByLayer
370
-1
48
1
60
0
100
AcDbPoint
10
0
20
-36.248635
30
0
39
0
210
0
220
0
230
1
50
360
0
ENDBLK
5
170
100
AcDbEntity
8
0
100
AcDbBlockEnd
0
BLOCK
5
181
100
AcDbEntity
8
0
100
AcDbBlockBegin
2
_U2
70
0
10
0
20
0
30
0
3
_U2
0
MTEXT
5
17B
100
AcDbEntity
8
SK2
62
256
6
ByLayer
370
18
48
1
60
0
100
AcDbMText
10
-19.632828
20
-35.363521
30
0
210
0
220
0
230
1
1
\W0.6740;36
40
3
41
0
44
1.084337
50
0
71
7
72
5
7
iso_b_vert
0
LINE
5
17C
100
AcDbEntity
8
SK2
62
256
6
ByLayer
370
13
48
1
60
0
100
AcDbLine
10
-36
20
-4.5875
30
0
11
-36
21
-38.248635
31
0
39
0
210
0
220
0
230
1
0
LINE
5
17D
100
AcDbEntity
8
SK2
62
256
6
ByLayer
370
13
48
1
60
0
100
AcDbLine
10
0
20
-4.5875
30
0
11
0
21
-38.248635
31
0
39
0
210
0
220
0
230
1
0
LINE
5
17E
100
AcDbEntity
8
SK2
62
256
6
ByLayer
370
13
48
1
60
0
100
AcDbLine
10
-36
20
-36.248635
30
0
11
0
21
-36.248635
31
0
39
0
210
0
220
0
230
1
0
SOLID
5
17F
100
AcDbEntity
8
SK2
62
256
6
ByLayer
370
18
48
1
60
0
100
AcDbTrace
10
-36
20
-36.248635
30
0
11
-32.500002
21
-35.787852
31
0
12
-32.499998
22
-36.709419
32
0
13
-32.499998
23
-36.709419
33
0
39
0
210
0
220
0
230
1
0
SOLID
5
180
100
AcDbEntity
8
SK2
62
256
6
ByLayer
370
18
48
1
60
0
100
AcDbTrace
10
0
20
-36.248635
30
0
11
-3.499998
21
-36.709419
31
0
12
-3.500002
22
-35.787852
32
0
13
-3.500002
23
-35.787852
33
0
39
0
210
0
220
0
230
1
0
ENDBLK
5
182
100
AcDbEntity
8
0
100
AcDbBlockEnd
0
BLOCK
5
187
100
AcDbEntity
8
0
100
AcDbBlockBegin
2
*D7
70
1
10
0
20
0
30
0
3
*D7
0
LINE
5
189
100
AcDbEntity
8
0
62
256
6
ByLayer
370
-2
48
1
60
0
100
AcDbLine
10
-36
20
-4.5875
30
0
11
-36
21
-46.248635
31
0
39
0
210
0
220
0
230
1
0
LINE
5
18A
100
AcDbEntity
8
0
62
256
6
ByLayer
370
-2
48
1
60
0
100
AcDbLine
10
46
20
-4.2375
30
0
11
46
21
-46.248635
31
0
39
0
210
0
220
0
230
1
0
LINE
5
18B
100
AcDbEntity
8
0
62
256
6
ByLayer
370
-2
48
1
60
0
100
AcDbLine
10
-32.5
20
-44.248635
30
0
11
42.5
21
-44.248635
31
0
39
0
210
0
220
0
230
1
0
SOLID
5
18C
100
AcDbEntity
8
0
62
256
6
ByLayer
370
-1
48
1
60
0
100
AcDbTrace
10
-32.5
20
-43.665302
30
0
11
-32.5
21
-44.831969
31
0
12
-36
22
-44.248635
32
0
13
-36
23
-44.248635
33
0
39
0
210
0
220
0
230
1
0
SOLID
5
18D
100
AcDbEntity
8
0
62
256
6
ByLayer
370
-1
48
1
60
0
100
AcDbTrace
10
42.5
20
-44.831969
30
0
11
42.5
21
-43.665302
31
0
12
46
22
-44.248635
32
0
13
46
23
-44.248635
33
0
39
0
210
0
220
0
230
1
0
MTEXT
5
18E
100
AcDbEntity
8
0
62
256
6
ByLayer
370
18
48
1
60
0
100
AcDbMText
10
5
20
-38.248635
30
0
210
0
220
0
230
1
1
\A1;82
40
3
41
0
44
1
50
0
71
5
72
5
7
iso_b_vert
0
POINT
5
18F
100
AcDbEntity
8
Defpoints
62
0
6
ByLayer
370
-1
48
1
60
0
100
AcDbPoint
10
-36
20
-3
30
0
39
0
210
0
220
0
230
1
50
360
0
POINT
5
190
100
AcDbEntity
8
Defpoints
62
0
6
ByLayer
370
-1
48
1
60
0
100
AcDbPoint
10
46
20
-2.65
30
0
39
0
210
0
220
0
230
1
50
360
0
POINT
5
191
100
AcDbEntity
8
Defpoints
62
0
6
ByLayer
370
-1
48
1
60
0
100
AcDbPoint
10
46
20
-44.248635
30
0
39
0
210
0
220
0
230
1
50
360
0
ENDBLK
5
188
100
AcDbEntity
8
0
100
AcDbBlockEnd
0
BLOCK
5
199
100
AcDbEntity
8
0
100
AcDbBlockBegin
2
_U3
70
0
10
0
20
0
30
0
3
_U3
0
MTEXT
5
193
100
AcDbEntity
8
SK2
62
256
6
ByLayer
370
18
48
1
60
0
100
AcDbMText
10
3.367172
20
-43.363521
30
0
210
0
220
0
230
1
1
\W0.6740;82
40
3
41
0
44
1.084337
50
0
71
7
72
5
7
iso_b_vert
0
LINE
5
194
100
AcDbEntity
8
SK2
62
256
6
ByLayer
370
13
48
1
60
0
100
AcDbLine
10
-36
20
-4.5875
30
0
11
-36
21
-46.248635
31
0
39
0
210
0
220
0
230
1
0
LINE
5
195
100
AcDbEntity
8
SK2
62
256
6
ByLayer
370
13
48
1
60
0
100
AcDbLine
10
46
20
-4.2375
30
0
11
46
21
-46.248635
31
0
39
0
210
0
220
0
230
1
0
LINE
5
196
100
AcDbEntity
8
SK2
62
256
6
ByLayer
370
13
48
1
60
0
100
AcDbLine
10
-36
20
-44.248635
30
0
11
46
21
-44.248635
31
0
39
0
210
0
220
0
230
1
0
SOLID
5
197
100
AcDbEntity
8
SK2
62
256
6
ByLayer
370
18
48
1
60
0
100
AcDbTrace
10
-36
20
-44.248635
30
0
11
-32.500002
21
-43.787852
31
0
12
-32.499998
22
-44.709419
32
0
13
-32.499998
23
-44.709419
33
0
39
0
210
0
220
0
230
1
0
SOLID
5
198
100
AcDbEntity
8
SK2
62
256
6
ByLayer
370
18
48
1
60
0
100
AcDbTrace
10
46
20
-44.248635
30
0
11
42.500002
21
-44.709419
31
0
12
42.499998
22
-43.787852
32
0
13
42.499998
23
-43.787852
33
0
39
0
210
0
220
0
230
1
0
ENDBLK
5
19A
100
AcDbEntity
8
0
100
AcDbBlockEnd
0
BLOCK
5
19F
100
AcDbEntity
8
0
100
AcDbBlockBegin
2
*D9
70
1
10
0
20
0
30
0
3
*D9
0
LINE
5
1A1
100
AcDbEntity
8
0
62
256
6
ByLayer
370
-2
48
1
60
0
100
AcDbLine
10
46
20
-4.2375
30
0
11
46
21
-38.248635
31
0
39
0
210
0
220
0
230
1
0
LINE
5
1A2
100
AcDbEntity
8
0
62
256
6
ByLayer
370
-2
48
1
60
0
100
AcDbLine
10
0
20
-4.2375
30
0
11
0
21
-38.248635
31
0
39
0
210
0
220
0
230
1
0
LINE
5
1A3
100
AcDbEntity
8
0
62
256
6
ByLayer
370
-2
48
1
60
0
100
AcDbLine
10
42.5
20
-36.248635
30
0
11
3.5
21
-36.248635
31
0
39
0
210
0
220
0
230
1
0
SOLID
5
1A4
100
AcDbEntity
8
0
62
256
6
ByLayer
370
-1
48
1
60
0
100
AcDbTrace
10
42.5
20
-36.831969
30
0
11
42.5
21
-35.665302
31
0
12
46
22
-36.248635
32
0
13
46
23
-36.248635
33
0
39
0
210
0
220
0
230
1
0
SOLID
5
1A5
100
AcDbEntity
8
0
62
256
6
ByLayer
370
-1
48
1
60
0
100
AcDbTrace
10
3.5
20
-35.665302
30
0
11
3.5
21
-36.831969
31
0
12
0
22
-36.248635
32
0
13
0
23
-36.248635
33
0
39
0
210
0
220
0
230
1
0
MTEXT
5
1A6
100
AcDbEntity
8
0
62
256
6
ByLayer
370
18
48
1
60
0
100
AcDbMText
10
23
20
-30.248635
30
0
210
0
220
0
230
1
1
\A1;46
40
3
41
0
44
1
50
0
71
5
72
5
7
iso_b_vert
0
POINT
5
1A7
100
AcDbEntity
8
Defpoints
62
0
6
ByLayer
370
-1
48
1
60
0
100
AcDbPoint
10
46
20
-2.65
30
0
39
0
210
0
220
0
230
1
50
360
0
POINT
5
1A8
100
AcDbEntity
8
Defpoints
62
0
6
ByLayer
370
-1
48
1
60
0
100
AcDbPoint
10
0
20
-2.65
30
0
39
0
210
0
220
0
230
1
50
360
0
POINT
5
1A9
100
AcDbEntity
8
Defpoints
62
0
6
ByLayer
370
-1
48
1
60
0
100
AcDbPoint
10
0
20
-36.248635
30
0
39
0
210
0
220
0
230
1
50
360
0
ENDBLK
5
1A0
100
AcDbEntity
8
0
100
AcDbBlockEnd
0
BLOCK
5
1B1
100
AcDbEntity
8
0
100
AcDbBlockBegin
2
_U4
70
0
10
0
20
0
30
0
3
_U4
0
MTEXT
5
1AB
100
AcDbEntity
8
2
62
256
6
ByLayer
370
18
48
1
60
0
100
AcDbMText
10
21.209229
20
-35.363521
30
0
210
0
220
0
230
1
1
\W0.7361;46
40
3
41
0
44
1.084337
50
0
71
7
72
5
7
iso_b_vert
0
LINE
5
1AC
100
AcDbEntity
8
2
62
256
6
ByLayer
370
13
48
1
60
0
100
AcDbLine
10
46
20
-4.2375
30
0
11
46
21
-38.248635
31
0
39
0
210
0
220
0
230
1
0
LINE
5
1AD
100
AcDbEntity
8
2
62
256
6
ByLayer
370
13
48
1
60
0
100
AcDbLine
10
0
20
-4.2375
30
0
11
0
21
-38.248635
31
0
39
0
210
0
220
0
230
1
0
LINE
5
1AE
100
AcDbEntity
8
2
62
256
6
ByLayer
370
13
48
1
60
0
100
AcDbLine
10
46
20
-36.248635
30
0
11
0
21
-36.248635
31
0
39
0
210
0
220
0
230
1
0
SOLID
5
1AF
100
AcDbEntity
8
2
62
256
6
ByLayer
370
18
48
1
60
0
100
AcDbTrace
10
46
20
-36.248635
30
0
11
42.500002
21
-36.709419
31
0
12
42.499998
22
-35.787852
32
0
13
42.499998
23
-35.787852
33
0
39
0
210
0
220
0
230
1
0
SOLID
5
1B0
100
AcDbEntity
8
2
62
256
6
ByLayer
370
18
48
1
60
0
100
AcDbTrace
10
0
20
-36.248635
30
0
11
3.499998
21
-35.787852
31
0
12
3.500002
22
-36.709419
32
0
13
3.500002
23
-36.709419
33
0
39
0
210
0
220
0
230
1
0
ENDBLK
5
1B2
100
AcDbEntity
8
0
100
AcDbBlockEnd
0
ENDSEC
0
SECTION
2
ENTITIES
0
ARC
5
C1
100
AcDbEntity
8
1
62
256
6
ByLayer
370
18
48
1
60
0
100
AcDbCircle
39
0
10
1.090415
20
-3.370895
30
0
40
0.799999999999998
210
0
220
0
230
1
100
AcDbArc
50
89.896868
51
132.961718
0
ARC
5
C2
100
AcDbEntity
8
1
62
256
6
ByLayer
370
18
48
1
60
0
100
AcDbCircle
39
0
10
1.090415
20
3.370895
30
0
40
0.799999999999998
210
0
220
0
230
1
100
AcDbArc
50
227.038282
51
270.103132
0
ARC
5
C3
100
AcDbEntity
8
1
62
256
6
ByLayer
370
18
48
1
60
0
100
AcDbCircle
39
0
10
0
20
-2.2
30
0
40
0.799999999999998
210
0
220
0
230
1
100
AcDbArc
50
270
51
312.961718
0
ARC
5
C4
100
AcDbEntity
8
1
62
256
6
ByLayer
370
18
48
1
60
0
100
AcDbCircle
39
0
10
0
20
2.2
30
0
40
0.799999999999998
210
0
220
0
230
1
100
AcDbArc
50
47.038282
51
90
0
ARC
5
C5
100
AcDbEntity
8
SK2
62
256
6
ByLayer
370
13
48
1
60
0
100
AcDbCircle
39
0
10
46
20
0
30
0
40
18.0930294625118
210
0
220
0
230
1
100
AcDbArc
50
9.544275
51
69.990858
0
ARC
5
C6
100
AcDbEntity
8
SK2
62
256
6
ByLayer
370
13
48
1
60
0
100
AcDbCircle
39
0
10
46
20
0
30
0
40
18.0930294625118
210
0
220
0
230
1
100
AcDbArc
50
290.009142
51
350.455725
0
ELLIPSE
5
C7
100
AcDbEntity
8
1
62
256
6
ByLayer
370
13
48
1
60
0
100
AcDbEllipse
10
19.601247
20
2.476724
30
0
11
-8.86788206894162E-05
21
0.00999960679560757
31
0
210
0
220
0
230
1
40
0.007741
41
3.07390179624477
42
-1.63857182768388
0
ELLIPSE
5
C8
100
AcDbEntity
8
1
62
256
6
ByLayer
370
18
48
1
60
0
100
AcDbEllipse
10
19.639671
20
2.477626
30
0
11
0.000388302726172548
21
-0.00999245820570929
31
0
210
0
220
0
230
1
40
0.433885
41
-0.0711014973995408
42
1.49295318745923
0
ELLIPSE
5
C9
100
AcDbEntity
8
1
62
256
6
ByLayer
370
18
48
1
60
0
100
AcDbEllipse
10
19.600498
20
2.57203
30
0
11
-0.1
21
1.22460635382238E-17
31
0
210
0
220
0
230
1
40
0.999854
41
0.00750362406703892
42
1.586636880886
0
POINT
5
70
100
AcDbEntity
8
80
62
256
6
ByLayer
370
18
48
1
60
0
100
AcDbPoint
10
0
20
0
30
0
39
0
210
0
220
0
230
1
50
360
0
POINT
5
72
100
AcDbEntity
8
81
62
256
6
ByLayer
370
18
48
1
60
0
100
AcDbPoint
10
46
20
0
30
0
39
0
210
0
220
0
230
1
50
360
0
POINT
5
74
100
AcDbEntity
8
1
62
256
6
ByLayer
370
18
48
1
60
0
100
AcDbPoint
10
-214.128485
20
-200
30
0
39
0
210
0
220
0
230
1
50
360
0
POINT
5
76
100
AcDbEntity
8
1
62
256
6
ByLayer
370
13
48
1
60
1
100
AcDbPoint
10
-37.5
20
0
30
0
39
0
210
0
220
0
230
1
50
360
0
POINT
5
77
100
AcDbEntity
8
1
62
256
6
ByLayer
370
13
48
1
60
1
100
AcDbPoint
10
46.534176
20
0
30
0
39
0
210
0
220
0
230
1
50
360
0
POINT
5
78
100
AcDbEntity
8
1
62
256
6
ByLayer
370
18
48
1
60
1
100
AcDbPoint
10
46
20
-2.65
30
0
39
0
210
0
220
0
230
1
50
360
0
POINT
5
79
100
AcDbEntity
8
1
62
256
6
ByLayer
370
18
48
1
60
1
100
AcDbPoint
10
18.6
20
-2.65
30
0
39
0
210
0
220
0
230
1
50
360
0
POINT
5
7A
100
AcDbEntity
8
1
62
256
6
ByLayer
370
18
48
1
60
1
100
AcDbPoint
10
46
20
-2.65
30
0
39
0
210
0
220
0
230
1
50
360
0
POINT
5
7B
100
AcDbEntity
8
1
62
256
6
ByLayer
370
18
48
1
60
1
100
AcDbPoint
10
2
20
-2.65
30
0
39
0
210
0
220
0
230
1
50
360
0
POINT
5
7C
100
AcDbEntity
8
1
62
256
6
ByLayer
370
18
48
1
60
1
100
AcDbPoint
10
-36
20
-3
30
0
39
0
210
0
220
0
230
1
50
360
0
POINT
5
7D
100
AcDbEntity
8
1
62
256
6
ByLayer
370
18
48
1
60
1
100
AcDbPoint
10
0
20
-3
30
0
39
0
210
0
220
0
230
1
50
360
0
POINT
5
7E
100
AcDbEntity
8
1
62
256
6
ByLayer
370
18
48
1
60
1
100
AcDbPoint
10
-36
20
-3
30
0
39
0
210
0
220
0
230
1
50
360
0
POINT
5
7F
100
AcDbEntity
8
1
62
256
6
ByLayer
370
18
48
1
60
1
100
AcDbPoint
10
46
20
-2.65
30
0
39
0
210
0
220
0
230
1
50
360
0
POINT
5
80
100
AcDbEntity
8
1
62
256
6
ByLayer
370
18
48
1
60
1
100
AcDbPoint
10
46
20
-2.65
30
0
39
0
210
0
220
0
230
1
50
360
0
POINT
5
81
100
AcDbEntity
8
1
62
256
6
ByLayer
370
18
48
1
60
1
100
AcDbPoint
10
0
20
-2.65
30
0
39
0
210
0
220
0
230
1
50
360
0
SPLINE
5
CA
100
AcDbEntity
8
1
62
256
6
ByLayer
370
18
48
1
60
0
100
AcDbSpline
70
4
71
3
72
18
73
14
40
0
40
0
40
0
40
0
40
0.106619174668964
40
0.106619174668964
40
0.308558230964992
40
0.308558230964992
40
0.510497287261021
40
0.510497287261021
40
0.712436343557049
40
0.712436343557049
40
0.914375399853077
40
0.914375399853077
40
1
40
1
40
1
40
1
41
1
10
3.61778552340465
20
-0.000430579337376
30
0
41
1
10
3.62042066098263
20
-0.0013088908534655
30
0
41
1
10
3.6230862480181
20
-0.002091077455816
30
0
41
1
10
3.63089359413314
20
-0.004060900197004
30
0
41
1
10
3.63612428977166
20
-0.0049889196006632
30
0
41
1
10
3.64653727126458
20
-0.0063199627668951
30
0
41
1
10
3.65175211806874
20
-0.0067247129633472
30
0
41
1
10
3.66220133978553
20
-0.0069247436531157
30
0
41
1
10
3.66743372993966
20
-0.0067819684085464
30
0
41
1
10
3.67791260834764
20
-0.0060564298690338
30
0
41
1
10
3.68317473566722
20
-0.0054510406774
30
0
41
1
10
3.69055409417646
20
-0.0042898239058786
30
0
41
1
10
3.69274018709743
20
-0.0039047468669082
30
0
41
1
10
3.6949161397724
20
-0.0034839979936692
30
0
0
SPLINE
5
CB
100
AcDbEntity
8
1
62
256
6
ByLayer
370
13
48
1
60
0
100
AcDbSpline
70
4
71
3
72
10
73
6
40
0
40
0
40
0
40
0
40
0.5
40
0.5
40
1
40
1
40
1
40
1
41
1
10
19.6440240816885
20
2.47701651063471
30
0
41
1
10
19.6373416630813
20
2.4767609442757
30
0
41
1
10
19.6304291777195
20
2.4765495936322
30
0
41
1
10
19.6161615752767
20
2.47622245603677
30
0
41
1
10
19.6087521078321
20
2.4761067330212
30
0
41
1
10
19.6013300761849
20
2.47604707518715
30
0
0
SPLINE
5
CC
100
AcDbEntity
8
1
62
256
6
ByLayer
370
18
48
1
60
0
100
AcDbSpline
70
4
71
3
72
24
73
20
40
0
40
0
40
0
40
0
40
0.125000000000017
40
0.125000000000017
40
0.187500000000025
40
0.187500000000025
40
0.250000000000034
40
0.250000000000034
40
0.312500000000042
40
0.312500000000042
40
0.375000000000051
40
0.375000000000051
40
0.500000000000071
40
0.500000000000071
40
0.750000000000051
40
0.750000000000051
40
0.875000000000025
40
0.875000000000025
40
1
40
1
40
1
40
1
41
1
10
19.6013300761849
20
2.47604707518715
30
0
41
1
10
19.5935211171803
20
2.47598430725481
30
0
41
1
10
19.5859156186119
20
2.47679444366438
30
0
41
1
10
19.574788806257
20
2.47921550517873
30
0
41
1
10
19.5711361694635
20
2.48022770561238
30
0
41
1
10
19.5641411461165
20
2.48257323998698
30
0
41
1
10
19.5607685588896
20
2.48391250180217
30
0
41
1
10
19.5542539901371
20
2.48689761903063
30
0
41
1
10
19.5510964809774
20
2.48855438806288
30
0
41
1
10
19.5451326073323
20
2.49207817964313
30
0
41
1
10
19.5423120926327
20
2.49394950806544
30
0
41
1
10
19.5342829155831
20
2.49985540113124
30
0
41
1
10
19.5294731634014
20
2.50421211222974
30
0
41
1
10
19.516769045515
20
2.51807367578519
30
0
41
1
10
19.5107167523221
20
2.52808797620145
30
0
41
1
10
19.5045464037464
20
2.54399965023501
30
0
41
1
10
19.5030320508164
20
2.5493497334684
30
0
41
1
10
19.501007028015
20
2.56013347696947
30
0
41
1
10
19.500497679522
20
2.56560686057824
30
0
41
1
10
19.500497679522
20
2.57103052000923
30
0
0
SPLINE
5
CD
100
AcDbEntity
8
1
62
256
6
ByLayer
370
18
48
1
60
0
100
AcDbSpline
70
4
71
3
72
8
73
4
40
0
40
0
40
0
40
0
40
1
40
1
40
1
40
1
41
1
10
45.7279424518139
20
0.883965328198968
30
0
41
1
10
45.7977951783662
20
0.689187431920857
30
0
41
1
10
45.8670713331165
20
0.494206472107095
30
0
41
1
10
45.9357593089806
20
0.299018360844258
30
0
0
SPLINE
5
CE
100
AcDbEntity
8
1
62
256
6
ByLayer
370
18
48
1
60
0
100
AcDbSpline
70
4
71
3
72
8
73
4
40
0
40
0
40
0
40
0
40
1
40
1
40
1
40
1
41
1
10
45.9357593089806
20
0.299018360844258
30
0
41
1
10
45.9563210637106
20
0.240588773722152
30
0
41
1
10
45.9773046019794
20
0.182399535526258
30
0
41
1
10
45.9987171247349
20
0.124445323399101
30
0
0
SPLINE
5
CF
100
AcDbEntity
8
1
62
256
6
ByLayer
370
18
48
1
60
0
100
AcDbSpline
70
4
71
3
72
14
73
10
40
0
40
0
40
0
40
0
40
0.172012578756458
40
0.172012578756458
40
0.379009434067309
40
0.379009434067309
40
0.58600628937816
40
0.58600628937816
40
1
40
1
40
1
40
1
41
1
10
45.385724853132
20
-0.496585864354273
30
0
41
1
10
45.3939235635353
20
-0.502387165717209
30
0
41
1
10
45.4023223434799
20
-0.50828409661159
30
0
41
1
10
45.4211802007753
20
-0.521448003733326
30
0
41
1
10
45.4317238543848
20
-0.528756981645671
30
0
41
1
10
45.4530675036596
20
-0.54347584421069
30
0
41
1
10
45.463886245936
20
-0.550898800894146
30
0
41
1
10
45.4967090972229
20
-0.573334947100136
30
0
41
1
10
45.5190762091004
20
-0.588513753049256
30
0
41
1
10
45.5417999802685
20
-0.603881735905503
30
0
0
SPLINE
5
D0
100
AcDbEntity
8
1
62
256
6
ByLayer
370
18
48
1
60
0
100
AcDbSpline
70
4
71
3
72
32
73
28
40
0
40
0
40
0
40
0
40
0.337540854821361
40
0.337540854821361
40
0.564887258407467
40
0.564887258407467
40
0.714578995027761
40
0.714578995027761
40
0.813224342607739
40
0.813224342607739
40
0.878315176319561
40
0.878315176319561
40
0.921358508383255
40
0.921358508383255
40
0.950084270365061
40
0.950084270365061
40
0.969177957150374
40
0.969177957150374
40
0.981325570022556
40
0.981325570022556
40
0.989057209999148
40
0.989057209999148
40
0.995923061033238
40
0.995923061033238
40
0.999264113948365
40
0.999264113948365
40
1
40
1
40
1
40
1
41
1
10
44.9840581205625
20
-2.64989096387492
30
0
41
1
10
44.9915958836807
20
-2.63757906935896
30
0
41
1
10
44.9991297856677
20
-2.62525173764291
30
0
41
1
10
45.0117397353413
20
-2.60457713701069
30
0
41
1
10
45.0168167008594
20
-2.59624114047114
30
0
41
1
10
45.0252490709179
20
-2.58237108898652
30
0
41
1
10
45.0286002331175
20
-2.57685245940112
30
0
41
1
10
45.0341676974941
20
-2.56767233427931
30
0
41
1
10
45.0363813271782
20
-2.56401924318615
30
0
41
1
10
45.040059691084
20
-2.55794362182337
30
0
41
1
10
45.0415242155587
20
-2.55552264612996
30
0
41
1
10
45.0439543075216
20
-2.55150560357734
30
0
41
1
10
45.0449200103251
20
-2.5499097857487
30
0
41
1
10
45.0465175469023
20
-2.54727526849638
30
0
41
1
10
45.0471505301407
20
-2.54623427092099
30
0
41
1
10
45.0482078102167
20
-2.544493347703
30
0
41
1
10
45.0486335647746
20
-2.54379069846323
30
0
41
1
10
45.0493423519586
20
-2.54261426789247
30
0
41
1
10
45.0496213852344
20
-2.54214933871293
30
0
41
1
10
45.0500808608725
20
-2.54138179903529
30
0
41
1
10
45.0502600292506
20
-2.54108229824891
30
0
41
1
10
45.0505928932371
20
-2.54052870617573
30
0
41
1
10
45.0507490422582
20
-2.54026995597354
30
0
41
1
10
45.050963084304
20
-2.53992190863994
30
0
41
1
10
45.0510310778938
20
-2.53981255197522
30
0
41
1
10
45.051101528731
20
-2.53970274447821
30
0
41
1
10
45.0511137950807
20
-2.5396837943573
30
0
41
1
10
45.0511254584482
20
-2.53966596327192
30
0
0
SPLINE
5
D1
100
AcDbEntity
8
1
62
256
6
ByLayer
370
18
48
1
60
0
100
AcDbSpline
70
4
71
3
72
36
73
32
40
0
40
0
40
0
40
0
40
0.124999999999972
40
0.124999999999972
40
0.187499999999965
40
0.187499999999965
40
0.249999999999958
40
0.249999999999958
40
0.374999999999944
40
0.374999999999944
40
0.437499999999945
40
0.437499999999945
40
0.468749999999945
40
0.468749999999945
40
0.499999999999946
40
0.499999999999946
40
0.624999999999947
40
0.624999999999947
40
0.687499999999956
40
0.687499999999956
40
0.718749999999968
40
0.718749999999968
40
0.749999999999979
40
0.749999999999979
40
0.874999999999997
40
0.874999999999997
40
0.906249999999995
40
0.906249999999995
40
0.937499999999992
40
0.937499999999992
40
1
40
1
40
1
40
1
41
1
10
45.9987171247266
20
0.124445323401886
30
0
41
1
10
45.9831823658743
20
0.0791971178126971
30
0
41
1
10
45.9665233194702
20
0.0344832007557727
30
0
41
1
10
45.9398871026644
20
-0.0317871586495642
30
0
41
1
10
45.930719789062
20
-0.0537728655957324
30
0
41
1
10
45.9118771772769
20
-0.0973453592295641
30
0
41
1
10
45.902312132797
20
-0.118679433119809
30
0
41
1
10
45.8732205377644
20
-0.181348140054638
30
0
41
1
10
45.8533013992402
20
-0.221358827545373
30
0
41
1
10
45.8227034880857
20
-0.278649081475521
30
0
41
1
10
45.8123833708261
20
-0.297289268478238
30
0
41
1
10
45.7967210001989
20
-0.324531445340227
30
0
41
1
10
45.7914583712066
20
-0.333510656338376
30
0
41
1
10
45.7809817469216
20
-0.351039033078877
30
0
41
1
10
45.7757570594023
20
-0.359607541043516
30
0
41
1
10
45.7497028155532
20
-0.401482185416768
30
0
41
1
10
45.7290825046743
20
-0.431907025732045
30
0
41
1
10
45.6984871434658
20
-0.472863817915709
30
0
41
1
10
45.6883442193989
20
-0.485731672539401
30
0
41
1
10
45.6732099615154
20
-0.503805081718951
30
0
41
1
10
45.6681724423782
20
-0.509630176909383
30
0
41
1
10
45.6582346791099
20
-0.520737286627934
30
0
41
1
10
45.6533208272051
20
-0.526036112396469
30
0
41
1
10
45.629017663247
20
-0.551274846812021
30
0
41
1
10
45.6104235919645
20
-0.567476738550567
30
0
41
1
10
45.5881306508398
20
-0.582743044141836
30
0
41
1
10
45.583719724759
20
-0.585545256046544
30
0
41
1
10
45.5749910908719
20
-0.590640543420761
30
0
41
1
10
45.5706627071513
20
-0.592938453357959
30
0
41
1
10
45.5578991784857
20
-0.599014697506618
30
0
41
1
10
45.5497057138336
20
-0.601973154614882
30
0
41
1
10
45.5417999802683
20
-0.60388173590573
30
0
0
SPLINE
5
D2
100
AcDbEntity
8
1
62
256
6
ByLayer
370
18
48
1
60
0
100
AcDbSpline
70
4
71
3
72
95
73
91
40
0
40
0
40
0
40
0
40
0.0312499999999753
40
0.0312499999999753
40
0.046874999999963
40
0.046874999999963
40
0.0624999999999507
40
0.0624999999999507
40
0.0937499999999262
40
0.0937499999999262
40
0.109374999999916
40
0.109374999999916
40
0.124999999999907
40
0.124999999999907
40
0.156249999999881
40
0.156249999999881
40
0.171874999999868
40
0.171874999999868
40
0.187499999999855
40
0.187499999999855
40
0.218749999999829
40
0.218749999999829
40
0.249999999999804
40
0.249999999999804
40
0.281249999999778
40
0.281249999999778
40
0.312499999999753
40
0.312499999999753
40
0.328124999999744
40
0.328124999999744
40
0.343749999999735
40
0.343749999999735
40
0.374999999999724
40
0.374999999999724
40
0.390624999999722
40
0.390624999999722
40
0.40624999999972
40
0.40624999999972
40
0.437499999999723
40
0.468749999999726
40
0.468749999999726
40
0.484374999999729
40
0.484374999999729
40
0.499999999999733
40
0.499999999999733
40
0.531249999999744
40
0.531249999999744
40
0.54687499999975
40
0.54687499999975
40
0.562499999999755
40
0.562499999999755
40
0.593749999999764
40
0.593749999999764
40
0.624999999999773
40
0.624999999999773
40
0.640624999999778
40
0.640624999999778
40
0.656249999999783
40
0.656249999999783
40
0.687499999999791
40
0.687499999999791
40
0.703124999999797
40
0.703124999999797
40
0.718749999999802
40
0.718749999999802
40
0.749999999999813
40
0.749999999999813
40
0.765624999999818
40
0.765624999999818
40
0.781249999999824
40
0.781249999999824
40
0.812499999999834
40
0.812499999999834
40
0.828124999999843
40
0.828124999999843
40
0.843749999999851
40
0.843749999999851
40
0.874999999999875
40
0.874999999999875
40
0.89062499999989
40
0.89062499999989
40
0.906249999999906
40
0.906249999999906
40
0.937499999999929
40
0.937499999999929
40
0.953124999999945
40
0.953124999999945
40
0.968749999999961
40
0.968749999999961
40
1
40
1
40
1
40
1
41
1
10
45.5417999802684
20
-0.603881735905674
30
0
41
1
10
45.5413680775017
20
-0.620016015860472
30
0
41
1
10
45.5401405751588
20
-0.63711752070904
30
0
41
1
10
45.5370576560994
20
-0.66430300268479
30
0
41
1
10
45.5358199280394
20
-0.673636745159172
30
0
41
1
10
45.5329186328624
20
-0.692785431518757
30
0
41
1
10
45.5312770409331
20
-0.702459012737648
30
0
41
1
10
45.5258038017643
20
-0.731770565164027
30
0
41
1
10
45.521426876983
20
-0.751697406098856
30
0
41
1
10
45.5138046098125
20
-0.78217519357554
30
0
41
1
10
45.5110713187476
20
-0.792486984124935
30
0
41
1
10
45.5053351394644
20
-0.813005055444762
30
0
41
1
10
45.5023365456388
20
-0.823203372487825
30
0
41
1
10
45.4929752028496
20
-0.853626829808576
30
0
41
1
10
45.48624927095
20
-0.873681581857966
30
0
41
1
10
45.4754869509178
20
-0.903442201519795
30
0
41
1
10
45.4717921714407
20
-0.913289581402864
30
0
41
1
10
45.4643164292391
20
-0.932540825415884
30
0
41
1
10
45.4605198840039
20
-0.941988369002956
30
0
41
1
10
45.4489684519731
20
-0.969821038443854
30
0
41
1
10
45.4410530302423
20
-0.987699369462234
30
0
41
1
10
45.4248339005719
20
-1.02214617848969
30
0
41
1
10
45.416699862678
20
-1.03835281481898
30
0
41
1
10
45.4004587838487
20
-1.06879462967669
30
0
41
1
10
45.3923421696395
20
-1.08304860008624
30
0
41
1
10
45.3761227637567
20
-1.10965358096286
30
0
41
1
10
45.3680942174675
20
-1.12187663691847
30
0
41
1
10
45.3562802664327
20
-1.13846366694355
30
0
41
1
10
45.3523735774788
20
-1.14370948298571
30
0
41
1
10
45.3447132266473
20
-1.15352484909803
30
0
41
1
10
45.3409451166411
20
-1.15811485843065
30
0
41
1
10
45.32981845575
20
-1.17095754361699
30
0
41
1
10
45.3226369467229
20
-1.17828753578755
30
0
41
1
10
45.3121979104797
20
-1.18744703510271
30
0
41
1
10
45.3087739333333
20
-1.19019310556015
30
0
41
1
10
45.3020357388452
20
-1.19505863160904
30
0
41
1
10
45.2987096788694
20
-1.19718376930629
30
0
41
1
10
45.2890106154706
20
-1.20252686440418
30
0
41
1
10
45.2767958309295
20
-1.20694557113438
30
0
41
1
10
45.2659177847334
20
-1.20604178893939
30
0
41
1
10
45.2582532082335
20
-1.20327637164564
30
0
41
1
10
45.2557725578917
20
-1.2019990829483
30
0
41
1
10
45.2510211470939
20
-1.19874334006872
30
0
41
1
10
45.2487574937077
20
-1.19677316591142
30
0
41
1
10
45.2422919693208
20
-1.18984605948285
30
0
41
1
10
45.238413646669
20
-1.18387806648934
30
0
41
1
10
45.2332357300244
20
-1.17284469480975
30
0
41
1
10
45.2316168151296
20
-1.16881867189542
30
0
41
1
10
45.22859776171
20
-1.16004270205883
30
0
41
1
10
45.2271940919778
20
-1.15527856559305
30
0
41
1
10
45.2233487870208
20
-1.13993200626038
30
0
41
1
10
45.2213081249635
20
-1.12847121919805
30
0
41
1
10
45.2182558051954
20
-1.10309045895227
30
0
41
1
10
45.2172436235179
20
-1.08917167762533
30
0
41
1
10
45.2165529238693
20
-1.06631204580566
30
0
41
1
10
45.2164622625324
20
-1.0583153353455
30
0
41
1
10
45.2165746458379
20
-1.04189274526448
30
0
41
1
10
45.2167756624727
20
-1.0334655330935
30
0
41
1
10
45.2178130503662
20
-1.0075419339457
30
0
41
1
10
45.2190801822514
20
-0.989407965262956
30
0
41
1
10
45.2219049519117
20
-0.960876813526397
30
0
41
1
10
45.2230036096515
20
-0.951126352372768
30
0
41
1
10
45.2255235790344
20
-0.931229016320799
30
0
41
1
10
45.2269278846987
20
-0.921213194787725
30
0
41
1
10
45.2315714227951
20
-0.890971131136638
30
0
41
1
10
45.2352381818966
20
-0.870551508370397
30
0
41
1
10
45.2416420595918
20
-0.839538832939326
30
0
41
1
10
45.2439376581837
20
-0.829096550950851
30
0
41
1
10
45.2488052284268
20
-0.808268158592597
30
0
41
1
10
45.2513590270343
20
-0.797954713980886
30
0
41
1
10
45.2593763633359
20
-0.767307534887664
30
0
41
1
10
45.2651938459603
20
-0.747265224169098
30
0
41
1
10
45.2746511947567
20
-0.71778353705696
30
0
41
1
10
45.2779402485343
20
-0.708016055351237
30
0
41
1
10
45.2846565149584
20
-0.689000310482328
30
0
41
1
10
45.2880920819158
20
-0.679722062625274
30
0
41
1
10
45.2986271285685
20
-0.652547363756156
30
0
41
1
10
45.3059540439174
20
-0.635307369646938
30
0
41
1
10
45.3174021663701
20
-0.610720853762786
30
0
41
1
10
45.3212931371773
20
-0.60274575670681
30
0
41
1
10
45.3291038979547
20
-0.587458946416291
30
0
41
1
10
45.3330390103336
20
-0.580113530594303
30
0
41
1
10
45.3449311755025
20
-0.558932512787209
30
0
41
1
10
45.3529749446866
20
-0.545947719128264
30
0
41
1
10
45.3652070639678
20
-0.528110241807184
30
0
41
1
10
45.36931703633
20
-0.522434886302108
30
0
41
1
10
45.3774789637417
20
-0.511773648508012
30
0
41
1
10
45.3815447855167
20
-0.506766573446384
30
0
41
1
10
45.3936960596478
20
-0.492677810527482
30
0
41
1
10
45.4017357982338
20
-0.484523864711974
30
0
41
1
10
45.4097064229612
20
-0.47756982349415
30
0
0
SPLINE
5
D3
100
AcDbEntity
8
1
62
256
6
ByLayer
370
18
48
1
60
0
100
AcDbSpline
70
4
71
3
72
8
73
4
40
0
40
0
40
0
40
0
40
1
40
1
40
1
40
1
41
1
10
45.4097064229612
20
-0.47756982349415
30
0
41
1
10
45.4010496997315
20
-0.449257725464605
30
0
41
1
10
45.3937924989729
20
-0.417066605258668
30
0
41
1
10
45.387761904898
20
-0.381221283908218
30
0
0
SPLINE
5
D4
100
AcDbEntity
8
1
62
256
6
ByLayer
370
18
48
1
60
0
100
AcDbSpline
70
4
71
3
72
8
73
4
40
0
40
0
40
0
40
0
40
1
40
1
40
1
40
1
41
1
10
45.387761904898
20
-0.381221283908246
30
0
41
1
10
45.3503000475228
20
-0.158551294963957
30
0
41
1
10
45.3012587580909
20
0.0696263540457949
30
0
41
1
10
45.2407386897449
20
0.303263788295027
30
0
0
SPLINE
5
D5
100
AcDbEntity
8
1
62
256
6
ByLayer
370
18
48
1
60
0
100
AcDbSpline
70
4
71
3
72
13
73
9
40
0
40
0
40
0
40
0
40
0.500000000000029
40
0.500000000000029
40
0.625000000000029
40
0.625000000000029
40
0.750000000000028
40
1
40
1
40
1
40
1
41
1
10
45.1405364059462
20
-2.38437981759327
30
0
41
1
10
45.1213931043994
20
-2.41291511498352
30
0
41
1
10
45.1035929536314
20
-2.43745237117642
30
0
41
1
10
45.0830709579269
20
-2.46235639776071
30
0
41
1
10
45.0790689323355
20
-2.46702729347797
30
0
41
1
10
45.0713240790632
20
-2.47568091265165
30
0
41
1
10
45.0600668233438
20
-2.48766407430296
30
0
41
1
10
45.049846662279
20
-2.49669787464484
30
0
41
1
10
45.0434586307225
20
-2.50143761842119
30
0
0
SPLINE
5
D6
100
AcDbEntity
8
1
62
256
6
ByLayer
370
18
48
1
60
0
100
AcDbSpline
70
4
71
3
72
8
73
4
40
0
40
0
40
0
40
0
40
1
40
1
40
1
40
1
41
1
10
45.7279424518139
20
-0.883965328198968
30
0
41
1
10
45.7977951783661
20
-0.689187431920885
30
0
41
1
10
45.8670713331165
20
-0.494206472107123
30
0
41
1
10
45.9357593089806
20
-0.299018360844315
30
0
0
SPLINE
5
D7
100
AcDbEntity
8
1
62
256
6
ByLayer
370
18
48
1
60
0
100
AcDbSpline
70
4
71
3
72
8
73
4
40
0
40
0
40
0
40
0
40
1
40
1
40
1
40
1
41
1
10
45.9357593089806
20
-0.299018360844315
30
0
41
1
10
45.9563210637106
20
-0.240588773722323
30
0
41
1
10
45.9773046019793
20
-0.182399535526571
30
0
41
1
10
45.9987171247347
20
-0.124445323399527
30
0
0
SPLINE
5
D8
100
AcDbEntity
8
1
62
256
6
ByLayer
370
18
48
1
60
0
100
AcDbSpline
70
4
71
3
72
8
73
4
40
0
40
0
40
0
40
0
40
1
40
1
40
1
40
1
41
1
10
45.9987171247302
20
0.124445323404274
30
0
41
1
10
46.0004252815039
20
0.0415954442057966
30
0
41
1
10
46.0004299751135
20
-0.0413677923924354
30
0
41
1
10
45.9987171247303
20
-0.124445323402853
30
0
0
SPLINE
5
D9
100
AcDbEntity
8
1
62
256
6
ByLayer
370
18
48
1
60
0
100
AcDbSpline
70
4
71
3
72
24
73
20
40
0
40
0
40
0
40
0
40
0.0385765678101942
40
0.0385765678101942
40
0.118695187159315
40
0.118695187159315
40
0.198813806508435
40
0.198813806508435
40
0.359051045206717
40
0.359051045206717
40
0.519288283905
40
0.519288283905
40
0.55934759357957
40
0.55934759357957
40
0.599406903254141
40
0.599406903254141
40
0.679525522603282
40
0.679525522603282
40
1
40
1
40
1
40
1
41
1
10
44.6427260124102
20
0.589815188848235
30
0
41
1
10
44.6498330907572
20
0.593494967537936
30
0
41
1
10
44.6570164779082
20
0.597242399027095
30
0
41
1
10
44.679363332547
20
0.608965341503961
30
0
41
1
10
44.6947940244234
20
0.617144404894276
30
0
41
1
10
44.7264454251666
20
0.633902508580064
30
0
41
1
10
44.7427105719516
20
0.642500953678962
30
0
41
1
10
44.7925717600351
20
0.66852581507996
30
0
41
1
10
44.8267453760734
20
0.686075093778072
30
0
41
1
10
44.8972401343194
20
0.720729310567577
30
0
41
1
10
44.9336237728773
20
0.737722620684877
30
0
41
1
10
44.9810366143633
20
0.757370303781983
30
0
41
1
10
44.9906161305568
20
0.761219372389093
30
0
41
1
10
45.0099816602344
20
0.768726656688955
30
0
41
1
10
45.0197920714278
20
0.772392645942034
30
0
41
1
10
45.0493544380305
20
0.7829978403675
30
0
41
1
10
45.0691930475902
20
0.78953973921935
30
0
41
1
10
45.1690179744593
20
0.819665199086643
30
0
41
1
10
45.2508758099569
20
0.83559560479398
30
0
41
1
10
45.3348223206041
20
0.842652509614055
30
0
0
SPLINE
5
DA
100
AcDbEntity
8
1
62
256
6
ByLayer
370
18
48
1
60
0
100
AcDbSpline
70
4
71
3
72
8
73
4
40
0
40
0
40
0
40
0
40
1
40
1
40
1
40
1
41
1
10
45.334822320604
20
0.842652509614055
30
0
41
1
10
45.4661756329284
20
0.85369463412556
30
0
41
1
10
45.5972965625508
20
0.866908538714284
30
0
41
1
10
45.7279424518139
20
0.88396532819894
30
0
0
SPLINE
5
DB
100
AcDbEntity
8
1
62
256
6
ByLayer
370
18
48
1
60
0
100
AcDbSpline
70
4
71
3
72
28
73
24
40
0
40
0
40
0
40
0
40
0.250000000000025
40
0.250000000000025
40
0.375000000000041
40
0.375000000000041
40
0.43750000000005
40
0.43750000000005
40
0.468750000000049
40
0.468750000000049
40
0.500000000000049
40
0.500000000000049
40
0.562500000000039
40
0.562500000000039
40
0.62500000000003
40
0.62500000000003
40
0.75000000000002
40
0.75000000000002
40
0.87500000000001
40
0.87500000000001
40
0.937500000000005
40
0.937500000000005
40
1
40
1
40
1
40
1
41
1
10
45.1405364059456
20
2.38437981759424
30
0
41
1
10
45.1846289119221
20
2.25591050525964
30
0
41
1
10
45.2291638264576
20
2.12679501027566
30
0
41
1
10
45.2966237981967
20
1.93298241980773
30
0
41
1
10
45.31922783325
20
1.86833555640476
30
0
41
1
10
45.3532986116942
20
1.77141166125352
30
0
41
1
10
45.3646841683762
20
1.73910761627596
30
0
41
1
10
45.3818066238649
20
1.69065862072796
30
0
41
1
10
45.3875794419847
20
1.67452229733542
30
0
41
1
10
45.3992006728088
20
1.64226552564594
30
0
41
1
10
45.4050574363255
20
1.6261468207299
30
0
41
1
10
45.4227769293519
20
1.57782307120971
30
0
41
1
10
45.4348157153143
20
1.54559433298311
30
0
41
1
10
45.4591428085073
20
1.48175002705833
30
0
41
1
10
45.4714479172985
20
1.45008787815112
30
0
41
1
10
45.5088221089065
20
1.35586728055159
30
0
41
1
10
45.5343418953503
20
1.29405929387295
30
0
41
1
10
45.5868906378779
20
1.17264428401313
30
0
41
1
10
45.6139180001435
20
1.11303429408929
30
0
41
1
10
45.6558148648833
20
1.0254158557203
30
0
41
1
10
45.6700311849062
20
0.996458021559931
30
0
41
1
10
45.698830105154
20
0.939368303799142
30
0
41
1
10
45.7133316281065
20
0.911390984077258
30
0
41
1
10
45.7279424518139
20
0.883965328199025
30
0
0
SPLINE
5
DC
100
AcDbEntity
8
1
62
256
6
ByLayer
370
18
48
1
60
0
100
AcDbSpline
70
4
71
3
72
8
73
4
40
0
40
0
40
0
40
0
40
1
40
1
40
1
40
1
41
1
10
45.0511254600305
20
2.5396659605226
30
0
41
1
10
45.0809089363249
20
2.48791388187249
30
0
41
1
10
45.1107150155706
20
2.43614729321428
30
0
41
1
10
45.1405364059456
20
2.38437981759421
30
0
0
SPLINE
5
DD
100
AcDbEntity
8
1
62
256
6
ByLayer
370
18
48
1
60
0
100
AcDbSpline
70
4
71
3
72
12
73
8
40
0
40
0
40
0
40
0
40
0.5
40
0.5
40
0.75
40
0.75
40
1
40
1
40
1
40
1
41
1
10
45.2407386897449
20
0.303263788294998
30
0
41
1
10
45.2031724315937
20
0.28373426163418
30
0
41
1
10
45.1657135439754
20
0.258722583160136
30
0
41
1
10
45.1100921460861
20
0.212848602300227
30
0
41
1
10
45.0916449375532
20
0.196124370570317
30
0
41
1
10
45.0550061701619
20
0.159944531829041
30
0
41
1
10
45.0367873773263
20
0.140480825175274
30
0
41
1
10
45.01880427693
20
0.119840993787875
30
0
0
SPLINE
5
DE
100
AcDbEntity
8
1
62
256
6
ByLayer
370
18
48
1
60
0
100
AcDbSpline
70
4
71
3
72
24
73
20
40
0
40
0
40
0
40
0
40
0.0960061684418722
40
0.0960061684418722
40
0.192012336883745
40
0.192012336883745
40
0.288018505325617
40
0.288018505325617
40
0.384024673767489
40
0.384024673767489
40
0.576037010651195
40
0.576037010651195
40
0.768049347534902
40
0.768049347534902
40
0.864055515976738
40
0.864055515976738
40
0.960061684418573
40
0.960061684418573
40
1
40
1
40
1
40
1
41
1
10
45.2407386897449
20
0.303263788294686
30
0
41
1
10
45.2179098395674
20
0.316463933800321
30
0
41
1
10
45.1950595783008
20
0.329544396430435
30
0
41
1
10
45.1493198497323
20
0.355486169315583
30
0
41
1
10
45.1264277601012
20
0.36833282137647
30
0
41
1
10
45.0805766079418
20
0.393651762994978
30
0
41
1
10
45.0576016045565
20
0.406139191974148
30
0
41
1
10
45.0118225906982
20
0.430576146135081
30
0
41
1
10
44.9889922001694
20
0.442541083148967
30
0
41
1
10
44.9207079043958
20
0.477548639431859
30
0
41
1
10
44.8754707096901
20
0.499661824495945
30
0
41
1
10
44.7855970440256
20
0.541311793860217
30
0
41
1
10
44.7409439146945
20
0.56092002305158
30
0
41
1
10
44.6744706152768
20
0.588160527642145
30
0
41
1
10
44.6524133239888
20
0.596809775064685
30
0
41
1
10
44.608390588257
20
0.613714354601626
30
0
41
1
10
44.5864084887638
20
0.622023575405251
30
0
41
1
10
44.555642323468
20
0.632978696121427
30
0
41
1
10
44.5466430911922
20
0.636104362782504
30
0
41
1
10
44.5376891318231
20
0.639123360907291
30
0
0
SPLINE
5
DF
100
AcDbEntity
8
1
62
256
6
ByLayer
370
18
48
1
60
0
100
AcDbSpline
70
4
71
3
72
28
73
24
40
0
40
0
40
0
40
0
40
0.25000000000005
40
0.25000000000005
40
0.375000000000071
40
0.375000000000071
40
0.437500000000081
40
0.437500000000081
40
0.468750000000082
40
0.468750000000082
40
0.500000000000083
40
0.500000000000083
40
0.562500000000076
40
0.562500000000076
40
0.625000000000069
40
0.625000000000069
40
0.750000000000046
40
0.750000000000046
40
0.875000000000023
40
0.875000000000023
40
0.937500000000011
40
0.937500000000011
40
1
40
1
40
1
40
1
41
1
10
45.1405364059456
20
-2.38437981759415
30
0
41
1
10
45.1846289119221
20
-2.25591050525955
30
0
41
1
10
45.2291638264576
20
-2.12679501027557
30
0
41
1
10
45.2966237981967
20
-1.93298241980764
30
0
41
1
10
45.31922783325
20
-1.86833555640467
30
0
41
1
10
45.3532986116942
20
-1.77141166125344
30
0
41
1
10
45.3646841683762
20
-1.7391076162759
30
0
41
1
10
45.3818066238649
20
-1.6906586207279
30
0
41
1
10
45.3875794419847
20
-1.67452229733536
30
0
41
1
10
45.3992006728088
20
-1.64226552564588
30
0
41
1
10
45.4050574363255
20
-1.62614682072982
30
0
41
1
10
45.4227769293519
20
-1.57782307120962
30
0
41
1
10
45.4348157153143
20
-1.54559433298306
30
0
41
1
10
45.4591428085074
20
-1.48175002705827
30
0
41
1
10
45.4714479172985
20
-1.45008787815112
30
0
41
1
10
45.5088221089066
20
-1.35586728055162
30
0
41
1
10
45.5343418953502
20
-1.29405929387295
30
0
41
1
10
45.5868906378779
20
-1.17264428401316
30
0
41
1
10
45.6139180001435
20
-1.11303429408929
30
0
41
1
10
45.6558148648833
20
-1.02541585572027
30
0
41
1
10
45.6700311849062
20
-0.996458021559874
30
0
41
1
10
45.698830105154
20
-0.939368303799114
30
0
41
1
10
45.7133316281065
20
-0.911390984077258
30
0
41
1
10
45.7279424518139
20
-0.883965328199054
30
0
0
SPLINE
5
E0
100
AcDbEntity
8
1
62
256
6
ByLayer
370
18
48
1
60
0
100
AcDbSpline
70
4
71
3
72
8
73
4
40
0
40
0
40
0
40
0
40
1
40
1
40
1
40
1
41
1
10
45.0511254584482
20
-2.53966596327194
30
0
41
1
10
45.0809089352693
20
-2.48791388370586
30
0
41
1
10
45.1107150150426
20
-2.43614729413093
30
0
41
1
10
45.1405364059457
20
-2.38437981759412
30
0
0
SPLINE
5
E1
100
AcDbEntity
8
1
62
256
6
ByLayer
370
18
48
1
60
0
100
AcDbSpline
70
4
71
3
72
74
73
70
40
0
40
0
40
0
40
0
40
0.0265173685254812
40
0.0265173685254812
40
0.0562121070490195
40
0.0562121070490195
40
0.0859068455725578
40
0.0859068455725578
40
0.115601584096096
40
0.115601584096096
40
0.130448953357865
40
0.130448953357865
40
0.145296322619634
40
0.145296322619634
40
0.174991061143173
40
0.174991061143173
40
0.189838430404942
40
0.189838430404942
40
0.204685799666711
40
0.204685799666711
40
0.23438053819025
40
0.23438053819025
40
0.264075276713788
40
0.264075276713788
40
0.293770015237326
40
0.293770015237326
40
0.323464753760864
40
0.323464753760864
40
0.353159492284403
40
0.353159492284403
40
0.382854230807941
40
0.382854230807941
40
0.442243707855018
40
0.442243707855018
40
0.471938446378556
40
0.471938446378556
40
0.501633184902095
40
0.501633184902095
40
0.531327923425633
40
0.531327923425633
40
0.561022661949171
40
0.561022661949171
40
0.590717400472709
40
0.590717400472709
40
0.620412138996248
40
0.620412138996248
40
0.650106877519786
40
0.650106877519786
40
0.679801616043324
40
0.679801616043324
40
0.709496354566863
40
0.709496354566863
40
0.739191093090401
40
0.739191093090401
40
0.76888583161394
40
0.76888583161394
40
0.798580570137478
40
0.798580570137478
40
0.857970047184552
40
0.857970047184552
40
0.872817416446321
40
0.872817416446321
40
0.88766478570809
40
0.88766478570809
40
0.917359524231629
40
0.917359524231629
40
0.976749001278706
40
0.976749001278706
40
1
40
1
40
1
40
1
41
1
10
38.2289010738889
20
-0.706318875504678
30
0
41
1
10
38.1109133834227
20
-0.650968408223434
30
0
41
1
10
37.992889350797
20
-0.595073476540449
30
0
41
1
10
37.7424898020081
20
-0.475662022241409
30
0
41
1
10
37.6101201040987
20
-0.411994990557361
30
0
41
1
10
37.3450115161089
20
-0.283821495142291
30
0
41
1
10
37.2122702354871
20
-0.21932030164885
30
0
41
1
10
36.9462628808675
20
-0.0898247195300428
30
0
41
1
10
36.8129891203205
20
-0.0248498032523798
30
0
41
1
10
36.6126866276367
20
0.0729548012494377
30
0
41
1
10
36.5458491150725
20
0.105605143754815
30
0
41
1
10
36.411990694741
20
0.170919108163048
30
0
41
1
10
36.3449770977601
20
0.203578793458348
30
0
41
1
10
36.1439989129033
20
0.301277918872557
30
0
41
1
10
36.0100083757708
20
0.366150898161152
30
0
41
1
10
35.8090730724017
20
0.462811898469454
30
0
41
1
10
35.7420948792317
20
0.494920944092883
30
0
41
1
10
35.6081160581824
20
0.558869665363488
30
0
41
1
10
35.5411035092117
20
0.590714946476709
30
0
41
1
10
35.3402452935072
20
0.685674161270072
30
0
41
1
10
35.2064931516327
20
0.748220804501671
30
0
41
1
10
34.9392359838394
20
0.871763907036012
30
0
41
1
10
34.8057624144654
20
0.932829339375814
30
0
41
1
10
34.53882793392
20
1.05288707687316
30
0
41
1
10
34.4053545514481
20
1.11183502468947
30
0
41
1
10
34.1383334068843
20
1.22753468968739
30
0
41
1
10
34.0047721079099
20
1.28424948356488
30
0
41
1
10
33.7373692888563
20
1.39507034507494
30
0
41
1
10
33.6034961369602
20
1.44918673931127
30
0
41
1
10
33.335469222941
20
1.55457429433022
30
0
41
1
10
33.2018590082275
20
1.60573480207222
30
0
41
1
10
32.8019736706206
20
1.75412990997168
30
0
41
1
10
32.5365311820244
20
1.84590132676595
30
0
41
1
10
32.1392522411357
20
1.97193086252514
30
0
41
1
10
32.0069653064745
20
2.01196931339223
30
0
41
1
10
31.742516288049
20
2.08799828062325
30
0
41
1
10
31.6103545144525
20
2.12400754882773
30
0
41
1
10
31.3461335896356
20
2.19212992097292
30
0
41
1
10
31.2140440469279
20
2.22417566901913
30
0
41
1
10
30.9496504729991
20
2.2837023776267
30
0
41
1
10
30.8173807836044
20
2.31129049932815
30
0
41
1
10
30.5525534941259
20
2.36195360629742
30
0
41
1
10
30.4199871434987
20
2.38500504437127
30
0
41
1
10
30.1543897631116
20
2.42642711362964
30
0
41
1
10
30.0213461206014
20
2.44479018336409
30
0
41
1
10
29.7547611248303
20
2.47692375052793
30
0
41
1
10
29.6212385120201
20
2.49071178977275
30
0
41
1
10
29.3533987398933
20
2.51330603298845
30
0
41
1
10
29.2193437551733
20
2.52205568766706
30
0
41
1
10
28.9514222792492
20
2.53457134936221
30
0
41
1
10
28.8174816532063
20
2.53829747203878
30
0
41
1
10
28.5494829242321
20
2.54062293938191
30
0
41
1
10
28.4156743228128
20
2.53922061052396
30
0
41
1
10
28.1483132326402
20
2.53147821818064
30
0
41
1
10
28.0148006156514
20
2.52518893398172
30
0
41
1
10
27.7478876009248
20
2.50774649329759
30
0
41
1
10
27.6144589882529
20
2.49650547843748
30
0
41
1
10
27.2141046027473
20
2.45543255842929
30
0
41
1
10
26.9471098501396
20
2.41824096729266
30
0
41
1
10
26.6124299366852
20
2.35965506245509
30
0
41
1
10
26.5454077772845
20
2.34733340053271
30
0
41
1
10
26.4114729450498
20
2.32155577441026
30
0
41
1
10
26.3446079397253
20
2.30810728682991
30
0
41
1
10
26.1442723478822
20
2.26611657864657
30
0
41
1
10
26.0110472893884
20
2.23593040087476
30
0
41
1
10
25.6120620979759
20
2.13899959934869
30
0
41
1
10
25.3470941376517
20
2.06597086165735
30
0
41
1
10
24.9788960661718
20
1.95383875943946
30
0
41
1
10
24.8753523224204
20
1.92114832444773
30
0
41
1
10
24.7718578711248
20
1.88734787346039
30
0
0
SPLINE
5
E2
100
AcDbEntity
8
1
62
256
6
ByLayer
370
18
48
1
60
0
100
AcDbSpline
70
4
71
3
72
32
73
28
40
0
40
0
40
0
40
0
40
0.337540845400242
40
0.337540845400242
40
0.56488724264043
40
0.56488724264043
40
0.71457897508259
40
0.71457897508259
40
0.813224319909202
40
0.813224319909202
40
0.878315151804206
40
0.878315151804206
40
0.921358482666346
40
0.921358482666346
40
0.95008424384649
40
0.95008424384649
40
0.96917793009899
40
0.96917793009899
40
0.98132554263205
40
0.98132554263205
40
0.989057182392903
40
0.989057182392903
40
0.995923033236143
40
0.995923033236143
40
0.999264086057718
40
0.999264086057718
40
1
40
1
40
1
40
1
41
1
10
44.9840581205625
20
2.64989096387492
30
0
41
1
10
44.9915958836807
20
2.63757906935896
30
0
41
1
10
44.9991297856677
20
2.62525173764291
30
0
41
1
10
45.0117397353413
20
2.60457713701069
30
0
41
1
10
45.0168167008594
20
2.59624114047111
30
0
41
1
10
45.0252490709179
20
2.58237108898652
30
0
41
1
10
45.0286002331175
20
2.57685245940112
30
0
41
1
10
45.0341676974941
20
2.56767233427931
30
0
41
1
10
45.0363813271782
20
2.56401924318615
30
0
41
1
10
45.040059691084
20
2.55794362182337
30
0
41
1
10
45.0415242155587
20
2.55552264612993
30
0
41
1
10
45.0439543075215
20
2.55150560357731
30
0
41
1
10
45.0449200103251
20
2.5499097857487
30
0
41
1
10
45.0465175469023
20
2.54727526849638
30
0
41
1
10
45.0471505301406
20
2.54623427092099
30
0
41
1
10
45.0482078102167
20
2.54449334770297
30
0
41
1
10
45.0486335647747
20
2.54379069846325
30
0
41
1
10
45.0493423519587
20
2.54261426789247
30
0
41
1
10
45.0496213852344
20
2.5421493387129
30
0
41
1
10
45.0500808608725
20
2.54138179903526
30
0
41
1
10
45.0502600292506
20
2.54108229824888
30
0
41
1
10
45.0505928932371
20
2.54052870617568
30
0
41
1
10
45.0507490422582
20
2.54026995597346
30
0
41
1
10
45.050963084304
20
2.53992190863986
30
0
41
1
10
45.0510310778938
20
2.53981255197516
30
0
41
1
10
45.0511015292127
20
2.53970274372753
30
0
41
1
10
45.0511137960067
20
2.53968379292692
30
0
41
1
10
45.0511254597695
20
2.53966596125196
30
0
0
SPLINE
5
E3
100
AcDbEntity
8
1
62
256
6
ByLayer
370
18
48
1
60
0
100
AcDbSpline
70
4
71
3
72
28
73
24
40
0
40
0
40
0
40
0
40
0.10154346408945
40
0.10154346408945
40
0.203086928178899
40
0.203086928178899
40
0.304630392268348
40
0.304630392268348
40
0.406173856357798
40
0.406173856357798
40
0.507717320447247
40
0.507717320447247
40
0.609260784536697
40
0.609260784536697
40
0.660032516581422
40
0.660032516581422
40
0.710804248626147
40
0.710804248626147
40
0.812347712715588
40
0.812347712715588
40
0.913891176805029
40
0.913891176805029
40
1
40
1
40
1
40
1
41
1
10
45.0511254610944
20
2.53966596324085
30
0
41
1
10
44.9189124155105
20
2.54122022853665
30
0
41
1
10
44.7867830284406
20
2.54024291905597
30
0
41
1
10
44.5226065911797
20
2.53331951434566
30
0
41
1
10
44.3905576375501
20
2.52738859077576
30
0
41
1
10
44.1263575051581
20
2.51057040873451
30
0
41
1
10
43.9942059014346
20
2.49968609097016
30
0
41
1
10
43.7296578897379
20
2.47310380603113
30
0
41
1
10
43.5972788129329
20
2.45742415142601
30
0
41
1
10
43.3322503414072
20
2.42132420035836
30
0
41
1
10
43.1995587660597
20
2.40088442999456
30
0
41
1
10
42.9335840508287
20
2.35512511042083
30
0
41
1
10
42.8003422639251
20
2.32987392923752
30
0
41
1
10
42.5999645848182
20
2.28847546030903
30
0
41
1
10
42.5330854197135
20
2.27408766736787
30
0
41
1
10
42.3991329441049
20
2.24414870491478
30
0
41
1
10
42.3321567894087
20
2.22861926578423
30
0
41
1
10
42.1313948931456
20
2.18044846567665
30
0
41
1
10
41.9976787136633
20
2.14622091427014
30
0
41
1
10
41.7304995783847
20
2.07367722232428
30
0
41
1
10
41.5970290381793
20
2.03535994770633
30
0
41
1
10
41.3503143445128
20
1.96089797501637
30
0
41
1
10
41.2370939388958
20
1.92530439144278
30
0
41
1
10
41.1238346759388
20
1.88833690186465
30
0
0
SPLINE
5
E4
100
AcDbEntity
8
1
62
256
6
ByLayer
370
18
48
1
60
0
100
AcDbSpline
70
4
71
3
72
16
73
12
40
0
40
0
40
0
40
0
40
0.212908162807452
40
0.212908162807452
40
0.409681122105589
40
0.409681122105589
40
0.606454081403726
40
0.606454081403726
40
0.803227040701864
40
0.803227040701864
40
1
40
1
40
1
40
1
41
1
10
21.5284482460069
20
-0.540678789465403
30
0
41
1
10
21.3845345850723
20
-0.472084634405604
30
0
41
1
10
21.2407712586978
20
-0.402921387175695
30
0
41
1
10
20.9643129839266
20
-0.268996054225966
30
0
41
1
10
20.8315638110332
20
-0.204378112122413
30
0
41
1
10
20.5659494182069
20
-0.0749311125040037
30
0
41
1
10
20.433114514966
20
-0.0100473141477835
30
0
41
1
10
20.1672129234213
20
0.119682416106258
30
0
41
1
10
20.0341439949901
20
0.1845242192461
30
0
41
1
10
19.7676202884356
20
0.313848324982615
30
0
41
1
10
19.6341563689254
20
0.378311702374703
30
0
41
1
10
19.5004976795221
20
0.442587244233465
30
0
0
SPLINE
5
E5
100
AcDbEntity
8
1
62
256
6
ByLayer
370
13
48
1
60
0
100
AcDbSpline
70
4
71
3
72
41
73
37
40
0
40
0
40
0
40
0
40
0.0625000000000003
40
0.0625000000000003
40
0.0937500000000004
40
0.0937500000000004
40
0.125000000000001
40
0.125000000000001
40
0.250000000000001
40
0.250000000000001
40
0.312500000000001
40
0.312500000000001
40
0.343750000000002
40
0.343750000000002
40
0.375000000000002
40
0.375000000000002
40
0.437500000000002
40
0.437500000000002
40
0.468750000000002
40
0.468750000000002
40
0.500000000000002
40
0.500000000000002
40
0.625000000000002
40
0.625000000000002
40
0.687500000000002
40
0.718750000000002
40
0.718750000000002
40
0.750000000000002
40
0.750000000000002
40
0.875000000000001
40
0.875000000000001
40
0.9375
40
0.9375
40
0.96875
40
0.96875
40
1
40
1
40
1
40
1
41
1
10
19.6013300761849
20
2.46674684726025
30
0
41
1
10
19.6013251619799
20
2.47152055761652
30
0
41
1
10
19.6013196069558
20
2.47327253301646
30
0
41
1
10
19.6013103914956
20
2.47138371134443
30
0
41
1
10
19.6013071667006
20
2.46999628852356
30
0
41
1
10
19.6013004605142
20
2.46572476625207
30
0
41
1
10
19.6012969816716
20
2.46284493058076
30
0
41
1
10
19.6012789929098
20
2.44478972001963
30
0
41
1
10
19.601262725682
20
2.41872438147547
30
0
41
1
10
19.6012358342125
20
2.36245566956529
30
0
41
1
10
19.6012264501341
20
2.34082241479419
30
0
41
1
10
19.6012117377537
20
2.30394819539106
30
0
41
1
10
19.6012067171758
20
2.29089066905723
30
0
41
1
10
19.6011965175708
20
2.2634297981526
30
0
41
1
10
19.6011913394841
20
2.24903133154405
30
0
41
1
10
19.6011755692333
20
2.20384902788962
30
0
41
1
10
19.6011647422428
20
2.17108186455337
30
0
41
1
10
19.6011480059551
20
2.1179658511017
30
0
41
1
10
19.6011423442695
20
2.09959874007367
30
0
41
1
10
19.6011308472141
20
2.06153060008271
30
0
41
1
10
19.6011250039782
20
2.04180136525019
30
0
41
1
10
19.6010955500974
20
1.94055180991248
30
0
41
1
10
19.6010710977241
20
1.850815224267
30
0
41
1
10
19.6010326147427
20
1.70350899689453
30
0
41
1
10
19.6010129172516
20
1.62666305752168
30
0
41
1
10
19.6009923980986
20
1.54494640471353
30
0
41
1
10
19.6009785167534
20
1.48936583872393
30
0
41
1
10
19.6009714667157
20
1.46098942132895
30
0
41
1
10
19.6009360041052
20
1.317687019684
30
0
41
1
10
19.6009067150251
20
1.1975523701083
30
0
41
1
10
19.600860642205
20
1.00935668063104
30
0
41
1
10
19.6008449264813
20
0.945285179341198
30
0
41
1
10
19.6008207014
20
0.847133533930645
30
0
41
1
10
19.6008125176296
20
0.814075129306673
30
0
41
1
10
19.6007959113007
20
0.747264310690127
30
0
41
1
10
19.6007874857021
20
0.713500259028905
30
0
41
1
10
19.6007789746397
20
0.679561657763458
30
0
0
SPLINE
5
E6
100
AcDbEntity
8
1
62
256
6
ByLayer
370
18
48
1
60
0
100
AcDbSpline
70
4
71
3
72
42
73
38
40
0
40
0
40
0
40
0
40
0.061740410574153
40
0.061740410574153
40
0.108126900999515
40
0.108126900999515
40
0.154513391424877
40
0.154513391424877
40
0.2472863722756
40
0.2472863722756
40
0.340059353126324
40
0.340059353126324
40
0.363252598339006
40
0.363252598339006
40
0.386445843551687
40
0.386445843551687
40
0.432832333977048
40
0.432832333977048
40
0.52560531482777
40
0.52560531482777
40
0.618378295678492
40
0.618378295678492
40
0.711151276529213
40
0.711151276529213
40
0.757537766954574
40
0.757537766954574
40
0.803924257379935
40
0.803924257379935
40
0.850310747805296
40
0.850310747805296
40
0.873503993017979
40
0.873503993017979
40
0.896697238230661
40
0.896697238230661
40
0.989470219081387
40
0.989470219081387
40
1
40
1
40
1
40
1
41
1
10
20.6645860301562
20
0.183484538459538
30
0
41
1
10
20.8405230444217
20
0.100096042943733
30
0
41
1
10
21.0161266442069
20
0.016491634599987
30
0
41
1
10
21.3233892611925
20
-0.129635865174862
30
0
41
1
10
21.4551152741269
20
-0.192232367024985
30
0
41
1
10
21.7185250375847
20
-0.316928754783959
30
0
41
1
10
21.8502096701943
20
-0.379028787495912
30
0
41
1
10
22.2454223259082
20
-0.56413750178649
30
0
41
1
10
22.5091016908909
20
-0.685967040734539
30
0
41
1
10
23.0378647740091
20
-0.924281086692616
30
0
41
1
10
23.302950133903
20
-1.04076634752855
30
0
41
1
10
23.6359254386484
20
-1.18152525651809
30
0
41
1
10
23.7026017077756
20
-1.20943351754076
30
0
41
1
10
23.8361379247258
20
-1.2647130326539
30
0
41
1
10
23.9030638592234
20
-1.29211044615215
30
0
41
1
10
24.1035198749642
20
-1.37316934789115
30
0
41
1
10
24.2367717412703
20
-1.42572582120061
30
0
41
1
10
24.6356529640746
20
-1.57880658857113
30
0
41
1
10
24.9003983047224
20
-1.67472309711428
30
0
41
1
10
25.4285583685972
20
-1.85264371700069
30
0
41
1
10
25.6920070404472
20
-1.93462412935713
30
0
41
1
10
26.2187794821849
20
-2.08309240754389
30
0
41
1
10
26.4820717078516
20
-2.14958487106534
30
0
41
1
10
26.8777324008323
20
-2.23693145512132
30
0
41
1
10
27.0097398163665
20
-2.26397758956398
30
0
41
1
10
27.2741077540978
20
-2.31364618913471
30
0
41
1
10
27.4064707848063
20
-2.33628215782059
30
0
41
1
10
27.6717250000961
20
-2.37715754574447
30
0
41
1
10
27.8046144718308
20
-2.39538212848566
30
0
41
1
10
28.0044471808619
20
-2.41911756810404
30
0
41
1
10
28.071141215296
20
-2.42643268426426
30
0
41
1
10
28.2047123208645
20
-2.43987005219032
30
0
41
1
10
28.2716012441336
20
-2.4459920748665
30
0
41
1
10
28.6053087180992
20
-2.47352723283092
30
0
41
1
10
28.8709081967831
20
-2.48582961689505
30
0
41
1
10
29.1657682445124
20
-2.48889192833886
30
0
41
1
10
29.1958133725159
20
-2.48908039620883
30
0
41
1
10
29.2258489384208
20
-2.48914437352016
30
0
0
SPLINE
5
E7
100
AcDbEntity
8
1
62
256
6
ByLayer
370
18
48
1
60
0
100
AcDbSpline
70
4
71
3
72
48
73
44
40
0
40
0
40
0
40
0
40
0.023567530661398
40
0.023567530661398
40
0.0679508247222487
40
0.0679508247222487
40
0.112334118783099
40
0.112334118783099
40
0.156717412843951
40
0.156717412843951
40
0.178909059874376
40
0.178909059874376
40
0.201100706904802
40
0.201100706904802
40
0.245484000965649
40
0.245484000965649
40
0.289867295026494
40
0.289867295026494
40
0.334250589087339
40
0.334250589087339
40
0.378633883148184
40
0.378633883148184
40
0.467400471269873
40
0.467400471269873
40
0.511783765330718
40
0.511783765330718
40
0.556167059391563
40
0.556167059391563
40
0.600550353452408
40
0.600550353452408
40
0.62274200048283
40
0.62274200048283
40
0.644933647513252
40
0.644933647513252
40
0.733700235634936
40
0.733700235634936
40
0.77808352969578
40
0.77808352969578
40
0.822466823756623
40
0.822466823756623
40
0.911233411878311
40
0.911233411878311
40
1
40
1
40
1
40
1
41
1
10
28.5764001253268
20
-0.204278773042859
30
0
41
1
10
28.5065430878642
20
-0.171136518531085
30
0
41
1
10
28.4366638988892
20
-0.137905923990331
30
0
41
1
10
28.2351222564147
20
-0.0418150471684839
30
0
41
1
10
28.1034252294668
20
0.0213540433145454
30
0
41
1
10
27.8395934978693
20
0.14766953968558
30
0
41
1
10
27.7074363198253
20
0.210749588289673
30
0
41
1
10
27.4425590262439
20
0.336659111442913
30
0
41
1
10
27.3098538713753
20
0.399540779071884
30
0
41
1
10
27.1102250427066
20
0.493272342037585
30
0
41
1
10
27.0435478986118
20
0.524426361748084
30
0
41
1
10
26.9104131438931
20
0.586288222566111
30
0
41
1
10
26.8439107622851
20
0.617020891929087
30
0
41
1
10
26.6446013619576
20
0.708607487118712
30
0
41
1
10
26.5119928914935
20
0.768855341569036
30
0
41
1
10
26.2473094392506
20
0.887567920337489
30
0
41
1
10
26.1152300760212
20
0.946036196277589
30
0
41
1
10
25.8516678345118
20
1.06096435393988
30
0
41
1
10
25.7202300885776
20
1.11743470603872
30
0
41
1
10
25.4574291797907
20
1.22795842531241
30
0
41
1
10
25.3260144947386
20
1.28198568292564
30
0
41
1
10
24.931664844461
20
1.44017090561513
30
0
41
1
10
24.6686730831436
20
1.5405284675667
30
0
41
1
10
24.2740277121218
20
1.68158397803802
30
0
41
1
10
24.1424821652069
20
1.72700256512536
30
0
41
1
10
23.8789736679072
20
1.8145724198562
30
0
41
1
10
23.7469727917257
20
1.85673984975378
30
0
41
1
10
23.4824252591527
20
1.9376134882994
30
0
41
1
10
23.3498940676552
20
1.97632040093242
30
0
41
1
10
23.1506339418062
20
2.03156625969072
30
0
41
1
10
23.0841361517308
20
2.04951213102376
30
0
41
1
10
22.9509702832399
20
2.08442654514329
30
0
41
1
10
22.8842450964191
20
2.10140879449125
30
0
41
1
10
22.5510817559468
20
2.18355400028733
30
0
41
1
10
22.2858767153471
20
2.24046007395495
30
0
41
1
10
21.8890885177586
20
2.31192272592554
30
0
41
1
10
21.7570109390471
20
2.33338811879881
30
0
41
1
10
21.4928618989868
20
2.372006633681
30
0
41
1
10
21.3607581184947
20
2.38922325195074
30
0
41
1
10
20.9643419886119
20
2.43421345927797
30
0
41
1
10
20.7000036326232
20
2.45524173094159
30
0
41
1
10
20.1706285495558
20
2.47710973681356
30
0
41
1
10
19.9056095961924
20
2.47794517734565
30
0
41
1
10
19.6397507570161
20
2.46764642148543
30
0
0
SPLINE
5
E8
100
AcDbEntity
8
1
62
256
6
ByLayer
370
18
48
1
60
0
100
AcDbSpline
70
4
71
3
72
8
73
4
40
0
40
0
40
0
40
0
40
1
40
1
40
1
40
1
41
1
10
45.0451934369973
20
-2.50448440536437
30
0
41
1
10
45.0446148656083
20
-2.50352165071942
30
0
41
1
10
45.0440366089177
20
-2.50250602641918
30
0
41
1
10
45.0434586307225
20
-2.50143761842119
30
0
0
SPLINE
5
E9
100
AcDbEntity
8
1
62
256
6
ByLayer
370
18
48
1
60
0
100
AcDbSpline
70
4
71
3
72
44
73
40
40
0
40
0
40
0
40
0
40
0.0625000000000013
40
0.0625000000000013
40
0.0937500000000015
40
0.0937500000000015
40
0.125000000000002
40
0.125000000000002
40
0.250000000000001
40
0.250000000000001
40
0.312500000000001
40
0.312500000000001
40
0.343750000000001
40
0.343750000000001
40
0.375000000000001
40
0.375000000000001
40
0.4375
40
0.4375
40
0.46875
40
0.46875
40
0.5
40
0.5
40
0.5625
40
0.5625
40
0.59375
40
0.59375
40
0.625
40
0.625
40
0.687499999999999
40
0.687499999999999
40
0.71875
40
0.71875
40
0.75
40
0.75
40
0.8125
40
0.8125
40
0.875
40
0.875
40
1
40
1
40
1
40
1
41
1
10
45.0187942148908
20
-0.249836333662387
30
0
41
1
10
45.0107705196137
20
-0.320672807969459
30
0
41
1
10
45.0037393361725
20
-0.391065824717856
30
0
41
1
10
44.9944443718072
20
-0.495970139588906
30
0
41
1
10
44.9915551019827
20
-0.530823916761875
30
0
41
1
10
44.9861598192186
20
-0.600297903699811
30
0
41
1
10
44.9836498923935
20
-0.634977911552767
30
0
41
1
10
44.9720300476274
20
-0.806995957468104
30
0
41
1
10
44.9656876016058
20
-0.939699498530246
30
0
41
1
10
44.959008599639
20
-1.13156529803948
30
0
41
1
10
44.9572634203543
20
-1.19431616536463
30
0
41
1
10
44.9552383515235
20
-1.28660253723999
30
0
41
1
10
44.9546625608651
20
-1.31705761882458
30
0
41
1
10
44.9536932971888
20
-1.3773432211357
30
0
41
1
10
44.9532994402868
20
-1.40722380913027
30
0
41
1
10
44.9523772726705
20
-1.49537374227575
30
0
41
1
10
44.9521034686165
20
-1.55224189004196
30
0
41
1
10
44.9521346025503
20
-1.6347115893046
30
0
41
1
10
44.9522191642943
20
-1.66172876368853
30
0
41
1
10
44.9525314898595
20
-1.7148124974164
30
0
41
1
10
44.9527596093374
20
-1.74089594186128
30
0
41
1
10
44.9536524848029
20
-1.8173612507955
30
0
41
1
10
44.9545238426147
20
-1.86607322060456
30
0
41
1
10
44.9562608756475
20
-1.9357582799168
30
0
41
1
10
44.9569120870384
20
-1.95842204990473
30
0
41
1
10
44.9583680585147
20
-2.00261357040714
30
0
41
1
10
44.9591729548748
20
-2.02413622203662
30
0
41
1
10
44.9618242359483
20
-2.08669585799515
30
0
41
1
10
44.9639083656724
20
-2.12583394997617
30
0
41
1
10
44.9676079559585
20
-2.18069981533199
30
0
41
1
10
44.9689372303464
20
-2.19834735974118
30
0
41
1
10
44.9718107554424
20
-2.23235170485157
30
0
41
1
10
44.9733531888687
20
-2.24868270894345
30
0
41
1
10
44.9783182253962
20
-2.29552472391444
30
0
41
1
10
44.9820817833797
20
-2.32395097494853
30
0
41
1
10
44.9907402270319
20
-2.37521259875012
30
0
41
1
10
44.9956503895987
20
-2.39808190914172
30
0
41
1
10
45.0123158670415
20
-2.45757306046133
30
0
41
1
10
45.0260082202237
20
-2.48539304038178
30
0
41
1
10
45.0434586307225
20
-2.50143761842119
30
0
0
SPLINE
5
EA
100
AcDbEntity
8
1
62
256
6
ByLayer
370
18
48
1
60
0
100
AcDbSpline
70
4
71
3
72
42
73
38
40
0
40
0
40
0
40
0
40
0.0366578166484371
40
0.0366578166484371
40
0.131015242288546
40
0.131015242288546
40
0.154604598698576
40
0.154604598698576
40
0.178193955108606
40
0.178193955108606
40
0.225372667928663
40
0.225372667928663
40
0.272551380748719
40
0.272551380748719
40
0.319730093568776
40
0.319730093568776
40
0.414087519208894
40
0.414087519208894
40
0.508444944849013
40
0.508444944849013
40
0.602802370489132
40
0.602802370489132
40
0.649981083309192
40
0.649981083309192
40
0.673570439719222
40
0.673570439719222
40
0.697159796129253
40
0.697159796129253
40
0.791517221769376
40
0.791517221769376
40
0.885874647409499
40
0.885874647409499
40
0.933053360229559
40
0.933053360229559
40
0.980232073049619
40
0.980232073049619
40
1
40
1
40
1
40
1
41
1
10
29.4393243243499
20
-2.49698988429219
30
0
41
1
10
29.3366652107449
20
-2.49903532587589
30
0
41
1
10
29.2339149021748
20
-2.499593783509
30
0
41
1
10
28.8662496136056
20
-2.49638895235145
30
0
41
1
10
28.6006549059018
20
-2.48448729358617
30
0
41
1
10
28.2669445028357
20
-2.45740223048179
30
0
41
1
10
28.2000542446914
20
-2.45136770598785
30
0
41
1
10
28.0664826837522
20
-2.43809991574227
30
0
41
1
10
27.9997889317407
20
-2.43086684910634
30
0
41
1
10
27.7999579129311
20
-2.40736947042214
30
0
41
1
10
27.6670711160791
20
-2.38929277089596
30
0
41
1
10
27.4018283655729
20
-2.3486869962195
30
0
41
1
10
27.2694735764441
20
-2.32617284021964
30
0
41
1
10
27.0051216400173
20
-2.27672582367447
30
0
41
1
10
26.8731225531299
20
-2.24977923047078
30
0
41
1
10
26.4774907125561
20
-2.16269234632483
30
0
41
1
10
26.2142198753112
20
-2.09632347467664
30
0
41
1
10
25.6874925834831
20
-1.94800720513379
30
0
41
1
10
25.4240686991936
20
-1.86605157676982
30
0
41
1
10
24.8959425441109
20
-1.68807706119858
30
0
41
1
10
24.6312081805205
20
-1.59208367837755
30
0
41
1
10
24.2323372145899
20
-1.43879918736107
30
0
41
1
10
24.0990876758045
20
-1.38616007550681
30
0
41
1
10
23.8986291183519
20
-1.30496034605196
30
0
41
1
10
23.8317015018761
20
-1.27751310718745
30
0
41
1
10
23.6981639789385
20
-1.22212815464818
30
0
41
1
10
23.6314876032097
20
-1.19416421329981
30
0
41
1
10
23.298515193817
20
-1.05311045423403
30
0
41
1
10
23.0334409255427
20
-0.936341299020768
30
0
41
1
10
22.5047025462579
20
-0.697381636544151
30
0
41
1
10
22.2410383800233
20
-0.575186983611871
30
0
41
1
10
21.8458513496457
20
-0.389463360346099
30
0
41
1
10
21.7141756087109
20
-0.327147440650208
30
0
41
1
10
21.4507803645491
20
-0.202004003625945
30
0
41
1
10
21.319060185624
20
-0.139175837392685
30
0
41
1
10
21.1320207206169
20
-0.0498773148119938
30
0
41
1
10
21.07677621961
20
-0.0234912544135852
30
0
41
1
10
21.0215104818895
20
0.0029009939827347
30
0
0
SPLINE
5
EB
100
AcDbEntity
8
1
62
256
6
ByLayer
370
13
48
1
60
0
100
AcDbSpline
70
4
71
3
72
8
73
4
40
0
40
0
40
0
40
0
40
1
40
1
40
1
40
1
41
1
10
19.6457313070805
20
2.59837130577114
30
0
41
1
10
19.6451702286994
20
2.55791901709733
30
0
41
1
10
19.6446011500464
20
2.51746740732466
30
0
41
1
10
19.6440240816884
20
2.47701651063471
30
0
0
SPLINE
5
EC
100
AcDbEntity
8
1
62
256
6
ByLayer
370
18
48
1
60
0
100
AcDbSpline
70
4
71
3
72
46
73
42
40
0
40
0
40
0
40
0
40
0.0930319076529752
40
0.0930319076529752
40
0.18606381530595
40
0.18606381530595
40
0.232579769132438
40
0.232579769132438
40
0.279095722958926
40
0.279095722958926
40
0.372127630611901
40
0.372127630611901
40
0.395385607525146
40
0.395385607525146
40
0.41864358443839
40
0.41864358443839
40
0.46515953826488
40
0.46515953826488
40
0.511675492091369
40
0.511675492091369
40
0.558191445917859
40
0.558191445917859
40
0.651223353570836
40
0.651223353570836
40
0.697739307397326
40
0.697739307397326
40
0.744255261223815
40
0.744255261223815
40
0.790771215050305
40
0.790771215050305
40
0.837287168876794
40
0.837287168876794
40
0.860545145790037
40
0.860545145790037
40
0.88380312270328
40
0.88380312270328
40
0.93031907652977
40
0.93031907652977
40
0.976835030356259
40
0.976835030356259
40
1
40
1
40
1
40
1
41
1
10
19.6440240816885
20
2.47701651063471
30
0
41
1
10
19.9098119777581
20
2.48781137895546
30
0
41
1
10
20.1747589258604
20
2.48743552552008
30
0
41
1
10
20.7039884828336
20
2.4664082270485
30
0
41
1
10
20.9682531044338
20
2.44576131678716
30
0
41
1
10
21.364554303479
20
2.40127994386825
30
0
41
1
10
21.496618160619
20
2.3842218926313
30
0
41
1
10
21.7606886761296
20
2.34590256658123
30
0
41
1
10
21.8927289806672
20
2.324578555839
30
0
41
1
10
22.2894109256037
20
2.25350547506929
30
0
41
1
10
22.5545503681
20
2.19681217063109
30
0
41
1
10
22.8876444758252
20
2.11487216637681
30
0
41
1
10
22.9543578349449
20
2.09792738349199
30
0
41
1
10
23.0874983713501
20
2.0630816287198
30
0
41
1
10
23.153982860624
20
2.04516694656235
30
0
41
1
10
23.3532011196962
20
1.99000497758635
30
0
41
1
10
23.4857018346972
20
1.95134113703989
30
0
41
1
10
23.7501825905602
20
1.87052614175116
30
0
41
1
10
23.8821462984991
20
1.82837302918105
30
0
41
1
10
24.1455794855728
20
1.74081540818924
30
0
41
1
10
24.2770890896666
20
1.69539808164001
30
0
41
1
10
24.6716286027967
20
1.55431038179711
30
0
41
1
10
24.9345461393709
20
1.45387399955371
30
0
41
1
10
25.3287756212309
20
1.29548745887507
30
0
41
1
10
25.4601484888072
20
1.24137832973236
30
0
41
1
10
25.7228659410295
20
1.13067066183908
30
0
41
1
10
25.8542645336856
20
1.07410372930767
30
0
41
1
10
26.1177545792853
20
0.958960953095982
30
0
41
1
10
26.2497987804009
20
0.900369966090693
30
0
41
1
10
26.5144131511943
20
0.78138273025931
30
0
41
1
10
26.6469879457465
20
0.720983439641344
30
0
41
1
10
26.8462478402636
20
0.629147939341635
30
0
41
1
10
26.9127339302303
20
0.598328799875276
30
0
41
1
10
27.0458365676163
20
0.536287169054248
30
0
41
1
10
27.1124993884015
20
0.505038737343796
30
0
41
1
10
27.3120893663782
20
0.411016403164581
30
0
41
1
10
27.4447674859535
20
0.34793503897933
30
0
41
1
10
27.7095867510125
20
0.221607085503194
30
0
41
1
10
27.8417114806184
20
0.158305927597013
30
0
41
1
10
28.0392708853022
20
0.0633528786615614
30
0
41
1
10
28.1048939693572
20
0.0317821849490088
30
0
41
1
10
28.1704828451306
20
0.0002585620511582
30
0
0
SPLINE
5
ED
100
AcDbEntity
8
1
62
256
6
ByLayer
370
18
48
1
60
0
100
AcDbSpline
70
4
71
3
72
14
73
10
40
0
40
0
40
0
40
0
40
0.25
40
0.25
40
0.5
40
0.5
40
0.75
40
0.75
40
1
40
1
40
1
40
1
41
1
10
45.0399571696952
20
-2.51527260794185
30
0
41
1
10
45.0406517611566
20
-2.51414317497165
30
0
41
1
10
45.0413569772915
20
-2.51295060571991
30
0
41
1
10
45.0427207261752
20
-2.51052420619018
30
0
41
1
10
45.0433712551412
20
-2.50930067903258
30
0
41
1
10
45.0444125943848
20
-2.50717252801442
30
0
41
1
10
45.0448055943927
20
-2.50626084926876
30
0
41
1
10
45.0452343718345
20
-2.50499332756755
30
0
41
1
10
45.0452790654789
20
-2.5046268929492
30
0
41
1
10
45.0451934329131
20
-2.50448439856805
30
0
0
SPLINE
5
EE
100
AcDbEntity
8
1
62
256
6
ByLayer
370
18
48
1
60
0
100
AcDbSpline
70
4
71
3
72
43
73
39
40
0
40
0
40
0
40
0
40
0.0164740794575384
40
0.0164740794575384
40
0.114826671511795
40
0.114826671511795
40
0.164002967538922
40
0.164002967538922
40
0.188591115552483
40
0.188591115552483
40
0.213179263566044
40
0.213179263566044
40
0.311531855620289
40
0.311531855620289
40
0.409884447674533
40
0.409884447674533
40
0.434472595688092
40
0.434472595688092
40
0.459060743701651
40
0.508237039728769
40
0.508237039728769
40
0.60658963178301
40
0.60658963178301
40
0.655765927810132
40
0.655765927810132
40
0.704942223837254
40
0.704942223837254
40
0.754118519864376
40
0.754118519864376
40
0.803294815891498
40
0.803294815891498
40
0.901647407945747
40
0.901647407945747
40
0.950823703972874
40
0.950823703972874
40
0.975411851986437
40
0.975411851986437
40
1
40
1
40
1
40
1
41
1
10
36.9547102572163
20
0.214068107836511
30
0
41
1
10
36.9989033281959
20
0.192927035511474
30
0
41
1
10
37.0431072954867
20
0.171754184448389
30
0
41
1
10
37.3512948885625
20
0.0239543606510608
30
0
41
1
10
37.6156965749291
20
-0.103711399315017
30
0
41
1
10
38.0139142386448
20
-0.294715856041222
30
0
41
1
10
38.1469229017184
20
-0.358301342649469
30
0
41
1
10
38.3469585928952
20
-0.453297579426874
30
0
41
1
10
38.4137583701564
20
-0.484916382184252
30
0
41
1
10
38.547206283138
20
-0.547835891304032
30
0
41
1
10
38.613888061176
20
-0.579152902891764
30
0
41
1
10
38.9471261820866
20
-0.73494708913401
30
0
41
1
10
39.2131784887873
20
-0.857046829667041
30
0
41
1
10
39.745397801755
20
-1.09372140084486
30
0
41
1
10
40.011580890108
20
-1.20825872462757
30
0
41
1
10
40.3451302665361
20
-1.34530735739537
30
0
41
1
10
40.4119238331045
20
-1.37242965743684
30
0
41
1
10
40.5452959231719
20
-1.4259085875504
30
0
41
1
10
40.7450883570089
20
-1.50500301339378
30
0
41
1
10
40.9441623922519
20
-1.58062153469393
30
0
41
1
10
41.3415567623157
20
-1.72693974157377
30
0
41
1
10
41.6054851087802
20
-1.81791503257907
30
0
41
1
10
42.0007331492755
20
-1.94312889805667
30
0
41
1
10
42.1323803690171
20
-1.98300390073189
30
0
41
1
10
42.395661873213
20
-2.05892875129891
30
0
41
1
10
42.5272876511504
20
-2.09496543834834
30
0
41
1
10
42.7905812435002
20
-2.1629085655801
30
0
41
1
10
42.9222569831492
20
-2.1948308152264
30
0
41
1
10
43.1858679410144
20
-2.25454491991735
30
0
41
1
10
43.3177986304742
20
-2.28232735648041
30
0
41
1
10
43.7141318608604
20
-2.35911550502985
30
0
41
1
10
43.979078509896
20
-2.40157559977939
30
0
41
1
10
44.3783667386811
20
-2.451086949461
30
0
41
1
10
44.511881712898
20
-2.46523319490706
30
0
41
1
10
44.7119021428664
20
-2.48273339638706
30
0
41
1
10
44.7785625505882
20
-2.48795138915156
30
0
41
1
10
44.9118771913018
20
-2.49714842836445
30
0
41
1
10
44.9785213488417
20
-2.50108994519152
30
0
41
1
10
45.0451935558732
20
-2.50448440482828
30
0
0
SPLINE
5
EF
100
AcDbEntity
8
1
62
256
6
ByLayer
370
18
48
1
60
0
100
AcDbSpline
70
4
71
3
72
8
73
4
40
0
40
0
40
0
40
0
40
1
40
1
40
1
40
1
41
1
10
44.9671951584421
20
-2.6331518405066
30
0
41
1
10
44.9914152050045
20
-2.59406219382777
30
0
41
1
10
45.0156673602582
20
-2.5547687911571
30
0
41
1
10
45.0399571696952
20
-2.51527260794185
30
0
0
SPLINE
5
F0
100
AcDbEntity
8
1
62
256
6
ByLayer
370
18
48
1
60
0
100
AcDbSpline
70
4
71
3
72
41
73
37
40
0
40
0
40
0
40
0
40
0.0259686312657727
40
0.0259686312657727
40
0.0519372625315453
40
0.0519372625315453
40
0.103874525063091
40
0.103874525063091
40
0.207749050126178
40
0.207749050126178
40
0.259686312657719
40
0.259686312657719
40
0.31162357518926
40
0.31162357518926
40
0.363560837720802
40
0.363560837720802
40
0.415498100252343
40
0.415498100252343
40
0.519372625315426
40
0.519372625315426
40
0.571309887846965
40
0.597278519112737
40
0.597278519112737
40
0.623247150378508
40
0.623247150378508
40
0.727121675441595
40
0.727121675441595
40
0.830996200504682
40
0.830996200504682
40
0.856964831770456
40
0.856964831770456
40
0.88293346303623
40
0.88293346303623
40
0.934870725567782
40
0.934870725567782
40
1
40
1
40
1
40
1
41
1
10
45.0399576980439
20
-2.51527263404873
30
0
41
1
10
44.9732985690616
20
-2.51197886107278
30
0
41
1
10
44.9066448527903
20
-2.50812955353598
30
0
41
1
10
44.7733318166002
20
-2.49911588241631
30
0
41
1
10
44.7066719463033
20
-2.49398650000001
30
0
41
1
10
44.5066521208891
20
-2.47674306871352
30
0
41
1
10
44.3731362682872
20
-2.46275598122287
30
0
41
1
10
43.9738547790148
20
-2.41368746556222
30
0
41
1
10
43.7089182872431
20
-2.37147664506676
30
0
41
1
10
43.3126061846893
20
-2.29499323421985
30
0
41
1
10
43.1806836185691
20
-2.26730078884668
30
0
41
1
10
42.9170922509892
20
-2.20774096740993
30
0
41
1
10
42.7854276585102
20
-2.17588302460325
30
0
41
1
10
42.522154427967
20
-2.10804730295777
30
0
41
1
10
42.3905384444425
20
-2.07205358799422
30
0
41
1
10
42.127279265751
20
-1.99618597319284
30
0
41
1
10
41.9956441140143
20
-1.95632536059483
30
0
41
1
10
41.6004262248423
20
-1.83111895081868
30
0
41
1
10
41.3365116657813
20
-1.74009961849728
30
0
41
1
10
40.9391279915812
20
-1.5936371109353
30
0
41
1
10
40.7400566641327
20
-1.51792700686784
30
0
41
1
10
40.5402622435263
20
-1.43871093571431
30
0
41
1
10
40.4068877235414
20
-1.38514404858364
30
0
41
1
10
40.3400929791602
20
-1.35797456134048
30
0
41
1
10
40.0065415462807
20
-1.22067599185476
30
0
41
1
10
39.7403633147031
20
-1.10588797349521
30
0
41
1
10
39.2081532490373
20
-0.868617475255888
30
0
41
1
10
38.942101330111
20
-0.746177845749884
30
0
41
1
10
38.608859866431
20
-0.589901917741969
30
0
41
1
10
38.5421772516395
20
-0.558485651612159
30
0
41
1
10
38.4087273639017
20
-0.495361589753628
30
0
41
1
10
38.3419267094422
20
-0.463637563753764
30
0
41
1
10
38.1418923699436
20
-0.368319277303442
30
0
41
1
10
38.0088874959744
20
-0.304508684058021
30
0
41
1
10
37.7097047130668
20
-0.160477740827929
30
0
41
1
10
37.5436810793921
20
-0.0802072714710107
30
0
41
1
10
37.3779221210872
20
-0.0001416747315659
30
0
0
SPLINE
5
F1
100
AcDbEntity
8
1
62
256
6
ByLayer
370
18
48
1
60
0
100
AcDbSpline
70
4
71
3
72
49
73
45
40
0
40
0
40
0
40
0
40
0.0455850819309723
40
0.0455850819309723
40
0.0683776228964583
40
0.0683776228964583
40
0.091170163861944
40
0.091170163861944
40
0.182340327723888
40
0.182340327723888
40
0.22792540965486
40
0.22792540965486
40
0.273510491585833
40
0.273510491585833
40
0.319095573516805
40
0.319095573516805
40
0.364680655447777
40
0.364680655447777
40
0.455850819309725
40
0.455850819309725
40
0.501435901240698
40
0.524228442206183
40
0.524228442206183
40
0.547020983171669
40
0.547020983171669
40
0.592606065102645
40
0.592606065102645
40
0.638191147033622
40
0.638191147033622
40
0.683776228964597
40
0.683776228964597
40
0.729361310895574
40
0.729361310895574
40
0.75215385186106
40
0.75215385186106
40
0.774946392826546
40
0.774946392826546
40
0.820531474757514
40
0.820531474757514
40
0.911701638619451
40
0.911701638619451
40
0.957286720550419
40
0.957286720550419
40
1
40
1
40
1
40
1
41
1
10
45.0187942148907
20
-0.249836333662387
30
0
41
1
10
44.8861866899583
20
-0.18516690818285
30
0
41
1
10
44.753512981303
20
-0.120519788694878
30
0
41
1
10
44.5543332242803
20
-0.0237256992166976
30
0
41
1
10
44.4878838383348
20
0.008522974162986
30
0
41
1
10
44.3551453434043
20
0.072825907668971
30
0
41
1
10
44.2888376027582
20
0.104889258354319
30
0
41
1
10
43.9575760825257
20
0.264705606472404
30
0
41
1
10
43.6934550902632
20
0.390959516775979
30
0
41
1
10
43.2982950118432
20
0.57694179759261
30
0
41
1
10
43.1667446022067
20
0.638371154679959
30
0
41
1
10
42.9039686872151
20
0.759907349690678
30
0
41
1
10
42.7727508704611
20
0.820020529446822
30
0
41
1
10
42.5103817360215
20
0.93852045621432
30
0
41
1
10
42.3792210795423
20
0.996900248095528
30
0
41
1
10
42.1169038483802
20
1.11166455243719
30
0
41
1
10
41.9857619003479
20
1.16805220129882
30
0
41
1
10
41.5918418170162
20
1.33372905605609
30
0
41
1
10
41.3284971161586
20
1.43949625251432
30
0
41
1
10
40.9319150265997
20
1.58990577113937
30
0
41
1
10
40.7332369992198
20
1.66306106825107
30
0
41
1
10
40.5338563561662
20
1.73277808029653
30
0
41
1
10
40.400765149139
20
1.77844805865448
30
0
41
1
10
40.3341979332467
20
1.80085688422378
30
0
41
1
10
40.1347672776135
20
1.86663404996167
30
0
41
1
10
40.0020355873437
20
1.90861150182505
30
0
41
1
10
39.7369873179992
20
1.98834885986273
30
0
41
1
10
39.6047066676046
20
2.02605080142405
30
0
41
1
10
39.3398734153341
20
2.0977358890664
30
0
41
1
10
39.2072727615241
20
2.13176944436682
30
0
41
1
10
38.9417602128464
20
2.19597494994116
30
0
41
1
10
38.8088539587377
20
2.22616098756558
30
0
41
1
10
38.6093631145586
20
2.26806787171549
30
0
41
1
10
38.5428464034474
20
2.28147256163567
30
0
41
1
10
38.4097634739937
20
2.30708605385254
30
0
41
1
10
38.3432239549153
20
2.31928891062216
30
0
41
1
10
38.1441198541833
20
2.35390897171067
30
0
41
1
10
38.0119118129908
20
2.37430743183498
30
0
41
1
10
37.6157568555674
20
2.42903820492435
30
0
41
1
10
37.3521003076963
20
2.45722098254544
30
0
41
1
10
36.957605656812
20
2.48472652915777
30
0
41
1
10
36.8262827036783
20
2.49143002520677
30
0
41
1
10
36.5721622048595
20
2.49931054521247
30
0
41
1
10
36.4493642446671
20
2.50074026613712
30
0
41
1
10
36.3265014173923
20
2.50025855503884
30
0
0
SPLINE
5
F2
100
AcDbEntity
8
1
62
256
6
ByLayer
370
18
48
1
60
0
100
AcDbSpline
70
4
71
3
72
8
73
4
40
0
40
0
40
0
40
0
40
1
40
1
40
1
40
1
41
1
10
45.0165215491969
20
-0.238671764392848
30
0
41
1
10
45.0184136017994
20
-0.239085139768008
30
0
41
1
10
45.0194453142866
20
-0.244088161026781
30
0
41
1
10
45.0187942148908
20
-0.249836333662387
30
0
0
SPLINE
5
F3
100
AcDbEntity
8
1
62
256
6
ByLayer
370
18
48
1
60
0
100
AcDbSpline
70
4
71
3
72
49
73
45
40
0
40
0
40
0
40
0
40
0.019839069724988
40
0.019839069724988
40
0.0671875555539205
40
0.0671875555539205
40
0.114536041382853
40
0.114536041382853
40
0.209233013040714
40
0.209233013040714
40
0.256581498869642
40
0.256581498869642
40
0.280255741784106
40
0.280255741784106
40
0.30392998469857
40
0.30392998469857
40
0.351278470527503
40
0.351278470527503
40
0.398626956356435
40
0.398626956356435
40
0.445975442185367
40
0.445975442185367
40
0.4933239280143
40
0.4933239280143
40
0.516998170928764
40
0.516998170928764
40
0.540672413843228
40
0.540672413843228
40
0.58802089967216
40
0.58802089967216
40
0.682717871330029
40
0.682717871330029
40
0.730066357158961
40
0.730066357158961
40
0.777414842987894
40
0.777414842987894
40
0.824763328816826
40
0.824763328816826
40
0.872111814645759
40
0.872111814645759
40
0.966808786303623
40
0.99048302921809
40
0.99048302921809
40
1
40
1
40
1
40
1
41
1
10
36.1368942957149
20
2.50759935389499
30
0
41
1
10
36.1918661237667
20
2.5087757346362
30
0
41
1
10
36.2468161718826
20
2.50957847996094
30
0
41
1
10
36.4328381695403
20
2.51108545200196
30
0
41
1
10
36.5638424068061
20
2.51000698400105
30
0
41
1
10
36.8261473033372
20
2.50240960938473
30
0
41
1
10
36.9574292171402
20
2.4959644249806
30
0
41
1
10
37.3518029226972
20
2.46920086866524
30
0
41
1
10
37.6153826991138
20
2.44146301136297
30
0
41
1
10
38.0114167675654
20
2.38733217481646
30
0
41
1
10
38.1435835666152
20
2.36713398124175
30
0
41
1
10
38.3426299869467
20
2.33280407962877
30
0
41
1
10
38.4091490611075
20
2.32069468404433
30
0
41
1
10
38.5422102106738
20
2.29525668027372
30
0
41
1
10
38.6087155882879
20
2.28193598557513
30
0
41
1
10
38.8081713868276
20
2.24026830665369
30
0
41
1
10
38.9410526210334
20
2.21022342623843
30
0
41
1
10
39.206509808166
20
2.14626660411494
30
0
41
1
10
39.3390807240873
20
2.11234023091825
30
0
41
1
10
39.6038480276563
20
2.04084870126397
30
0
41
1
10
39.7360933945318
20
2.00324361425192
30
0
41
1
10
40.0010748113127
20
1.92368372860236
30
0
41
1
10
40.1337735995327
20
1.88177736917572
30
0
41
1
10
40.3331554631688
20
1.8160821130698
30
0
41
1
10
40.3997023453359
20
1.79369825106315
30
0
41
1
10
40.5327768638714
20
1.74806224609739
30
0
41
1
10
40.5992280216676
20
1.72483682533897
30
0
41
1
10
40.7983445986884
20
1.65400243695825
30
0
41
1
10
40.9307734892146
20
1.605236640047
30
0
41
1
10
41.3272777194733
20
1.45479866355015
30
0
41
1
10
41.590560309236
20
1.34895862273464
30
0
41
1
10
41.9843725992431
20
1.18309663588926
30
0
41
1
10
42.1154768175753
20
1.12663845396739
30
0
41
1
10
42.3777176727077
20
1.01170968273732
30
0
41
1
10
42.5088388931791
20
0.953231877575973
30
0
41
1
10
42.771127614744
20
0.834509434090762
30
0
41
1
10
42.9023044903622
20
0.774273422230181
30
0
41
1
10
43.1649983135976
20
0.652465015524768
30
0
41
1
10
43.2965075472693
20
0.590884490080242
30
0
41
1
10
43.691543812122
20
0.404406243763077
30
0
41
1
10
44.0215928063864
20
0.246111247138401
30
0
41
1
10
44.3530319135286
20
0.0852363149109294
30
0
41
1
10
44.4460535827261
20
0.039999249102209
30
0
41
1
10
44.4727394354852
20
0.0270118280310214
30
0
41
1
10
44.4994298932272
20
0.0140132405420275
30
0
0
SPLINE
5
F4
100
AcDbEntity
8
1
62
256
6
ByLayer
370
18
48
1
60
0
100
AcDbSpline
70
4
71
3
72
8
73
4
40
0
40
0
40
0
40
0
40
1
40
1
40
1
40
1
41
1
10
44.9737159150621
20
-0.228309040986574
30
0
41
1
10
44.9879673973844
20
-0.232096487059067
30
0
41
1
10
45.0022329189405
20
-0.235549986549671
30
0
41
1
10
45.0165215491969
20
-0.238671764392905
30
0
0
SPLINE
5
F5
100
AcDbEntity
8
1
62
256
6
ByLayer
370
18
48
1
60
0
100
AcDbSpline
70
4
71
3
72
46
73
42
40
0
40
0
40
0
40
0
40
0.011787937563571
40
0.011787937563571
40
0.0823745134518868
40
0.0823745134518868
40
0.152961089340203
40
0.152961089340203
40
0.223547665228518
40
0.223547665228518
40
0.258840953172675
40
0.258840953172675
40
0.276487597144755
40
0.276487597144755
40
0.294134241116834
40
0.294134241116834
40
0.329427529060994
40
0.329427529060994
40
0.364720817005153
40
0.364720817005153
40
0.435307392893472
40
0.435307392893472
40
0.505893968781791
40
0.505893968781791
40
0.57648054467011
40
0.57648054467011
40
0.611773832614269
40
0.611773832614269
40
0.629420476586348
40
0.629420476586348
40
0.647067120558427
40
0.647067120558427
40
0.717653696446742
40
0.717653696446742
40
0.788240272335056
40
0.788240272335056
40
0.858826848223371
40
0.858826848223371
40
0.929413424111685
40
0.929413424111685
40
1
40
1
40
1
40
1
41
1
10
30.806297953569
20
-2.50070693654186
30
0
41
1
10
30.7620408203618
20
-2.50740135795331
30
0
41
1
10
30.7178111905094
20
-2.51381993903647
30
0
41
1
10
30.4089044370059
20
-2.55673952350338
30
0
41
1
10
30.1450505204777
20
-2.58358384059557
30
0
41
1
10
29.6179269971267
20
-2.61722543634423
30
0
41
1
10
29.3546575917979
20
-2.62401075626423
30
0
41
1
10
28.8273712282435
20
-2.61737761266582
30
0
41
1
10
28.5633594138826
20
-2.60396957483789
30
0
41
1
10
28.1659365303464
20
-2.56869996536497
30
0
41
1
10
28.0332274137919
20
-2.5544165279436
30
0
41
1
10
27.8336822382119
20
-2.52921245399008
30
0
41
1
10
27.7670872005544
20
-2.52018136360223
30
0
41
1
10
27.6337222546794
20
-2.50085837947384
30
0
41
1
10
27.5668954942371
20
-2.49055699898295
30
0
41
1
10
27.3665538877146
20
-2.45783067503839
30
0
41
1
10
27.2333743060784
20
-2.43362044849405
30
0
41
1
10
26.9675666619677
20
-2.38064499112883
30
0
41
1
10
26.8349408209916
20
-2.35187989207705
30
0
41
1
10
26.4377212856601
20
-2.25898917178884
30
0
41
1
10
26.1737622157441
20
-2.18828697714633
30
0
41
1
10
25.6463796806495
20
-2.0308099764928
30
0
41
1
10
25.3829740036061
20
-1.94400610085026
30
0
41
1
10
24.8553782903817
20
-1.75606809826669
30
0
41
1
10
24.5911915372346
20
-1.65493982641172
30
0
41
1
10
24.1935033691609
20
-1.49364703904027
30
0
41
1
10
24.0607041116124
20
-1.4382848000306
30
0
41
1
10
23.861019896577
20
-1.35303702464668
30
0
41
1
10
23.7943779862275
20
-1.32425316874034
30
0
41
1
10
23.6609165268445
20
-1.2659728134791
30
0
41
1
10
23.5940325017401
20
-1.2364473752676
30
0
41
1
10
23.2600468875843
20
-1.08752151059937
30
0
41
1
10
22.994382852827
20
-0.964324259986086
30
0
41
1
10
22.4647523711166
20
-0.712548113972673
30
0
41
1
10
22.2007981828355
20
-0.58394589661782
30
0
41
1
10
21.673508437
20
-0.323557480220387
30
0
41
1
10
21.4101618087394
20
-0.191792985428776
30
0
41
1
10
20.8828354828652
20
0.0723697994953341
30
0
41
1
10
20.6188554100994
20
0.20476748681736
30
0
41
1
10
20.088991798756
20
0.467590743740118
30
0
41
1
10
19.8231034130347
20
0.598004735585278
30
0
41
1
10
19.5557426506627
20
0.726366299018395
30
0
0
SPLINE
5
F6
100
AcDbEntity
8
1
62
256
6
ByLayer
370
18
48
1
60
0
100
AcDbSpline
70
4
71
3
72
16
73
12
40
0
40
0
40
0
40
0
40
0.250000000000054
40
0.250000000000054
40
0.37500000000008
40
0.37500000000008
40
0.500000000000106
40
0.500000000000106
40
0.750000000000053
40
0.750000000000053
40
1
40
1
40
1
40
1
41
1
10
19.5557426506625
20
0.726366299018451
30
0
41
1
10
19.5474206138723
20
0.730361760595798
30
0
41
1
10
19.5398629637461
20
0.735356047324615
30
0
41
1
10
19.5296442597134
20
0.744300097887987
30
0
41
1
10
19.5264175750903
20
0.747544899584568
30
0
41
1
10
19.5205421219306
20
0.754335517273574
30
0
41
1
10
19.517866776429
20
0.757901011524979
30
0
41
1
10
19.5106206820079
20
0.769101301827902
30
0
41
1
10
19.506824507469
20
0.777320536579225
30
0
41
1
10
19.5018046059637
20
0.794144984632936
30
0
41
1
10
19.500497679522
20
0.802944869756317
30
0
41
1
10
19.500497679522
20
0.811787183962139
30
0
0
SPLINE
5
F7
100
AcDbEntity
8
1
62
256
6
ByLayer
370
18
48
1
60
0
100
AcDbSpline
70
4
71
3
72
27
73
23
40
0
40
0
40
0
40
0
40
0.125000000000048
40
0.125000000000048
40
0.18750000000006
40
0.18750000000006
40
0.250000000000071
40
0.312500000000082
40
0.312500000000082
40
0.375000000000093
40
0.375000000000093
40
0.500000000000116
40
0.500000000000116
40
0.625000000000138
40
0.625000000000138
40
0.687500000000149
40
0.687500000000149
40
0.75000000000016
40
0.75000000000016
40
0.87500000000008
40
0.87500000000008
40
1
40
1
40
1
40
1
41
1
10
19.500497679522
20
2.60259713926689
30
0
41
1
10
19.500497679522
20
2.6023122426528
30
0
41
1
10
19.5015838338669
20
2.60199305418729
30
0
41
1
10
19.5047927853198
20
2.60147034756278
30
0
41
1
10
19.5061420001549
20
2.60128742230685
30
0
41
1
10
19.5093261879661
20
2.60091721866328
30
0
41
1
10
19.5129890412426
20
2.60054251283657
30
0
41
1
10
19.517587818614
20
2.60016504957585
30
0
41
1
10
19.5226669267463
20
2.59978982357808
30
0
41
1
10
19.5254453822816
20
2.59960378774483
30
0
41
1
10
19.5342663745456
20
2.59907083915434
30
0
41
1
10
19.5408766415555
20
2.59874239781374
30
0
41
1
10
19.5554879168154
20
2.59817773997204
30
0
41
1
10
19.5632116159937
20
2.59795213965586
30
0
41
1
10
19.5754086422517
20
2.59771427549367
30
0
41
1
10
19.5796067979387
20
2.59765168222728
30
0
41
1
10
19.5880057929884
20
2.5975658086374
30
0
41
1
10
19.5922197648815
20
2.59754199263725
30
0
41
1
10
19.6049042626814
20
2.59752800891758
30
0
41
1
10
19.6135386303276
20
2.59759795891247
30
0
41
1
10
19.6301007887148
20
2.59788310616534
30
0
41
1
10
19.6380752876339
20
2.5980958459823
30
0
41
1
10
19.6457313070805
20
2.59837130577114
30
0
0
SPLINE
5
F8
100
AcDbEntity
8
1
62
256
6
ByLayer
370
18
48
1
60
0
100
AcDbSpline
70
4
71
3
72
84
73
80
40
0
40
0
40
0
40
0
40
0.0474214573327746
40
0.0474214573327746
40
0.0948429146655492
40
0.0948429146655492
40
0.106698278998743
40
0.106698278998743
40
0.118553643331937
40
0.118553643331937
40
0.142264371998324
40
0.142264371998324
40
0.189685829331099
40
0.189685829331099
40
0.237107286663873
40
0.237107286663873
40
0.260818015330261
40
0.260818015330261
40
0.284528743996649
40
0.284528743996649
40
0.331950201329424
40
0.331950201329424
40
0.343805565662618
40
0.343805565662618
40
0.355660929995812
40
0.355660929995812
40
0.379371658662199
40
0.379371658662199
40
0.403082387328586
40
0.403082387328586
40
0.426793115994974
40
0.426793115994974
40
0.450503844661362
40
0.450503844661362
40
0.474214573327749
40
0.474214573327749
40
0.497925301994137
40
0.497925301994137
40
0.521636030660525
40
0.521636030660525
40
0.545346759326913
40
0.545346759326913
40
0.569057487993301
40
0.569057487993301
40
0.580912852326493
40
0.580912852326493
40
0.592768216659686
40
0.592768216659686
40
0.616478945326074
40
0.616478945326074
40
0.640189673992462
40
0.640189673992462
40
0.66390040265885
40
0.66390040265885
40
0.711321859991625
40
0.711321859991625
40
0.758743317324401
40
0.758743317324401
40
0.78245404599079
40
0.78245404599079
40
0.806164774657179
40
0.806164774657179
40
0.818020138990372
40
0.818020138990372
40
0.829875503323566
40
0.829875503323566
40
0.853586231989954
40
0.853586231989954
40
0.877296960656343
40
0.877296960656343
40
0.901007689322732
40
0.901007689322732
40
0.924718417989121
40
0.924718417989121
40
0.94842914665551
40
0.94842914665551
40
0.995850603988285
40
0.995850603988285
40
1
40
1
40
1
40
1
41
1
10
19.6457313070805
20
2.59837130577114
30
0
41
1
10
19.9114548871311
20
2.60793190860974
30
0
41
1
10
20.1770350762988
20
2.60698761816928
30
0
41
1
10
20.7085640760853
20
2.58501065512107
30
0
41
1
10
20.9744834584973
20
2.56397816583916
30
0
41
1
10
21.307380817596
20
2.52519056254798
30
0
41
1
10
21.3739829020273
20
2.51680520370081
30
0
41
1
10
21.5072301712047
20
2.49876462280307
30
0
41
1
10
21.5739096301464
20
2.48910036494337
30
0
41
1
10
21.7735175950206
20
2.45828479357968
30
0
41
1
10
21.9061715167831
20
2.43530537408577
30
0
41
1
10
22.303427341545
20
2.35955340309349
30
0
41
1
10
22.5672537827016
20
2.2999274139776
30
0
41
1
10
23.0941222014351
20
2.1640634963147
30
0
41
1
10
23.3571305734598
20
2.08780770812666
30
0
41
1
10
23.7515623351962
20
1.96162983831127
30
0
41
1
10
23.8830002509306
20
1.91756876032497
30
0
41
1
10
24.145865792829
20
1.82546751659851
30
0
41
1
10
24.2773572315061
20
1.77750952132536
30
0
41
1
10
24.6727789067593
20
1.62908968205312
30
0
41
1
10
24.9374258692654
20
1.52380702280871
30
0
41
1
10
25.269458858174
20
1.3839642902303
30
0
41
1
10
25.3359291561
20
1.35558498141557
30
0
41
1
10
25.4690030460395
20
1.29799884275434
30
0
41
1
10
25.5356108638214
20
1.26877865084802
30
0
41
1
10
25.7349201246527
20
1.180286936854
30
0
41
1
10
25.8674021234021
20
1.12015523317549
30
0
41
1
10
26.1321270005558
20
0.998681203253028
30
0
41
1
10
26.2643161411826
20
0.937237154341602
30
0
41
1
10
26.528303276
20
0.812863591896019
30
0
41
1
10
26.6601063649186
20
0.749943691343049
30
0
41
1
10
26.9233708707286
20
0.622717852801998
30
0
41
1
10
27.054823290256
20
0.5583938972228
30
0
41
1
10
27.3174573710318
20
0.428494729014545
30
0
41
1
10
27.4486756092154
20
0.362991858843713
30
0
41
1
10
27.7112603162724
20
0.231576659353635
30
0
41
1
10
27.8425889374852
20
0.16558881544799
30
0
41
1
10
28.1053557958384
20
0.0331240490939422
30
0
41
1
10
28.2368354177984
20
-0.0332694629435935
30
0
41
1
10
28.5003731636655
20
-0.165581070291609
30
0
41
1
10
28.6323958515197
20
-0.231570827978345
30
0
41
1
10
28.8968940123606
20
-0.363335281001156
30
0
41
1
10
29.0293676125939
20
-0.429114157671961
30
0
41
1
10
29.2284379091643
20
-0.527592046832154
30
0
41
1
10
29.2948573471517
20
-0.560380710487152
30
0
41
1
10
29.4278440639854
20
-0.625838609885705
30
0
41
1
10
29.4944196867436
20
-0.658516928246712
30
0
41
1
10
29.6936489486399
20
-0.755901163212343
30
0
41
1
10
29.8260868710915
20
-0.820017748423993
30
0
41
1
10
30.0906919096352
20
-0.945717294005959
30
0
41
1
10
30.2228166175536
20
-1.00739349937226
30
0
41
1
10
30.4866360287932
20
-1.12859942520257
30
0
41
1
10
30.6183287252947
20
-1.18813149934817
30
0
41
1
10
31.0127623751601
20
-1.36349187853267
30
0
41
1
10
31.2749241118347
20
-1.47591809756796
30
0
41
1
10
31.8001477258572
20
-1.68764072658362
30
0
41
1
10
32.0630734311863
20
-1.78723416391702
30
0
41
1
10
32.4578794234649
20
-1.92714312194576
30
0
41
1
10
32.5895846337892
20
-1.97213830922743
30
0
41
1
10
32.8535601683272
20
-2.05830546192547
30
0
41
1
10
32.985829317085
20
-2.0994802487879
30
0
41
1
10
33.1848568935647
20
-2.15811253080122
30
0
41
1
10
33.2512992148003
20
-2.17714091914669
30
0
41
1
10
33.3843784238412
20
-2.21416979152363
30
0
41
1
10
33.451013756681
20
-2.23216847873525
30
0
41
1
10
33.6504496540633
20
-2.28442305958345
30
0
41
1
10
33.7830298401055
20
-2.3170152282442
30
0
41
1
10
34.0474755136685
20
-2.3776936859964
30
0
41
1
10
34.1793621663168
20
-2.40575273359963
30
0
41
1
10
34.4427707347542
20
-2.45708028818606
30
0
41
1
10
34.5742745217923
20
-2.48036934907566
30
0
41
1
10
34.8369483391272
20
-2.52216816735648
30
0
41
1
10
34.968138234106
20
-2.54065851306226
30
0
41
1
10
35.230561792947
20
-2.57267514937803
30
0
41
1
10
35.3617836283676
20
-2.58621266588372
30
0
41
1
10
35.7556530524064
20
-2.6194147873172
30
0
41
1
10
36.0184326267276
20
-2.63174689536058
30
0
41
1
10
36.3044320163855
20
-2.63420000062041
30
0
41
1
10
36.3274464669889
20
-2.63431943730268
30
0
41
1
10
36.3504652491257
20
-2.63436090465493
30
0
0
SPLINE
5
F9
100
AcDbEntity
8
1
62
256
6
ByLayer
370
18
48
1
60
0
100
AcDbSpline
70
4
71
3
72
122
73
118
40
0
40
0
40
0
40
0
40
0.002704120510627
40
0.002704120510627
40
0.0103862640921852
40
0.0103862640921852
40
0.0411148384184135
40
0.0411148384184135
40
0.0564791255815284
40
0.0564791255815284
40
0.0718434127446433
40
0.0718434127446433
40
0.102571987070873
40
0.102571987070873
40
0.133300561397103
40
0.133300561397103
40
0.148664848560218
40
0.148664848560218
40
0.164029135723333
40
0.164029135723333
40
0.179393422886448
40
0.179393422886448
40
0.187075566468004
40
0.187075566468004
40
0.194757710049561
40
0.194757710049561
40
0.225486284375787
40
0.225486284375787
40
0.256214858702014
40
0.256214858702014
40
0.286943433028241
40
0.286943433028241
40
0.302307720191354
40
0.302307720191354
40
0.317672007354467
40
0.317672007354467
40
0.333036294517581
40
0.333036294517581
40
0.348400581680694
40
0.348400581680694
40
0.363764868843807
40
0.363764868843807
40
0.371447012425364
40
0.371447012425364
40
0.379129156006921
40
0.379129156006921
40
0.394493443170034
40
0.394493443170034
40
0.409857730333147
40
0.409857730333147
40
0.440586304659374
40
0.440586304659374
40
0.471314878985601
40
0.471314878985601
40
0.486679166148713
40
0.486679166148713
40
0.502043453311826
40
0.502043453311826
40
0.517407740474938
40
0.517407740474938
40
0.532772027638051
40
0.532772027638051
40
0.548136314801163
40
0.548136314801163
40
0.563500601964276
40
0.563500601964276
40
0.571182745545833
40
0.571182745545833
40
0.57886488912739
40
0.57886488912739
40
0.594229176290506
40
0.594229176290506
40
0.624957750616739
40
0.624957750616739
40
0.640322037779856
40
0.640322037779856
40
0.655686324942973
40
0.655686324942973
40
0.686414899269209
40
0.686414899269209
40
0.717143473595446
40
0.717143473595446
40
0.732507760758563
40
0.732507760758563
40
0.74787204792168
40
0.74787204792168
40
0.763236335084797
40
0.763236335084797
40
0.778600622247915
40
0.778600622247915
40
0.793964909411032
40
0.793964909411032
40
0.809329196574149
40
0.809329196574149
40
0.824693483737267
40
0.824693483737267
40
0.840057770900384
40
0.840057770900384
40
0.870786345226618
40
0.870786345226618
40
0.886150632389736
40
0.886150632389736
40
0.901514919552853
40
0.901514919552853
40
0.932243493879088
40
0.932243493879088
40
0.939925637460647
40
0.939925637460647
40
0.947607781042206
40
0.947607781042206
40
0.962972068205323
40
0.962972068205323
40
0.978336355368441
40
0.978336355368441
40
0.993700642531558
40
0.993700642531558
40
1
40
1
40
1
40
1
41
1
10
41.4364288084688
20
-1.77404417532452
30
0
41
1
10
41.4177001857762
20
-1.78111592833378
30
0
41
1
10
41.3989757565775
20
-1.78815009311617
30
0
41
1
10
41.3271013162178
20
-1.81501047570788
30
0
41
1
10
41.2739929961993
20
-1.83456286204634
30
0
41
1
10
41.008674486143
20
-1.93070307041577
30
0
41
1
10
40.7970744064051
20
-2.00235283429734
30
0
41
1
10
40.4804710316081
20
-2.1019432360691
30
0
41
1
10
40.3750759412455
20
-2.13383017234628
30
0
41
1
10
40.1644605832912
20
-2.1948731720619
30
0
41
1
10
40.0592578194957
20
-2.2240524179677
30
0
41
1
10
39.744035185261
20
-2.30761371181671
30
0
41
1
10
39.534126484585
20
-2.35770185780478
30
0
41
1
10
39.1136787040117
20
-2.44571451795247
30
0
41
1
10
38.9032146680268
20
-2.48373333050679
30
0
41
1
10
38.5869768980802
20
-2.53161473743248
30
0
41
1
10
38.4814400047894
20
-2.5460293345534
30
0
41
1
10
38.2701885021969
20
-2.57177189899329
30
0
41
1
10
38.1645022686868
20
-2.5831067009853
30
0
41
1
10
37.9526910059359
20
-2.60251418313615
30
0
41
1
10
37.8465844417912
20
-2.61059753330625
30
0
41
1
10
37.687024376826
20
-2.62024662607325
30
0
41
1
10
37.633733969798
20
-2.6230518051363
30
0
41
1
10
37.5271882833372
20
-2.62782649809696
30
0
41
1
10
37.4739676589545
20
-2.62979518893107
30
0
41
1
10
37.2081185362569
20
-2.63756428407854
30
0
41
1
10
36.996289977008
20
-2.63714960518538
30
0
41
1
10
36.5738190807347
20
-2.62332122016423
30
0
41
1
10
36.3634283256582
20
-2.60983438797393
30
0
41
1
10
35.9428202992994
20
-2.57014153567644
30
0
41
1
10
35.7325728320999
20
-2.54399587090114
30
0
41
1
10
35.4170719086842
20
-2.49556400589265
30
0
41
1
10
35.3118921972479
20
-2.47787610574753
30
0
41
1
10
35.1014307471294
20
-2.43945325704223
30
0
41
1
10
34.9961269353363
20
-2.41873843838806
30
0
41
1
10
34.7855059672939
20
-2.3741588774952
30
0
41
1
10
34.6801507194342
20
-2.35031839224464
30
0
41
1
10
34.4690966519653
20
-2.29973865761568
30
0
41
1
10
34.3634159135093
20
-2.272984362496
30
0
41
1
10
34.1516125070853
20
-2.21668020923403
30
0
41
1
10
34.0454934684177
20
-2.18712890689983
30
0
41
1
10
33.8859759612891
20
-2.14070608035897
30
0
41
1
10
33.8327474809885
20
-2.12488161202503
30
0
41
1
10
33.7261739429989
20
-2.09253301482355
30
0
41
1
10
33.6728055091249
20
-2.07600133773209
30
0
41
1
10
33.5129922457425
20
-2.02551284460222
30
0
41
1
10
33.4066762009693
20
-1.99064599925521
30
0
41
1
10
33.1944890243323
20
-1.91852378974553
30
0
41
1
10
33.0886785853617
20
-1.88117922987442
30
0
41
1
10
32.771678616379
20
-1.76590373186116
30
0
41
1
10
32.5608867987856
20
-1.68478602529339
30
0
41
1
10
32.1395760057617
20
-1.51545185529284
30
0
41
1
10
31.929168105944
20
-1.42706281729983
30
0
41
1
10
31.6135845998452
20
-1.28949661394975
30
0
41
1
10
31.508407734224
20
-1.24278873081249
30
0
41
1
10
31.2981210142564
20
-1.14759126406892
30
0
41
1
10
31.1929502640393
20
-1.09920943567934
30
0
41
1
10
30.9823812592469
20
-1.00119411932278
30
0
41
1
10
30.8769876026177
20
-0.951552658102287
30
0
41
1
10
30.6658691709464
20
-0.851220817255467
30
0
41
1
10
30.560152754109
20
-0.800515388789705
30
0
41
1
10
30.3483935976297
20
-0.698043262699542
30
0
41
1
10
30.2423531923267
20
-0.646271411346646
30
0
41
1
10
30.0298912627011
20
-0.541757510229075
30
0
41
1
10
29.9234400351311
20
-0.489078670822153
30
0
41
1
10
29.7634999590799
20
-0.409262235245563
30
0
41
1
10
29.7101857962562
20
-0.382530968935726
30
0
41
1
10
29.6037512540848
20
-0.329032610317199
30
0
41
1
10
29.5505933586605
20
-0.302253747917803
30
0
41
1
10
29.3912605852081
20
-0.221905620223822
30
0
41
1
10
29.2852343551148
20
-0.168308464714386
30
0
41
1
10
28.9675367629451
20
-0.0078374200397491
30
0
41
1
10
28.7562294189346
20
0.0986854601445373
30
0
41
1
10
28.4398739772588
20
0.257560598019097
30
0
41
1
10
28.3345153786523
20
0.310350683327471
30
0
41
1
10
28.1239122059228
20
0.415449204281714
30
0
41
1
10
28.0187308960014
20
0.467884824387738
30
0
41
1
10
27.7033108185931
20
0.624365812128048
30
0
41
1
10
27.493030164886
20
0.727254381805295
30
0
41
1
10
27.0715794498285
20
0.928452673308215
30
0
41
1
10
26.8605059679788
20
1.02695422049388
30
0
41
1
10
26.5431100756165
20
1.17103575702151
30
0
41
1
10
26.4371556396496
20
1.21840484168192
30
0
41
1
10
26.2250581143407
20
1.31204226124444
30
0
41
1
10
26.1188658759661
20
1.35821788105264
30
0
41
1
10
25.9059571480981
20
1.4488380678273
30
0
41
1
10
25.7991355114546
20
1.49335772198069
30
0
41
1
10
25.5860995692554
20
1.57998790113328
30
0
41
1
10
25.4797652783466
20
1.62216608286008
30
0
41
1
10
25.2674457711936
20
1.7042675109534
30
0
41
1
10
25.1614635851984
20
1.74419510907506
30
0
41
1
10
24.9498089474037
20
1.82175605145176
30
0
41
1
10
24.8441123632031
20
1.85935377370439
30
0
41
1
10
24.6330092274845
20
1.93223626289867
30
0
41
1
10
24.5276569294097
20
1.96759222862048
30
0
41
1
10
24.3170421239569
20
2.03570070793646
30
0
41
1
10
24.2117879987598
20
2.06846749387663
30
0
41
1
10
23.8959958877587
20
2.16269921639344
30
0
41
1
10
23.6853753856623
20
2.22004944043678
30
0
41
1
10
23.3691859930354
20
2.29780245976792
30
0
41
1
10
23.2637500378876
20
2.32234091161843
30
0
41
1
10
23.0526930062999
20
2.36854484518213
30
0
41
1
10
22.9471099341035
20
2.39024634371427
30
0
41
1
10
22.6301742777024
20
2.45105610456844
30
0
41
1
10
22.4183692525605
20
2.48563659260248
30
0
41
1
10
22.1523224291319
20
2.52091462090198
30
0
41
1
10
22.0990524318109
20
2.52757621450067
30
0
41
1
10
21.9923893283305
20
2.54010819088853
30
0
41
1
10
21.9389599407718
20
2.54598223681489
30
0
41
1
10
21.7787583255254
20
2.56238301766589
30
0
41
1
10
21.6721983835818
20
2.57167881861861
30
0
41
1
10
21.4594929028359
20
2.58700657105013
30
0
41
1
10
21.3533172303833
20
2.5930333632198
30
0
41
1
10
21.1414523503829
20
2.601855393568
30
0
41
1
10
21.0357475795526
20
2.60463855535701
30
0
41
1
10
20.8868214008972
20
2.60625373847287
30
0
41
1
10
20.8435341709823
20
2.60644886228343
30
0
41
1
10
20.8002597409107
20
2.60637094204631
30
0
0
SPLINE
5
FA
100
AcDbEntity
8
1
62
256
6
ByLayer
370
18
48
1
60
0
100
AcDbSpline
70
4
71
3
72
30
73
26
40
0
40
0
40
0
40
0
40
0.0310077038429226
40
0.0310077038429226
40
0.11175706185601
40
0.11175706185601
40
0.192506419869098
40
0.192506419869098
40
0.273255777882187
40
0.273255777882187
40
0.354005135895274
40
0.354005135895274
40
0.515503851921448
40
0.515503851921448
40
0.555878530927994
40
0.555878530927994
40
0.59625320993454
40
0.59625320993454
40
0.677002567947632
40
0.677002567947632
40
0.757751925960722
40
0.757751925960722
40
0.838501283973814
40
0.838501283973814
40
1
40
1
40
1
40
1
41
1
10
8.34589526653977
20
-1.90526620246246
30
0
41
1
10
8.30535508714391
20
-1.91881637723574
30
0
41
1
10
8.26481767784617
20
-1.93218764272746
30
0
41
1
10
8.11872337648998
20
-1.9797360644933
30
0
41
1
10
8.0131836713297
20
-2.01288216003613
30
0
41
1
10
7.80208454114185
20
-2.07667426300634
30
0
41
1
10
7.6964927673063
20
-2.1072826444192
30
0
41
1
10
7.4853578537433
20
-2.16606267971494
30
0
41
1
10
7.37981087988072
20
-2.19422260711036
30
0
41
1
10
7.16844627502351
20
-2.2477127282597
30
0
41
1
10
7.06265123456558
20
-2.27306981566903
30
0
41
1
10
6.74472476964232
20
-2.34477433860425
30
0
41
1
10
6.53204825820009
20
-2.3867709944729
30
0
41
1
10
6.26520893128478
20
-2.43185796743501
30
0
41
1
10
6.21179065509008
20
-2.44050332084908
30
0
41
1
10
6.10483704485034
20
-2.45703352350898
30
0
41
1
10
6.05127761178244
20
-2.46491898504505
30
0
41
1
10
5.89076490931799
20
-2.4873886360036
30
0
41
1
10
5.78392641413456
20
-2.50082374360551
30
0
41
1
10
5.57049710324944
20
-2.5245164216694
30
0
41
1
10
5.46389385557538
20
-2.53476477177529
30
0
41
1
10
5.25064690397809
20
-2.55195957602089
30
0
41
1
10
5.14398088217968
20
-2.55890090100527
30
0
41
1
10
4.82362902016129
20
-2.57477678358879
30
0
41
1
10
4.60963074066046
20
-2.57877573136912
30
0
41
1
10
4.39488398375781
20
-2.57636082882203
30
0
0
SPLINE
5
FB
100
AcDbEntity
8
1
62
256
6
ByLayer
370
18
48
1
60
0
100
AcDbSpline
70
4
71
3
72
32
73
28
40
0
40
0
40
0
40
0
40
0.131817427150209
40
0.131817427150209
40
0.263634854300418
40
0.263634854300418
40
0.395452281450627
40
0.395452281450627
40
0.46136099502573
40
0.46136099502573
40
0.527269708600833
40
0.527269708600833
40
0.593178422175936
40
0.593178422175936
40
0.659087135751039
40
0.659087135751039
40
0.724995849326142
40
0.724995849326142
40
0.790904562901245
40
0.790904562901245
40
0.856813276476349
40
0.856813276476349
40
0.922721990051452
40
0.922721990051452
40
0.988630703626555
40
0.988630703626555
40
1
40
1
40
1
40
1
41
1
10
5.62328816612035
20
-0.773968272189933
30
0
41
1
10
5.91541852611104
20
-0.912289298011927
30
0
41
1
10
6.20579703555691
20
-1.04609706566183
30
0
41
1
10
6.78438196302474
20
-1.30242453676235
30
0
41
1
10
7.07268157970293
20
-1.42476355268789
30
0
41
1
10
7.64874809946252
20
-1.65535812682501
30
0
41
1
10
7.93677392728716
20
-1.76320547705833
30
0
41
1
10
8.36946243501654
20
-1.9127581148966
30
0
41
1
10
8.51381497374109
20
-1.96054512632696
30
0
41
1
10
8.80301502885064
20
-2.05161131753465
30
0
41
1
10
8.94782179058112
20
-2.09494447743811
30
0
41
1
10
9.23810868646663
20
-2.17681933380462
30
0
41
1
10
9.3836479726352
20
-2.21529244580716
30
0
41
1
10
9.67561533740658
20
-2.28715319312852
30
0
41
1
10
9.82120546029063
20
-2.32035253323849
30
0
41
1
10
10.1115843597924
20
-2.38113514513134
30
0
41
1
10
10.2564086806021
20
-2.4087233315372
30
0
41
1
10
10.5455730243256
20
-2.45816418972598
30
0
41
1
10
10.6898660332219
20
-2.48004904452409
30
0
41
1
10
10.9781620363058
20
-2.51799688147022
30
0
41
1
10
11.1222208037284
20
-2.53403629282585
30
0
41
1
10
11.4102248901078
20
-2.560268922321
30
0
41
1
10
11.5541600578778
20
-2.57046246305853
30
0
41
1
10
11.8420801434356
20
-2.58493455318396
30
0
41
1
10
11.9860679129162
20
-2.58921102087507
30
0
41
1
10
12.155065674527
20
-2.59072158054604
30
0
41
1
10
12.1799318718561
20
-2.590854886876
30
0
41
1
10
12.2048017549903
20
-2.59089913630476
30
0
0
SPLINE
5
FC
100
AcDbEntity
8
1
62
256
6
ByLayer
370
18
48
1
60
0
100
AcDbSpline
70
4
71
3
72
59
73
55
40
0
40
0
40
0
40
0
40
0.0017773402076197
40
0.0017773402076197
40
0.0139507872782584
40
0.0139507872782584
40
0.026124234348897
40
0.026124234348897
40
0.123511810914008
40
0.123511810914008
40
0.172205599196563
40
0.172205599196563
40
0.220899387479117
40
0.220899387479117
40
0.245246281620394
40
0.245246281620394
40
0.269593175761672
40
0.269593175761672
40
0.318286964044226
40
0.318286964044226
40
0.342633858185502
40
0.354807305256139
40
0.354807305256139
40
0.366980752326776
40
0.366980752326776
40
0.415674540609329
40
0.415674540609329
40
0.513062117174432
40
0.513062117174432
40
0.561755905456984
40
0.561755905456984
40
0.586102799598259
40
0.598276246668896
40
0.598276246668896
40
0.610449693739534
40
0.610449693739534
40
0.707837270304647
40
0.707837270304647
40
0.720010717375285
40
0.720010717375285
40
0.732184164445924
40
0.732184164445924
40
0.756531058587203
40
0.756531058587203
40
0.805224846869762
40
0.805224846869762
40
0.902612423434879
40
0.902612423434879
40
0.951306211717438
40
0.951306211717438
40
0.963479658788079
40
0.963479658788079
40
0.97565310585872
40
1
40
1
40
1
40
1
41
1
10
28.6335840348027
20
2.62047114792372
30
0
41
1
10
28.6433471301079
20
2.62048845377029
30
0
41
1
10
28.6531122110569
20
2.62049196027263
30
0
41
1
10
28.7297766025207
20
2.62041102770752
30
0
41
1
10
28.7966355463549
20
2.61969183130614
30
0
41
1
10
28.9301219624455
20
2.6169676510267
30
0
41
1
10
28.9967772825635
20
2.6149626752775
30
0
41
1
10
29.5959700350942
20
2.59118347869801
30
0
41
1
10
30.123559157671
20
2.52919745311587
30
0
41
1
10
30.9148516795173
20
2.37992364886668
30
0
41
1
10
31.1785964738263
20
2.32079630713451
30
0
41
1
10
31.7072430469524
20
2.18474486611686
30
0
41
1
10
31.9721469761477
20
2.10782031684596
30
0
41
1
10
32.3713290749627
20
1.9799312201157
30
0
41
1
10
32.5046944972614
20
1.9352193298038
30
0
41
1
10
32.7721946197161
20
1.84178373005125
30
0
41
1
10
32.9057831913811
20
1.79325154220655
30
0
41
1
10
33.3061454270984
20
1.64262504244454
30
0
41
1
10
33.572573943418
20
1.53546708458902
30
0
41
1
10
33.9724356153597
20
1.36612219560445
30
0
41
1
10
34.1724224268969
20
1.27930024965548
30
0
41
1
10
34.3726753387373
20
1.18955211826361
30
0
41
1
10
34.5062566615839
20
1.12910339611184
30
0
41
1
10
34.5731302860861
20
1.09855076102758
30
0
41
1
10
34.9072011668201
20
0.944580110622042
30
0
41
1
10
35.1729475455006
20
0.817802381549228
30
0
41
1
10
35.9675703670239
20
0.430516334894605
30
0
41
1
10
36.4938510362367
20
0.16309418289714
30
0
41
1
10
37.2853552100381
20
-0.237180410844274
30
0
41
1
10
37.5495473567542
20
-0.370440834434618
30
0
41
1
10
37.9473058812554
20
-0.568191894628626
30
0
41
1
10
38.1465487613286
20
-0.666540557924804
30
0
41
1
10
38.3465081411471
20
-0.763752081237385
30
0
41
1
10
38.4799938933906
20
-0.828265902929331
30
0
41
1
10
38.5468509020068
20
-0.860387369793841
30
0
41
1
10
39.1477711027803
20
-1.14716913992689
30
0
41
1
10
39.6791126525747
20
-1.38693591084231
30
0
41
1
10
40.2794506453608
20
-1.62960401430883
30
0
41
1
10
40.3461908424445
20
-1.65619134930753
30
0
41
1
10
40.4797641081253
20
-1.70857887533254
30
0
41
1
10
40.5465285723244
20
-1.73435166212684
30
0
41
1
10
40.7464605153027
20
-1.81024180163845
30
0
41
1
10
40.8793993456368
20
-1.85898254827731
30
0
41
1
10
41.2774164276393
20
-1.99936961609822
30
0
41
1
10
41.5416989637179
20
-2.08517782884081
30
0
41
1
10
42.3330896099952
20
-2.31743902807128
30
0
41
1
10
42.858732732884
20
-2.43865893281148
30
0
41
1
10
43.6518056769259
20
-2.56273053599935
30
0
41
1
10
43.9169208811073
20
-2.59448234185251
30
0
41
1
10
44.2500619696453
20
-2.62148048076554
30
0
41
1
10
44.3168148290583
20
-2.62624775304758
30
0
41
1
10
44.4503288568446
20
-2.6344857367198
30
0
41
1
10
44.6505311834031
20
-2.64489555654998
30
0
41
1
10
44.8506280073323
20
-2.64945497913485
30
0
41
1
10
44.9840581205626
20
-2.64989096387492
30
0
0
SPLINE
5
FD
100
AcDbEntity
8
1
62
256
6
ByLayer
370
18
48
1
60
0
100
AcDbSpline
70
4
71
3
72
10
73
6
40
0
40
0
40
0
40
0
40
0.5
40
0.5
40
1
40
1
40
1
40
1
41
1
10
44.9671951584329
20
-2.63315184052257
30
0
41
1
10
44.9699979938418
20
-2.63857661223275
30
0
41
1
10
44.9728037501601
20
-2.64268779355518
30
0
41
1
10
44.978427418702
20
-2.64827449936916
30
0
41
1
10
44.9812463455933
20
-2.64974631384536
30
0
41
1
10
44.9840581205625
20
-2.64989096387492
30
0
0
SPLINE
5
FE
100
AcDbEntity
8
1
62
256
6
ByLayer
370
18
48
1
60
0
100
AcDbSpline
70
4
71
3
72
64
73
60
40
0
40
0
40
0
40
0
40
0.0503550032870577
40
0.0503550032870577
40
0.100710006574115
40
0.100710006574115
40
0.11329875739588
40
0.11329875739588
40
0.125887508217645
40
0.125887508217645
40
0.151065009861173
40
0.151065009861173
40
0.176242511504701
40
0.176242511504701
40
0.201420013148228
40
0.201420013148228
40
0.302130019722342
40
0.302130019722342
40
0.352485023009398
40
0.352485023009398
40
0.365073773831163
40
0.365073773831163
40
0.377662524652927
40
0.402840026296455
40
0.402840026296455
40
0.453195029583511
40
0.453195029583511
40
0.503550032870568
40
0.503550032870568
40
0.528727534514095
40
0.528727534514095
40
0.553905036157622
40
0.553905036157622
40
0.604260039444679
40
0.604260039444679
40
0.629437541088207
40
0.629437541088207
40
0.654615042731736
40
0.654615042731736
40
0.679792544375264
40
0.679792544375264
40
0.704970046018792
40
0.704970046018792
40
0.755325049305851
40
0.755325049305851
40
0.78050255094938
40
0.78050255094938
40
0.805680052592909
40
0.805680052592909
40
0.830857554236439
40
0.843446305058203
40
0.843446305058203
40
0.856035055879968
40
0.856035055879968
40
0.906390059167027
40
0.906390059167027
40
0.956745062454085
40
0.956745062454085
40
1
40
1
40
1
40
1
41
1
10
44.9671951584412
20
-2.63315184052246
30
0
41
1
10
44.7012383030762
20
-2.61744357188132
30
0
41
1
10
44.4357485338496
20
-2.59141639329968
30
0
41
1
10
43.9044160209267
20
-2.51948665839512
30
0
41
1
10
43.6385854714515
20
-2.47358732671122
30
0
41
1
10
43.3054147944788
20
-2.40417696762032
30
0
41
1
10
43.2386881156852
20
-2.38968151501456
30
0
41
1
10
43.1054416257084
20
-2.35956460356638
30
0
41
1
10
43.0389130607803
20
-2.3439421566365
30
0
41
1
10
42.8395854552917
20
-2.29541734805224
30
0
41
1
10
42.7070399191324
20
-2.26086075709597
30
0
41
1
10
42.4424076148933
20
-2.18761882017296
30
0
41
1
10
42.3103276565675
20
-2.14892810487504
30
0
41
1
10
42.0465459601827
20
-2.06754939212638
30
0
41
1
10
41.9148385888046
20
-2.02486615740943
30
0
41
1
10
41.2566816379684
20
-1.8022275630353
30
0
41
1
10
40.7314021073933
20
-1.59457195666917
30
0
41
1
10
39.9383428176891
20
-1.24943389663648
30
0
41
1
10
39.6731821509746
20
-1.12868723753058
30
0
41
1
10
39.3398431859477
20
-0.972025541736485
30
0
41
1
10
39.2731176428025
20
-0.9404290380823
30
0
41
1
10
39.1399575735792
20
-0.876943606606432
30
0
41
1
10
38.9404760733478
20
-0.781193171277664
30
0
41
1
10
38.7416869966015
20
-0.684044467171873
30
0
41
1
10
38.3448067125928
20
-0.488338346167723
30
0
41
1
10
38.0811911411871
20
-0.355906838120461
30
0
41
1
10
37.5545828936344
20
-0.0897904759265771
30
0
41
1
10
37.291555160831
20
0.0438234995712605
30
0
41
1
10
36.8964958283238
20
0.243193201805923
30
0
41
1
10
36.764727347906
20
0.309483158026353
30
0
41
1
10
36.5009778083975
20
0.441631769484189
30
0
41
1
10
36.3689906137403
20
0.507478018515286
30
0
41
1
10
35.9722725111484
20
0.703484989500197
30
0
41
1
10
35.7068048814832
20
0.832153963688853
30
0
41
1
10
35.3062896091354
20
1.02047487717243
30
0
41
1
10
35.1730871079676
20
1.08214217598234
30
0
41
1
10
34.9073987563158
20
1.2029665681641
30
0
41
1
10
34.7748713246135
20
1.26213417751501
30
0
41
1
10
34.5102412878823
20
1.37763778348278
30
0
41
1
10
34.3781429447316
20
1.43398346016434
30
0
41
1
10
34.114280638624
20
1.54371837360486
30
0
41
1
10
33.9825126722934
20
1.59709872177984
30
0
41
1
10
33.5873758885926
20
1.75228003243447
30
0
41
1
10
33.3241826226254
20
1.84914043049764
30
0
41
1
10
32.9289025605251
20
1.98334180319864
30
0
41
1
10
32.7970621537314
20
2.02622971144828
30
0
41
1
10
32.533115592583
20
2.10815166783064
30
0
41
1
10
32.4010066659548
20
2.14718006522983
30
0
41
1
10
32.1362930082382
20
2.22106881262022
30
0
41
1
10
31.937388649738
20
2.27336478495406
30
0
41
1
10
31.7377697823716
20
2.32076291976836
30
0
41
1
10
31.6045133181555
20
2.35124836680305
30
0
41
1
10
31.5377628255709
20
2.36594155202221
30
0
41
1
10
31.2038889919121
20
2.4364843929356
30
0
41
1
10
30.9383077459876
20
2.48318409041812
30
0
41
1
10
30.408904437006
20
2.55673952350338
30
0
41
1
10
30.1450505204778
20
2.58358384059557
30
0
41
1
10
29.6550892593171
20
2.61485370041075
30
0
41
1
10
29.4289054839228
20
2.62189777736214
30
0
41
1
10
29.2025152114568
20
2.62149477366799
30
0
0
SPLINE
5
FF
100
AcDbEntity
8
1
62
256
6
ByLayer
370
18
48
1
60
0
100
AcDbSpline
70
4
71
3
72
27
73
23
40
0
40
0
40
0
40
0
40
0.125000000000023
40
0.125000000000023
40
0.187500000000021
40
0.187500000000021
40
0.250000000000019
40
0.312500000000018
40
0.312500000000018
40
0.375000000000016
40
0.375000000000016
40
0.500000000000013
40
0.500000000000013
40
0.62500000000001
40
0.62500000000001
40
0.687500000000008
40
0.687500000000008
40
0.750000000000006
40
0.750000000000006
40
0.875000000000003
40
0.875000000000003
40
1
40
1
40
1
40
1
41
1
10
19.500497679522
20
-2.60259713926689
30
0
41
1
10
19.500497679522
20
-2.60231224265277
30
0
41
1
10
19.5015838338669
20
-2.60199305418729
30
0
41
1
10
19.5047927853198
20
-2.60147034756278
30
0
41
1
10
19.5061420001549
20
-2.60128742230685
30
0
41
1
10
19.5093261879661
20
-2.60091721866328
30
0
41
1
10
19.5129890412426
20
-2.60054251283657
30
0
41
1
10
19.517587818614
20
-2.60016504957585
30
0
41
1
10
19.5226669267463
20
-2.59978982357808
30
0
41
1
10
19.5254453822816
20
-2.59960378774483
30
0
41
1
10
19.5342663745456
20
-2.59907083915434
30
0
41
1
10
19.5408766415555
20
-2.59874239781374
30
0
41
1
10
19.5554879168154
20
-2.59817773997204
30
0
41
1
10
19.5632116159937
20
-2.59795213965586
30
0
41
1
10
19.5754086422517
20
-2.59771427549367
30
0
41
1
10
19.5796067979387
20
-2.59765168222728
30
0
41
1
10
19.5880057929884
20
-2.5975658086374
30
0
41
1
10
19.5922197648815
20
-2.59754199263725
30
0
41
1
10
19.6049042626813
20
-2.59752800891758
30
0
41
1
10
19.6135386303276
20
-2.59759795891247
30
0
41
1
10
19.6301007887148
20
-2.59788310616534
30
0
41
1
10
19.6380752876339
20
-2.5980958459823
30
0
41
1
10
19.6457313070805
20
-2.59837130577114
30
0
0
SPLINE
5
100
100
AcDbEntity
8
1
62
256
6
ByLayer
370
18
48
1
60
0
100
AcDbSpline
70
4
71
3
72
8
73
4
40
0
40
0
40
0
40
0
40
1
40
1
40
1
40
1
41
1
10
19.6457313070805
20
-2.59837130577114
30
0
41
1
10
19.7621180884871
20
-2.60255884453784
30
0
41
1
10
19.8784773612824
20
-2.60473108763716
30
0
41
1
10
19.9948366613657
20
-2.60492674665573
30
0
0
SPLINE
5
101
100
AcDbEntity
8
1
62
256
6
ByLayer
370
18
48
1
60
0
100
AcDbSpline
70
4
71
3
72
54
73
50
40
0
40
0
40
0
40
0
40
0.033704380066171
40
0.033704380066171
40
0.0723562048635259
40
0.0723562048635259
40
0.149659854458238
40
0.149659854458238
40
0.188311679255593
40
0.188311679255593
40
0.226963504052948
40
0.226963504052948
40
0.246289416451624
40
0.246289416451624
40
0.265615328850299
40
0.265615328850299
40
0.304267153647654
40
0.304267153647654
40
0.342918978445009
40
0.342918978445009
40
0.381570803242364
40
0.381570803242364
40
0.420222628039718
40
0.420222628039718
40
0.458874452837073
40
0.458874452837073
40
0.497526277634428
40
0.497526277634428
40
0.536178102431783
40
0.536178102431783
40
0.613481752026489
40
0.613481752026489
40
0.632807664425163
40
0.632807664425163
40
0.652133576823837
40
0.652133576823837
40
0.690785401621188
40
0.690785401621188
40
0.72943722641854
40
0.72943722641854
40
0.768089051215891
40
0.768089051215891
40
0.806740876013243
40
0.806740876013243
40
0.845392700810594
40
0.845392700810594
40
0.922696350405297
40
0.922696350405297
40
1
40
1
40
1
40
1
41
1
10
34.7560380452803
20
2.50917558558641
30
0
41
1
10
34.870533386536
20
2.52686104080917
30
0
41
1
10
34.984933379747
20
2.54270758240739
30
0
41
1
10
35.2305617929469
20
2.57267514937803
30
0
41
1
10
35.3617836283676
20
2.58621266588372
30
0
41
1
10
35.7556530524063
20
2.6194147873172
30
0
41
1
10
36.0184326267276
20
2.63174689536058
30
0
41
1
10
36.4129144020222
20
2.63513048760899
30
0
41
1
10
36.544503383965
20
2.63371338133462
30
0
41
1
10
36.8084015131875
20
2.62577843665346
30
0
41
1
10
36.9406866792629
20
2.61926958321379
30
0
41
1
10
37.1396710586892
20
2.60569954339678
30
0
41
1
10
37.2060909585349
20
2.60054129331169
30
0
41
1
10
37.339109184351
20
2.58894430282652
30
0
41
1
10
37.4056914344606
20
2.58250540353964
30
0
41
1
10
37.6049429161102
20
2.5613344151887
30
0
41
1
10
37.7373631140084
20
2.54472687146819
30
0
41
1
10
38.0014106782479
20
2.5065320972223
30
0
41
1
10
38.1330748204404
20
2.48495370422793
30
0
41
1
10
38.3963115460058
20
2.43733686827235
30
0
41
1
10
38.5278563089643
20
2.41129128644167
30
0
41
1
10
38.7908284750935
20
2.35485662974958
30
0
41
1
10
38.9222436265094
20
2.32446085111997
30
0
41
1
10
39.1847632770221
20
2.25914844109457
30
0
41
1
10
39.3158689272697
20
2.22422998510467
30
0
41
1
10
39.5777446228695
20
2.14972517706602
30
0
41
1
10
39.7085553100048
20
2.1101669488703
30
0
41
1
10
39.9707236439571
20
2.02739307294016
30
0
41
1
10
40.102050614849
20
1.9841562474781
30
0
41
1
10
40.4967431006553
20
1.8489502314452
30
0
41
1
10
40.7608055729257
20
1.75148072750056
30
0
41
1
10
41.0923711606977
20
1.62076202298383
30
0
41
1
10
41.1587601847295
20
1.59417494776218
30
0
41
1
10
41.2917017498932
20
1.54012103462316
30
0
41
1
10
41.3582288701201
20
1.51266359418941
30
0
41
1
10
41.5573073856703
20
1.42931195552058
30
0
41
1
10
41.6896040753556
20
1.37233642718414
30
0
41
1
10
41.953461271103
20
1.25576607400791
30
0
41
1
10
42.085035308097
20
1.19619361330436
30
0
41
1
10
42.3479279582046
20
1.07532234224718
30
0
41
1
10
42.4792333642053
20
1.01400184590534
30
0
41
1
10
42.7415751789155
20
0.889631412955993
30
0
41
1
10
42.8726179739851
20
0.826591870849342
30
0
41
1
10
43.1347311245292
20
0.699359126038814
30
0
41
1
10
43.2657979246313
20
0.635160710407121
30
0
41
1
10
43.6590448469621
20
0.44086091907505
30
0
41
1
10
43.9212619321623
20
0.309038025701255
30
0
41
1
10
44.4465361669052
20
0.0421756280792351
30
0
41
1
10
44.7096040040662
20
-0.0928469361314228
30
0
41
1
10
44.9737159150603
20
-0.228309040986943
30
0
0
SPLINE
5
102
100
AcDbEntity
8
1
62
256
6
ByLayer
370
18
48
1
60
0
100
AcDbSpline
70
4
71
3
72
11
73
7
40
0
40
0
40
0
40
0
40
0.250000000000004
40
0.250000000000004
40
0.500000000000008
40
1
40
1
40
1
40
1
41
1
10
44.9737159150564
20
-0.228309040989615
30
0
41
1
10
44.97681380175
20
-0.199241601284683
30
0
41
1
10
44.9800814236255
20
-0.170029809526454
30
0
41
1
10
44.9869449816938
20
-0.11162895116783
30
0
41
1
10
44.9977075943476
20
-0.0242635462323619
30
0
41
1
10
45.0099376285782
20
0.0623916440316918
30
0
41
1
10
45.01880427693
20
0.119840993787875
30
0
0
SPLINE
5
103
100
AcDbEntity
8
1
62
256
6
ByLayer
370
18
48
1
60
0
100
AcDbSpline
70
4
71
3
72
48
73
44
40
0
40
0
40
0
40
0
40
0.0799935974311068
40
0.0799935974311068
40
0.159987194862214
40
0.159987194862214
40
0.199983993577767
40
0.199983993577767
40
0.239980792293321
40
0.239980792293321
40
0.279977591008874
40
0.279977591008874
40
0.319974389724427
40
0.319974389724427
40
0.399967987155538
40
0.399967987155538
40
0.439964785871094
40
0.439964785871094
40
0.459963185228871
40
0.459963185228871
40
0.479961584586649
40
0.479961584586649
40
0.55995518201776
40
0.55995518201776
40
0.599951980733314
40
0.599951980733314
40
0.639948779448867
40
0.639948779448867
40
0.719942376879978
40
0.719942376879978
40
0.799935974311089
40
0.799935974311089
40
0.839932773026647
40
0.839932773026647
40
0.879929571742205
40
0.879929571742205
40
0.919926370457762
40
0.919926370457762
40
0.939924769815543
40
0.939924769815543
40
0.959923169173324
40
0.959923169173324
40
1
40
1
40
1
40
1
41
1
10
45.01880427693
20
0.119840993787903
30
0
41
1
10
44.8069011580288
20
0.228287880871136
30
0
41
1
10
44.5957845410604
20
0.335922606786284
30
0
41
1
10
44.1741697448398
20
0.547746362112889
30
0
41
1
10
43.9637581263509
20
0.652118430868683
30
0
41
1
10
43.6484783303709
20
0.805901735397612
30
0
41
1
10
43.5434101975876
20
0.856640871438202
30
0
41
1
10
43.3334543452961
20
0.95731605675283
30
0
41
1
10
43.2285327540576
20
1.00718550475753
30
0
41
1
10
43.0185474078892
20
1.10550987658448
30
0
41
1
10
42.9135019193432
20
1.15399930926577
30
0
41
1
10
42.7031710656364
20
1.24939260134505
30
0
41
1
10
42.5978882431376
20
1.29630187812256
30
0
41
1
10
42.281661375746
20
1.43462229609727
30
0
41
1
10
42.0703599804981
20
1.52366357101459
30
0
41
1
10
41.7523361518101
20
1.65180423094822
30
0
41
1
10
41.6462173354422
20
1.69372502880876
30
0
41
1
10
41.4866789575159
20
1.75507883397714
30
0
41
1
10
41.4334243917312
20
1.77527620477204
30
0
41
1
10
41.3271013162179
20
1.81501047570785
30
0
41
1
10
41.2739929961993
20
1.83456286204634
30
0
41
1
10
41.0086744861431
20
1.93070307041575
30
0
41
1
10
40.7970744064052
20
2.00235283429734
30
0
41
1
10
40.4804710316082
20
2.10194323606908
30
0
41
1
10
40.3750759412456
20
2.13383017234625
30
0
41
1
10
40.1644605832913
20
2.19487317206187
30
0
41
1
10
40.0592578194958
20
2.2240524179677
30
0
41
1
10
39.7440351852611
20
2.30761371181669
30
0
41
1
10
39.5341264845852
20
2.35770185780476
30
0
41
1
10
39.1136787040118
20
2.44571451795244
30
0
41
1
10
38.9032146680269
20
2.48373333050677
30
0
41
1
10
38.5869768980803
20
2.53161473743248
30
0
41
1
10
38.4814400047894
20
2.54602933455337
30
0
41
1
10
38.2701885021969
20
2.57177189899326
30
0
41
1
10
38.1645022686869
20
2.5831067009853
30
0
41
1
10
37.952691005936
20
2.60251418313615
30
0
41
1
10
37.8465844417915
20
2.61059753330625
30
0
41
1
10
37.6870243768261
20
2.62024662607325
30
0
41
1
10
37.6337339697982
20
2.6230518051363
30
0
41
1
10
37.5271882833374
20
2.62782649809696
30
0
41
1
10
37.4739676589546
20
2.62979518893107
30
0
41
1
10
37.3142454036415
20
2.63446286428805
30
0
41
1
10
37.2079065095952
20
2.63591259207939
30
0
41
1
10
37.1017487551007
20
2.63571459458288
30
0
0
SPLINE
5
104
100
AcDbEntity
8
1
62
256
6
ByLayer
370
18
48
1
60
0
100
AcDbSpline
70
4
71
3
72
126
73
122
40
0
40
0
40
0
40
0
40
0.0027134506025377
40
0.0027134506025377
40
0.0181307981354515
40
0.0181307981354515
40
0.0335481456683655
40
0.0335481456683655
40
0.0489654932012794
40
0.0489654932012794
40
0.0798001882671081
40
0.0798001882671081
40
0.0952175358000225
40
0.0952175358000225
40
0.110634883332937
40
0.110634883332937
40
0.141469578398765
40
0.141469578398765
40
0.149178252165222
40
0.149178252165222
40
0.156886925931679
40
0.156886925931679
40
0.172304273464592
40
0.172304273464592
40
0.187721620997505
40
0.187721620997505
40
0.203138968530418
40
0.203138968530418
40
0.218556316063332
40
0.218556316063332
40
0.233973663596244
40
0.233973663596244
40
0.264808358662071
40
0.264808358662071
40
0.280225706194984
40
0.280225706194984
40
0.295643053727897
40
0.295643053727897
40
0.326477748793722
40
0.326477748793722
40
0.341895096326635
40
0.341895096326635
40
0.349603770093091
40
0.349603770093091
40
0.357312443859547
40
0.357312443859547
40
0.37272979139246
40
0.37272979139246
40
0.388147138925373
40
0.388147138925373
40
0.4189818339912
40
0.4189818339912
40
0.434399181524113
40
0.434399181524113
40
0.449816529057027
40
0.449816529057027
40
0.46523387658994
40
0.46523387658994
40
0.480651224122854
40
0.480651224122854
40
0.51148591918868
40
0.51148591918868
40
0.526903266721594
40
0.526903266721594
40
0.53461194048805
40
0.53461194048805
40
0.542320614254507
40
0.542320614254507
40
0.573155309320335
40
0.573155309320335
40
0.588572656853249
40
0.588572656853249
40
0.603990004386164
40
0.603990004386164
40
0.619407351919078
40
0.619407351919078
40
0.634824699451992
40
0.634824699451992
40
0.66565939451782
40
0.66565939451782
40
0.681076742050734
40
0.681076742050734
40
0.696494089583649
40
0.696494089583649
40
0.727328784649477
40
0.727328784649477
40
0.735037458415934
40
0.735037458415934
40
0.742746132182391
40
0.742746132182391
40
0.758163479715305
40
0.758163479715305
40
0.77358082724822
40
0.77358082724822
40
0.788998174781134
40
0.788998174781134
40
0.804415522314048
40
0.804415522314048
40
0.819832869846963
40
0.819832869846963
40
0.835250217379877
40
0.835250217379877
40
0.850667564912792
40
0.850667564912792
40
0.866084912445706
40
0.866084912445706
40
0.88150225997862
40
0.88150225997862
40
0.912336955044448
40
0.912336955044448
40
0.920045628810906
40
0.920045628810906
40
0.927754302577364
40
0.927754302577364
40
0.94317165011028
40
0.94317165011028
40
0.958588997643197
40
0.958588997643197
40
0.974006345176113
40
0.974006345176113
40
1
40
1
40
1
40
1
41
1
10
25.1115275531156
20
-1.76239304171042
30
0
41
1
10
25.0928922445184
20
-1.76928933396329
30
0
41
1
10
25.0742618568329
20
-1.77615022378166
30
0
41
1
10
24.9498089474042
20
-1.82175605145159
30
0
41
1
10
24.8441123632036
20
-1.85935377370421
30
0
41
1
10
24.6330092274851
20
-1.9322362628985
30
0
41
1
10
24.5276569294102
20
-1.9675922286203
30
0
41
1
10
24.3170421239575
20
-2.03570070793629
30
0
41
1
10
24.2117879987603
20
-2.06846749387645
30
0
41
1
10
23.8959958877592
20
-2.16269921639329
30
0
41
1
10
23.6853753856628
20
-2.22004944043664
30
0
41
1
10
23.3691859930359
20
-2.29780245976778
30
0
41
1
10
23.2637500378882
20
-2.32234091161828
30
0
41
1
10
23.0526930063004
20
-2.36854484518202
30
0
41
1
10
22.947109934104
20
-2.39024634371415
30
0
41
1
10
22.6301742777029
20
-2.45105610456832
30
0
41
1
10
22.4183692525611
20
-2.48563659260239
30
0
41
1
10
22.1523224291325
20
-2.52091462090192
30
0
41
1
10
22.0990524318114
20
-2.52757621450061
30
0
41
1
10
21.9923893283311
20
-2.54010819088847
30
0
41
1
10
21.9389599407724
20
-2.54598223681484
30
0
41
1
10
21.7787583255261
20
-2.56238301766584
30
0
41
1
10
21.6721983835824
20
-2.57167881861855
30
0
41
1
10
21.4594929028364
20
-2.5870065710501
30
0
41
1
10
21.3533172303839
20
-2.59303336321977
30
0
41
1
10
21.1414523503835
20
-2.60185539356797
30
0
41
1
10
21.0357475795532
20
-2.60463855535701
30
0
41
1
10
20.8245047703322
20
-2.60692959526608
30
0
41
1
10
20.7189877329527
20
-2.60644192441632
30
0
41
1
10
20.5080247194548
20
-2.60224359291539
30
0
41
1
10
20.4025782479874
20
-2.59853550455736
30
0
41
1
10
20.0863224470834
20
-2.58263781989504
30
0
41
1
10
19.8756280788016
20
-2.56566884682314
30
0
41
1
10
19.5594634250274
20
-2.53075511412311
30
0
41
1
10
19.45412364343
20
-2.5175058403247
30
0
41
1
10
19.2433231727702
20
-2.48784864544339
30
0
41
1
10
19.1378385810733
20
-2.47145620965341
30
0
41
1
10
18.8209526855191
20
-2.41769787968423
30
0
41
1
10
18.6090464250003
20
-2.37582071501941
30
0
41
1
10
18.2900519917074
20
-2.3040236957911
30
0
41
1
10
18.183538439557
20
-2.27858323413358
30
0
41
1
10
18.0234214902024
20
-2.23820217967534
30
0
41
1
10
17.9699479647232
20
-2.22436446114941
30
0
41
1
10
17.8631599307316
20
-2.19599177510438
30
0
41
1
10
17.8098443757886
20
-2.18144930274971
30
0
41
1
10
17.6501067407152
20
-2.13678305221544
30
0
41
1
10
17.5438591329084
20
-2.10566046715812
30
0
41
1
10
17.3316510419938
20
-2.04100052718363
30
0
41
1
10
17.2256997566755
20
-2.00745244383785
30
0
41
1
10
16.9081166336304
20
-1.90345522952259
30
0
41
1
10
16.6968033725341
20
-1.82960014239393
30
0
41
1
10
16.3802912728788
20
-1.71234643919874
30
0
41
1
10
16.2748286978329
20
-1.67223569656969
30
0
41
1
10
16.0640611272023
20
-1.58984130609119
30
0
41
1
10
15.958792291825
20
-1.54749504373049
30
0
41
1
10
15.7481558535367
20
-1.46102662588095
30
0
41
1
10
15.6428063029386
20
-1.41687683838777
30
0
41
1
10
15.4319147907172
20
-1.32697551401114
30
0
41
1
10
15.3263640677403
20
-1.28124060805891
30
0
41
1
10
15.0093666505658
20
-1.14174859021443
30
0
41
1
10
14.7976259988437
20
-1.04561079559153
30
0
41
1
10
14.4790335827955
20
-0.89729677681774
30
0
41
1
10
14.3727204792494
20
-0.847078598968864
30
0
41
1
10
14.2129996586016
20
-0.770701785521567
30
0
41
1
10
14.1597059371344
20
-0.745091748644199
30
0
41
1
10
14.0529903648256
20
-0.693610977550065
30
0
41
1
10
13.9995317628411
20
-0.667719330786269
30
0
41
1
10
13.7325951490739
20
-0.538022159929028
30
0
41
1
10
13.5197991294037
20
-0.433519001388817
30
0
41
1
10
13.2015059173701
20
-0.276087813806725
30
0
41
1
10
13.0955684546407
20
-0.223477164972564
30
0
41
1
10
12.8839362161462
20
-0.118149085418821
30
0
41
1
10
12.7782202618011
20
-0.0654752389704072
30
0
41
1
10
12.5671329542341
20
0.0401902613963614
30
0
41
1
10
12.4617174879139
20
0.0930895987566203
30
0
41
1
10
12.2508892544875
20
0.198499181441349
30
0
41
1
10
12.145494661293
20
0.251047062826274
30
0
41
1
10
11.8291667529561
20
0.407810538264073
30
0
41
1
10
11.6181171877133
20
0.511205582953068
30
0
41
1
10
11.3011858294201
20
0.664405499702411
30
0
41
1
10
11.1954578489963
20
0.715106762866043
30
0
41
1
10
10.9838352303845
20
0.815778802092439
30
0
41
1
10
10.878005134361
20
0.865877416618673
30
0
41
1
10
10.5600169068627
20
1.01457394171791
30
0
41
1
10
10.3473253396611
20
1.11150350306988
30
0
41
1
10
10.0800913027218
20
1.22893539820379
30
0
41
1
10
10.0265491524213
20
1.25225696457508
30
0
41
1
10
9.91963809209085
20
1.29841179282087
30
0
41
1
10
9.86623985026404
20
1.32125892653738
30
0
41
1
10
9.70620828270319
20
1.38909929540307
30
0
41
1
10
9.59974473322666
20
1.43340311629439
30
0
41
1
10
9.38715816788098
20
1.51999534945711
30
0
41
1
10
9.28107128195202
20
1.56234912429986
30
0
41
1
10
9.06930905554205
20
1.64516017451277
30
0
41
1
10
8.96357177113919
20
1.68551226806539
30
0
41
1
10
8.7522244158117
20
1.76387618838285
30
0
41
1
10
8.64661508283214
20
1.80189009813006
30
0
41
1
10
8.43541969170008
20
1.87545704446725
30
0
41
1
10
8.32984240284966
20
1.91102444182928
30
0
41
1
10
8.11872337649089
20
1.97973606449304
30
0
41
1
10
8.01318367133061
20
2.01288216003584
30
0
41
1
10
7.80208454114276
20
2.07667426300608
30
0
41
1
10
7.69649276730723
20
2.10728264441895
30
0
41
1
10
7.48535785374423
20
2.16606267971469
30
0
41
1
10
7.37981087988166
20
2.19422260711011
30
0
41
1
10
7.16844627502445
20
2.2477127282595
30
0
41
1
10
7.06265123456652
20
2.27306981566883
30
0
41
1
10
6.74472476964326
20
2.34477433860405
30
0
41
1
10
6.532048258201
20
2.38677099447273
30
0
41
1
10
6.26520893128571
20
2.43185796743487
30
0
41
1
10
6.21179065509105
20
2.44050332084893
30
0
41
1
10
6.10483704485134
20
2.45703352350884
30
0
41
1
10
6.05127761178343
20
2.46491898504493
30
0
41
1
10
5.89076490931899
20
2.48738863600349
30
0
41
1
10
5.78392641413552
20
2.5008237436054
30
0
41
1
10
5.57049710325037
20
2.52451642166932
30
0
41
1
10
5.46389385557635
20
2.5347647717752
30
0
41
1
10
5.25064690397906
20
2.55195957602084
30
0
41
1
10
5.14398088218067
20
2.55890090100522
30
0
41
1
10
4.85715913404434
20
2.57311511024108
30
0
41
1
10
4.67681549668416
20
2.57735775099036
30
0
41
1
10
4.49597544597239
20
2.5770233004358
30
0
0
SPLINE
5
105
100
AcDbEntity
8
1
62
256
6
ByLayer
370
18
48
1
60
0
100
AcDbSpline
70
4
71
3
72
62
73
58
40
0
40
0
40
0
40
0
40
0.0280504822871322
40
0.0280504822871322
40
0.0669284629956464
40
0.0669284629956464
40
0.10580644370416
40
0.10580644370416
40
0.144684424412675
40
0.144684424412675
40
0.183562405121189
40
0.183562405121189
40
0.222440385829703
40
0.222440385829703
40
0.261318366538217
40
0.261318366538217
40
0.300196347246731
40
0.300196347246731
40
0.339074327955246
40
0.339074327955246
40
0.37795230866376
40
0.37795230866376
40
0.416830289372274
40
0.416830289372274
40
0.455708270080788
40
0.455708270080788
40
0.475147260435046
40
0.475147260435046
40
0.494586250789304
40
0.494586250789304
40
0.533464231497819
40
0.533464231497819
40
0.572342212206335
40
0.572342212206335
40
0.611220192914851
40
0.611220192914851
40
0.650098173623366
40
0.650098173623366
40
0.688976154331882
40
0.688976154331882
40
0.727854135040397
40
0.727854135040397
40
0.766732115748913
40
0.766732115748913
40
0.805610096457429
40
0.805610096457429
40
0.825049086811686
40
0.825049086811686
40
0.844488077165943
40
0.844488077165943
40
0.883366057874457
40
0.883366057874457
40
0.922244038582971
40
0.922244038582971
40
0.961122019291486
40
0.961122019291486
40
1
40
1
40
1
40
1
41
1
10
8.34576778517092
20
1.90407323315571
30
0
41
1
10
8.44988585218661
20
1.93920061488655
30
0
41
1
10
8.55408600998186
20
1.97322607095902
30
0
41
1
10
8.80301502885058
20
2.05161131753465
30
0
41
1
10
8.94782179058109
20
2.09494447743808
30
0
41
1
10
9.23810868646657
20
2.17681933380459
30
0
41
1
10
9.38364797263512
20
2.21529244580714
30
0
41
1
10
9.67561533740653
20
2.28715319312849
30
0
41
1
10
9.82120546029054
20
2.32035253323846
30
0
41
1
10
10.1115843597924
20
2.38113514513131
30
0
41
1
10
10.256408680602
20
2.4087233315372
30
0
41
1
10
10.5455730243256
20
2.45816418972598
30
0
41
1
10
10.6898660332218
20
2.48004904452409
30
0
41
1
10
10.9781620363058
20
2.5179968814702
30
0
41
1
10
11.1222208037284
20
2.53403629282585
30
0
41
1
10
11.4102248901078
20
2.560268922321
30
0
41
1
10
11.5541600578778
20
2.57046246305853
30
0
41
1
10
11.8420801434355
20
2.58493455318396
30
0
41
1
10
11.9860679129162
20
2.58921102087504
30
0
41
1
10
12.2743368544237
20
2.59178766705835
30
0
41
1
10
12.4185690004553
20
2.59008738868692
30
0
41
1
10
12.7075322983116
20
2.5806602810589
30
0
41
1
10
12.852315910683
20
2.57294837205038
30
0
41
1
10
13.1425441386965
20
2.5514951351482
30
0
41
1
10
13.2879824040154
20
2.5377477631005
30
0
41
1
10
13.5067740666971
20
2.51256582213227
30
0
41
1
10
13.5796526384383
20
2.50342947177467
30
0
41
1
10
13.7251395946607
20
2.48372266058405
30
0
41
1
10
13.7977813082283
20
2.47314980768368
30
0
41
1
10
14.0154348700559
20
2.43930962237502
30
0
41
1
10
14.160130638406
20
2.41388675975173
30
0
41
1
10
14.4490414456882
20
2.35761655906731
30
0
41
1
10
14.5933028330924
20
2.32681474568489
30
0
41
1
10
14.8814760069491
20
2.25997533169266
30
0
41
1
10
15.0253870967759
20
2.22393337096688
30
0
41
1
10
15.3130470793341
20
2.14680860994989
30
0
41
1
10
15.4568020674479
20
2.10573184887224
30
0
41
1
10
15.7443825897451
20
2.01880687437793
30
0
41
1
10
15.8881565181031
20
1.97289142169777
30
0
41
1
10
16.1760130162333
20
1.87657502567558
30
0
41
1
10
16.3201381815415
20
1.82624053073289
30
0
41
1
10
16.6088116630599
20
1.72124395808024
30
0
41
1
10
16.7533615967787
20
1.66658053371097
30
0
41
1
10
17.0430839271097
20
1.55316344059085
30
0
41
1
10
17.1882638059501
20
1.49442174751027
30
0
41
1
10
17.4066780285356
20
1.40348501747229
30
0
41
1
10
17.4796277567597
20
1.37266549611439
30
0
41
1
10
17.6251669782136
20
1.31034828157075
30
0
41
1
10
17.6978249094767
20
1.2788295397373
30
0
41
1
10
17.9155429987868
20
1.18334608549361
30
0
41
1
10
18.0603747045125
20
1.11850687056398
30
0
41
1
10
18.3494403672196
20
0.986537500523809
30
0
41
1
10
18.4936796968105
20
0.919416693103699
30
0
41
1
10
18.7817672940497
20
0.783289755671916
30
0
41
1
10
18.9256251865781
20
0.714302407557597
30
0
41
1
10
19.2131703288882
20
0.574880931747487
30
0
41
1
10
19.3568081922741
20
0.504347804853921
30
0
41
1
10
19.500497679522
20
0.433365040299122
30
0
0
SPLINE
5
106
100
AcDbEntity
8
1
62
256
6
ByLayer
370
18
48
1
60
0
100
AcDbSpline
70
4
71
3
72
33
73
29
40
0
40
0
40
0
40
0
40
0.0872333922629818
40
0.0872333922629818
40
0.130850088394472
40
0.130850088394472
40
0.152658436460217
40
0.152658436460217
40
0.174466784525962
40
0.174466784525962
40
0.348933569051926
40
0.348933569051926
40
0.523400353577889
40
0.523400353577889
40
0.56701704970938
40
0.56701704970938
40
0.588825397775125
40
0.588825397775125
40
0.61063374584087
40
0.697867138103851
40
0.697867138103851
40
0.785100530366832
40
0.785100530366832
40
0.872333922629813
40
0.872333922629813
40
0.959567314892794
40
0.959567314892794
40
1
40
1
40
1
40
1
41
1
10
19.500497679522
20
0.471722970785663
30
0
41
1
10
19.768190168042
20
0.340227266848302
30
0
41
1
10
20.0354874065513
20
0.207035908506612
30
0
41
1
10
20.4367379494133
20
0.0064984125097851
30
0
41
1
10
20.5705394307637
20
-0.0604714629578496
30
0
41
1
10
20.7714384526442
20
-0.160872515557855
30
0
41
1
10
20.8384093804378
20
-0.19431624880167
30
0
41
1
10
20.9720921645378
20
-0.260972768830641
30
0
41
1
10
21.0388445607553
20
-0.294205813646442
30
0
41
1
10
21.6389065315759
20
-0.59226824029821
30
0
41
1
10
22.1673007661659
20
-0.84972303329738
30
0
41
1
10
23.2237303710556
20
-1.33138443148508
30
0
41
1
10
23.7518344282192
20
-1.55546650075189
30
0
41
1
10
24.4177995374188
20
-1.80372955765617
30
0
41
1
10
24.5512842249919
20
-1.85179127935999
30
0
41
1
10
24.7520685849625
20
-1.92128363822252
30
0
41
1
10
24.8189722343328
20
-1.94397313841125
30
0
41
1
10
24.9525345233616
20
-1.98830810900836
30
0
41
1
10
25.2859968795454
20
-2.0965958227055
30
0
41
1
10
25.6174979964959
20
-2.19188149766552
30
0
41
1
10
26.1466230536415
20
-2.32660023262457
30
0
41
1
10
26.4105471425168
20
-2.38508789487139
30
0
41
1
10
26.9383853787436
20
-2.4833155996744
30
0
41
1
10
27.2023027531491
20
-2.52305963240798
30
0
41
1
10
27.7312667083696
20
-2.58299277220397
30
0
41
1
10
27.9963141529608
20
-2.60317716437299
30
0
41
1
10
28.3859510161292
20
-2.61780646535018
30
0
41
1
10
28.5096076061177
20
-2.62025139424969
30
0
41
1
10
28.6335843855731
20
-2.62047114854556
30
0
0
SPLINE
5
107
100
AcDbEntity
8
1
62
256
6
ByLayer
370
18
48
1
60
0
100
AcDbSpline
70
4
71
3
72
15
73
11
40
0
40
0
40
0
40
0
40
0.422799398902448
40
0.422799398902448
40
0.711399699451229
40
0.711399699451229
40
0.783549774588418
40
0.783549774588418
40
0.855699849725609
40
1
40
1
40
1
40
1
41
1
10
42.2285673564048
20
2.27954714636763
30
0
41
1
10
42.6145285894545
20
2.37953638364786
30
0
41
1
10
43.0001641124952
20
2.46078504131293
30
0
41
1
10
43.6518056769259
20
2.56273053599935
30
0
41
1
10
43.9169208811072
20
2.59448234185251
30
0
41
1
10
44.2500619696452
20
2.62148048076554
30
0
41
1
10
44.3168148290583
20
2.62624775304758
30
0
41
1
10
44.4503288568446
20
2.6344857367198
30
0
41
1
10
44.650531183403
20
2.64489555654998
30
0
41
1
10
44.8506280073323
20
2.64945497913485
30
0
41
1
10
44.9840581205625
20
2.64989096387492
30
0
0
SPLINE
5
108
100
AcDbEntity
8
1
62
256
6
ByLayer
370
18
48
1
60
0
100
AcDbSpline
70
4
71
3
72
10
73
6
40
0
40
0
40
0
40
0
40
0.545802861265071
40
0.545802861265071
40
1
40
1
40
1
40
1
41
1
10
7.63146019638046
20
-1.64373363289829
30
0
41
1
10
7.0369962919662
20
-1.81041065585987
30
0
41
1
10
6.44541901894905
20
-1.97930960562391
30
0
41
1
10
5.36748969297219
20
-2.29097925871369
30
0
41
1
10
4.88007891007891
20
-2.43338563078387
30
0
41
1
10
4.39470738455319
20
-2.57630743073756
30
0
0
SPLINE
5
109
100
AcDbEntity
8
1
62
256
6
ByLayer
370
18
48
1
60
0
100
AcDbSpline
70
4
71
3
72
98
73
94
40
0
40
0
40
0
40
0
40
0.0625000000000359
40
0.0625000000000359
40
0.125000000000072
40
0.125000000000072
40
0.187500000000108
40
0.187500000000108
40
0.203125000000116
40
0.203125000000116
40
0.218750000000124
40
0.218750000000124
40
0.25000000000014
40
0.25000000000014
40
0.265625000000146
40
0.265625000000146
40
0.281250000000153
40
0.281250000000153
40
0.312500000000166
40
0.312500000000166
40
0.343750000000178
40
0.343750000000178
40
0.359375000000184
40
0.359375000000184
40
0.375000000000191
40
0.375000000000191
40
0.390625000000198
40
0.390625000000198
40
0.398437500000201
40
0.398437500000201
40
0.406250000000204
40
0.406250000000204
40
0.437500000000217
40
0.437500000000217
40
0.44531250000022
40
0.44531250000022
40
0.453125000000222
40
0.468750000000228
40
0.468750000000228
40
0.476562500000231
40
0.476562500000231
40
0.484375000000234
40
0.484375000000234
40
0.500000000000238
40
0.500000000000238
40
0.531250000000249
40
0.531250000000249
40
0.539062500000251
40
0.539062500000251
40
0.546875000000253
40
0.562500000000258
40
0.562500000000258
40
0.593750000000267
40
0.593750000000267
40
0.625000000000276
40
0.625000000000276
40
0.656250000000284
40
0.656250000000284
40
0.687500000000293
40
0.687500000000293
40
0.718750000000302
40
0.718750000000302
40
0.726562500000304
40
0.726562500000304
40
0.728515625000303
40
0.728515625000303
40
0.730468750000301
40
0.730468750000301
40
0.7324218750003
40
0.7324218750003
40
0.734375000000299
40
0.734375000000299
40
0.736328125000297
40
0.736328125000297
40
0.738281250000296
40
0.738281250000296
40
0.742187500000296
40
0.742187500000296
40
0.744140625000295
40
0.744140625000295
40
0.746093750000294
40
0.746093750000294
40
0.750000000000289
40
0.750000000000289
40
0.812500000000216
40
0.812500000000216
40
0.84375000000018
40
0.84375000000018
40
0.875000000000144
40
0.875000000000144
40
0.937500000000072
40
0.937500000000072
40
1
40
1
40
1
40
1
41
1
10
4.39454021012853
20
-2.57635693560235
30
0
41
1
10
4.24282788796663
20
-2.57463630258437
30
0
41
1
10
4.09272333272719
20
-2.56964962532584
30
0
41
1
10
3.79630671557535
20
-2.55164698979644
30
0
41
1
10
3.64998683307843
20
-2.5386492382768
30
0
41
1
10
3.36205904680176
20
-2.50232603042514
30
0
41
1
10
3.22043084837324
20
-2.47904761687579
30
0
41
1
10
3.04736985886495
20
-2.4409988292133
30
0
41
1
10
3.01297852798149
20
-2.43293781761446
30
0
41
1
10
2.94491252462277
20
-2.41588639884205
30
0
41
1
10
2.91120637333191
20
-2.40688937950651
30
0
41
1
10
2.81115711601865
20
-2.37835034206077
30
0
41
1
10
2.74587482201713
20
-2.35727259646728
30
0
41
1
10
2.65055296227035
20
-2.32186498285
30
0
41
1
10
2.61921444488624
20
-2.30942792359983
30
0
41
1
10
2.55751775996018
20
-2.28312178812317
30
0
41
1
10
2.52710444548677
20
-2.26922548820082
30
0
41
1
10
2.43795962893827
20
-2.22528868019719
30
0
41
1
10
2.38147107929282
20
-2.19312286748107
30
0
41
1
10
2.27594321460029
20
-2.12149888007653
30
0
41
1
10
2.22687706938436
20
-2.08206644838461
30
0
41
1
10
2.16082169553798
20
-2.01553828499209
30
0
41
1
10
2.14000976670124
20
-1.99201664025264
30
0
41
1
10
2.10214486672103
20
-1.94297542966032
30
0
41
1
10
2.08500213864588
20
-1.91738519700363
30
0
41
1
10
2.05474116606607
20
-1.86380531061613
30
0
41
1
10
2.04162122532674
20
-1.83581662053115
30
0
41
1
10
2.0253950770913
20
-1.79178097387194
30
0
41
1
10
2.02055128092891
20
-1.77670449767874
30
0
41
1
10
2.01221130901516
20
-1.74623552224276
30
0
41
1
10
2.00870015383725
20
-1.73081644164861
30
0
41
1
10
1.99446926798311
20
-1.6527927305051
30
0
41
1
10
1.99368928225476
20
-1.58741096937445
30
0
41
1
10
2.00679181192595
20
-1.50181976553114
30
0
41
1
10
2.01011473737455
20
-1.4845676112609
30
0
41
1
10
2.01803331460553
20
-1.45022647066179
30
0
41
1
10
2.0318480664686
20
-1.39877322450391
30
0
41
1
10
2.05118281787472
20
-1.34749398157697
30
0
41
1
10
2.07388469191969
20
-1.29633039459
30
0
41
1
10
2.0820139515873
20
-1.27929515737955
30
0
41
1
10
2.09935260740454
20
-1.24526337864788
30
0
41
1
10
2.10852253373795
20
-1.22834785166984
30
0
41
1
10
2.13725664352631
20
-1.17817547052425
30
0
41
1
10
2.158106032814
20
-1.14536166137035
30
0
41
1
10
2.22498776856978
20
-1.04855717430513
30
0
41
1
10
2.27531710425379
20
-0.986190292641453
30
0
41
1
10
2.34375844585614
20
-0.910357775283359
30
0
41
1
10
2.35774257023454
20
-0.895282697963864
30
0
41
1
10
2.38605665280301
20
-0.865525037478022
30
0
41
1
10
2.42910492007573
20
-0.821411380249486
30
0
41
1
10
2.47374629148035
20
-0.778743394018562
30
0
41
1
10
2.56486532114278
20
-0.695079401197205
30
0
41
1
10
2.62804615797987
20
-0.641520660070512
30
0
41
1
10
2.75821880788453
20
-0.537897920267341
30
0
41
1
10
2.82521797136829
20
-0.487840450006331
30
0
41
1
10
2.96234992604931
20
-0.390619268319853
30
0
41
1
10
3.03254047485348
20
-0.343430409057987
30
0
41
1
10
3.17469624339969
20
-0.252066339008081
30
0
41
1
10
3.24677549184295
20
-0.207810108373991
30
0
41
1
10
3.39261765196662
20
-0.121735272577496
30
0
41
1
10
3.46630007296048
20
-0.0799660778002647
30
0
41
1
10
3.55920315780074
20
-0.0291370450811996
30
0
41
1
10
3.57780478427094
20
-0.0190075376867753
30
0
41
1
10
3.60114901546945
20
-0.0065168631301731
30
0
41
1
10
3.6058992178296
20
-0.0041326238062993
30
0
41
1
10
3.61568018101005
20
-0.0001708469566211
30
0
41
1
10
3.62067440081196
20
0.0014825593493129
30
0
41
1
10
3.63089359413385
20
0.0040609001971461
30
0
41
1
10
3.63612428977237
20
0.0049889196007769
30
0
41
1
10
3.64653727126526
20
0.0063199627669803
30
0
41
1
10
3.65175211806948
20
0.0067247129633756
30
0
41
1
10
3.66220133978624
20
0.0069247436531157
30
0
41
1
10
3.6674337299404
20
0.006781968408518
30
0
41
1
10
3.67791260834835
20
0.0060564298689485
30
0
41
1
10
3.68317473566796
20
0.0054510406772863
30
0
41
1
10
3.69872100509428
20
0.003004677789562
30
0
41
1
10
3.70883653878488
20
0.0004990735206718
30
0
41
1
10
3.72379987911401
20
-0.0039979556241008
30
0
41
1
10
3.72876146815676
20
-0.0055891040742324
30
0
41
1
10
3.73869201426842
20
-0.008745487232261
30
0
41
1
10
3.74366071551233
20
-0.0103116217468937
30
0
41
1
10
3.7585590151545
20
-0.0150374874333181
30
0
41
1
10
3.76848730710245
20
-0.0182018230072742
30
0
41
1
10
3.9371937225427
20
-0.0722579738263676
30
0
41
1
10
4.0947911375886
20
-0.126769793780085
30
0
41
1
10
4.32929111486192
20
-0.213408154769382
30
0
41
1
10
4.40718017808072
20
-0.243109838027465
30
0
41
1
10
4.56218912153477
20
-0.303947076604089
30
0
41
1
10
4.63932800741381
20
-0.335083487896554
30
0
41
1
10
4.86972506211404
20
-0.430425217705249
30
0
41
1
10
5.02195300515109
20
-0.496585802473703
30
0
41
1
10
5.32415564156079
20
-0.6327759109206
30
0
41
1
10
5.47413837915028
20
-0.702787256668245
30
0
41
1
10
5.6232908267375
20
-0.773968824134528
30
0
0
SPLINE
5
10A
100
AcDbEntity
8
SK1
62
256
6
ByLayer
370
18
48
1
60
0
100
AcDbSpline
70
4
71
3
72
8
73
4
40
0
40
0
40
0
40
0
40
1
40
1
40
1
40
1
41
1
10
-35.75
20
-1.04787883872865
30
0
41
1
10
-35.8336522230937
20
-0.984470395766323
30
0
41
1
10
-35.9170267239987
20
-0.920876142199802
30
0
41
1
10
-36
20
-0.857013448282572
30
0
0
SPLINE
5
10B
100
AcDbEntity
8
SK1
62
256
6
ByLayer
370
18
48
1
60
0
100
AcDbSpline
70
4
71
3
72
22
73
18
40
0
40
0
40
0
40
0
40
0.0624999999999993
40
0.0624999999999993
40
0.124999999999999
40
0.124999999999999
40
0.249999999999999
40
0.249999999999999
40
0.374999999999999
40
0.374999999999999
40
0.5
40
0.5
40
0.625
40
0.625
40
0.75
40
0.75
40
1
40
1
40
1
40
1
41
1
10
-35.65
20
-1.21491481996603
30
0
41
1
10
-35.65
20
-1.21111691701
30
0
41
1
10
-35.6502718586019
20
-1.20714280597727
30
0
41
1
10
-35.6512913504498
20
-1.19907405955442
30
0
41
1
10
-35.652030658643
20
-1.19500942130767
30
0
41
1
10
-35.6548298230237
20
-1.18273851377222
30
0
41
1
10
-35.6575061245997
20
-1.17436667867727
30
0
41
1
10
-35.6638376796887
20
-1.15812994499021
30
0
41
1
10
-35.6674983282837
20
-1.15020303356454
30
0
41
1
10
-35.6756151818521
20
-1.1346574035048
30
0
41
1
10
-35.6800682064548
20
-1.12706625779001
30
0
41
1
10
-35.6893906957631
20
-1.11260507922137
30
0
41
1
10
-35.6942952881823
20
-1.10566918709591
30
0
41
1
10
-35.7045485857552
20
-1.09233043368738
30
0
41
1
10
-35.7099306774388
20
-1.08589278776515
30
0
41
1
10
-35.7265024515808
20
-1.0676527018002
30
0
41
1
10
-35.7380004903212
20
-1.05697447536454
30
0
41
1
10
-35.7500000000001
20
-1.04787883872865
30
0
0
SPLINE
5
10C
100
AcDbEntity
8
SK1
62
256
6
ByLayer
370
18
48
1
60
0
100
AcDbSpline
70
4
71
3
72
22
73
18
40
0
40
0
40
0
40
0
40
0.250000000000001
40
0.250000000000001
40
0.375000000000001
40
0.375000000000001
40
0.5
40
0.5
40
0.625
40
0.625
40
0.749999999999999
40
0.749999999999999
40
0.874999999999999
40
0.874999999999999
40
0.9375
40
0.9375
40
1
40
1
40
1
40
1
41
1
10
-35.75
20
-2.09330549613978
30
0
41
1
10
-35.7379956523281
20
-2.10240479997779
30
0
41
1
10
-35.7264866986603
20
-2.11017796441541
30
0
41
1
10
-35.7098921057742
20
-2.11992523554355
30
0
41
1
10
-35.7045257065493
20
-2.12281475834851
30
0
41
1
10
-35.6942964893128
20
-2.12776154999474
30
0
41
1
10
-35.6894060316865
20
-2.12983583817876
30
0
41
1
10
-35.6801144608566
20
-2.1330941194349
30
0
41
1
10
-35.6756964104891
20
-2.13428344854796
30
0
41
1
10
-35.6675285377629
20
-2.13553643679424
30
0
41
1
10
-35.6638529491706
20
-2.13559323852698
30
0
41
1
10
-35.6575076548177
20
-2.13429115920746
30
0
41
1
10
-35.6548318331324
20
-2.13290612517278
30
0
41
1
10
-35.6520304488211
20
-2.12950721882458
30
0
41
1
10
-35.65129058319
20
-2.12815256631978
30
0
41
1
10
-35.650270741394
20
-2.12491848488446
30
0
41
1
10
-35.65
20
-2.12304965050012
30
0
41
1
10
-35.65
20
-2.12095125638888
30
0
0
SPLINE
5
10D
100
AcDbEntity
8
SK1
62
256
6
ByLayer
370
18
48
1
60
0
100
AcDbSpline
70
4
71
3
72
8
73
4
40
0
40
0
40
0
40
0
40
1
40
1
40
1
40
1
41
1
10
-36
20
-1.90244010569353
30
0
41
1
10
-35.9170201205452
20
-1.96630788214276
30
0
41
1
10
-35.8336463276823
20
-2.02990152190324
30
0
41
1
10
-35.7499999999999
20
-2.09330549613966
30
0
0
SPLINE
5
10E
100
AcDbEntity
8
1
62
256
6
ByLayer
370
18
48
1
60
0
100
AcDbSpline
70
4
71
3
72
13
73
9
40
0
40
0
40
0
40
0
40
0.0754663630176191
40
0.184744623830511
40
0.335201543632813
40
0.526788118647282
40
0.759471067723281
40
1
40
1
40
1
40
1
41
1
10
44.5404762460217
20
0.638191409349417
30
0
41
1
10
44.4683787134965
20
0.662340264504081
30
0
41
1
10
44.2919945058524
20
0.721809997154224
30
0
41
1
10
43.9724577873917
20
0.831288921947987
30
0
41
1
10
43.5432063683365
20
0.981619330532595
30
0
41
1
10
42.9983107706938
20
1.17795323729712
30
0
41
1
10
42.3704310938544
20
1.41170178326865
30
0
41
1
10
41.9257340514639
20
1.58384139445636
30
0
41
1
10
41.700249262009
20
1.67278419166644
30
0
0
SPLINE
5
10F
100
AcDbEntity
8
1
62
256
6
ByLayer
370
18
48
1
60
0
100
AcDbSpline
70
4
71
3
72
28
73
24
40
0
40
0
40
0
40
0
40
6.17063152117E-05
40
0.0001431894920831
40
0.0001794562170092
40
0.0002134672287437
40
0.0004025274459641
40
0.0017604711179722
40
0.0028625813117828
40
0.0049139619323431
40
0.008842951140719
40
0.016707042846358
40
0.0334558723782415
40
0.0712325748872171
40
0.143383638440044
40
0.271443928799719
40
0.342120704394697
40
0.416392169229362
40
0.497080770402243
40
0.585614634328753
40
0.704669578868016
40
0.862042305232064
40
1
40
1
40
1
40
1
41
1
10
13.8572855969532
20
0.0043644375943472
30
0
41
1
10
13.8572955701916
20
0.0043647088771479
30
0
41
1
10
13.857301726351
20
0.0043703188190989
30
0
41
1
10
13.8572470163357
20
0.004395419232992
30
0
41
1
10
13.8571387979451
20
0.0044339092929988
30
0
41
1
10
13.8568672624955
20
0.0045230348787868
30
0
41
1
10
13.8545274275735
20
0.0052398351473357
30
0
41
1
10
13.8502343367856
20
0.0064925824612203
30
0
41
1
10
13.8432029194721
20
0.0085863351730211
30
0
41
1
10
13.8320505980236
20
0.0118883983619469
30
0
41
1
10
13.8102991867439
20
0.0183349388002227
30
0
41
1
10
13.7653378832947
20
0.0316454207790002
30
0
41
1
10
13.6669268407032
20
0.0608217397516739
30
0
41
1
10
13.4667569741353
20
0.120572085286142
30
0
41
1
10
13.0912741867662
20
0.234672325282133
30
0
41
1
10
12.6647515150553
20
0.368428515629859
30
0
41
1
10
12.2362357453071
20
0.506957074608465
30
0
41
1
10
11.8828284145322
20
0.623680647961294
30
0
41
1
10
11.5023467700267
20
0.75219557120019
30
0
41
1
10
11.0530851632762
20
0.907564939719578
30
0
41
1
10
10.4859113627724
20
1.10950620274429
30
0
41
1
10
9.84425059854206
20
1.34574194379565
30
0
41
1
10
9.38953345657808
20
1.52117515266619
30
0
41
1
10
9.17762438532222
20
1.60453285234547
30
0
0
SPLINE
5
110
100
AcDbEntity
8
1
62
256
6
ByLayer
370
18
48
1
60
0
100
AcDbSpline
70
4
71
3
72
28
73
24
40
0
40
0
40
0
40
0
40
3.14595509448E-05
40
6.87322474578E-05
40
0.0001270113401201
40
0.000171481182792
40
0.0002088168665745
40
0.000500481256832
40
0.0007406413566075
40
0.0011904985707441
40
0.0020619023540548
40
0.0038400972845457
40
0.0138181313216102
40
0.0372257252486015
40
0.0753290042974502
40
0.1565770956292
40
0.23796549752531
40
0.312819164614135
40
0.381136901383277
40
0.483723001927069
40
0.627609181853659
40
0.81298409293882
40
1
40
1
40
1
40
1
41
1
10
30.3317302168979
20
-0.033171077448543
30
0
41
1
10
30.3317380738491
20
-0.0331728099426982
30
0
41
1
10
30.3317460365047
20
-0.0331738578330487
30
0
41
1
10
30.331696104596
20
-0.0331565785790247
30
0
41
1
10
30.3316199274265
20
-0.0331311206680311
30
0
41
1
10
30.3314884496586
20
-0.0330890515479325
30
0
41
1
10
30.3309809981689
20
-0.0329305722931963
30
0
41
1
10
30.330093351184
20
-0.0326562939089285
30
0
41
1
10
30.3286957492217
20
-0.032224036361896
30
0
41
1
10
30.3263821855998
20
-0.0315140298092444
30
0
41
1
10
30.321732271471
20
-0.0300996663219166
30
0
41
1
10
30.3022061224849
20
-0.0242362217566949
30
0
41
1
10
30.2448504244425
20
-0.00741236018672
30
0
41
1
10
30.1276735116599
20
0.0270282987533506
30
0
41
1
10
29.8931205780374
20
0.0966298368797425
30
0
41
1
10
29.5633240712241
20
0.196511044356271
30
0
41
1
10
29.1740381237873
20
0.317651213351155
30
0
41
1
10
28.8067301955002
20
0.434865421188704
30
0
41
1
10
28.4056004869514
20
0.565776836236523
30
0
41
1
10
27.8931484398249
20
0.737407815406982
30
0
41
1
10
27.1927418763471
20
0.980716377044615
30
0
41
1
10
26.359364751947
20
1.28326402261064
30
0
41
1
10
25.7622454388825
20
1.51234524019054
30
0
41
1
10
25.4633141206012
20
1.63001617807961
30
0
0
SPLINE
5
111
100
AcDbEntity
8
1
62
256
6
ByLayer
370
18
48
1
60
0
100
AcDbSpline
70
4
71
3
72
23
73
19
40
0
40
0
40
0
40
0
40
0.108502985936239
40
0.192842580431942
40
0.258138728974745
40
0.309535761989059
40
0.357974184421864
40
0.418122185659445
40
0.498990101584853
40
0.563174629960604
40
0.619542535399966
40
0.693978020105927
40
0.76059029361266
40
0.815481708110107
40
0.863112455136244
40
0.926496177334188
40
0.994044450195928
40
1
40
1
40
1
40
1
41
1
10
29.2039877895786
20
-2.48910078161882
30
0
41
1
10
29.4043686049849
20
-2.48930034114866
30
0
41
1
10
29.7606377125983
20
-2.48973850185277
30
0
41
1
10
30.2382988362329
20
-2.491028369471
30
0
41
1
10
30.6098638930324
20
-2.49145551611315
30
0
41
1
10
30.9157084859854
20
-2.49195401173185
30
0
41
1
10
31.2118741001591
20
-2.4926159944867
30
0
41
1
10
31.5626402078099
20
-2.49343213011454
30
0
41
1
10
31.9425470456726
20
-2.49366251556981
30
0
41
1
10
32.315458564923
20
-2.49401374539374
30
0
41
1
10
32.676459781011
20
-2.49508373465608
30
0
41
1
10
33.0419554011575
20
-2.49607726820088
30
0
41
1
10
33.4047192106928
20
-2.49618936526622
30
0
41
1
10
33.7178571014327
20
-2.49611786302106
30
0
41
1
10
34.025014420106
20
-2.49655702842813
30
0
41
1
10
34.3556144253562
20
-2.49749265495376
30
0
41
1
10
34.6090254906184
20
-2.49799591405139
30
0
41
1
10
34.7451269129548
20
-2.4984018433845
30
0
41
1
10
34.7561544119393
20
-2.49843536920528
30
0
0
SPLINE
5
112
100
AcDbEntity
8
1
62
256
6
ByLayer
370
18
48
1
60
0
100
AcDbSpline
70
4
71
2
72
6
73
3
40
0
40
0
40
0
40
1
40
1
40
1
41
1
10
19.9713093397092
20
2.47477207092805
30
0
41
1
10
19.7860049520095
20
2.47416716949863
30
0
41
1
10
19.6012742461762
20
2.47172224042288
30
0
0
SPLINE
5
113
100
AcDbEntity
8
1
62
256
6
ByLayer
370
18
48
1
60
0
100
AcDbSpline
70
4
71
3
72
23
73
19
40
0
40
0
40
0
40
0
40
0.109766000241995
40
0.185123747059931
40
0.226808228280868
40
0.267467206964185
40
0.328137058907791
40
0.386035060192706
40
0.428202830871433
40
0.492503768410646
40
0.572101290174665
40
0.668769332211766
40
0.726166808525756
40
0.792359754751498
40
0.874449613724073
40
0.934208869717033
40
0.982852167491851
40
1
40
1
40
1
40
1
41
1
10
36.3508884449012
20
2.50035372828378
30
0
41
1
10
36.1480882844938
20
2.49991172925897
30
0
41
1
10
35.806058181487
20
2.49935568448407
30
0
41
1
10
35.3867154282213
20
2.49977007228094
30
0
41
1
10
35.0954606192634
20
2.49946967105546
30
0
41
1
10
34.831192207694
20
2.49868515938073
30
0
41
1
10
34.5368747899066
20
2.49777905922551
30
0
41
1
10
34.2397984939265
20
2.49721049370154
30
0
41
1
10
33.9360023508717
20
2.49634834327276
30
0
41
1
10
33.5921005047663
20
2.49607795567206
30
0
41
1
10
33.1474652466558
20
2.49629141277725
30
0
41
1
10
32.7155921232787
20
2.49521021177407
30
0
41
1
10
32.3084942405609
20
2.49399146606248
30
0
41
1
10
31.9283393905602
20
2.49366057920403
30
0
41
1
10
31.5438229661173
20
2.49340376765329
30
0
41
1
10
31.1917299912261
20
2.49256578526652
30
0
41
1
10
30.959703567472
20
2.49205532309688
30
0
41
1
10
30.8380727847907
20
2.49183780435837
30
0
41
1
10
30.8063726075447
20
2.49178396483131
30
0
0
SPLINE
5
114
100
AcDbEntity
8
1
62
256
6
ByLayer
370
18
48
1
60
0
100
AcDbSpline
70
4
71
1
72
4
73
2
40
0
40
0
40
1
40
1
41
1
10
37.3781672071369
20
-0.0002592803097627
30
0
41
1
10
37.3781558528038
20
-0.0002576568520283
30
0
0
LINE
5
82
100
AcDbEntity
8
4
62
256
6
ByLayer
370
18
48
0.05
60
0
100
AcDbLine
10
0
20
0
30
0
11
46
21
0
31
0
39
0
210
0
220
0
230
1
0
LINE
5
84
100
AcDbEntity
8
81
62
256
6
ByLayer
370
18
48
1
60
0
100
AcDbLine
10
46
20
0
30
0
11
49
21
0
31
0
39
0
210
0
220
0
230
1
0
LINE
5
85
100
AcDbEntity
8
80
62
256
6
ByLayer
370
18
48
1
60
0
100
AcDbLine
10
0
20
0
30
0
11
-3
21
0
31
0
39
0
210
0
220
0
230
1
0
LINE
5
86
100
AcDbEntity
8
SK4
62
256
6
ByLayer
370
18
48
0.05
60
0
100
AcDbLine
10
-39
20
0
30
0
11
49
21
0
31
0
39
0
210
0
220
0
230
1
0
LINE
5
88
100
AcDbEntity
8
1
62
256
6
ByLayer
370
18
48
1
60
0
100
AcDbLine
10
0
20
3
30
0
11
0
21
-3
31
0
39
0
210
0
220
0
230
1
0
LINE
5
89
100
AcDbEntity
8
1
62
256
6
ByLayer
370
13
48
1
60
0
100
AcDbLine
10
45.935759
20
0.299018
30
0
11
45.334822
21
0.842653
31
0
39
0
210
0
220
0
230
1
0
LINE
5
8A
100
AcDbEntity
8
1
62
256
6
ByLayer
370
13
48
1
60
0
100
AcDbLine
10
0.545208
20
-2.785447
30
0
11
0.545208
21
2.785447
31
0
39
0
210
0
220
0
230
1
0
LINE
5
8B
100
AcDbEntity
8
1
62
256
6
ByLayer
370
18
48
1
60
0
100
AcDbLine
10
19.500498
20
2.604032
30
0
11
19.500498
21
0.811787
31
0
39
0
210
0
220
0
230
1
0
LINE
5
8C
100
AcDbEntity
8
1
62
256
6
ByLayer
370
18
48
1
60
0
100
AcDbLine
10
19.500498
20
-2.602597
30
0
11
19.500498
21
-2.604032
31
0
39
0
210
0
220
0
230
1
0
LINE
5
8D
100
AcDbEntity
8
1
62
256
6
ByLayer
370
18
48
1
60
0
100
AcDbLine
10
19.500498
20
0.471723
30
0
11
19.500498
21
0.433365
31
0
39
0
210
0
220
0
230
1
0
LINE
5
8E
100
AcDbEntity
8
1
62
256
6
ByLayer
370
13
48
1
60
0
100
AcDbLine
10
1.091855
20
-2.570896
30
0
11
1.091855
21
2.570896
31
0
39
0
210
0
220
0
230
1
0
LINE
5
8F
100
AcDbEntity
8
SK1
62
256
6
ByLayer
370
18
48
1
60
0
100
AcDbLine
10
-36
20
-0.856995
30
0
11
-36
21
-1.90244
31
0
39
0
210
0
220
0
230
1
0
LINE
5
91
100
AcDbEntity
8
SK1
62
256
6
ByLayer
370
13
48
1
60
0
100
AcDbLine
10
-35.75
20
-2.093305
30
0
11
-35.75
21
-1.047831
31
0
39
0
210
0
220
0
230
1
0
LINE
5
92
100
AcDbEntity
8
SK1
62
256
6
ByLayer
370
18
48
1
60
0
100
AcDbLine
10
-35.65
20
-2.120951
30
0
11
-35.65
21
-1.214915
31
0
39
0
210
0
220
0
230
1
0
LINE
5
93
100
AcDbEntity
8
SK1
62
256
6
ByLayer
370
18
48
1
60
0
100
AcDbLine
10
-36
20
-2.065
30
0
11
-36
21
-1.90244
31
0
39
0
210
0
220
0
230
1
0
LINE
5
94
100
AcDbEntity
8
SK1
62
256
6
ByLayer
370
18
48
1
60
0
100
AcDbLine
10
-36
20
2.065
30
0
11
-36
21
-0.857013
31
0
39
0
210
0
220
0
230
1
0
LINE
5
95
100
AcDbEntity
8
SK1
62
256
6
ByLayer
370
18
48
1
60
0
100
AcDbLine
10
0
20
3
30
0
11
0
21
-3
31
0
39
0
210
0
220
0
230
1
0
LINE
5
96
100
AcDbEntity
8
SK1
62
256
6
ByLayer
370
18
48
1
60
0
100
AcDbLine
10
-35.065
20
-3
30
0
11
-35.065
21
3
31
0
39
0
210
0
220
0
230
1
0
LINE
5
97
100
AcDbEntity
8
1
62
256
6
ByLayer
370
18
48
1
60
0
100
AcDbLine
10
1.091855
20
-2.570896
30
0
11
4.495422
21
-2.577022
31
0
39
0
210
0
220
0
230
1
0
LINE
5
98
100
AcDbEntity
8
1
62
256
6
ByLayer
370
18
48
1
60
0
100
AcDbLine
10
12.204587
20
-2.590899
30
0
11
19.500498
21
-2.604032
31
0
39
0
210
0
220
0
230
1
0
LINE
5
99
100
AcDbEntity
8
1
62
256
6
ByLayer
370
18
48
1
60
0
100
AcDbLine
10
19.995173
20
-2.604922
30
0
11
20.799913
21
-2.606371
31
0
39
0
210
0
220
0
230
1
0
LINE
5
9A
100
AcDbEntity
8
1
62
256
6
ByLayer
370
18
48
1
60
0
100
AcDbLine
10
28.633388
20
-2.620471
30
0
11
29.202324
21
-2.621495
31
0
39
0
210
0
220
0
230
1
0
LINE
5
9B
100
AcDbEntity
8
1
62
256
6
ByLayer
370
18
48
1
60
0
100
AcDbLine
10
36.350631
20
-2.634362
30
0
11
37.102287
21
-2.635715
31
0
39
0
210
0
220
0
230
1
0
LINE
5
9C
100
AcDbEntity
8
1
62
256
6
ByLayer
370
18
48
1
60
0
100
AcDbLine
10
37.102287
20
2.635715
30
0
11
36.350631
21
2.634362
31
0
39
0
210
0
220
0
230
1
0
LINE
5
9D
100
AcDbEntity
8
1
62
256
6
ByLayer
370
18
48
1
60
0
100
AcDbLine
10
29.202324
20
2.621495
30
0
11
28.633388
21
2.620471
31
0
39
0
210
0
220
0
230
1
0
LINE
5
9E
100
AcDbEntity
8
1
62
256
6
ByLayer
370
18
48
1
60
0
100
AcDbLine
10
20.799913
20
2.606371
30
0
11
19.995173
21
2.604922
31
0
39
0
210
0
220
0
230
1
0
LINE
5
9F
100
AcDbEntity
8
1
62
256
6
ByLayer
370
18
48
1
60
0
100
AcDbLine
10
19.500498
20
2.604032
30
0
11
12.204587
21
2.590899
31
0
39
0
210
0
220
0
230
1
0
LINE
5
A0
100
AcDbEntity
8
1
62
256
6
ByLayer
370
18
48
1
60
0
100
AcDbLine
10
4.495422
20
2.577022
30
0
11
1.091855
21
2.570896
31
0
39
0
210
0
220
0
230
1
0
LINE
5
A1
100
AcDbEntity
8
SK1
62
256
6
ByLayer
370
18
48
1
60
0
100
AcDbLine
10
-36
20
-2.065
30
0
11
-35.065
21
-3
31
0
39
0
210
0
220
0
230
1
0
LINE
5
A2
100
AcDbEntity
8
SK1
62
256
6
ByLayer
370
18
48
1
60
0
100
AcDbLine
10
-35.065
20
3
30
0
11
-36
21
2.065
31
0
39
0
210
0
220
0
230
1
0
LINE
5
A3
100
AcDbEntity
8
SK1
62
256
6
ByLayer
370
18
48
1
60
0
100
AcDbLine
10
-35.065
20
-3
30
0
11
0
21
-3
31
0
39
0
210
0
220
0
230
1
0
LINE
5
A4
100
AcDbEntity
8
SK1
62
256
6
ByLayer
370
18
48
1
60
0
100
AcDbLine
10
0
20
3
30
0
11
-35.065
21
3
31
0
39
0
210
0
220
0
230
1
0
LINE
5
A5
100
AcDbEntity
8
2
62
256
6
ByLayer
370
13
48
1
60
0
100
AcDbLine
10
53.5
20
26.949084
30
0
11
53.5
21
-10.15
31
0
39
0
210
0
220
0
230
1
0
LINE
5
A7
100
AcDbEntity
8
2
62
256
6
ByLayer
370
13
48
1
60
0
100
AcDbLine
10
47.5875
20
2.65
30
0
11
55.5
21
2.65
31
0
39
0
210
0
220
0
230
1
0
LINE
5
A8
100
AcDbEntity
8
2
62
256
6
ByLayer
370
13
48
1
60
0
100
AcDbLine
10
47.5875
20
-2.65
30
0
11
55.5
21
-2.65
31
0
39
0
210
0
220
0
230
1
0
LINE
5
A9
100
AcDbEntity
8
1
62
256
6
ByLayer
370
18
48
1
60
1
100
AcDbLine
10
53.5
20
2.65
30
0
11
53.039216
21
6.149998
31
0
39
0
210
0
220
0
230
1
0
LINE
5
AA
100
AcDbEntity
8
1
62
256
6
ByLayer
370
18
48
1
60
1
100
AcDbLine
10
53.039216
20
6.149998
30
0
11
53.960784
21
6.150002
31
0
39
0
210
0
220
0
230
1
0
LINE
5
AB
100
AcDbEntity
8
1
62
256
6
ByLayer
370
18
48
1
60
1
100
AcDbLine
10
53.960784
20
6.150002
30
0
11
53.5
21
2.65
31
0
39
0
210
0
220
0
230
1
0
LINE
5
AC
100
AcDbEntity
8
1
62
256
6
ByLayer
370
18
48
1
60
1
100
AcDbLine
10
53.5
20
-2.65
30
0
11
53.960784
21
-6.149998
31
0
39
0
210
0
220
0
230
1
0
LINE
5
AD
100
AcDbEntity
8
1
62
256
6
ByLayer
370
18
48
1
60
1
100
AcDbLine
10
53.960784
20
-6.149998
30
0
11
53.039216
21
-6.150002
31
0
39
0
210
0
220
0
230
1
0
LINE
5
AE
100
AcDbEntity
8
1
62
256
6
ByLayer
370
18
48
1
60
1
100
AcDbLine
10
53.039216
20
-6.150002
30
0
11
53.5
21
-2.65
31
0
39
0
210
0
220
0
230
1
0
LINE
5
AF
100
AcDbEntity
8
SK2
62
256
6
ByLayer
370
13
48
1
60
0
100
AcDbLine
10
-44.5
20
13.841828
30
0
11
-44.5
21
-10.5
31
0
39
0
210
0
220
0
230
1
0
LINE
5
B1
100
AcDbEntity
8
SK2
62
256
6
ByLayer
370
13
48
1
60
0
100
AcDbLine
10
-37.5875
20
3
30
0
11
-46.5
21
3
31
0
39
0
210
0
220
0
230
1
0
LINE
5
B2
100
AcDbEntity
8
SK2
62
256
6
ByLayer
370
13
48
1
60
0
100
AcDbLine
10
-37.5875
20
-3
30
0
11
-46.5
21
-3
31
0
39
0
210
0
220
0
230
1
0
LINE
5
B3
100
AcDbEntity
8
1
62
256
6
ByLayer
370
18
48
1
60
1
100
AcDbLine
10
-44.5
20
3
30
0
11
-44.960784
21
6.499998
31
0
39
0
210
0
220
0
230
1
0
LINE
5
B4
100
AcDbEntity
8
1
62
256
6
ByLayer
370
18
48
1
60
1
100
AcDbLine
10
-44.960784
20
6.499998
30
0
11
-44.039216
21
6.500002
31
0
39
0
210
0
220
0
230
1
0
LINE
5
B5
100
AcDbEntity
8
1
62
256
6
ByLayer
370
18
48
1
60
1
100
AcDbLine
10
-44.039216
20
6.500002
30
0
11
-44.5
21
3
31
0
39
0
210
0
220
0
230
1
0
LINE
5
B6
100
AcDbEntity
8
1
62
256
6
ByLayer
370
18
48
1
60
1
100
AcDbLine
10
-44.5
20
-3
30
0
11
-44.039216
21
-6.499998
31
0
39
0
210
0
220
0
230
1
0
LINE
5
B7
100
AcDbEntity
8
1
62
256
6
ByLayer
370
18
48
1
60
1
100
AcDbLine
10
-44.039216
20
-6.499998
30
0
11
-44.960784
21
-6.500002
31
0
39
0
210
0
220
0
230
1
0
LINE
5
B8
100
AcDbEntity
8
1
62
256
6
ByLayer
370
18
48
1
60
1
100
AcDbLine
10
-44.960784
20
-6.500002
30
0
11
-44.5
21
-3
31
0
39
0
210
0
220
0
230
1
0
LINE
5
B9
100
AcDbEntity
8
SK2
62
256
6
ByLayer
370
13
48
1
60
0
100
AcDbLine
10
46.543195
20
1.491675
30
0
11
52.875233
21
18.880175
31
0
39
0
210
0
220
0
230
1
0
LINE
5
BA
100
AcDbEntity
8
SK2
62
256
6
ByLayer
370
13
48
1
60
0
100
AcDbLine
10
46.543195
20
-1.491675
30
0
11
52.875233
21
-18.880175
31
0
39
0
210
0
220
0
230
1
0
LINE
5
BB
100
AcDbEntity
8
1
62
256
6
ByLayer
370
18
48
1
60
1
100
AcDbLine
10
52.190893
20
17.000899
30
0
11
55.596438
21
16.071072
31
0
39
0
210
0
220
0
230
1
0
LINE
5
BC
100
AcDbEntity
8
1
62
256
6
ByLayer
370
18
48
1
60
1
100
AcDbLine
10
55.596438
20
16.071072
30
0
11
55.239742
21
15.221333
31
0
39
0
210
0
220
0
230
1
0
LINE
5
BD
100
AcDbEntity
8
1
62
256
6
ByLayer
370
18
48
1
60
1
100
AcDbLine
10
55.239742
20
15.221333
30
0
11
52.190893
21
17.000899
31
0
39
0
210
0
220
0
230
1
0
LINE
5
BE
100
AcDbEntity
8
1
62
256
6
ByLayer
370
18
48
1
60
1
100
AcDbLine
10
52.190893
20
-17.000899
30
0
11
55.239739
21
-15.221335
31
0
39
0
210
0
220
0
230
1
0
LINE
5
BF
100
AcDbEntity
8
1
62
256
6
ByLayer
370
18
48
1
60
1
100
AcDbLine
10
55.239739
20
-15.221335
30
0
11
55.596441
21
-16.07107
31
0
39
0
210
0
220
0
230
1
0
LINE
5
C0
100
AcDbEntity
8
1
62
256
6
ByLayer
370
18
48
1
60
1
100
AcDbLine
10
55.596441
20
-16.07107
30
0
11
52.190893
21
-17.000899
31
0
39
0
210
0
220
0
230
1
0
LINE
5
115
100
AcDbEntity
8
1
62
256
6
ByLayer
370
13
48
0.05
60
0
100
AcDbLine
10
-42.5
20
0
30
0
11
51.534176
21
0
31
0
39
0
210
0
220
0
230
1
0
LINE
5
11A
100
AcDbEntity
8
1
62
256
6
ByLayer
370
18
48
1
60
1
100
AcDbLine
10
53.5
20
2.65
30
0
11
53.039216
21
6.149998
31
0
39
0
210
0
220
0
230
1
0
LINE
5
11B
100
AcDbEntity
8
1
62
256
6
ByLayer
370
18
48
1
60
1
100
AcDbLine
10
53.039216
20
6.149998
30
0
11
53.960784
21
6.150002
31
0
39
0
210
0
220
0
230
1
0
LINE
5
11C
100
AcDbEntity
8
1
62
256
6
ByLayer
370
18
48
1
60
1
100
AcDbLine
10
53.960784
20
6.150002
30
0
11
53.5
21
2.65
31
0
39
0
210
0
220
0
230
1
0
LINE
5
11E
100
AcDbEntity
8
1
62
256
6
ByLayer
370
18
48
1
60
1
100
AcDbLine
10
53.5
20
-2.65
30
0
11
53.960784
21
-6.149998
31
0
39
0
210
0
220
0
230
1
0
LINE
5
11F
100
AcDbEntity
8
1
62
256
6
ByLayer
370
18
48
1
60
1
100
AcDbLine
10
53.960784
20
-6.149998
30
0
11
53.039216
21
-6.150002
31
0
39
0
210
0
220
0
230
1
0
LINE
5
120
100
AcDbEntity
8
1
62
256
6
ByLayer
370
18
48
1
60
1
100
AcDbLine
10
53.039216
20
-6.150002
30
0
11
53.5
21
-2.65
31
0
39
0
210
0
220
0
230
1
0
LINE
5
124
100
AcDbEntity
8
1
62
256
6
ByLayer
370
18
48
1
60
1
100
AcDbLine
10
-44.5
20
3
30
0
11
-44.960784
21
6.499998
31
0
39
0
210
0
220
0
230
1
0
LINE
5
125
100
AcDbEntity
8
1
62
256
6
ByLayer
370
18
48
1
60
1
100
AcDbLine
10
-44.960784
20
6.499998
30
0
11
-44.039216
21
6.500002
31
0
39
0
210
0
220
0
230
1
0
LINE
5
126
100
AcDbEntity
8
1
62
256
6
ByLayer
370
18
48
1
60
1
100
AcDbLine
10
-44.039216
20
6.500002
30
0
11
-44.5
21
3
31
0
39
0
210
0
220
0
230
1
0
LINE
5
128
100
AcDbEntity
8
1
62
256
6
ByLayer
370
18
48
1
60
1
100
AcDbLine
10
-44.5
20
-3
30
0
11
-44.039216
21
-6.499998
31
0
39
0
210
0
220
0
230
1
0
LINE
5
129
100
AcDbEntity
8
1
62
256
6
ByLayer
370
18
48
1
60
1
100
AcDbLine
10
-44.039216
20
-6.499998
30
0
11
-44.960784
21
-6.500002
31
0
39
0
210
0
220
0
230
1
0
LINE
5
12A
100
AcDbEntity
8
1
62
256
6
ByLayer
370
18
48
1
60
1
100
AcDbLine
10
-44.960784
20
-6.500002
30
0
11
-44.5
21
-3
31
0
39
0
210
0
220
0
230
1
0
LINE
5
12D
100
AcDbEntity
8
1
62
256
6
ByLayer
370
18
48
1
60
1
100
AcDbLine
10
52.190893
20
17.000899
30
0
11
55.596438
21
16.071072
31
0
39
0
210
0
220
0
230
1
0
LINE
5
12E
100
AcDbEntity
8
1
62
256
6
ByLayer
370
18
48
1
60
1
100
AcDbLine
10
55.596438
20
16.071072
30
0
11
55.239742
21
15.221333
31
0
39
0
210
0
220
0
230
1
0
LINE
5
12F
100
AcDbEntity
8
1
62
256
6
ByLayer
370
18
48
1
60
1
100
AcDbLine
10
55.239742
20
15.221333
30
0
11
52.190893
21
17.000899
31
0
39
0
210
0
220
0
230
1
0
LINE
5
131
100
AcDbEntity
8
1
62
256
6
ByLayer
370
18
48
1
60
1
100
AcDbLine
10
52.190893
20
-17.000899
30
0
11
55.239739
21
-15.221335
31
0
39
0
210
0
220
0
230
1
0
LINE
5
132
100
AcDbEntity
8
1
62
256
6
ByLayer
370
18
48
1
60
1
100
AcDbLine
10
55.239739
20
-15.221335
30
0
11
55.596441
21
-16.07107
31
0
39
0
210
0
220
0
230
1
0
LINE
5
133
100
AcDbEntity
8
1
62
256
6
ByLayer
370
18
48
1
60
1
100
AcDbLine
10
55.596441
20
-16.07107
30
0
11
52.190893
21
-17.000899
31
0
39
0
210
0
220
0
230
1
0
MTEXT
5
116
100
AcDbEntity
8
2
62
256
6
ByLayer
370
18
48
1
60
0
100
AcDbMText
10
52.158886
20
16.308438
30
0
210
0
220
0
230
1
1
%%c
40
3
41
0
44
1.084337
50
90
71
7
72
5
7
iso_b_vert
0
MTEXT
5
119
100
AcDbEntity
8
2
62
256
6
ByLayer
370
18
48
1
60
0
100
AcDbMText
10
52.158886
20
22.285
30
0
210
0
220
0
230
1
1
\W0.7121;5.3
40
3
41
0
44
1.084337
50
90
71
7
72
5
7
iso_b_vert
0
MTEXT
5
122
100
AcDbEntity
8
SK2
62
256
6
ByLayer
370
18
48
1
60
0
100
AcDbMText
10
-45.841114
20
6.658437
30
0
210
0
220
0
230
1
1
%%c
40
3
41
0
44
1.084337
50
90
71
7
72
5
7
iso_b_vert
0
MTEXT
5
123
100
AcDbEntity
8
SK2
62
256
6
ByLayer
370
18
48
1
60
0
100
AcDbMText
10
-45.841114
20
12.635
30
0
210
0
220
0
230
1
1
\W0.5404;6
40
3
41
0
44
1.084337
50
90
71
7
72
5
7
iso_b_vert
0
MTEXT
5
12C
100
AcDbEntity
8
SK2
62
256
6
ByLayer
370
18
48
1
60
0
100
AcDbMText
10
60.652373
20
-2.114886
30
0
210
0
220
0
230
1
1
\W0.7071;140%%d
40
3
41
0
44
1.084337
50
0
71
7
72
5
7
iso_b_vert
0
MTEXT
5
135
100
AcDbEntity
8
SK6
62
256
6
ByLayer
370
18
48
1
60
0
100
AcDbMText
10
-20.244253
20
-77.114886
30
0
210
0
220
0
230
1
1
\W0.7522;860.1-0530-027A1-SD S2BM
40
3
41
0
44
1.084337
50
0
71
7
72
5
7
iso_b_vert
0
HATCH
5
11D
100
AcDbEntity
8
2
62
256
6
ByLayer
370
13
48
1
60
0
100
AcDbHatch
10
0
20
0
30
0
210
0
220
0
230
1
2
ANSI31
70
0
71
0
91
1
92
5
93
3
72
1
10
53.5
20
2.65000000000001
11
53.0392162584472
21
6.14999830744682
72
1
10
53.0392162584472
20
6.14999830744682
11
53.9607837415528
21
6.15000169255319
72
1
10
53.9607837415528
20
6.15000169255319
11
53.5
21
2.65000000000001
97
0
75
0
76
1
52
0
41
0.0062
77
0
78
1
53
45
43
0
44
0
45
-0.0139193969876572
46
0.0139193969876572
79
0
47
0
98
1
10
0
20
0
0
HATCH
5
121
100
AcDbEntity
8
2
62
256
6
ByLayer
370
13
48
1
60
0
100
AcDbHatch
10
0
20
0
30
0
210
0
220
0
230
1
2
ANSI31
70
0
71
0
91
1
92
5
93
3
72
1
10
53.5
20
-2.65000000000001
11
53.9607837415528
21
-6.14999830744682
72
1
10
53.9607837415528
20
-6.14999830744682
11
53.0392162584472
21
-6.15000169255319
72
1
10
53.0392162584472
20
-6.15000169255319
11
53.5
21
-2.65000000000001
97
0
75
0
76
1
52
0
41
0.0062
77
0
78
1
53
45
43
0
44
0
45
-0.0139193969876572
46
0.0139193969876572
79
0
47
0
98
1
10
0
20
0
0
HATCH
5
127
100
AcDbEntity
8
SK2
62
256
6
ByLayer
370
13
48
1
60
0
100
AcDbHatch
10
0
20
0
30
0
210
0
220
0
230
1
2
ANSI31
70
0
71
0
91
1
92
5
93
3
72
1
10
-44.5
20
3
11
-44.9607837415528
21
6.49999830744682
72
1
10
-44.9607837415528
20
6.49999830744682
11
-44.0392162584472
21
6.50000169255318
72
1
10
-44.0392162584472
20
6.50000169255318
11
-44.5
21
3
97
0
75
0
76
1
52
0
41
0.0062
77
0
78
1
53
45
43
0
44
0
45
-0.0139193969876572
46
0.0139193969876572
79
0
47
0
98
1
10
0
20
0
0
HATCH
5
12B
100
AcDbEntity
8
SK2
62
256
6
ByLayer
370
13
48
1
60
0
100
AcDbHatch
10
0
20
0
30
0
210
0
220
0
230
1
2
ANSI31
70
0
71
0
91
1
92
5
93
3
72
1
10
-44.5
20
-3
11
-44.0392162584472
21
-6.49999830744682
72
1
10
-44.0392162584472
20
-6.49999830744682
11
-44.9607837415528
21
-6.50000169255318
72
1
10
-44.9607837415528
20
-6.50000169255318
11
-44.5
21
-3
97
0
75
0
76
1
52
0
41
0.0062
77
0
78
1
53
45
43
0
44
0
45
-0.0139193969876572
46
0.0139193969876572
79
0
47
0
98
1
10
0
20
0
0
HATCH
5
130
100
AcDbEntity
8
SK2
62
256
6
ByLayer
370
13
48
1
60
0
100
AcDbHatch
10
0
20
0
30
0
210
0
220
0
230
1
2
ANSI31
70
0
71
0
91
1
92
5
93
3
72
1
10
52.1908932876059
20
17.000898665447
11
55.5964375451543
21
16.0710717361268
72
1
10
55.5964375451543
20
16.0710717361268
11
55.2397424191136
21
15.2213334158258
72
1
10
55.2397424191136
20
15.2213334158258
11
52.1908932876059
21
17.000898665447
97
0
75
0
76
1
52
0
41
0.0062
77
0
78
1
53
45
43
0
44
0
45
-0.0139193969876572
46
0.0139193969876572
79
0
47
0
98
1
10
0
20
0
0
HATCH
5
134
100
AcDbEntity
8
SK2
62
256
6
ByLayer
370
13
48
1
60
0
100
AcDbHatch
10
0
20
0
30
0
210
0
220
0
230
1
2
ANSI31
70
0
71
0
91
1
92
5
93
3
72
1
10
52.1908932876059
20
-17.000898665447
11
55.2397392978553
21
-15.2213347260517
72
1
10
55.2397392978553
20
-15.2213347260517
11
55.5964406664126
21
-16.0710704259009
72
1
10
55.5964406664126
20
-16.0710704259009
11
52.1908932876059
21
-17.000898665447
97
0
75
0
76
1
52
0
41
0.0062
77
0
78
1
53
45
43
0
44
0
45
-0.0139193969876572
46
0.0139193969876572
79
0
47
0
98
1
10
0
20
0
0
DIMENSION
5
138
100
AcDbEntity
8
SK2
62
256
6
ByLayer
370
18
48
1
60
0
100
AcDbDimension
2
_U0
10
18.6
20
-18.248635
30
0
11
32.3
21
-18.248635
31
0
70
32
71
1
72
1
41
1
210
0
220
0
230
1
3
Standard
100
AcDbAlignedDimension
13
46
23
-2.65
33
0
14
18.6
24
-2.65
34
0
50
0
100
AcDbRotatedDimension
1001
ACAD
1000
DSTYLE
1002
{
1070
   371
1070
    13
1070
   372
1070
    13
1070
   170
1070
     0
1070
   144
1040
1.0
1070
   277
1070
     2
1070
   284
1070
     8
1070
   278
1070
    46
1070
   146
1040
1.166667
1070
   345
1005
16
1070
   347
1005
16
1070
   346
1005
16
1070
   344
1005
0
1070
   343
1005
0
1070
   172
1070
     1
1070
    76
1070
     0
1070
    75
1070
     0
1070
   282
1070
     0
1070
   281
1070
     0
1070
     3
1000

1070
    71
1070
     0
1070
    74
1070
     0
1070
   279
1070
     0
1070
   173
1070
     1
1070
   340
1005
117
1070
   271
1070
     2
1070
   272
1070
     2
1070
    77
1070
     1
1070
    73
1070
     1
1070
   171
1070
     3
1070
   274
1070
     4
1070
   177
1070
     2
1070
   176
1070
     2
1070
   178
1070
     2
1070
    78
1070
     8
1070
    48
1040
-0.1
1070
    41
1040
3.5
1070
   147
1040
1.5
1070
    42
1040
1.5875
1070
    44
1040
2.0
1070
   140
1040
3.0
1002
}
1001
ACAD_DSTYLE_DIM_LINETYPE
1070
   380
1005
16
1001
ACAD_DSTYLE_DIM_EXT1_LINETYPE
1070
   381
1005
16
1001
ACAD_DSTYLE_DIM_EXT2_LINETYPE
1070
   382
1005
16
0
DIMENSION
5
153
100
AcDbEntity
8
SK2
62
256
6
ByLayer
370
18
48
1
60
0
100
AcDbDimension
2
_U1
10
2
20
-28.248635
30
0
11
24
21
-28.248635
31
0
70
32
71
1
72
1
41
1
210
0
220
0
230
1
3
Standard
100
AcDbAlignedDimension
13
46
23
-2.65
33
0
14
2
24
-2.65
34
0
50
0
100
AcDbRotatedDimension
1001
ACAD
1000
DSTYLE
1002
{
1070
   371
1070
    13
1070
   372
1070
    13
1070
     3
1000

1070
   170
1070
     0
1070
   144
1040
1.0
1070
   277
1070
     2
1070
   284
1070
     8
1070
   278
1070
    46
1070
   146
1040
1.166667
1070
   345
1005
16
1070
   347
1005
16
1070
   346
1005
16
1070
   344
1005
0
1070
   343
1005
0
1070
   172
1070
     1
1070
    76
1070
     0
1070
    75
1070
     0
1070
   282
1070
     0
1070
   281
1070
     0
1070
    71
1070
     0
1070
    74
1070
     0
1070
   279
1070
     0
1070
   173
1070
     1
1070
   340
1005
117
1070
   271
1070
     2
1070
   272
1070
     2
1070
    77
1070
     1
1070
    73
1070
     1
1070
   171
1070
     3
1070
   274
1070
     4
1070
   177
1070
     2
1070
   176
1070
     2
1070
   178
1070
     2
1070
    78
1070
     8
1070
    48
1040
-0.1
1070
    41
1040
3.5
1070
   147
1040
1.5
1070
    42
1040
1.5875
1070
    44
1040
2.0
1070
   140
1040
3.0
1002
}
1001
ACAD_DSTYLE_DIM_LINETYPE
1070
   380
1005
16
1001
ACAD_DSTYLE_DIM_EXT1_LINETYPE
1070
   381
1005
16
1001
ACAD_DSTYLE_DIM_EXT2_LINETYPE
1070
   382
1005
16
0
DIMENSION
5
16B
100
AcDbEntity
8
SK2
62
256
6
ByLayer
370
18
48
1
60
0
100
AcDbDimension
2
_U2
10
0
20
-36.248635
30
0
11
-18
21
-36.248635
31
0
70
32
71
1
72
1
41
1
210
0
220
0
230
1
3
Standard
100
AcDbAlignedDimension
13
-36
23
-3
33
0
14
0
24
-3
34
0
50
0
100
AcDbRotatedDimension
1001
ACAD
1000
DSTYLE
1002
{
1070
   371
1070
    13
1070
   372
1070
    13
1070
     3
1000

1070
   170
1070
     0
1070
   144
1040
1.0
1070
   277
1070
     2
1070
   284
1070
     8
1070
   278
1070
    46
1070
   146
1040
1.166667
1070
   345
1005
16
1070
   347
1005
16
1070
   346
1005
16
1070
   344
1005
0
1070
   343
1005
0
1070
   172
1070
     1
1070
    76
1070
     0
1070
    75
1070
     0
1070
   282
1070
     0
1070
   281
1070
     0
1070
    71
1070
     0
1070
    74
1070
     0
1070
   279
1070
     0
1070
   173
1070
     1
1070
   340
1005
117
1070
   271
1070
     2
1070
   272
1070
     2
1070
    77
1070
     1
1070
    73
1070
     1
1070
   171
1070
     3
1070
   274
1070
     4
1070
   177
1070
     2
1070
   176
1070
     2
1070
   178
1070
     2
1070
    78
1070
     8
1070
    48
1040
-0.1
1070
    41
1040
3.5
1070
   147
1040
1.5
1070
    42
1040
1.5875
1070
    44
1040
2.0
1070
   140
1040
3.0
1002
}
1001
ACAD_DSTYLE_DIM_LINETYPE
1070
   380
1005
16
1001
ACAD_DSTYLE_DIM_EXT1_LINETYPE
1070
   381
1005
16
1001
ACAD_DSTYLE_DIM_EXT2_LINETYPE
1070
   382
1005
16
0
DIMENSION
5
183
100
AcDbEntity
8
SK2
62
256
6
ByLayer
370
18
48
1
60
0
100
AcDbDimension
2
_U3
10
46
20
-44.248635
30
0
11
5
21
-44.248635
31
0
70
32
71
1
72
1
41
1
210
0
220
0
230
1
3
Standard
100
AcDbAlignedDimension
13
-36
23
-3
33
0
14
46
24
-2.65
34
0
50
0
100
AcDbRotatedDimension
1001
ACAD
1000
DSTYLE
1002
{
1070
   371
1070
    13
1070
   372
1070
    13
1070
     3
1000

1070
   170
1070
     0
1070
   144
1040
1.0
1070
   277
1070
     2
1070
   284
1070
     8
1070
   278
1070
    46
1070
   146
1040
1.166667
1070
   345
1005
16
1070
   347
1005
16
1070
   346
1005
16
1070
   344
1005
0
1070
   343
1005
0
1070
   172
1070
     1
1070
    76
1070
     0
1070
    75
1070
     0
1070
   282
1070
     0
1070
   281
1070
     0
1070
    71
1070
     0
1070
    74
1070
     0
1070
   279
1070
     0
1070
   173
1070
     1
1070
   340
1005
117
1070
   271
1070
     2
1070
   272
1070
     2
1070
    77
1070
     1
1070
    73
1070
     1
1070
   171
1070
     3
1070
   274
1070
     4
1070
   177
1070
     2
1070
   176
1070
     2
1070
   178
1070
     2
1070
    78
1070
     8
1070
    48
1040
-0.1
1070
    41
1040
3.5
1070
   147
1040
1.5
1070
    42
1040
1.5875
1070
    44
1040
2.0
1070
   140
1040
3.0
1002
}
1001
ACAD_DSTYLE_DIM_LINETYPE
1070
   380
1005
16
1001
ACAD_DSTYLE_DIM_EXT1_LINETYPE
1070
   381
1005
16
1001
ACAD_DSTYLE_DIM_EXT2_LINETYPE
1070
   382
1005
16
0
DIMENSION
5
19B
100
AcDbEntity
8
2
62
256
6
ByLayer
370
18
48
1
60
0
100
AcDbDimension
2
_U4
10
0
20
-36.248635
30
0
11
23
21
-36.248635
31
0
70
32
71
1
72
1
41
1
210
0
220
0
230
1
3
Standard
100
AcDbAlignedDimension
13
46
23
-2.65
33
0
14
0
24
-2.65
34
0
50
0
100
AcDbRotatedDimension
1001
ACAD
1000
DSTYLE
1002
{
1070
   371
1070
    13
1070
   372
1070
    13
1070
     3
1000

1070
   170
1070
     0
1070
   144
1040
1.0
1070
   277
1070
     2
1070
   284
1070
     8
1070
   278
1070
    46
1070
   146
1040
1.166667
1070
   345
1005
16
1070
   347
1005
16
1070
   346
1005
16
1070
   344
1005
0
1070
   343
1005
0
1070
   172
1070
     1
1070
    76
1070
     0
1070
    75
1070
     0
1070
   282
1070
     0
1070
   281
1070
     0
1070
    71
1070
     0
1070
    74
1070
     0
1070
   279
1070
     0
1070
   173
1070
     1
1070
   340
1005
117
1070
   271
1070
     2
1070
   272
1070
     2
1070
    77
1070
     1
1070
    73
1070
     1
1070
   171
1070
     3
1070
   274
1070
     4
1070
   177
1070
     2
1070
   176
1070
     2
1070
   178
1070
     2
1070
    78
1070
     8
1070
    48
1040
-0.1
1070
    41
1040
3.5
1070
   147
1040
1.5
1070
    42
1040
1.5875
1070
    44
1040
2.0
1070
   140
1040
3.0
1002
}
1001
ACAD_DSTYLE_DIM_LINETYPE
1070
   380
1005
16
1001
ACAD_DSTYLE_DIM_EXT1_LINETYPE
1070
   381
1005
16
1001
ACAD_DSTYLE_DIM_EXT2_LINETYPE
1070
   382
1005
16
0
ENDSEC
0
SECTION
2
OBJECTS
0
DICTIONARY
5
223
330
0
100
AcDbDictionary
280
0
281
1
3
ACAD_GROUP
350
224
3
ACAD_MLINESTYLE
350
225
0
DICTIONARY
5
224
330
0
100
AcDbDictionary
280
0
281
1
0
DICTIONARY
5
225
330
0
100
AcDbDictionary
280
0
281
1
3
Standard
350
18
0
MLINESTYLE
5
18
330
225
100
AcDbMlineStyle
2
Standard
70
0
3

62
256
51
90
52
90
71
2
49
-0.5
62
256
6
ByLayer
49
0.5
62
256
6
ByLayer
0
RASTERVARIABLES
5
211
330

100
AcDbRasterVariables
90
0
70
1
71
1
72
1
0
ENDSEC
0
EOF
