0
SECTION
2
HEADER
9
$ACADVER
1
AC1015
9
$DWGCODEPAGE
3
ANSI_1252
9
$HANDSEED
5
222
9
$ANGBASE
50
0
9
$ANGDIR
70
0
9
$ATTMODE
70
1
9
$AUNITS
70
0
9
$AUPREC
70
0
9
$CECOLOR
62
256
9
$CELTSCALE
40
1
9
$CELTYPE
6
ByLayer
9
$CELWEIGHT
370
18
9
$CLAYER
8
0
9
$CMLJUST
70
0
9
$CMLSCALE
40
1
9
$CMLSTYLE
2
Standard
9
$DIMSTYLE
2
Standard
9
$TEXTSIZE
40
0.2
9
$TEXTSTYLE
7
Standard
9
$LUNITS
70
2
9
$LUPREC
70
4
9
$EXTNAMES
290
1
9
$INSUNITS
70
4
9
$LTSCALE
40
1
9
$LWDISPLAY
290
1
9
$PDMODE
70
0
9
$PDSIZE
40
0
9
$PLINEGEN
70
0
0
ENDSEC
0
SECTION
2
CLASSES
0
CLASS
1
RASTERVARIABLES
2
AcDbRasterVariables
3
ISM
90
0
280
0
281
0
0
ENDSEC
0
SECTION
2
TABLES
0
TABLE
2
VPORT
5
218
100
AcDbSymbolTable
0
VPORT
5
1
100
AcDbSymbolTableRecord
100
AcDbViewportTableRecord
2
*Active
70
0
10
0
20
0
11
1
21
1
12
-1
22
1
13
0
23
0
14
0.5
24
0.5
15
10
25
10
16
0
26
0
36
1
17
0
27
0
37
0
0
ENDTAB
0
TABLE
2
LTYPE
5
219
100
AcDbSymbolTable
0
LTYPE
5
14
100
AcDbSymbolTableRecord
100
AcDbLinetypeTableRecord
70
0
2
ByBlock
3

72
65
73
0
40
0
0
LTYPE
5
15
100
AcDbSymbolTableRecord
100
AcDbLinetypeTableRecord
70
0
2
ByLayer
3

72
65
73
0
40
0
0
LTYPE
5
16
100
AcDbSymbolTableRecord
100
AcDbLinetypeTableRecord
70
0
2
Continuous
3
Solid line
72
65
73
0
40
0
0
LTYPE
5
6E
100
AcDbSymbolTableRecord
100
AcDbLinetypeTableRecord
70
0
2
CENTER
3
____ _ ____ _ ____ _ ____
72
65
73
4
40
47.5
49
22
74
0
49
-8.5
74
0
49
8.5
74
0
49
-8.5
74
0
0
LTYPE
5
6F
100
AcDbSymbolTableRecord
100
AcDbLinetypeTableRecord
70
0
2
DASHED
3
__ __ __ __ __ __ __ __ __
72
65
73
2
40
25.72
49
12.86
74
0
49
-12.86
74
0
0
ENDTAB
0
TABLE
2
LAYER
5
21a
100
AcDbSymbolTable
0
LAYER
5
10
100
AcDbSymbolTableRecord
100
AcDbLayerTableRecord
2
0
70
0
62
7
6
Continuous
290
1
370
-3
390
0
0
LAYER
5
71
100
AcDbSymbolTableRecord
100
AcDbLayerTableRecord
2
80
70
0
62
-6
6
Continuous
290
1
370
-3
390
0
0
LAYER
5
73
100
AcDbSymbolTableRecord
100
AcDbLayerTableRecord
2
81
70
0
62
-3
6
Continuous
290
1
370
-3
390
0
0
LAYER
5
75
100
AcDbSymbolTableRecord
100
AcDbLayerTableRecord
2
1
70
0
62
4
6
Continuous
290
1
370
-3
390
0
0
LAYER
5
83
100
AcDbSymbolTableRecord
100
AcDbLayerTableRecord
2
4
70
0
62
-2
6
CENTER
290
1
370
-3
390
0
0
LAYER
5
A4
100
AcDbSymbolTableRecord
100
AcDbLayerTableRecord
2
2
70
0
62
7
6
Continuous
290
1
370
-3
390
0
0
LAYER
5
12D
100
AcDbSymbolTableRecord
100
AcDbLayerTableRecord
2
Defpoints
70
0
62
7
6
Continuous
290
0
370
-3
390
0
0
LAYER
5
204
100
AcDbSymbolTableRecord
100
AcDbLayerTableRecord
2
SK4
70
0
62
2
6
CENTER
290
1
370
-3
390
0
0
LAYER
5
205
100
AcDbSymbolTableRecord
100
AcDbLayerTableRecord
2
SK1
70
0
62
4
6
Continuous
290
1
370
-3
390
0
0
LAYER
5
206
100
AcDbSymbolTableRecord
100
AcDbLayerTableRecord
2
SK2
70
0
62
7
6
Continuous
290
1
370
-3
390
0
0
LAYER
5
207
100
AcDbSymbolTableRecord
100
AcDbLayerTableRecord
2
SK6
70
0
62
5
6
Continuous
290
1
370
-3
390
0
0
ENDTAB
0
TABLE
2
STYLE
5
21b
100
AcDbSymbolTable
0
STYLE
5
11
100
AcDbSymbolTableRecord
100
AcDbTextStyleTableRecord
2
Standard
3
txt
70
0
71
0
40
0
41
1
42
0
50
0
0
STYLE
5
109
100
AcDbSymbolTableRecord
100
AcDbTextStyleTableRecord
2
iso_b_vert
3
simplex.shx
70
0
71
0
40
0
41
1
42
0
50
0
0
STYLE
5
10A
100
AcDbSymbolTableRecord
100
AcDbTextStyleTableRecord
2
DWGDirectTextStyle
3
simplex
70
0
71
0
40
0
41
1
42
0
50
0
0
ENDTAB
0
TABLE
2
DIMSTYLE
5
21c
100
AcDbSymbolTable
100
AcDbDimStyleTable
0
DIMSTYLE
105
27
100
AcDbSymbolTableRecord
100
AcDbDimStyleTableRecord
2
Standard
70
0
3
<>
41
0.18
42
0.0625
44
0.18
140
0.18
147
0.09
73
0
74
0
77
1
271
2
275
0
278
52
280
0
340
11
0
ENDTAB
0
TABLE
2
VIEW
5
21d
100
AcDbSymbolTable
0
ENDTAB
0
TABLE
2
UCS
5
21e
100
AcDbSymbolTable
0
ENDTAB
0
TABLE
2
APPID
5
21f
100
AcDbSymbolTable
0
APPID
5
12
100
AcDbSymbolTableRecord
100
AcDbRegAppTableRecord
2
ACAD
70
0
0
APPID
5
129
100
AcDbSymbolTableRecord
100
AcDbRegAppTableRecord
2
ACAD_DSTYLE_DIMBREAK
70
0
0
APPID
5
1C3
100
AcDbSymbolTableRecord
100
AcDbRegAppTableRecord
2
ACAD_DSTYLE_DIM_LINETYPE
70
0
0
APPID
5
1C4
100
AcDbSymbolTableRecord
100
AcDbRegAppTableRecord
2
ACAD_DSTYLE_DIM_EXT1_LINETYPE
70
0
0
APPID
5
1C5
100
AcDbSymbolTableRecord
100
AcDbRegAppTableRecord
2
ACAD_DSTYLE_DIM_EXT2_LINETYPE
70
0
0
APPID
5
200
100
AcDbSymbolTableRecord
100
AcDbRegAppTableRecord
2
ACAD_MLEADERVER
70
0
0
ENDTAB
0
TABLE
2
BLOCK_RECORD
5
220
100
AcDbSymbolTable
0
BLOCK_RECORD
5
1F
100
AcDbSymbolTableRecord
100
AcDbBlockTableRecord
2
*Model_Space
340
0
70
0
0
BLOCK_RECORD
5
1B
100
AcDbSymbolTableRecord
100
AcDbBlockTableRecord
2
*Paper_Space
340
0
70
0
0
BLOCK_RECORD
5
23
100
AcDbSymbolTableRecord
100
AcDbBlockTableRecord
2
*Paper_Space0
340
0
70
0
0
BLOCK_RECORD
5
12E
100
AcDbSymbolTableRecord
100
AcDbBlockTableRecord
2
*D1
340
0
70
0
0
BLOCK_RECORD
5
13A
100
AcDbSymbolTableRecord
100
AcDbBlockTableRecord
2
_U0
340
0
70
0
0
BLOCK_RECORD
5
148
100
AcDbSymbolTableRecord
100
AcDbBlockTableRecord
2
*D3
340
0
70
0
0
BLOCK_RECORD
5
154
100
AcDbSymbolTableRecord
100
AcDbBlockTableRecord
2
_U1
340
0
70
0
0
BLOCK_RECORD
5
160
100
AcDbSymbolTableRecord
100
AcDbBlockTableRecord
2
*D5
340
0
70
0
0
BLOCK_RECORD
5
16C
100
AcDbSymbolTableRecord
100
AcDbBlockTableRecord
2
_U2
340
0
70
0
0
BLOCK_RECORD
5
178
100
AcDbSymbolTableRecord
100
AcDbBlockTableRecord
2
*D7
340
0
70
0
0
BLOCK_RECORD
5
184
100
AcDbSymbolTableRecord
100
AcDbBlockTableRecord
2
_U3
340
0
70
0
0
BLOCK_RECORD
5
190
100
AcDbSymbolTableRecord
100
AcDbBlockTableRecord
2
*D9
340
0
70
0
0
BLOCK_RECORD
5
19C
100
AcDbSymbolTableRecord
100
AcDbBlockTableRecord
2
_U4
340
0
70
0
0
ENDTAB
0
ENDSEC
0
SECTION
2
BLOCKS
0
BLOCK
5
20
100
AcDbEntity
8
0
100
AcDbBlockBegin
2
*Model_Space
70
0
10
0
20
0
30
0
3
*Model_Space
0
ENDBLK
5
21
100
AcDbEntity
8
0
100
AcDbBlockEnd
0
BLOCK
5
1C
100
AcDbEntity
8
0
100
AcDbBlockBegin
2
*Paper_Space
70
0
10
0
20
0
30
0
3
*Paper_Space
0
ENDBLK
5
1D
100
AcDbEntity
8
0
100
AcDbBlockEnd
0
BLOCK
5
24
100
AcDbEntity
8
0
100
AcDbBlockBegin
2
*Paper_Space0
70
0
10
0
20
0
30
0
3
*Paper_Space0
0
ENDBLK
5
25
100
AcDbEntity
8
0
100
AcDbBlockEnd
0
BLOCK
5
12F
100
AcDbEntity
8
0
100
AcDbBlockBegin
2
*D1
70
1
10
0
20
0
30
0
3
*D1
0
LINE
5
131
100
AcDbEntity
8
0
62
256
6
ByLayer
370
-2
48
1
60
0
100
AcDbLine
10
30
20
-4.167
30
0
11
30
21
-20.16203
31
0
39
0
210
0
220
0
230
1
0
LINE
5
132
100
AcDbEntity
8
0
62
256
6
ByLayer
370
-2
48
1
60
0
100
AcDbLine
10
13.6
20
-4.167
30
0
11
13.6
21
-20.16203
31
0
39
0
210
0
220
0
230
1
0
LINE
5
133
100
AcDbEntity
8
0
62
256
6
ByLayer
370
-2
48
1
60
0
100
AcDbLine
10
26.5
20
-18.16203
30
0
11
17.1
21
-18.16203
31
0
39
0
210
0
220
0
230
1
0
SOLID
5
134
100
AcDbEntity
8
0
62
256
6
ByLayer
370
-1
48
1
60
0
100
AcDbTrace
10
26.5
20
-18.745364
30
0
11
26.5
21
-17.578697
31
0
12
30
22
-18.16203
32
0
13
30
23
-18.16203
33
0
39
0
210
0
220
0
230
1
0
SOLID
5
135
100
AcDbEntity
8
0
62
256
6
ByLayer
370
-1
48
1
60
0
100
AcDbTrace
10
17.1
20
-17.578697
30
0
11
17.1
21
-18.745364
31
0
12
13.6
22
-18.16203
32
0
13
13.6
23
-18.16203
33
0
39
0
210
0
220
0
230
1
0
MTEXT
5
136
100
AcDbEntity
8
0
62
256
6
ByLayer
370
18
48
1
60
0
100
AcDbMText
10
21.8
20
-12.16203
30
0
210
0
220
0
230
1
1
\A1;16.4
40
3
41
0
44
1
50
0
71
5
72
5
7
iso_b_vert
0
POINT
5
137
100
AcDbEntity
8
Defpoints
62
0
6
ByLayer
370
-1
48
1
60
0
100
AcDbPoint
10
30
20
-2.5795
30
0
39
0
210
0
220
0
230
1
50
360
0
POINT
5
138
100
AcDbEntity
8
Defpoints
62
0
6
ByLayer
370
-1
48
1
60
0
100
AcDbPoint
10
13.6
20
-2.5795
30
0
39
0
210
0
220
0
230
1
50
360
0
POINT
5
139
100
AcDbEntity
8
Defpoints
62
0
6
ByLayer
370
-1
48
1
60
0
100
AcDbPoint
10
13.6
20
-18.16203
30
0
39
0
210
0
220
0
230
1
50
360
0
ENDBLK
5
130
100
AcDbEntity
8
0
100
AcDbBlockEnd
0
BLOCK
5
143
100
AcDbEntity
8
0
100
AcDbBlockBegin
2
_U0
70
0
10
0
20
0
30
0
3
_U0
0
MTEXT
5
13B
100
AcDbEntity
8
SK2
62
256
6
ByLayer
370
18
48
1
60
0
100
AcDbMText
10
18.655544
20
-15.964416
30
0
210
0
220
0
230
1
1
\W0.6756;16.4
40
3
41
0
44
1.084337
50
0
71
7
72
5
7
iso_b_vert
0
MTEXT
5
13C
100
AcDbEntity
8
SK2
62
256
6
ByLayer
370
18
48
1
60
0
100
AcDbMText
10
16.555544
20
-15.964416
30
0
210
0
220
0
230
1
1
\W1.1313;{\H1.88x;(}
40
3
41
0
44
1.084337
50
0
71
7
72
5
7
iso_b_vert
0
MTEXT
5
13D
100
AcDbEntity
8
SK2
62
256
6
ByLayer
370
18
48
1
60
0
100
AcDbMText
10
25.262456
20
-15.964416
30
0
210
0
220
0
230
1
1
\W1.1313;{\H1.88x;)}
40
3
41
0
44
1.084337
50
0
71
7
72
5
7
iso_b_vert
0
LINE
5
13E
100
AcDbEntity
8
SK2
62
256
6
ByLayer
370
13
48
1
60
0
100
AcDbLine
10
30
20
-4.167
30
0
11
30
21
-20.16203
31
0
39
0
210
0
220
0
230
1
0
LINE
5
13F
100
AcDbEntity
8
SK2
62
256
6
ByLayer
370
13
48
1
60
0
100
AcDbLine
10
13.6
20
-4.167
30
0
11
13.6
21
-20.16203
31
0
39
0
210
0
220
0
230
1
0
LINE
5
140
100
AcDbEntity
8
SK2
62
256
6
ByLayer
370
13
48
1
60
0
100
AcDbLine
10
30
20
-18.16203
30
0
11
13.6
21
-18.16203
31
0
39
0
210
0
220
0
230
1
0
SOLID
5
141
100
AcDbEntity
8
SK2
62
256
6
ByLayer
370
18
48
1
60
0
100
AcDbTrace
10
30
20
-18.16203
30
0
11
26.500002
21
-18.622814
31
0
12
26.499998
22
-17.701247
32
0
13
26.499998
23
-17.701247
33
0
39
0
210
0
220
0
230
1
0
SOLID
5
142
100
AcDbEntity
8
SK2
62
256
6
ByLayer
370
18
48
1
60
0
100
AcDbTrace
10
13.6
20
-18.16203
30
0
11
17.099998
21
-17.701247
31
0
12
17.100002
22
-18.622814
32
0
13
17.100002
23
-18.622814
33
0
39
0
210
0
220
0
230
1
0
ENDBLK
5
144
100
AcDbEntity
8
0
100
AcDbBlockEnd
0
BLOCK
5
149
100
AcDbEntity
8
0
100
AcDbBlockBegin
2
*D3
70
1
10
0
20
0
30
0
3
*D3
0
LINE
5
14B
100
AcDbEntity
8
0
62
256
6
ByLayer
370
-2
48
1
60
0
100
AcDbLine
10
30
20
-4.167
30
0
11
30
21
-30.16203
31
0
39
0
210
0
220
0
230
1
0
LINE
5
14C
100
AcDbEntity
8
0
62
256
6
ByLayer
370
-2
48
1
60
0
100
AcDbLine
10
2
20
-4.167
30
0
11
2
21
-30.16203
31
0
39
0
210
0
220
0
230
1
0
LINE
5
14D
100
AcDbEntity
8
0
62
256
6
ByLayer
370
-2
48
1
60
0
100
AcDbLine
10
26.5
20
-28.16203
30
0
11
5.5
21
-28.16203
31
0
39
0
210
0
220
0
230
1
0
SOLID
5
14E
100
AcDbEntity
8
0
62
256
6
ByLayer
370
-1
48
1
60
0
100
AcDbTrace
10
26.5
20
-28.745364
30
0
11
26.5
21
-27.578697
31
0
12
30
22
-28.16203
32
0
13
30
23
-28.16203
33
0
39
0
210
0
220
0
230
1
0
SOLID
5
14F
100
AcDbEntity
8
0
62
256
6
ByLayer
370
-1
48
1
60
0
100
AcDbTrace
10
5.5
20
-27.578697
30
0
11
5.5
21
-28.745364
31
0
12
2
22
-28.16203
32
0
13
2
23
-28.16203
33
0
39
0
210
0
220
0
230
1
0
MTEXT
5
150
100
AcDbEntity
8
0
62
256
6
ByLayer
370
18
48
1
60
0
100
AcDbMText
10
16
20
-22.16203
30
0
210
0
220
0
230
1
1
\A1;28
40
3
41
0
44
1
50
0
71
5
72
5
7
iso_b_vert
0
POINT
5
151
100
AcDbEntity
8
Defpoints
62
0
6
ByLayer
370
-1
48
1
60
0
100
AcDbPoint
10
30
20
-2.5795
30
0
39
0
210
0
220
0
230
1
50
360
0
POINT
5
152
100
AcDbEntity
8
Defpoints
62
0
6
ByLayer
370
-1
48
1
60
0
100
AcDbPoint
10
2
20
-2.5795
30
0
39
0
210
0
220
0
230
1
50
360
0
POINT
5
153
100
AcDbEntity
8
Defpoints
62
0
6
ByLayer
370
-1
48
1
60
0
100
AcDbPoint
10
2
20
-28.16203
30
0
39
0
210
0
220
0
230
1
50
360
0
ENDBLK
5
14A
100
AcDbEntity
8
0
100
AcDbBlockEnd
0
BLOCK
5
15B
100
AcDbEntity
8
0
100
AcDbBlockBegin
2
_U1
70
0
10
0
20
0
30
0
3
_U1
0
MTEXT
5
155
100
AcDbEntity
8
SK2
62
256
6
ByLayer
370
18
48
1
60
0
100
AcDbMText
10
14.367172
20
-27.276916
30
0
210
0
220
0
230
1
1
\W0.6740;28
40
3
41
0
44
1.084337
50
0
71
7
72
5
7
iso_b_vert
0
LINE
5
156
100
AcDbEntity
8
SK2
62
256
6
ByLayer
370
13
48
1
60
0
100
AcDbLine
10
30
20
-4.167
30
0
11
30
21
-30.16203
31
0
39
0
210
0
220
0
230
1
0
LINE
5
157
100
AcDbEntity
8
SK2
62
256
6
ByLayer
370
13
48
1
60
0
100
AcDbLine
10
2
20
-4.167
30
0
11
2
21
-30.16203
31
0
39
0
210
0
220
0
230
1
0
LINE
5
158
100
AcDbEntity
8
SK2
62
256
6
ByLayer
370
13
48
1
60
0
100
AcDbLine
10
30
20
-28.16203
30
0
11
2
21
-28.16203
31
0
39
0
210
0
220
0
230
1
0
SOLID
5
159
100
AcDbEntity
8
SK2
62
256
6
ByLayer
370
18
48
1
60
0
100
AcDbTrace
10
30
20
-28.16203
30
0
11
26.500002
21
-28.622814
31
0
12
26.499998
22
-27.701247
32
0
13
26.499998
23
-27.701247
33
0
39
0
210
0
220
0
230
1
0
SOLID
5
15A
100
AcDbEntity
8
SK2
62
256
6
ByLayer
370
18
48
1
60
0
100
AcDbTrace
10
2
20
-28.16203
30
0
11
5.499998
21
-27.701247
31
0
12
5.500002
22
-28.622814
32
0
13
5.500002
23
-28.622814
33
0
39
0
210
0
220
0
230
1
0
ENDBLK
5
15C
100
AcDbEntity
8
0
100
AcDbBlockEnd
0
BLOCK
5
161
100
AcDbEntity
8
0
100
AcDbBlockBegin
2
*D5
70
1
10
0
20
0
30
0
3
*D5
0
LINE
5
163
100
AcDbEntity
8
0
62
256
6
ByLayer
370
-2
48
1
60
0
100
AcDbLine
10
-36
20
-4.5875
30
0
11
-36
21
-38.16203
31
0
39
0
210
0
220
0
230
1
0
LINE
5
164
100
AcDbEntity
8
0
62
256
6
ByLayer
370
-2
48
1
60
0
100
AcDbLine
10
0
20
-4.5875
30
0
11
0
21
-38.16203
31
0
39
0
210
0
220
0
230
1
0
LINE
5
165
100
AcDbEntity
8
0
62
256
6
ByLayer
370
-2
48
1
60
0
100
AcDbLine
10
-32.5
20
-36.16203
30
0
11
-3.5
21
-36.16203
31
0
39
0
210
0
220
0
230
1
0
SOLID
5
166
100
AcDbEntity
8
0
62
256
6
ByLayer
370
-1
48
1
60
0
100
AcDbTrace
10
-32.5
20
-35.578697
30
0
11
-32.5
21
-36.745364
31
0
12
-36
22
-36.16203
32
0
13
-36
23
-36.16203
33
0
39
0
210
0
220
0
230
1
0
SOLID
5
167
100
AcDbEntity
8
0
62
256
6
ByLayer
370
-1
48
1
60
0
100
AcDbTrace
10
-3.5
20
-36.745364
30
0
11
-3.5
21
-35.578697
31
0
12
0
22
-36.16203
32
0
13
0
23
-36.16203
33
0
39
0
210
0
220
0
230
1
0
MTEXT
5
168
100
AcDbEntity
8
0
62
256
6
ByLayer
370
18
48
1
60
0
100
AcDbMText
10
-18
20
-30.16203
30
0
210
0
220
0
230
1
1
\A1;36
40
3
41
0
44
1
50
0
71
5
72
5
7
iso_b_vert
0
POINT
5
169
100
AcDbEntity
8
Defpoints
62
0
6
ByLayer
370
-1
48
1
60
0
100
AcDbPoint
10
-36
20
-3
30
0
39
0
210
0
220
0
230
1
50
360
0
POINT
5
16A
100
AcDbEntity
8
Defpoints
62
0
6
ByLayer
370
-1
48
1
60
0
100
AcDbPoint
10
0
20
-3
30
0
39
0
210
0
220
0
230
1
50
360
0
POINT
5
16B
100
AcDbEntity
8
Defpoints
62
0
6
ByLayer
370
-1
48
1
60
0
100
AcDbPoint
10
0
20
-36.16203
30
0
39
0
210
0
220
0
230
1
50
360
0
ENDBLK
5
162
100
AcDbEntity
8
0
100
AcDbBlockEnd
0
BLOCK
5
173
100
AcDbEntity
8
0
100
AcDbBlockBegin
2
_U2
70
0
10
0
20
0
30
0
3
_U2
0
MTEXT
5
16D
100
AcDbEntity
8
SK2
62
256
6
ByLayer
370
18
48
1
60
0
100
AcDbMText
10
-19.632828
20
-35.276916
30
0
210
0
220
0
230
1
1
\W0.6740;36
40
3
41
0
44
1.084337
50
0
71
7
72
5
7
iso_b_vert
0
LINE
5
16E
100
AcDbEntity
8
SK2
62
256
6
ByLayer
370
13
48
1
60
0
100
AcDbLine
10
-36
20
-4.5875
30
0
11
-36
21
-38.16203
31
0
39
0
210
0
220
0
230
1
0
LINE
5
16F
100
AcDbEntity
8
SK2
62
256
6
ByLayer
370
13
48
1
60
0
100
AcDbLine
10
0
20
-4.5875
30
0
11
0
21
-38.16203
31
0
39
0
210
0
220
0
230
1
0
LINE
5
170
100
AcDbEntity
8
SK2
62
256
6
ByLayer
370
13
48
1
60
0
100
AcDbLine
10
-36
20
-36.16203
30
0
11
0
21
-36.16203
31
0
39
0
210
0
220
0
230
1
0
SOLID
5
171
100
AcDbEntity
8
SK2
62
256
6
ByLayer
370
18
48
1
60
0
100
AcDbTrace
10
-36
20
-36.16203
30
0
11
-32.500002
21
-35.701247
31
0
12
-32.499998
22
-36.622814
32
0
13
-32.499998
23
-36.622814
33
0
39
0
210
0
220
0
230
1
0
SOLID
5
172
100
AcDbEntity
8
SK2
62
256
6
ByLayer
370
18
48
1
60
0
100
AcDbTrace
10
0
20
-36.16203
30
0
11
-3.499998
21
-36.622814
31
0
12
-3.500002
22
-35.701247
32
0
13
-3.500002
23
-35.701247
33
0
39
0
210
0
220
0
230
1
0
ENDBLK
5
174
100
AcDbEntity
8
0
100
AcDbBlockEnd
0
BLOCK
5
179
100
AcDbEntity
8
0
100
AcDbBlockBegin
2
*D7
70
1
10
0
20
0
30
0
3
*D7
0
LINE
5
17B
100
AcDbEntity
8
0
62
256
6
ByLayer
370
-2
48
1
60
0
100
AcDbLine
10
-36
20
-4.5875
30
0
11
-36
21
-46.16203
31
0
39
0
210
0
220
0
230
1
0
LINE
5
17C
100
AcDbEntity
8
0
62
256
6
ByLayer
370
-2
48
1
60
0
100
AcDbLine
10
30
20
-4.167
30
0
11
30
21
-46.16203
31
0
39
0
210
0
220
0
230
1
0
LINE
5
17D
100
AcDbEntity
8
0
62
256
6
ByLayer
370
-2
48
1
60
0
100
AcDbLine
10
-32.5
20
-44.16203
30
0
11
26.5
21
-44.16203
31
0
39
0
210
0
220
0
230
1
0
SOLID
5
17E
100
AcDbEntity
8
0
62
256
6
ByLayer
370
-1
48
1
60
0
100
AcDbTrace
10
-32.5
20
-43.578697
30
0
11
-32.5
21
-44.745364
31
0
12
-36
22
-44.16203
32
0
13
-36
23
-44.16203
33
0
39
0
210
0
220
0
230
1
0
SOLID
5
17F
100
AcDbEntity
8
0
62
256
6
ByLayer
370
-1
48
1
60
0
100
AcDbTrace
10
26.5
20
-44.745364
30
0
11
26.5
21
-43.578697
31
0
12
30
22
-44.16203
32
0
13
30
23
-44.16203
33
0
39
0
210
0
220
0
230
1
0
MTEXT
5
180
100
AcDbEntity
8
0
62
256
6
ByLayer
370
18
48
1
60
0
100
AcDbMText
10
-3
20
-38.16203
30
0
210
0
220
0
230
1
1
\A1;66
40
3
41
0
44
1
50
0
71
5
72
5
7
iso_b_vert
0
POINT
5
181
100
AcDbEntity
8
Defpoints
62
0
6
ByLayer
370
-1
48
1
60
0
100
AcDbPoint
10
-36
20
-3
30
0
39
0
210
0
220
0
230
1
50
360
0
POINT
5
182
100
AcDbEntity
8
Defpoints
62
0
6
ByLayer
370
-1
48
1
60
0
100
AcDbPoint
10
30
20
-2.5795
30
0
39
0
210
0
220
0
230
1
50
360
0
POINT
5
183
100
AcDbEntity
8
Defpoints
62
0
6
ByLayer
370
-1
48
1
60
0
100
AcDbPoint
10
30
20
-44.16203
30
0
39
0
210
0
220
0
230
1
50
360
0
ENDBLK
5
17A
100
AcDbEntity
8
0
100
AcDbBlockEnd
0
BLOCK
5
18B
100
AcDbEntity
8
0
100
AcDbBlockBegin
2
_U3
70
0
10
0
20
0
30
0
3
_U3
0
MTEXT
5
185
100
AcDbEntity
8
SK2
62
256
6
ByLayer
370
18
48
1
60
0
100
AcDbMText
10
-4.632828
20
-43.276916
30
0
210
0
220
0
230
1
1
\W0.6740;66
40
3
41
0
44
1.084337
50
0
71
7
72
5
7
iso_b_vert
0
LINE
5
186
100
AcDbEntity
8
SK2
62
256
6
ByLayer
370
13
48
1
60
0
100
AcDbLine
10
-36
20
-4.5875
30
0
11
-36
21
-46.16203
31
0
39
0
210
0
220
0
230
1
0
LINE
5
187
100
AcDbEntity
8
SK2
62
256
6
ByLayer
370
13
48
1
60
0
100
AcDbLine
10
30
20
-4.167
30
0
11
30
21
-46.16203
31
0
39
0
210
0
220
0
230
1
0
LINE
5
188
100
AcDbEntity
8
SK2
62
256
6
ByLayer
370
13
48
1
60
0
100
AcDbLine
10
-36
20
-44.16203
30
0
11
30
21
-44.16203
31
0
39
0
210
0
220
0
230
1
0
SOLID
5
189
100
AcDbEntity
8
SK2
62
256
6
ByLayer
370
18
48
1
60
0
100
AcDbTrace
10
-36
20
-44.16203
30
0
11
-32.500002
21
-43.701247
31
0
12
-32.499998
22
-44.622814
32
0
13
-32.499998
23
-44.622814
33
0
39
0
210
0
220
0
230
1
0
SOLID
5
18A
100
AcDbEntity
8
SK2
62
256
6
ByLayer
370
18
48
1
60
0
100
AcDbTrace
10
30
20
-44.16203
30
0
11
26.500002
21
-44.622814
31
0
12
26.499998
22
-43.701247
32
0
13
26.499998
23
-43.701247
33
0
39
0
210
0
220
0
230
1
0
ENDBLK
5
18C
100
AcDbEntity
8
0
100
AcDbBlockEnd
0
BLOCK
5
191
100
AcDbEntity
8
0
100
AcDbBlockBegin
2
*D9
70
1
10
0
20
0
30
0
3
*D9
0
LINE
5
193
100
AcDbEntity
8
0
62
256
6
ByLayer
370
-2
48
1
60
0
100
AcDbLine
10
30
20
-4.167
30
0
11
30
21
-38.16203
31
0
39
0
210
0
220
0
230
1
0
LINE
5
194
100
AcDbEntity
8
0
62
256
6
ByLayer
370
-2
48
1
60
0
100
AcDbLine
10
0
20
-4.167
30
0
11
0
21
-38.16203
31
0
39
0
210
0
220
0
230
1
0
LINE
5
195
100
AcDbEntity
8
0
62
256
6
ByLayer
370
-2
48
1
60
0
100
AcDbLine
10
26.5
20
-36.16203
30
0
11
3.5
21
-36.16203
31
0
39
0
210
0
220
0
230
1
0
SOLID
5
196
100
AcDbEntity
8
0
62
256
6
ByLayer
370
-1
48
1
60
0
100
AcDbTrace
10
26.5
20
-36.745364
30
0
11
26.5
21
-35.578697
31
0
12
30
22
-36.16203
32
0
13
30
23
-36.16203
33
0
39
0
210
0
220
0
230
1
0
SOLID
5
197
100
AcDbEntity
8
0
62
256
6
ByLayer
370
-1
48
1
60
0
100
AcDbTrace
10
3.5
20
-35.578697
30
0
11
3.5
21
-36.745364
31
0
12
0
22
-36.16203
32
0
13
0
23
-36.16203
33
0
39
0
210
0
220
0
230
1
0
MTEXT
5
198
100
AcDbEntity
8
0
62
256
6
ByLayer
370
18
48
1
60
0
100
AcDbMText
10
15
20
-30.16203
30
0
210
0
220
0
230
1
1
\A1;30
40
3
41
0
44
1
50
0
71
5
72
5
7
iso_b_vert
0
POINT
5
199
100
AcDbEntity
8
Defpoints
62
0
6
ByLayer
370
-1
48
1
60
0
100
AcDbPoint
10
30
20
-2.5795
30
0
39
0
210
0
220
0
230
1
50
360
0
POINT
5
19A
100
AcDbEntity
8
Defpoints
62
0
6
ByLayer
370
-1
48
1
60
0
100
AcDbPoint
10
0
20
-2.5795
30
0
39
0
210
0
220
0
230
1
50
360
0
POINT
5
19B
100
AcDbEntity
8
Defpoints
62
0
6
ByLayer
370
-1
48
1
60
0
100
AcDbPoint
10
0
20
-36.16203
30
0
39
0
210
0
220
0
230
1
50
360
0
ENDBLK
5
192
100
AcDbEntity
8
0
100
AcDbBlockEnd
0
BLOCK
5
1A3
100
AcDbEntity
8
0
100
AcDbBlockBegin
2
_U4
70
0
10
0
20
0
30
0
3
_U4
0
MTEXT
5
19D
100
AcDbEntity
8
2
62
256
6
ByLayer
370
18
48
1
60
0
100
AcDbMText
10
13.367172
20
-35.276916
30
0
210
0
220
0
230
1
1
\W0.6740;30
40
3
41
0
44
1.084337
50
0
71
7
72
5
7
iso_b_vert
0
LINE
5
19E
100
AcDbEntity
8
2
62
256
6
ByLayer
370
13
48
1
60
0
100
AcDbLine
10
30
20
-4.167
30
0
11
30
21
-38.16203
31
0
39
0
210
0
220
0
230
1
0
LINE
5
19F
100
AcDbEntity
8
2
62
256
6
ByLayer
370
13
48
1
60
0
100
AcDbLine
10
0
20
-4.167
30
0
11
0
21
-38.16203
31
0
39
0
210
0
220
0
230
1
0
LINE
5
1A0
100
AcDbEntity
8
2
62
256
6
ByLayer
370
13
48
1
60
0
100
AcDbLine
10
30
20
-36.16203
30
0
11
0
21
-36.16203
31
0
39
0
210
0
220
0
230
1
0
SOLID
5
1A1
100
AcDbEntity
8
2
62
256
6
ByLayer
370
18
48
1
60
0
100
AcDbTrace
10
30
20
-36.16203
30
0
11
26.500002
21
-36.622814
31
0
12
26.499998
22
-35.701247
32
0
13
26.499998
23
-35.701247
33
0
39
0
210
0
220
0
230
1
0
SOLID
5
1A2
100
AcDbEntity
8
2
62
256
6
ByLayer
370
18
48
1
60
0
100
AcDbTrace
10
0
20
-36.16203
30
0
11
3.499998
21
-35.701247
31
0
12
3.500002
22
-36.622814
32
0
13
3.500002
23
-36.622814
33
0
39
0
210
0
220
0
230
1
0
ENDBLK
5
1A4
100
AcDbEntity
8
0
100
AcDbBlockEnd
0
ENDSEC
0
SECTION
2
ENTITIES
0
ARC
5
BF
100
AcDbEntity
8
1
62
256
6
ByLayer
370
18
48
1
60
0
100
AcDbCircle
39
0
10
1.133512
20
-3.329226
30
0
40
0.799999999999996
210
0
220
0
230
1
100
AcDbArc
50
89.896868
51
135.108512
0
ARC
5
C0
100
AcDbEntity
8
1
62
256
6
ByLayer
370
18
48
1
60
0
100
AcDbCircle
39
0
10
1.133512
20
3.329226
30
0
40
0.799999999999996
210
0
220
0
230
1
100
AcDbArc
50
224.891488
51
270.103132
0
ARC
5
C1
100
AcDbEntity
8
1
62
256
6
ByLayer
370
18
48
1
60
0
100
AcDbCircle
39
0
10
0
20
-2.2
30
0
40
0.800000000000001
210
0
220
0
230
1
100
AcDbArc
50
270
51
315.108512
0
ARC
5
C2
100
AcDbEntity
8
1
62
256
6
ByLayer
370
18
48
1
60
0
100
AcDbCircle
39
0
10
0
20
2.2
30
0
40
0.800000000000001
210
0
220
0
230
1
100
AcDbArc
50
44.891488
51
90
0
ARC
5
C3
100
AcDbEntity
8
SK2
62
256
6
ByLayer
370
13
48
1
60
0
100
AcDbCircle
39
0
10
30
20
0
30
0
40
17.8353876548744
210
0
220
0
230
1
100
AcDbArc
50
9.683466
51
69.997278
0
ARC
5
C4
100
AcDbEntity
8
SK2
62
256
6
ByLayer
370
13
48
1
60
0
100
AcDbCircle
39
0
10
30
20
0
30
0
40
17.8353876548744
210
0
220
0
230
1
100
AcDbArc
50
290.002722
51
350.316534
0
ELLIPSE
5
C5
100
AcDbEntity
8
1
62
256
6
ByLayer
370
18
48
1
60
0
100
AcDbEllipse
10
13.700408
20
2.423873
30
0
11
-0.000376547737155794
21
-0.00999290807531235
31
0
210
0
220
0
230
1
40
0.421697
41
-1.47281338166454
42
0.0956781848453612
0
ELLIPSE
5
C6
100
AcDbEntity
8
1
62
256
6
ByLayer
370
18
48
1
60
0
100
AcDbEllipse
10
13.700158
20
-2.523014
30
0
11
0.1
21
0
31
0
210
0
220
0
230
1
40
0.999999
41
1.57158098750089
42
3.1415120421125
0
POINT
5
70
100
AcDbEntity
8
80
62
256
6
ByLayer
370
18
48
1
60
0
100
AcDbPoint
10
0
20
0
30
0
39
0
210
0
220
0
230
1
50
360
0
POINT
5
72
100
AcDbEntity
8
81
62
256
6
ByLayer
370
18
48
1
60
0
100
AcDbPoint
10
30
20
0
30
0
39
0
210
0
220
0
230
1
50
360
0
POINT
5
74
100
AcDbEntity
8
1
62
256
6
ByLayer
370
18
48
1
60
0
100
AcDbPoint
10
-222.257306
20
-200
30
0
39
0
210
0
220
0
230
1
50
360
0
POINT
5
76
100
AcDbEntity
8
1
62
256
6
ByLayer
370
13
48
1
60
1
100
AcDbPoint
10
-37.5
20
0
30
0
39
0
210
0
220
0
230
1
50
360
0
POINT
5
77
100
AcDbEntity
8
1
62
256
6
ByLayer
370
13
48
1
60
1
100
AcDbPoint
10
30.563477
20
0
30
0
39
0
210
0
220
0
230
1
50
360
0
POINT
5
78
100
AcDbEntity
8
1
62
256
6
ByLayer
370
18
48
1
60
1
100
AcDbPoint
10
30
20
-2.5795
30
0
39
0
210
0
220
0
230
1
50
360
0
POINT
5
79
100
AcDbEntity
8
1
62
256
6
ByLayer
370
18
48
1
60
1
100
AcDbPoint
10
13.6
20
-2.5795
30
0
39
0
210
0
220
0
230
1
50
360
0
POINT
5
7A
100
AcDbEntity
8
1
62
256
6
ByLayer
370
18
48
1
60
1
100
AcDbPoint
10
30
20
-2.5795
30
0
39
0
210
0
220
0
230
1
50
360
0
POINT
5
7B
100
AcDbEntity
8
1
62
256
6
ByLayer
370
18
48
1
60
1
100
AcDbPoint
10
2
20
-2.5795
30
0
39
0
210
0
220
0
230
1
50
360
0
POINT
5
7C
100
AcDbEntity
8
1
62
256
6
ByLayer
370
18
48
1
60
1
100
AcDbPoint
10
-36
20
-3
30
0
39
0
210
0
220
0
230
1
50
360
0
POINT
5
7D
100
AcDbEntity
8
1
62
256
6
ByLayer
370
18
48
1
60
1
100
AcDbPoint
10
0
20
-3
30
0
39
0
210
0
220
0
230
1
50
360
0
POINT
5
7E
100
AcDbEntity
8
1
62
256
6
ByLayer
370
18
48
1
60
1
100
AcDbPoint
10
-36
20
-3
30
0
39
0
210
0
220
0
230
1
50
360
0
POINT
5
7F
100
AcDbEntity
8
1
62
256
6
ByLayer
370
18
48
1
60
1
100
AcDbPoint
10
30
20
-2.5795
30
0
39
0
210
0
220
0
230
1
50
360
0
POINT
5
80
100
AcDbEntity
8
1
62
256
6
ByLayer
370
18
48
1
60
1
100
AcDbPoint
10
30
20
-2.5795
30
0
39
0
210
0
220
0
230
1
50
360
0
POINT
5
81
100
AcDbEntity
8
1
62
256
6
ByLayer
370
18
48
1
60
1
100
AcDbPoint
10
0
20
-2.5795
30
0
39
0
210
0
220
0
230
1
50
360
0
SPLINE
5
C7
100
AcDbEntity
8
1
62
256
6
ByLayer
370
18
48
1
60
0
100
AcDbSpline
70
4
71
3
72
12
73
8
40
0
40
0
40
0
40
0
40
0.0694840676591008
40
0.308261371045667
40
0.785815977818838
40
0.785815977818838
40
1
40
1
40
1
40
1
41
1
10
3.75903446554048
20
-0.173597338050229
30
0
41
1
10
3.77049059245786
20
-0.169938566562877
30
0
41
1
10
3.821287796077
20
-0.153619510033053
30
0
41
1
10
3.95047053579248
20
-0.111045374324419
30
0
41
1
10
4.06756062274249
20
-0.0702157530974148
30
0
41
1
10
4.18015451613249
20
-0.029566569364448
30
0
41
1
10
4.2149556092532
20
-0.0168079800107535
30
0
41
1
10
4.24969523576254
20
-0.0038827073882146
30
0
0
SPLINE
5
C8
100
AcDbEntity
8
1
62
256
6
ByLayer
370
18
48
1
60
0
100
AcDbSpline
70
4
71
3
72
20
73
16
40
0
40
0
40
0
40
0
40
0.49999999999993
40
0.49999999999993
40
0.749999999999962
40
0.749999999999962
40
0.874999999999977
40
0.874999999999977
40
0.937499999999989
40
0.937499999999989
40
0.968749999999998
40
0.968749999999998
40
0.984374999999999
40
0.984374999999999
40
1
40
1
40
1
40
1
41
1
10
29.0112372372075
20
2.57939842628349
30
0
41
1
10
29.0220264037176
20
2.56176178184595
30
0
41
1
10
29.0328224649848
20
2.54405849657544
30
0
41
1
10
29.049109108242
20
2.51723077353
30
0
41
1
10
29.054563888831
20
2.50821979004141
30
0
41
1
10
29.0627051474934
20
2.49477599996649
30
0
41
1
10
29.0654109661201
20
2.49030928162301
30
0
41
1
10
29.0694390746477
20
2.4836698668615
30
0
41
1
10
29.0707754930494
20
2.48146927372341
30
0
41
1
10
29.0727721193623
20
2.47818389953244
30
0
41
1
10
29.0734419619995
20
2.4770796873328
30
0
41
1
10
29.0744761858197
20
2.47535901276305
30
0
41
1
10
29.0748266701535
20
2.47477246453454
30
0
41
1
10
29.0755255662956
20
2.47360387844407
30
0
41
1
10
29.0759016836828
20
2.47297053952454
30
0
41
1
10
29.0761684477059
20
2.47255323585009
30
0
0
SPLINE
5
C9
100
AcDbEntity
8
1
62
256
6
ByLayer
370
18
48
1
60
0
100
AcDbSpline
70
4
71
3
72
8
73
4
40
0
40
0
40
0
40
0
40
1
40
1
40
1
40
1
41
1
10
29.7327288402341
20
0.867283167985732
30
0
41
1
10
29.8015539116987
20
0.67541365945354
30
0
41
1
10
29.8698043190097
20
0.483341759345734
30
0
41
1
10
29.937468353781
20
0.291063344073308
30
0
0
SPLINE
5
CA
100
AcDbEntity
8
1
62
256
6
ByLayer
370
18
48
1
60
0
100
AcDbSpline
70
4
71
3
72
10
73
6
40
0
40
0
40
0
40
0
40
0.5
40
0.5
40
1
40
1
40
1
40
1
41
1
10
13.7004357675567
20
2.41391085388975
30
0
41
1
10
13.6930613460603
20
2.41415780337664
30
0
41
1
10
13.6858104323402
20
2.41519758761842
30
0
41
1
10
13.6715543941173
20
2.4188156325304
30
0
41
1
10
13.6645000876883
20
2.42142082728725
30
0
41
1
10
13.6577291068282
20
2.42480815679579
30
0
0
SPLINE
5
CB
100
AcDbEntity
8
1
62
256
6
ByLayer
370
13
48
1
60
0
100
AcDbSpline
70
4
71
3
72
8
73
4
40
0
40
0
40
0
40
0
40
1
40
1
40
1
40
1
41
1
10
13.6561479496327
20
-2.5430759715733
30
0
41
1
10
13.6566683963409
20
-2.50641115181801
30
0
41
1
10
13.6571954566785
20
-2.46974702843778
30
0
41
1
10
13.6577291068282
20
-2.43308363415238
30
0
0
SPLINE
5
CC
100
AcDbEntity
8
1
62
256
6
ByLayer
370
18
48
1
60
0
100
AcDbSpline
70
4
71
3
72
8
73
4
40
0
40
0
40
0
40
0
40
1
40
1
40
1
40
1
41
1
10
29.937468353781
20
0.291063344073308
30
0
41
1
10
29.9574830991754
20
0.234188173393335
30
0
41
1
10
29.9779083962157
20
0.177546989795758
30
0
41
1
10
29.9987512540585
20
0.121134608193074
30
0
0
SPLINE
5
CD
100
AcDbEntity
8
1
62
256
6
ByLayer
370
18
48
1
60
0
100
AcDbSpline
70
4
71
3
72
12
73
8
40
0
40
0
40
0
40
0
40
0.231767352349874
40
0.231767352349874
40
0.615883676174937
40
0.615883676174937
40
1
40
1
40
1
40
1
41
1
10
29.4089328280396
20
-0.49593635136992
30
0
41
1
10
29.418107354375
20
-0.502665675736125
30
0
41
1
10
29.427669438556
20
-0.509571912409001
30
0
41
1
10
29.4538472139549
20
-0.528277716021336
30
0
41
1
10
29.4710290550656
20
-0.540348848707112
30
0
41
1
10
29.506245678573
20
-0.564832232892911
30
0
41
1
10
29.5243001411982
20
-0.577258369602902
30
0
41
1
10
29.5426859631588
20
-0.589834709380455
30
0
0
SPLINE
5
CE
100
AcDbEntity
8
1
62
256
6
ByLayer
370
13
48
1
60
0
100
AcDbSpline
70
4
71
3
72
35
73
31
40
0
40
0
40
0
40
0
40
0.123240262954057
40
0.123240262954057
40
0.192956106196008
40
0.192956106196008
40
0.227814027816984
40
0.227814027816984
40
0.262671949437959
40
0.262671949437959
40
0.402103635921861
40
0.402103635921861
40
0.471819479163812
40
0.506677400784787
40
0.506677400784787
40
0.541535322405762
40
0.541535322405762
40
0.680967008889663
40
0.680967008889663
40
0.715824930510639
40
0.715824930510639
40
0.750682852131614
40
0.750682852131614
40
0.820398695373565
40
0.820398695373565
40
0.959830381857467
40
0.959830381857467
40
0.994688303478442
40
0.994688303478442
40
1
40
1
40
1
40
1
41
1
10
13.7009316179359
20
-0.752029701126816
30
0
41
1
10
13.700921074636
20
-0.868093155332645
30
0
41
1
10
13.7009088305217
20
-0.980073776395642
30
0
41
1
10
13.7008876349941
20
-1.14922024669465
30
0
41
1
10
13.7008795571958
20
-1.2090632415169
30
0
41
1
10
13.7008668735697
20
-1.29689624781636
30
0
41
1
10
13.700862550898
20
-1.32585157089994
30
0
41
1
10
13.7008537227071
20
-1.38310776729992
30
0
41
1
10
13.7008492068239
20
-1.41146951523382
30
0
41
1
10
13.700826372631
20
-1.55046280345422
30
0
41
1
10
13.7008072414929
20
-1.65325066634656
30
0
41
1
10
13.7007774447962
20
-1.79523895093689
30
0
41
1
10
13.7007622642405
20
-1.8631677779386
30
0
41
1
10
13.7007466327036
20
-1.92642520320527
30
0
41
1
10
13.7007361037727
20
-1.96753967890442
30
0
41
1
10
13.7007307766049
20
-1.98759910854108
30
0
41
1
10
13.7007040549894
20
-2.08447001655725
30
0
41
1
10
13.7006823022562
20
-2.15158305324658
30
0
41
1
10
13.7006541976228
20
-2.22257656897145
30
0
41
1
10
13.7006485297654
20
-2.23612597160124
30
0
41
1
10
13.7006370837909
20
-2.26191028526975
30
0
41
1
10
13.7006313335126
20
-2.27408120345208
30
0
41
1
10
13.7006140172236
20
-2.30838621807575
30
0
41
1
10
13.7006023692104
20
-2.32835514594038
30
0
41
1
10
13.700566910086
20
-2.37977206391918
30
0
41
1
10
13.7005425960244
20
-2.40279011232232
30
0
41
1
10
13.700510533135
20
-2.41727204065597
30
0
41
1
10
13.7005040360889
20
-2.41944909254391
30
0
41
1
10
13.7004964372655
20
-2.42111432934683
30
0
41
1
10
13.7004954299826
20
-2.42131749011719
30
0
41
1
10
13.7004944203572
20
-2.42150357221507
30
0
0
SPLINE
5
CF
100
AcDbEntity
8
1
62
256
6
ByLayer
370
18
48
1
60
0
100
AcDbSpline
70
4
71
3
72
34
73
30
40
0
40
0
40
0
40
0
40
0.124999999999985
40
0.124999999999985
40
0.156249999999975
40
0.156249999999975
40
0.187499999999965
40
0.187499999999965
40
0.249999999999944
40
0.249999999999944
40
0.374999999999903
40
0.374999999999903
40
0.437499999999882
40
0.437499999999882
40
0.499999999999862
40
0.499999999999862
40
0.624999999999836
40
0.624999999999836
40
0.656249999999841
40
0.656249999999841
40
0.687499999999846
40
0.687499999999846
40
0.749999999999871
40
0.749999999999871
40
0.874999999999936
40
0.874999999999936
40
0.937499999999968
40
0.937499999999968
40
1
40
1
40
1
40
1
41
1
10
29.99875125405
20
0.121134608195945
30
0
41
1
10
29.9831585754527
20
0.0757176993423911
30
0
41
1
10
29.966402690718
20
0.0308535689732707
30
0
41
1
10
29.9440366535376
20
-0.024535624274904
30
0
41
1
10
29.9394919600769
20
-0.035578706745838
30
0
41
1
10
29.9302585943078
20
-0.0575944644524782
30
0
41
1
10
29.9255583327758
20
-0.0685935325146545
30
0
41
1
10
29.9113333036059
20
-0.101267404254912
30
0
41
1
10
29.9017025030197
20
-0.122583169747315
30
0
41
1
10
29.8724034269712
20
-0.185151429546948
30
0
41
1
10
29.8523327835984
20
-0.22503563779145
30
0
41
1
10
29.8214844666298
20
-0.282022484574071
30
0
41
1
10
29.8110769264503
20
-0.300542332459941
30
0
41
1
10
29.7900088507244
20
-0.336577624236583
30
0
41
1
10
29.7795066898861
20
-0.353820465912008
30
0
41
1
10
29.7482083268408
20
-0.403096333347321
30
0
41
1
10
29.7275750256567
20
-0.432776545553622
30
0
41
1
10
29.702070103957
20
-0.465798613534957
30
0
41
1
10
29.6969833366381
20
-0.472197529048572
30
0
41
1
10
29.6868376445503
20
-0.484574779426367
30
0
41
1
10
29.6817646709872
20
-0.490568931469625
30
0
41
1
10
29.6666976257844
20
-0.507775735052235
30
0
41
1
10
29.6568830650821
20
-0.518187984536581
30
0
41
1
10
29.6280844615367
20
-0.546332961787954
30
0
41
1
10
29.6097432760259
20
-0.560997855004388
30
0
41
1
10
29.58338805944
20
-0.576731387735748
30
0
41
1
10
29.5747784143874
20
-0.580921468641293
30
0
41
1
10
29.558276940774
20
-0.587021855257007
30
0
41
1
10
29.5503384359094
20
-0.588965224801996
30
0
41
1
10
29.5426859631588
20
-0.589834709380455
30
0
0
SPLINE
5
D0
100
AcDbEntity
8
1
62
256
6
ByLayer
370
18
48
1
60
0
100
AcDbSpline
70
4
71
3
72
93
73
89
40
0
40
0
40
0
40
0
40
0.03125
40
0.03125
40
0.0468750000000001
40
0.0468750000000001
40
0.0625000000000001
40
0.0625000000000001
40
0.0937500000000001
40
0.0937500000000001
40
0.109375
40
0.109375
40
0.125
40
0.125
40
0.15625
40
0.15625
40
0.171875
40
0.171875
40
0.1875
40
0.1875
40
0.218749999999999
40
0.218749999999999
40
0.234374999999999
40
0.234374999999999
40
0.249999999999999
40
0.249999999999999
40
0.281249999999999
40
0.281249999999999
40
0.296874999999999
40
0.296874999999999
40
0.312499999999999
40
0.312499999999999
40
0.328124999999999
40
0.328124999999999
40
0.343749999999999
40
0.343749999999999
40
0.374999999999999
40
0.374999999999999
40
0.390624999999998
40
0.390624999999998
40
0.406249999999998
40
0.406249999999998
40
0.437500000000004
40
0.46875000000001
40
0.46875000000001
40
0.484375000000011
40
0.484375000000011
40
0.500000000000012
40
0.500000000000012
40
0.531250000000017
40
0.531250000000017
40
0.546875000000019
40
0.546875000000019
40
0.562500000000022
40
0.562500000000022
40
0.593750000000027
40
0.593750000000027
40
0.625000000000032
40
0.625000000000032
40
0.656250000000037
40
0.656250000000037
40
0.687500000000042
40
0.687500000000042
40
0.703125000000044
40
0.703125000000044
40
0.718750000000045
40
0.718750000000045
40
0.750000000000049
40
0.750000000000049
40
0.781250000000052
40
0.781250000000052
40
0.796875000000051
40
0.796875000000051
40
0.81250000000005
40
0.81250000000005
40
0.843750000000041
40
0.843750000000041
40
0.875000000000033
40
0.875000000000033
40
0.906250000000025
40
0.906250000000025
40
0.937500000000017
40
0.937500000000017
40
0.968750000000009
40
0.968750000000009
40
0.984375000000004
40
0.984375000000004
40
1
40
1
40
1
40
1
41
1
10
29.5426859631588
20
-0.589834709380455
30
0
41
1
10
29.5430071443685
20
-0.605584848797776
30
0
41
1
10
29.5424742974704
20
-0.622388073413447
30
0
41
1
10
29.5403744368226
20
-0.649215083567924
30
0
41
1
10
29.539456816526
20
-0.658429096285829
30
0
41
1
10
29.5371708664171
20
-0.677425340817223
30
0
41
1
10
29.5357916611064
20
-0.687270921961755
30
0
41
1
10
29.5310382603341
20
-0.717133852084231
30
0
41
1
10
29.5270635242892
20
-0.737482693983651
30
0
41
1
10
29.5199608598258
20
-0.768658585445735
30
0
41
1
10
29.5174022419799
20
-0.779159913716626
30
0
41
1
10
29.5119027793088
20
-0.800387305052595
30
0
41
1
10
29.5089667050536
20
-0.811087285637939
30
0
41
1
10
29.4997916691448
20
-0.842842539788194
30
0
41
1
10
29.493132038419
20
-0.863779241122387
30
0
41
1
10
29.4824073244877
20
-0.894863194228719
30
0
41
1
10
29.4786917142094
20
-0.905216544364549
30
0
41
1
10
29.471112662572
20
-0.925566925965484
30
0
41
1
10
29.4672563745954
20
-0.935549152254396
30
0
41
1
10
29.4555060160403
20
-0.964949359271287
30
0
41
1
10
29.4474319742581
20
-0.983824535906592
30
0
41
1
10
29.4350021560147
20
-1.01110203406279
30
0
41
1
10
29.4308024940634
20
-1.02002415514599
30
0
41
1
10
29.4224348066397
20
-1.03724943013509
30
0
41
1
10
29.4182499649064
20
-1.04559030020977
30
0
41
1
10
29.4056962490077
20
-1.06983144437288
30
0
41
1
10
29.3973285926601
20
-1.08495505958405
30
0
41
1
10
29.3847861593297
20
-1.10612262068264
30
0
41
1
10
29.380603527242
20
-1.11292773005198
30
0
41
1
10
29.3723311809283
20
-1.12588599579649
30
0
41
1
10
29.3682301386612
20
-1.13205885551051
30
0
41
1
10
29.3600963142162
20
-1.14380046880893
30
0
41
1
10
29.3560573631797
20
-1.14937578658416
30
0
41
1
10
29.3481426720306
20
-1.15979867913069
30
0
41
1
10
29.3442518249135
20
-1.16466851942235
30
0
41
1
10
29.3327691837478
20
-1.17828262545723
30
0
41
1
10
29.3253665858903
20
-1.18603685429696
30
0
41
1
10
29.3146177095749
20
-1.19569813854051
30
0
41
1
10
29.31109410518
20
-1.19858885961534
30
0
41
1
10
29.3041637689192
20
-1.20369625556612
30
0
41
1
10
29.3007470453912
20
-1.20591684754433
30
0
41
1
10
29.2908127131884
20
-1.21145881032899
30
0
41
1
10
29.2783272336524
20
-1.21594608790133
30
0
41
1
10
29.2672583310508
20
-1.21469929737452
30
0
41
1
10
29.2594822700734
20
-1.21149413543887
30
0
41
1
10
29.2569720747046
20
-1.2100379546558
30
0
41
1
10
29.2522059118802
20
-1.20639403562839
30
0
41
1
10
29.2499404094009
20
-1.20420474049825
30
0
41
1
10
29.243486558301
20
-1.19654039875834
30
0
41
1
10
29.2396386601607
20
-1.18997554420068
30
0
41
1
10
29.234547700189
20
-1.17785295159078
30
0
41
1
10
29.2329647271613
20
-1.17343128792825
30
0
41
1
10
29.2300338679013
20
-1.1637887881341
30
0
41
1
10
29.2286855527434
20
-1.15855558013675
30
0
41
1
10
29.2250750114871
20
-1.14192358258569
30
0
41
1
10
29.2232142107314
20
-1.1295142111523
30
0
41
1
10
29.2205908769724
20
-1.10200049114834
30
0
41
1
10
29.2198272251904
20
-1.0868904125839
30
0
41
1
10
29.2195145188176
20
-1.05372858574088
30
0
41
1
10
29.2199705194793
20
-1.03620169273267
30
0
41
1
10
29.2221176511298
20
-0.999276071530801
30
0
41
1
10
29.2238079326527
20
-0.979878265961645
30
0
41
1
10
29.2273741448087
20
-0.949270470069251
30
0
41
1
10
29.228727189939
20
-0.938899941439814
30
0
41
1
10
29.2317296397333
20
-0.918087227993084
30
0
41
1
10
29.2333835584213
20
-0.907605556703118
30
0
41
1
10
29.238810198179
20
-0.875938514553241
30
0
41
1
10
29.2430572034075
20
-0.854473995997552
30
0
41
1
10
29.2528529561133
20
-0.811182257545511
30
0
41
1
10
29.2582649041382
20
-0.789948088077097
30
0
41
1
10
29.2671518678939
20
-0.758689031207126
30
0
41
1
10
29.2702429949997
20
-0.748368589411797
30
0
41
1
10
29.2766898157487
20
-0.727928083238083
30
0
41
1
10
29.2800585092752
20
-0.717774437061763
30
0
41
1
10
29.2903825786025
20
-0.68816456536041
30
0
41
1
10
29.2976017762484
20
-0.669390995264706
30
0
41
1
10
29.3127026035853
20
-0.633655678799386
30
0
41
1
10
29.3206469945428
20
-0.616587255366937
30
0
41
1
10
29.3367396390919
20
-0.585166627959438
30
0
41
1
10
29.3449204044981
20
-0.570713047124485
30
0
41
1
10
29.3615385617531
20
-0.544161111105183
30
0
41
1
10
29.3700259680039
20
-0.532012600726318
30
0
41
1
10
29.3868032258735
20
-0.510602486614516
30
0
41
1
10
29.3951349606651
20
-0.501259190834844
30
0
41
1
10
29.4075370785806
20
-0.489181747977625
30
0
41
1
10
29.4116550694448
20
-0.485480342477132
30
0
41
1
10
29.419855615581
20
-0.478725828706189
30
0
41
1
10
29.423946589519
20
-0.475668888886105
30
0
41
1
10
29.4279653000174
20
-0.472972832579785
30
0
0
SPLINE
5
D1
100
AcDbEntity
8
1
62
256
6
ByLayer
370
18
48
1
60
0
100
AcDbSpline
70
4
71
3
72
8
73
4
40
0
40
0
40
0
40
0
40
1
40
1
40
1
40
1
41
1
10
29.4279653000174
20
-0.472972832579785
30
0
41
1
10
29.4183971753175
20
-0.443509008696026
30
0
41
1
10
29.410503631496
20
-0.409440672362905
30
0
41
1
10
29.4040497485545
20
-0.371079359180357
30
0
0
SPLINE
5
D2
100
AcDbEntity
8
1
62
256
6
ByLayer
370
18
48
1
60
0
100
AcDbSpline
70
4
71
3
72
8
73
4
40
0
40
0
40
0
40
0
40
1
40
1
40
1
40
1
41
1
10
29.4040497485545
20
-0.371079359180357
30
0
41
1
10
29.3679056655687
20
-0.156242105439219
30
0
41
1
10
29.3206876850967
20
0.0638640085402642
30
0
41
1
10
29.262490304152
20
0.289194021934094
30
0
0
SPLINE
5
D3
100
AcDbEntity
8
1
62
256
6
ByLayer
370
18
48
1
60
0
100
AcDbSpline
70
4
71
3
72
13
73
9
40
0
40
0
40
0
40
0
40
0.499999999999984
40
0.499999999999984
40
0.624999999999988
40
0.624999999999988
40
0.749999999999992
40
1
40
1
40
1
40
1
41
1
10
29.1631538360166
20
-2.32141617056919
30
0
41
1
10
29.1445979646697
20
-2.34906482960184
30
0
41
1
10
29.1273380621245
20
-2.37285202334925
30
0
41
1
10
29.1074313396679
20
-2.3970144684354
30
0
41
1
10
29.1035517765994
20
-2.40154411889648
30
0
41
1
10
29.0960406730657
20
-2.4099416949274
30
0
41
1
10
29.0851214478179
20
-2.42157532557843
30
0
41
1
10
29.075203353606
20
-2.43036111222475
30
0
41
1
10
29.0690021922522
20
-2.43497922218322
30
0
0
SPLINE
5
D4
100
AcDbEntity
8
1
62
256
6
ByLayer
370
18
48
1
60
0
100
AcDbSpline
70
4
71
3
72
8
73
4
40
0
40
0
40
0
40
0
40
1
40
1
40
1
40
1
41
1
10
29.7327288402341
20
-0.867283167985732
30
0
41
1
10
29.8015539116987
20
-0.67541365945354
30
0
41
1
10
29.8698043190097
20
-0.483341759345734
30
0
41
1
10
29.937468353781
20
-0.291063344073308
30
0
0
SPLINE
5
D5
100
AcDbEntity
8
1
62
256
6
ByLayer
370
18
48
1
60
0
100
AcDbSpline
70
4
71
3
72
8
73
4
40
0
40
0
40
0
40
0
40
1
40
1
40
1
40
1
41
1
10
29.937468353781
20
-0.291063344073308
30
0
41
1
10
29.9574830991753
20
-0.234188173393648
30
0
41
1
10
29.9779083962154
20
-0.177546989796355
30
0
41
1
10
29.9987512540582
20
-0.121134608193984
30
0
0
SPLINE
5
D6
100
AcDbEntity
8
1
62
256
6
ByLayer
370
18
48
1
60
0
100
AcDbSpline
70
4
71
3
72
8
73
4
40
0
40
0
40
0
40
0
40
1
40
1
40
1
40
1
41
1
10
29.9987512540537
20
0.121134608198446
30
0
41
1
10
30.0004140312749
20
0.0404857508858072
30
0
41
1
10
30.0004184719432
20
-0.0402703673577776
30
0
41
1
10
29.9987512540538
20
-0.121134608197309
30
0
0
SPLINE
5
D7
100
AcDbEntity
8
1
62
256
6
ByLayer
370
18
48
1
60
0
100
AcDbSpline
70
4
71
3
72
24
73
20
40
0
40
0
40
0
40
0
40
0.0735383670611279
40
0.0735383670611279
40
0.227948639217589
40
0.227948639217589
40
0.305153775295841
40
0.305153775295841
40
0.382358911374092
40
0.382358911374092
40
0.536769183530594
40
0.536769183530594
40
0.613974319608845
40
0.613974319608845
40
0.691179455687096
40
0.691179455687096
40
0.845589727843548
40
0.845589727843548
40
1
40
1
40
1
40
1
41
1
10
28.662589966444
20
0.566876587776136
30
0
41
1
10
28.6755125489152
20
0.574219453821115
30
0
41
1
10
28.6887208916885
20
0.58178493738211
30
0
41
1
10
28.7306177758954
20
0.605794750588586
30
0
41
1
10
28.7603537230401
20
0.622859196606385
30
0
41
1
10
28.8074507766306
20
0.648992606182276
30
0
41
1
10
28.8236301988367
20
0.657814190539966
30
0
41
1
10
28.8564308164202
20
0.67518577626231
30
0
41
1
10
28.8730937736806
20
0.683762973037489
30
0
41
1
10
28.9239204938947
20
0.708999416555969
30
0
41
1
10
28.9589051599909
20
0.725196601533611
30
0
41
1
10
29.0132991482888
20
0.747781523962146
30
0
41
1
10
29.0317524574317
20
0.755019938283567
30
0
41
1
10
29.0693564237918
20
0.768771490374576
30
0
41
1
10
29.0885560936448
20
0.775295238921757
30
0
41
1
10
29.1462570980759
20
0.793272906081739
30
0
41
1
10
29.1851598671608
20
0.80324247158066
30
0
41
1
10
29.2639007837783
20
0.818834724377979
30
0
41
1
10
29.3037379457949
20
0.82446204728987
30
0
41
1
10
29.3440450095184
20
0.827900318428732
30
0
0
SPLINE
5
D8
100
AcDbEntity
8
1
62
256
6
ByLayer
370
18
48
1
60
0
100
AcDbSpline
70
4
71
3
72
10
73
6
40
0
40
0
40
0
40
0
40
0.5
40
0.5
40
1
40
1
40
1
40
1
41
1
10
29.3440450095184
20
0.827900318428732
30
0
41
1
10
29.4089450185597
20
0.833436415762179
30
0
41
1
10
29.4738349484358
20
0.839339570228191
30
0
41
1
10
29.603440678747
20
0.85221627880091
30
0
41
1
10
29.6681582880152
20
0.859242618370473
30
0
41
1
10
29.7327288402396
20
0.867283167987665
30
0
0
SPLINE
5
D9
100
AcDbEntity
8
1
62
256
6
ByLayer
370
18
48
1
60
0
100
AcDbSpline
70
4
71
3
72
26
73
22
40
0
40
0
40
0
40
0
40
0.250000000000038
40
0.250000000000038
40
0.375000000000057
40
0.375000000000057
40
0.406250000000058
40
0.406250000000058
40
0.437500000000058
40
0.437500000000058
40
0.500000000000051
40
0.500000000000051
40
0.625000000000036
40
0.625000000000036
40
0.75000000000002
40
0.75000000000002
40
0.812500000000018
40
0.812500000000018
40
0.875000000000016
40
0.875000000000016
40
1
40
1
40
1
40
1
41
1
10
29.1631538360164
20
2.32141617056922
30
0
41
1
10
29.2058552569149
20
2.19685695063447
30
0
41
1
10
29.248919520803
20
2.07169006294828
30
0
41
1
10
29.314121111814
20
1.88375848088501
30
0
41
1
10
29.3359608444158
20
1.82106481910444
30
0
41
1
10
29.3633837485414
20
1.74271446985924
30
0
41
1
10
29.3688747524915
20
1.72704480815133
30
0
41
1
10
29.3798690151183
20
1.69570638986019
30
0
41
1
10
29.3854079359385
20
1.68004360356088
30
0
41
1
10
29.4021523433148
20
1.63307616478213
30
0
41
1
10
29.4134908396603
20
1.6017562177864
30
0
41
1
10
29.4480117033556
20
1.50813909755328
30
0
41
1
10
29.4715640635572
20
1.44652929637257
30
0
41
1
10
29.5199853198611
20
1.32497279479438
30
0
41
1
10
29.5448504735412
20
1.26502139675259
30
0
41
1
10
29.5833336876576
20
1.17643040622335
30
0
41
1
10
29.5963588563872
20
1.14712264849561
30
0
41
1
10
29.6228383554047
20
1.08896976019099
30
0
41
1
10
29.6363207928372
20
1.06007001804562
30
0
41
1
10
29.6770225254156
20
0.975008335141411
30
0
41
1
10
29.7046148027903
20
0.920213604840001
30
0
41
1
10
29.7327288402346
20
0.867283167985107
30
0
0
SPLINE
5
DA
100
AcDbEntity
8
1
62
256
6
ByLayer
370
18
48
1
60
0
100
AcDbSpline
70
4
71
3
72
8
73
4
40
0
40
0
40
0
40
0
40
1
40
1
40
1
40
1
41
1
10
29.0761684477071
20
2.47255323584753
30
0
41
1
10
29.105146443552
20
2.42218477534033
30
0
41
1
10
29.134143273462
20
2.37180206225017
30
0
41
1
10
29.1631538360166
20
2.32141617056922
30
0
0
SPLINE
5
DB
100
AcDbEntity
8
1
62
256
6
ByLayer
370
18
48
1
60
0
100
AcDbSpline
70
4
71
3
72
18
73
14
40
0
40
0
40
0
40
0
40
0.122963428629704
40
0.122963428629704
40
0.245926857259408
40
0.245926857259408
40
0.491853714518816
40
0.491853714518816
40
0.737780571778224
40
0.737780571778224
40
0.983707429037632
40
0.983707429037632
40
1
40
1
40
1
40
1
41
1
10
29.0761684477088
20
2.47255323585418
30
0
41
1
10
28.9144327436532
20
2.47422477876961
30
0
41
1
10
28.7525651806528
20
2.47227421990868
30
0
41
1
10
28.4282696301388
20
2.4611136815829
30
0
41
1
10
28.2666141752451
20
2.45193146401706
30
0
41
1
10
27.7829109731015
20
2.41411740115976
30
0
41
1
10
27.4620326101258
20
2.3751247566384
30
0
41
1
10
26.8215407217051
20
2.2707598374142
30
0
41
1
10
26.501950433241
20
2.20547524394834
30
0
41
1
10
25.861959607069
20
2.05082974738744
30
0
41
1
10
25.5416571887442
20
1.96144063531204
30
0
41
1
10
25.1986777599877
20
1.85409852963861
30
0
41
1
10
25.1773613280879
20
1.84737946881523
30
0
41
1
10
25.1560386598761
20
1.84061133664338
30
0
0
SPLINE
5
DC
100
AcDbEntity
8
1
62
256
6
ByLayer
370
18
48
1
60
0
100
AcDbSpline
70
4
71
3
72
16
73
12
40
0
40
0
40
0
40
0
40
0.125000000000012
40
0.125000000000012
40
0.250000000000024
40
0.250000000000024
40
0.500000000000016
40
0.500000000000016
40
0.750000000000008
40
0.750000000000008
40
1
40
1
40
1
40
1
41
1
10
29.262490304152
20
0.289194021934094
30
0
41
1
10
29.2533095509599
20
0.284881907155977
30
0
41
1
10
29.2441309464552
20
0.280141338888342
30
0
41
1
10
29.2257908891278
20
0.269855562001993
30
0
41
1
10
29.2166291594945
20
0.264298487249846
30
0
41
1
10
29.189198157976
20
0.246843815988797
30
0
41
1
10
29.1709874870497
20
0.234366191801712
30
0
41
1
10
29.1347405059495
20
0.206526911245078
30
0
41
1
10
29.1167060764834
20
0.19116570682155
30
0
41
1
10
29.0808856785716
20
0.157723672746357
30
0
41
1
10
29.063099183477
20
0.139594170493353
30
0
41
1
10
29.0454693906225
20
0.120284418720956
30
0
0
SPLINE
5
DD
100
AcDbEntity
8
1
62
256
6
ByLayer
370
18
48
1
60
0
100
AcDbSpline
70
4
71
3
72
25
73
21
40
0
40
0
40
0
40
0
40
0.205793011566251
40
0.205793011566251
40
0.308689517349377
40
0.308689517349377
40
0.411586023132503
40
0.411586023132503
40
0.514482528915629
40
0.514482528915629
40
0.617379034698755
40
0.72027554048188
40
0.72027554048188
40
0.823172046265006
40
0.823172046265006
40
0.874620299156569
40
0.874620299156569
40
0.926068552048132
40
0.926068552048132
40
1
40
1
40
1
40
1
41
1
10
29.262490304152
20
0.289194021934094
30
0
41
1
10
29.2206852993505
20
0.312745806526664
30
0
41
1
10
29.1788377879678
20
0.335582324135714
30
0
41
1
10
29.11599306273
20
0.368601004913955
30
0
41
1
10
29.0950329927543
20
0.379408195785572
30
0
41
1
10
29.0530990579518
20
0.400790448728941
30
0
41
1
10
29.0321272297308
20
0.411399781187839
30
0
41
1
10
28.990165959742
20
0.432322059330858
30
0
41
1
10
28.9691375679945
20
0.442637699446266
30
0
41
1
10
28.9272421032832
20
0.462593441895905
30
0
41
1
10
28.885561392639
20
0.481886169035079
30
0
41
1
10
28.8443582974759
20
0.499704342602058
30
0
41
1
10
28.8034285807175
20
0.516678508554634
30
0
41
1
10
28.7831173732161
20
0.524691221541673
30
0
41
1
10
28.7527914804758
20
0.53627522996743
30
0
41
1
10
28.7427029587477
20
0.540074482545862
30
0
41
1
10
28.722537556022
20
0.547637049000002
30
0
41
1
10
28.7124638585104
20
0.551390534424201
30
0
41
1
10
28.6879741201783
20
0.560352799471929
30
0
41
1
10
28.6735910033988
20
0.565459931924522
30
0
41
1
10
28.6593111432109
20
0.570248277859889
30
0
0
SPLINE
5
DE
100
AcDbEntity
8
1
62
256
6
ByLayer
370
18
48
1
60
0
100
AcDbSpline
70
4
71
3
72
26
73
22
40
0
40
0
40
0
40
0
40
0.249999999999972
40
0.249999999999972
40
0.374999999999958
40
0.374999999999958
40
0.406249999999957
40
0.406249999999957
40
0.437499999999956
40
0.437499999999956
40
0.499999999999962
40
0.499999999999962
40
0.624999999999974
40
0.624999999999974
40
0.749999999999986
40
0.749999999999986
40
0.812499999999992
40
0.812499999999992
40
0.874999999999999
40
0.874999999999999
40
1
40
1
40
1
40
1
41
1
10
29.1631538360164
20
-2.32141617056917
30
0
41
1
10
29.205855256915
20
-2.19685695063444
30
0
41
1
10
29.248919520803
20
-2.07169006294825
30
0
41
1
10
29.314121111814
20
-1.88375848088498
30
0
41
1
10
29.3359608444158
20
-1.82106481910441
30
0
41
1
10
29.3633837485414
20
-1.74271446985924
30
0
41
1
10
29.3688747524915
20
-1.72704480815133
30
0
41
1
10
29.3798690151183
20
-1.69570638986016
30
0
41
1
10
29.3854079359385
20
-1.68004360356085
30
0
41
1
10
29.4021523433148
20
-1.63307616478213
30
0
41
1
10
29.4134908396603
20
-1.60175621778643
30
0
41
1
10
29.4480117033556
20
-1.50813909755328
30
0
41
1
10
29.4715640635572
20
-1.44652929637255
30
0
41
1
10
29.5199853198611
20
-1.32497279479435
30
0
41
1
10
29.5448504735412
20
-1.26502139675259
30
0
41
1
10
29.5833336876575
20
-1.17643040622338
30
0
41
1
10
29.5963588563872
20
-1.14712264849561
30
0
41
1
10
29.6228383554046
20
-1.08896976019102
30
0
41
1
10
29.6363207928372
20
-1.06007001804565
30
0
41
1
10
29.6770225254156
20
-0.975008335141439
30
0
41
1
10
29.7046148027904
20
-0.920213604840001
30
0
41
1
10
29.7327288402346
20
-0.867283167985079
30
0
0
SPLINE
5
DF
100
AcDbEntity
8
1
62
256
6
ByLayer
370
18
48
1
60
0
100
AcDbSpline
70
4
71
3
72
8
73
4
40
0
40
0
40
0
40
0
40
1
40
1
40
1
40
1
41
1
10
29.0761684477032
20
-2.47255323585423
30
0
41
1
10
29.1051464435494
20
-2.42218477534479
30
0
41
1
10
29.1341432734608
20
-2.37180206225239
30
0
41
1
10
29.1631538360167
20
-2.32141617056917
30
0
0
SPLINE
5
E0
100
AcDbEntity
8
1
62
256
6
ByLayer
370
18
48
1
60
0
100
AcDbSpline
70
4
71
3
72
8
73
4
40
0
40
0
40
0
40
0
40
1
40
1
40
1
40
1
41
1
10
13.600158316297
20
2.50089605570338
30
0
41
1
10
13.600158316297
20
2.47694966065234
30
0
41
1
10
13.600158316297
20
2.45280718592329
30
0
41
1
10
13.600158316297
20
2.42847025404032
30
0
0
SPLINE
5
E1
100
AcDbEntity
8
1
62
256
6
ByLayer
370
18
48
1
60
0
100
AcDbSpline
70
4
71
3
72
20
73
16
40
0
40
0
40
0
40
0
40
0.499999999999856
40
0.499999999999856
40
0.749999999999713
40
0.749999999999713
40
0.874999999999713
40
0.874999999999713
40
0.937499999999716
40
0.937499999999716
40
0.968749999999786
40
0.968749999999786
40
0.984374999999893
40
0.984374999999893
40
1
40
1
40
1
40
1
41
1
10
29.0112372372075
20
-2.57939842628349
30
0
41
1
10
29.0220264037171
20
-2.56176178184686
30
0
41
1
10
29.0328224649837
20
-2.54405849657726
30
0
41
1
10
29.0491091082401
20
-2.51723077353319
30
0
41
1
10
29.0545638888287
20
-2.50821979004508
30
0
41
1
10
29.0627051474908
20
-2.49477599997084
30
0
41
1
10
29.0654109661174
20
-2.49030928162759
30
0
41
1
10
29.0694390746448
20
-2.48366986686636
30
0
41
1
10
29.0707754930465
20
-2.48146927372832
30
0
41
1
10
29.0727721193592
20
-2.47818389953753
30
0
41
1
10
29.0734419619965
20
-2.47707968733775
30
0
41
1
10
29.0744761858164
20
-2.47535901276856
30
0
41
1
10
29.0748266701503
20
-2.47477246453997
30
0
41
1
10
29.0755255662924
20
-2.47360387844944
30
0
41
1
10
29.0759016836803
20
-2.472970539529
30
0
41
1
10
29.0761684477032
20
-2.47255323585423
30
0
0
SPLINE
5
E2
100
AcDbEntity
8
1
62
256
6
ByLayer
370
18
48
1
60
0
100
AcDbSpline
70
4
71
3
72
42
73
38
40
0
40
0
40
0
40
0
40
0.10509539815934
40
0.10509539815934
40
0.13306116696686
40
0.13306116696686
40
0.16102693577438
40
0.16102693577438
40
0.216958473389421
40
0.216958473389421
40
0.272890011004462
40
0.272890011004462
40
0.328821548619503
40
0.328821548619503
40
0.356787317427023
40
0.356787317427023
40
0.384753086234543
40
0.384753086234543
40
0.440684623849586
40
0.440684623849586
40
0.496616161464628
40
0.496616161464628
40
0.552547699079671
40
0.552547699079671
40
0.664410774309754
40
0.664410774309754
40
0.720342311924795
40
0.720342311924795
40
0.776273849539836
40
0.776273849539836
40
0.832205387154876
40
0.832205387154876
40
0.860171155962398
40
0.860171155962398
40
0.888136924769919
40
0.888136924769919
40
1
40
1
40
1
40
1
41
1
10
22.2499037946989
20
-0.685928714354333
30
0
41
1
10
21.9467811808535
20
-0.547565869896573
30
0
41
1
10
21.6436144388165
20
-0.405729557342028
30
0
41
1
10
21.2587030050091
20
-0.223914751334803
30
0
41
1
10
21.1777448062773
20
-0.185577701854214
30
0
41
1
10
21.015672136022
20
-0.108725457389085
30
0
41
1
10
20.9345548538194
20
-0.0702089232848095
30
0
41
1
10
20.6915169879498
20
0.0452125647714468
30
0
41
1
10
20.5297133129885
20
0.122092966027651
30
0
41
1
10
20.2063328852668
20
0.275259494423068
30
0
41
1
10
20.0447526840818
20
0.351533715007349
30
0
41
1
10
19.7215253357141
20
0.502857025032682
30
0
41
1
10
19.5598685292678
20
0.577885606466509
30
0
41
1
10
19.317159458486
20
0.689163581359765
30
0
41
1
10
19.2362173159912
20
0.726041056191633
30
0
41
1
10
19.0742204681618
20
0.799294280116669
30
0
41
1
10
18.9930996101407
20
0.835700816167645
30
0
41
1
10
18.7501110546453
20
0.943794488918996
30
0
41
1
10
18.5886190460765
20
1.01433726719739
30
0
41
1
10
18.2664044124363
20
1.15198634733343
30
0
41
1
10
18.1056895473315
20
1.21911392765304
30
0
41
1
10
17.7847878493964
20
1.34944458177932
30
0
41
1
10
17.6245990889502
20
1.41264551586278
30
0
41
1
10
17.1443902198418
20
1.59568424718839
30
0
41
1
10
16.8247877091129
20
1.70917824489277
30
0
41
1
10
16.3446251196486
20
1.86422334505846
30
0
41
1
10
16.1844438352501
20
1.91337570197251
30
0
41
1
10
15.8636333306509
20
2.00634827966849
30
0
41
1
10
15.7029964762687
20
2.05014618574714
30
0
41
1
10
15.3809952653321
20
2.13189833470105
30
0
41
1
10
15.2196200571116
20
2.16981907341699
30
0
41
1
10
14.9768418932737
20
2.22207857785625
30
0
41
1
10
14.8957366915292
20
2.23873912399688
30
0
41
1
10
14.7336430504602
20
2.27039439623698
30
0
41
1
10
14.652639960792
20
2.28539634505873
30
0
41
1
10
14.2477542855139
20
2.3562081388354
30
0
41
1
10
13.9242430489372
20
2.39940178564189
30
0
41
1
10
13.6001583162972
20
2.42847025403859
30
0
0
SPLINE
5
E3
100
AcDbEntity
8
1
62
256
6
ByLayer
370
18
48
1
60
0
100
AcDbSpline
70
4
71
3
72
8
73
4
40
0
40
0
40
0
40
0
40
1
40
1
40
1
40
1
41
1
10
29.0706530072194
20
-2.43787472938456
30
0
41
1
10
29.07010247162
20
-2.4369587132766
30
0
41
1
10
29.069552210943
20
-2.43599351819083
30
0
41
1
10
29.0690021922521
20
-2.43497922218327
30
0
0
SPLINE
5
E4
100
AcDbEntity
8
1
62
256
6
ByLayer
370
18
48
1
60
0
100
AcDbSpline
70
4
71
3
72
38
73
34
40
0
40
0
40
0
40
0
40
0.125000000000001
40
0.125000000000001
40
0.187500000000001
40
0.187500000000001
40
0.218750000000001
40
0.218750000000001
40
0.25
40
0.25
40
0.375
40
0.375
40
0.4375
40
0.4375
40
0.46875
40
0.46875
40
0.5
40
0.5
40
0.624999999999999
40
0.624999999999999
40
0.687499999999999
40
0.687499999999999
40
0.718749999999999
40
0.718749999999999
40
0.749999999999999
40
0.749999999999999
40
0.874999999999999
40
0.874999999999999
40
0.9375
40
0.9375
40
0.96875
40
0.96875
40
1
40
1
40
1
40
1
41
1
10
29.0451765750245
20
-0.240417484418487
30
0
41
1
10
29.0293856014334
20
-0.379136601836166
30
0
41
1
10
29.0176095452498
20
-0.515069702394328
30
0
41
1
10
29.0040379660787
20
-0.714784395736984
30
0
41
1
10
29.0002041252771
20
-0.780655191181012
30
0
41
1
10
28.9953092856677
20
-0.878379190541267
30
0
41
1
10
28.9938207102495
20
-0.910773275567379
30
0
41
1
10
28.9911042603742
20
-0.975192338202334
30
0
41
1
10
28.9898738588286
20
-1.00729412737783
30
0
41
1
10
28.9843536926392
20
-1.16577248354773
30
0
41
1
10
28.9819098307507
20
-1.28586849112776
30
0
41
1
10
28.9801453506547
20
-1.45630473913545
30
0
41
1
10
28.9798829555461
20
-1.51148998674074
30
0
41
1
10
28.9799205164327
20
-1.59178867574505
30
0
41
1
10
28.9800053887602
20
-1.6181411588401
30
0
41
1
10
28.9803162992761
20
-1.67000519073491
30
0
41
1
10
28.980543114779
20
-1.69555931002503
30
0
41
1
10
28.9820157000539
20
-1.82005631515389
30
0
41
1
10
28.9842368158207
20
-1.91005125839658
30
0
41
1
10
28.9893809258096
20
-2.03109050236051
30
0
41
1
10
28.9914056544843
20
-2.06909843931905
30
0
41
1
10
28.9950130297405
20
-2.1225436139631
30
0
41
1
10
28.9963110679275
20
-2.13976341783351
30
0
41
1
10
28.9991227201693
20
-2.1729925791177
30
0
41
1
10
29.0006378469707
20
-2.18900605690337
30
0
41
1
10
29.0087393421549
20
-2.26526417267453
30
0
41
1
10
29.0169235499519
20
-2.3148274225463
30
0
41
1
10
29.0330694778234
20
-2.37256265146232
30
0
41
1
10
29.039102442164
20
-2.38902464947987
30
0
41
1
10
29.0493549477268
20
-2.4094820283166
30
0
41
1
10
29.0529734345259
20
-2.41559432283697
30
0
41
1
10
29.0606564726782
20
-2.42638384499608
30
0
41
1
10
29.0647196052228
20
-2.431054216479
30
0
41
1
10
29.0690021922522
20
-2.43497922218327
30
0
0
SPLINE
5
E5
100
AcDbEntity
8
1
62
256
6
ByLayer
370
18
48
1
60
0
100
AcDbSpline
70
4
71
3
72
8
73
4
40
0
40
0
40
0
40
0
40
1
40
1
40
1
40
1
41
1
10
28.99481189182
20
-2.56327371809078
30
0
41
1
10
29.0183166328489
20
-2.52525588477562
30
0
41
1
10
29.0418504296034
20
-2.48705170174875
30
0
41
1
10
29.0654181867042
20
-2.44866238232478
30
0
0
SPLINE
5
E6
100
AcDbEntity
8
1
62
256
6
ByLayer
370
18
48
1
60
0
100
AcDbSpline
70
4
71
3
72
14
73
10
40
0
40
0
40
0
40
0
40
0.250000000000001
40
0.250000000000001
40
0.500000000000002
40
0.500000000000002
40
0.750000000000003
40
0.750000000000003
40
1
40
1
40
1
40
1
41
1
10
29.0654181867042
20
-2.44866238232478
30
0
41
1
10
29.0661125067787
20
-2.44753141025103
30
0
41
1
10
29.0668162747478
20
-2.44633944443638
30
0
41
1
10
29.0681770829618
20
-2.44391566428624
30
0
41
1
10
29.0688257147622
20
-2.44269496839146
30
0
41
1
10
29.0698658306941
20
-2.44056990210726
30
0
41
1
10
29.0702597847914
20
-2.43965815262482
30
0
41
1
10
29.0706925151776
20
-2.43838482431397
30
0
41
1
10
29.0707385043662
20
-2.43801698496935
30
0
41
1
10
29.0706530072193
20
-2.43787472938442
30
0
0
SPLINE
5
E7
100
AcDbEntity
8
1
62
256
6
ByLayer
370
18
48
1
60
0
100
AcDbSpline
70
4
71
3
72
45
73
41
40
0
40
0
40
0
40
0
40
0.0229169930048221
40
0.0229169930048221
40
0.0525255689743742
40
0.0525255689743742
40
0.111742720913476
40
0.111742720913476
40
0.170959872852578
40
0.170959872852578
40
0.23017702479168
40
0.23017702479168
40
0.289394176730782
40
0.289394176730782
40
0.319002752700334
40
0.319002752700334
40
0.348611328669886
40
0.348611328669886
40
0.407828480608988
40
0.407828480608988
40
0.46704563254809
40
0.46704563254809
40
0.526262784487192
40
0.526262784487192
40
0.555871360456743
40
0.555871360456743
40
0.585479936426293
40
0.585479936426293
40
0.644697088365395
40
0.644697088365395
40
0.763131392243597
40
0.763131392243597
40
0.822348544182698
40
0.822348544182698
40
0.881565696121798
40
0.881565696121798
40
0.940782848060899
40
0.97039142403045
40
0.97039142403045
40
1
40
1
40
1
40
1
41
1
10
20.9591378216741
20
0.217991840902044
30
0
41
1
10
21.0213156676636
20
0.18901129034731
30
0
41
1
10
21.0835190573525
20
0.159971856964774
30
0
41
1
10
21.2261618958928
20
0.0933086999473574
30
0
41
1
10
21.306660401889
20
0.0556363347389492
30
0
41
1
10
21.5480817861632
20
-0.0573935872445475
30
0
41
1
10
21.7087664636345
20
-0.132682134594404
30
0
41
1
10
22.0298722842179
20
-0.282587955587303
30
0
41
1
10
22.1902909929628
20
-0.357208398152551
30
0
41
1
10
22.5110828613616
20
-0.505287460892504
30
0
41
1
10
22.6714596544936
20
-0.578742269195658
30
0
41
1
10
22.992464174685
20
-0.723910839163295
30
0
41
1
10
23.1530878742027
20
-0.795629055445431
30
0
41
1
10
23.3943649978094
20
-0.901533457330203
30
0
41
1
10
23.4748747021812
20
-0.936566894767765
30
0
41
1
10
23.6356982017614
20
-1.0058640426036
30
0
41
1
10
23.7160507838902
20
-1.04014488457619
30
0
41
1
10
23.9569827266122
20
-1.14179762780529
30
0
41
1
10
24.1174353675386
20
-1.20798185275206
30
0
41
1
10
24.4382456461447
20
-1.33675776277789
30
0
41
1
10
24.5986035759868
20
-1.39935071519787
30
0
41
1
10
24.9194702382503
20
-1.52051704620502
30
0
41
1
10
25.0799761463681
20
-1.57908587883887
30
0
41
1
10
25.3210131863026
20
-1.66351116230496
30
0
41
1
10
25.4014448331917
20
-1.69109761997049
30
0
41
1
10
25.5623120139782
20
-1.74505649913507
30
0
41
1
10
25.6426433263052
20
-1.77139166073846
30
0
41
1
10
25.8832988642036
20
-1.84835651224714
30
0
41
1
10
26.0432997394901
20
-1.8969588513294
30
0
41
1
10
26.5223777389867
20
-2.03432745221602
30
0
41
1
10
26.8405324540778
20
-2.11466501902726
30
0
41
1
10
27.3173859323936
20
-2.21685125085048
30
0
41
1
10
27.4762746174229
20
-2.24785902336882
30
0
41
1
10
27.7942071704406
20
-2.30352995743863
30
0
41
1
10
27.9532487737864
20
-2.32819378846747
30
0
41
1
10
28.2716585531705
20
-2.37097630302071
30
0
41
1
10
28.5107123772349
20
-2.39815604098376
30
0
41
1
10
28.7504158567429
20
-2.41775385740888
30
0
41
1
10
28.910394130692
20
-2.42910570616112
30
0
41
1
10
28.9904653766022
20
-2.43388253226465
30
0
41
1
10
29.0706530072221
20
-2.43787472938456
30
0
0
SPLINE
5
E8
100
AcDbEntity
8
1
62
256
6
ByLayer
370
18
48
1
60
0
100
AcDbSpline
70
4
71
3
72
41
73
37
40
0
40
0
40
0
40
0
40
0.0313087025726735
40
0.0313087025726735
40
0.0626174051453469
40
0.0626174051453469
40
0.125234810290694
40
0.125234810290694
40
0.187852215436041
40
0.187852215436041
40
0.250469620581389
40
0.250469620581389
40
0.375704430872083
40
0.375704430872083
40
0.438321836017431
40
0.438321836017431
40
0.469630538590106
40
0.469630538590106
40
0.50093924116278
40
0.50093924116278
40
0.563556646308128
40
0.563556646308128
40
0.626174051453476
40
0.626174051453476
40
0.688791456598824
40
0.720100159171499
40
0.720100159171499
40
0.751408861744173
40
0.751408861744173
40
0.814026266889521
40
0.814026266889521
40
0.87664367203487
40
0.87664367203487
40
0.939261077180218
40
0.939261077180218
40
1
40
1
40
1
40
1
41
1
10
29.0654181914494
20
-2.44866238255392
30
0
41
1
10
28.9852505272208
20
-2.44479087647039
30
0
41
1
10
28.9051773058673
20
-2.44012301788456
30
0
41
1
10
28.7452169306858
20
-2.42898835857164
30
0
41
1
10
28.6653249654732
20
-2.42256049554828
30
0
41
1
10
28.425866296554
20
-2.40073715053552
30
0
41
1
10
28.2665167160362
20
-2.38280295994045
30
0
41
1
10
27.9481471633233
20
-2.34036101480783
30
0
41
1
10
27.7891263824091
20
-2.31585202789094
30
0
41
1
10
27.4712351054736
20
-2.26045681018448
30
0
41
1
10
27.3123667387961
20
-2.22956997495385
30
0
41
1
10
26.8355704438385
20
-2.1276941954124
30
0
41
1
10
26.5174496542657
20
-2.04749327999943
30
0
41
1
10
26.0384050111679
20
-1.91021887238054
30
0
41
1
10
25.8784122278574
20
-1.86162948842301
30
0
41
1
10
25.6377641357981
20
-1.78465627851449
30
0
41
1
10
25.5574347057432
20
-1.75831359446633
30
0
41
1
10
25.3965718282564
20
-1.70432571267358
30
0
41
1
10
25.3161444853102
20
-1.67671889669319
30
0
41
1
10
25.0751170612322
20
-1.59222290451044
30
0
41
1
10
24.9146164647518
20
-1.53359131491123
30
0
41
1
10
24.5937621464642
20
-1.4122610859319
30
0
41
1
10
24.433410590663
20
-1.34956791798876
30
0
41
1
10
24.1126118265173
20
-1.22055646948735
30
0
41
1
10
23.8719406707069
20
-1.1210769995408
30
0
41
1
10
23.630890094803
20
-1.01798923964046
30
0
41
1
10
23.4700710618019
20
-0.948518631095368
30
0
41
1
10
23.3895631836021
20
-0.913393827942485
30
0
41
1
10
23.1482934149658
20
-0.807205530729135
30
0
41
1
10
22.9876751932476
20
-0.735283445955247
30
0
41
1
10
22.6666849054355
20
-0.589672436302777
30
0
41
1
10
22.5063164634285
20
-0.515979929102713
30
0
41
1
10
22.1855383077045
20
-0.367400691865896
30
0
41
1
10
22.0251253693954
20
-0.29251686614225
30
0
41
1
10
21.708846649316
20
-0.144310100777062
30
0
41
1
10
21.5529908072608
20
-0.0710054192589098
30
0
41
1
10
21.3968903246021
20
0.0023822663286808
30
0
0
SPLINE
5
E9
100
AcDbEntity
8
1
62
256
6
ByLayer
370
18
48
1
60
0
100
AcDbSpline
70
4
71
3
72
44
73
40
40
0
40
0
40
0
40
0
40
0.109935407705996
40
0.109935407705996
40
0.164903111558995
40
0.164903111558995
40
0.219870815411993
40
0.219870815411993
40
0.329806223117986
40
0.329806223117986
40
0.384773926970984
40
0.384773926970984
40
0.412257778897484
40
0.412257778897484
40
0.439741630823984
40
0.439741630823984
40
0.494709334676986
40
0.494709334676986
40
0.549677038529989
40
0.549677038529989
40
0.604644742382991
40
0.604644742382991
40
0.659612446235993
40
0.659612446235993
40
0.714580150088995
40
0.714580150088995
40
0.769547853941997
40
0.769547853941997
40
0.824515557794999
40
0.824515557794999
40
0.879483261648001
40
0.879483261648001
40
0.906967113574503
40
0.906967113574503
40
0.934450965501005
40
0.934450965501005
40
0.98941866935401
40
0.98941866935401
40
1
40
1
40
1
40
1
41
1
10
29.0451765722798
20
-0.240417484221069
30
0
41
1
10
28.7260172003651
20
-0.0899398108693674
30
0
41
1
10
28.4078354610738
20
0.0598224137781642
30
0
41
1
10
27.9320140820538
20
0.282644850441074
30
0
41
1
10
27.7736467768205
20
0.356613639477416
30
0
41
1
10
27.4570019209807
20
0.503190736301747
30
0
41
1
10
27.298723390396
20
0.57579675873734
30
0
41
1
10
26.8236929986046
20
0.790887061458477
30
0
41
1
10
26.5067494258375
20
0.930651857620177
30
0
41
1
10
26.0295716227151
20
1.13196513667214
30
0
41
1
10
25.870215248505
20
1.19767733047746
30
0
41
1
10
25.6306457456046
20
1.2938359125306
30
0
41
1
10
25.550700655912
20
1.32548890129385
30
0
41
1
10
25.3906100575478
20
1.38790985982968
30
0
41
1
10
25.3104688784463
20
1.41867381560255
30
0
41
1
10
25.0705309637912
20
1.50917650138479
30
0
41
1
10
24.910759989557
20
1.56729078511194
30
0
41
1
10
24.5916907796603
20
1.67883206880507
30
0
41
1
10
24.4324025076934
20
1.73226576352255
30
0
41
1
10
24.1143110019144
20
1.83403665360524
30
0
41
1
10
23.9555040458628
20
1.88239048395283
30
0
41
1
10
23.6384665524956
20
1.97317567044197
30
0
41
1
10
23.4802748120874
20
2.0155486342191
30
0
41
1
10
23.1636915970191
20
2.09477836972067
30
0
41
1
10
23.0052555518895
20
2.1316848571399
30
0
41
1
10
22.6880641298886
20
2.19958790969915
30
0
41
1
10
22.5293295516589
20
2.23055146628741
30
0
41
1
10
22.2112975667246
20
2.28648548057515
30
0
41
1
10
22.0519862076314
20
2.31149261011774
30
0
41
1
10
21.732669825467
20
2.35498423199894
30
0
41
1
10
21.5726716601113
20
2.37349306423715
30
0
41
1
10
21.3320406733478
20
2.39554009298246
30
0
41
1
10
21.2517280744271
20
2.4019032086855
30
0
41
1
10
21.0914065476246
20
2.4127703500304
30
0
41
1
10
21.01131749247
20
2.41729631669173
30
0
41
1
10
20.7710597616971
20
2.42853955959652
30
0
41
1
10
20.6108307412613
20
2.43307199567511
30
0
41
1
10
20.4197037393241
20
2.43469180588298
30
0
41
1
10
20.3888502829716
20
2.43483492526221
30
0
41
1
10
20.3579959388228
20
2.43485721185857
30
0
0
SPLINE
5
EA
100
AcDbEntity
8
1
62
256
6
ByLayer
370
18
48
1
60
0
100
AcDbSpline
70
4
71
3
72
8
73
4
40
0
40
0
40
0
40
0
40
1
40
1
40
1
40
1
41
1
10
29.0428863060521
20
-0.229312707367541
30
0
41
1
10
29.044780818574
20
-0.229704550080385
30
0
41
1
10
29.0458303708256
20
-0.234674078156928
30
0
41
1
10
29.0451765749061
20
-0.240417485459261
30
0
0
SPLINE
5
EB
100
AcDbEntity
8
1
62
256
6
ByLayer
370
18
48
1
60
0
100
AcDbSpline
70
4
71
3
72
46
73
42
40
0
40
0
40
0
40
0
40
0.0386513748788389
40
0.0386513748788389
40
0.0950768203224251
40
0.0950768203224251
40
0.123289543044218
40
0.123289543044218
40
0.151502265766011
40
0.151502265766011
40
0.207927711209595
40
0.207927711209595
40
0.264353156653179
40
0.264353156653179
40
0.320778602096763
40
0.320778602096763
40
0.377204047540347
40
0.377204047540347
40
0.433629492983931
40
0.433629492983931
40
0.490054938427515
40
0.490054938427515
40
0.546480383871099
40
0.546480383871099
40
0.602905829314683
40
0.602905829314683
40
0.617012190675579
40
0.617012190675579
40
0.631118552036475
40
0.631118552036475
40
0.659331274758269
40
0.659331274758269
40
0.715756720201855
40
0.715756720201855
40
0.82860761108903
40
0.82860761108903
40
0.885033056532615
40
0.885033056532615
40
0.9414585019762
40
0.9414585019762
40
1
40
1
40
1
40
1
41
1
10
20.1226733305123
20
2.44209890154039
30
0
41
1
10
20.232447921975
20
2.44450232859973
30
0
41
1
10
20.3421996632001
20
2.44528976237493
30
0
41
1
10
20.6121536833255
20
2.44352510774732
30
0
41
1
10
20.7723167264375
20
2.43928838884057
30
0
41
1
10
21.012472808004
20
2.42847451011477
30
0
41
1
10
21.0925279280891
20
2.42409033103718
30
0
41
1
10
21.2527830382278
20
2.41350425736917
30
0
41
1
10
21.3330639945995
20
2.40728168275078
30
0
41
1
10
21.5736158828222
20
2.38564043155952
30
0
41
1
10
21.7335574777878
20
2.36738203091204
30
0
41
1
10
22.0527530374785
20
2.324354098432
30
0
41
1
10
22.2120005464114
20
2.29956063916163
30
0
41
1
10
22.5298986614227
20
2.24402306898426
30
0
41
1
10
22.688563899426
20
2.21324458408586
30
0
41
1
10
23.0056124883374
20
2.14567702018962
30
0
41
1
10
23.1639743849996
20
2.10891726617683
30
0
41
1
10
23.4804045787801
20
2.02995067039058
30
0
41
1
10
23.6385187853045
20
1.98770220046657
30
0
41
1
10
23.9554068226993
20
1.89713977907351
30
0
41
1
10
24.1141400733943
20
1.84887402295564
30
0
41
1
10
24.4320838532794
20
1.74723343504317
30
0
41
1
10
24.5912986285324
20
1.69384464776354
30
0
41
1
10
24.9102209443199
20
1.5823496850272
30
0
41
1
10
25.0699192901937
20
1.52423537134371
30
0
41
1
10
25.269775861398
20
1.44879500085369
30
0
41
1
10
25.3097631516332
20
1.43356726357573
30
0
41
1
10
25.3898053226117
20
1.40283068774187
30
0
41
1
10
25.4298615504049
20
1.38732145607241
30
0
41
1
10
25.5498907552766
20
1.34048174629069
30
0
41
1
10
25.6298087341468
20
1.30880620461826
30
0
41
1
10
25.8692947643437
20
1.21256478434165
30
0
41
1
10
26.0285930667098
20
1.14677818505052
30
0
41
1
10
26.5055867857772
20
0.945182418583983
30
0
41
1
10
26.8223966256601
20
0.805157018718035
30
0
41
1
10
27.2972179210931
20
0.589568974205406
30
0
41
1
10
27.4554253583085
20
0.516779249622886
30
0
41
1
10
27.7719266322284
20
0.369799816119752
30
0
41
1
10
27.9302209085802
20
0.295611607174664
30
0
41
1
10
28.2532354877111
20
0.143796320935934
30
0
41
1
10
28.4179771543451
20
0.0661467880439659
30
0
41
1
10
28.582981285059
20
-0.0117787332757757
30
0
0
SPLINE
5
EC
100
AcDbEntity
8
1
62
256
6
ByLayer
370
18
48
1
60
0
100
AcDbSpline
70
4
71
3
72
8
73
4
40
0
40
0
40
0
40
0
40
1
40
1
40
1
40
1
41
1
10
29.0012830011258
20
-0.219761590960388
30
0
41
1
10
29.0151345845943
20
-0.223257487249697
30
0
41
1
10
29.0289995297618
20
-0.226440500384854
30
0
41
1
10
29.0428863060522
20
-0.229312707367598
30
0
0
SPLINE
5
ED
100
AcDbEntity
8
1
62
256
6
ByLayer
370
18
48
1
60
0
100
AcDbSpline
70
4
71
3
72
10
73
6
40
0
40
0
40
0
40
0
40
0.185667487882122
40
0.185667487882122
40
1
40
1
40
1
40
1
41
1
10
14.8343604524018
20
-2.43302012676375
30
0
41
1
10
14.7614922872553
20
-2.44377000893459
30
0
41
1
10
14.6886384661175
20
-2.45379999684982
30
0
41
1
10
14.2962466161057
20
-2.50390002330866
30
0
41
1
10
13.9766822958131
20
-2.53069696835109
30
0
41
1
10
13.6561479496328
20
-2.54307597157396
30
0
0
SPLINE
5
EE
100
AcDbEntity
8
1
62
256
6
ByLayer
370
18
48
1
60
0
100
AcDbSpline
70
4
71
3
72
16
73
12
40
0
40
0
40
0
40
0
40
0.249999999999946
40
0.249999999999946
40
0.374999999999988
40
0.374999999999988
40
0.50000000000003
40
0.50000000000003
40
0.750000000000015
40
0.750000000000015
40
1
40
1
40
1
40
1
41
1
10
13.6561479496327
20
-2.54307597157396
30
0
41
1
10
13.6477291832411
20
-2.5434011034593
30
0
41
1
10
13.6400772256328
20
-2.54380598544125
30
0
41
1
10
13.629721364298
20
-2.54450104740928
30
0
41
1
10
13.6264515682338
20
-2.54474866918215
30
0
41
1
10
13.620496704149
20
-2.54525346722764
30
0
41
1
10
13.6177838244054
20
-2.54551230623369
30
0
41
1
10
13.6104327107037
20
-2.54630057108787
30
0
41
1
10
13.6065817120367
20
-2.54684516460546
30
0
41
1
10
13.6014865762472
20
-2.54786894337755
30
0
41
1
10
13.600158316297
20
-2.54836084197282
30
0
41
1
10
13.600158316297
20
-2.54880462936549
30
0
0
SPLINE
5
EF
100
AcDbEntity
8
1
62
256
6
ByLayer
370
18
48
1
60
0
100
AcDbSpline
70
4
71
3
72
28
73
24
40
0
40
0
40
0
40
0
40
0.124999999999999
40
0.124999999999999
40
0.187499999999986
40
0.187499999999986
40
0.249999999999973
40
0.312499999999959
40
0.312499999999959
40
0.374999999999946
40
0.374999999999946
40
0.499999999999918
40
0.499999999999918
40
0.62499999999989
40
0.62499999999989
40
0.687499999999925
40
0.687499999999925
40
0.74999999999996
40
0.812499999999995
40
0.812499999999995
40
0.87500000000003
40
0.87500000000003
40
1
40
1
40
1
40
1
41
1
10
13.600158316297
20
-0.829031862886382
30
0
41
1
10
13.600158316297
20
-0.820951454007599
30
0
41
1
10
13.6012343420418
20
-0.813031126825592
30
0
41
1
10
13.6044129508796
20
-0.801385302526739
30
0
41
1
10
13.6057492260548
20
-0.797515914018504
30
0
41
1
10
13.6089047521299
20
-0.790028137348202
30
0
41
1
10
13.6125347688306
20
-0.78278475351496
30
0
41
1
10
13.6170919264456
20
-0.776020776594748
30
0
41
1
10
13.6221243595047
20
-0.769503685138289
30
0
41
1
10
13.6248801664028
20
-0.766374120249566
30
0
41
1
10
13.633628962206
20
-0.757626187585686
30
0
41
1
10
13.640173828522
20
-0.752536298002298
30
0
41
1
10
13.6546841219205
20
-0.743934967743542
30
0
41
1
10
13.6623544517016
20
-0.740595616712938
30
0
41
1
10
13.6744647635143
20
-0.736992249640764
30
0
41
1
10
13.6786341845132
20
-0.736024573584245
30
0
41
1
10
13.6869905355836
20
-0.734619578517936
30
0
41
1
10
13.6953756412008
20
-0.733732470923741
30
0
41
1
10
13.7038169979014
20
-0.733859036208031
30
0
41
1
10
13.7122872262929
20
-0.734505842698979
30
0
41
1
10
13.7165269460327
20
-0.735093245175449
30
0
41
1
10
13.7289260787339
20
-0.737586619382455
30
0
41
1
10
13.7368924333075
20
-0.740218050681932
30
0
41
1
10
13.7445484669692
20
-0.743850047927879
30
0
0
SPLINE
5
F0
100
AcDbEntity
8
1
62
256
6
ByLayer
370
18
48
1
60
0
100
AcDbSpline
70
4
71
3
72
38
73
34
40
0
40
0
40
0
40
0
40
0.143740110372669
40
0.143740110372669
40
0.215610165559002
40
0.215610165559002
40
0.287480220745336
40
0.287480220745336
40
0.323415248338501
40
0.323415248338501
40
0.359350275931667
40
0.359350275931667
40
0.431220331117998
40
0.431220331117998
40
0.503090386304328
40
0.503090386304328
40
0.574960441490659
40
0.574960441490659
40
0.610895469083824
40
0.610895469083824
40
0.646830496676988
40
0.646830496676988
40
0.718700551863319
40
0.718700551863319
40
0.79057060704965
40
0.79057060704965
40
0.86244066223598
40
0.86244066223598
40
0.898375689829145
40
0.898375689829145
40
0.934310717422309
40
0.934310717422309
40
1
40
1
40
1
40
1
41
1
10
13.7445484669692
20
-0.743850047927879
30
0
41
1
10
14.0626157891686
20
-0.894740141845489
30
0
41
1
10
14.3804569767922
20
-1.03941086803474
30
0
41
1
10
14.8573044159831
20
-1.24667991250931
30
0
41
1
10
15.0162362308973
20
-1.31419663807844
30
0
41
1
10
15.3341410573237
20
-1.44590481252632
30
0
41
1
10
15.4931699634261
20
-1.50999340942408
30
0
41
1
10
15.7321997266079
20
-1.60283105146675
30
0
41
1
10
15.8118944029512
20
-1.6332136702907
30
0
41
1
10
15.9711306146186
20
-1.69272031304001
30
0
41
1
10
16.0507089194048
20
-1.72185285284186
30
0
41
1
10
16.2893406122379
20
-1.8073753670102
30
0
41
1
10
16.4482548674332
20
-1.86194823496072
30
0
41
1
10
16.7657584788136
20
-1.96612320839807
30
0
41
1
10
16.9244247795453
20
-2.01560627556736
30
0
41
1
10
17.2422295608056
20
-2.10855266208935
30
0
41
1
10
17.4013336880689
20
-2.15206916833992
30
0
41
1
10
17.6404098744137
20
-2.21279111682458
30
0
41
1
10
17.7201889581011
20
-2.23228282460286
30
0
41
1
10
17.8795188612432
20
-2.26968246585716
30
0
41
1
10
17.9591072535483
20
-2.2876037295234
30
0
41
1
10
18.1976711895821
20
-2.33899656383611
30
0
41
1
10
18.356480354891
20
-2.3700583969557
30
0
41
1
10
18.6741089382487
20
-2.42541013329938
30
0
41
1
10
18.832873755265
20
-2.44975307515523
30
0
41
1
10
19.150309039176
20
-2.49168152675691
30
0
41
1
10
19.3090523544801
20
-2.50920497206414
30
0
41
1
10
19.547782916194
20
-2.53008709630907
30
0
41
1
10
19.6274943828056
20
-2.53615875376559
30
0
41
1
10
19.7868384572432
20
-2.54650984184468
30
0
41
1
10
19.8664665789862
20
-2.55079020347921
30
0
41
1
10
20.0915371390465
20
-2.56038090159089
30
0
41
1
10
20.2368804630967
20
-2.56361212874788
30
0
41
1
10
20.3821190654213
20
-2.56387241197828
30
0
0
SPLINE
5
F1
100
AcDbEntity
8
1
62
256
6
ByLayer
370
18
48
1
60
0
100
AcDbSpline
70
4
71
3
72
142
73
138
40
0
40
0
40
0
40
0
40
0.0031124030112534
40
0.0031124030112534
40
0.0124310252785552
40
0.0124310252785552
40
0.0310682698131588
40
0.0310682698131588
40
0.0497055143477625
40
0.0497055143477625
40
0.0683427588823661
40
0.0683427588823661
40
0.0869800034169697
40
0.0869800034169697
40
0.105617247951573
40
0.105617247951573
40
0.124254492486177
40
0.124254492486177
40
0.133573114753479
40
0.133573114753479
40
0.142891737020781
40
0.142891737020781
40
0.161528981555385
40
0.161528981555385
40
0.180166226089989
40
0.180166226089989
40
0.189484848357292
40
0.189484848357292
40
0.198803470624594
40
0.198803470624594
40
0.217440715159199
40
0.217440715159199
40
0.236077959693804
40
0.236077959693804
40
0.245396581961107
40
0.245396581961107
40
0.254715204228409
40
0.254715204228409
40
0.273352448763015
40
0.273352448763015
40
0.29198969329762
40
0.29198969329762
40
0.310626937832225
40
0.310626937832225
40
0.32926418236683
40
0.32926418236683
40
0.347901426901435
40
0.347901426901435
40
0.366538671436041
40
0.366538671436041
40
0.385175915970646
40
0.385175915970646
40
0.394494538237948
40
0.394494538237948
40
0.403813160505251
40
0.403813160505251
40
0.413131782772554
40
0.413131782772554
40
0.422450405039856
40
0.441087649574462
40
0.441087649574462
40
0.450406271841765
40
0.450406271841765
40
0.459724894109068
40
0.459724894109068
40
0.478362138643674
40
0.478362138643674
40
0.496999383178281
40
0.496999383178281
40
0.506318005445585
40
0.506318005445585
40
0.515636627712889
40
0.515636627712889
40
0.534273872247496
40
0.534273872247496
40
0.552911116782103
40
0.552911116782103
40
0.562229739049406
40
0.562229739049406
40
0.571548361316709
40
0.571548361316709
40
0.580866983584012
40
0.580866983584012
40
0.590185605851315
40
0.590185605851315
40
0.608822850385922
40
0.608822850385922
40
0.627460094920529
40
0.627460094920529
40
0.646097339455135
40
0.646097339455135
40
0.664734583989742
40
0.664734583989742
40
0.683371828524349
40
0.683371828524349
40
0.702009073058956
40
0.702009073058956
40
0.720646317593563
40
0.720646317593563
40
0.729964939860866
40
0.729964939860866
40
0.739283562128169
40
0.757920806662776
40
0.757920806662776
40
0.767239428930079
40
0.767239428930079
40
0.776558051197383
40
0.776558051197383
40
0.785876673464687
40
0.785876673464687
40
0.795195295731991
40
0.795195295731991
40
0.813832540266599
40
0.813832540266599
40
0.823151162533902
40
0.823151162533902
40
0.832469784801205
40
0.832469784801205
40
0.851107029335812
40
0.851107029335812
40
0.869744273870419
40
0.869744273870419
40
0.879062896137723
40
0.879062896137723
40
0.888381518405026
40
0.888381518405026
40
0.907018762939633
40
0.907018762939633
40
0.92565600747424
40
0.92565600747424
40
0.944293252008847
40
0.944293252008847
40
0.962930496543454
40
0.962930496543454
40
0.98156774107806
40
0.98156774107806
40
1
40
1
40
1
40
1
41
1
10
25.4655697923808
20
-1.72857208170049
30
0
41
1
10
25.4440149669465
20
-1.73647031436243
30
0
41
1
10
25.4224513231323
20
-1.74432351443684
30
0
41
1
10
25.3362985517276
20
-1.77550449956445
30
0
41
1
10
25.2717894847299
20
-1.7984153586406
30
0
41
1
10
25.0784580100937
20
-1.86574262772371
30
0
41
1
10
24.9497866930537
20
-1.90869586610546
30
0
41
1
10
24.6932001577018
20
-1.9912575669195
30
0
41
1
10
24.5652985368586
20
-2.03086075360886
30
0
41
1
10
24.3096262012024
20
-2.10587230738159
30
0
41
1
10
24.1819043875023
20
-2.14135512871559
30
0
41
1
10
23.9265713435617
20
-2.20821170591145
30
0
41
1
10
23.7989391102633
20
-2.23957313600232
30
0
41
1
10
23.5441091849813
20
-2.29851607349371
30
0
41
1
10
23.4168156159401
20
-2.3259839521902
30
0
41
1
10
23.1619602140165
20
-2.37646298355963
30
0
41
1
10
23.0344468244068
20
-2.39952373537488
30
0
41
1
10
22.8429622877678
20
-2.43080639029338
30
0
41
1
10
22.7790992701892
20
-2.44068396136598
30
0
41
1
10
22.6513607541279
20
-2.45937152691656
30
0
41
1
10
22.5874975927459
20
-2.46818807575968
30
0
41
1
10
22.3958577098863
20
-2.49299050226438
30
0
41
1
10
22.2679524468988
20
-2.50728161570072
30
0
41
1
10
22.0115024789635
20
-2.53120039338759
30
0
41
1
10
21.8829835725627
20
-2.5408455383014
30
0
41
1
10
21.6897140265231
20
-2.55181719140606
30
0
41
1
10
21.6252168155328
20
-2.55489443722962
30
0
41
1
10
21.4961346445266
20
-2.55988488711853
30
0
41
1
10
21.4315030939497
20
-2.56179649579835
30
0
41
1
10
21.2379885057151
20
-2.56572077154337
30
0
41
1
10
21.1092768637899
20
-2.56593044712579
30
0
41
1
10
20.8522525099898
20
-2.56165336219274
30
0
41
1
10
20.7239271288586
20
-2.55717375345719
30
0
41
1
10
20.5317575170323
20
-2.54699723701569
30
0
41
1
10
20.467770776594
20
-2.54302449783188
30
0
41
1
10
20.3399582940152
20
-2.53390361440856
30
0
41
1
10
20.2761216568105
20
-2.52875717234039
30
0
41
1
10
20.0846702295895
20
-2.51161070569464
30
0
41
1
10
19.9571004950465
20
-2.49791314244672
30
0
41
1
10
19.7019782061261
20
-2.46610858115608
30
0
41
1
10
19.5743864271575
20
-2.44802935536867
30
0
41
1
10
19.3193438064919
20
-2.40741330826847
30
0
41
1
10
19.1920038936681
20
-2.38478218945409
30
0
41
1
10
18.9370236831924
20
-2.33530854835271
30
0
41
1
10
18.809399100574
20
-2.3084667243989
30
0
41
1
10
18.5537725501962
20
-2.25069913453356
30
0
41
1
10
18.425725566433
20
-2.21982762988648
30
0
41
1
10
18.1695046761423
20
-2.15370456022427
30
0
41
1
10
18.0413391497769
20
-2.11841824943542
30
0
41
1
10
17.7842366461677
20
-2.04410942304869
30
0
41
1
10
17.6553508969205
20
-2.00503645091584
30
0
41
1
10
17.4614342797357
20
-1.94365574535928
30
0
41
1
10
17.3966938827793
20
-1.92274090249018
30
0
41
1
10
17.2675197792377
20
-1.88009032078241
30
0
41
1
10
17.2030358036399
20
-1.85832346803488
30
0
41
1
10
17.0742920412648
20
-1.81387647590569
30
0
41
1
10
17.0100215000287
20
-1.7912120288197
30
0
41
1
10
16.8815825118288
20
-1.74515931421587
30
0
41
1
10
16.689070326884
20
-1.67500687668246
30
0
41
1
10
16.4969318860607
20
-1.60176887577586
30
0
41
1
10
16.3049562265676
20
-1.5266485930124
30
0
41
1
10
16.2409944108741
20
-1.50129024203702
30
0
41
1
10
16.1131906274156
20
-1.44983525923294
30
0
41
1
10
16.0493611715401
20
-1.42371642097641
30
0
41
1
10
15.8579976422297
20
-1.34433872548951
30
0
41
1
10
15.7305156217367
20
-1.29018513240445
30
0
41
1
10
15.4754247279625
20
-1.17999353102448
30
0
41
1
10
15.347834880816
20
-1.12392393269792
30
0
41
1
10
15.1563481611629
20
-1.03843902479983
30
0
41
1
10
15.0925111288957
20
-1.0096974366069
30
0
41
1
10
14.9648850163052
20
-0.951592959128476
30
0
41
1
10
14.9010940205618
20
-0.922232818305758
30
0
41
1
10
14.7096418455883
20
-0.833503212564779
30
0
41
1
10
14.5818524047024
20
-0.773582191896736
30
0
41
1
10
14.3257897561339
20
-0.652563175943214
30
0
41
1
10
14.1975016421206
20
-0.591498494531862
30
0
41
1
10
14.0047356305806
20
-0.49895698702187
30
0
41
1
10
13.940442076714
20
-0.46791526822409
30
0
41
1
10
13.8117931148458
20
-0.405401383355041
30
0
41
1
10
13.7474265975566
20
-0.373952304959857
30
0
41
1
10
13.6185070831638
20
-0.310886385114287
30
0
41
1
10
13.5539522121915
20
-0.27927421841207
30
0
41
1
10
13.4246390667629
20
-0.21591994924529
30
0
41
1
10
13.3599442629726
20
-0.184208848892609
30
0
41
1
10
13.1662047833873
20
-0.0892555387642062
30
0
41
1
10
13.0372730318476
20
-0.0261903817753364
30
0
41
1
10
12.780093004441
20
0.0999885438639296
30
0
41
1
10
12.6519396949432
20
0.163301522649675
30
0
41
1
10
12.3958219922072
20
0.288902560802768
30
0
41
1
10
12.2678867011429
20
0.3512572664591
30
0
41
1
10
12.012149652007
20
0.47486267823561
30
0
41
1
10
11.8843038085162
20
0.536025369533348
30
0
41
1
10
11.6290407486233
20
0.657856744079851
30
0
41
1
10
11.501596655908
20
0.718462969025012
30
0
41
1
10
11.2464525966474
20
0.837785906014574
30
0
41
1
10
11.1188055403364
20
0.896611854906183
30
0
41
1
10
10.8632492898471
20
1.01238528782432
30
0
41
1
10
10.7353342046704
20
1.06932487947304
30
0
41
1
10
10.5435156772349
20
1.1537941775494
30
0
41
1
10
10.4795664498401
20
1.18175710724555
30
0
41
1
10
10.3515452252806
20
1.23709902690951
30
0
41
1
10
10.159328286741
20
1.3192352304886
30
0
41
1
10
9.96649582203131
20
1.39863281496881
30
0
41
1
10
9.77317488626991
20
1.47606180596057
30
0
41
1
10
9.70865722106308
20
1.50155097027894
30
0
41
1
10
9.57952686377982
20
1.55199070927546
30
0
41
1
10
9.51492582290325
20
1.57696139189329
30
0
41
1
10
9.38557681417834
20
1.62626445231641
30
0
41
1
10
9.32093309880565
20
1.65054084982827
30
0
41
1
10
9.19182121609066
20
1.6981483986136
30
0
41
1
10
9.12732962016145
20
1.72150332389003
30
0
41
1
10
8.9340258289873
20
1.79020756561232
30
0
41
1
10
8.80536947697991
20
1.83417461685903
30
0
41
1
10
8.61268736769426
20
1.89741253454022
30
0
41
1
10
8.54852169011812
20
1.91805640500499
30
0
41
1
10
8.4203715150739
20
1.95854924347762
30
0
41
1
10
8.35637934502137
20
1.97838570688486
30
0
41
1
10
8.1645034412644
20
2.03646072755512
30
0
41
1
10
8.03667942518075
20
2.07321467640273
30
0
41
1
10
7.78107451370255
20
2.14269127503204
30
0
41
1
10
7.65326735220279
20
2.17538892790634
30
0
41
1
10
7.46164073038446
20
2.22149841209102
30
0
41
1
10
7.39779954783648
20
2.23639863082707
30
0
41
1
10
7.27017880945849
20
2.26523963041288
30
0
41
1
10
7.2063889847949
20
2.27916931479541
30
0
41
1
10
7.01492522394989
20
2.31933690896483
30
0
41
1
10
6.88716600269873
20
2.34396591857691
30
0
41
1
10
6.63130991203047
20
2.38887354715169
30
0
41
1
10
6.5031853034566
20
2.40913620586213
30
0
41
1
10
6.24666755543061
20
2.4453538590943
30
0
41
1
10
6.11832153173711
20
2.46132720832239
30
0
41
1
10
5.86109717858795
20
2.48872964240726
30
0
41
1
10
5.73221211064364
20
2.500160823242
30
0
41
1
10
5.47376401096295
20
2.51839415447
30
0
41
1
10
5.34408713521253
20
2.52520470896675
30
0
41
1
10
5.08672339620705
20
2.534055014855
30
0
41
1
10
4.95886242250461
20
2.53612818997925
30
0
41
1
10
4.83081180552091
20
2.53587986552194
30
0
0
SPLINE
5
F2
100
AcDbEntity
8
1
62
256
6
ByLayer
370
18
48
1
60
0
100
AcDbSpline
70
4
71
3
72
27
73
23
40
0
40
0
40
0
40
0
40
0.0723323399342194
40
0.0723323399342194
40
0.123869432160092
40
0.149637978273029
40
0.149637978273029
40
0.175406524385967
40
0.175406524385967
40
0.381554893289474
40
0.381554893289474
40
0.58770326219298
40
0.58770326219298
40
0.793851631096487
40
0.793851631096487
40
0.896925815548242
40
0.896925815548242
40
0.948462907774119
40
0.948462907774119
40
0.97423145388706
40
0.97423145388706
40
1
40
1
40
1
40
1
41
1
10
8.69259347928335
20
1.87044994854116
30
0
41
1
10
8.81088282475619
20
1.90979908953105
30
0
41
1
10
8.92934269638801
20
1.94776023828538
30
0
41
1
10
9.13257361972984
20
2.01026271162786
30
0
41
1
10
9.25957514184904
20
2.04815018686026
30
0
41
1
10
9.38687574245665
20
2.08428082251132
30
0
41
1
10
9.47181413552721
20
2.10796973488357
30
0
41
1
10
9.51434364264105
20
2.11962179340711
30
0
41
1
10
9.89683585851989
20
2.222494699712
30
0
41
1
10
10.2344574995244
20
2.29965281737364
30
0
41
1
10
10.9073667011014
20
2.42394202138794
30
0
41
1
10
11.2426860745501
20
2.47105037358176
30
0
41
1
10
11.9133663794134
20
2.53406990899043
30
0
41
1
10
12.248771802282
20
2.54996498737859
30
0
41
1
10
12.7537023367962
20
2.54973437110579
30
0
41
1
10
12.9223246585389
20
2.5456451380081
30
0
41
1
10
13.1759689676947
20
2.53343606980494
30
0
41
1
10
13.2606315054907
20
2.52835327079936
30
0
41
1
10
13.3878244151465
20
2.51920111752059
30
0
41
1
10
13.4302554580424
20
2.51589580641786
30
0
41
1
10
13.5151897748611
20
2.50877504666352
30
0
41
1
10
13.557704388252
20
2.50495821005953
30
0
41
1
10
13.600158316297
20
2.50089605570338
30
0
0
SPLINE
5
F3
100
AcDbEntity
8
1
62
256
6
ByLayer
370
18
48
1
60
0
100
AcDbSpline
70
4
71
3
72
53
73
49
40
0
40
0
40
0
40
0
40
0.0312500000000025
40
0.0312500000000025
40
0.0468750000000031
40
0.0468750000000031
40
0.0625000000000038
40
0.0625000000000038
40
0.125000000000005
40
0.125000000000005
40
0.187500000000007
40
0.187500000000007
40
0.250000000000009
40
0.250000000000009
40
0.265625000000009
40
0.265625000000009
40
0.281250000000009
40
0.281250000000009
40
0.312500000000008
40
0.312500000000008
40
0.375000000000007
40
0.375000000000007
40
0.500000000000004
40
0.500000000000004
40
0.515625000000003
40
0.515625000000003
40
0.531250000000002
40
0.562500000000001
40
0.562500000000001
40
0.624999999999999
40
0.624999999999999
40
0.640624999999998
40
0.640624999999998
40
0.656249999999997
40
0.687499999999996
40
0.687499999999996
40
0.749999999999995
40
0.749999999999995
40
0.812499999999993
40
0.812499999999993
40
0.874999999999992
40
0.874999999999992
40
0.890624999999993
40
0.890624999999993
40
0.906249999999993
40
0.937499999999995
40
0.937499999999995
40
1
40
1
40
1
40
1
41
1
10
13.600158316297
20
2.5099036907171
30
0
41
1
10
13.761811227166
20
2.49592183721666
30
0
41
1
10
13.9233934072606
20
2.47832058479975
30
0
41
1
10
14.1658480778997
20
2.4465790920672
30
0
41
1
10
14.2466997949636
20
2.43510567306055
30
0
41
1
10
14.4083796525982
20
2.41040813463627
30
0
41
1
10
14.4890992416638
20
2.39720106203725
30
0
41
1
10
14.8921797384151
20
2.3269661499225
30
0
41
1
10
15.2129938922621
20
2.25733588096247
30
0
41
1
10
15.8534546188551
20
2.09365951321945
30
0
41
1
10
16.1730666778248
20
1.99958029241654
30
0
41
1
10
16.8130669178012
20
1.78938291480799
30
0
41
1
10
17.1334617996326
20
1.67326465307056
30
0
41
1
10
17.5358412582709
20
1.51620436664501
30
0
41
1
10
17.6164116639686
20
1.48419785542543
30
0
41
1
10
17.7777766923928
20
1.41904633091195
30
0
41
1
10
17.858640491679
20
1.38587193218831
30
0
41
1
10
18.1007500594662
20
1.28508361184473
30
0
41
1
10
18.26170947217
20
1.21612874586572
30
0
41
1
10
18.7436172365037
20
1.00470975111787
30
0
41
1
10
19.0635910837922
20
0.857680897426576
30
0
41
1
10
20.0227895859938
20
0.40464600361679
30
0
41
1
10
20.6613815309354
20
0.086854407302269
30
0
41
1
10
21.388084006819
20
-0.269582431191935
30
0
41
1
10
21.4688609305944
20
-0.309127986516756
30
0
41
1
10
21.6302096953795
20
-0.387883331068196
30
0
41
1
10
21.8720629041758
20
-0.505580596698024
30
0
41
1
10
22.1135633724404
20
-0.621658063496255
30
0
41
1
10
22.5965047487121
20
-0.850843318140193
30
0
41
1
10
22.9183922337694
20
-0.999662046976852
30
0
41
1
10
23.3219484614927
20
-1.1782019513945
30
0
41
1
10
23.402729594188
20
-1.21353933028678
30
0
41
1
10
23.5638982783649
20
-1.28316670975676
30
0
41
1
10
23.8052652606786
20
-1.38612812461505
30
0
41
1
10
24.0456296067185
20
-1.48440586611755
30
0
41
1
10
24.5254406731566
20
-1.6740816465531
30
0
41
1
10
24.8440987033851
20
-1.79133911539981
30
0
41
1
10
25.4811401060709
20
-2.00443609437156
30
0
41
1
10
25.7995077748292
20
-2.10030850454578
30
0
41
1
10
26.4378549146514
20
-2.26811712306335
30
0
41
1
10
26.757841114522
20
-2.34003755546695
30
0
41
1
10
27.1601786395162
20
-2.4132568993075
30
0
41
1
10
27.2407815845303
20
-2.42706974169889
30
0
41
1
10
27.4021850086127
20
-2.45297492875295
30
0
41
1
10
27.6440684023069
20
-2.48917024969589
30
0
41
1
10
27.8854337999528
20
-2.51731705136652
30
0
41
1
10
28.3678912975707
20
-2.56272462894526
30
0
41
1
10
28.6891656804213
20
-2.57846576469828
30
0
41
1
10
29.0112372372075
20
-2.57939842628349
30
0
0
SPLINE
5
F4
100
AcDbEntity
8
1
62
256
6
ByLayer
370
18
48
1
60
0
100
AcDbSpline
70
4
71
3
72
10
73
6
40
0
40
0
40
0
40
0
40
0.5
40
0.5
40
1
40
1
40
1
40
1
41
1
10
28.9948118918054
20
-2.56327371811608
30
0
41
1
10
28.9975419887314
20
-2.56852953731462
30
0
41
1
10
29.0002749483442
20
-2.57250496492492
30
0
41
1
10
29.0057527372166
20
-2.57788668217856
30
0
41
1
10
29.0084984781761
20
-2.57928928587936
30
0
41
1
10
29.0112372372075
20
-2.57939842628349
30
0
0
SPLINE
5
F5
100
AcDbEntity
8
1
62
256
6
ByLayer
370
18
48
1
60
0
100
AcDbSpline
70
4
71
3
72
65
73
61
40
0
40
0
40
0
40
0
40
0.062499999999994
40
0.062499999999994
40
0.0937499999999921
40
0.0937499999999921
40
0.109374999999992
40
0.109374999999992
40
0.124999999999992
40
0.124999999999992
40
0.187499999999989
40
0.187499999999989
40
0.218749999999987
40
0.218749999999987
40
0.234374999999986
40
0.234374999999986
40
0.249999999999985
40
0.249999999999985
40
0.312499999999982
40
0.312499999999982
40
0.343749999999981
40
0.343749999999981
40
0.374999999999979
40
0.374999999999979
40
0.406249999999978
40
0.406249999999978
40
0.437499999999977
40
0.437499999999977
40
0.499999999999975
40
0.499999999999975
40
0.515624999999975
40
0.515624999999975
40
0.531249999999975
40
0.562499999999975
40
0.562499999999975
40
0.624999999999977
40
0.624999999999977
40
0.640624999999978
40
0.640624999999978
40
0.656249999999978
40
0.68749999999998
40
0.68749999999998
40
0.718749999999981
40
0.718749999999981
40
0.749999999999982
40
0.749999999999982
40
0.765624999999983
40
0.765624999999983
40
0.781249999999984
40
0.812499999999985
40
0.812499999999985
40
0.874999999999988
40
0.874999999999988
40
0.890624999999989
40
0.890624999999989
40
0.906249999999991
40
0.906249999999991
40
0.937499999999994
40
0.937499999999994
40
1
40
1
40
1
40
1
41
1
10
28.9948118918184
20
-2.56327371811591
30
0
41
1
10
28.6754119204913
20
-2.54501375212718
30
0
41
1
10
28.3568007622457
20
-2.51230158227483
30
0
41
1
10
27.8785324621342
20
-2.44245627035147
30
0
41
1
10
27.7190545117946
20
-2.4157116974668
30
0
41
1
10
27.4795958268865
20
-2.37048656909215
30
0
41
1
10
27.3997348195031
20
-2.35456064580978
30
0
41
1
10
27.2398906331875
20
-2.32103170023891
30
0
41
1
10
27.1598624468429
20
-2.30341801264606
30
0
41
1
10
26.7600817518912
20
-2.21140480986213
30
0
41
1
10
26.4411895043255
20
-2.12513001032531
30
0
41
1
10
25.9626385285642
20
-1.97871688790423
30
0
41
1
10
25.8030865525662
20
-1.92708099018671
30
0
41
1
10
25.5635333191128
20
-1.84559968511434
30
0
41
1
10
25.4836480445641
20
-1.81776353186555
30
0
41
1
10
25.3238025693096
20
-1.76073940872004
30
0
41
1
10
25.2437974027857
20
-1.73154418508531
30
0
41
1
10
24.8438411550905
20
-1.58269218691163
30
0
41
1
10
24.5247958365558
20
-1.45453741031983
30
0
41
1
10
24.0461703436161
20
-1.25121927203034
30
0
41
1
10
23.8866149733136
20
-1.18160546572156
30
0
41
1
10
23.5672397740569
20
-1.03911066517216
30
0
41
1
10
23.4073981437385
20
-0.966223830191268
30
0
41
1
10
23.0872056901343
20
-0.817803944077724
30
0
41
1
10
22.9273608685071
20
-0.742496658810438
30
0
41
1
10
22.6079598889327
20
-0.590117500521217
30
0
41
1
10
22.4483996601095
20
-0.51305316840299
30
0
41
1
10
21.9696722318786
20
-0.280174699688871
30
0
41
1
10
21.6504850937734
20
-0.122622521849195
30
0
41
1
10
21.2502239390684
20
0.0747025654953006
30
0
41
1
10
21.1701750742225
20
0.114152050000172
30
0
41
1
10
21.0102427174921
20
0.192853065186114
30
0
41
1
10
20.7705030349021
20
0.310651502412071
30
0
41
1
10
20.5310800795542
20
0.427368444341198
30
0
41
1
10
20.0522402307205
20
0.658528737666501
30
0
41
1
10
19.733019471277
20
0.8095993270191
30
0
41
1
10
19.3327236006057
20
0.992113177059281
30
0
41
1
10
19.252606375477
20
1.02829737435113
30
0
41
1
10
19.0925716576163
20
1.09981118393694
30
0
41
1
10
18.8526846557686
20
1.2058612751284
30
0
41
1
10
18.613144761343
20
1.30799218327098
30
0
41
1
10
18.2938235475137
20
1.4402631998444
30
0
41
1
10
18.1341950231337
20
1.50444449943902
30
0
41
1
10
17.8146756586776
20
1.62835244318291
30
0
41
1
10
17.6547854618343
20
1.68808266332613
30
0
41
1
10
17.4146170580091
20
1.77411003614611
30
0
41
1
10
17.3344739944601
20
1.80220122543915
30
0
41
1
10
17.1743669880981
20
1.85701560802403
30
0
41
1
10
16.9343731873774
20
1.93722346953945
30
0
41
1
10
16.6946968457906
20
2.0111625130661
30
0
41
1
10
16.2154066702064
20
2.15025874771089
30
0
41
1
10
15.8959689623403
20
2.23127754466654
30
0
41
1
10
15.4954466752622
20
2.31639419390575
30
0
41
1
10
15.4153008790581
20
2.33260457071964
30
0
41
1
10
15.2551978818147
20
2.36331750398125
30
0
41
1
10
15.1751994881092
20
2.3778290318069
30
0
41
1
10
14.9353186706001
20
2.41880257168327
30
0
41
1
10
14.7755527775378
20
2.44270290270359
30
0
41
1
10
14.2962466161057
20
2.50390002330866
30
0
41
1
10
13.9766822958131
20
2.53069696835109
30
0
41
1
10
13.6561479496327
20
2.54307597157396
30
0
0
SPLINE
5
F6
100
AcDbEntity
8
1
62
256
6
ByLayer
370
18
48
1
60
0
100
AcDbSpline
70
4
71
3
72
16
73
12
40
0
40
0
40
0
40
0
40
0.250000000000154
40
0.250000000000154
40
0.375000000000162
40
0.375000000000162
40
0.50000000000017
40
0.50000000000017
40
0.750000000000085
40
0.750000000000085
40
1
40
1
40
1
40
1
41
1
10
13.6561479496327
20
2.54307597157396
30
0
41
1
10
13.6477291832411
20
2.5434011034593
30
0
41
1
10
13.6400772256327
20
2.54380598544125
30
0
41
1
10
13.629721364298
20
2.54450104740928
30
0
41
1
10
13.6264515682338
20
2.54474866918215
30
0
41
1
10
13.620496704149
20
2.54525346722764
30
0
41
1
10
13.6177838244055
20
2.54551230623369
30
0
41
1
10
13.6104327107037
20
2.54630057108787
30
0
41
1
10
13.6065817120367
20
2.54684516460546
30
0
41
1
10
13.6014865762472
20
2.54786894337755
30
0
41
1
10
13.600158316297
20
2.54836084197285
30
0
41
1
10
13.600158316297
20
2.54880462936552
30
0
0
SPLINE
5
F7
100
AcDbEntity
8
1
62
256
6
ByLayer
370
18
48
1
60
0
100
AcDbSpline
70
4
71
3
72
54
73
50
40
0
40
0
40
0
40
0
40
0.0232330586537415
40
0.0232330586537415
40
0.0697457701464244
40
0.0697457701464244
40
0.0930021258927652
40
0.0930021258927652
40
0.116258481639106
40
0.116258481639106
40
0.162771193131786
40
0.162771193131786
40
0.209283904624465
40
0.209283904624465
40
0.255796616117145
40
0.255796616117145
40
0.302309327609825
40
0.302309327609825
40
0.348822039102504
40
0.348822039102504
40
0.395334750595184
40
0.395334750595184
40
0.441847462087864
40
0.441847462087864
40
0.465103817834203
40
0.465103817834203
40
0.488360173580542
40
0.488360173580542
40
0.53487288507322
40
0.53487288507322
40
0.581385596565898
40
0.581385596565898
40
0.627898308058576
40
0.627898308058576
40
0.651154663804915
40
0.651154663804915
40
0.674411019551254
40
0.674411019551254
40
0.720923731043932
40
0.720923731043932
40
0.81394915402929
40
0.81394915402929
40
0.860461865521968
40
0.860461865521968
40
0.906974577014645
40
0.906974577014645
40
0.953487288507323
40
0.953487288507323
40
1
40
1
40
1
40
1
41
1
10
18.7537178307436
20
2.43677920757705
30
0
41
1
10
18.8330209807756
20
2.44893108855871
30
0
41
1
10
18.9123120740722
20
2.46024568852948
30
0
41
1
10
19.150309039176
20
2.49168152675691
30
0
41
1
10
19.3090523544801
20
2.50920497206414
30
0
41
1
10
19.547782916194
20
2.53008709630907
30
0
41
1
10
19.6274943828056
20
2.53615875376559
30
0
41
1
10
19.7868384572433
20
2.54650984184468
30
0
41
1
10
19.8664665789862
20
2.55079020347921
30
0
41
1
10
20.105225890786
20
2.56096420615737
30
0
41
1
10
20.2642302242681
20
2.56419391048578
30
0
41
1
10
20.5819963067793
20
2.56354003791495
30
0
41
1
10
20.7407423301393
20
2.55965860280659
30
0
41
1
10
21.0579811237027
20
2.544624944085
30
0
41
1
10
21.2165439615127
20
2.53345667604012
30
0
41
1
10
21.5345413280232
20
2.50412672715663
30
0
41
1
10
21.6940326472061
20
2.48595355459838
30
0
41
1
10
22.0123582618215
20
2.44285457234514
30
0
41
1
10
22.1713432871248
20
2.4179172906459
30
0
41
1
10
22.4889980344948
20
2.36129001237199
30
0
41
1
10
22.6476838410725
20
2.32960218212418
30
0
41
1
10
22.9651612626417
20
2.2597615240521
30
0
41
1
10
23.1239358092577
20
2.22160362760403
30
0
41
1
10
23.3621690760524
20
2.15943881977981
30
0
41
1
10
23.4415984183657
20
2.13789977727794
30
0
41
1
10
23.6006206884568
20
2.09332045794304
30
0
41
1
10
23.680154393186
20
2.07029682742663
30
0
41
1
10
23.9186627399012
20
1.99934346765943
30
0
41
1
10
24.0776547579297
20
1.94948156433853
30
0
41
1
10
24.3954778434349
20
1.84456879848682
30
0
41
1
10
24.5543127396172
20
1.78951849072649
30
0
41
1
10
24.8719022058503
20
1.67430653911993
30
0
41
1
10
25.0306552698125
20
1.61414415828881
30
0
41
1
10
25.2687336442399
20
1.51997879131972
30
0
41
1
10
25.348084303577
20
1.48793266627445
30
0
41
1
10
25.5070042746126
20
1.42291412939036
30
0
41
1
10
25.586583825134
20
1.38994441183382
30
0
41
1
10
25.8251201472306
20
1.28986330984802
30
0
41
1
10
25.9840438438146
20
1.22150779291306
30
0
41
1
10
26.4605155802452
20
1.0115931254218
30
0
41
1
10
26.777760157501
20
0.86516164056917
30
0
41
1
10
27.2546113170229
20
0.638706873060755
30
0
41
1
10
27.413861231468
20
0.562023090091287
30
0
41
1
10
27.7316934040661
20
0.407481560437674
30
0
41
1
10
27.8903895743158
20
0.329560109697411
30
0
41
1
10
28.2077523203405
20
0.173245026639336
30
0
41
1
10
28.3664287596789
20
0.0948719769380943
30
0
41
1
10
28.6838090167023
20
-0.062229613302577
30
0
41
1
10
28.8425104586903
20
-0.140963108793471
30
0
41
1
10
29.0012830011243
20
-0.219761590961866
30
0
0
SPLINE
5
F8
100
AcDbEntity
8
1
62
256
6
ByLayer
370
18
48
1
60
0
100
AcDbSpline
70
4
71
3
72
11
73
7
40
0
40
0
40
0
40
0
40
0.250000000000004
40
0.250000000000004
40
0.500000000000008
40
1
40
1
40
1
40
1
41
1
10
29.0012830011161
20
-0.21976159096576
30
0
41
1
10
29.0043246743469
20
-0.191304049438258
30
0
41
1
10
29.0075348690417
20
-0.162698081263642
30
0
41
1
10
29.0142543732043
20
-0.105708192819947
30
0
41
1
10
29.024793286645
20
-0.0204403801241142
30
0
41
1
10
29.0367768722437
20
0.0641726543481411
30
0
41
1
10
29.0454693906225
20
0.120284418720956
30
0
0
SPLINE
5
F9
100
AcDbEntity
8
1
62
256
6
ByLayer
370
18
48
1
60
0
100
AcDbSpline
70
4
71
3
72
58
73
54
40
0
40
0
40
0
40
0
40
0.0485484029417676
40
0.0485484029417676
40
0.0970968058835352
40
0.0970968058835352
40
0.121371007354419
40
0.121371007354419
40
0.145645208825303
40
0.145645208825303
40
0.194193611767075
40
0.194193611767075
40
0.242742014708846
40
0.242742014708846
40
0.26701621617973
40
0.26701621617973
40
0.291290417650614
40
0.291290417650614
40
0.339838820592377
40
0.339838820592377
40
0.388387223534141
40
0.388387223534141
40
0.436935626475904
40
0.436935626475904
40
0.461209827946786
40
0.461209827946786
40
0.485484029417668
40
0.485484029417668
40
0.534032432359431
40
0.534032432359431
40
0.582580835301194
40
0.582580835301194
40
0.631129238242958
40
0.631129238242958
40
0.679677641184721
40
0.679677641184721
40
0.728226044126484
40
0.728226044126484
40
0.776774447068248
40
0.776774447068248
40
0.801048648539128
40
0.801048648539128
40
0.825322850010009
40
0.825322850010009
40
0.87387125295177
40
0.87387125295177
40
0.922419655893531
40
0.922419655893531
40
0.946693857364412
40
0.946693857364412
40
0.970968058835293
40
0.970968058835293
40
1
40
1
40
1
40
1
41
1
10
29.0454693906225
20
0.120284418720956
30
0
41
1
10
28.9169465878105
20
0.184284362196053
30
0
41
1
10
28.7887330334545
20
0.248045198441957
30
0
41
1
10
28.5325773853569
20
0.374379985695327
30
0
41
1
10
28.4046591435846
20
0.437007040291547
30
0
41
1
10
28.2129673673976
20
0.530048984563905
30
0
41
1
10
28.1491088573874
20
0.560929486154265
30
0
41
1
10
28.0215311595256
20
0.622547883899784
30
0
41
1
10
27.9578141347809
20
0.653289444756581
30
0
41
1
10
27.7667389618584
20
0.745026133095394
30
0
41
1
10
27.6394060946733
20
0.805432826566062
30
0
41
1
10
27.3846451262972
20
0.924378776009149
30
0
41
1
10
27.2572084666995
20
0.982903482562733
30
0
41
1
10
27.0659959204545
20
1.06932734387419
30
0
41
1
10
27.0022637189893
20
1.09793613057349
30
0
41
1
10
26.8748417919836
20
1.15480975505611
30
0
41
1
10
26.8111413483907
20
1.18305402526627
30
0
41
1
10
26.6199235582766
20
1.26693163269701
30
0
41
1
10
26.4922673271556
20
1.32167022328647
30
0
41
1
10
26.2364838827287
20
1.42858740616367
30
0
41
1
10
26.1083215597336
20
1.48070631305296
30
0
41
1
10
25.8516231664723
20
1.58254543655437
30
0
41
1
10
25.7232027508856
20
1.63245672030502
30
0
41
1
10
25.5299851430341
20
1.7049672208183
30
0
41
1
10
25.465463301378
20
1.72875633264897
30
0
41
1
10
25.3362985517277
20
1.77550449956445
30
0
41
1
10
25.27178948473
20
1.7984153586406
30
0
41
1
10
25.0784580100937
20
1.86574262772371
30
0
41
1
10
24.9497866930537
20
1.90869586610546
30
0
41
1
10
24.6932001577018
20
1.9912575669195
30
0
41
1
10
24.5652985368586
20
2.03086075360886
30
0
41
1
10
24.3096262012024
20
2.10587230738159
30
0
41
1
10
24.1819043875023
20
2.14135512871559
30
0
41
1
10
23.9265713435617
20
2.20821170591145
30
0
41
1
10
23.7989391102633
20
2.23957313600232
30
0
41
1
10
23.5441091849813
20
2.29851607349371
30
0
41
1
10
23.4168156159401
20
2.3259839521902
30
0
41
1
10
23.1619602140165
20
2.37646298355963
30
0
41
1
10
23.0344468244067
20
2.39952373537488
30
0
41
1
10
22.8429622877678
20
2.43080639029338
30
0
41
1
10
22.7790992701892
20
2.44068396136598
30
0
41
1
10
22.6513607541279
20
2.45937152691656
30
0
41
1
10
22.5874975927459
20
2.46818807575968
30
0
41
1
10
22.3958577098864
20
2.49299050226438
30
0
41
1
10
22.2679524468988
20
2.50728161570072
30
0
41
1
10
22.0115024789635
20
2.53120039338759
30
0
41
1
10
21.8829835725627
20
2.5408455383014
30
0
41
1
10
21.6897140265231
20
2.55181719140606
30
0
41
1
10
21.6252168155328
20
2.55489443722962
30
0
41
1
10
21.4961346445265
20
2.55988488711853
30
0
41
1
10
21.4315030939497
20
2.56179649579835
30
0
41
1
10
21.2898504254452
20
2.56466906543923
30
0
41
1
10
21.2128092155326
20
2.56537296641466
30
0
41
1
10
21.1358535121778
20
2.56522875583011
30
0
0
SPLINE
5
FA
100
AcDbEntity
8
1
62
256
6
ByLayer
370
18
48
1
60
0
100
AcDbSpline
70
4
71
3
72
34
73
30
40
0
40
0
40
0
40
0
40
0.0037134064477759
40
0.0037134064477759
40
0.048999160700153
40
0.048999160700153
40
0.0942849149525301
40
0.0942849149525301
40
0.18485642345728
40
0.18485642345728
40
0.275427931962031
40
0.275427931962031
40
0.320713686214404
40
0.320713686214404
40
0.365999440466777
40
0.365999440466777
40
0.456570948971523
40
0.456570948971523
40
0.54714245747627
40
0.54714245747627
40
0.637713965981016
40
0.637713965981016
40
0.728285474485762
40
0.728285474485762
40
0.818856982990508
40
0.818856982990508
40
0.909428491495254
40
0.909428491495254
40
1
40
1
40
1
40
1
41
1
10
8.69271557983336
20
-1.87113863314752
30
0
41
1
10
8.68744829295238
20
-1.87287320618168
30
0
41
1
10
8.6821813457513
20
-1.87460473738665
30
0
41
1
10
8.61268736769426
20
-1.89741253454019
30
0
41
1
10
8.54852169011815
20
-1.91805640500499
30
0
41
1
10
8.4203715150739
20
-1.95854924347762
30
0
41
1
10
8.3563793450214
20
-1.97838570688486
30
0
41
1
10
8.16450344126443
20
-2.03646072755512
30
0
41
1
10
8.03667942518081
20
-2.07321467640273
30
0
41
1
10
7.78107451370258
20
-2.14269127503204
30
0
41
1
10
7.65326735220282
20
-2.17538892790634
30
0
41
1
10
7.46164073038449
20
-2.22149841209102
30
0
41
1
10
7.39779954783654
20
-2.23639863082707
30
0
41
1
10
7.27017880945849
20
-2.26523963041288
30
0
41
1
10
7.20638898479493
20
-2.27916931479541
30
0
41
1
10
7.01492522394992
20
-2.3193369089648
30
0
41
1
10
6.88716600269876
20
-2.34396591857691
30
0
41
1
10
6.6313099120305
20
-2.38887354715169
30
0
41
1
10
6.50318530345663
20
-2.40913620586213
30
0
41
1
10
6.24666755543063
20
-2.4453538590943
30
0
41
1
10
6.11832153173711
20
-2.46132720832239
30
0
41
1
10
5.86109717858795
20
-2.48872964240726
30
0
41
1
10
5.73221211064364
20
-2.500160823242
30
0
41
1
10
5.47376401096295
20
-2.51839415447
30
0
41
1
10
5.34408713521253
20
-2.52520470896675
30
0
41
1
10
5.08530023541991
20
-2.53410395495956
30
0
41
1
10
4.95601854584888
20
-2.53617401378446
30
0
41
1
10
4.69706059895049
20
-2.53556742484159
30
0
41
1
10
4.56744309932719
20
-2.53290390381773
30
0
41
1
10
4.43763683678333
20
-2.52792992462253
30
0
0
SPLINE
5
FB
100
AcDbEntity
8
1
62
256
6
ByLayer
370
18
48
1
60
0
100
AcDbSpline
70
4
71
3
72
27
73
23
40
0
40
0
40
0
40
0
40
0.143348630762771
40
0.143348630762771
40
0.215022946144157
40
0.215022946144157
40
0.286697261525542
40
0.286697261525542
40
0.430045892288315
40
0.430045892288315
40
0.501720207669702
40
0.501720207669702
40
0.537557365360395
40
0.555475944205743
40
0.555475944205743
40
0.573394523051091
40
0.573394523051091
40
0.716743153813876
40
0.716743153813876
40
0.860091784576661
40
0.860091784576661
40
1
40
1
40
1
40
1
41
1
10
5.51117051773321
20
-0.540120009583859
30
0
41
1
10
5.85156858027398
20
-0.702462639352717
30
0
41
1
10
6.18954932512247
20
-0.860278393365576
30
0
41
1
10
6.69456801313225
20
-1.08709745245395
30
0
41
1
10
6.86261469065755
20
-1.16098746841465
30
0
41
1
10
7.19848427352269
20
-1.30469419646292
30
0
41
1
10
7.36626565829749
20
-1.37458834777962
30
0
41
1
10
7.8696067603143
20
-1.57758620458364
30
0
41
1
10
8.20512432972234
20
-1.70406310021957
30
0
41
1
10
8.71022877412429
20
-1.87726713864185
30
0
41
1
10
8.87890496257762
20
-1.93224841035536
30
0
41
1
10
9.13257361972984
20
-2.01026271162783
30
0
41
1
10
9.25957514184904
20
-2.04815018686023
30
0
41
1
10
9.38687574245665
20
-2.08428082251132
30
0
41
1
10
9.47181413552724
20
-2.10796973488357
30
0
41
1
10
9.51434364264105
20
-2.11962179340711
30
0
41
1
10
9.89683585851992
20
-2.222494699712
30
0
41
1
10
10.2344574995244
20
-2.29965281737361
30
0
41
1
10
10.9073667011014
20
-2.42394202138794
30
0
41
1
10
11.2426860745501
20
-2.47105037358176
30
0
41
1
10
11.9053181029965
20
-2.53331366397032
30
0
41
1
10
12.2326721540202
20
-2.54919301861338
30
0
41
1
10
12.5611572369714
20
-2.54979458579206
30
0
0
SPLINE
5
FC
100
AcDbEntity
8
1
62
256
6
ByLayer
370
18
48
1
60
0
100
AcDbSpline
70
4
71
3
72
15
73
11
40
0
40
0
40
0
40
0
40
0.0547089004325777
40
0.0547089004325777
40
0.172870287878506
40
0.172870287878506
40
0.291031675324434
40
0.527354450216289
40
0.527354450216289
40
1
40
1
40
1
40
1
41
1
10
26.9680154641963
20
2.37773834823531
30
0
41
1
10
27.0052232220963
20
2.38487396619331
30
0
41
1
10
27.0424545584548
20
2.39183289723442
30
0
41
1
10
27.1601786395162
20
2.4132568993075
30
0
41
1
10
27.2407815845303
20
2.42706974169889
30
0
41
1
10
27.4021850086127
20
2.45297492875295
30
0
41
1
10
27.6440684023069
20
2.48917024969586
30
0
41
1
10
27.8854337999528
20
2.51731705136652
30
0
41
1
10
28.3678912975708
20
2.56272462894526
30
0
41
1
10
28.6891656804213
20
2.57846576469828
30
0
41
1
10
29.0112372372075
20
2.57939842628349
30
0
0
SPLINE
5
FD
100
AcDbEntity
8
1
62
256
6
ByLayer
370
18
48
1
60
0
100
AcDbSpline
70
4
71
3
72
10
73
6
40
0
40
0
40
0
40
0
40
0.611080579160208
40
0.611080579160208
40
1
40
1
40
1
40
1
41
1
10
7.92152693409014
20
-1.58615554939701
30
0
41
1
10
7.20465816872277
20
-1.77568183481117
30
0
41
1
10
6.49191278949925
20
-1.96754390414458
30
0
41
1
10
5.3333884856425
20
-2.28245700807241
30
0
41
1
10
4.88465055649993
20
-2.40518911624349
30
0
41
1
10
4.43763683678193
20
-2.5279299246229
30
0
0
SPLINE
5
FE
100
AcDbEntity
8
1
62
256
6
ByLayer
370
18
48
1
60
0
100
AcDbSpline
70
4
71
3
72
98
73
94
40
0
40
0
40
0
40
0
40
0.0624999999999858
40
0.0624999999999858
40
0.124999999999972
40
0.124999999999972
40
0.187499999999957
40
0.187499999999957
40
0.203124999999953
40
0.203124999999953
40
0.218749999999949
40
0.218749999999949
40
0.249999999999943
40
0.249999999999943
40
0.281249999999937
40
0.281249999999937
40
0.296874999999933
40
0.296874999999933
40
0.312499999999929
40
0.312499999999929
40
0.343749999999923
40
0.343749999999923
40
0.359374999999919
40
0.359374999999919
40
0.374999999999916
40
0.374999999999916
40
0.390624999999912
40
0.390624999999912
40
0.39843749999991
40
0.39843749999991
40
0.406249999999909
40
0.406249999999909
40
0.437499999999903
40
0.437499999999903
40
0.445312499999902
40
0.445312499999902
40
0.4531249999999
40
0.4531249999999
40
0.468749999999898
40
0.468749999999898
40
0.484374999999895
40
0.484374999999895
40
0.492187499999893
40
0.492187499999893
40
0.499999999999892
40
0.499999999999892
40
0.531249999999885
40
0.531249999999885
40
0.539062499999885
40
0.539062499999885
40
0.546874999999884
40
0.546874999999884
40
0.562499999999883
40
0.562499999999883
40
0.59374999999988
40
0.59374999999988
40
0.624999999999876
40
0.624999999999876
40
0.656249999999872
40
0.656249999999872
40
0.687499999999868
40
0.687499999999868
40
0.718749999999864
40
0.718749999999864
40
0.734374999999864
40
0.734374999999864
40
0.738281249999863
40
0.738281249999863
40
0.740234374999864
40
0.740234374999864
40
0.742187499999864
40
0.742187499999864
40
0.744140624999865
40
0.744140624999865
40
0.746093749999866
40
0.746093749999866
40
0.748046874999867
40
0.748046874999867
40
0.749999999999868
40
0.749999999999868
40
0.753906249999872
40
0.753906249999872
40
0.757812499999876
40
0.757812499999876
40
0.765624999999882
40
0.781249999999891
40
0.812499999999906
40
0.812499999999906
40
0.874999999999937
40
0.874999999999937
40
0.937499999999969
40
0.937499999999969
40
1
40
1
40
1
40
1
41
1
10
4.43763880400397
20
-2.52792992068916
30
0
41
1
10
4.28755181007142
20
-2.52216829266871
30
0
41
1
10
4.13896919819396
20
-2.51314534912362
30
0
41
1
10
3.84533048347902
20
-2.48714240536199
30
0
41
1
10
3.70026775804519
20
-2.47017887903655
30
0
41
1
10
3.4144848030931
20
-2.42611503462282
30
0
41
1
10
3.27374787690621
20
-2.39905608130147
30
0
41
1
10
3.10143795178342
20
-2.35657034545969
30
0
41
1
10
3.06713454924565
20
-2.34762662807927
30
0
41
1
10
2.99917274152182
20
-2.32884279957671
30
0
41
1
10
2.96549050997402
20
-2.31899759301356
30
0
41
1
10
2.86541667844932
20
-2.28797940183389
30
0
41
1
10
2.7999910742414
20
-2.26533444146659
30
0
41
1
10
2.67226372368432
20
-2.2152517793009
30
0
41
1
10
2.60995626052051
20
-2.18782285675465
30
0
41
1
10
2.51945371363536
20
-2.14211855179496
30
0
41
1
10
2.48984172749732
20
-2.12614470539901
30
0
41
1
10
2.43220293142275
20
-2.09272881976287
30
0
41
1
10
2.40412782035759
20
-2.07526342413885
30
0
41
1
10
2.32241344479371
20
-2.02030960131435
30
0
41
1
10
2.27124577260173
20
-1.98030305217154
30
0
41
1
10
2.20110341709875
20
-1.91355979237642
30
0
41
1
10
2.17883222573869
20
-1.89018169451509
30
0
41
1
10
2.13693716504139
20
-1.84073104085053
30
0
41
1
10
2.11760992311537
20
-1.81500106270786
30
0
41
1
10
2.08260021577453
20
-1.76132332171787
30
0
41
1
10
2.06691311846936
20
-1.73337247957005
30
0
41
1
10
2.04648369321993
20
-1.68955373475882
30
0
41
1
10
2.04019176833339
20
-1.67463147735001
30
0
41
1
10
2.02872081126381
20
-1.64410889370589
30
0
41
1
10
2.02352640817708
20
-1.62844756235722
30
0
41
1
10
2.00082220471893
20
-1.54930189442251
30
0
41
1
10
1.99292594195003
20
-1.48315509522581
30
0
41
1
10
1.99670572065043
20
-1.39676325446138
30
0
41
1
10
1.99814644994297
20
-1.37929897080417
30
0
41
1
10
2.00242689942053
20
-1.34399223137828
30
0
41
1
10
2.00527328328303
20
-1.32615544813018
30
0
41
1
10
2.01573613407811
20
-1.27297289729756
30
0
41
1
10
2.02530212935341
20
-1.23765537200268
30
0
41
1
10
2.0491554098555
20
-1.16728196797112
30
0
41
1
10
2.06344366755133
20
-1.1322261322351
30
0
41
1
10
2.08814556966865
20
-1.07983190968108
30
0
41
1
10
2.09691162173812
20
-1.06243441554392
30
0
41
1
10
2.11526321375629
20
-1.02809654371308
30
0
41
1
10
2.12487173108988
20
-1.01110639066113
30
0
41
1
10
2.17490611269773
20
-0.926981041985982
30
0
41
1
10
2.2212386060925
20
-0.862294542381363
30
0
41
1
10
2.28511172467981
20
-0.783938450942401
30
0
41
1
10
2.29818811039968
20
-0.768393891856164
30
0
41
1
10
2.32490977429572
20
-0.737544356069861
30
0
41
1
10
2.33856920121417
20
-0.722225232652875
30
0
41
1
10
2.38007429785577
20
-0.676907419452817
30
0
41
1
10
2.40852730737805
20
-0.647447360863254
30
0
41
1
10
2.49589457438671
20
-0.561000014747151
30
0
41
1
10
2.55680063366424
20
-0.505929981930819
30
0
41
1
10
2.68270963936197
20
-0.399752281046091
30
0
41
1
10
2.74772194616583
20
-0.348653481023888
30
0
41
1
10
2.88107958328621
20
-0.249695029773392
30
0
41
1
10
2.94953811647065
20
-0.201770964416227
30
0
41
1
10
3.08846571510586
20
-0.109175788658263
30
0
41
1
10
3.15899087701499
20
-0.0644579414133375
30
0
41
1
10
3.30182908126835
20
0.0223136314852752
30
0
41
1
10
3.37407287302654
20
0.064321931723299
30
0
41
1
10
3.48342026328666
20
0.125516523926507
30
0
41
1
10
3.52004110217621
20
0.145615125767989
30
0
41
1
10
3.56600485802545
20
0.170382058320257
30
0
41
1
10
3.57520685697591
20
0.175317541406912
30
0
41
1
10
3.58902328947789
20
0.182694251760267
30
0
41
1
10
3.59362625184022
20
0.185178508981437
30
0
41
1
10
3.60313462435397
20
0.189463135562249
30
0
41
1
10
3.60801045344272
20
0.191278055363199
30
0
41
1
10
3.61798715167851
20
0.19430247085333
30
0
41
1
10
3.62308396128327
20
0.195414092238536
30
0
41
1
10
3.63328444181545
20
0.197070674821901
30
0
41
1
10
3.63841185437758
20
0.197645664310386
30
0
41
1
10
3.64872590242652
20
0.198243633418883
30
0
41
1
10
3.65392751387924
20
0.198232256388053
30
0
41
1
10
3.66432065214201
20
0.197848895399346
30
0
41
1
10
3.66947082455945
20
0.197424382921071
30
0
41
1
10
3.68479343345976
20
0.19550888110993
30
0
41
1
10
3.69483726522253
20
0.193372438915787
30
0
41
1
10
3.71467407528047
20
0.187839628524443
30
0
41
1
10
3.72449150913431
20
0.184569141242406
30
0
41
1
10
3.75404024890929
20
0.175212354834713
30
0
41
1
10
3.81308382584516
20
0.156323253139789
30
0
41
1
10
3.95047053579265
20
0.111045374324391
30
0
41
1
10
4.06756062274263
20
0.0702157530973579
30
0
41
1
10
4.30075447761325
20
-0.0139730032074965
30
0
41
1
10
4.45499379769853
20
-0.0735255611959644
30
0
41
1
10
4.76103457529646
20
-0.198483673015261
30
0
41
1
10
4.91264972504192
20
-0.263802103788208
30
0
41
1
10
5.21352392773923
20
-0.39894667279134
30
0
41
1
10
5.36278718911973
20
-0.468763092348411
30
0
41
1
10
5.51116588868439
20
-0.540111846877977
30
0
0
SPLINE
5
FF
100
AcDbEntity
8
SK1
62
256
6
ByLayer
370
18
48
1
60
0
100
AcDbSpline
70
4
71
3
72
8
73
4
40
0
40
0
40
0
40
0
40
1
40
1
40
1
40
1
41
1
10
-35.75
20
-0.923080451923681
30
0
41
1
10
-35.8336521124018
20
-0.86345476667978
30
0
41
1
10
-35.9170266000308
20
-0.803654287429254
30
0
41
1
10
-36
20
-0.743601281293678
30
0
0
SPLINE
5
100
100
AcDbEntity
8
SK1
62
256
6
ByLayer
370
18
48
1
60
0
100
AcDbSpline
70
4
71
3
72
22
73
18
40
0
40
0
40
0
40
0
40
0.062499999999998
40
0.062499999999998
40
0.124999999999996
40
0.124999999999996
40
0.249999999999997
40
0.249999999999997
40
0.374999999999997
40
0.374999999999997
40
0.499999999999998
40
0.499999999999998
40
0.624999999999998
40
0.624999999999998
40
0.749999999999999
40
0.749999999999999
40
1
40
1
40
1
40
1
41
1
10
-35.65
20
-1.08845662536669
30
0
41
1
10
-35.65
20
-1.08453380239212
30
0
41
1
10
-35.6502718586019
20
-1.08044855006079
30
0
41
1
10
-35.6512913504498
20
-1.07218794243531
30
0
41
1
10
-35.652030658643
20
-1.06804296954914
30
0
41
1
10
-35.6548298230237
20
-1.05557061627175
30
0
41
1
10
-35.6575061245997
20
-1.04711687723494
30
0
41
1
10
-35.6638376796887
20
-1.03080379298959
30
0
41
1
10
-35.6674983282837
20
-1.02288077120525
30
0
41
1
10
-35.6756151818521
20
-1.00740995106315
30
0
41
1
10
-35.6800682064548
20
-0.999890390140166
30
0
41
1
10
-35.6893906957631
20
-0.985624891182965
30
0
41
1
10
-35.6942952881823
20
-0.978813467926784
30
0
41
1
10
-35.7045485857552
20
-0.965771199400109
30
0
41
1
10
-35.7099306774388
20
-0.959506807290666
30
0
41
1
10
-35.7265024515808
20
-0.941848222634263
30
0
41
1
10
-35.7380004903212
20
-0.931633481448557
30
0
41
1
10
-35.7500000000001
20
-0.923080451923653
30
0
0
SPLINE
5
101
100
AcDbEntity
8
SK1
62
256
6
ByLayer
370
18
48
1
60
0
100
AcDbSpline
70
4
71
3
72
22
73
18
40
0
40
0
40
0
40
0
40
0.25
40
0.25
40
0.375
40
0.375
40
0.5
40
0.5
40
0.625
40
0.625
40
0.75
40
0.75
40
0.875
40
0.875
40
0.9375
40
0.9375
40
1
40
1
40
1
40
1
41
1
10
-35.75
20
-2.03071414593666
30
0
41
1
10
-35.7379956523281
20
-2.03927062389391
30
0
41
1
10
-35.7264866986603
20
-2.04640640408334
30
0
41
1
10
-35.7098921057742
20
-2.05506435540866
30
0
41
1
10
-35.7045257065493
20
-2.05757102214949
30
0
41
1
10
-35.6942964893127
20
-2.06172448966203
30
0
41
1
10
-35.6894060316865
20
-2.06338657415358
30
0
41
1
10
-35.6801144608566
20
-2.06578622554835
30
0
41
1
10
-35.6756964104891
20
-2.06652748783685
30
0
41
1
10
-35.6675285377629
20
-2.06684937426766
30
0
41
1
10
-35.6638529491705
20
-2.06643210887071
30
0
41
1
10
-35.6575076548177
20
-2.0641609604159
30
0
41
1
10
-35.6548318331324
20
-2.06227733580349
30
0
41
1
10
-35.6520304488211
20
-2.05814706482681
30
0
41
1
10
-35.65129058319
20
-2.056550150981
30
0
41
1
10
-35.650270741394
20
-2.05283515055507
30
0
41
1
10
-35.65
20
-2.05073000370041
30
0
41
1
10
-35.65
20
-2.04840582684446
30
0
0
SPLINE
5
102
100
AcDbEntity
8
SK1
62
256
6
ByLayer
370
18
48
1
60
0
100
AcDbSpline
70
4
71
3
72
8
73
4
40
0
40
0
40
0
40
0
40
1
40
1
40
1
40
1
41
1
10
-36
20
-1.85123497530648
30
0
41
1
10
-35.9170362439839
20
-1.91128100151383
30
0
41
1
10
-35.83364990271
20
-1.97109003572015
30
0
41
1
10
-35.7499999999999
20
-2.03071414593654
30
0
0
SPLINE
5
103
100
AcDbEntity
8
1
62
256
6
ByLayer
370
18
48
1
60
0
100
AcDbSpline
70
4
71
3
72
19
73
15
40
0
40
0
40
0
40
0
40
0.12301050946599
40
0.229952632036771
40
0.308253857011813
40
0.372389502498875
40
0.431179935727973
40
0.492633892621608
40
0.57265468611323
40
0.668939874529582
40
0.75540710585324
40
0.826731485086377
40
0.904891878966495
40
1
40
1
40
1
40
1
41
1
10
13.7005110306695
20
-2.42131864280213
30
0
41
1
10
13.9065371454698
20
-2.42274854833329
30
0
41
1
10
14.2922964099235
20
-2.42484479955795
30
0
41
1
10
14.8113267801253
20
-2.42526901337806
30
0
41
1
10
15.2317267555585
20
-2.4259881862734
30
0
41
1
10
15.5708588953585
20
-2.42688519108759
30
0
41
1
10
15.8816206465199
20
-2.42753597365893
30
0
41
1
10
16.2191501946336
20
-2.42796417769768
30
0
41
1
10
16.6198759316393
20
-2.42853919574003
30
0
41
1
10
17.0627551745018
20
-2.43039641540622
30
0
41
1
10
17.4909818771854
20
-2.43079944000894
30
0
41
1
10
17.8886611560905
20
-2.43046055746558
30
0
41
1
10
18.3008904235637
20
-2.43145649705474
30
0
41
1
10
18.5929160844227
20
-2.43192751777715
30
0
41
1
10
18.7532179746256
20
-2.43235324355072
30
0
0
SPLINE
5
104
100
AcDbEntity
8
1
62
256
6
ByLayer
370
18
48
1
60
0
100
AcDbSpline
70
4
71
3
72
13
73
9
40
0
40
0
40
0
40
0
40
0.0681960652887119
40
0.168569320579205
40
0.322965063093503
40
0.518468477782673
40
0.755932518042577
40
1
40
1
40
1
40
1
41
1
10
28.6623678069947
20
0.569407658846046
30
0
41
1
10
28.5977548227034
20
0.590759963144819
30
0
41
1
10
28.4381561255428
20
0.643859026175733
30
0
41
1
10
28.1329653056883
20
0.747262721069291
30
0
41
1
10
27.7084392089965
20
0.894064563052893
30
0
41
1
10
27.1565160484077
20
1.09062230805247
30
0
41
1
10
26.5228470149422
20
1.32395637533404
30
0
41
1
10
26.0744850436209
20
1.49579068473525
30
0
41
1
10
25.8477988171926
20
1.58435178253126
30
0
0
SPLINE
5
105
100
AcDbEntity
8
1
62
256
6
ByLayer
370
18
48
1
60
0
100
AcDbSpline
70
4
71
3
72
28
73
24
40
0
40
0
40
0
40
0
40
2.79283167667E-05
40
6.81850786883E-05
40
0.0001059719952155
40
0.0001790436132708
40
0.000379983428032
40
0.0011951879962655
40
0.0018486394048851
40
0.0030610820034562
40
0.0053714808091598
40
0.0099607146513868
40
0.0196342794398464
40
0.0416245232760896
40
0.0876544988517967
40
0.162931920979994
40
0.224709398212158
40
0.290004983044844
40
0.361768988515936
40
0.446657487219116
40
0.599048031378436
40
0.796529813483547
40
1
40
1
40
1
40
1
41
1
10
14.2669268362859
20
-0.0397149461379342
30
0
41
1
10
14.2669297561411
20
-0.0397151540273626
30
0
41
1
10
14.2669317565956
20
-0.0397141728716406
30
0
41
1
10
14.2669116652148
20
-0.039705929343171
30
0
41
1
10
14.2668331181683
20
-0.0396798425193481
30
0
41
1
10
14.2664975365877
20
-0.0395770853627369
30
0
41
1
10
14.2650314232688
20
-0.0391376028426578
30
0
41
1
10
14.262199859729
20
-0.0383179253105936
30
0
41
1
10
14.2580435080505
20
-0.0370992994245682
30
0
41
1
10
14.2514225036639
20
-0.0351643711410077
30
0
41
1
10
14.2386514355416
20
-0.0314278980676761
30
0
41
1
10
14.212470177825
20
-0.0237681230244675
30
0
41
1
10
14.1551982185282
20
-0.0069862015070896
30
0
41
1
10
14.032302652043
20
0.0291818512250472
30
0
41
1
10
13.8057118792378
20
0.0966099877709325
30
0
41
1
10
13.5166963737431
20
0.184328097870008
30
0
41
1
10
13.1976422756876
20
0.283310385208552
30
0
41
1
10
12.8846560726537
20
0.38235268404577
30
0
41
1
10
12.5359445534902
20
0.495025188321847
30
0
41
1
10
12.051478602404
20
0.655222422692361
30
0
41
1
10
11.372415802049
20
0.887626312121938
30
0
41
1
10
10.5125207505214
20
1.19587076422718
30
0
41
1
10
9.89393405173649
20
1.43086775489093
30
0
41
1
10
9.58110584297145
20
1.553008773594
30
0
0
SPLINE
5
106
100
AcDbEntity
8
1
62
256
6
ByLayer
370
18
48
1
60
0
100
AcDbSpline
70
4
71
3
72
23
73
19
40
0
40
0
40
0
40
0
40
0.0867486866768712
40
0.151789969999344
40
0.198072330600525
40
0.248301387480885
40
0.307297583185517
40
0.368316128486147
40
0.445230152015319
40
0.513337235909643
40
0.595256450219435
40
0.683024479273436
40
0.755966823195784
40
0.811984708841848
40
0.865574679808435
40
0.924037038236424
40
0.995411922594072
40
1
40
1
40
1
40
1
41
1
10
20.3806633479617
20
2.4348436211944
30
0
41
1
10
20.220349979887
20
2.435100539573
30
0
41
1
10
19.9398243707127
20
2.43527857810486
30
0
41
1
10
19.5735006557119
20
2.43525367373539
30
0
41
1
10
19.2750184630708
20
2.43435618836497
30
0
41
1
10
18.9876232749444
20
2.43291856053105
30
0
41
1
10
18.6728389852779
20
2.43216974667385
30
0
41
1
10
18.3087231219858
20
2.43149329708589
30
0
41
1
10
17.9277722707548
20
2.43045393154736
30
0
41
1
10
17.5081651321667
20
2.43079617136232
30
0
41
1
10
17.0684881076232
20
2.43042405169683
30
0
41
1
10
16.6198759493797
20
2.4285383805738
30
0
41
1
10
16.2191501913729
20
2.42796432753724
30
0
41
1
10
15.8816206472548
20
2.42753593990312
30
0
41
1
10
15.5708588951475
20
2.42688520079929
30
0
41
1
10
15.2317267556314
20
2.42598818293831
30
0
41
1
10
14.9831233730506
20
2.42556290307059
30
0
41
1
10
14.8427144733711
20
2.42537910054637
30
0
41
1
10
14.8342342282453
20
2.42536815543164
30
0
0
LINE
5
82
100
AcDbEntity
8
4
62
256
6
ByLayer
370
18
48
0.05
60
0
100
AcDbLine
10
0
20
0
30
0
11
30
21
0
31
0
39
0
210
0
220
0
230
1
0
LINE
5
84
100
AcDbEntity
8
81
62
256
6
ByLayer
370
18
48
1
60
0
100
AcDbLine
10
30
20
0
30
0
11
33
21
0
31
0
39
0
210
0
220
0
230
1
0
LINE
5
85
100
AcDbEntity
8
80
62
256
6
ByLayer
370
18
48
1
60
0
100
AcDbLine
10
0
20
0
30
0
11
-3
21
0
31
0
39
0
210
0
220
0
230
1
0
LINE
5
86
100
AcDbEntity
8
SK4
62
256
6
ByLayer
370
18
48
0.05
60
0
100
AcDbLine
10
-39
20
0
30
0
11
33
21
0
31
0
39
0
210
0
220
0
230
1
0
LINE
5
88
100
AcDbEntity
8
1
62
256
6
ByLayer
370
18
48
1
60
0
100
AcDbLine
10
0
20
3
30
0
11
0
21
-3
31
0
39
0
210
0
220
0
230
1
0
LINE
5
89
100
AcDbEntity
8
1
62
256
6
ByLayer
370
13
48
1
60
0
100
AcDbLine
10
13.65753
20
-2.432555
30
0
11
13.657729
21
-2.433084
31
0
39
0
210
0
220
0
230
1
0
LINE
5
8A
100
AcDbEntity
8
1
62
256
6
ByLayer
370
13
48
1
60
0
100
AcDbLine
10
29.937468
20
0.291063
30
0
11
29.344045
21
0.8279
31
0
39
0
210
0
220
0
230
1
0
LINE
5
8B
100
AcDbEntity
8
1
62
256
6
ByLayer
370
18
48
1
60
0
100
AcDbLine
10
13.700494
20
-2.421504
30
0
11
13.700477
21
-2.423014
31
0
39
0
210
0
220
0
230
1
0
LINE
5
8C
100
AcDbEntity
8
1
62
256
6
ByLayer
370
13
48
1
60
0
100
AcDbLine
10
0.566756
20
-2.764613
30
0
11
0.566756
21
2.764613
31
0
39
0
210
0
220
0
230
1
0
LINE
5
8D
100
AcDbEntity
8
1
62
256
6
ByLayer
370
18
48
1
60
0
100
AcDbLine
10
13.600158
20
-2.551665
30
0
11
13.600158
21
-0.829032
31
0
39
0
210
0
220
0
230
1
0
LINE
5
8E
100
AcDbEntity
8
1
62
256
6
ByLayer
370
18
48
1
60
0
100
AcDbLine
10
13.600158
20
2.509904
30
0
11
13.600158
21
2.500896
31
0
39
0
210
0
220
0
230
1
0
LINE
5
8F
100
AcDbEntity
8
1
62
256
6
ByLayer
370
18
48
1
60
0
100
AcDbLine
10
13.600158
20
2.551665
30
0
11
13.600158
21
2.548805
31
0
39
0
210
0
220
0
230
1
0
LINE
5
90
100
AcDbEntity
8
1
62
256
6
ByLayer
370
13
48
1
60
0
100
AcDbLine
10
1.134952
20
-2.529227
30
0
11
1.134952
21
2.529227
31
0
39
0
210
0
220
0
230
1
0
LINE
5
91
100
AcDbEntity
8
SK1
62
256
6
ByLayer
370
18
48
1
60
0
100
AcDbLine
10
-36
20
-0.743564
30
0
11
-36
21
-1.851235
31
0
39
0
210
0
220
0
230
1
0
LINE
5
93
100
AcDbEntity
8
SK1
62
256
6
ByLayer
370
13
48
1
60
0
100
AcDbLine
10
-35.75
20
-2.030714
30
0
11
-35.75
21
-0.923041
31
0
39
0
210
0
220
0
230
1
0
LINE
5
94
100
AcDbEntity
8
SK1
62
256
6
ByLayer
370
18
48
1
60
0
100
AcDbLine
10
-36
20
2.065
30
0
11
-36
21
-0.743601
31
0
39
0
210
0
220
0
230
1
0
LINE
5
95
100
AcDbEntity
8
SK1
62
256
6
ByLayer
370
18
48
1
60
0
100
AcDbLine
10
-35.65
20
-2.048406
30
0
11
-35.65
21
-1.088457
31
0
39
0
210
0
220
0
230
1
0
LINE
5
96
100
AcDbEntity
8
SK1
62
256
6
ByLayer
370
18
48
1
60
0
100
AcDbLine
10
-36
20
-2.065
30
0
11
-36
21
-1.851235
31
0
39
0
210
0
220
0
230
1
0
LINE
5
97
100
AcDbEntity
8
SK1
62
256
6
ByLayer
370
18
48
1
60
0
100
AcDbLine
10
0
20
3
30
0
11
0
21
-3
31
0
39
0
210
0
220
0
230
1
0
LINE
5
98
100
AcDbEntity
8
SK1
62
256
6
ByLayer
370
18
48
1
60
0
100
AcDbLine
10
-35.065
20
-3
30
0
11
-35.065
21
3
31
0
39
0
210
0
220
0
230
1
0
LINE
5
99
100
AcDbEntity
8
1
62
256
6
ByLayer
370
18
48
1
60
0
100
AcDbLine
10
1.134952
20
-2.529227
30
0
11
4.830167
21
-2.535879
31
0
39
0
210
0
220
0
230
1
0
LINE
5
9A
100
AcDbEntity
8
1
62
256
6
ByLayer
370
18
48
1
60
0
100
AcDbLine
10
12.561302
20
-2.549795
30
0
11
13.600158
21
-2.551665
31
0
39
0
210
0
220
0
230
1
0
LINE
5
9B
100
AcDbEntity
8
1
62
256
6
ByLayer
370
18
48
1
60
0
100
AcDbLine
10
20.381878
20
-2.563872
30
0
11
21.135723
21
-2.565229
31
0
39
0
210
0
220
0
230
1
0
LINE
5
9C
100
AcDbEntity
8
1
62
256
6
ByLayer
370
18
48
1
60
0
100
AcDbLine
10
21.135723
20
2.565229
30
0
11
20.381878
21
2.563872
31
0
39
0
210
0
220
0
230
1
0
LINE
5
9D
100
AcDbEntity
8
1
62
256
6
ByLayer
370
18
48
1
60
0
100
AcDbLine
10
13.600158
20
2.551665
30
0
11
12.561302
21
2.549795
31
0
39
0
210
0
220
0
230
1
0
LINE
5
9E
100
AcDbEntity
8
1
62
256
6
ByLayer
370
18
48
1
60
0
100
AcDbLine
10
4.830167
20
2.535879
30
0
11
1.134952
21
2.529227
31
0
39
0
210
0
220
0
230
1
0
LINE
5
9F
100
AcDbEntity
8
SK1
62
256
6
ByLayer
370
18
48
1
60
0
100
AcDbLine
10
-36
20
-2.065
30
0
11
-35.065
21
-3
31
0
39
0
210
0
220
0
230
1
0
LINE
5
A0
100
AcDbEntity
8
SK1
62
256
6
ByLayer
370
18
48
1
60
0
100
AcDbLine
10
-35.065
20
3
30
0
11
-36
21
2.065
31
0
39
0
210
0
220
0
230
1
0
LINE
5
A1
100
AcDbEntity
8
SK1
62
256
6
ByLayer
370
18
48
1
60
0
100
AcDbLine
10
-35.065
20
-3
30
0
11
0
21
-3
31
0
39
0
210
0
220
0
230
1
0
LINE
5
A2
100
AcDbEntity
8
SK1
62
256
6
ByLayer
370
18
48
1
60
0
100
AcDbLine
10
0
20
3
30
0
11
-35.065
21
3
31
0
39
0
210
0
220
0
230
1
0
LINE
5
A3
100
AcDbEntity
8
2
62
256
6
ByLayer
370
13
48
1
60
0
100
AcDbLine
10
37.5
20
30.612355
30
0
11
37.5
21
-10.0795
31
0
39
0
210
0
220
0
230
1
0
LINE
5
A5
100
AcDbEntity
8
2
62
256
6
ByLayer
370
13
48
1
60
0
100
AcDbLine
10
31.5875
20
2.5795
30
0
11
39.5
21
2.5795
31
0
39
0
210
0
220
0
230
1
0
LINE
5
A6
100
AcDbEntity
8
2
62
256
6
ByLayer
370
13
48
1
60
0
100
AcDbLine
10
31.5875
20
-2.5795
30
0
11
39.5
21
-2.5795
31
0
39
0
210
0
220
0
230
1
0
LINE
5
A7
100
AcDbEntity
8
1
62
256
6
ByLayer
370
18
48
1
60
1
100
AcDbLine
10
37.5
20
2.5795
30
0
11
37.039216
21
6.079498
31
0
39
0
210
0
220
0
230
1
0
LINE
5
A8
100
AcDbEntity
8
1
62
256
6
ByLayer
370
18
48
1
60
1
100
AcDbLine
10
37.039216
20
6.079498
30
0
11
37.960784
21
6.079502
31
0
39
0
210
0
220
0
230
1
0
LINE
5
A9
100
AcDbEntity
8
1
62
256
6
ByLayer
370
18
48
1
60
1
100
AcDbLine
10
37.960784
20
6.079502
30
0
11
37.5
21
2.5795
31
0
39
0
210
0
220
0
230
1
0
LINE
5
AA
100
AcDbEntity
8
1
62
256
6
ByLayer
370
18
48
1
60
1
100
AcDbLine
10
37.5
20
-2.5795
30
0
11
37.960784
21
-6.079498
31
0
39
0
210
0
220
0
230
1
0
LINE
5
AB
100
AcDbEntity
8
1
62
256
6
ByLayer
370
18
48
1
60
1
100
AcDbLine
10
37.960784
20
-6.079498
30
0
11
37.039216
21
-6.079502
31
0
39
0
210
0
220
0
230
1
0
LINE
5
AC
100
AcDbEntity
8
1
62
256
6
ByLayer
370
18
48
1
60
1
100
AcDbLine
10
37.039216
20
-6.079502
30
0
11
37.5
21
-2.5795
31
0
39
0
210
0
220
0
230
1
0
LINE
5
AD
100
AcDbEntity
8
SK2
62
256
6
ByLayer
370
13
48
1
60
0
100
AcDbLine
10
-44.5
20
13.841828
30
0
11
-44.5
21
-10.5
31
0
39
0
210
0
220
0
230
1
0
LINE
5
AF
100
AcDbEntity
8
SK2
62
256
6
ByLayer
370
13
48
1
60
0
100
AcDbLine
10
-37.5875
20
3
30
0
11
-46.5
21
3
31
0
39
0
210
0
220
0
230
1
0
LINE
5
B0
100
AcDbEntity
8
SK2
62
256
6
ByLayer
370
13
48
1
60
0
100
AcDbLine
10
-37.5875
20
-3
30
0
11
-46.5
21
-3
31
0
39
0
210
0
220
0
230
1
0
LINE
5
B1
100
AcDbEntity
8
1
62
256
6
ByLayer
370
18
48
1
60
1
100
AcDbLine
10
-44.5
20
3
30
0
11
-44.960784
21
6.499998
31
0
39
0
210
0
220
0
230
1
0
LINE
5
B2
100
AcDbEntity
8
1
62
256
6
ByLayer
370
18
48
1
60
1
100
AcDbLine
10
-44.960784
20
6.499998
30
0
11
-44.039216
21
6.500002
31
0
39
0
210
0
220
0
230
1
0
LINE
5
B3
100
AcDbEntity
8
1
62
256
6
ByLayer
370
18
48
1
60
1
100
AcDbLine
10
-44.039216
20
6.500002
30
0
11
-44.5
21
3
31
0
39
0
210
0
220
0
230
1
0
LINE
5
B4
100
AcDbEntity
8
1
62
256
6
ByLayer
370
18
48
1
60
1
100
AcDbLine
10
-44.5
20
-3
30
0
11
-44.039216
21
-6.499998
31
0
39
0
210
0
220
0
230
1
0
LINE
5
B5
100
AcDbEntity
8
1
62
256
6
ByLayer
370
18
48
1
60
1
100
AcDbLine
10
-44.039216
20
-6.499998
30
0
11
-44.960784
21
-6.500002
31
0
39
0
210
0
220
0
230
1
0
LINE
5
B6
100
AcDbEntity
8
1
62
256
6
ByLayer
370
18
48
1
60
1
100
AcDbLine
10
-44.960784
20
-6.500002
30
0
11
-44.5
21
-3
31
0
39
0
210
0
220
0
230
1
0
LINE
5
B7
100
AcDbEntity
8
SK2
62
256
6
ByLayer
370
13
48
1
60
0
100
AcDbLine
10
30.543028
20
1.491736
30
0
11
36.784988
21
18.638845
31
0
39
0
210
0
220
0
230
1
0
LINE
5
B8
100
AcDbEntity
8
SK2
62
256
6
ByLayer
370
13
48
1
60
0
100
AcDbLine
10
30.543028
20
-1.491736
30
0
11
36.784988
21
-18.638845
31
0
39
0
210
0
220
0
230
1
0
LINE
5
B9
100
AcDbEntity
8
1
62
256
6
ByLayer
370
18
48
1
60
1
100
AcDbLine
10
36.100858
20
16.759492
30
0
11
39.505862
21
15.82769
31
0
39
0
210
0
220
0
230
1
0
LINE
5
BA
100
AcDbEntity
8
1
62
256
6
ByLayer
370
18
48
1
60
1
100
AcDbLine
10
39.505862
20
15.82769
30
0
11
39.148675
21
14.978159
31
0
39
0
210
0
220
0
230
1
0
LINE
5
BB
100
AcDbEntity
8
1
62
256
6
ByLayer
370
18
48
1
60
1
100
AcDbLine
10
39.148675
20
14.978159
30
0
11
36.100858
21
16.759492
31
0
39
0
210
0
220
0
230
1
0
LINE
5
BC
100
AcDbEntity
8
1
62
256
6
ByLayer
370
18
48
1
60
1
100
AcDbLine
10
36.100858
20
-16.759492
30
0
11
39.148671
21
-14.97816
31
0
39
0
210
0
220
0
230
1
0
LINE
5
BD
100
AcDbEntity
8
1
62
256
6
ByLayer
370
18
48
1
60
1
100
AcDbLine
10
39.148671
20
-14.97816
30
0
11
39.505866
21
-15.827689
31
0
39
0
210
0
220
0
230
1
0
LINE
5
BE
100
AcDbEntity
8
1
62
256
6
ByLayer
370
18
48
1
60
1
100
AcDbLine
10
39.505866
20
-15.827689
30
0
11
36.100858
21
-16.759492
31
0
39
0
210
0
220
0
230
1
0
LINE
5
107
100
AcDbEntity
8
1
62
256
6
ByLayer
370
13
48
0.05
60
0
100
AcDbLine
10
-42.5
20
0
30
0
11
35.563477
21
0
31
0
39
0
210
0
220
0
230
1
0
LINE
5
10C
100
AcDbEntity
8
1
62
256
6
ByLayer
370
18
48
1
60
1
100
AcDbLine
10
37.5
20
2.5795
30
0
11
37.039216
21
6.079498
31
0
39
0
210
0
220
0
230
1
0
LINE
5
10D
100
AcDbEntity
8
1
62
256
6
ByLayer
370
18
48
1
60
1
100
AcDbLine
10
37.039216
20
6.079498
30
0
11
37.960784
21
6.079502
31
0
39
0
210
0
220
0
230
1
0
LINE
5
10E
100
AcDbEntity
8
1
62
256
6
ByLayer
370
18
48
1
60
1
100
AcDbLine
10
37.960784
20
6.079502
30
0
11
37.5
21
2.5795
31
0
39
0
210
0
220
0
230
1
0
LINE
5
110
100
AcDbEntity
8
1
62
256
6
ByLayer
370
18
48
1
60
1
100
AcDbLine
10
37.5
20
-2.5795
30
0
11
37.960784
21
-6.079498
31
0
39
0
210
0
220
0
230
1
0
LINE
5
111
100
AcDbEntity
8
1
62
256
6
ByLayer
370
18
48
1
60
1
100
AcDbLine
10
37.960784
20
-6.079498
30
0
11
37.039216
21
-6.079502
31
0
39
0
210
0
220
0
230
1
0
LINE
5
112
100
AcDbEntity
8
1
62
256
6
ByLayer
370
18
48
1
60
1
100
AcDbLine
10
37.039216
20
-6.079502
30
0
11
37.5
21
-2.5795
31
0
39
0
210
0
220
0
230
1
0
LINE
5
116
100
AcDbEntity
8
1
62
256
6
ByLayer
370
18
48
1
60
1
100
AcDbLine
10
-44.5
20
3
30
0
11
-44.960784
21
6.499998
31
0
39
0
210
0
220
0
230
1
0
LINE
5
117
100
AcDbEntity
8
1
62
256
6
ByLayer
370
18
48
1
60
1
100
AcDbLine
10
-44.960784
20
6.499998
30
0
11
-44.039216
21
6.500002
31
0
39
0
210
0
220
0
230
1
0
LINE
5
118
100
AcDbEntity
8
1
62
256
6
ByLayer
370
18
48
1
60
1
100
AcDbLine
10
-44.039216
20
6.500002
30
0
11
-44.5
21
3
31
0
39
0
210
0
220
0
230
1
0
LINE
5
11A
100
AcDbEntity
8
1
62
256
6
ByLayer
370
18
48
1
60
1
100
AcDbLine
10
-44.5
20
-3
30
0
11
-44.039216
21
-6.499998
31
0
39
0
210
0
220
0
230
1
0
LINE
5
11B
100
AcDbEntity
8
1
62
256
6
ByLayer
370
18
48
1
60
1
100
AcDbLine
10
-44.039216
20
-6.499998
30
0
11
-44.960784
21
-6.500002
31
0
39
0
210
0
220
0
230
1
0
LINE
5
11C
100
AcDbEntity
8
1
62
256
6
ByLayer
370
18
48
1
60
1
100
AcDbLine
10
-44.960784
20
-6.500002
30
0
11
-44.5
21
-3
31
0
39
0
210
0
220
0
230
1
0
LINE
5
11F
100
AcDbEntity
8
1
62
256
6
ByLayer
370
18
48
1
60
1
100
AcDbLine
10
36.100858
20
16.759492
30
0
11
39.505862
21
15.82769
31
0
39
0
210
0
220
0
230
1
0
LINE
5
120
100
AcDbEntity
8
1
62
256
6
ByLayer
370
18
48
1
60
1
100
AcDbLine
10
39.505862
20
15.82769
30
0
11
39.148675
21
14.978159
31
0
39
0
210
0
220
0
230
1
0
LINE
5
121
100
AcDbEntity
8
1
62
256
6
ByLayer
370
18
48
1
60
1
100
AcDbLine
10
39.148675
20
14.978159
30
0
11
36.100858
21
16.759492
31
0
39
0
210
0
220
0
230
1
0
LINE
5
123
100
AcDbEntity
8
1
62
256
6
ByLayer
370
18
48
1
60
1
100
AcDbLine
10
36.100858
20
-16.759492
30
0
11
39.148671
21
-14.97816
31
0
39
0
210
0
220
0
230
1
0
LINE
5
124
100
AcDbEntity
8
1
62
256
6
ByLayer
370
18
48
1
60
1
100
AcDbLine
10
39.148671
20
-14.97816
30
0
11
39.505866
21
-15.827689
31
0
39
0
210
0
220
0
230
1
0
LINE
5
125
100
AcDbEntity
8
1
62
256
6
ByLayer
370
18
48
1
60
1
100
AcDbLine
10
39.505866
20
-15.827689
30
0
11
36.100858
21
-16.759492
31
0
39
0
210
0
220
0
230
1
0
MTEXT
5
108
100
AcDbEntity
8
2
62
256
6
ByLayer
370
18
48
1
60
0
100
AcDbMText
10
36.158886
20
16.237937
30
0
210
0
220
0
230
1
1
%%c
40
3
41
0
44
1.084337
50
90
71
7
72
5
7
iso_b_vert
0
MTEXT
5
10B
100
AcDbEntity
8
2
62
256
6
ByLayer
370
18
48
1
60
0
100
AcDbMText
10
36.158886
20
22.2145
30
0
210
0
220
0
230
1
1
\W0.6944;5.159
40
3
41
0
44
1.084337
50
90
71
7
72
5
7
iso_b_vert
0
MTEXT
5
114
100
AcDbEntity
8
SK2
62
256
6
ByLayer
370
18
48
1
60
0
100
AcDbMText
10
-45.841114
20
6.658437
30
0
210
0
220
0
230
1
1
%%c
40
3
41
0
44
1.084337
50
90
71
7
72
5
7
iso_b_vert
0
MTEXT
5
115
100
AcDbEntity
8
SK2
62
256
6
ByLayer
370
18
48
1
60
0
100
AcDbMText
10
-45.841114
20
12.635
30
0
210
0
220
0
230
1
1
\W0.5404;6
40
3
41
0
44
1.084337
50
90
71
7
72
5
7
iso_b_vert
0
MTEXT
5
11E
100
AcDbEntity
8
SK2
62
256
6
ByLayer
370
18
48
1
60
0
100
AcDbMText
10
44.394731
20
-2.114886
30
0
210
0
220
0
230
1
1
\W0.7071;140%%d
40
3
41
0
44
1.084337
50
0
71
7
72
5
7
iso_b_vert
0
MTEXT
5
127
100
AcDbEntity
8
SK6
62
256
6
ByLayer
370
18
48
1
60
0
100
AcDbMText
10
-27.623188
20
-77.114886
30
0
210
0
220
0
230
1
1
\W0.7307;860.1-0516-016A1-SD S2BM
40
3
41
0
44
1.084337
50
0
71
7
72
5
7
iso_b_vert
0
HATCH
5
10F
100
AcDbEntity
8
2
62
256
6
ByLayer
370
13
48
1
60
0
100
AcDbHatch
10
0
20
0
30
0
210
0
220
0
230
1
2
ANSI31
70
0
71
0
91
1
92
5
93
3
72
1
10
37.5
20
2.5795
11
37.0392162584472
21
6.07949830744681
72
1
10
37.0392162584472
20
6.07949830744681
11
37.9607837415528
21
6.07950169255318
72
1
10
37.9607837415528
20
6.07950169255318
11
37.5
21
2.5795
97
0
75
0
76
1
52
0
41
0.0062
77
0
78
1
53
45
43
0
44
0
45
-0.0139193969876572
46
0.0139193969876572
79
0
47
0
98
1
10
0
20
0
0
HATCH
5
113
100
AcDbEntity
8
2
62
256
6
ByLayer
370
13
48
1
60
0
100
AcDbHatch
10
0
20
0
30
0
210
0
220
0
230
1
2
ANSI31
70
0
71
0
91
1
92
5
93
3
72
1
10
37.5
20
-2.5795
11
37.9607837415528
21
-6.07949830744681
72
1
10
37.9607837415528
20
-6.07949830744681
11
37.0392162584472
21
-6.07950169255318
72
1
10
37.0392162584472
20
-6.07950169255318
11
37.5
21
-2.5795
97
0
75
0
76
1
52
0
41
0.0062
77
0
78
1
53
45
43
0
44
0
45
-0.0139193969876572
46
0.0139193969876572
79
0
47
0
98
1
10
0
20
0
0
HATCH
5
119
100
AcDbEntity
8
SK2
62
256
6
ByLayer
370
13
48
1
60
0
100
AcDbHatch
10
0
20
0
30
0
210
0
220
0
230
1
2
ANSI31
70
0
71
0
91
1
92
5
93
3
72
1
10
-44.5
20
3
11
-44.9607837415528
21
6.49999830744682
72
1
10
-44.9607837415528
20
6.49999830744682
11
-44.0392162584472
21
6.50000169255318
72
1
10
-44.0392162584472
20
6.50000169255318
11
-44.5
21
3
97
0
75
0
76
1
52
0
41
0.0062
77
0
78
1
53
45
43
0
44
0
45
-0.0139193969876572
46
0.0139193969876572
79
0
47
0
98
1
10
0
20
0
0
HATCH
5
11D
100
AcDbEntity
8
SK2
62
256
6
ByLayer
370
13
48
1
60
0
100
AcDbHatch
10
0
20
0
30
0
210
0
220
0
230
1
2
ANSI31
70
0
71
0
91
1
92
5
93
3
72
1
10
-44.5
20
-3
11
-44.0392162584472
21
-6.49999830744682
72
1
10
-44.0392162584472
20
-6.49999830744682
11
-44.9607837415528
21
-6.50000169255318
72
1
10
-44.9607837415528
20
-6.50000169255318
11
-44.5
21
-3
97
0
75
0
76
1
52
0
41
0.0062
77
0
78
1
53
45
43
0
44
0
45
-0.0139193969876572
46
0.0139193969876572
79
0
47
0
98
1
10
0
20
0
0
HATCH
5
122
100
AcDbEntity
8
SK2
62
256
6
ByLayer
370
13
48
1
60
0
100
AcDbHatch
10
0
20
0
30
0
210
0
220
0
230
1
2
ANSI31
70
0
71
0
91
1
92
5
93
3
72
1
10
36.1008580422426
20
16.7594923535306
11
39.5058624449436
21
15.827690429194
72
1
10
39.5058624449436
20
15.827690429194
11
39.1486745467048
21
14.9781591282517
72
1
10
39.1486745467048
20
14.9781591282517
11
36.1008580422426
21
16.7594923535306
97
0
75
0
76
1
52
0
41
0.0062
77
0
78
1
53
45
43
0
44
0
45
-0.0139193969876572
46
0.0139193969876572
79
0
47
0
98
1
10
0
20
0
0
HATCH
5
126
100
AcDbEntity
8
SK2
62
256
6
ByLayer
370
13
48
1
60
0
100
AcDbHatch
10
0
20
0
30
0
210
0
220
0
230
1
2
ANSI31
70
0
71
0
91
1
92
5
93
3
72
1
10
36.1008580422426
20
-16.7594923535306
11
39.1486714262069
21
-14.9781604402875
72
1
10
39.1486714262069
20
-14.9781604402875
11
39.5058655654414
21
-15.8276891171581
72
1
10
39.5058655654414
20
-15.8276891171581
11
36.1008580422426
21
-16.7594923535306
97
0
75
0
76
1
52
0
41
0.0062
77
0
78
1
53
45
43
0
44
0
45
-0.0139193969876572
46
0.0139193969876572
79
0
47
0
98
1
10
0
20
0
0
DIMENSION
5
12A
100
AcDbEntity
8
SK2
62
256
6
ByLayer
370
18
48
1
60
0
100
AcDbDimension
2
_U0
10
13.6
20
-18.16203
30
0
11
21.8
21
-18.16203
31
0
70
32
71
1
72
1
41
1
210
0
220
0
230
1
3
Standard
100
AcDbAlignedDimension
13
30
23
-2.5795
33
0
14
13.6
24
-2.5795
34
0
50
0
100
AcDbRotatedDimension
1001
ACAD
1000
DSTYLE
1002
{
1070
   371
1070
    13
1070
   372
1070
    13
1070
   170
1070
     0
1070
   144
1040
1.0
1070
   277
1070
     2
1070
   284
1070
     8
1070
   278
1070
    46
1070
   146
1040
1.166667
1070
   345
1005
16
1070
   347
1005
16
1070
   346
1005
16
1070
   344
1005
0
1070
   343
1005
0
1070
   172
1070
     1
1070
    76
1070
     0
1070
    75
1070
     0
1070
   282
1070
     0
1070
   281
1070
     0
1070
     3
1000

1070
    71
1070
     0
1070
    74
1070
     0
1070
   279
1070
     0
1070
   173
1070
     1
1070
   340
1005
109
1070
   271
1070
     2
1070
   272
1070
     2
1070
    77
1070
     1
1070
    73
1070
     1
1070
   171
1070
     3
1070
   274
1070
     4
1070
   177
1070
     2
1070
   176
1070
     2
1070
   178
1070
     2
1070
    78
1070
     8
1070
    48
1040
-0.1
1070
    41
1040
3.5
1070
   147
1040
1.5
1070
    42
1040
1.5875
1070
    44
1040
2.0
1070
   140
1040
3.0
1002
}
1001
ACAD_DSTYLE_DIM_LINETYPE
1070
   380
1005
16
1001
ACAD_DSTYLE_DIM_EXT1_LINETYPE
1070
   381
1005
16
1001
ACAD_DSTYLE_DIM_EXT2_LINETYPE
1070
   382
1005
16
0
DIMENSION
5
145
100
AcDbEntity
8
SK2
62
256
6
ByLayer
370
18
48
1
60
0
100
AcDbDimension
2
_U1
10
2
20
-28.16203
30
0
11
16
21
-28.16203
31
0
70
32
71
1
72
1
41
1
210
0
220
0
230
1
3
Standard
100
AcDbAlignedDimension
13
30
23
-2.5795
33
0
14
2
24
-2.5795
34
0
50
0
100
AcDbRotatedDimension
1001
ACAD
1000
DSTYLE
1002
{
1070
   371
1070
    13
1070
   372
1070
    13
1070
     3
1000

1070
   170
1070
     0
1070
   144
1040
1.0
1070
   277
1070
     2
1070
   284
1070
     8
1070
   278
1070
    46
1070
   146
1040
1.166667
1070
   345
1005
16
1070
   347
1005
16
1070
   346
1005
16
1070
   344
1005
0
1070
   343
1005
0
1070
   172
1070
     1
1070
    76
1070
     0
1070
    75
1070
     0
1070
   282
1070
     0
1070
   281
1070
     0
1070
    71
1070
     0
1070
    74
1070
     0
1070
   279
1070
     0
1070
   173
1070
     1
1070
   340
1005
109
1070
   271
1070
     2
1070
   272
1070
     2
1070
    77
1070
     1
1070
    73
1070
     1
1070
   171
1070
     3
1070
   274
1070
     4
1070
   177
1070
     2
1070
   176
1070
     2
1070
   178
1070
     2
1070
    78
1070
     8
1070
    48
1040
-0.1
1070
    41
1040
3.5
1070
   147
1040
1.5
1070
    42
1040
1.5875
1070
    44
1040
2.0
1070
   140
1040
3.0
1002
}
1001
ACAD_DSTYLE_DIM_LINETYPE
1070
   380
1005
16
1001
ACAD_DSTYLE_DIM_EXT1_LINETYPE
1070
   381
1005
16
1001
ACAD_DSTYLE_DIM_EXT2_LINETYPE
1070
   382
1005
16
0
DIMENSION
5
15D
100
AcDbEntity
8
SK2
62
256
6
ByLayer
370
18
48
1
60
0
100
AcDbDimension
2
_U2
10
0
20
-36.16203
30
0
11
-18
21
-36.16203
31
0
70
32
71
1
72
1
41
1
210
0
220
0
230
1
3
Standard
100
AcDbAlignedDimension
13
-36
23
-3
33
0
14
0
24
-3
34
0
50
0
100
AcDbRotatedDimension
1001
ACAD
1000
DSTYLE
1002
{
1070
   371
1070
    13
1070
   372
1070
    13
1070
     3
1000

1070
   170
1070
     0
1070
   144
1040
1.0
1070
   277
1070
     2
1070
   284
1070
     8
1070
   278
1070
    46
1070
   146
1040
1.166667
1070
   345
1005
16
1070
   347
1005
16
1070
   346
1005
16
1070
   344
1005
0
1070
   343
1005
0
1070
   172
1070
     1
1070
    76
1070
     0
1070
    75
1070
     0
1070
   282
1070
     0
1070
   281
1070
     0
1070
    71
1070
     0
1070
    74
1070
     0
1070
   279
1070
     0
1070
   173
1070
     1
1070
   340
1005
109
1070
   271
1070
     2
1070
   272
1070
     2
1070
    77
1070
     1
1070
    73
1070
     1
1070
   171
1070
     3
1070
   274
1070
     4
1070
   177
1070
     2
1070
   176
1070
     2
1070
   178
1070
     2
1070
    78
1070
     8
1070
    48
1040
-0.1
1070
    41
1040
3.5
1070
   147
1040
1.5
1070
    42
1040
1.5875
1070
    44
1040
2.0
1070
   140
1040
3.0
1002
}
1001
ACAD_DSTYLE_DIM_LINETYPE
1070
   380
1005
16
1001
ACAD_DSTYLE_DIM_EXT1_LINETYPE
1070
   381
1005
16
1001
ACAD_DSTYLE_DIM_EXT2_LINETYPE
1070
   382
1005
16
0
DIMENSION
5
175
100
AcDbEntity
8
SK2
62
256
6
ByLayer
370
18
48
1
60
0
100
AcDbDimension
2
_U3
10
30
20
-44.16203
30
0
11
-3
21
-44.16203
31
0
70
32
71
1
72
1
41
1
210
0
220
0
230
1
3
Standard
100
AcDbAlignedDimension
13
-36
23
-3
33
0
14
30
24
-2.5795
34
0
50
0
100
AcDbRotatedDimension
1001
ACAD
1000
DSTYLE
1002
{
1070
   371
1070
    13
1070
   372
1070
    13
1070
     3
1000

1070
   170
1070
     0
1070
   144
1040
1.0
1070
   277
1070
     2
1070
   284
1070
     8
1070
   278
1070
    46
1070
   146
1040
1.166667
1070
   345
1005
16
1070
   347
1005
16
1070
   346
1005
16
1070
   344
1005
0
1070
   343
1005
0
1070
   172
1070
     1
1070
    76
1070
     0
1070
    75
1070
     0
1070
   282
1070
     0
1070
   281
1070
     0
1070
    71
1070
     0
1070
    74
1070
     0
1070
   279
1070
     0
1070
   173
1070
     1
1070
   340
1005
109
1070
   271
1070
     2
1070
   272
1070
     2
1070
    77
1070
     1
1070
    73
1070
     1
1070
   171
1070
     3
1070
   274
1070
     4
1070
   177
1070
     2
1070
   176
1070
     2
1070
   178
1070
     2
1070
    78
1070
     8
1070
    48
1040
-0.1
1070
    41
1040
3.5
1070
   147
1040
1.5
1070
    42
1040
1.5875
1070
    44
1040
2.0
1070
   140
1040
3.0
1002
}
1001
ACAD_DSTYLE_DIM_LINETYPE
1070
   380
1005
16
1001
ACAD_DSTYLE_DIM_EXT1_LINETYPE
1070
   381
1005
16
1001
ACAD_DSTYLE_DIM_EXT2_LINETYPE
1070
   382
1005
16
0
DIMENSION
5
18D
100
AcDbEntity
8
2
62
256
6
ByLayer
370
18
48
1
60
0
100
AcDbDimension
2
_U4
10
0
20
-36.16203
30
0
11
15
21
-36.16203
31
0
70
32
71
1
72
1
41
1
210
0
220
0
230
1
3
Standard
100
AcDbAlignedDimension
13
30
23
-2.5795
33
0
14
0
24
-2.5795
34
0
50
0
100
AcDbRotatedDimension
1001
ACAD
1000
DSTYLE
1002
{
1070
   371
1070
    13
1070
   372
1070
    13
1070
     3
1000

1070
   170
1070
     0
1070
   144
1040
1.0
1070
   277
1070
     2
1070
   284
1070
     8
1070
   278
1070
    46
1070
   146
1040
1.166667
1070
   345
1005
16
1070
   347
1005
16
1070
   346
1005
16
1070
   344
1005
0
1070
   343
1005
0
1070
   172
1070
     1
1070
    76
1070
     0
1070
    75
1070
     0
1070
   282
1070
     0
1070
   281
1070
     0
1070
    71
1070
     0
1070
    74
1070
     0
1070
   279
1070
     0
1070
   173
1070
     1
1070
   340
1005
109
1070
   271
1070
     2
1070
   272
1070
     2
1070
    77
1070
     1
1070
    73
1070
     1
1070
   171
1070
     3
1070
   274
1070
     4
1070
   177
1070
     2
1070
   176
1070
     2
1070
   178
1070
     2
1070
    78
1070
     8
1070
    48
1040
-0.1
1070
    41
1040
3.5
1070
   147
1040
1.5
1070
    42
1040
1.5875
1070
    44
1040
2.0
1070
   140
1040
3.0
1002
}
1001
ACAD_DSTYLE_DIM_LINETYPE
1070
   380
1005
16
1001
ACAD_DSTYLE_DIM_EXT1_LINETYPE
1070
   381
1005
16
1001
ACAD_DSTYLE_DIM_EXT2_LINETYPE
1070
   382
1005
16
0
ENDSEC
0
SECTION
2
OBJECTS
0
DICTIONARY
5
215
330
0
100
AcDbDictionary
280
0
281
1
3
ACAD_GROUP
350
216
3
ACAD_MLINESTYLE
350
217
0
DICTIONARY
5
216
330
0
100
AcDbDictionary
280
0
281
1
0
DICTIONARY
5
217
330
0
100
AcDbDictionary
280
0
281
1
3
Standard
350
18
0
MLINESTYLE
5
18
330
217
100
AcDbMlineStyle
2
Standard
70
0
3

62
256
51
90
52
90
71
2
49
-0.5
62
256
6
ByLayer
49
0.5
62
256
6
ByLayer
0
RASTERVARIABLES
5
203
330

100
AcDbRasterVariables
90
0
70
1
71
1
72
1
0
ENDSEC
0
EOF
