0
SECTION
2
HEADER
9
$ACADVER
1
AC1015
9
$DWGCODEPAGE
3
ANSI_1252
9
$HANDSEED
5
223
9
$ANGBASE
50
0
9
$ANGDIR
70
0
9
$ATTMODE
70
1
9
$AUNITS
70
0
9
$AUPREC
70
0
9
$CECOLOR
62
256
9
$CELTSCALE
40
1
9
$CELTYPE
6
ByLayer
9
$CELWEIGHT
370
18
9
$CLAYER
8
0
9
$CMLJUST
70
0
9
$CMLSCALE
40
1
9
$CMLSTYLE
2
Standard
9
$DIMSTYLE
2
Standard
9
$TEXTSIZE
40
0.2
9
$TEXTSTYLE
7
Standard
9
$LUNITS
70
2
9
$LUPREC
70
4
9
$EXTNAMES
290
1
9
$INSUNITS
70
4
9
$LTSCALE
40
1
9
$LWDISPLAY
290
1
9
$PDMODE
70
0
9
$PDSIZE
40
0
9
$PLINEGEN
70
0
0
ENDSEC
0
SECTION
2
CLASSES
0
CLASS
1
RASTERVARIABLES
2
AcDbRasterVariables
3
ISM
90
0
280
0
281
0
0
ENDSEC
0
SECTION
2
TABLES
0
TABLE
2
VPORT
5
219
100
AcDbSymbolTable
0
VPORT
5
1
100
AcDbSymbolTableRecord
100
AcDbViewportTableRecord
2
*Active
70
0
10
0
20
0
11
1
21
1
12
-1
22
1
13
0
23
0
14
0.5
24
0.5
15
10
25
10
16
0
26
0
36
1
17
0
27
0
37
0
0
ENDTAB
0
TABLE
2
LTYPE
5
21a
100
AcDbSymbolTable
0
LTYPE
5
14
100
AcDbSymbolTableRecord
100
AcDbLinetypeTableRecord
70
0
2
ByBlock
3

72
65
73
0
40
0
0
LTYPE
5
15
100
AcDbSymbolTableRecord
100
AcDbLinetypeTableRecord
70
0
2
ByLayer
3

72
65
73
0
40
0
0
LTYPE
5
16
100
AcDbSymbolTableRecord
100
AcDbLinetypeTableRecord
70
0
2
Continuous
3
Solid line
72
65
73
0
40
0
0
LTYPE
5
6E
100
AcDbSymbolTableRecord
100
AcDbLinetypeTableRecord
70
0
2
CENTER
3
____ _ ____ _ ____ _ ____
72
65
73
4
40
47.5
49
22
74
0
49
-8.5
74
0
49
8.5
74
0
49
-8.5
74
0
0
LTYPE
5
6F
100
AcDbSymbolTableRecord
100
AcDbLinetypeTableRecord
70
0
2
DASHED
3
__ __ __ __ __ __ __ __ __
72
65
73
2
40
25.72
49
12.86
74
0
49
-12.86
74
0
0
ENDTAB
0
TABLE
2
LAYER
5
21b
100
AcDbSymbolTable
0
LAYER
5
10
100
AcDbSymbolTableRecord
100
AcDbLayerTableRecord
2
0
70
0
62
7
6
Continuous
290
1
370
-3
390
0
0
LAYER
5
71
100
AcDbSymbolTableRecord
100
AcDbLayerTableRecord
2
80
70
0
62
-6
6
Continuous
290
1
370
-3
390
0
0
LAYER
5
73
100
AcDbSymbolTableRecord
100
AcDbLayerTableRecord
2
81
70
0
62
-3
6
Continuous
290
1
370
-3
390
0
0
LAYER
5
75
100
AcDbSymbolTableRecord
100
AcDbLayerTableRecord
2
1
70
0
62
4
6
Continuous
290
1
370
-3
390
0
0
LAYER
5
83
100
AcDbSymbolTableRecord
100
AcDbLayerTableRecord
2
4
70
0
62
-2
6
CENTER
290
1
370
-3
390
0
0
LAYER
5
A4
100
AcDbSymbolTableRecord
100
AcDbLayerTableRecord
2
2
70
0
62
7
6
Continuous
290
1
370
-3
390
0
0
LAYER
5
12E
100
AcDbSymbolTableRecord
100
AcDbLayerTableRecord
2
Defpoints
70
0
62
7
6
Continuous
290
0
370
-3
390
0
0
LAYER
5
205
100
AcDbSymbolTableRecord
100
AcDbLayerTableRecord
2
SK4
70
0
62
2
6
CENTER
290
1
370
-3
390
0
0
LAYER
5
206
100
AcDbSymbolTableRecord
100
AcDbLayerTableRecord
2
SK1
70
0
62
4
6
Continuous
290
1
370
-3
390
0
0
LAYER
5
207
100
AcDbSymbolTableRecord
100
AcDbLayerTableRecord
2
SK2
70
0
62
7
6
Continuous
290
1
370
-3
390
0
0
LAYER
5
208
100
AcDbSymbolTableRecord
100
AcDbLayerTableRecord
2
SK6
70
0
62
5
6
Continuous
290
1
370
-3
390
0
0
ENDTAB
0
TABLE
2
STYLE
5
21c
100
AcDbSymbolTable
0
STYLE
5
11
100
AcDbSymbolTableRecord
100
AcDbTextStyleTableRecord
2
Standard
3
txt
70
0
71
0
40
0
41
1
42
0
50
0
0
STYLE
5
10A
100
AcDbSymbolTableRecord
100
AcDbTextStyleTableRecord
2
iso_b_vert
3
simplex.shx
70
0
71
0
40
0
41
1
42
0
50
0
0
STYLE
5
10B
100
AcDbSymbolTableRecord
100
AcDbTextStyleTableRecord
2
DWGDirectTextStyle
3
simplex
70
0
71
0
40
0
41
1
42
0
50
0
0
ENDTAB
0
TABLE
2
DIMSTYLE
5
21d
100
AcDbSymbolTable
100
AcDbDimStyleTable
0
DIMSTYLE
105
27
100
AcDbSymbolTableRecord
100
AcDbDimStyleTableRecord
2
Standard
70
0
3
<>
41
0.18
42
0.0625
44
0.18
140
0.18
147
0.09
73
0
74
0
77
1
271
2
275
0
278
52
280
0
340
11
0
ENDTAB
0
TABLE
2
VIEW
5
21e
100
AcDbSymbolTable
0
ENDTAB
0
TABLE
2
UCS
5
21f
100
AcDbSymbolTable
0
ENDTAB
0
TABLE
2
APPID
5
220
100
AcDbSymbolTable
0
APPID
5
12
100
AcDbSymbolTableRecord
100
AcDbRegAppTableRecord
2
ACAD
70
0
0
APPID
5
12A
100
AcDbSymbolTableRecord
100
AcDbRegAppTableRecord
2
ACAD_DSTYLE_DIMBREAK
70
0
0
APPID
5
1C4
100
AcDbSymbolTableRecord
100
AcDbRegAppTableRecord
2
ACAD_DSTYLE_DIM_LINETYPE
70
0
0
APPID
5
1C5
100
AcDbSymbolTableRecord
100
AcDbRegAppTableRecord
2
ACAD_DSTYLE_DIM_EXT1_LINETYPE
70
0
0
APPID
5
1C6
100
AcDbSymbolTableRecord
100
AcDbRegAppTableRecord
2
ACAD_DSTYLE_DIM_EXT2_LINETYPE
70
0
0
APPID
5
201
100
AcDbSymbolTableRecord
100
AcDbRegAppTableRecord
2
ACAD_MLEADERVER
70
0
0
ENDTAB
0
TABLE
2
BLOCK_RECORD
5
221
100
AcDbSymbolTable
0
BLOCK_RECORD
5
1F
100
AcDbSymbolTableRecord
100
AcDbBlockTableRecord
2
*Model_Space
340
0
70
0
0
BLOCK_RECORD
5
1B
100
AcDbSymbolTableRecord
100
AcDbBlockTableRecord
2
*Paper_Space
340
0
70
0
0
BLOCK_RECORD
5
23
100
AcDbSymbolTableRecord
100
AcDbBlockTableRecord
2
*Paper_Space0
340
0
70
0
0
BLOCK_RECORD
5
12F
100
AcDbSymbolTableRecord
100
AcDbBlockTableRecord
2
*D1
340
0
70
0
0
BLOCK_RECORD
5
13B
100
AcDbSymbolTableRecord
100
AcDbBlockTableRecord
2
_U0
340
0
70
0
0
BLOCK_RECORD
5
149
100
AcDbSymbolTableRecord
100
AcDbBlockTableRecord
2
*D3
340
0
70
0
0
BLOCK_RECORD
5
155
100
AcDbSymbolTableRecord
100
AcDbBlockTableRecord
2
_U1
340
0
70
0
0
BLOCK_RECORD
5
161
100
AcDbSymbolTableRecord
100
AcDbBlockTableRecord
2
*D5
340
0
70
0
0
BLOCK_RECORD
5
16D
100
AcDbSymbolTableRecord
100
AcDbBlockTableRecord
2
_U2
340
0
70
0
0
BLOCK_RECORD
5
179
100
AcDbSymbolTableRecord
100
AcDbBlockTableRecord
2
*D7
340
0
70
0
0
BLOCK_RECORD
5
185
100
AcDbSymbolTableRecord
100
AcDbBlockTableRecord
2
_U3
340
0
70
0
0
BLOCK_RECORD
5
191
100
AcDbSymbolTableRecord
100
AcDbBlockTableRecord
2
*D9
340
0
70
0
0
BLOCK_RECORD
5
19D
100
AcDbSymbolTableRecord
100
AcDbBlockTableRecord
2
_U4
340
0
70
0
0
ENDTAB
0
ENDSEC
0
SECTION
2
BLOCKS
0
BLOCK
5
20
100
AcDbEntity
8
0
100
AcDbBlockBegin
2
*Model_Space
70
0
10
0
20
0
30
0
3
*Model_Space
0
ENDBLK
5
21
100
AcDbEntity
8
0
100
AcDbBlockEnd
0
BLOCK
5
1C
100
AcDbEntity
8
0
100
AcDbBlockBegin
2
*Paper_Space
70
0
10
0
20
0
30
0
3
*Paper_Space
0
ENDBLK
5
1D
100
AcDbEntity
8
0
100
AcDbBlockEnd
0
BLOCK
5
24
100
AcDbEntity
8
0
100
AcDbBlockBegin
2
*Paper_Space0
70
0
10
0
20
0
30
0
3
*Paper_Space0
0
ENDBLK
5
25
100
AcDbEntity
8
0
100
AcDbBlockEnd
0
BLOCK
5
130
100
AcDbEntity
8
0
100
AcDbBlockBegin
2
*D1
70
1
10
0
20
0
30
0
3
*D1
0
LINE
5
132
100
AcDbEntity
8
0
62
256
6
ByLayer
370
-2
48
1
60
0
100
AcDbLine
10
30
20
-4.1375
30
0
11
30
21
-20.062769
31
0
39
0
210
0
220
0
230
1
0
LINE
5
133
100
AcDbEntity
8
0
62
256
6
ByLayer
370
-2
48
1
60
0
100
AcDbLine
10
13.8
20
-4.1375
30
0
11
13.8
21
-20.062769
31
0
39
0
210
0
220
0
230
1
0
LINE
5
134
100
AcDbEntity
8
0
62
256
6
ByLayer
370
-2
48
1
60
0
100
AcDbLine
10
26.5
20
-18.062769
30
0
11
17.3
21
-18.062769
31
0
39
0
210
0
220
0
230
1
0
SOLID
5
135
100
AcDbEntity
8
0
62
256
6
ByLayer
370
-1
48
1
60
0
100
AcDbTrace
10
26.5
20
-18.646103
30
0
11
26.5
21
-17.479436
31
0
12
30
22
-18.062769
32
0
13
30
23
-18.062769
33
0
39
0
210
0
220
0
230
1
0
SOLID
5
136
100
AcDbEntity
8
0
62
256
6
ByLayer
370
-1
48
1
60
0
100
AcDbTrace
10
17.3
20
-17.479436
30
0
11
17.3
21
-18.646103
31
0
12
13.8
22
-18.062769
32
0
13
13.8
23
-18.062769
33
0
39
0
210
0
220
0
230
1
0
MTEXT
5
137
100
AcDbEntity
8
0
62
256
6
ByLayer
370
18
48
1
60
0
100
AcDbMText
10
21.9
20
-12.062769
30
0
210
0
220
0
230
1
1
\A1;16.2
40
3
41
0
44
1
50
0
71
5
72
5
7
iso_b_vert
0
POINT
5
138
100
AcDbEntity
8
Defpoints
62
0
6
ByLayer
370
-1
48
1
60
0
100
AcDbPoint
10
30
20
-2.55
30
0
39
0
210
0
220
0
230
1
50
360
0
POINT
5
139
100
AcDbEntity
8
Defpoints
62
0
6
ByLayer
370
-1
48
1
60
0
100
AcDbPoint
10
13.8
20
-2.55
30
0
39
0
210
0
220
0
230
1
50
360
0
POINT
5
13A
100
AcDbEntity
8
Defpoints
62
0
6
ByLayer
370
-1
48
1
60
0
100
AcDbPoint
10
13.8
20
-18.062769
30
0
39
0
210
0
220
0
230
1
50
360
0
ENDBLK
5
131
100
AcDbEntity
8
0
100
AcDbBlockEnd
0
BLOCK
5
144
100
AcDbEntity
8
0
100
AcDbBlockBegin
2
_U0
70
0
10
0
20
0
30
0
3
_U0
0
MTEXT
5
13C
100
AcDbEntity
8
SK2
62
256
6
ByLayer
370
18
48
1
60
0
100
AcDbMText
10
18.913486
20
-15.865155
30
0
210
0
220
0
230
1
1
\W0.6563;16.2
40
3
41
0
44
1.084337
50
0
71
7
72
5
7
iso_b_vert
0
MTEXT
5
13D
100
AcDbEntity
8
SK2
62
256
6
ByLayer
370
18
48
1
60
0
100
AcDbMText
10
16.813486
20
-15.865155
30
0
210
0
220
0
230
1
1
\W1.1313;{\H1.88x;(}
40
3
41
0
44
1.084337
50
0
71
7
72
5
7
iso_b_vert
0
MTEXT
5
13E
100
AcDbEntity
8
SK2
62
256
6
ByLayer
370
18
48
1
60
0
100
AcDbMText
10
25.204514
20
-15.865155
30
0
210
0
220
0
230
1
1
\W1.1313;{\H1.88x;)}
40
3
41
0
44
1.084337
50
0
71
7
72
5
7
iso_b_vert
0
LINE
5
13F
100
AcDbEntity
8
SK2
62
256
6
ByLayer
370
13
48
1
60
0
100
AcDbLine
10
30
20
-4.1375
30
0
11
30
21
-20.062769
31
0
39
0
210
0
220
0
230
1
0
LINE
5
140
100
AcDbEntity
8
SK2
62
256
6
ByLayer
370
13
48
1
60
0
100
AcDbLine
10
13.8
20
-4.1375
30
0
11
13.8
21
-20.062769
31
0
39
0
210
0
220
0
230
1
0
LINE
5
141
100
AcDbEntity
8
SK2
62
256
6
ByLayer
370
13
48
1
60
0
100
AcDbLine
10
30
20
-18.062769
30
0
11
13.8
21
-18.062769
31
0
39
0
210
0
220
0
230
1
0
SOLID
5
142
100
AcDbEntity
8
SK2
62
256
6
ByLayer
370
18
48
1
60
0
100
AcDbTrace
10
30
20
-18.062769
30
0
11
26.500002
21
-18.523553
31
0
12
26.499998
22
-17.601986
32
0
13
26.499998
23
-17.601986
33
0
39
0
210
0
220
0
230
1
0
SOLID
5
143
100
AcDbEntity
8
SK2
62
256
6
ByLayer
370
18
48
1
60
0
100
AcDbTrace
10
13.8
20
-18.062769
30
0
11
17.299998
21
-17.601986
31
0
12
17.300002
22
-18.523553
32
0
13
17.300002
23
-18.523553
33
0
39
0
210
0
220
0
230
1
0
ENDBLK
5
145
100
AcDbEntity
8
0
100
AcDbBlockEnd
0
BLOCK
5
14A
100
AcDbEntity
8
0
100
AcDbBlockBegin
2
*D3
70
1
10
0
20
0
30
0
3
*D3
0
LINE
5
14C
100
AcDbEntity
8
0
62
256
6
ByLayer
370
-2
48
1
60
0
100
AcDbLine
10
30
20
-4.1375
30
0
11
30
21
-30.062769
31
0
39
0
210
0
220
0
230
1
0
LINE
5
14D
100
AcDbEntity
8
0
62
256
6
ByLayer
370
-2
48
1
60
0
100
AcDbLine
10
2
20
-4.1375
30
0
11
2
21
-30.062769
31
0
39
0
210
0
220
0
230
1
0
LINE
5
14E
100
AcDbEntity
8
0
62
256
6
ByLayer
370
-2
48
1
60
0
100
AcDbLine
10
26.5
20
-28.062769
30
0
11
5.5
21
-28.062769
31
0
39
0
210
0
220
0
230
1
0
SOLID
5
14F
100
AcDbEntity
8
0
62
256
6
ByLayer
370
-1
48
1
60
0
100
AcDbTrace
10
26.5
20
-28.646103
30
0
11
26.5
21
-27.479436
31
0
12
30
22
-28.062769
32
0
13
30
23
-28.062769
33
0
39
0
210
0
220
0
230
1
0
SOLID
5
150
100
AcDbEntity
8
0
62
256
6
ByLayer
370
-1
48
1
60
0
100
AcDbTrace
10
5.5
20
-27.479436
30
0
11
5.5
21
-28.646103
31
0
12
2
22
-28.062769
32
0
13
2
23
-28.062769
33
0
39
0
210
0
220
0
230
1
0
MTEXT
5
151
100
AcDbEntity
8
0
62
256
6
ByLayer
370
18
48
1
60
0
100
AcDbMText
10
16
20
-22.062769
30
0
210
0
220
0
230
1
1
\A1;28
40
3
41
0
44
1
50
0
71
5
72
5
7
iso_b_vert
0
POINT
5
152
100
AcDbEntity
8
Defpoints
62
0
6
ByLayer
370
-1
48
1
60
0
100
AcDbPoint
10
30
20
-2.55
30
0
39
0
210
0
220
0
230
1
50
360
0
POINT
5
153
100
AcDbEntity
8
Defpoints
62
0
6
ByLayer
370
-1
48
1
60
0
100
AcDbPoint
10
2
20
-2.55
30
0
39
0
210
0
220
0
230
1
50
360
0
POINT
5
154
100
AcDbEntity
8
Defpoints
62
0
6
ByLayer
370
-1
48
1
60
0
100
AcDbPoint
10
2
20
-28.062769
30
0
39
0
210
0
220
0
230
1
50
360
0
ENDBLK
5
14B
100
AcDbEntity
8
0
100
AcDbBlockEnd
0
BLOCK
5
15C
100
AcDbEntity
8
0
100
AcDbBlockBegin
2
_U1
70
0
10
0
20
0
30
0
3
_U1
0
MTEXT
5
156
100
AcDbEntity
8
SK2
62
256
6
ByLayer
370
18
48
1
60
0
100
AcDbMText
10
14.367172
20
-27.177655
30
0
210
0
220
0
230
1
1
\W0.6740;28
40
3
41
0
44
1.084337
50
0
71
7
72
5
7
iso_b_vert
0
LINE
5
157
100
AcDbEntity
8
SK2
62
256
6
ByLayer
370
13
48
1
60
0
100
AcDbLine
10
30
20
-4.1375
30
0
11
30
21
-30.062769
31
0
39
0
210
0
220
0
230
1
0
LINE
5
158
100
AcDbEntity
8
SK2
62
256
6
ByLayer
370
13
48
1
60
0
100
AcDbLine
10
2
20
-4.1375
30
0
11
2
21
-30.062769
31
0
39
0
210
0
220
0
230
1
0
LINE
5
159
100
AcDbEntity
8
SK2
62
256
6
ByLayer
370
13
48
1
60
0
100
AcDbLine
10
30
20
-28.062769
30
0
11
2
21
-28.062769
31
0
39
0
210
0
220
0
230
1
0
SOLID
5
15A
100
AcDbEntity
8
SK2
62
256
6
ByLayer
370
18
48
1
60
0
100
AcDbTrace
10
30
20
-28.062769
30
0
11
26.500002
21
-28.523553
31
0
12
26.499998
22
-27.601986
32
0
13
26.499998
23
-27.601986
33
0
39
0
210
0
220
0
230
1
0
SOLID
5
15B
100
AcDbEntity
8
SK2
62
256
6
ByLayer
370
18
48
1
60
0
100
AcDbTrace
10
2
20
-28.062769
30
0
11
5.499998
21
-27.601986
31
0
12
5.500002
22
-28.523553
32
0
13
5.500002
23
-28.523553
33
0
39
0
210
0
220
0
230
1
0
ENDBLK
5
15D
100
AcDbEntity
8
0
100
AcDbBlockEnd
0
BLOCK
5
162
100
AcDbEntity
8
0
100
AcDbBlockBegin
2
*D5
70
1
10
0
20
0
30
0
3
*D5
0
LINE
5
164
100
AcDbEntity
8
0
62
256
6
ByLayer
370
-2
48
1
60
0
100
AcDbLine
10
-36
20
-4.5875
30
0
11
-36
21
-38.062769
31
0
39
0
210
0
220
0
230
1
0
LINE
5
165
100
AcDbEntity
8
0
62
256
6
ByLayer
370
-2
48
1
60
0
100
AcDbLine
10
0
20
-4.5875
30
0
11
0
21
-38.062769
31
0
39
0
210
0
220
0
230
1
0
LINE
5
166
100
AcDbEntity
8
0
62
256
6
ByLayer
370
-2
48
1
60
0
100
AcDbLine
10
-32.5
20
-36.062769
30
0
11
-3.5
21
-36.062769
31
0
39
0
210
0
220
0
230
1
0
SOLID
5
167
100
AcDbEntity
8
0
62
256
6
ByLayer
370
-1
48
1
60
0
100
AcDbTrace
10
-32.5
20
-35.479436
30
0
11
-32.5
21
-36.646103
31
0
12
-36
22
-36.062769
32
0
13
-36
23
-36.062769
33
0
39
0
210
0
220
0
230
1
0
SOLID
5
168
100
AcDbEntity
8
0
62
256
6
ByLayer
370
-1
48
1
60
0
100
AcDbTrace
10
-3.5
20
-36.646103
30
0
11
-3.5
21
-35.479436
31
0
12
0
22
-36.062769
32
0
13
0
23
-36.062769
33
0
39
0
210
0
220
0
230
1
0
MTEXT
5
169
100
AcDbEntity
8
0
62
256
6
ByLayer
370
18
48
1
60
0
100
AcDbMText
10
-18
20
-30.062769
30
0
210
0
220
0
230
1
1
\A1;36
40
3
41
0
44
1
50
0
71
5
72
5
7
iso_b_vert
0
POINT
5
16A
100
AcDbEntity
8
Defpoints
62
0
6
ByLayer
370
-1
48
1
60
0
100
AcDbPoint
10
-36
20
-3
30
0
39
0
210
0
220
0
230
1
50
360
0
POINT
5
16B
100
AcDbEntity
8
Defpoints
62
0
6
ByLayer
370
-1
48
1
60
0
100
AcDbPoint
10
0
20
-3
30
0
39
0
210
0
220
0
230
1
50
360
0
POINT
5
16C
100
AcDbEntity
8
Defpoints
62
0
6
ByLayer
370
-1
48
1
60
0
100
AcDbPoint
10
0
20
-36.062769
30
0
39
0
210
0
220
0
230
1
50
360
0
ENDBLK
5
163
100
AcDbEntity
8
0
100
AcDbBlockEnd
0
BLOCK
5
174
100
AcDbEntity
8
0
100
AcDbBlockBegin
2
_U2
70
0
10
0
20
0
30
0
3
_U2
0
MTEXT
5
16E
100
AcDbEntity
8
SK2
62
256
6
ByLayer
370
18
48
1
60
0
100
AcDbMText
10
-19.632828
20
-35.177655
30
0
210
0
220
0
230
1
1
\W0.6740;36
40
3
41
0
44
1.084337
50
0
71
7
72
5
7
iso_b_vert
0
LINE
5
16F
100
AcDbEntity
8
SK2
62
256
6
ByLayer
370
13
48
1
60
0
100
AcDbLine
10
-36
20
-4.5875
30
0
11
-36
21
-38.062769
31
0
39
0
210
0
220
0
230
1
0
LINE
5
170
100
AcDbEntity
8
SK2
62
256
6
ByLayer
370
13
48
1
60
0
100
AcDbLine
10
0
20
-4.5875
30
0
11
0
21
-38.062769
31
0
39
0
210
0
220
0
230
1
0
LINE
5
171
100
AcDbEntity
8
SK2
62
256
6
ByLayer
370
13
48
1
60
0
100
AcDbLine
10
-36
20
-36.062769
30
0
11
0
21
-36.062769
31
0
39
0
210
0
220
0
230
1
0
SOLID
5
172
100
AcDbEntity
8
SK2
62
256
6
ByLayer
370
18
48
1
60
0
100
AcDbTrace
10
-36
20
-36.062769
30
0
11
-32.500002
21
-35.601986
31
0
12
-32.499998
22
-36.523553
32
0
13
-32.499998
23
-36.523553
33
0
39
0
210
0
220
0
230
1
0
SOLID
5
173
100
AcDbEntity
8
SK2
62
256
6
ByLayer
370
18
48
1
60
0
100
AcDbTrace
10
0
20
-36.062769
30
0
11
-3.499998
21
-36.523553
31
0
12
-3.500002
22
-35.601986
32
0
13
-3.500002
23
-35.601986
33
0
39
0
210
0
220
0
230
1
0
ENDBLK
5
175
100
AcDbEntity
8
0
100
AcDbBlockEnd
0
BLOCK
5
17A
100
AcDbEntity
8
0
100
AcDbBlockBegin
2
*D7
70
1
10
0
20
0
30
0
3
*D7
0
LINE
5
17C
100
AcDbEntity
8
0
62
256
6
ByLayer
370
-2
48
1
60
0
100
AcDbLine
10
-36
20
-4.5875
30
0
11
-36
21
-46.062769
31
0
39
0
210
0
220
0
230
1
0
LINE
5
17D
100
AcDbEntity
8
0
62
256
6
ByLayer
370
-2
48
1
60
0
100
AcDbLine
10
30
20
-4.1375
30
0
11
30
21
-46.062769
31
0
39
0
210
0
220
0
230
1
0
LINE
5
17E
100
AcDbEntity
8
0
62
256
6
ByLayer
370
-2
48
1
60
0
100
AcDbLine
10
-32.5
20
-44.062769
30
0
11
26.5
21
-44.062769
31
0
39
0
210
0
220
0
230
1
0
SOLID
5
17F
100
AcDbEntity
8
0
62
256
6
ByLayer
370
-1
48
1
60
0
100
AcDbTrace
10
-32.5
20
-43.479436
30
0
11
-32.5
21
-44.646103
31
0
12
-36
22
-44.062769
32
0
13
-36
23
-44.062769
33
0
39
0
210
0
220
0
230
1
0
SOLID
5
180
100
AcDbEntity
8
0
62
256
6
ByLayer
370
-1
48
1
60
0
100
AcDbTrace
10
26.5
20
-44.646103
30
0
11
26.5
21
-43.479436
31
0
12
30
22
-44.062769
32
0
13
30
23
-44.062769
33
0
39
0
210
0
220
0
230
1
0
MTEXT
5
181
100
AcDbEntity
8
0
62
256
6
ByLayer
370
18
48
1
60
0
100
AcDbMText
10
-3
20
-38.062769
30
0
210
0
220
0
230
1
1
\A1;66
40
3
41
0
44
1
50
0
71
5
72
5
7
iso_b_vert
0
POINT
5
182
100
AcDbEntity
8
Defpoints
62
0
6
ByLayer
370
-1
48
1
60
0
100
AcDbPoint
10
-36
20
-3
30
0
39
0
210
0
220
0
230
1
50
360
0
POINT
5
183
100
AcDbEntity
8
Defpoints
62
0
6
ByLayer
370
-1
48
1
60
0
100
AcDbPoint
10
30
20
-2.55
30
0
39
0
210
0
220
0
230
1
50
360
0
POINT
5
184
100
AcDbEntity
8
Defpoints
62
0
6
ByLayer
370
-1
48
1
60
0
100
AcDbPoint
10
30
20
-44.062769
30
0
39
0
210
0
220
0
230
1
50
360
0
ENDBLK
5
17B
100
AcDbEntity
8
0
100
AcDbBlockEnd
0
BLOCK
5
18C
100
AcDbEntity
8
0
100
AcDbBlockBegin
2
_U3
70
0
10
0
20
0
30
0
3
_U3
0
MTEXT
5
186
100
AcDbEntity
8
SK2
62
256
6
ByLayer
370
18
48
1
60
0
100
AcDbMText
10
-4.632828
20
-43.177655
30
0
210
0
220
0
230
1
1
\W0.6740;66
40
3
41
0
44
1.084337
50
0
71
7
72
5
7
iso_b_vert
0
LINE
5
187
100
AcDbEntity
8
SK2
62
256
6
ByLayer
370
13
48
1
60
0
100
AcDbLine
10
-36
20
-4.5875
30
0
11
-36
21
-46.062769
31
0
39
0
210
0
220
0
230
1
0
LINE
5
188
100
AcDbEntity
8
SK2
62
256
6
ByLayer
370
13
48
1
60
0
100
AcDbLine
10
30
20
-4.1375
30
0
11
30
21
-46.062769
31
0
39
0
210
0
220
0
230
1
0
LINE
5
189
100
AcDbEntity
8
SK2
62
256
6
ByLayer
370
13
48
1
60
0
100
AcDbLine
10
-36
20
-44.062769
30
0
11
30
21
-44.062769
31
0
39
0
210
0
220
0
230
1
0
SOLID
5
18A
100
AcDbEntity
8
SK2
62
256
6
ByLayer
370
18
48
1
60
0
100
AcDbTrace
10
-36
20
-44.062769
30
0
11
-32.500002
21
-43.601986
31
0
12
-32.499998
22
-44.523553
32
0
13
-32.499998
23
-44.523553
33
0
39
0
210
0
220
0
230
1
0
SOLID
5
18B
100
AcDbEntity
8
SK2
62
256
6
ByLayer
370
18
48
1
60
0
100
AcDbTrace
10
30
20
-44.062769
30
0
11
26.500002
21
-44.523553
31
0
12
26.499998
22
-43.601986
32
0
13
26.499998
23
-43.601986
33
0
39
0
210
0
220
0
230
1
0
ENDBLK
5
18D
100
AcDbEntity
8
0
100
AcDbBlockEnd
0
BLOCK
5
192
100
AcDbEntity
8
0
100
AcDbBlockBegin
2
*D9
70
1
10
0
20
0
30
0
3
*D9
0
LINE
5
194
100
AcDbEntity
8
0
62
256
6
ByLayer
370
-2
48
1
60
0
100
AcDbLine
10
30
20
-4.1375
30
0
11
30
21
-38.062769
31
0
39
0
210
0
220
0
230
1
0
LINE
5
195
100
AcDbEntity
8
0
62
256
6
ByLayer
370
-2
48
1
60
0
100
AcDbLine
10
0
20
-4.1375
30
0
11
0
21
-38.062769
31
0
39
0
210
0
220
0
230
1
0
LINE
5
196
100
AcDbEntity
8
0
62
256
6
ByLayer
370
-2
48
1
60
0
100
AcDbLine
10
26.5
20
-36.062769
30
0
11
3.5
21
-36.062769
31
0
39
0
210
0
220
0
230
1
0
SOLID
5
197
100
AcDbEntity
8
0
62
256
6
ByLayer
370
-1
48
1
60
0
100
AcDbTrace
10
26.5
20
-36.646103
30
0
11
26.5
21
-35.479436
31
0
12
30
22
-36.062769
32
0
13
30
23
-36.062769
33
0
39
0
210
0
220
0
230
1
0
SOLID
5
198
100
AcDbEntity
8
0
62
256
6
ByLayer
370
-1
48
1
60
0
100
AcDbTrace
10
3.5
20
-35.479436
30
0
11
3.5
21
-36.646103
31
0
12
0
22
-36.062769
32
0
13
0
23
-36.062769
33
0
39
0
210
0
220
0
230
1
0
MTEXT
5
199
100
AcDbEntity
8
0
62
256
6
ByLayer
370
18
48
1
60
0
100
AcDbMText
10
15
20
-30.062769
30
0
210
0
220
0
230
1
1
\A1;30
40
3
41
0
44
1
50
0
71
5
72
5
7
iso_b_vert
0
POINT
5
19A
100
AcDbEntity
8
Defpoints
62
0
6
ByLayer
370
-1
48
1
60
0
100
AcDbPoint
10
30
20
-2.55
30
0
39
0
210
0
220
0
230
1
50
360
0
POINT
5
19B
100
AcDbEntity
8
Defpoints
62
0
6
ByLayer
370
-1
48
1
60
0
100
AcDbPoint
10
0
20
-2.55
30
0
39
0
210
0
220
0
230
1
50
360
0
POINT
5
19C
100
AcDbEntity
8
Defpoints
62
0
6
ByLayer
370
-1
48
1
60
0
100
AcDbPoint
10
0
20
-36.062769
30
0
39
0
210
0
220
0
230
1
50
360
0
ENDBLK
5
193
100
AcDbEntity
8
0
100
AcDbBlockEnd
0
BLOCK
5
1A4
100
AcDbEntity
8
0
100
AcDbBlockBegin
2
_U4
70
0
10
0
20
0
30
0
3
_U4
0
MTEXT
5
19E
100
AcDbEntity
8
2
62
256
6
ByLayer
370
18
48
1
60
0
100
AcDbMText
10
13.367172
20
-35.177655
30
0
210
0
220
0
230
1
1
\W0.6740;30
40
3
41
0
44
1.084337
50
0
71
7
72
5
7
iso_b_vert
0
LINE
5
19F
100
AcDbEntity
8
2
62
256
6
ByLayer
370
13
48
1
60
0
100
AcDbLine
10
30
20
-4.1375
30
0
11
30
21
-38.062769
31
0
39
0
210
0
220
0
230
1
0
LINE
5
1A0
100
AcDbEntity
8
2
62
256
6
ByLayer
370
13
48
1
60
0
100
AcDbLine
10
0
20
-4.1375
30
0
11
0
21
-38.062769
31
0
39
0
210
0
220
0
230
1
0
LINE
5
1A1
100
AcDbEntity
8
2
62
256
6
ByLayer
370
13
48
1
60
0
100
AcDbLine
10
30
20
-36.062769
30
0
11
0
21
-36.062769
31
0
39
0
210
0
220
0
230
1
0
SOLID
5
1A2
100
AcDbEntity
8
2
62
256
6
ByLayer
370
18
48
1
60
0
100
AcDbTrace
10
30
20
-36.062769
30
0
11
26.500002
21
-36.523553
31
0
12
26.499998
22
-35.601986
32
0
13
26.499998
23
-35.601986
33
0
39
0
210
0
220
0
230
1
0
SOLID
5
1A3
100
AcDbEntity
8
2
62
256
6
ByLayer
370
18
48
1
60
0
100
AcDbTrace
10
0
20
-36.062769
30
0
11
3.499998
21
-35.601986
31
0
12
3.500002
22
-36.523553
32
0
13
3.500002
23
-36.523553
33
0
39
0
210
0
220
0
230
1
0
ENDBLK
5
1A5
100
AcDbEntity
8
0
100
AcDbBlockEnd
0
ENDSEC
0
SECTION
2
ENTITIES
0
ARC
5
BF
100
AcDbEntity
8
1
62
256
6
ByLayer
370
18
48
1
60
0
100
AcDbCircle
39
0
10
1.162124
20
-3.299758
30
0
40
0.8
210
0
220
0
230
1
100
AcDbArc
50
89.896868
51
136.579381
0
ARC
5
C0
100
AcDbEntity
8
1
62
256
6
ByLayer
370
18
48
1
60
0
100
AcDbCircle
39
0
10
1.162124
20
3.299758
30
0
40
0.8
210
0
220
0
230
1
100
AcDbArc
50
223.420619
51
270.103132
0
ARC
5
C1
100
AcDbEntity
8
1
62
256
6
ByLayer
370
18
48
1
60
0
100
AcDbCircle
39
0
10
0
20
-2.2
30
0
40
0.799999999999995
210
0
220
0
230
1
100
AcDbArc
50
270
51
316.579381
0
ARC
5
C2
100
AcDbEntity
8
1
62
256
6
ByLayer
370
18
48
1
60
0
100
AcDbCircle
39
0
10
0
20
2.2
30
0
40
0.799999999999995
210
0
220
0
230
1
100
AcDbArc
50
43.420619
51
90
0
ARC
5
C3
100
AcDbEntity
8
SK2
62
256
6
ByLayer
370
13
48
1
60
0
100
AcDbCircle
39
0
10
30
20
0
30
0
40
17.7661013202664
210
0
220
0
230
1
100
AcDbArc
50
9.721596
51
70.002462
0
ARC
5
C4
100
AcDbEntity
8
SK2
62
256
6
ByLayer
370
13
48
1
60
0
100
AcDbCircle
39
0
10
30
20
0
30
0
40
17.7661013202664
210
0
220
0
230
1
100
AcDbArc
50
289.997538
51
350.278404
0
ELLIPSE
5
C5
100
AcDbEntity
8
1
62
256
6
ByLayer
370
18
48
1
60
0
100
AcDbEllipse
10
13.899896
20
-2.495346
30
0
11
0.1
21
0
31
0
210
0
220
0
230
1
40
1
41
1.5731553692656
42
3.14150056966064
0
POINT
5
70
100
AcDbEntity
8
80
62
256
6
ByLayer
370
18
48
1
60
0
100
AcDbPoint
10
0
20
0
30
0
39
0
210
0
220
0
230
1
50
360
0
POINT
5
72
100
AcDbEntity
8
81
62
256
6
ByLayer
370
18
48
1
60
0
100
AcDbPoint
10
30
20
0
30
0
39
0
210
0
220
0
230
1
50
360
0
POINT
5
74
100
AcDbEntity
8
1
62
256
6
ByLayer
370
18
48
1
60
0
100
AcDbPoint
10
-222.291949
20
-200
30
0
39
0
210
0
220
0
230
1
50
360
0
POINT
5
76
100
AcDbEntity
8
1
62
256
6
ByLayer
370
13
48
1
60
1
100
AcDbPoint
10
-37.5
20
0
30
0
39
0
210
0
220
0
230
1
50
360
0
POINT
5
77
100
AcDbEntity
8
1
62
256
6
ByLayer
370
13
48
1
60
1
100
AcDbPoint
10
30.575557
20
0
30
0
39
0
210
0
220
0
230
1
50
360
0
POINT
5
78
100
AcDbEntity
8
1
62
256
6
ByLayer
370
18
48
1
60
1
100
AcDbPoint
10
30
20
-2.55
30
0
39
0
210
0
220
0
230
1
50
360
0
POINT
5
79
100
AcDbEntity
8
1
62
256
6
ByLayer
370
18
48
1
60
1
100
AcDbPoint
10
13.8
20
-2.55
30
0
39
0
210
0
220
0
230
1
50
360
0
POINT
5
7A
100
AcDbEntity
8
1
62
256
6
ByLayer
370
18
48
1
60
1
100
AcDbPoint
10
30
20
-2.55
30
0
39
0
210
0
220
0
230
1
50
360
0
POINT
5
7B
100
AcDbEntity
8
1
62
256
6
ByLayer
370
18
48
1
60
1
100
AcDbPoint
10
2
20
-2.55
30
0
39
0
210
0
220
0
230
1
50
360
0
POINT
5
7C
100
AcDbEntity
8
1
62
256
6
ByLayer
370
18
48
1
60
1
100
AcDbPoint
10
-36
20
-3
30
0
39
0
210
0
220
0
230
1
50
360
0
POINT
5
7D
100
AcDbEntity
8
1
62
256
6
ByLayer
370
18
48
1
60
1
100
AcDbPoint
10
0
20
-3
30
0
39
0
210
0
220
0
230
1
50
360
0
POINT
5
7E
100
AcDbEntity
8
1
62
256
6
ByLayer
370
18
48
1
60
1
100
AcDbPoint
10
-36
20
-3
30
0
39
0
210
0
220
0
230
1
50
360
0
POINT
5
7F
100
AcDbEntity
8
1
62
256
6
ByLayer
370
18
48
1
60
1
100
AcDbPoint
10
30
20
-2.55
30
0
39
0
210
0
220
0
230
1
50
360
0
POINT
5
80
100
AcDbEntity
8
1
62
256
6
ByLayer
370
18
48
1
60
1
100
AcDbPoint
10
30
20
-2.55
30
0
39
0
210
0
220
0
230
1
50
360
0
POINT
5
81
100
AcDbEntity
8
1
62
256
6
ByLayer
370
18
48
1
60
1
100
AcDbPoint
10
0
20
-2.55
30
0
39
0
210
0
220
0
230
1
50
360
0
SPLINE
5
C6
100
AcDbEntity
8
1
62
256
6
ByLayer
370
18
48
1
60
0
100
AcDbSpline
70
4
71
3
72
18
73
14
40
0
40
0
40
0
40
0
40
0.250000000000015
40
0.250000000000015
40
0.37500000000002
40
0.37500000000002
40
0.500000000000025
40
0.500000000000025
40
0.750000000000027
40
0.750000000000027
40
0.875000000000014
40
0.875000000000014
40
1
40
1
40
1
40
1
41
1
10
13.8578638321397
20
-2.39643898696474
30
0
41
1
10
13.8478379892885
20
-2.40112740276791
30
0
41
1
10
13.8393366107742
20
-2.40705790238127
30
0
41
1
10
13.82828606954
20
-2.41732495093402
30
0
41
1
10
13.8249462697695
20
-2.42094040169295
30
0
41
1
10
13.8189643023657
20
-2.42838478346007
30
0
41
1
10
13.8163025825404
20
-2.43223294465005
30
0
41
1
10
13.8092134590273
20
-2.44411734281303
30
0
41
1
10
13.8056817972907
20
-2.45253883694605
30
0
41
1
10
13.8022106788988
20
-2.46522294721922
30
0
41
1
10
13.801346127047
20
-2.46948283129004
30
0
41
1
10
13.8001882743662
20
-2.47806422607329
30
0
41
1
10
13.7998957702988
20
-2.48242295416043
30
0
41
1
10
13.7998957702988
20
-2.48672117289925
30
0
0
SPLINE
5
C7
100
AcDbEntity
8
1
62
256
6
ByLayer
370
18
48
1
60
0
100
AcDbSpline
70
4
71
3
72
34
73
30
40
0
40
0
40
0
40
0
40
0.331592674228832
40
0.331592674228832
40
0.556694181782159
40
0.556694181782159
40
0.706128344241885
40
0.706128344241885
40
0.805447690358091
40
0.805447690358091
40
0.871484158991559
40
0.871484158991559
40
0.915328670101299
40
0.915328670101299
40
0.944379102901168
40
0.944379102901168
40
0.963828903481044
40
0.963828903481044
40
0.976919925057739
40
0.976919925057739
40
0.985304456953521
40
0.985304456953521
40
0.990703256369083
40
0.990703256369083
40
0.995741809587811
40
0.995741809587811
40
0.998574352681787
40
0.998574352681787
40
1
40
1
40
1
40
1
41
1
10
29.0225767415272
20
2.549899962121
30
0
41
1
10
29.0296940308927
20
2.53825286694396
30
0
41
1
10
29.0368142313008
20
2.52657821985645
30
0
41
1
10
29.0487758183385
20
2.50692581467183
30
0
41
1
10
29.0536155756002
20
2.49896298429192
30
0
41
1
10
29.0616689002231
20
2.48569665998551
30
0
41
1
10
29.0648817927927
20
2.48039998646087
30
0
41
1
10
29.0702260791326
20
2.47158461784645
30
0
41
1
10
29.0723588174881
20
2.46806536284043
30
0
41
1
10
29.0759066955662
20
2.46220926998623
30
0
41
1
10
29.0773217904266
20
2.45987358760345
30
0
41
1
10
29.0796832635894
20
2.45597097996472
30
0
41
1
10
29.0806275962964
20
2.45440896491905
30
0
41
1
10
29.0822034806031
20
2.45179866895478
30
0
41
1
10
29.0828328331212
20
2.45075545009334
30
0
41
1
10
29.0838723638694
20
2.44903755171882
30
0
41
1
10
29.0842843144922
20
2.44835911087023
30
0
41
1
10
29.0849688706156
20
2.44723343667315
30
0
41
1
10
29.0852473621386
20
2.44677434567367
30
0
41
1
10
29.0857171886742
20
2.44599250905912
30
0
41
1
10
29.085904293743
20
2.4456791060708
30
0
41
1
10
29.0862126599392
20
2.44516171677969
30
0
41
1
10
29.086333636056
20
2.44495866712995
30
0
41
1
10
29.0865645735147
20
2.4445727808978
30
0
41
1
10
29.0866757603424
20
2.44438765761015
30
0
41
1
10
29.0868385428611
20
2.44412100589034
30
0
41
1
10
29.0868955327241
20
2.44402860550721
30
0
41
1
10
29.0869709210633
20
2.44390936582414
30
0
41
1
10
29.0869945677416
20
2.44387255698217
30
0
41
1
10
29.0870150585548
20
2.44384156273512
30
0
0
SPLINE
5
C8
100
AcDbEntity
8
1
62
256
6
ByLayer
370
18
48
1
60
0
100
AcDbSpline
70
4
71
3
72
8
73
4
40
0
40
0
40
0
40
0
40
1
40
1
40
1
40
1
41
1
10
29.7347089617414
20
0.860365477260189
30
0
41
1
10
29.8031117611294
20
0.669692086051271
30
0
41
1
10
29.8709405217595
20
0.478816523645946
30
0
41
1
10
29.9381834860006
20
0.287734649114128
30
0
0
SPLINE
5
C9
100
AcDbEntity
8
1
62
256
6
ByLayer
370
13
48
1
60
0
100
AcDbSpline
70
4
71
3
72
8
73
4
40
0
40
0
40
0
40
0
40
1
40
1
40
1
40
1
41
1
10
13.8562919886234
20
-2.50475616783143
30
0
41
1
10
13.8568094956357
20
-2.46864945041077
30
0
41
1
10
13.8573334528624
20
-2.4325437077926
30
0
41
1
10
13.8578638321397
20
-2.39643898696474
30
0
0
SPLINE
5
CA
100
AcDbEntity
8
1
62
256
6
ByLayer
370
18
48
1
60
0
100
AcDbSpline
70
4
71
3
72
8
73
4
40
0
40
0
40
0
40
0
40
1
40
1
40
1
40
1
41
1
10
29.9381834860005
20
0.2877346491141
30
0
41
1
10
29.9579693424836
20
0.231509903690125
30
0
41
1
10
29.9781610492334
20
0.175516487795818
30
0
41
1
10
29.9987655351228
20
0.119749273458666
30
0
0
SPLINE
5
CB
100
AcDbEntity
8
1
62
256
6
ByLayer
370
18
48
1
60
0
100
AcDbSpline
70
4
71
3
72
18
73
14
40
0
40
0
40
0
40
0
40
0.0392392302510864
40
0.0392392302510864
40
0.159334326469701
40
0.159334326469701
40
0.279429422688315
40
0.279429422688315
40
0.519619615125543
40
0.519619615125543
40
0.759809807562772
40
0.759809807562772
40
1
40
1
40
1
40
1
41
1
10
29.3705003153569
20
-0.456849946520606
30
0
41
1
10
29.3718511862762
20
-0.458064560645511
30
0
41
1
10
29.3732723524754
20
-0.459316426827172
30
0
41
1
10
29.3793016189044
20
-0.464536182961155
30
0
41
1
10
29.3844502274686
20
-0.468790833283208
30
0
41
1
10
29.395684440485
20
-0.477786255602183
30
0
41
1
10
29.4016868848509
20
-0.482460995651479
30
0
41
1
10
29.4205734551312
20
-0.496887541433665
30
0
41
1
10
29.4343231248135
20
-0.507035148770115
30
0
41
1
10
29.4633432554733
20
-0.528030251015281
30
0
41
1
10
29.4786646046272
20
-0.538910365696665
30
0
41
1
10
29.510097080573
20
-0.560968032915014
30
0
41
1
10
29.5262445193937
20
-0.572171545316138
30
0
41
1
10
29.5427147099847
20
-0.583514983627197
30
0
0
SPLINE
5
CC
100
AcDbEntity
8
1
62
256
6
ByLayer
370
18
48
1
60
0
100
AcDbSpline
70
4
71
3
72
18
73
14
40
0
40
0
40
0
40
0
40
0.250000000000057
40
0.250000000000057
40
0.375000000000043
40
0.375000000000043
40
0.500000000000028
40
0.500000000000028
40
0.749999999999999
40
0.749999999999999
40
0.874999999999999
40
0.874999999999999
40
1
40
1
40
1
40
1
41
1
10
13.8578638321397
20
-2.38850808135041
30
0
41
1
10
13.8478390870927
20
-2.39359995110021
30
0
41
1
10
13.8393361014595
20
-2.40004341650444
30
0
41
1
10
13.8282831629301
20
-2.41120507617436
30
0
41
1
10
13.8249427001991
20
-2.41513631165552
30
0
41
1
10
13.8189598872839
20
-2.42323232070632
30
0
41
1
10
13.8162979582016
20
-2.42741801934074
30
0
41
1
10
13.8092087956926
20
-2.44034696614034
30
0
41
1
10
13.8056780588709
20
-2.44951140043199
30
0
41
1
10
13.8022087491892
20
-2.46331688177961
30
0
41
1
10
13.8013448237011
20
-2.4679538332106
30
0
41
1
10
13.8001879351756
20
-2.47729571853412
30
0
41
1
10
13.7998957702988
20
-2.48204120903554
30
0
41
1
10
13.7998957702988
20
-2.48672117289925
30
0
0
SPLINE
5
CD
100
AcDbEntity
8
1
62
256
6
ByLayer
370
13
48
1
60
0
100
AcDbSpline
70
4
71
3
72
33
73
29
40
0
40
0
40
0
40
0
40
0.139442487448831
40
0.139442487448831
40
0.209163731173247
40
0.209163731173247
40
0.244024353035455
40
0.244024353035455
40
0.278884974897662
40
0.278884974897662
40
0.418327462346494
40
0.418327462346494
40
0.48804870607091
40
0.522909327933118
40
0.522909327933118
40
0.557769949795326
40
0.557769949795326
40
0.697212437244158
40
0.697212437244158
40
0.732073059106366
40
0.732073059106366
40
0.766933680968574
40
0.766933680968574
40
0.83665492469299
40
0.83665492469299
40
0.976097412141822
40
0.976097412141822
40
1
40
1
40
1
40
1
41
1
10
13.9006547872057
20
-0.78010025824824
30
0
41
1
10
13.900643809104
20
-0.90962759520383
30
0
41
1
10
13.9006306547087
20
-1.03358296904952
30
0
41
1
10
13.9006085056826
20
-1.21147067557729
30
0
41
1
10
13.9006007140928
20
-1.26941812923508
30
0
41
1
10
13.9005884733966
20
-1.3542890667247
30
0
41
1
10
13.9005843006479
20
-1.38223721394908
30
0
41
1
10
13.9005757764538
20
-1.4374388203986
30
0
41
1
10
13.9005714149488
20
-1.4647510426764
30
0
41
1
10
13.9005493552115
20
-1.59844139113872
30
0
41
1
10
13.9005308554058
20
-1.69678318260068
30
0
41
1
10
13.9005020126019
20
-1.83180748601023
30
0
41
1
10
13.9004873109658
20
-1.8961801832572
30
0
41
1
10
13.900472161486
20
-1.95576852485692
30
0
41
1
10
13.9004619547979
20
-1.9944113809222
30
0
41
1
10
13.9004567894848
20
-2.01322001337985
30
0
41
1
10
13.9004308725311
20
-2.10382399251651
30
0
41
1
10
13.9004097527394
20
-2.16585107342013
30
0
41
1
10
13.9003824408022
20
-2.23038608310296
30
0
41
1
10
13.9003769305527
20
-2.24264087031392
30
0
41
1
10
13.9003658047889
20
-2.26581653898381
30
0
41
1
10
13.9003602229589
20
-2.27666748279159
30
0
41
1
10
13.9003433982923
20
-2.30705459950156
30
0
41
1
10
13.9003320767792
20
-2.32442899870244
30
0
41
1
10
13.9002976017858
20
-2.36810851911341
30
0
41
1
10
13.9002739496423
20
-2.38602968468351
30
0
41
1
10
13.9002447146298
20
-2.39368883446752
30
0
41
1
10
13.9002403978402
20
-2.3944728993242
30
0
41
1
10
13.9002360383923
20
-2.39491611374433
30
0
0
SPLINE
5
CE
100
AcDbEntity
8
1
62
256
6
ByLayer
370
18
48
1
60
0
100
AcDbSpline
70
4
71
3
72
35
73
31
40
0
40
0
40
0
40
0
40
0.125000000000007
40
0.125000000000007
40
0.156250000000012
40
0.156250000000012
40
0.187500000000018
40
0.187500000000018
40
0.250000000000014
40
0.250000000000014
40
0.375000000000007
40
0.375000000000007
40
0.437500000000003
40
0.437500000000003
40
0.499999999999999
40
0.499999999999999
40
0.624999999999992
40
0.624999999999992
40
0.656249999999994
40
0.656249999999994
40
0.687499999999996
40
0.687499999999996
40
0.75
40
0.75
40
0.874999999999994
40
0.874999999999994
40
0.906249999999995
40
0.906249999999995
40
0.937499999999997
40
1
40
1
40
1
40
1
41
1
10
29.9987655351147
20
0.119749273461394
30
0
41
1
10
29.9831284701122
20
0.0742030800015243
30
0
41
1
10
29.9663082524069
20
0.0292191414335434
30
0
41
1
10
29.943837091428
20
-0.0263075643551645
30
0
41
1
10
29.9392701168156
20
-0.0373775266679388
30
0
41
1
10
29.9299895879531
20
-0.0594457424864174
30
0
41
1
10
29.9252639350474
20
-0.0704713007414171
30
0
41
1
10
29.9109791757636
20
-0.103177234119954
30
0
41
1
10
29.9013066284585
20
-0.124506829054667
30
0
41
1
10
29.871876977977
20
-0.187093080795449
30
0
41
1
10
29.8517124008063
20
-0.226958580757184
30
0
41
1
10
29.8207109769301
20
-0.283858417465353
30
0
41
1
10
29.8102279896506
20
-0.302377068612827
30
0
41
1
10
29.7890979405505
20
-0.338226056656225
30
0
41
1
10
29.7785899933506
20
-0.355323424688208
30
0
41
1
10
29.7472426201424
20
-0.404184003441685
30
0
41
1
10
29.7265812290568
20
-0.433536755463479
30
0
41
1
10
29.7010447716091
20
-0.466055205494598
30
0
41
1
10
29.6959518687763
20
-0.47234858727964
30
0
41
1
10
29.6857941605625
20
-0.484503919366063
30
0
41
1
10
29.6807220890122
20
-0.49037280169739
30
0
41
1
10
29.6657216986648
20
-0.507122701368672
30
0
41
1
10
29.6559528808082
20
-0.517218483018183
30
0
41
1
10
29.6272957094622
20
-0.54436733421673
30
0
41
1
10
29.6090543885886
20
-0.558307181521855
30
0
41
1
10
29.5872246092204
20
-0.570384817339971
30
0
41
1
10
29.5829019068174
20
-0.572532019306124
30
0
41
1
10
29.5744428136076
20
-0.576241178299256
30
0
41
1
10
29.561999828701
20
-0.580947327069339
30
0
41
1
10
29.5502572835869
20
-0.583140880993142
30
0
41
1
10
29.5427147099847
20
-0.583514983627197
30
0
0
SPLINE
5
CF
100
AcDbEntity
8
1
62
256
6
ByLayer
370
18
48
1
60
0
100
AcDbSpline
70
4
71
3
72
97
73
93
40
0
40
0
40
0
40
0
40
0.031249999999995
40
0.031249999999995
40
0.0624999999999899
40
0.0624999999999899
40
0.0937499999999849
40
0.0937499999999849
40
0.109374999999982
40
0.109374999999982
40
0.12499999999998
40
0.12499999999998
40
0.156249999999975
40
0.156249999999975
40
0.171874999999972
40
0.171874999999972
40
0.18749999999997
40
0.18749999999997
40
0.218749999999958
40
0.218749999999958
40
0.234374999999952
40
0.234374999999952
40
0.249999999999946
40
0.249999999999946
40
0.281249999999942
40
0.281249999999942
40
0.296874999999937
40
0.296874999999937
40
0.312499999999931
40
0.312499999999931
40
0.328124999999925
40
0.328124999999925
40
0.34374999999992
40
0.34374999999992
40
0.374999999999915
40
0.374999999999915
40
0.390624999999913
40
0.390624999999913
40
0.40624999999991
40
0.40624999999991
40
0.437499999999906
40
0.468749999999902
40
0.468749999999902
40
0.484374999999902
40
0.484374999999902
40
0.499999999999902
40
0.499999999999902
40
0.531249999999902
40
0.531249999999902
40
0.546874999999903
40
0.546874999999903
40
0.562499999999903
40
0.562499999999903
40
0.593749999999904
40
0.593749999999904
40
0.609374999999904
40
0.609374999999904
40
0.624999999999904
40
0.624999999999904
40
0.656249999999905
40
0.656249999999905
40
0.671874999999905
40
0.671874999999905
40
0.687499999999906
40
0.687499999999906
40
0.718749999999908
40
0.718749999999908
40
0.734374999999911
40
0.734374999999911
40
0.749999999999914
40
0.749999999999914
40
0.781249999999924
40
0.781249999999924
40
0.812499999999934
40
0.812499999999934
40
0.843749999999944
40
0.843749999999944
40
0.859374999999953
40
0.859374999999953
40
0.874999999999962
40
0.874999999999962
40
0.906249999999971
40
0.906249999999971
40
0.921874999999976
40
0.921874999999976
40
0.937499999999981
40
0.937499999999981
40
0.96874999999999
40
0.96874999999999
40
0.984374999999995
40
0.984374999999995
40
1
40
1
40
1
40
1
41
1
10
29.5427147099847
20
-0.583514983627197
30
0
41
1
10
29.5434162757488
20
-0.599038558871086
30
0
41
1
10
29.5432327238471
20
-0.615661406841213
30
0
41
1
10
29.5410900726169
20
-0.651132496960741
30
0
41
1
10
29.5391293315682
20
-0.669997955556028
30
0
41
1
10
29.5333018238165
20
-0.710106249458875
30
0
41
1
10
29.5295409891098
20
-0.730629482478577
30
0
41
1
10
29.522715903588
20
-0.762100129412488
30
0
41
1
10
29.5202424973298
20
-0.772705307067582
30
0
41
1
10
29.5149010705759
20
-0.794150529800589
30
0
41
1
10
29.5120175991082
20
-0.805041587791578
30
0
41
1
10
29.5029588053819
20
-0.837419352864799
30
0
41
1
10
29.4963459751311
20
-0.858767995844147
30
0
41
1
10
29.4856596545532
20
-0.890470146072886
30
0
41
1
10
29.4819622914712
20
-0.901001610238666
30
0
41
1
10
29.4743439418386
20
-0.921883081584099
30
0
41
1
10
29.4704636776523
20
-0.932123164510415
30
0
41
1
10
29.4586310153752
20
-0.96227850057511
30
0
41
1
10
29.4504884166369
20
-0.981632780033436
30
0
41
1
10
29.4379417151126
20
-1.00960346213731
30
0
41
1
10
29.4336897618545
20
-1.01877632412405
30
0
41
1
10
29.4252076413894
20
-1.03649909927506
30
0
41
1
10
29.4209650202322
20
-1.04507862870514
30
0
41
1
10
29.4082368572642
20
-1.07000968209624
30
0
41
1
10
29.3997514644872
20
-1.08555881232405
30
0
41
1
10
29.3870316323578
20
-1.10732170025503
30
0
41
1
10
29.3827854525207
20
-1.11432518577485
30
0
41
1
10
29.3743856995648
20
-1.12766310208451
30
0
41
1
10
29.3702220230342
20
-1.13401573582596
30
0
41
1
10
29.3619649734099
20
-1.14609800062024
30
0
41
1
10
29.3578625659697
20
-1.15183832399242
30
0
41
1
10
29.3498244815828
20
-1.16256815558773
30
0
41
1
10
29.345874112846
20
-1.16757983549755
30
0
41
1
10
29.3342188712362
20
-1.18158670271367
30
0
41
1
10
29.3267091203147
20
-1.18955945808327
30
0
41
1
10
29.3158100306542
20
-1.19948467198697
30
0
41
1
10
29.3122381183409
20
-1.20245263332379
30
0
41
1
10
29.3052145833815
20
-1.20769207011278
30
0
41
1
10
29.3017542875647
20
-1.20996639776732
30
0
41
1
10
29.2917026465485
20
-1.2156299693772
30
0
41
1
10
29.2790817520147
20
-1.22018528777988
30
0
41
1
10
29.2679160018188
20
-1.21880748506999
30
0
41
1
10
29.2600825349943
20
-1.21541668955669
30
0
41
1
10
29.2575617913867
20
-1.21388647154652
30
0
41
1
10
29.252783866234
20
-1.2100741429374
30
0
41
1
10
29.2505151984717
20
-1.20778842848074
30
0
41
1
10
29.2440602889215
20
-1.1997958095661
30
0
41
1
10
29.2402227662046
20
-1.19296068195092
30
0
41
1
10
29.2351676740899
20
-1.18033712522231
30
0
41
1
10
29.2336000776988
20
-1.17573241727436
30
0
41
1
10
29.2307080561985
20
-1.16568639620485
30
0
41
1
10
29.2293926461413
20
-1.16026884254572
30
0
41
1
10
29.2258848746319
20
-1.14304326896777
30
0
41
1
10
29.2241045459496
20
-1.13019226726658
30
0
41
1
10
29.2222843542377
20
-1.10880492658336
30
0
41
1
10
29.2218201453657
20
-1.10132235557066
30
0
41
1
10
29.2211898896184
20
-1.0856175698612
30
0
41
1
10
29.2210241902128
20
-1.07734738239543
30
0
41
1
10
29.2210052706128
20
-1.0517495595507
30
0
41
1
10
29.2216177908813
20
-1.0337060370714
30
0
41
1
10
29.2234967340653
20
-1.00517055954339
30
0
41
1
10
29.2242840557567
20
-0.995412432090404
30
0
41
1
10
29.226197330382
20
-0.975386671015031
30
0
41
1
10
29.2273298901878
20
-0.965066985158927
30
0
41
1
10
29.2312275851039
20
-0.933678376891919
30
0
41
1
10
29.2344523202267
20
-0.912425779467497
30
0
41
1
10
29.2402519032261
20
-0.880076091074159
30
0
41
1
10
29.2423464453309
20
-0.869213959419284
30
0
41
1
10
29.246873789592
20
-0.847329920793584
30
0
41
1
10
29.2493193535417
20
-0.836258976186031
30
0
41
1
10
29.2570303303111
20
-0.803487157492384
30
0
41
1
10
29.2626984821511
20
-0.78204868568227
30
0
41
1
10
29.2751061666001
20
-0.739971528940288
30
0
41
1
10
29.2819091429544
20
-0.719184594784736
30
0
41
1
10
29.2961328886483
20
-0.679878028436747
30
0
41
1
10
29.3035918800009
20
-0.661195782281794
30
0
41
1
10
29.3153005395292
20
-0.634563235488685
30
0
41
1
10
29.3193073632539
20
-0.625885378711047
30
0
41
1
10
29.327383532392
20
-0.609228828378235
30
0
41
1
10
29.3314577714461
20
-0.601234949348424
30
0
41
1
10
29.3437859135449
20
-0.578206384486435
30
0
41
1
10
29.3521450741824
20
-0.564119297907126
30
0
41
1
10
29.3648859616501
20
-0.544801365343204
30
0
41
1
10
29.3691768633165
20
-0.538653967637998
30
0
41
1
10
29.3777043708479
20
-0.527123432602451
30
0
41
1
10
29.3819542697984
20
-0.521718484032249
30
0
41
1
10
29.3946612310184
20
-0.506539034114354
30
0
41
1
10
29.4030761177987
20
-0.497794129562436
30
0
41
1
10
29.4155986784039
20
-0.486673618378745
30
0
41
1
10
29.4197679885497
20
-0.483292625035517
30
0
41
1
10
29.4280111289452
20
-0.477247409540553
30
0
41
1
10
29.4320713461514
20
-0.474590995540126
30
0
41
1
10
29.4360700226794
20
-0.472288741207791
30
0
0
SPLINE
5
D0
100
AcDbEntity
8
1
62
256
6
ByLayer
370
18
48
1
60
0
100
AcDbSpline
70
4
71
3
72
8
73
4
40
0
40
0
40
0
40
0
40
1
40
1
40
1
40
1
41
1
10
29.4360700226794
20
-0.472288741207791
30
0
41
1
10
29.4259014407697
20
-0.442102960237605
30
0
41
1
10
29.4175932944227
20
-0.406826603402067
30
0
41
1
10
29.4108652292431
20
-0.36683557508303
30
0
0
SPLINE
5
D1
100
AcDbEntity
8
1
62
256
6
ByLayer
370
18
48
1
60
0
100
AcDbSpline
70
4
71
3
72
8
73
4
40
0
40
0
40
0
40
0
40
1
40
1
40
1
40
1
41
1
10
29.4108652292431
20
-0.366835575083058
30
0
41
1
10
29.3753309246387
20
-0.155622790455624
30
0
41
1
10
29.3289693440656
20
0.0607422063111187
30
0
41
1
10
29.2718719235179
20
0.282215904952977
30
0
0
SPLINE
5
D2
100
AcDbEntity
8
1
62
256
6
ByLayer
370
18
48
1
60
0
100
AcDbSpline
70
4
71
3
72
13
73
9
40
0
40
0
40
0
40
0
40
0.500000000000016
40
0.500000000000016
40
0.625000000000013
40
0.625000000000013
40
0.750000000000009
40
1
40
1
40
1
40
1
41
1
10
29.1726711413892
20
-2.2949903400486
30
0
41
1
10
29.1543497578089
20
-2.3222886034456
30
0
41
1
10
29.1373058092438
20
-2.34577933285019
30
0
41
1
10
29.1176454904244
20
-2.36964831545294
30
0
41
1
10
29.11381488711
20
-2.37412215924323
30
0
41
1
10
29.1063973543663
20
-2.38241843949379
30
0
41
1
10
29.0956135696996
20
-2.39391363233054
30
0
41
1
10
29.08581686717
20
-2.40260069612532
30
0
41
1
10
29.0796909564621
20
-2.40717009524045
30
0
0
SPLINE
5
D3
100
AcDbEntity
8
1
62
256
6
ByLayer
370
18
48
1
60
0
100
AcDbSpline
70
4
71
3
72
8
73
4
40
0
40
0
40
0
40
0
40
1
40
1
40
1
40
1
41
1
10
29.7347089617415
20
-0.860365477260189
30
0
41
1
10
29.8031117611294
20
-0.669692086051271
30
0
41
1
10
29.8709405217595
20
-0.478816523645918
30
0
41
1
10
29.9381834860006
20
-0.287734649114071
30
0
0
SPLINE
5
D4
100
AcDbEntity
8
1
62
256
6
ByLayer
370
18
48
1
60
0
100
AcDbSpline
70
4
71
3
72
8
73
4
40
0
40
0
40
0
40
0
40
1
40
1
40
1
40
1
41
1
10
29.9381834860006
20
-0.287734649114043
30
0
41
1
10
29.9579693424836
20
-0.231509903690238
30
0
41
1
10
29.9781610492333
20
-0.175516487796074
30
0
41
1
10
29.9987655351226
20
-0.119749273459092
30
0
0
SPLINE
5
D5
100
AcDbEntity
8
1
62
256
6
ByLayer
370
18
48
1
60
0
100
AcDbSpline
70
4
71
3
72
8
73
4
40
0
40
0
40
0
40
0
40
1
40
1
40
1
40
1
41
1
10
29.9987655351182
20
0.119749273463782
30
0
41
1
10
30.0004093236239
20
0.0400214163811938
30
0
41
1
10
30.0004136586718
20
-0.0398111557064738
30
0
41
1
10
29.9987655351182
20
-0.119749273462418
30
0
0
SPLINE
5
D6
100
AcDbEntity
8
1
62
256
6
ByLayer
370
18
48
1
60
0
100
AcDbSpline
70
4
71
3
72
23
73
19
40
0
40
0
40
0
40
0
40
0.102534716980539
40
0.102534716980539
40
0.252112264150482
40
0.252112264150482
40
0.326901037735434
40
0.326901037735434
40
0.401689811320386
40
0.401689811320386
40
0.551267358490289
40
0.551267358490289
40
0.626056132075241
40
0.626056132075241
40
0.700844905660193
40
0.700844905660193
40
0.850422452830097
40
1
40
1
40
1
40
1
41
1
10
28.6625551864622
20
0.551822931818663
30
0
41
1
10
28.6802786544214
20
0.562260121291217
30
0
41
1
10
28.6986045807441
20
0.573170607907429
30
0
41
1
10
28.7453126224116
20
0.600867461161727
30
0
41
1
10
28.7744243194527
20
0.618091783221843
30
0
41
1
10
28.8207479732719
20
0.644372853891355
30
0
41
1
10
28.8365609894864
20
0.653152138396393
30
0
41
1
10
28.8686448955327
20
0.670440696728804
30
0
41
1
10
28.8849640904846
20
0.678978233795533
30
0
41
1
10
28.9347943785705
20
0.704128733896624
30
0
41
1
10
28.9691683099968
20
0.720298516077179
30
0
41
1
10
29.0227910115177
20
0.742804856632574
30
0
41
1
10
29.0410093712786
20
0.750014822634512
30
0
41
1
10
29.0781920356317
20
0.763704178569071
30
0
41
1
10
29.0969587623299
20
0.770108173212407
30
0
41
1
10
29.1535213214901
20
0.787793309864611
30
0
41
1
10
29.229885372676
20
0.807372966812039
30
0
41
1
10
29.3082515545902
20
0.818369151750801
30
0
41
1
10
29.3479355076333
20
0.821699047194528
30
0
0
SPLINE
5
D7
100
AcDbEntity
8
1
62
256
6
ByLayer
370
18
48
1
60
0
100
AcDbSpline
70
4
71
3
72
8
73
4
40
0
40
0
40
0
40
0
40
1
40
1
40
1
40
1
41
1
10
29.3479355076333
20
0.821699047194556
30
0
41
1
10
29.4771160427038
20
0.832538634538139
30
0
41
1
10
29.6061547473496
20
0.844513319343747
30
0
41
1
10
29.7347089617414
20
0.860365477260189
30
0
0
SPLINE
5
D8
100
AcDbEntity
8
1
62
256
6
ByLayer
370
18
48
1
60
0
100
AcDbSpline
70
4
71
3
72
26
73
22
40
0
40
0
40
0
40
0
40
0.249999999999991
40
0.249999999999991
40
0.374999999999986
40
0.374999999999986
40
0.406249999999987
40
0.406249999999987
40
0.437499999999988
40
0.49999999999999
40
0.49999999999999
40
0.562499999999991
40
0.562499999999991
40
0.624999999999992
40
0.624999999999992
40
0.749999999999995
40
0.749999999999995
40
0.874999999999997
40
0.937499999999999
40
0.937499999999999
40
1
40
1
40
1
40
1
41
1
10
29.1726711413889
20
2.29499034004874
30
0
41
1
10
29.2146835334531
20
2.17238730025753
30
0
41
1
10
29.2570291238477
20
2.04918471001173
30
0
41
1
10
29.321108939959
20
1.86420288378818
30
0
41
1
10
29.3425464259898
20
1.80255207711696
30
0
41
1
10
29.3694540748791
20
1.72550893678852
30
0
41
1
10
29.3748275314463
20
1.71009787015646
30
0
41
1
10
29.3856666517394
20
1.67929843367503
30
0
41
1
10
29.4020327845573
20
1.6331256177065
30
0
41
1
10
29.4187507490213
20
1.58704122184827
30
0
41
1
10
29.4414139258407
20
1.5256928671503
30
0
41
1
10
29.4529285521915
20
1.49506661484861
30
0
41
1
10
29.4763691235623
20
1.43392525106003
30
0
41
1
10
29.4883028777907
20
1.40339276356963
30
0
41
1
10
29.5244388905923
20
1.31281310276629
30
0
41
1
10
29.5490797808815
20
1.25349802451396
30
0
41
1
10
29.5996833938286
20
1.13707491205537
30
0
41
1
10
29.6386265626532
20
1.05141189242349
30
0
41
1
10
29.6793152969151
20
0.968369265080128
30
0
41
1
10
29.7068566953433
20
0.913606071363347
30
0
41
1
10
29.720735281327
20
0.886723353884975
30
0
41
1
10
29.7347089617415
20
0.860365477260217
30
0
0
SPLINE
5
D9
100
AcDbEntity
8
1
62
256
6
ByLayer
370
18
48
1
60
0
100
AcDbSpline
70
4
71
3
72
8
73
4
40
0
40
0
40
0
40
0
40
1
40
1
40
1
40
1
41
1
10
29.0870150584815
20
2.44384156260736
30
0
41
1
10
29.1155512580737
20
2.39423512581064
30
0
41
1
10
29.1441047938898
20
2.34461472089177
30
0
41
1
10
29.1726711413892
20
2.29499034004874
30
0
0
SPLINE
5
DA
100
AcDbEntity
8
1
62
256
6
ByLayer
370
18
48
1
60
0
100
AcDbSpline
70
4
71
3
72
25
73
21
40
0
40
0
40
0
40
0
40
0.0607459563700362
40
0.0607459563700362
40
0.121491912740072
40
0.121491912740072
40
0.242983825480136
40
0.242983825480136
40
0.485967650960263
40
0.485967650960263
40
0.546713607330291
40
0.546713607330291
40
0.607459563700318
40
0.728951476440373
40
0.728951476440373
40
0.850443389180428
40
0.850443389180428
40
0.971935301920483
40
0.971935301920483
40
1
40
1
40
1
40
1
41
1
10
29.0870150594239
20
2.44384156406576
30
0
41
1
10
29.0073042594018
20
2.44465590706778
30
0
41
1
10
28.9275932309847
20
2.44460997503541
30
0
41
1
10
28.7683218291182
20
2.44280547635617
30
0
41
1
10
28.6887334901793
20
2.4410468077549
30
0
41
1
10
28.4500602329624
20
2.43320941920425
30
0
41
1
10
28.2910580637092
20
2.42456548028335
30
0
41
1
10
27.81410745077
20
2.38852099906524
30
0
41
1
10
27.4962201306111
20
2.3508770518745
30
0
41
1
10
27.0976363661978
20
2.28742472220208
30
0
41
1
10
27.017917897337
20
2.27392928197349
30
0
41
1
10
26.8586336558467
20
2.24539459642645
30
0
41
1
10
26.6198477173611
20
2.20025763642042
30
0
41
1
10
26.3813460145439
20
2.14825427583185
30
0
41
1
10
26.0633370906555
20
2.07303501236365
30
0
41
1
10
25.9043350777143
20
2.03250283524986
30
0
41
1
10
25.5861336969278
20
1.94583509601412
30
0
41
1
10
25.4269288511696
20
1.89969157523655
30
0
41
1
10
25.2306589638597
20
1.83954493757261
30
0
41
1
10
25.1938274367556
20
1.82811648384828
30
0
41
1
10
25.1570029709046
20
1.81655211835547
30
0
0
SPLINE
5
DB
100
AcDbEntity
8
1
62
256
6
ByLayer
370
18
48
1
60
0
100
AcDbSpline
70
4
71
3
72
17
73
13
40
0
40
0
40
0
40
0
40
0.125
40
0.125
40
0.25
40
0.25
40
0.375
40
0.375
40
0.5
40
0.75
40
0.75
40
1
40
1
40
1
40
1
41
1
10
29.2718719235179
20
0.282215904952949
30
0
41
1
10
29.2628478890148
20
0.278240010503566
30
0
41
1
10
29.2537936909121
20
0.273818975384643
30
0
41
1
10
29.2356414838227
20
0.264129817219072
30
0
41
1
10
29.226541140115
20
0.25883787365882
30
0
41
1
10
29.2083314270044
20
0.247642796012741
30
0
41
1
10
29.1992219375009
20
0.241766358116024
30
0
41
1
10
29.1810734110694
20
0.229585798462011
30
0
41
1
10
29.1539293992878
20
0.210528427964931
30
0
41
1
10
29.1270556593462
20
0.188244829794712
30
0
41
1
10
29.0915290946525
20
0.155864428760879
30
0
41
1
10
29.0739188585445
20
0.138297413349875
30
0
41
1
10
29.056488101511
20
0.119569361318554
30
0
0
SPLINE
5
DC
100
AcDbEntity
8
1
62
256
6
ByLayer
370
18
48
1
60
0
100
AcDbSpline
70
4
71
3
72
24
73
20
40
0
40
0
40
0
40
0
40
0.212579461408242
40
0.212579461408242
40
0.318869192112363
40
0.318869192112363
40
0.425158922816483
40
0.425158922816483
40
0.531448653520604
40
0.531448653520604
40
0.637738384224725
40
0.637738384224725
40
0.744028114928845
40
0.744028114928845
40
0.850317845632966
40
0.850317845632966
40
0.956607576337087
40
0.956607576337087
40
1
40
1
40
1
40
1
41
1
10
29.2718719235181
20
0.282215904952892
30
0
41
1
10
29.2314215833254
20
0.304668632536021
30
0
41
1
10
29.1910388856732
20
0.326334935271973
30
0
41
1
10
29.1305727135291
20
0.357580222161374
30
0
41
1
10
29.1104337821218
20
0.367803958799186
30
0
41
1
10
29.0701713949669
20
0.388071509158266
30
0
41
1
10
29.0500466343133
20
0.39813049396065
30
0
41
1
10
29.00982900649
20
0.417877663945916
30
0
41
1
10
28.9897376748079
20
0.427547997262138
30
0
41
1
10
28.9496076968801
20
0.446276133143357
30
0
41
1
10
28.9295830901342
20
0.455343336560475
30
0
41
1
10
28.8898689865429
20
0.472699645703244
30
0
41
1
10
28.8701481103002
20
0.481004134730966
30
0
41
1
10
28.8310204592694
20
0.49675121879568
30
0
41
1
10
28.8116307987722
20
0.504146852240211
30
0
41
1
10
28.772999048775
20
0.518533184500853
30
0
41
1
10
28.7537042406211
20
0.525668543236549
30
0
41
1
10
28.7266959131988
20
0.535268186640195
30
0
41
1
10
28.7188925909236
20
0.537978890644695
30
0
41
1
10
28.7111228589889
20
0.540597422797788
30
0
0
SPLINE
5
DD
100
AcDbEntity
8
1
62
256
6
ByLayer
370
18
48
1
60
0
100
AcDbSpline
70
4
71
3
72
26
73
22
40
0
40
0
40
0
40
0
40
0.249999999999992
40
0.249999999999992
40
0.374999999999984
40
0.374999999999984
40
0.406249999999985
40
0.406249999999985
40
0.437499999999985
40
0.499999999999985
40
0.499999999999985
40
0.562499999999986
40
0.562499999999986
40
0.624999999999986
40
0.624999999999986
40
0.749999999999987
40
0.749999999999987
40
0.874999999999988
40
0.937499999999994
40
0.937499999999994
40
1
40
1
40
1
40
1
41
1
10
29.1726711413889
20
-2.2949903400486
30
0
41
1
10
29.2146835334531
20
-2.17238730025741
30
0
41
1
10
29.2570291238478
20
-2.04918471001162
30
0
41
1
10
29.321108939959
20
-1.86420288378807
30
0
41
1
10
29.3425464259898
20
-1.80255207711687
30
0
41
1
10
29.3694540748792
20
-1.72550893678846
30
0
41
1
10
29.3748275314463
20
-1.7100978701564
30
0
41
1
10
29.3856666517394
20
-1.67929843367494
30
0
41
1
10
29.4020327845573
20
-1.63312561770641
30
0
41
1
10
29.4187507490213
20
-1.58704122184818
30
0
41
1
10
29.4414139258408
20
-1.52569286715018
30
0
41
1
10
29.4529285521915
20
-1.49506661484847
30
0
41
1
10
29.4763691235624
20
-1.43392525105986
30
0
41
1
10
29.4883028777907
20
-1.40339276356951
30
0
41
1
10
29.5244388905923
20
-1.31281310276623
30
0
41
1
10
29.5490797808815
20
-1.25349802451396
30
0
41
1
10
29.5996833938287
20
-1.13707491205534
30
0
41
1
10
29.6386265626533
20
-1.05141189242349
30
0
41
1
10
29.6793152969152
20
-0.968369265080014
30
0
41
1
10
29.7068566953434
20
-0.913606071363148
30
0
41
1
10
29.720735281327
20
-0.886723353884918
30
0
41
1
10
29.7347089617415
20
-0.860365477260189
30
0
0
SPLINE
5
DE
100
AcDbEntity
8
1
62
256
6
ByLayer
370
18
48
1
60
0
100
AcDbSpline
70
4
71
3
72
8
73
4
40
0
40
0
40
0
40
0
40
1
40
1
40
1
40
1
41
1
10
29.0870150576326
20
-2.44384156408302
30
0
41
1
10
29.1155512575074
20
-2.39423512679465
30
0
41
1
10
29.1441047936065
20
-2.34461472138375
30
0
41
1
10
29.1726711413892
20
-2.2949903400486
30
0
0
SPLINE
5
DF
100
AcDbEntity
8
1
62
256
6
ByLayer
370
18
48
1
60
0
100
AcDbSpline
70
4
71
3
72
8
73
4
40
0
40
0
40
0
40
0
40
1
40
1
40
1
40
1
41
1
10
13.7998957702988
20
2.45247258160631
30
0
41
1
10
13.7998957702988
20
2.42918680061024
30
0
41
1
10
13.7998957702989
20
2.40569822469206
30
0
41
1
10
13.7998957702989
20
2.38200912427092
30
0
0
SPLINE
5
E0
100
AcDbEntity
8
1
62
256
6
ByLayer
370
18
48
1
60
0
100
AcDbSpline
70
4
71
3
72
34
73
30
40
0
40
0
40
0
40
0
40
0.331592680880454
40
0.331592680880454
40
0.556694192950781
40
0.556694192950781
40
0.706128358409855
40
0.706128358409855
40
0.805447706519678
40
0.805447706519678
40
0.871484176478157
40
0.871484176478157
40
0.915328688467524
40
0.915328688467524
40
0.944379121850504
40
0.944379121850504
40
0.963828922820637
40
0.963828922820637
40
0.976919944660383
40
0.976919944660383
40
0.985304476724512
40
0.985304476724512
40
0.990703276248453
40
0.990703276248453
40
0.995741829566361
40
0.995741829566361
40
0.998574372719639
40
0.998574372719639
40
1
40
1
40
1
40
1
41
1
10
29.0225767415272
20
-2.549899962121
30
0
41
1
10
29.0296940308927
20
-2.53825286694405
30
0
41
1
10
29.0368142313007
20
-2.52657821985659
30
0
41
1
10
29.0487758183383
20
-2.50692581467209
30
0
41
1
10
29.0536155756
20
-2.49896298429215
30
0
41
1
10
29.061668900223
20
-2.48569665998568
30
0
41
1
10
29.0648817927926
20
-2.48039998646104
30
0
41
1
10
29.0702260791325
20
-2.47158461784659
30
0
41
1
10
29.0723588174881
20
-2.46806536284055
30
0
41
1
10
29.0759066955662
20
-2.46220926998632
30
0
41
1
10
29.0773217904265
20
-2.45987358760354
30
0
41
1
10
29.0796832635893
20
-2.4559709799648
30
0
41
1
10
29.0806275962964
20
-2.45440896491917
30
0
41
1
10
29.0822034806031
20
-2.45179866895487
30
0
41
1
10
29.0828328331212
20
-2.45075545009343
30
0
41
1
10
29.0838723638694
20
-2.4490375517189
30
0
41
1
10
29.0842843144921
20
-2.44835911087034
30
0
41
1
10
29.0849688706155
20
-2.44723343667323
30
0
41
1
10
29.0852473621386
20
-2.44677434567376
30
0
41
1
10
29.0857171886742
20
-2.44599250905921
30
0
41
1
10
29.085904293743
20
-2.44567910607085
30
0
41
1
10
29.0862126599392
20
-2.44516171677972
30
0
41
1
10
29.086333636056
20
-2.44495866712998
30
0
41
1
10
29.0865645735146
20
-2.44457278089789
30
0
41
1
10
29.0866757603423
20
-2.44438765761032
30
0
41
1
10
29.086838542861
20
-2.44412100589048
30
0
41
1
10
29.086895532724
20
-2.44402860550727
30
0
41
1
10
29.0869709207098
20
-2.44390936638334
30
0
41
1
10
29.0869945670757
20
-2.44387255801851
30
0
41
1
10
29.0870150576887
20
-2.44384156404516
30
0
0
SPLINE
5
E1
100
AcDbEntity
8
1
62
256
6
ByLayer
370
18
48
1
60
0
100
AcDbSpline
70
4
71
3
72
40
73
36
40
0
40
0
40
0
40
0
40
0.0331295461881908
40
0.0331295461881908
40
0.0900042787653555
40
0.0900042787653555
40
0.14687901134252
40
0.14687901134252
40
0.203753743919685
40
0.203753743919685
40
0.317503209074016
40
0.317503209074016
40
0.374377941651183
40
0.374377941651183
40
0.402815307939765
40
0.402815307939765
40
0.431252674228348
40
0.431252674228348
40
0.545002139382677
40
0.545002139382677
40
0.601876871959841
40
0.601876871959841
40
0.630314238248423
40
0.630314238248423
40
0.658751604537006
40
0.658751604537006
40
0.772501069691337
40
0.772501069691337
40
0.829375802268503
40
0.829375802268503
40
0.886250534845669
40
0.886250534845669
40
0.943125267422834
40
0.943125267422834
40
1
40
1
40
1
40
1
41
1
10
22.2014444992476
20
-0.651152303235733
30
0
41
1
10
22.1086605595313
20
-0.609146140998007
30
0
41
1
10
22.0159229732893
20
-0.566862438457093
30
0
41
1
10
21.7640350813524
20
-0.451381968502773
30
0
41
1
10
21.6049209497599
20
-0.377759818797301
30
0
41
1
10
21.2866369350194
20
-0.229581168078511
30
0
41
1
10
21.1274580349951
20
-0.155040367795237
30
0
41
1
10
20.8087800833243
20
-0.0055603169046776
30
0
41
1
10
20.6492208602477
20
0.0693829816614482
30
0
41
1
10
20.1707609048453
20
0.293659990558126
30
0
41
1
10
19.8518611232502
20
0.442529808825299
30
0
41
1
10
19.3734697635515
20
0.660641107197421
30
0
41
1
10
19.2140770807868
20
0.732502278541205
30
0
41
1
10
18.9749168589503
20
0.838628711329761
30
0
41
1
10
18.8951863919729
20
0.873726185202543
30
0
41
1
10
18.7358957053166
20
0.943200357461251
30
0
41
1
10
18.6563069819521
20
0.97758972204511
30
0
41
1
10
18.2585646176473
20
1.14763893771644
30
0
41
1
10
17.9410705518608
20
1.27777902140042
30
0
41
1
10
17.4644603508787
20
1.4612408574009
30
0
41
1
10
17.3055094787248
20
1.52040776367716
30
0
41
1
10
17.0668204482548
20
1.60599482576953
30
0
41
1
10
16.9872123372889
20
1.6339925375645
30
0
41
1
10
16.8278723851538
20
1.68886616613409
30
0
41
1
10
16.7481122688696
20
1.7157533442261
30
0
41
1
10
16.3496587763318
20
1.84700882008821
30
0
41
1
10
16.0315147662941
20
1.94198701976339
30
0
41
1
10
15.5539167616948
20
2.06754782599148
30
0
41
1
10
15.3946455587972
20
2.10656194554338
30
0
41
1
10
15.0756835134824
20
2.17856489315116
30
0
41
1
10
14.9162113739504
20
2.21155549642569
30
0
41
1
10
14.5972849139085
20
2.27129725020123
30
0
41
1
10
14.4377840205003
20
2.29804714900618
30
0
41
1
10
14.1188589977358
20
2.34496481512846
30
0
41
1
10
13.9593677765104
20
2.36513787867247
30
0
41
1
10
13.7998957703277
20
2.3820091241441
30
0
0
SPLINE
5
E2
100
AcDbEntity
8
1
62
256
6
ByLayer
370
18
48
1
60
0
100
AcDbSpline
70
4
71
3
72
8
73
4
40
0
40
0
40
0
40
0
40
1
40
1
40
1
40
1
41
1
10
29.0813068472542
20
-2.41000215853026
30
0
41
1
10
29.0807679610899
20
-2.40910577950928
30
0
41
1
10
29.0802293413772
20
-2.40816173344464
30
0
41
1
10
29.0796909564621
20
-2.40717009524033
30
0
0
SPLINE
5
E3
100
AcDbEntity
8
1
62
256
6
ByLayer
370
18
48
1
60
0
100
AcDbSpline
70
4
71
3
72
38
73
34
40
0
40
0
40
0
40
0
40
0.125000000000001
40
0.125000000000001
40
0.187500000000001
40
0.187500000000001
40
0.218750000000001
40
0.218750000000001
40
0.250000000000001
40
0.250000000000001
40
0.375
40
0.375
40
0.4375
40
0.4375
40
0.468749999999999
40
0.468749999999999
40
0.499999999999999
40
0.499999999999999
40
0.624999999999998
40
0.624999999999998
40
0.687499999999998
40
0.687499999999998
40
0.718749999999998
40
0.718749999999998
40
0.749999999999998
40
0.749999999999998
40
0.874999999999999
40
0.874999999999999
40
0.9375
40
0.9375
40
0.96875
40
0.96875
40
1
40
1
40
1
40
1
41
1
10
29.056149436487
20
-0.237196835309561
30
0
41
1
10
29.0405262313338
20
-0.37436405681467
30
0
41
1
10
29.0288752075632
20
-0.508778992541011
30
0
41
1
10
29.0154476661805
20
-0.706266672878115
30
0
41
1
10
29.0116545006374
20
-0.771403541415481
30
0
41
1
10
29.0068115702108
20
-0.868039572104209
30
0
41
1
10
29.005338776403
20
-0.900073156997735
30
0
41
1
10
29.0026511154061
20
-0.963775614000241
30
0
41
1
10
29.0014337457199
20
-0.995520595394851
30
0
41
1
10
28.9959722651977
20
-1.15223003787199
30
0
41
1
10
28.9935542082037
20
-1.27098706396043
30
0
41
1
10
28.9918079089666
20
-1.4395246600377
30
0
41
1
10
28.9915480579552
20
-1.49409542512376
30
0
41
1
10
28.9915847663285
20
-1.57350030180001
30
0
41
1
10
28.9916685711736
20
-1.59955950524125
30
0
41
1
10
28.9919758177719
20
-1.65084641847105
30
0
41
1
10
28.9922000217995
20
-1.67611518716848
30
0
41
1
10
28.9936557825189
20
-1.79921762997506
30
0
41
1
10
28.9958519756032
20
-1.88820489681004
30
0
41
1
10
29.0009390085083
20
-2.0078878788602
30
0
41
1
10
29.0029413458435
20
-2.04546974587248
30
0
41
1
10
29.006509010222
20
-2.09831523507262
30
0
41
1
10
29.0077927854142
20
-2.11534172206817
30
0
41
1
10
29.0105736116689
20
-2.14819757569381
30
0
41
1
10
29.0120720165766
20
-2.16402943194345
30
0
41
1
10
29.0200840914596
20
-2.23942137452525
30
0
41
1
10
29.028178299542
20
-2.28841966835921
30
0
41
1
10
29.0441480299952
20
-2.34549062926095
30
0
41
1
10
29.0501153350205
20
-2.36176189531704
30
0
41
1
10
29.0602566690957
20
-2.3819795003273
30
0
41
1
10
29.0638359804438
20
-2.38801960020777
30
0
41
1
10
29.0714359894394
20
-2.39868035520672
30
0
41
1
10
29.0754548806521
20
-2.40329376986952
30
0
41
1
10
29.0796909564621
20
-2.40717009524033
30
0
0
SPLINE
5
E4
100
AcDbEntity
8
1
62
256
6
ByLayer
370
18
48
1
60
0
100
AcDbSpline
70
4
71
3
72
46
73
42
40
0
40
0
40
0
40
0
40
0.108790249611656
40
0.108790249611656
40
0.163185374417482
40
0.163185374417482
40
0.217580499223308
40
0.217580499223308
40
0.326370748834957
40
0.326370748834957
40
0.38076587364078
40
0.38076587364078
40
0.407963436043691
40
0.407963436043691
40
0.435160998446603
40
0.435160998446603
40
0.489556123252428
40
0.489556123252428
40
0.543951248058253
40
0.543951248058253
40
0.598346372864078
40
0.598346372864078
40
0.625543935266991
40
0.625543935266991
40
0.652741497669904
40
0.652741497669904
40
0.707136622475727
40
0.707136622475727
40
0.76153174728155
40
0.76153174728155
40
0.815926872087373
40
0.815926872087373
40
0.870321996893197
40
0.870321996893197
40
0.897519559296107
40
0.897519559296107
40
0.924717121699018
40
0.924717121699018
40
0.979112246504841
40
0.979112246504841
40
1
40
1
40
1
40
1
41
1
10
29.0561494364872
20
-0.237196835309561
30
0
41
1
10
28.7413963635386
20
-0.0905002193171072
30
0
41
1
10
28.4275104085177
20
0.0555439376648224
30
0
41
1
10
27.9579679250626
20
0.272955060712434
30
0
41
1
10
27.8016666818224
20
0.345148322534811
30
0
41
1
10
27.4891223256756
20
0.488260796454028
30
0
41
1
10
27.3328780447902
20
0.559177422920072
30
0
41
1
10
26.8639217286093
20
0.769358212493387
30
0
41
1
10
26.5509893472103
20
0.90606135536683
30
0
41
1
10
26.0798404880372
20
1.10321652137279
30
0
41
1
10
25.922495731369
20
1.16761479294704
30
0
41
1
10
25.6859508213725
20
1.26193106697548
30
0
41
1
10
25.6069781067326
20
1.2930056722677
30
0
41
1
10
25.4489982784269
20
1.35425546317944
30
0
41
1
10
25.3701256308737
20
1.38437871133272
30
0
41
1
10
25.1335271019542
20
1.47321858676273
30
0
41
1
10
24.9757509364858
20
1.53041405490617
30
0
41
1
10
24.6601632793294
20
1.64048588049678
30
0
41
1
10
24.502361900114
20
1.69336944716491
30
0
41
1
10
24.1866981763642
20
1.79439699283728
30
0
41
1
10
24.0288339913154
20
1.84255710345835
30
0
41
1
10
23.7919922989628
20
1.91062907602
30
0
41
1
10
23.7130429704251
20
1.93261387938307
30
0
41
1
10
23.5550600383875
20
1.97520911153555
30
0
41
1
10
23.4760002095144
20
1.99582803965907
30
0
41
1
10
23.2390106940139
20
2.05559461375665
30
0
41
1
10
23.0810830115946
20
2.09273402145743
30
0
41
1
10
22.7653727507722
20
2.16115323889457
30
0
41
1
10
22.6076111414419
20
2.19240642156822
30
0
41
1
10
22.2919682920844
20
2.24903323955957
30
0
41
1
10
22.1340723919096
20
2.27443573521094
30
0
41
1
10
21.8180789171942
20
2.31887485621738
30
0
41
1
10
21.6599854377548
20
2.33793226212629
30
0
41
1
10
21.4226418435526
20
2.36099403276498
30
0
41
1
10
21.343517926778
20
2.36773016897823
30
0
41
1
10
21.1855013696964
20
2.37945108596711
30
0
41
1
10
21.1065575088059
20
2.38445042641868
30
0
41
1
10
20.8697256773309
20
2.39722384209063
30
0
41
1
10
20.7117792358771
20
2.40289657739885
30
0
41
1
10
20.4931338065359
20
2.40649847065015
30
0
41
1
10
20.4324674083152
20
2.40704355077912
30
0
41
1
10
20.37179679819
20
2.4071156770946
30
0
0
SPLINE
5
E5
100
AcDbEntity
8
1
62
256
6
ByLayer
370
18
48
1
60
0
100
AcDbSpline
70
4
71
3
72
8
73
4
40
0
40
0
40
0
40
0
40
1
40
1
40
1
40
1
41
1
10
29.0538557766499
20
-0.226123246454534
30
0
41
1
10
29.0557492713553
20
-0.226506236205665
30
0
41
1
10
29.0568027575265
20
-0.2314608655862
30
0
41
1
10
29.056149436487
20
-0.237196835309504
30
0
0
SPLINE
5
E6
100
AcDbEntity
8
1
62
256
6
ByLayer
370
18
48
1
60
0
100
AcDbSpline
70
4
71
3
72
46
73
42
40
0
40
0
40
0
40
0
40
0.0444041155686518
40
0.0444041155686518
40
0.101042084502436
40
0.101042084502436
40
0.129361068969329
40
0.129361068969329
40
0.157680053436221
40
0.157680053436221
40
0.214318022370003
40
0.214318022370003
40
0.270955991303786
40
0.270955991303786
40
0.327593960237568
40
0.327593960237568
40
0.38423192917135
40
0.38423192917135
40
0.412550913638243
40
0.412550913638243
40
0.440869898105135
40
0.440869898105135
40
0.497507867038917
40
0.497507867038917
40
0.5541458359727
40
0.5541458359727
40
0.610783804906482
40
0.610783804906482
40
0.639102789373372
40
0.639102789373372
40
0.667421773840263
40
0.667421773840263
40
0.724059742774043
40
0.724059742774043
40
0.837335680641604
40
0.837335680641604
40
0.893973649575386
40
0.893973649575386
40
0.950611618509168
40
0.950611618509168
40
1
40
1
40
1
40
1
41
1
10
20.1836140360893
20
2.41536508869024
30
0
41
1
10
20.3074570441529
20
2.41752377152309
30
0
41
1
10
20.4312707388881
20
2.41762238319365
30
0
41
1
10
20.7129914150346
20
2.41351976036941
30
0
41
1
10
20.8708705973926
20
2.40813502871549
30
0
41
1
10
21.1075986325284
20
2.39577840991154
30
0
41
1
10
21.186507774304
20
2.39091668930269
30
0
41
1
10
21.3444561267825
20
2.37946854048946
30
0
41
1
10
21.4235463773981
20
2.37286875638833
30
0
41
1
10
21.6608033033425
20
2.35020254211432
30
0
41
1
10
21.8188371790882
20
2.33138969236529
30
0
41
1
10
22.1347069927065
20
2.28740277588196
30
0
41
1
10
22.2925393537705
20
2.26220866951502
30
0
41
1
10
22.6080516124027
20
2.20596715618765
30
0
41
1
10
22.7657466737
20
2.17489343785906
30
0
41
1
10
23.0813226483642
20
2.10679868389866
30
0
41
1
10
23.2391822668349
20
2.06980045324951
30
0
41
1
10
23.4760679772826
20
2.01022145188719
30
0
41
1
10
23.5550948549091
20
1.98966210743634
30
0
41
1
10
23.7130169952366
20
1.94717990811569
30
0
41
1
10
23.7919361346408
20
1.92525021530264
30
0
41
1
10
24.0286876392302
20
1.8573304458956
30
0
41
1
10
24.1864906207972
20
1.80924862239647
30
0
41
1
10
24.5020278057384
20
1.70833323059674
30
0
41
1
10
24.6597645217912
20
1.65548597422972
30
0
41
1
10
24.9752193493688
20
1.54544527788383
30
0
41
1
10
25.1329278299213
20
1.48824317780893
30
0
41
1
10
25.3694217855048
20
1.39936964393939
30
0
41
1
10
25.4482591541883
20
1.36923559295823
30
0
41
1
10
25.6061691460409
20
1.30795655292957
30
0
41
1
10
25.6851202672478
20
1.27685533715163
30
0
41
1
10
25.921581123166
20
1.18245131213379
30
0
41
1
10
26.0788674143163
20
1.11797595473331
30
0
41
1
10
26.5498311591924
20
0.920532223917746
30
0
41
1
10
26.8626292320787
20
0.783566590561463
30
0
41
1
10
27.3313755361253
20
0.572888664788536
30
0
41
1
10
27.4875484035559
20
0.501789088652316
30
0
41
1
10
27.7999484241415
20
0.358276870100553
30
0
41
1
10
27.956176247903
20
0.285866074205927
30
0
41
1
10
28.2490343483791
20
0.149763532877074
30
0
41
1
10
28.3856151530469
20
0.0861432144232879
30
0
41
1
10
28.522360245941
20
0.0223377404633425
30
0
0
SPLINE
5
E7
100
AcDbEntity
8
1
62
256
6
ByLayer
370
18
48
1
60
0
100
AcDbSpline
70
4
71
3
72
8
73
4
40
0
40
0
40
0
40
0
40
1
40
1
40
1
40
1
41
1
10
29.0127435802162
20
-0.216884418158713
30
0
41
1
10
29.026431723159
20
-0.220268661348115
30
0
41
1
10
29.0401330354214
20
-0.223347601382585
30
0
41
1
10
29.05385577665
20
-0.22612324645462
30
0
0
SPLINE
5
E8
100
AcDbEntity
8
1
62
256
6
ByLayer
370
18
48
1
60
0
100
AcDbSpline
70
4
71
3
72
8
73
4
40
0
40
0
40
0
40
0
40
1
40
1
40
1
40
1
41
1
10
29.0063657405938
20
-2.53402959026411
30
0
41
1
10
29.0295717648252
20
-2.49646278020532
30
0
41
1
10
29.0528058075699
20
-2.45871571941893
30
0
41
1
10
29.0760725825268
20
-2.42078959733391
30
0
0
SPLINE
5
E9
100
AcDbEntity
8
1
62
256
6
ByLayer
370
18
48
1
60
0
100
AcDbSpline
70
4
71
3
72
14
73
10
40
0
40
0
40
0
40
0
40
0.25
40
0.25
40
0.5
40
0.5
40
0.75
40
0.75
40
1
40
1
40
1
40
1
41
1
10
29.0760725825268
20
-2.42078959733391
30
0
41
1
10
29.0767667901013
20
-2.41965800082897
30
0
41
1
10
29.0774699623225
20
-2.4184662976175
30
0
41
1
10
29.0788295952748
20
-2.41604356169125
30
0
41
1
10
29.079477464712
20
-2.41482401203223
30
0
41
1
10
29.0805171194125
20
-2.41270013942844
30
0
41
1
10
29.0809114322026
20
-2.41178843445667
30
0
41
1
10
29.0813457957851
20
-2.41051268234872
30
0
41
1
10
29.081392299222
20
-2.41014429866397
30
0
41
1
10
29.0813068472542
20
-2.41000215853026
30
0
0
SPLINE
5
EA
100
AcDbEntity
8
1
62
256
6
ByLayer
370
18
48
1
60
0
100
AcDbSpline
70
4
71
3
72
47
73
43
40
0
40
0
40
0
40
0
40
0.0061676046383526
40
0.0061676046383526
40
0.0353979692078139
40
0.0353979692078139
40
0.0646283337772751
40
0.0646283337772751
40
0.123089062916195
40
0.123089062916195
40
0.181549792055116
40
0.181549792055116
40
0.240010521194036
40
0.240010521194036
40
0.298471250332957
40
0.298471250332957
40
0.327701614902416
40
0.327701614902416
40
0.356931979471875
40
0.356931979471875
40
0.415392708610796
40
0.415392708610796
40
0.473853437749716
40
0.473853437749716
40
0.532314166888637
40
0.532314166888637
40
0.561544531458097
40
0.561544531458097
40
0.590774896027557
40
0.590774896027557
40
0.649235625166478
40
0.649235625166478
40
0.766157083444318
40
0.766157083444318
40
0.824617812583239
40
0.824617812583239
40
0.883078541722159
40
0.883078541722159
40
0.94153927086108
40
0.97076963543054
40
0.97076963543054
40
1
40
1
40
1
40
1
41
1
10
20.9637466648925
20
0.218197061410109
30
0
41
1
10
20.980478583057
20
0.210487713656079
30
0
41
1
10
20.9972120684015
20
0.202774313692316
30
0
41
1
10
21.0932610813256
20
0.158483141967736
30
0
41
1
10
21.1726129556486
20
0.121824092857963
30
0
41
1
10
21.331418836153
20
0.0483902504720959
30
0
41
1
10
21.4109087398382
20
0.0115985494784638
30
0
41
1
10
21.6493103631329
20
-0.0987454078325527
30
0
41
1
10
21.8079873354643
20
-0.172184911120951
30
0
41
1
10
22.1250742923406
20
-0.318302749074093
30
0
41
1
10
22.2834820119633
20
-0.390983856218952
30
0
41
1
10
22.6002359373176
20
-0.535115199603354
30
0
41
1
10
22.7585855551006
20
-0.606562180573974
30
0
41
1
10
23.0755041642725
20
-0.747677666627908
30
0
41
1
10
23.2340693778576
20
-0.817350023572857
30
0
41
1
10
23.472225380982
20
-0.920173019731237
30
0
41
1
10
23.5517025824986
20
-0.954183074643396
30
0
41
1
10
23.7105864035513
20
-1.02149294837912
30
0
41
1
10
23.7899658111167
20
-1.05478150666352
30
0
41
1
10
24.0279656282374
20
-1.15346630029137
30
0
41
1
10
24.186446805549
20
-1.21768356056077
30
0
41
1
10
24.5032677628904
20
-1.34257295743231
30
0
41
1
10
24.6616078358243
20
-1.40324628285839
30
0
41
1
10
24.9783790839075
20
-1.52064737166396
30
0
41
1
10
25.1368076180075
20
-1.57737093429867
30
0
41
1
10
25.3746716741994
20
-1.65910673716229
30
0
41
1
10
25.4540003405037
20
-1.68579759989342
30
0
41
1
10
25.6127989130063
20
-1.73804800223837
30
0
41
1
10
25.6923028207197
20
-1.76361469409133
30
0
41
1
10
25.9303391766266
20
-1.83827948153288
30
0
41
1
10
26.0885979673006
20
-1.88541890356538
30
0
41
1
10
26.5624440527242
20
-2.01863148500527
30
0
41
1
10
26.8771032439711
20
-2.09650791453282
30
0
41
1
10
27.3486308701437
20
-2.19555753371935
30
0
41
1
10
27.5057303944332
20
-2.22561228626427
30
0
41
1
10
27.8200427305394
20
-2.27957699487601
30
0
41
1
10
27.9772534724274
20
-2.30348760172228
30
0
41
1
10
28.2919509362847
20
-2.34497887269782
30
0
41
1
10
28.5281824687648
20
-2.37135143889424
30
0
41
1
10
28.7649916911117
20
-2.39040133098487
30
0
41
1
10
28.9230227216344
20
-2.40144773891211
30
0
41
1
10
29.002111378469
20
-2.40610329962615
30
0
41
1
10
29.0813068472542
20
-2.41000215853026
30
0
0
SPLINE
5
EB
100
AcDbEntity
8
1
62
256
6
ByLayer
370
18
48
1
60
0
100
AcDbSpline
70
4
71
3
72
43
73
39
40
0
40
0
40
0
40
0
40
0.0309386783565837
40
0.0309386783565837
40
0.0618773567131671
40
0.0618773567131671
40
0.123754713426334
40
0.123754713426334
40
0.185632070139501
40
0.185632070139501
40
0.247509426852668
40
0.247509426852668
40
0.371264140278998
40
0.371264140278998
40
0.433141496992162
40
0.433141496992162
40
0.464080175348744
40
0.464080175348744
40
0.495018853705326
40
0.495018853705326
40
0.55689621041849
40
0.55689621041849
40
0.618773567131654
40
0.618773567131654
40
0.680650923844818
40
0.711589602201399
40
0.711589602201399
40
0.742528280557981
40
0.742528280557981
40
0.804405637271145
40
0.804405637271145
40
0.866282993984309
40
0.866282993984309
40
0.928160350697473
40
0.928160350697473
40
0.990037707410636
40
0.990037707410636
40
1
40
1
40
1
40
1
41
1
10
29.076072585195
20
-2.42078959746127
30
0
41
1
10
28.9968964833719
20
-2.41701028724654
30
0
41
1
10
28.9178060019503
20
-2.41246224531309
30
0
41
1
10
28.7597923342031
20
-2.40163072555617
30
0
41
1
10
28.6808648180581
20
-2.39538443895185
30
0
41
1
10
28.4442753881509
20
-2.37419256427202
30
0
41
1
10
28.2868065115487
20
-2.35679493022201
30
0
41
1
10
27.9721473902371
20
-2.31564177236717
30
0
41
1
10
27.8149564012514
20
-2.29188511646805
30
0
41
1
10
27.500682982504
20
-2.23819507901143
30
0
41
1
10
27.3436024916637
20
-2.20826111200134
30
0
41
1
10
26.8721280067814
20
-2.10952253091963
30
0
41
1
10
26.5574997592285
20
-2.03178456369662
30
0
41
1
10
26.0836824083084
20
-1.89867095287931
30
0
41
1
10
25.9254301486929
20
-1.85154642563151
30
0
41
1
10
25.6873988695214
20
-1.77687673890412
30
0
41
1
10
25.6078960721736
20
-1.75130371696415
30
0
41
1
10
25.4491045777196
20
-1.69902860963259
30
0
41
1
10
25.3697806833042
20
-1.67231953051467
30
0
41
1
10
25.1319283307528
20
-1.59051978838576
30
0
41
1
10
24.9735063956655
20
-1.5337381939363
30
0
41
1
10
24.6567495944224
20
-1.41618351477157
30
0
41
1
10
24.4984167380578
20
-1.3554154987242
30
0
41
1
10
24.181608665278
20
-1.23030221282789
30
0
41
1
10
23.9438954974931
20
-1.13378237933784
30
0
41
1
10
23.7057648890059
20
-1.0336813609417
30
0
41
1
10
23.5468857176787
20
-0.966204856072579
30
0
41
1
10
23.4674114312453
20
-0.932107443924508
30
0
41
1
10
23.2292646122502
20
-0.829012160354949
30
0
41
1
10
23.0707060104463
20
-0.759143821294174
30
0
41
1
10
22.7538036031994
20
-0.61760221161569
30
0
41
1
10
22.5954631730217
20
-0.545925948676029
30
0
41
1
10
22.2787246232645
20
-0.401311375037807
30
0
41
1
10
22.1203234940494
20
-0.328375432490418
30
0
41
1
10
21.8032488404042
20
-0.181717202162702
30
0
41
1
10
21.6445772699503
20
-0.107992828947261
30
0
41
1
10
21.4600593531309
20
-0.0222381687091229
30
0
41
1
10
21.4344692467988
20
-0.0103447888295989
30
0
41
1
10
21.4088805232972
20
0.0015471692686049
30
0
0
SPLINE
5
EC
100
AcDbEntity
8
1
62
256
6
ByLayer
370
18
48
1
60
0
100
AcDbSpline
70
4
71
3
72
10
73
6
40
0
40
0
40
0
40
0
40
0.0583800067048461
40
0.0583800067048461
40
1
40
1
40
1
40
1
41
1
10
14.8630697088604
20
-2.40222017865102
30
0
41
1
10
14.8434921823733
20
-2.40510627804076
30
0
41
1
10
14.8239151519769
20
-2.40794103367088
30
0
41
1
10
14.4885808499291
20
-2.45561556043751
30
0
41
1
10
14.172863275927
20
-2.48710684608997
30
0
41
1
10
13.8562919886234
20
-2.50475616783209
30
0
0
SPLINE
5
ED
100
AcDbEntity
8
1
62
256
6
ByLayer
370
18
48
1
60
0
100
AcDbSpline
70
4
71
3
72
16
73
12
40
0
40
0
40
0
40
0
40
0.250000000000001
40
0.250000000000001
40
0.375000000000001
40
0.375000000000001
40
0.500000000000002
40
0.500000000000002
40
0.750000000000001
40
0.750000000000001
40
1
40
1
40
1
40
1
41
1
10
13.8562919886233
20
-2.50475616783209
30
0
41
1
10
13.8478205907547
20
-2.50522846090661
30
0
41
1
10
13.8401172241986
20
-2.50582059030546
30
0
41
1
10
13.8296864604598
20
-2.50685474723406
30
0
41
1
10
13.8263931781213
20
-2.50722575088881
30
0
41
1
10
13.8203949163273
20
-2.50798940270559
30
0
41
1
10
13.817661507221
20
-2.50838455352789
30
0
41
1
10
13.8102529124272
20
-2.50960211228488
30
0
41
1
10
13.8063720271278
20
-2.51046227640688
30
0
41
1
10
13.8012356513444
20
-2.51213294592023
30
0
41
1
10
13.7998957702988
20
-2.51296416487531
30
0
41
1
10
13.7998957702988
20
-2.51374786459562
30
0
0
SPLINE
5
EE
100
AcDbEntity
8
1
62
256
6
ByLayer
370
18
48
1
60
0
100
AcDbSpline
70
4
71
3
72
28
73
24
40
0
40
0
40
0
40
0
40
0.124999999999978
40
0.124999999999978
40
0.18749999999998
40
0.18749999999998
40
0.249999999999982
40
0.312499999999984
40
0.312499999999984
40
0.374999999999986
40
0.374999999999986
40
0.49999999999999
40
0.49999999999999
40
0.624999999999993
40
0.624999999999993
40
0.687499999999994
40
0.687499999999994
40
0.749999999999995
40
0.812499999999996
40
0.812499999999996
40
0.874999999999998
40
0.874999999999998
40
1
40
1
40
1
40
1
41
1
10
13.7998957702988
20
-0.905906758150621
30
0
41
1
10
13.7998957702988
20
-0.897951425051673
30
0
41
1
10
13.8009668231253
20
-0.890151589986004
30
0
41
1
10
13.8041305431649
20
-0.878680019493999
30
0
41
1
10
13.8054604598993
20
-0.874868044792407
30
0
41
1
10
13.8086019151938
20
-0.867488121694379
30
0
41
1
10
13.8122158116485
20
-0.860347743918538
30
0
41
1
10
13.8167525489235
20
-0.8536773776014
30
0
41
1
10
13.8217620884268
20
-0.847249066143803
30
0
41
1
10
13.8245066894086
20
-0.844159626598724
30
0
41
1
10
13.8332200316994
20
-0.835521450635383
30
0
41
1
10
13.8397326106831
20
-0.830495245478261
30
0
41
1
10
13.8541932601085
20
-0.821979355344752
30
0
41
1
10
13.8618373632309
20
-0.818667748671317
30
0
41
1
10
13.8739050988357
20
-0.815082121126096
30
0
41
1
10
13.8780599091027
20
-0.814116033377729
30
0
41
1
10
13.8863952683161
20
-0.812704582103066
30
0
41
1
10
13.8947592891771
20
-0.811803281237019
30
0
41
1
10
13.9031793090726
20
-0.811899344655899
30
0
41
1
10
13.9116280299188
20
-0.81250654847625
30
0
41
1
10
13.9158632934344
20
-0.813070252015137
30
0
41
1
10
13.9282509079895
20
-0.815482993029377
30
0
41
1
10
13.9362129380491
20
-0.818046965605646
30
0
41
1
10
13.9438686254428
20
-0.82159536489209
30
0
0
SPLINE
5
EF
100
AcDbEntity
8
1
62
256
6
ByLayer
370
18
48
1
60
0
100
AcDbSpline
70
4
71
3
72
38
73
34
40
0
40
0
40
0
40
0
40
0.14610271562423
40
0.14610271562423
40
0.219154073436346
40
0.219154073436346
40
0.292205431248462
40
0.292205431248462
40
0.32873111015452
40
0.32873111015452
40
0.365256789060578
40
0.365256789060578
40
0.438308146872692
40
0.438308146872692
40
0.511359504684805
40
0.511359504684805
40
0.584410862496919
40
0.584410862496919
40
0.620936541402977
40
0.620936541402977
40
0.657462220309035
40
0.657462220309035
40
0.730513578121149
40
0.730513578121149
40
0.803564935933262
40
0.803564935933262
40
0.876616293745376
40
0.876616293745376
40
0.913141972651434
40
0.913141972651434
40
0.949667651557492
40
0.949667651557492
40
1
40
1
40
1
40
1
41
1
10
13.9438686254428
20
-0.82159536489209
30
0
41
1
10
14.2580226968458
20
-0.967205291928025
30
0
41
1
10
14.5719512084069
20
-1.10637919009207
30
0
41
1
10
15.0429015018838
20
-1.30514112675735
30
0
41
1
10
15.1998642142469
20
-1.36977564402935
30
0
41
1
10
15.5138211479002
20
-1.49563249650225
30
0
41
1
10
15.6708683960813
20
-1.55675786465082
30
0
41
1
10
15.9068938141469
20
-1.64513655093469
30
0
41
1
10
15.9856241389425
20
-1.67404622543793
30
0
41
1
10
16.1429129272563
20
-1.73060509355818
30
0
41
1
10
16.2215169327046
20
-1.75826585938938
30
0
41
1
10
16.4572219001538
20
-1.83938305245843
30
0
41
1
10
16.6141806704587
20
-1.89103027164956
30
0
41
1
10
16.9277596718228
20
-1.98938543529363
30
0
41
1
10
17.0844556263787
20
-2.03597825855351
30
0
41
1
10
17.3982793298885
20
-2.12323902815967
30
0
41
1
10
17.5553720101254
20
-2.16396009408189
30
0
41
1
10
17.7913843725873
20
-2.22058293953069
30
0
41
1
10
17.8701543437573
20
-2.23872778754853
30
0
41
1
10
18.0275758172895
20
-2.27349250659751
30
0
41
1
10
18.106207648504
20
-2.29011204787224
30
0
41
1
10
18.3418942999256
20
-2.33764933660009
30
0
41
1
10
18.4987739216894
20
-2.3662093929843
30
0
41
1
10
18.8125018463496
20
-2.41673368791211
30
0
41
1
10
18.9692969422754
20
-2.43874770197911
30
0
41
1
10
19.2827465952331
20
-2.47620215804653
30
0
41
1
10
19.439470947515
20
-2.4915858490825
30
0
41
1
10
19.6751039973543
20
-2.50944478035541
30
0
41
1
10
19.7537277343204
20
-2.51453628497796
30
0
41
1
10
19.9111322339619
20
-2.52300342484463
30
0
41
1
10
19.9898581036435
20
-2.52637526988735
30
0
41
1
10
20.1768780422907
20
-2.53234551381837
30
0
41
1
10
20.2851598928284
20
-2.53417453675263
30
0
41
1
10
20.3933641530131
20
-2.53437381195746
30
0
0
SPLINE
5
F0
100
AcDbEntity
8
1
62
256
6
ByLayer
370
18
48
1
60
0
100
AcDbSpline
70
4
71
3
72
149
73
145
40
0
40
0
40
0
40
0
40
0.0136336781567497
40
0.0136336781567497
40
0.0322334844002772
40
0.0322334844002772
40
0.0508332906438048
40
0.0508332906438048
40
0.0694330968873323
40
0.0694330968873323
40
0.0880329031308598
40
0.0880329031308598
40
0.0973328062526236
40
0.0973328062526236
40
0.106632709374387
40
0.106632709374387
40
0.125232515617915
40
0.125232515617915
40
0.134532418739679
40
0.134532418739679
40
0.143832321861443
40
0.143832321861443
40
0.162432128104972
40
0.162432128104972
40
0.1810319343485
40
0.1810319343485
40
0.190331837470264
40
0.190331837470264
40
0.199631740592028
40
0.199631740592028
40
0.218231546835557
40
0.218231546835557
40
0.236831353079087
40
0.236831353079087
40
0.246131256200851
40
0.246131256200851
40
0.255431159322617
40
0.255431159322617
40
0.274030965566146
40
0.274030965566146
40
0.28333086868791
40
0.28333086868791
40
0.292630771809675
40
0.292630771809675
40
0.311230578053205
40
0.311230578053205
40
0.329830384296735
40
0.329830384296735
40
0.348430190540264
40
0.348430190540264
40
0.367029996783794
40
0.367029996783794
40
0.385629803027324
40
0.385629803027324
40
0.404229609270854
40
0.404229609270854
40
0.413529512392619
40
0.413529512392619
40
0.422829415514384
40
0.441429221757914
40
0.441429221757914
40
0.450729124879679
40
0.450729124879679
40
0.460029028001444
40
0.460029028001444
40
0.478628834244974
40
0.478628834244974
40
0.497228640488504
40
0.497228640488504
40
0.506528543610269
40
0.506528543610269
40
0.515828446732034
40
0.515828446732034
40
0.534428252975564
40
0.534428252975564
40
0.553028059219094
40
0.553028059219094
40
0.562327962340858
40
0.562327962340858
40
0.571627865462623
40
0.571627865462623
40
0.580927768584387
40
0.580927768584387
40
0.590227671706152
40
0.590227671706152
40
0.60882747794968
40
0.60882747794968
40
0.627427284193209
40
0.627427284193209
40
0.646027090436737
40
0.646027090436737
40
0.664626896680265
40
0.664626896680265
40
0.673926799802029
40
0.673926799802029
40
0.683226702923794
40
0.683226702923794
40
0.701826509167321
40
0.701826509167321
40
0.720426315410849
40
0.720426315410849
40
0.729726218532612
40
0.729726218532612
40
0.739026121654375
40
0.739026121654375
40
0.757625927897903
40
0.757625927897903
40
0.766925831019667
40
0.766925831019667
40
0.776225734141431
40
0.776225734141431
40
0.79482554038496
40
0.79482554038496
40
0.81342534662849
40
0.81342534662849
40
0.822725249750254
40
0.822725249750254
40
0.832025152872019
40
0.832025152872019
40
0.850624959115549
40
0.850624959115549
40
0.869224765359079
40
0.869224765359079
40
0.878524668480844
40
0.878524668480844
40
0.887824571602609
40
0.887824571602609
40
0.90642437784614
40
0.90642437784614
40
0.925024184089671
40
0.925024184089671
40
0.934324087211436
40
0.934324087211436
40
0.943623990333201
40
0.943623990333201
40
0.962223796576731
40
0.962223796576731
40
0.980823602820261
40
0.980823602820261
40
0.990123505942026
40
0.990123505942026
40
0.999423409063791
40
0.999423409063791
40
1
40
1
40
1
40
1
41
1
10
25.5024579265919
20
-1.69982352853725
30
0
41
1
10
25.4085592670693
20
-1.73398603986527
30
0
41
1
10
25.3145826741788
20
-1.76727195107156
30
0
41
1
10
25.0926340793964
20
-1.84366875826223
30
0
41
1
10
24.9645945191029
20
-1.88592571290286
30
0
41
1
10
24.7089684476165
20
-1.96732882500507
30
0
41
1
10
24.5813631636383
20
-2.00642833049622
30
0
41
1
10
24.325912743351
20
-2.08057905459424
30
0
41
1
10
24.1981217190491
20
-2.11570751009302
30
0
41
1
10
23.9422946827131
20
-2.18197669877318
30
0
41
1
10
23.8142495447002
20
-2.21311727430418
30
0
41
1
10
23.6222573374348
20
-2.25707345835602
30
0
41
1
10
23.5582538207907
20
-2.27124464250332
30
0
41
1
10
23.4301288226033
20
-2.29851968648595
30
0
41
1
10
23.3660615243008
20
-2.31161130842128
30
0
41
1
10
23.1739626246885
20
-2.34921928420096
30
0
41
1
10
23.0459753185049
20
-2.37208064667834
30
0
41
1
10
22.8540299835918
20
-2.40304883527622
30
0
41
1
10
22.790057738372
20
-2.4128209332051
30
0
41
1
10
22.6621956989664
20
-2.43130204790958
30
0
41
1
10
22.5983187380136
20
-2.44001738869173
30
0
41
1
10
22.4067473960245
20
-2.4645085078044
30
0
41
1
10
22.279038314975
20
-2.47858695073526
30
0
41
1
10
22.0233197574902
20
-2.50213496869222
30
0
41
1
10
21.8953275716153
20
-2.51161815617888
30
0
41
1
10
21.7031136254454
20
-2.52241606252508
30
0
41
1
10
21.6390145386318
20
-2.52544715365556
30
0
41
1
10
21.5108261559898
20
-2.53037187977736
30
0
41
1
10
21.4467301782319
20
-2.53226202689743
30
0
41
1
10
21.254638596158
20
-2.53617321878292
30
0
41
1
10
21.1266760326422
20
-2.53643897894989
30
0
41
1
10
20.8707801285187
20
-2.53236494306529
30
0
41
1
10
20.7428268386387
20
-2.52803283052612
30
0
41
1
10
20.5509597142266
20
-2.51811134103585
30
0
41
1
10
20.4870337529458
20
-2.51422853458095
30
0
41
1
10
20.3592513839378
20
-2.50529439585287
30
0
41
1
10
20.2953836347462
20
-2.50024482225393
30
0
41
1
10
20.1036908627457
20
-2.4833950551203
30
0
41
1
10
19.9757730289577
20
-2.46990003634696
30
0
41
1
10
19.7836330686516
20
-2.44632959640364
30
0
41
1
10
19.7195416429793
20
-2.43791855113807
30
0
41
1
10
19.5912589666426
20
-2.41999633017596
30
0
41
1
10
19.5270435702931
20
-2.41047969049635
30
0
41
1
10
19.3346424608004
20
-2.38024912673859
30
0
41
1
10
19.2067247239495
20
-2.35778932707086
30
0
41
1
10
18.9508766812943
20
-2.30876683549746
30
0
41
1
10
18.8229760874667
20
-2.28219400459091
30
0
41
1
10
18.5671113677402
20
-2.22508187455554
30
0
41
1
10
18.4391011003697
20
-2.1945971666494
30
0
41
1
10
18.1833267166088
20
-2.12933940398054
30
0
41
1
10
18.0555366153471
20
-2.09457059293561
30
0
41
1
10
17.7994943189511
20
-2.02147790457997
30
0
41
1
10
17.6712506396843
20
-1.98308463426287
30
0
41
1
10
17.414500047078
20
-1.902861082317
30
0
41
1
10
17.2862304614917
20
-1.86112297638888
30
0
41
1
10
17.0942565928661
20
-1.79568243648814
30
0
41
1
10
17.0303174404479
20
-1.77342227427187
30
0
41
1
10
16.9024363187785
20
-1.72816600800309
30
0
41
1
10
16.7106110346473
20
-1.65917893472587
30
0
41
1
10
16.518712897349
20
-1.5870050345585
30
0
41
1
10
16.3266886826725
20
-1.51285476404954
30
0
41
1
10
16.2626638624951
20
-1.48780219245558
30
0
41
1
10
16.1346457131386
20
-1.43691291378309
30
0
41
1
10
16.0706649891483
20
-1.41105380784973
30
0
41
1
10
15.8786957080981
20
-1.33240932320544
30
0
41
1
10
15.7506069934522
20
-1.27868264428483
30
0
41
1
10
15.493913405697
20
-1.16917705168956
30
0
41
1
10
15.3656037315625
20
-1.11349606900916
30
0
41
1
10
15.1733142182131
20
-1.02869451373317
30
0
41
1
10
15.1092501976142
20
-1.00019040900125
30
0
41
1
10
14.981252187642
20
-0.942581520876786
30
0
41
1
10
14.9173118806365
20
-0.913488189099411
30
0
41
1
10
14.7255136180125
20
-0.825634084286662
30
0
41
1
10
14.5976318360211
20
-0.7663904926371
30
0
41
1
10
14.3416820484079
20
-0.646874395681266
30
0
41
1
10
14.2135905111309
20
-0.586650698393612
30
0
41
1
10
14.0213645740907
20
-0.495446324063778
30
0
41
1
10
13.9572949124548
20
-0.464858152633838
30
0
41
1
10
13.8291675723707
20
-0.403301384417631
30
0
41
1
10
13.7650987598664
20
-0.372355247401544
30
0
41
1
10
13.6368426906884
20
-0.310349435806387
30
0
41
1
10
13.572654931939
20
-0.279287178241958
30
0
41
1
10
13.4443795702111
20
-0.217183473683264
30
0
41
1
10
13.3802632730448
20
-0.186128159194936
30
0
41
1
10
13.1879570532076
20
-0.0929955685889183
30
0
41
1
10
13.0597642139423
20
-0.031046040079076
30
0
41
1
10
12.8036822019955
20
0.0931614504615368
30
0
41
1
10
12.6758821518602
20
0.155602584127507
30
0
41
1
10
12.4200349610024
20
0.279647817594281
30
0
41
1
10
12.2920249970609
20
0.341329800477126
30
0
41
1
10
12.0357247499523
20
0.463794195744214
30
0
41
1
10
11.9073907591464
20
0.524487786855644
30
0
41
1
10
11.7149255581118
20
0.615355395671372
30
0
41
1
10
11.6507447066099
20
0.64561895952292
30
0
41
1
10
11.522476787732
20
0.705764803952491
30
0
41
1
10
11.4583703594809
20
0.735636578783357
30
0
41
1
10
11.2660856381139
20
0.824559109485051
30
0
41
1
10
11.1379538541887
20
0.882941431264868
30
0
41
1
10
10.8816917394334
20
0.997715421735762
30
0
41
1
10
10.7535677081001
20
1.05412429445184
30
0
41
1
10
10.5616498437305
20
1.13773982366331
30
0
41
1
10
10.4977000922828
20
1.1654028954938
30
0
41
1
10
10.3697381897818
20
1.22011106964339
30
0
41
1
10
10.3057284011297
20
1.24716102763199
30
0
41
1
10
10.1135940161316
20
1.32736906325752
30
0
41
1
10
9.985361577574
20
1.37958048780243
30
0
41
1
10
9.79272947029406
20
1.45589442417491
30
0
41
1
10
9.72845650289224
20
1.48101669766604
30
0
41
1
10
9.59998973500745
20
1.53068585828865
30
0
41
1
10
9.53584449561049
20
1.55523616961946
30
0
41
1
10
9.34354510449006
20
1.62780996105664
30
0
41
1
10
9.21545933528003
20
1.67464516785995
30
0
41
1
10
8.95924539786498
20
1.76484695579862
30
0
41
1
10
8.83112401444262
20
1.80822897052369
30
0
41
1
10
8.63892196237788
20
1.87075317073223
30
0
41
1
10
8.57486396583931
20
1.89118772782391
30
0
41
1
10
8.44682578025504
20
1.93131458536172
30
0
41
1
10
8.38283640303311
20
1.95099292546763
30
0
41
1
10
8.19080008901392
20
2.00865480641355
30
0
41
1
10
8.0626442306326
20
2.0452156629419
30
0
41
1
10
7.80593510649058
20
2.11443878780932
30
0
41
1
10
7.67726248221302
20
2.14709075697084
30
0
41
1
10
7.48458039223072
20
2.19309193249546
30
0
41
1
10
7.42041442800422
20
2.20795616090518
30
0
41
1
10
7.29218812281712
20
2.23671596375547
30
0
41
1
10
7.22811737230802
20
2.25060034071095
30
0
41
1
10
7.03587051190237
20
2.29061722860854
30
0
41
1
10
6.90767621030497
20
2.31513314296663
30
0
41
1
10
6.65112291833958
20
2.3598110809113
30
0
41
1
10
6.52273353837057
20
2.3799562527478
30
0
41
1
10
6.33009901935117
20
2.406966679069
30
0
41
1
10
6.26588891997457
20
2.41543964015216
30
0
41
1
10
6.13742706730062
20
2.43128868312158
30
0
41
1
10
6.07315803783808
20
2.43866482439284
30
0
41
1
10
5.88048782884243
20
2.45907867538898
30
0
41
1
10
5.75213631894377
20
2.47041019678198
30
0
41
1
10
5.49550341966855
20
2.48851400590718
30
0
41
1
10
5.36722596522054
20
2.49529466815423
30
0
41
1
10
5.17498813606613
20
2.5020532645994
30
0
41
1
10
5.11092897542878
20
2.5037328475666
30
0
41
1
10
4.98274237649613
20
2.50593180110786
30
0
41
1
10
4.91860770970979
20
2.50645170947382
30
0
41
1
10
4.85044235531626
20
2.50639480334522
30
0
41
1
10
4.84646266345527
20
2.50638927755858
30
0
41
1
10
4.84248278011944
20
2.50638154949792
30
0
0
SPLINE
5
F1
100
AcDbEntity
8
1
62
256
6
ByLayer
370
18
48
1
60
0
100
AcDbSpline
70
4
71
3
72
30
73
26
40
0
40
0
40
0
40
0
40
0.0742882817324269
40
0.0742882817324269
40
0.125716710525071
40
0.125716710525071
40
0.177145139317715
40
0.177145139317715
40
0.382858854488287
40
0.382858854488287
40
0.485715712073573
40
0.485715712073573
40
0.537144140866214
40
0.537144140866214
40
0.588572569658856
40
0.588572569658856
40
0.691429427244142
40
0.691429427244142
40
0.794286284829428
40
0.794286284829428
40
0.897143142414714
40
0.897143142414714
40
0.948571571207357
40
0.948571571207357
40
1
40
1
40
1
40
1
41
1
10
8.71613582689551
20
1.8529528375789
30
0
41
1
10
8.84195160443528
20
1.89421357850085
30
0
41
1
10
8.96781228640091
20
1.93387799633629
30
0
41
1
10
9.18098344488018
20
1.99814526277712
30
0
41
1
10
9.2682407316446
20
2.02362438811582
30
0
41
1
10
9.44290528261021
20
2.07289644708391
30
0
41
1
10
9.53024212935281
20
2.09666937726797
30
0
41
1
10
9.96644505351884
20
2.21091480559949
30
0
41
1
10
10.3143729097212
20
2.28780483591936
30
0
41
1
10
10.8367896981462
20
2.37951514440306
30
0
41
1
10
11.0110192612015
20
2.40615130107076
30
0
41
1
10
11.2727098779015
20
2.44002505456652
30
0
41
1
10
11.3600509844956
20
2.45030604303202
30
0
41
1
10
11.5346341539272
20
2.46877537888028
30
0
41
1
10
11.6218504522049
20
2.47696295812096
30
0
41
1
10
11.8833447393919
20
2.4983698921848
30
0
41
1
10
12.0574740130418
20
2.50843359402563
30
0
41
1
10
12.4055960815266
20
2.52011110463627
30
0
41
1
10
12.5796012354478
20
2.52172000542984
30
0
41
1
10
12.9278569662623
20
2.51644857972118
30
0
41
1
10
13.1021197620902
20
2.5095725960953
30
0
41
1
10
13.3639122234677
20
2.49288230132689
30
0
41
1
10
13.4512396770556
20
2.48625489540447
30
0
41
1
10
13.6256561962803
20
2.47092086009781
30
0
41
1
10
13.7127982932057
20
2.46221144103049
30
0
41
1
10
13.7998957702988
20
2.45247258160631
30
0
0
SPLINE
5
F2
100
AcDbEntity
8
1
62
256
6
ByLayer
370
18
48
1
60
0
100
AcDbSpline
70
4
71
3
72
56
73
52
40
0
40
0
40
0
40
0
40
0.0312500000000016
40
0.0312500000000016
40
0.0468750000000024
40
0.0468750000000024
40
0.0625000000000032
40
0.0625000000000032
40
0.125000000000005
40
0.125000000000005
40
0.187500000000007
40
0.187500000000007
40
0.250000000000009
40
0.250000000000009
40
0.281250000000011
40
0.281250000000011
40
0.296875000000011
40
0.296875000000011
40
0.312500000000011
40
0.312500000000011
40
0.375000000000011
40
0.375000000000011
40
0.406250000000011
40
0.406250000000011
40
0.421875000000011
40
0.421875000000011
40
0.437500000000011
40
0.437500000000011
40
0.500000000000012
40
0.500000000000012
40
0.531250000000012
40
0.531250000000012
40
0.562500000000013
40
0.562500000000013
40
0.625000000000012
40
0.625000000000012
40
0.687500000000012
40
0.687500000000012
40
0.750000000000012
40
0.750000000000012
40
0.781250000000011
40
0.781250000000011
40
0.796875000000011
40
0.796875000000011
40
0.812500000000011
40
0.812500000000011
40
0.875000000000007
40
0.875000000000007
40
0.937500000000004
40
0.937500000000004
40
1
40
1
40
1
40
1
41
1
10
13.7998957702988
20
2.46309363602239
30
0
41
1
10
13.9595544951957
20
2.44670107867501
30
0
41
1
10
14.1191250579906
20
2.42684406088384
30
0
41
1
10
14.3585342027148
20
2.39195991042357
30
0
41
1
10
14.4383462697825
20
2.37948221744958
30
0
41
1
10
14.5980207164959
20
2.35284579408963
30
0
41
1
10
14.6778563672987
20
2.33869030938695
30
0
41
1
10
15.0762210187741
20
2.26396897686857
30
0
41
1
10
15.3930984250627
20
2.19144064102378
30
0
41
1
10
16.0252588743383
20
2.02347344851319
30
0
41
1
10
16.340522364308
20
1.92801719445299
30
0
41
1
10
16.9712983854196
20
1.71670267499374
30
0
41
1
10
17.2868180616492
20
1.60084792896623
30
0
41
1
10
17.7618261009878
20
1.41399750483515
30
0
41
1
10
17.9204515772124
20
1.34954072460781
30
0
41
1
10
18.1590084593987
20
1.249877862407
30
0
41
1
10
18.2386299613025
20
1.21615961602834
30
0
41
1
10
18.3981078839408
20
1.14777401895947
30
0
41
1
10
18.4779404489604
20
1.11311617753668
30
0
41
1
10
18.8765311689358
20
0.938131440823071
30
0
41
1
10
19.1945335391685
20
0.79228792511779
30
0
41
1
10
19.6718460980202
20
0.567904958369553
30
0
41
1
10
19.8310032510429
20
0.492178152225989
30
0
41
1
10
20.0700241293217
20
0.377601822894604
30
0
41
1
10
20.1497452561755
20
0.33924538004058
30
0
41
1
10
20.3093161089871
20
0.262271938200968
30
0
41
1
10
20.3891016838704
20
0.223686406310691
30
0
41
1
10
20.7876690852465
20
0.0306398989167178
30
0
41
1
10
21.1057743304079
20
-0.124444828216809
30
0
41
1
10
21.5831391969467
20
-0.355294070239694
30
0
41
1
10
21.7422987819742
20
-0.431940236418711
30
0
41
1
10
22.0609515067949
20
-0.584093343381852
30
0
41
1
10
22.2206311638577
20
-0.659684427517334
30
0
41
1
10
22.697762763733
20
-0.882597322861727
30
0
41
1
10
23.0140686415369
20
-1.02640714284757
30
0
41
1
10
23.6452498929426
20
-1.300551131574
30
0
41
1
10
23.9601135514078
20
-1.43091553592069
30
0
41
1
10
24.5902637216961
20
-1.67496955931057
30
0
41
1
10
24.9055557662961
20
-1.7886439865249
30
0
41
1
10
25.3803585185997
20
-1.94406624312884
30
0
41
1
10
25.5389370579582
20
-1.99336063354454
30
0
41
1
10
25.7774441409752
20
-2.06324918326251
30
0
41
1
10
25.8570532432521
20
-2.08586956434391
30
0
41
1
10
26.016515965948
20
-2.12970850467738
30
0
41
1
10
26.0961472618094
20
-2.15086570767181
30
0
41
1
10
26.493761968373
20
-2.25274576777943
30
0
41
1
10
26.8102477742376
20
-2.32177501878533
30
0
41
1
10
27.4420641395137
20
-2.43344421637406
30
0
41
1
10
27.757400571236
20
-2.47608470684545
30
0
41
1
10
28.3888854800646
20
-2.53385981557295
30
0
41
1
10
28.7050201793545
20
-2.54899489791529
30
0
41
1
10
29.0225767415272
20
-2.549899962121
30
0
0
SPLINE
5
F3
100
AcDbEntity
8
1
62
256
6
ByLayer
370
18
48
1
60
0
100
AcDbSpline
70
4
71
3
72
10
73
6
40
0
40
0
40
0
40
0
40
0.5
40
0.5
40
1
40
1
40
1
40
1
41
1
10
29.0063657405801
20
-2.53402959028781
30
0
41
1
10
29.0090602123954
20
-2.53920539865575
30
0
41
1
10
29.0117575098606
20
-2.54311956496568
30
0
41
1
10
29.0171637997179
20
-2.5484163848171
30
0
41
1
10
29.0198737080588
20
-2.54979542399778
30
0
41
1
10
29.0225767415272
20
-2.549899962121
30
0
0
SPLINE
5
F4
100
AcDbEntity
8
1
62
256
6
ByLayer
370
18
48
1
60
0
100
AcDbSpline
70
4
71
3
72
65
73
61
40
0
40
0
40
0
40
0
40
0.0624999999999934
40
0.0624999999999934
40
0.0937499999999901
40
0.0937499999999901
40
0.109374999999988
40
0.109374999999988
40
0.124999999999987
40
0.124999999999987
40
0.187499999999985
40
0.187499999999985
40
0.218749999999984
40
0.218749999999984
40
0.249999999999984
40
0.249999999999984
40
0.281249999999983
40
0.281249999999983
40
0.312499999999983
40
0.312499999999983
40
0.374999999999982
40
0.374999999999982
40
0.390624999999982
40
0.390624999999982
40
0.406249999999982
40
0.406249999999982
40
0.437499999999982
40
0.437499999999982
40
0.499999999999983
40
0.499999999999983
40
0.515624999999983
40
0.515624999999983
40
0.531249999999984
40
0.562499999999984
40
0.562499999999984
40
0.624999999999985
40
0.624999999999985
40
0.640624999999985
40
0.640624999999985
40
0.656249999999985
40
0.656249999999985
40
0.687499999999987
40
0.687499999999987
40
0.749999999999989
40
0.749999999999989
40
0.76562499999999
40
0.76562499999999
40
0.78124999999999
40
0.78124999999999
40
0.812499999999991
40
0.812499999999991
40
0.874999999999993
40
0.874999999999993
40
0.890624999999994
40
0.890624999999994
40
0.906249999999995
40
0.906249999999995
40
0.937499999999997
40
0.937499999999997
40
1
40
1
40
1
40
1
41
1
10
29.0063657405923
20
-2.53402959028767
30
0
41
1
10
28.6908988539464
20
-2.516232833879
30
0
41
1
10
28.3761890450292
20
-2.48449806719904
30
0
41
1
10
27.9038090396362
20
-2.4168465361856
30
0
41
1
10
27.7462996984473
20
-2.39095457494261
30
0
41
1
10
27.5098112455901
20
-2.34718724516148
30
0
41
1
10
27.4309432704811
20
-2.33177704700014
30
0
41
1
10
27.2730932599453
20
-2.29933807692515
30
0
41
1
10
27.1940676651774
20
-2.282299378744
30
0
41
1
10
26.7991589858229
20
-2.19326124420562
30
0
41
1
10
26.4841622582456
20
-2.10978549816971
30
0
41
1
10
26.0115373940524
20
-1.96811062745519
30
0
41
1
10
25.8539745815718
20
-1.91814405548394
30
0
41
1
10
25.5385888691645
20
-1.81300843693148
30
0
41
1
10
25.3808192647998
20
-1.75776034588057
30
0
41
1
10
25.0647351669016
20
-1.64242299122259
30
0
41
1
10
24.9068554541439
20
-1.58252705249274
30
0
41
1
10
24.5914334954941
20
-1.45872764894293
30
0
41
1
10
24.4338535496794
20
-1.39481424590025
30
0
41
1
10
23.9611435496794
20
-1.19767537535952
30
0
41
1
10
23.6460855737695
20
-1.05896902772329
30
0
41
1
10
23.251036199232
20
-0.878881312005518
30
0
41
1
10
23.1719423721773
20
-0.842521944747176
30
0
41
1
10
23.0139462732122
20
-0.769343022684922
30
0
41
1
10
22.9350039253927
20
-0.732505327924343
30
0
41
1
10
22.698304319295
20
-0.621327960645317
30
0
41
1
10
22.5406718300474
20
-0.546329002530626
30
0
41
1
10
22.0678330954395
20
-0.31958989670386
30
0
41
1
10
21.7527102926666
20
-0.166058526151573
30
0
41
1
10
21.3577733124207
20
0.0264444792985898
30
0
41
1
10
21.2786954837008
20
0.064991982412181
30
0
41
1
10
21.1205916305498
20
0.141982490122985
30
0
41
1
10
20.88362057837
20
0.257259251895704
30
0
41
1
10
20.6470518347252
20
0.371598936423965
30
0
41
1
10
20.174056251021
20
0.598231415829218
30
0
41
1
10
19.8589124923597
20
0.746584997352528
30
0
41
1
10
19.4640115148743
20
0.926198481125624
30
0
41
1
10
19.3849830367348
20
0.961830368037084
30
0
41
1
10
19.2267983558536
20
1.03245049483985
30
0
41
1
10
19.1477076093119
20
1.06740915536523
30
0
41
1
10
18.9106728299373
20
1.17102241946427
30
0
41
1
10
18.7528520172794
20
1.23846589950213
30
0
41
1
10
18.2796475043622
20
1.43529287546099
30
0
41
1
10
17.9644867378262
20
1.55910306542381
30
0
41
1
10
17.5696371042565
20
1.70245541640605
30
0
41
1
10
17.4906239270172
20
1.73055850474728
30
0
41
1
10
17.3324842836582
20
1.78558515732641
30
0
41
1
10
17.2533280492472
20
1.81251813138758
30
0
41
1
10
17.016107137572
20
1.89132794888326
30
0
41
1
10
16.8581667330952
20
1.94126057630146
30
0
41
1
10
16.3845064203641
20
2.08266019697012
30
0
41
1
10
16.0689690986532
20
2.16576102452919
30
0
41
1
10
15.6736491743358
20
2.25430943856881
30
0
41
1
10
15.5945053957631
20
2.27125804485533
30
0
41
1
10
15.4362607530554
20
2.30355548242295
30
0
41
1
10
15.3571928019866
20
2.31889839629795
30
0
41
1
10
15.1201095779707
20
2.36248249089613
30
0
41
1
10
14.962217074798
20
2.38827862907598
30
0
41
1
10
14.4885808499291
20
2.45561556043751
30
0
41
1
10
14.172863275927
20
2.48710684608997
30
0
41
1
10
13.8562919886234
20
2.50475616783209
30
0
0
SPLINE
5
F5
100
AcDbEntity
8
1
62
256
6
ByLayer
370
18
48
1
60
0
100
AcDbSpline
70
4
71
3
72
16
73
12
40
0
40
0
40
0
40
0
40
0.249999999999998
40
0.249999999999998
40
0.374999999999997
40
0.374999999999997
40
0.499999999999997
40
0.499999999999997
40
0.749999999999999
40
0.749999999999999
40
1
40
1
40
1
40
1
41
1
10
13.8562919886233
20
2.50475616783209
30
0
41
1
10
13.8478205907547
20
2.50522846090661
30
0
41
1
10
13.8401172241986
20
2.50582059030546
30
0
41
1
10
13.8296864604597
20
2.50685474723406
30
0
41
1
10
13.8263931781213
20
2.50722575088881
30
0
41
1
10
13.8203949163274
20
2.50798940270559
30
0
41
1
10
13.817661507221
20
2.50838455352786
30
0
41
1
10
13.8102529124272
20
2.50960211228488
30
0
41
1
10
13.8063720271278
20
2.51046227640688
30
0
41
1
10
13.8012356513444
20
2.51213294592023
30
0
41
1
10
13.7998957702988
20
2.51296416487531
30
0
41
1
10
13.7998957702988
20
2.51374786459562
30
0
0
SPLINE
5
F6
100
AcDbEntity
8
1
62
256
6
ByLayer
370
18
48
1
60
0
100
AcDbSpline
70
4
71
3
72
56
73
52
40
0
40
0
40
0
40
0
40
0.0352811361588617
40
0.0352811361588617
40
0.0812201296751034
40
0.0812201296751034
40
0.104189626433225
40
0.104189626433225
40
0.127159123191347
40
0.127159123191347
40
0.173098116707592
40
0.173098116707592
40
0.219037110223837
40
0.219037110223837
40
0.264976103740082
40
0.264976103740082
40
0.287945600498204
40
0.287945600498204
40
0.310915097256325
40
0.310915097256325
40
0.35685409077257
40
0.35685409077257
40
0.402793084288815
40
0.402793084288815
40
0.44873207780506
40
0.44873207780506
40
0.494671071321305
40
0.494671071321305
40
0.54061006483755
40
0.54061006483755
40
0.632488051870042
40
0.632488051870042
40
0.655457548628165
40
0.655457548628165
40
0.678427045386288
40
0.678427045386288
40
0.70139654214441
40
0.70139654214441
40
0.724366038902533
40
0.724366038902533
40
0.816244025935027
40
0.816244025935027
40
0.839213522693148
40
0.839213522693148
40
0.86218301945127
40
0.86218301945127
40
0.908122012967513
40
0.908122012967513
40
0.954061006483757
40
0.954061006483757
40
1
40
1
40
1
40
1
41
1
10
18.7648041755271
20
2.40852904667338
30
0
41
1
10
18.8852510628126
20
2.42677129251698
30
0
41
1
10
19.0056571390738
20
2.44309242331073
30
0
41
1
10
19.2827465952331
20
2.47620215804653
30
0
41
1
10
19.439470947515
20
2.4915858490825
30
0
41
1
10
19.6751039973543
20
2.50944478035541
30
0
41
1
10
19.7537277343204
20
2.51453628497796
30
0
41
1
10
19.9111322339619
20
2.52300342484463
30
0
41
1
10
19.9898581036435
20
2.52637526988735
30
0
41
1
10
20.2257958898188
20
2.53390711994677
30
0
41
1
10
20.3828936131981
20
2.53549347954438
30
0
41
1
10
20.6967898766901
20
2.53180168890162
30
0
41
1
10
20.8535734559201
20
2.52652489866483
30
0
41
1
10
21.1668294277488
20
2.50896647282693
30
0
41
1
10
21.3233679943554
20
2.49667255363923
30
0
41
1
10
21.5587410464172
20
2.47321483193565
30
0
41
1
10
21.6372806678713
20
2.46456027212821
30
0
41
1
10
21.7945131401874
20
2.44558702642883
30
0
41
1
10
21.873247227808
20
2.43526194847288
30
0
41
1
10
22.1092446463828
20
2.40185118520506
30
0
41
1
10
22.2663614115747
20
2.37632805211018
30
0
41
1
10
22.5802039074232
20
2.31881730923015
30
0
41
1
10
22.7369446931449
20
2.28683241944614
30
0
41
1
10
23.0504328200567
20
2.21669699806358
30
0
41
1
10
23.2071642398061
20
2.17854103410008
30
0
41
1
10
23.5206220977905
20
2.09597598184146
30
0
41
1
10
23.6773812667826
20
2.0515790120082
30
0
41
1
10
23.991846063422
20
1.95763380414189
30
0
41
1
10
24.149022656158
20
1.90822513839055
30
0
41
1
10
24.6201235226864
20
1.75262286393533
30
0
41
1
10
24.9336975189673
20
1.63913724609816
30
0
41
1
10
25.325238801092
20
1.48506353097977
30
0
41
1
10
25.4035233518067
20
1.45362802638897
30
0
41
1
10
25.5602687282241
20
1.38988997053991
30
0
41
1
10
25.6387321624395
20
1.35759438058634
30
0
41
1
10
25.7958275233375
20
1.29213676978372
30
0
41
1
10
25.8744787928902
20
1.25896591508533
30
0
41
1
10
26.0316340567396
20
1.19188782068403
30
0
41
1
10
26.1101747951571
20
1.1579653936233
30
0
41
1
10
26.5027005114322
20
0.986454085146761
30
0
41
1
10
26.8161373685259
20
0.843134759498497
30
0
41
1
10
27.2084625854204
20
0.658724822918657
30
0
41
1
10
27.2869541987151
20
0.621580275205076
30
0
41
1
10
27.4440205088288
20
0.546823318467915
30
0
41
1
10
27.5226304922633
20
0.509193832379708
30
0
41
1
10
27.7582472864819
20
0.395873706593704
30
0
41
1
10
27.9150986281395
20
0.319714206025651
30
0
41
1
10
28.2287384951562
20
0.166967464950176
30
0
41
1
10
28.3855367282695
20
0.0904005302913902
30
0
41
1
10
28.6991233905195
20
-0.0630514311873185
30
0
41
1
10
28.8559095259975
20
-0.139941255071818
30
0
41
1
10
29.012743580215
20
-0.216884418160134
30
0
0
SPLINE
5
F7
100
AcDbEntity
8
1
62
256
6
ByLayer
370
18
48
1
60
0
100
AcDbSpline
70
4
71
3
72
11
73
7
40
0
40
0
40
0
40
0
40
0.25
40
0.25
40
0.5
40
1
40
1
40
1
40
1
41
1
10
29.0127435802072
20
-0.216884418163744
30
0
41
1
10
29.0157574066317
20
-0.188699538565288
30
0
41
1
10
29.0189360553119
20
-0.160390013149851
30
0
41
1
10
29.0255860922408
20
-0.104019086843039
30
0
41
1
10
29.0360169175148
20
-0.0196716189432777
30
0
41
1
10
29.0478806779761
20
0.0640449319281231
30
0
41
1
10
29.0564881015081
20
0.119569361319776
30
0
0
SPLINE
5
F8
100
AcDbEntity
8
1
62
256
6
ByLayer
370
18
48
1
60
0
100
AcDbSpline
70
4
71
3
72
60
73
56
40
0
40
0
40
0
40
0
40
0.0485177839603405
40
0.0485177839603405
40
0.0970355679206811
40
0.0970355679206811
40
0.121294459900851
40
0.121294459900851
40
0.145553351881022
40
0.145553351881022
40
0.194071135841362
40
0.194071135841362
40
0.218330027821532
40
0.218330027821532
40
0.242588919801703
40
0.242588919801703
40
0.266847811781873
40
0.266847811781873
40
0.291106703762043
40
0.291106703762043
40
0.339624487722388
40
0.339624487722388
40
0.388142271682733
40
0.388142271682733
40
0.436660055643078
40
0.436660055643078
40
0.485177839603422
40
0.485177839603422
40
0.533695623563767
40
0.533695623563767
40
0.582213407524111
40
0.582213407524111
40
0.630731191484456
40
0.630731191484456
40
0.679248975444801
40
0.679248975444801
40
0.703507867424973
40
0.703507867424973
40
0.727766759405146
40
0.727766759405146
40
0.77628454336549
40
0.77628454336549
40
0.800543435345662
40
0.800543435345662
40
0.824802327325833
40
0.824802327325833
40
0.873320111286176
40
0.873320111286176
40
0.921837895246518
40
0.921837895246518
40
0.946096787226689
40
0.946096787226689
40
0.970355679206861
40
0.970355679206861
40
1
40
1
40
1
40
1
41
1
10
29.0564881015072
20
0.119569361314575
30
0
41
1
10
28.9286873310704
20
0.182505747455735
30
0
41
1
10
28.801001218219
20
0.245259099000379
30
0
41
1
10
28.5455500156889
20
0.369778461171279
30
0
41
1
10
28.4178014475677
20
0.431579322984959
30
0
41
1
10
28.2261157505953
20
0.523541210148068
30
0
41
1
10
28.1622197413279
20
0.55409150949049
30
0
41
1
10
28.0344911584046
20
0.615112840955703
30
0
41
1
10
27.9706545421889
20
0.645575433642648
30
0
41
1
10
27.7790780776591
20
0.736518364739737
30
0
41
1
10
27.6512233759888
20
0.79645877948289
30
0
41
1
10
27.4591109796471
20
0.885095234250542
30
0
41
1
10
27.3949932811393
20
0.914445306737548
30
0
41
1
10
27.2668322763858
20
0.972613495063996
30
0
41
1
10
27.2027732516303
20
1.00142821623865
30
0
41
1
10
27.0747487901846
20
1.05861831438139
30
0
41
1
10
27.0107927633649
20
1.08701125296193
30
0
41
1
10
26.883004287935
20
1.14340764420038
30
0
41
1
10
26.8191606830863
20
1.17138962174889
30
0
41
1
10
26.6276242411672
20
1.25439750536566
30
0
41
1
10
26.4999213213424
20
1.30847993764931
30
0
41
1
10
26.2443832546293
20
1.4139736532679
30
0
41
1
10
26.1165051160382
20
1.46531503188456
30
0
41
1
10
25.8607722489115
20
1.56559407969979
30
0
41
1
10
25.7330193672777
20
1.61468750008373
30
0
41
1
10
25.4770352967936
20
1.70960790608186
30
0
41
1
10
25.3487777098964
20
1.75550169610258
30
0
41
1
10
25.0926340793964
20
1.84366875826223
30
0
41
1
10
24.9645945191029
20
1.88592571290286
30
0
41
1
10
24.7089684476165
20
1.96732882500507
30
0
41
1
10
24.5813631636383
20
2.00642833049622
30
0
41
1
10
24.325912743351
20
2.08057905459424
30
0
41
1
10
24.1981217190491
20
2.11570751009302
30
0
41
1
10
23.9422946827131
20
2.18197669877318
30
0
41
1
10
23.8142495447002
20
2.21311727430418
30
0
41
1
10
23.6222573374348
20
2.25707345835602
30
0
41
1
10
23.5582538207907
20
2.27124464250332
30
0
41
1
10
23.4301288226033
20
2.29851968648595
30
0
41
1
10
23.3660615243007
20
2.31161130842128
30
0
41
1
10
23.1739626246885
20
2.34921928420098
30
0
41
1
10
23.0459753185049
20
2.37208064667834
30
0
41
1
10
22.8540299835918
20
2.40304883527625
30
0
41
1
10
22.790057738372
20
2.4128209332051
30
0
41
1
10
22.6621956989665
20
2.43130204790958
30
0
41
1
10
22.5983187380136
20
2.44001738869173
30
0
41
1
10
22.4067473960245
20
2.46450850780443
30
0
41
1
10
22.279038314975
20
2.47858695073526
30
0
41
1
10
22.0233197574902
20
2.50213496869222
30
0
41
1
10
21.8953275716152
20
2.51161815617888
30
0
41
1
10
21.7031136254454
20
2.52241606252508
30
0
41
1
10
21.6390145386318
20
2.52544715365556
30
0
41
1
10
21.5108261559898
20
2.53037187977736
30
0
41
1
10
21.4467301782319
20
2.53226202689743
30
0
41
1
10
21.3044544657639
20
2.53515891392445
30
0
41
1
10
21.226246049375
20
2.53587786679657
30
0
41
1
10
21.1480552688976
20
2.53573149439981
30
0
0
SPLINE
5
F9
100
AcDbEntity
8
1
62
256
6
ByLayer
370
18
48
1
60
0
100
AcDbSpline
70
4
71
3
72
38
73
34
40
0
40
0
40
0
40
0
40
0.0031717871165403
40
0.0031717871165403
40
0.0484821604294213
40
0.0484821604294213
40
0.093792533742303
40
0.093792533742303
40
0.184413280368066
40
0.184413280368066
40
0.275034026993829
40
0.275034026993829
40
0.320344400306712
40
0.320344400306712
40
0.365654773619596
40
0.365654773619596
40
0.456275520245363
40
0.456275520245363
40
0.54689626687113
40
0.54689626687113
40
0.592206640184015
40
0.592206640184015
40
0.6375170134969
40
0.6375170134969
40
0.728137760122676
40
0.728137760122676
40
0.818758506748451
40
0.818758506748451
40
0.864068880061338
40
0.864068880061338
40
0.909379253374226
40
0.909379253374226
40
1
40
1
40
1
40
1
41
1
10
8.71644366640902
20
-1.8455287467979
30
0
41
1
10
8.71195889830787
20
-1.84699183693286
30
0
41
1
10
8.70747411384457
20
-1.84845284460675
30
0
41
1
10
8.63892196237791
20
-1.87075317073223
30
0
41
1
10
8.57486396583931
20
-1.89118772782391
30
0
41
1
10
8.44682578025504
20
-1.93131458536172
30
0
41
1
10
8.38283640303308
20
-1.95099292546763
30
0
41
1
10
8.19080008901389
20
-2.00865480641355
30
0
41
1
10
8.0626442306326
20
-2.0452156629419
30
0
41
1
10
7.80593510649058
20
-2.11443878780932
30
0
41
1
10
7.67726248221305
20
-2.14709075697084
30
0
41
1
10
7.48458039223072
20
-2.19309193249546
30
0
41
1
10
7.42041442800425
20
-2.20795616090518
30
0
41
1
10
7.29218812281712
20
-2.23671596375547
30
0
41
1
10
7.22811737230802
20
-2.25060034071095
30
0
41
1
10
7.0358705119024
20
-2.29061722860854
30
0
41
1
10
6.90767621030497
20
-2.31513314296663
30
0
41
1
10
6.65112291833958
20
-2.3598110809113
30
0
41
1
10
6.52273353837057
20
-2.3799562527478
30
0
41
1
10
6.33009901935117
20
-2.406966679069
30
0
41
1
10
6.26588891997457
20
-2.41543964015216
30
0
41
1
10
6.13742706730062
20
-2.43128868312158
30
0
41
1
10
6.07315803783808
20
-2.43866482439284
30
0
41
1
10
5.88048782884243
20
-2.45907867538898
30
0
41
1
10
5.75213631894377
20
-2.47041019678198
30
0
41
1
10
5.49550341966858
20
-2.48851400590718
30
0
41
1
10
5.36722596522054
20
-2.49529466815423
30
0
41
1
10
5.17498813606613
20
-2.5020532645994
30
0
41
1
10
5.11092897542878
20
-2.5037328475666
30
0
41
1
10
4.98274237649613
20
-2.50593180110786
30
0
41
1
10
4.91860770970979
20
-2.50645170947382
30
0
41
1
10
4.72605015181551
20
-2.5062909576483
30
0
41
1
10
4.59748063080576
20
-2.5038907375066
30
0
41
1
10
4.46866710651352
20
-2.49924196997748
30
0
0
SPLINE
5
FA
100
AcDbEntity
8
1
62
256
6
ByLayer
370
18
48
1
60
0
100
AcDbSpline
70
4
71
3
72
34
73
30
40
0
40
0
40
0
40
0
40
0.14650673338494
40
0.14650673338494
40
0.21976010007741
40
0.21976010007741
40
0.256386783423643
40
0.256386783423643
40
0.293013466769877
40
0.293013466769877
40
0.439520200154819
40
0.439520200154819
40
0.51277356684729
40
0.51277356684729
40
0.549400250193527
40
0.549400250193527
40
0.586026933539763
40
0.586026933539763
40
0.732533666924715
40
0.732533666924715
40
0.805787033617189
40
0.805787033617189
40
0.842413716963428
40
0.842413716963428
40
0.879040400309666
40
0.879040400309666
40
0.952293767002145
40
0.952293767002145
40
1
40
1
40
1
40
1
41
1
10
5.43237881467169
20
-0.491541757271733
30
0
41
1
10
5.78205368900996
20
-0.656927449556179
30
0
41
1
10
6.13043841338168
20
-0.81851283317576
30
0
41
1
10
6.65291441038943
20
-1.05156036894107
30
0
41
1
10
6.82710311675518
20
-1.12759706872953
30
0
41
1
10
7.08869791312031
20
-1.23868015023379
30
0
41
1
10
7.17593908957636
20
-1.27522932681552
30
0
41
1
10
7.35054743219254
20
-1.34729359504243
30
0
41
1
10
7.43796563731749
20
-1.38282406744804
30
0
41
1
10
7.87458181783683
20
-1.55730874246979
30
0
41
1
10
8.22267043027878
20
-1.68702896692483
30
0
41
1
10
8.74516438634075
20
-1.86345699214044
30
0
41
1
10
8.91937006750078
20
-1.91927353947051
30
0
41
1
10
9.18098344488013
20
-1.99814526277709
30
0
41
1
10
9.26824073164451
20
-2.02362438811579
30
0
41
1
10
9.44290528261007
20
-2.07289644708388
30
0
41
1
10
9.53024212935276
20
-2.09666937726797
30
0
41
1
10
9.96644505351884
20
-2.21091480559951
30
0
41
1
10
10.3143729097212
20
-2.28780483591939
30
0
41
1
10
10.8367896981462
20
-2.37951514440303
30
0
41
1
10
11.0110192612015
20
-2.40615130107076
30
0
41
1
10
11.2727098779014
20
-2.44002505456649
30
0
41
1
10
11.3600509844954
20
-2.45030604303202
30
0
41
1
10
11.5346341539271
20
-2.46877537888028
30
0
41
1
10
11.6218504522049
20
-2.47696295812096
30
0
41
1
10
11.883344739392
20
-2.4983698921848
30
0
41
1
10
12.0574740130419
20
-2.50843359402563
30
0
41
1
10
12.3448922434153
20
-2.51807483696515
30
0
41
1
10
12.4582257392396
20
-2.5200833326046
30
0
41
1
10
12.5715848639649
20
-2.52029375959816
30
0
0
SPLINE
5
FB
100
AcDbEntity
8
1
62
256
6
ByLayer
370
18
48
1
60
0
100
AcDbSpline
70
4
71
3
72
8
73
4
40
0
40
0
40
0
40
0
40
1
40
1
40
1
40
1
41
1
10
28.4069950718588
20
2.53035910120963
30
0
41
1
10
28.6117789317376
20
2.54275682373736
30
0
41
1
10
28.8168795441646
20
2.54931370696926
30
0
41
1
10
29.0225767415272
20
2.549899962121
30
0
0
SPLINE
5
FC
100
AcDbEntity
8
1
62
256
6
ByLayer
370
18
48
1
60
0
100
AcDbSpline
70
4
71
3
72
10
73
6
40
0
40
0
40
0
40
0
40
0.634641110147586
40
0.634641110147586
40
1
40
1
40
1
40
1
41
1
10
7.93465393667753
20
-1.56906293864836
30
0
41
1
10
7.19411264158731
20
-1.76355930396153
30
0
41
1
10
6.45790529696507
20
-1.9604873796811
30
0
41
1
10
5.30578274666658
20
-2.27158710326322
30
0
41
1
10
4.88646173638671
20
-2.38542661440033
30
0
41
1
10
4.46866710651292
20
-2.49924196997765
30
0
0
SPLINE
5
FD
100
AcDbEntity
8
1
62
256
6
ByLayer
370
18
48
1
60
0
100
AcDbSpline
70
4
71
3
72
96
73
92
40
0
40
0
40
0
40
0
40
0.0625000000000045
40
0.0625000000000045
40
0.125000000000009
40
0.125000000000009
40
0.187500000000013
40
0.187500000000013
40
0.218750000000016
40
0.218750000000016
40
0.250000000000018
40
0.250000000000018
40
0.28125000000002
40
0.28125000000002
40
0.296875000000022
40
0.296875000000022
40
0.312500000000024
40
0.312500000000024
40
0.343750000000028
40
0.343750000000028
40
0.35937500000003
40
0.35937500000003
40
0.367187500000031
40
0.367187500000031
40
0.375000000000032
40
0.375000000000032
40
0.406250000000035
40
0.406250000000035
40
0.414062500000036
40
0.414062500000036
40
0.421875000000036
40
0.437500000000038
40
0.453125000000039
40
0.453125000000039
40
0.46093750000004
40
0.46093750000004
40
0.46875000000004
40
0.484375000000042
40
0.484375000000042
40
0.492187500000043
40
0.492187500000043
40
0.500000000000043
40
0.500000000000043
40
0.531250000000044
40
0.531250000000044
40
0.546875000000046
40
0.546875000000046
40
0.554687500000046
40
0.554687500000046
40
0.562500000000047
40
0.562500000000047
40
0.593750000000046
40
0.593750000000046
40
0.625000000000045
40
0.625000000000045
40
0.640625000000045
40
0.640625000000045
40
0.656250000000044
40
0.656250000000044
40
0.687500000000044
40
0.687500000000044
40
0.718750000000043
40
0.718750000000043
40
0.734375000000042
40
0.734375000000042
40
0.742187500000042
40
0.746093750000042
40
0.746093750000042
40
0.748046875000041
40
0.748046875000041
40
0.75000000000004
40
0.75000000000004
40
0.75390625000004
40
0.75390625000004
40
0.75585937500004
40
0.75585937500004
40
0.75781250000004
40
0.75781250000004
40
0.76171875000004
40
0.76171875000004
40
0.76562500000004
40
0.76562500000004
40
0.781250000000038
40
0.781250000000038
40
0.812500000000033
40
0.812500000000033
40
0.875000000000022
40
0.875000000000022
40
0.937500000000011
40
0.937500000000011
40
1
40
1
40
1
40
1
41
1
10
4.4686685606099
20
-2.49924194361847
30
0
41
1
10
4.31993304379665
20
-2.49386088446016
30
0
41
1
10
4.17264511750477
20
-2.48532175553658
30
0
41
1
10
3.88144595934551
20
-2.4605745652394
30
0
41
1
10
3.73752886444137
20
-2.44438125138606
30
0
41
1
10
3.45382321188009
20
-2.40228982233131
30
0
41
1
10
3.31402021838949
20
-2.37642787329008
30
0
41
1
10
3.10838958821429
20
-2.3277879233664
30
0
41
1
10
3.04040835459247
20
-2.30987932047256
30
0
41
1
10
2.90699360794855
20
-2.27033274847045
30
0
41
1
10
2.84150271460163
20
-2.24869213686219
30
0
41
1
10
2.71344111681353
20
-2.20089572664654
30
0
41
1
10
2.65086571066507
20
-2.17474722117808
30
0
41
1
10
2.5597365924848
20
-2.13127486274357
30
0
41
1
10
2.52979434412049
20
-2.11605487152994
30
0
41
1
10
2.47140567666165
20
-2.0842478235526
30
0
41
1
10
2.44290520131747
20
-2.06763724449348
30
0
41
1
10
2.35972848694243
20
-2.01543383213823
30
0
41
1
10
2.30734505875466
20
-1.97750143868913
30
0
41
1
10
2.23478233455484
20
-1.91446406628378
30
0
41
1
10
2.21160347306378
20
-1.89242178546917
30
0
41
1
10
2.17861639767713
20
-1.85754084881799
30
0
41
1
10
2.16791838455714
20
-1.84561013723498
30
0
41
1
10
2.14717456602278
20
-1.82108357056356
30
0
41
1
10
2.13711008280083
20
-1.80845960371352
30
0
41
1
10
2.08905900397014
20
-1.74417019711285
30
0
41
1
10
2.05747406416043
20
-1.6886875056791
30
0
41
1
10
2.02895802776254
20
-1.6128866362281
30
0
41
1
10
2.02380244696232
20
-1.59738058309841
30
0
41
1
10
2.0147074491947
20
-1.56575576816965
30
0
41
1
10
2.00300455022719
20
-1.51781189445208
30
0
41
1
10
1.99327729673601
20
-1.43535912040534
30
0
41
1
10
1.99618994867998
20
-1.36663267772121
30
0
41
1
10
2.00252577741142
20
-1.31402430837468
30
0
41
1
10
2.00534278351472
20
-1.29627233108459
30
0
41
1
10
2.01225697054951
20
-1.26098202854297
30
0
41
1
10
2.0245643914682
20
-1.20816847133989
30
0
41
1
10
2.04238776154932
20
-1.15570843365165
30
0
41
1
10
2.06357417994457
20
-1.10347200861833
30
0
41
1
10
2.07119761923889
20
-1.08609717923207
30
0
41
1
10
2.08752317522732
20
-1.05142059937702
30
0
41
1
10
2.09622627222672
20
-1.03412528816375
30
0
41
1
10
2.14176337058711
20
-0.948826265828387
30
0
41
1
10
2.184962984934
20
-0.883465000691388
30
0
41
1
10
2.25725729742044
20
-0.788647984740209
30
0
41
1
10
2.2826213438002
20
-0.757586729174847
30
0
41
1
10
2.32234591899675
20
-0.711721252195957
30
0
41
1
10
2.33588924398927
20
-0.696531421601151
30
0
41
1
10
2.36333871886376
20
-0.666561158447308
30
0
41
1
10
2.37725692847309
20
-0.651765381103132
30
0
41
1
10
2.44773971443607
20
-0.578660176828265
30
0
41
1
10
2.50695019359378
20
-0.522943461703875
30
0
41
1
10
2.62964157556343
20
-0.415713147697943
30
0
41
1
10
2.69313404368344
20
-0.364210727897699
30
0
41
1
10
2.79094893562868
20
-0.289504008413928
30
0
41
1
10
2.8239862314521
20
-0.265029122128567
30
0
41
1
10
2.89084640316807
20
-0.21685766784347
30
0
41
1
10
2.92469423482899
20
-0.193144380917744
30
0
41
1
10
3.02713404917978
20
-0.123201154715019
30
0
41
1
10
3.09651907165429
20
-0.078225328999963
30
0
41
1
10
3.23711341765201
20
0.0089619842768798
30
0
41
1
10
3.30833691255415
20
0.0511769285683101
30
0
41
1
10
3.41617995121595
20
0.112623392535369
30
0
41
1
10
3.4523038355569
20
0.132796720878872
30
0
41
1
10
3.50671836933424
20
0.16261602534027
30
0
41
1
10
3.53398371866419
20
0.177415924439202
30
0
41
1
10
3.56133079134412
20
0.192055468993431
30
0
41
1
10
3.57501760547714
20
0.199348899109481
30
0
41
1
10
3.57956255334727
20
0.201824378921316
30
0
41
1
10
3.58891236342805
20
0.206221771611553
30
0
41
1
10
3.59375087726062
20
0.208106036281038
30
0
41
1
10
3.60843417100736
20
0.212782545999971
30
0
41
1
10
3.61850956912741
20
0.214484038321558
30
0
41
1
10
3.6339053607241
20
0.215639739017121
30
0
41
1
10
3.63906842180566
20
0.215716494576725
30
0
41
1
10
3.64929080018993
20
0.215457467337274
30
0
41
1
10
3.65437798839739
20
0.215128525685913
30
0
41
1
10
3.66955770832092
20
0.213461559428538
30
0
41
1
10
3.67957358454691
20
0.211486524291559
30
0
41
1
10
3.69944421305701
20
0.206196467373729
30
0
41
1
10
3.70920648569026
20
0.202933354563385
30
0
41
1
10
3.75821600061312
20
0.187409854039771
30
0
41
1
10
3.79735406339185
20
0.174759898731793
30
0
41
1
10
3.91454529233931
20
0.136137104210036
30
0
41
1
10
3.99238570960443
20
0.109485871063867
30
0
41
1
10
4.22498057643338
20
0.0269707450052579
30
0
41
1
10
4.37867269847601
20
-0.031423834056568
30
0
41
1
10
4.68362820918782
20
-0.154153028797481
30
0
41
1
10
4.83492293859979
20
-0.218485019028407
30
0
41
1
10
5.1354030198039
20
-0.351930324927736
30
0
41
1
10
5.28438048981607
20
-0.420944498587062
30
0
41
1
10
5.43238609474705
20
-0.491543829772098
30
0
0
SPLINE
5
FE
100
AcDbEntity
8
SK1
62
256
6
ByLayer
370
18
48
1
60
0
100
AcDbSpline
70
4
71
3
72
8
73
4
40
0
40
0
40
0
40
0
40
1
40
1
40
1
40
1
41
1
10
-35.75
20
-0.930886237518024
30
0
41
1
10
-35.8336521191246
20
-0.871020695442127
30
0
41
1
10
-35.9170266075599
20
-0.810979660379246
30
0
41
1
10
-36
20
-0.750685088740624
30
0
0
SPLINE
5
FF
100
AcDbEntity
8
SK1
62
256
6
ByLayer
370
18
48
1
60
0
100
AcDbSpline
70
4
71
3
72
22
73
18
40
0
40
0
40
0
40
0
40
0.0625000000000007
40
0.0625000000000007
40
0.125000000000001
40
0.125000000000001
40
0.250000000000001
40
0.250000000000001
40
0.375000000000001
40
0.375000000000001
40
0.500000000000001
40
0.500000000000001
40
0.625000000000001
40
0.625000000000001
40
0.75
40
0.75
40
1
40
1
40
1
40
1
41
1
10
-35.65
20
-1.09638198128172
30
0
41
1
10
-35.65
20
-1.09246647296035
30
0
41
1
10
-35.6502718586019
20
-1.08838766723537
30
0
41
1
10
-35.6512913504498
20
-1.08013806393305
30
0
41
1
10
-35.652030658643
20
-1.07599762808601
30
0
41
1
10
-35.6548298230237
20
-1.06353643793048
30
0
41
1
10
-35.6575061245997
20
-1.05508688951818
30
0
41
1
10
-35.6638376796887
20
-1.03877684404247
30
0
41
1
10
-35.6674983282837
20
-1.03085276664694
30
0
41
1
10
-35.6756151818521
20
-1.01537573233489
30
0
41
1
10
-35.6800682064548
20
-1.00785097470097
30
0
41
1
10
-35.6893906957631
20
-0.993571917540947
30
0
41
1
10
-35.6942952881823
20
-0.98675210294337
30
0
41
1
10
-35.7045485857552
20
-0.973690173725458
30
0
41
1
10
-35.7099306774388
20
-0.967414432335403
30
0
41
1
10
-35.7265024515808
20
-0.949718101924674
30
0
41
1
10
-35.7380004903212
20
-0.939473672708942
30
0
41
1
10
-35.7500000000001
20
-0.930886237517996
30
0
0
SPLINE
5
100
100
AcDbEntity
8
SK1
62
256
6
ByLayer
370
18
48
1
60
0
100
AcDbSpline
70
4
71
3
72
22
73
18
40
0
40
0
40
0
40
0
40
0.250000000000001
40
0.250000000000001
40
0.375
40
0.375
40
0.5
40
0.5
40
0.625
40
0.625
40
0.75
40
0.75
40
0.875
40
0.875
40
0.9375
40
0.9375
40
1
40
1
40
1
40
1
41
1
10
-35.75
20
-2.03479038065726
30
0
41
1
10
-35.7379956523282
20
-2.04338127815231
30
0
41
1
10
-35.7264866986603
20
-2.050557174077
30
0
41
1
10
-35.7098921057741
20
-2.05928332108476
30
0
41
1
10
-35.7045257065493
20
-2.06181390092903
30
0
41
1
10
-35.6942964893128
20
-2.06601681220448
30
0
41
1
10
-35.6894060316865
20
-2.06770453616542
30
0
41
1
10
-35.6801144608566
20
-2.07015748583717
30
0
41
1
10
-35.675696410489
20
-2.0709265086831
30
0
41
1
10
-35.6675285377628
20
-2.07130595734316
30
0
41
1
10
-35.6638529491705
20
-2.07091793974644
30
0
41
1
10
-35.6575076548176
20
-2.06870643254626
30
0
41
1
10
-35.6548318331324
20
-2.06685342005153
30
0
41
1
10
-35.6520304488211
20
-2.06276791220083
30
0
41
1
10
-35.65129058319
20
-2.06118580240349
30
0
41
1
10
-35.650270741394
20
-2.05750013378747
30
0
41
1
10
-35.65
20
-2.05540937112647
30
0
41
1
10
-35.65
20
-2.05309890533559
30
0
0
SPLINE
5
101
100
AcDbEntity
8
SK1
62
256
6
ByLayer
370
18
48
1
60
0
100
AcDbSpline
70
4
71
3
72
8
73
4
40
0
40
0
40
0
40
0
40
1
40
1
40
1
40
1
41
1
10
-36
20
-1.85458923187971
30
0
41
1
10
-35.9170336465662
20
-1.91487868845846
30
0
41
1
10
-35.8336484329241
20
-1.9749274766063
30
0
41
1
10
-35.7499999999999
20
-2.03479038065714
30
0
0
SPLINE
5
102
100
AcDbEntity
8
1
62
256
6
ByLayer
370
18
48
1
60
0
100
AcDbSpline
70
4
71
2
72
6
73
3
40
0
40
0
40
0
40
1
40
1
40
1
41
1
10
13.8507558660815
20
-2.3939754519422
30
0
41
1
10
13.8253779966007
20
-2.39847290184312
30
0
41
1
10
13.8000038211542
20
-2.40284327049568
30
0
0
SPLINE
5
103
100
AcDbEntity
8
1
62
256
6
ByLayer
370
18
48
1
60
0
100
AcDbSpline
70
4
71
3
72
18
73
14
40
0
40
0
40
0
40
0
40
0.139862755539109
40
0.258218978114743
40
0.349749056580512
40
0.423130462605415
40
0.493909046788496
40
0.584266061570274
40
0.687800836362651
40
0.775792594919083
40
0.852085048742383
40
0.927005907030635
40
1
40
1
40
1
40
1
41
1
10
13.9002389411553
20
-2.39479706807643
30
0
41
1
10
14.126631988486
20
-2.39578205584209
30
0
41
1
10
14.5448238916961
20
-2.39728673897125
30
0
41
1
10
15.1120729352632
20
-2.39763588321489
30
0
41
1
10
15.5714589016925
20
-2.39870056288234
30
0
41
1
10
15.9536985844796
20
-2.39963843179635
30
0
41
1
10
16.3340042830317
20
-2.40017374784537
30
0
41
1
10
16.7632520379511
20
-2.40067759246961
30
0
41
1
10
17.2203894101181
20
-2.40271412826994
30
0
41
1
10
17.6547323937641
20
-2.40297658893226
30
0
41
1
10
18.0426741873501
20
-2.40270123808318
30
0
41
1
10
18.40622258592
20
-2.40359090069524
30
0
41
1
10
18.6461951491045
20
-2.40399805184399
30
0
41
1
10
18.7645472405767
20
-2.40427047206489
30
0
0
SPLINE
5
104
100
AcDbEntity
8
1
62
256
6
ByLayer
370
18
48
1
60
0
100
AcDbSpline
70
4
71
3
72
12
73
8
40
0
40
0
40
0
40
0
40
0.13490435107338
40
0.286378581473655
40
0.478894725212061
40
0.728920025840415
40
1
40
1
40
1
40
1
41
1
10
28.7172307649375
20
0.53896568390968
30
0
41
1
10
28.5901728995901
20
0.580744223950887
30
0
41
1
10
28.320828378401
20
0.670446600338693
30
0
41
1
10
27.8718390422194
20
0.824275244774839
30
0
41
1
10
27.316685745056
20
1.01980878539663
30
0
41
1
10
26.6524566510391
20
1.26207920843609
30
0
41
1
10
26.1700972000667
20
1.44576311556923
30
0
41
1
10
25.9198667222971
20
1.54310988839649
30
0
0
SPLINE
5
105
100
AcDbEntity
8
1
62
256
6
ByLayer
370
18
48
1
60
0
100
AcDbSpline
70
4
71
3
72
29
73
25
40
0
40
0
40
0
40
0
40
2.70499289955E-05
40
7.1310576076E-05
40
0.0001138908179314
40
0.0002636199625607
40
0.0003933646777077
40
0.0005208976699019
40
0.001372797286367
40
0.0020269122454136
40
0.0032075479100297
40
0.0053559195059359
40
0.0093201513656623
40
0.0168068640555735
40
0.0314762770900037
40
0.0613755268194624
40
0.113183793651902
40
0.195058391515791
40
0.292610996228428
40
0.386756534044646
40
0.50568496419735
40
0.654122668907166
40
0.832007099175581
40
1
40
1
40
1
40
1
41
1
10
14.0896011364541
20
-0.0003548548092454
30
0
41
1
10
14.0896071433122
20
-0.0003546342773575
30
0
41
1
10
14.0896178683467
20
-0.0003525387799641
30
0
41
1
10
14.0896098223154
20
-0.0003418000597435
30
0
41
1
10
14.0894946844541
20
-0.0002919701015855
30
0
41
1
10
14.0892411014456
20
-0.0001977281718837
30
0
41
1
10
14.0887483272224
20
-3.54739644308E-05
30
0
41
1
10
14.0871344154963
20
0.0004592032130972
30
0
41
1
10
14.084624209299
20
0.0011884858812437
30
0
41
1
10
14.0806323468294
20
0.0023894249530656
30
0
41
1
10
14.0746672094737
20
0.0041694239582455
30
0
41
1
10
14.0637738824955
20
0.0074291714826131
30
0
41
1
10
14.0434420436557
20
0.0135081210397345
30
0
41
1
10
14.0044018085836
20
0.0251885750065242
30
0
41
1
10
13.9265901063241
20
0.0484916090074421
30
0
41
1
10
13.7826144405992
20
0.0917557387917611
30
0
41
1
10
13.5380918847929
20
0.165759360197427
30
0
41
1
10
13.1911022992184
20
0.272916005232304
30
0
41
1
10
12.782009141746
20
0.402680108412426
30
0
41
1
10
12.3185920769705
20
0.553767444081785
30
0
41
1
10
11.7809463063967
20
0.734301913600234
30
0
41
1
10
11.1213284822812
20
0.963978795241701
30
0
41
1
10
10.3923817845867
20
1.22822361587464
30
0
41
1
10
9.88544580769246
20
1.42107191056508
30
0
41
1
10
9.63991147199343
20
1.51652766872718
30
0
0
SPLINE
5
106
100
AcDbEntity
8
1
62
256
6
ByLayer
370
18
48
1
60
0
100
AcDbSpline
70
4
71
2
72
6
73
3
40
0
40
0
40
0
40
1
40
1
40
1
41
1
10
13.8000038211542
20
2.40284327049622
30
0
41
1
10
13.9560188650093
20
2.37597172708675
30
0
41
1
10
14.1121735617754
20
2.34429587890003
30
0
0
SPLINE
5
107
100
AcDbEntity
8
1
62
256
6
ByLayer
370
18
48
1
60
0
100
AcDbSpline
70
4
71
3
72
20
73
16
40
0
40
0
40
0
40
0
40
0.112067366990118
40
0.196406649522294
40
0.277947975691231
40
0.358887931764299
40
0.424782003351653
40
0.491882414754605
40
0.5692725484221
40
0.660333008991067
40
0.739803422658025
40
0.802054299110434
40
0.866594398253175
40
0.947096539854559
40
1
40
1
40
1
40
1
41
1
10
20.392335075609
20
2.40709714357428
30
0
41
1
10
20.1862285154075
20
2.40734881243708
30
0
41
1
10
19.8248681509287
20
2.40733888741397
30
0
41
1
10
19.3127462391312
20
2.40605729804994
30
0
41
1
10
18.8583799030168
20
2.40434055775592
30
0
41
1
10
18.4370855216995
20
2.40366642736558
30
0
41
1
10
18.0426741873496
20
2.40270123808318
30
0
41
1
10
17.6547323937637
20
2.40297658893226
30
0
41
1
10
17.2203894101179
20
2.40271412826994
30
0
41
1
10
16.7632520379508
20
2.40067759246961
30
0
41
1
10
16.3340042830315
20
2.40017374784537
30
0
41
1
10
15.9536985844793
20
2.39963843179635
30
0
41
1
10
15.5714589016923
20
2.39870056288234
30
0
41
1
10
15.2064670817132
20
2.39785465247601
30
0
41
1
10
14.9604656992049
20
2.39758712501202
30
0
41
1
10
14.8629267203354
20
2.39747004795041
30
0
0
LINE
5
82
100
AcDbEntity
8
4
62
256
6
ByLayer
370
18
48
0.05
60
0
100
AcDbLine
10
0
20
0
30
0
11
30
21
0
31
0
39
0
210
0
220
0
230
1
0
LINE
5
84
100
AcDbEntity
8
81
62
256
6
ByLayer
370
18
48
1
60
0
100
AcDbLine
10
30
20
0
30
0
11
33
21
0
31
0
39
0
210
0
220
0
230
1
0
LINE
5
85
100
AcDbEntity
8
80
62
256
6
ByLayer
370
18
48
1
60
0
100
AcDbLine
10
0
20
0
30
0
11
-3
21
0
31
0
39
0
210
0
220
0
230
1
0
LINE
5
86
100
AcDbEntity
8
SK4
62
256
6
ByLayer
370
18
48
0.05
60
0
100
AcDbLine
10
-39
20
0
30
0
11
33
21
0
31
0
39
0
210
0
220
0
230
1
0
LINE
5
88
100
AcDbEntity
8
1
62
256
6
ByLayer
370
18
48
1
60
0
100
AcDbLine
10
0
20
3
30
0
11
0
21
-3
31
0
39
0
210
0
220
0
230
1
0
LINE
5
89
100
AcDbEntity
8
1
62
256
6
ByLayer
370
13
48
1
60
0
100
AcDbLine
10
13.857864
20
-2.388508
30
0
11
13.857119
21
-2.388933
31
0
39
0
210
0
220
0
230
1
0
LINE
5
8A
100
AcDbEntity
8
1
62
256
6
ByLayer
370
13
48
1
60
0
100
AcDbLine
10
29.938183
20
0.287735
30
0
11
29.347936
21
0.821699
31
0
39
0
210
0
220
0
230
1
0
LINE
5
8B
100
AcDbEntity
8
1
62
256
6
ByLayer
370
18
48
1
60
0
100
AcDbLine
10
13.900236
20
-2.394916
30
0
11
13.900227
21
-2.395347
31
0
39
0
210
0
220
0
230
1
0
LINE
5
8C
100
AcDbEntity
8
1
62
256
6
ByLayer
370
13
48
1
60
0
100
AcDbLine
10
0.581062
20
-2.749879
30
0
11
0.581062
21
2.749879
31
0
39
0
210
0
220
0
230
1
0
LINE
5
8D
100
AcDbEntity
8
1
62
256
6
ByLayer
370
18
48
1
60
0
100
AcDbLine
10
13.799896
20
-2.522505
30
0
11
13.799896
21
-0.905907
31
0
39
0
210
0
220
0
230
1
0
LINE
5
8E
100
AcDbEntity
8
1
62
256
6
ByLayer
370
18
48
1
60
0
100
AcDbLine
10
13.799896
20
2.463094
30
0
11
13.799896
21
2.452473
31
0
39
0
210
0
220
0
230
1
0
LINE
5
8F
100
AcDbEntity
8
1
62
256
6
ByLayer
370
18
48
1
60
0
100
AcDbLine
10
13.799896
20
2.522505
30
0
11
13.799896
21
2.513748
31
0
39
0
210
0
220
0
230
1
0
LINE
5
90
100
AcDbEntity
8
1
62
256
6
ByLayer
370
13
48
1
60
0
100
AcDbLine
10
1.163564
20
-2.49976
30
0
11
1.163564
21
2.49976
31
0
39
0
210
0
220
0
230
1
0
LINE
5
91
100
AcDbEntity
8
SK1
62
256
6
ByLayer
370
18
48
1
60
0
100
AcDbLine
10
-36
20
-0.750645
30
0
11
-36
21
-1.854589
31
0
39
0
210
0
220
0
230
1
0
LINE
5
93
100
AcDbEntity
8
SK1
62
256
6
ByLayer
370
13
48
1
60
0
100
AcDbLine
10
-35.75
20
-2.03479
30
0
11
-35.75
21
-0.930864
31
0
39
0
210
0
220
0
230
1
0
LINE
5
94
100
AcDbEntity
8
SK1
62
256
6
ByLayer
370
18
48
1
60
0
100
AcDbLine
10
-36
20
2.065
30
0
11
-36
21
-0.750685
31
0
39
0
210
0
220
0
230
1
0
LINE
5
95
100
AcDbEntity
8
SK1
62
256
6
ByLayer
370
18
48
1
60
0
100
AcDbLine
10
-35.65
20
-2.053099
30
0
11
-35.65
21
-1.096382
31
0
39
0
210
0
220
0
230
1
0
LINE
5
96
100
AcDbEntity
8
SK1
62
256
6
ByLayer
370
18
48
1
60
0
100
AcDbLine
10
-36
20
-2.065
30
0
11
-36
21
-1.854589
31
0
39
0
210
0
220
0
230
1
0
LINE
5
97
100
AcDbEntity
8
SK1
62
256
6
ByLayer
370
18
48
1
60
0
100
AcDbLine
10
0
20
3
30
0
11
0
21
-3
31
0
39
0
210
0
220
0
230
1
0
LINE
5
98
100
AcDbEntity
8
SK1
62
256
6
ByLayer
370
18
48
1
60
0
100
AcDbLine
10
-35.065
20
-3
30
0
11
-35.065
21
3
31
0
39
0
210
0
220
0
230
1
0
LINE
5
99
100
AcDbEntity
8
1
62
256
6
ByLayer
370
18
48
1
60
0
100
AcDbLine
10
1.163564
20
-2.49976
30
0
11
4.842024
21
-2.506381
31
0
39
0
210
0
220
0
230
1
0
LINE
5
9A
100
AcDbEntity
8
1
62
256
6
ByLayer
370
18
48
1
60
0
100
AcDbLine
10
12.571786
20
-2.520294
30
0
11
13.799896
21
-2.522505
31
0
39
0
210
0
220
0
230
1
0
LINE
5
9B
100
AcDbEntity
8
1
62
256
6
ByLayer
370
18
48
1
60
0
100
AcDbLine
10
20.393053
20
-2.534373
30
0
11
21.147745
21
-2.535731
31
0
39
0
210
0
220
0
230
1
0
LINE
5
9C
100
AcDbEntity
8
1
62
256
6
ByLayer
370
18
48
1
60
0
100
AcDbLine
10
21.147745
20
2.535731
30
0
11
20.393053
21
2.534373
31
0
39
0
210
0
220
0
230
1
0
LINE
5
9D
100
AcDbEntity
8
1
62
256
6
ByLayer
370
18
48
1
60
0
100
AcDbLine
10
13.799896
20
2.522505
30
0
11
12.571786
21
2.520294
31
0
39
0
210
0
220
0
230
1
0
LINE
5
9E
100
AcDbEntity
8
1
62
256
6
ByLayer
370
18
48
1
60
0
100
AcDbLine
10
4.842024
20
2.506381
30
0
11
1.163564
21
2.49976
31
0
39
0
210
0
220
0
230
1
0
LINE
5
9F
100
AcDbEntity
8
SK1
62
256
6
ByLayer
370
18
48
1
60
0
100
AcDbLine
10
-36
20
-2.065
30
0
11
-35.065
21
-3
31
0
39
0
210
0
220
0
230
1
0
LINE
5
A0
100
AcDbEntity
8
SK1
62
256
6
ByLayer
370
18
48
1
60
0
100
AcDbLine
10
-35.065
20
3
30
0
11
-36
21
2.065
31
0
39
0
210
0
220
0
230
1
0
LINE
5
A1
100
AcDbEntity
8
SK1
62
256
6
ByLayer
370
18
48
1
60
0
100
AcDbLine
10
-35.065
20
-3
30
0
11
0
21
-3
31
0
39
0
210
0
220
0
230
1
0
LINE
5
A2
100
AcDbEntity
8
SK1
62
256
6
ByLayer
370
18
48
1
60
0
100
AcDbLine
10
0
20
3
30
0
11
-35.065
21
3
31
0
39
0
210
0
220
0
230
1
0
LINE
5
A3
100
AcDbEntity
8
2
62
256
6
ByLayer
370
13
48
1
60
0
100
AcDbLine
10
37.5
20
26.099199
30
0
11
37.5
21
-10.05
31
0
39
0
210
0
220
0
230
1
0
LINE
5
A5
100
AcDbEntity
8
2
62
256
6
ByLayer
370
13
48
1
60
0
100
AcDbLine
10
31.5875
20
2.55
30
0
11
39.5
21
2.55
31
0
39
0
210
0
220
0
230
1
0
LINE
5
A6
100
AcDbEntity
8
2
62
256
6
ByLayer
370
13
48
1
60
0
100
AcDbLine
10
31.5875
20
-2.55
30
0
11
39.5
21
-2.55
31
0
39
0
210
0
220
0
230
1
0
LINE
5
A7
100
AcDbEntity
8
1
62
256
6
ByLayer
370
18
48
1
60
1
100
AcDbLine
10
37.5
20
2.55
30
0
11
37.039216
21
6.049998
31
0
39
0
210
0
220
0
230
1
0
LINE
5
A8
100
AcDbEntity
8
1
62
256
6
ByLayer
370
18
48
1
60
1
100
AcDbLine
10
37.039216
20
6.049998
30
0
11
37.960784
21
6.050002
31
0
39
0
210
0
220
0
230
1
0
LINE
5
A9
100
AcDbEntity
8
1
62
256
6
ByLayer
370
18
48
1
60
1
100
AcDbLine
10
37.960784
20
6.050002
30
0
11
37.5
21
2.55
31
0
39
0
210
0
220
0
230
1
0
LINE
5
AA
100
AcDbEntity
8
1
62
256
6
ByLayer
370
18
48
1
60
1
100
AcDbLine
10
37.5
20
-2.55
30
0
11
37.960784
21
-6.049998
31
0
39
0
210
0
220
0
230
1
0
LINE
5
AB
100
AcDbEntity
8
1
62
256
6
ByLayer
370
18
48
1
60
1
100
AcDbLine
10
37.960784
20
-6.049998
30
0
11
37.039216
21
-6.050002
31
0
39
0
210
0
220
0
230
1
0
LINE
5
AC
100
AcDbEntity
8
1
62
256
6
ByLayer
370
18
48
1
60
1
100
AcDbLine
10
37.039216
20
-6.050002
30
0
11
37.5
21
-2.55
31
0
39
0
210
0
220
0
230
1
0
LINE
5
AD
100
AcDbEntity
8
SK2
62
256
6
ByLayer
370
13
48
1
60
0
100
AcDbLine
10
-44.5
20
13.841828
30
0
11
-44.5
21
-10.5
31
0
39
0
210
0
220
0
230
1
0
LINE
5
AF
100
AcDbEntity
8
SK2
62
256
6
ByLayer
370
13
48
1
60
0
100
AcDbLine
10
-37.5875
20
3
30
0
11
-46.5
21
3
31
0
39
0
210
0
220
0
230
1
0
LINE
5
B0
100
AcDbEntity
8
SK2
62
256
6
ByLayer
370
13
48
1
60
0
100
AcDbLine
10
-37.5875
20
-3
30
0
11
-46.5
21
-3
31
0
39
0
210
0
220
0
230
1
0
LINE
5
B1
100
AcDbEntity
8
1
62
256
6
ByLayer
370
18
48
1
60
1
100
AcDbLine
10
-44.5
20
3
30
0
11
-44.960784
21
6.499998
31
0
39
0
210
0
220
0
230
1
0
LINE
5
B2
100
AcDbEntity
8
1
62
256
6
ByLayer
370
18
48
1
60
1
100
AcDbLine
10
-44.960784
20
6.499998
30
0
11
-44.039216
21
6.500002
31
0
39
0
210
0
220
0
230
1
0
LINE
5
B3
100
AcDbEntity
8
1
62
256
6
ByLayer
370
18
48
1
60
1
100
AcDbLine
10
-44.039216
20
6.500002
30
0
11
-44.5
21
3
31
0
39
0
210
0
220
0
230
1
0
LINE
5
B4
100
AcDbEntity
8
1
62
256
6
ByLayer
370
18
48
1
60
1
100
AcDbLine
10
-44.5
20
-3
30
0
11
-44.039216
21
-6.499998
31
0
39
0
210
0
220
0
230
1
0
LINE
5
B5
100
AcDbEntity
8
1
62
256
6
ByLayer
370
18
48
1
60
1
100
AcDbLine
10
-44.039216
20
-6.499998
30
0
11
-44.960784
21
-6.500002
31
0
39
0
210
0
220
0
230
1
0
LINE
5
B6
100
AcDbEntity
8
1
62
256
6
ByLayer
370
18
48
1
60
1
100
AcDbLine
10
-44.960784
20
-6.500002
30
0
11
-44.5
21
-3
31
0
39
0
210
0
220
0
230
1
0
LINE
5
B7
100
AcDbEntity
8
SK2
62
256
6
ByLayer
370
13
48
1
60
0
100
AcDbLine
10
30.542893
20
1.491785
30
0
11
36.759607
21
18.57435
31
0
39
0
210
0
220
0
230
1
0
LINE
5
B8
100
AcDbEntity
8
SK2
62
256
6
ByLayer
370
13
48
1
60
0
100
AcDbLine
10
30.542893
20
-1.491785
30
0
11
36.759607
21
-18.57435
31
0
39
0
210
0
220
0
230
1
0
LINE
5
B9
100
AcDbEntity
8
1
62
256
6
ByLayer
370
18
48
1
60
1
100
AcDbLine
10
36.075647
20
16.694935
30
0
11
39.480559
21
15.762796
31
0
39
0
210
0
220
0
230
1
0
LINE
5
BA
100
AcDbEntity
8
1
62
256
6
ByLayer
370
18
48
1
60
1
100
AcDbLine
10
39.480559
20
15.762796
30
0
11
39.123287
21
14.9133
31
0
39
0
210
0
220
0
230
1
0
LINE
5
BB
100
AcDbEntity
8
1
62
256
6
ByLayer
370
18
48
1
60
1
100
AcDbLine
10
39.123287
20
14.9133
30
0
11
36.075647
21
16.694935
31
0
39
0
210
0
220
0
230
1
0
LINE
5
BC
100
AcDbEntity
8
1
62
256
6
ByLayer
370
18
48
1
60
1
100
AcDbLine
10
36.075647
20
-16.694935
30
0
11
39.123284
21
-14.913302
31
0
39
0
210
0
220
0
230
1
0
LINE
5
BD
100
AcDbEntity
8
1
62
256
6
ByLayer
370
18
48
1
60
1
100
AcDbLine
10
39.123284
20
-14.913302
30
0
11
39.480562
21
-15.762795
31
0
39
0
210
0
220
0
230
1
0
LINE
5
BE
100
AcDbEntity
8
1
62
256
6
ByLayer
370
18
48
1
60
1
100
AcDbLine
10
39.480562
20
-15.762795
30
0
11
36.075647
21
-16.694935
31
0
39
0
210
0
220
0
230
1
0
LINE
5
108
100
AcDbEntity
8
1
62
256
6
ByLayer
370
13
48
0.05
60
0
100
AcDbLine
10
-42.5
20
0
30
0
11
35.575557
21
0
31
0
39
0
210
0
220
0
230
1
0
LINE
5
10D
100
AcDbEntity
8
1
62
256
6
ByLayer
370
18
48
1
60
1
100
AcDbLine
10
37.5
20
2.55
30
0
11
37.039216
21
6.049998
31
0
39
0
210
0
220
0
230
1
0
LINE
5
10E
100
AcDbEntity
8
1
62
256
6
ByLayer
370
18
48
1
60
1
100
AcDbLine
10
37.039216
20
6.049998
30
0
11
37.960784
21
6.050002
31
0
39
0
210
0
220
0
230
1
0
LINE
5
10F
100
AcDbEntity
8
1
62
256
6
ByLayer
370
18
48
1
60
1
100
AcDbLine
10
37.960784
20
6.050002
30
0
11
37.5
21
2.55
31
0
39
0
210
0
220
0
230
1
0
LINE
5
111
100
AcDbEntity
8
1
62
256
6
ByLayer
370
18
48
1
60
1
100
AcDbLine
10
37.5
20
-2.55
30
0
11
37.960784
21
-6.049998
31
0
39
0
210
0
220
0
230
1
0
LINE
5
112
100
AcDbEntity
8
1
62
256
6
ByLayer
370
18
48
1
60
1
100
AcDbLine
10
37.960784
20
-6.049998
30
0
11
37.039216
21
-6.050002
31
0
39
0
210
0
220
0
230
1
0
LINE
5
113
100
AcDbEntity
8
1
62
256
6
ByLayer
370
18
48
1
60
1
100
AcDbLine
10
37.039216
20
-6.050002
30
0
11
37.5
21
-2.55
31
0
39
0
210
0
220
0
230
1
0
LINE
5
117
100
AcDbEntity
8
1
62
256
6
ByLayer
370
18
48
1
60
1
100
AcDbLine
10
-44.5
20
3
30
0
11
-44.960784
21
6.499998
31
0
39
0
210
0
220
0
230
1
0
LINE
5
118
100
AcDbEntity
8
1
62
256
6
ByLayer
370
18
48
1
60
1
100
AcDbLine
10
-44.960784
20
6.499998
30
0
11
-44.039216
21
6.500002
31
0
39
0
210
0
220
0
230
1
0
LINE
5
119
100
AcDbEntity
8
1
62
256
6
ByLayer
370
18
48
1
60
1
100
AcDbLine
10
-44.039216
20
6.500002
30
0
11
-44.5
21
3
31
0
39
0
210
0
220
0
230
1
0
LINE
5
11B
100
AcDbEntity
8
1
62
256
6
ByLayer
370
18
48
1
60
1
100
AcDbLine
10
-44.5
20
-3
30
0
11
-44.039216
21
-6.499998
31
0
39
0
210
0
220
0
230
1
0
LINE
5
11C
100
AcDbEntity
8
1
62
256
6
ByLayer
370
18
48
1
60
1
100
AcDbLine
10
-44.039216
20
-6.499998
30
0
11
-44.960784
21
-6.500002
31
0
39
0
210
0
220
0
230
1
0
LINE
5
11D
100
AcDbEntity
8
1
62
256
6
ByLayer
370
18
48
1
60
1
100
AcDbLine
10
-44.960784
20
-6.500002
30
0
11
-44.5
21
-3
31
0
39
0
210
0
220
0
230
1
0
LINE
5
120
100
AcDbEntity
8
1
62
256
6
ByLayer
370
18
48
1
60
1
100
AcDbLine
10
36.075647
20
16.694935
30
0
11
39.480559
21
15.762796
31
0
39
0
210
0
220
0
230
1
0
LINE
5
121
100
AcDbEntity
8
1
62
256
6
ByLayer
370
18
48
1
60
1
100
AcDbLine
10
39.480559
20
15.762796
30
0
11
39.123287
21
14.9133
31
0
39
0
210
0
220
0
230
1
0
LINE
5
122
100
AcDbEntity
8
1
62
256
6
ByLayer
370
18
48
1
60
1
100
AcDbLine
10
39.123287
20
14.9133
30
0
11
36.075647
21
16.694935
31
0
39
0
210
0
220
0
230
1
0
LINE
5
124
100
AcDbEntity
8
1
62
256
6
ByLayer
370
18
48
1
60
1
100
AcDbLine
10
36.075647
20
-16.694935
30
0
11
39.123284
21
-14.913302
31
0
39
0
210
0
220
0
230
1
0
LINE
5
125
100
AcDbEntity
8
1
62
256
6
ByLayer
370
18
48
1
60
1
100
AcDbLine
10
39.123284
20
-14.913302
30
0
11
39.480562
21
-15.762795
31
0
39
0
210
0
220
0
230
1
0
LINE
5
126
100
AcDbEntity
8
1
62
256
6
ByLayer
370
18
48
1
60
1
100
AcDbLine
10
39.480562
20
-15.762795
30
0
11
36.075647
21
-16.694935
31
0
39
0
210
0
220
0
230
1
0
MTEXT
5
109
100
AcDbEntity
8
2
62
256
6
ByLayer
370
18
48
1
60
0
100
AcDbMText
10
36.158886
20
16.208437
30
0
210
0
220
0
230
1
1
%%c
40
3
41
0
44
1.084337
50
90
71
7
72
5
7
iso_b_vert
0
MTEXT
5
10C
100
AcDbEntity
8
2
62
256
6
ByLayer
370
18
48
1
60
0
100
AcDbMText
10
36.158886
20
22.185
30
0
210
0
220
0
230
1
1
\W0.6883;5.1
40
3
41
0
44
1.084337
50
90
71
7
72
5
7
iso_b_vert
0
MTEXT
5
115
100
AcDbEntity
8
SK2
62
256
6
ByLayer
370
18
48
1
60
0
100
AcDbMText
10
-45.841114
20
6.658437
30
0
210
0
220
0
230
1
1
%%c
40
3
41
0
44
1.084337
50
90
71
7
72
5
7
iso_b_vert
0
MTEXT
5
116
100
AcDbEntity
8
SK2
62
256
6
ByLayer
370
18
48
1
60
0
100
AcDbMText
10
-45.841114
20
12.635
30
0
210
0
220
0
230
1
1
\W0.5404;6
40
3
41
0
44
1.084337
50
90
71
7
72
5
7
iso_b_vert
0
MTEXT
5
11F
100
AcDbEntity
8
SK2
62
256
6
ByLayer
370
18
48
1
60
0
100
AcDbMText
10
44.325445
20
-2.114886
30
0
210
0
220
0
230
1
1
\W0.7071;140%%d
40
3
41
0
44
1.084337
50
0
71
7
72
5
7
iso_b_vert
0
MTEXT
5
128
100
AcDbEntity
8
SK6
62
256
6
ByLayer
370
18
48
1
60
0
100
AcDbMText
10
-27.657831
20
-77.114886
30
0
210
0
220
0
230
1
1
\W0.7307;860.1-0510-016A1-SD S2BM
40
3
41
0
44
1.084337
50
0
71
7
72
5
7
iso_b_vert
0
HATCH
5
110
100
AcDbEntity
8
2
62
256
6
ByLayer
370
13
48
1
60
0
100
AcDbHatch
10
0
20
0
30
0
210
0
220
0
230
1
2
ANSI31
70
0
71
0
91
1
92
5
93
3
72
1
10
37.5
20
2.54999999999998
11
37.0392162584472
21
6.0499983074468
72
1
10
37.0392162584472
20
6.0499983074468
11
37.9607837415528
21
6.05000169255317
72
1
10
37.9607837415528
20
6.05000169255317
11
37.5
21
2.54999999999998
97
0
75
0
76
1
52
0
41
0.0062
77
0
78
1
53
45
43
0
44
0
45
-0.0139193969876572
46
0.0139193969876572
79
0
47
0
98
1
10
0
20
0
0
HATCH
5
114
100
AcDbEntity
8
2
62
256
6
ByLayer
370
13
48
1
60
0
100
AcDbHatch
10
0
20
0
30
0
210
0
220
0
230
1
2
ANSI31
70
0
71
0
91
1
92
5
93
3
72
1
10
37.5
20
-2.55000000000001
11
37.9607837415528
21
-6.04999830744683
72
1
10
37.9607837415528
20
-6.04999830744683
11
37.0392162584472
21
-6.0500016925532
72
1
10
37.0392162584472
20
-6.0500016925532
11
37.5
21
-2.55000000000001
97
0
75
0
76
1
52
0
41
0.0062
77
0
78
1
53
45
43
0
44
0
45
-0.0139193969876572
46
0.0139193969876572
79
0
47
0
98
1
10
0
20
0
0
HATCH
5
11A
100
AcDbEntity
8
SK2
62
256
6
ByLayer
370
13
48
1
60
0
100
AcDbHatch
10
0
20
0
30
0
210
0
220
0
230
1
2
ANSI31
70
0
71
0
91
1
92
5
93
3
72
1
10
-44.5
20
3
11
-44.9607837415528
21
6.49999830744682
72
1
10
-44.9607837415528
20
6.49999830744682
11
-44.0392162584472
21
6.50000169255318
72
1
10
-44.0392162584472
20
6.50000169255318
11
-44.5
21
3
97
0
75
0
76
1
52
0
41
0.0062
77
0
78
1
53
45
43
0
44
0
45
-0.0139193969876572
46
0.0139193969876572
79
0
47
0
98
1
10
0
20
0
0
HATCH
5
11E
100
AcDbEntity
8
SK2
62
256
6
ByLayer
370
13
48
1
60
0
100
AcDbHatch
10
0
20
0
30
0
210
0
220
0
230
1
2
ANSI31
70
0
71
0
91
1
92
5
93
3
72
1
10
-44.5
20
-3
11
-44.0392162584472
21
-6.49999830744682
72
1
10
-44.0392162584472
20
-6.49999830744682
11
-44.9607837415528
21
-6.50000169255318
72
1
10
-44.9607837415528
20
-6.50000169255318
11
-44.5
21
-3
97
0
75
0
76
1
52
0
41
0.0062
77
0
78
1
53
45
43
0
44
0
45
-0.0139193969876572
46
0.0139193969876572
79
0
47
0
98
1
10
0
20
0
0
HATCH
5
123
100
AcDbEntity
8
SK2
62
256
6
ByLayer
370
13
48
1
60
0
100
AcDbHatch
10
0
20
0
30
0
210
0
220
0
230
1
2
ANSI31
70
0
71
0
91
1
92
5
93
3
72
1
10
36.075647085489
20
16.694935418101
11
39.4805592072274
21
15.762796344867
72
1
10
39.4805592072274
20
15.762796344867
11
39.1232871926628
21
14.9133004157784
72
1
10
39.1232871926628
20
14.9133004157784
11
36.075647085489
21
16.694935418101
97
0
75
0
76
1
52
0
41
0.0062
77
0
78
1
53
45
43
0
44
0
45
-0.0139193969876572
46
0.0139193969876572
79
0
47
0
98
1
10
0
20
0
0
HATCH
5
127
100
AcDbEntity
8
SK2
62
256
6
ByLayer
370
13
48
1
60
0
100
AcDbHatch
10
0
20
0
30
0
210
0
220
0
230
1
2
ANSI31
70
0
71
0
91
1
92
5
93
3
72
1
10
36.0756470854889
20
-16.694935418101
11
39.1232840722947
21
-14.9133017281234
72
1
10
39.1232840722947
20
-14.9133017281234
11
39.4805623275951
21
-15.7627950325222
72
1
10
39.4805623275951
20
-15.7627950325222
11
36.0756470854889
21
-16.694935418101
97
0
75
0
76
1
52
0
41
0.0062
77
0
78
1
53
45
43
0
44
0
45
-0.0139193969876572
46
0.0139193969876572
79
0
47
0
98
1
10
0
20
0
0
DIMENSION
5
12B
100
AcDbEntity
8
SK2
62
256
6
ByLayer
370
18
48
1
60
0
100
AcDbDimension
2
_U0
10
13.8
20
-18.062769
30
0
11
21.9
21
-18.062769
31
0
70
32
71
1
72
1
41
1
210
0
220
0
230
1
3
Standard
100
AcDbAlignedDimension
13
30
23
-2.55
33
0
14
13.8
24
-2.55
34
0
50
0
100
AcDbRotatedDimension
1001
ACAD
1000
DSTYLE
1002
{
1070
   371
1070
    13
1070
   372
1070
    13
1070
   170
1070
     0
1070
   144
1040
1.0
1070
   277
1070
     2
1070
   284
1070
     8
1070
   278
1070
    46
1070
   146
1040
1.166667
1070
   345
1005
16
1070
   347
1005
16
1070
   346
1005
16
1070
   344
1005
0
1070
   343
1005
0
1070
   172
1070
     1
1070
    76
1070
     0
1070
    75
1070
     0
1070
   282
1070
     0
1070
   281
1070
     0
1070
     3
1000

1070
    71
1070
     0
1070
    74
1070
     0
1070
   279
1070
     0
1070
   173
1070
     1
1070
   340
1005
10A
1070
   271
1070
     2
1070
   272
1070
     2
1070
    77
1070
     1
1070
    73
1070
     1
1070
   171
1070
     3
1070
   274
1070
     4
1070
   177
1070
     2
1070
   176
1070
     2
1070
   178
1070
     2
1070
    78
1070
     8
1070
    48
1040
-0.1
1070
    41
1040
3.5
1070
   147
1040
1.5
1070
    42
1040
1.5875
1070
    44
1040
2.0
1070
   140
1040
3.0
1002
}
1001
ACAD_DSTYLE_DIM_LINETYPE
1070
   380
1005
16
1001
ACAD_DSTYLE_DIM_EXT1_LINETYPE
1070
   381
1005
16
1001
ACAD_DSTYLE_DIM_EXT2_LINETYPE
1070
   382
1005
16
0
DIMENSION
5
146
100
AcDbEntity
8
SK2
62
256
6
ByLayer
370
18
48
1
60
0
100
AcDbDimension
2
_U1
10
2
20
-28.062769
30
0
11
16
21
-28.062769
31
0
70
32
71
1
72
1
41
1
210
0
220
0
230
1
3
Standard
100
AcDbAlignedDimension
13
30
23
-2.55
33
0
14
2
24
-2.55
34
0
50
0
100
AcDbRotatedDimension
1001
ACAD
1000
DSTYLE
1002
{
1070
   371
1070
    13
1070
   372
1070
    13
1070
     3
1000

1070
   170
1070
     0
1070
   144
1040
1.0
1070
   277
1070
     2
1070
   284
1070
     8
1070
   278
1070
    46
1070
   146
1040
1.166667
1070
   345
1005
16
1070
   347
1005
16
1070
   346
1005
16
1070
   344
1005
0
1070
   343
1005
0
1070
   172
1070
     1
1070
    76
1070
     0
1070
    75
1070
     0
1070
   282
1070
     0
1070
   281
1070
     0
1070
    71
1070
     0
1070
    74
1070
     0
1070
   279
1070
     0
1070
   173
1070
     1
1070
   340
1005
10A
1070
   271
1070
     2
1070
   272
1070
     2
1070
    77
1070
     1
1070
    73
1070
     1
1070
   171
1070
     3
1070
   274
1070
     4
1070
   177
1070
     2
1070
   176
1070
     2
1070
   178
1070
     2
1070
    78
1070
     8
1070
    48
1040
-0.1
1070
    41
1040
3.5
1070
   147
1040
1.5
1070
    42
1040
1.5875
1070
    44
1040
2.0
1070
   140
1040
3.0
1002
}
1001
ACAD_DSTYLE_DIM_LINETYPE
1070
   380
1005
16
1001
ACAD_DSTYLE_DIM_EXT1_LINETYPE
1070
   381
1005
16
1001
ACAD_DSTYLE_DIM_EXT2_LINETYPE
1070
   382
1005
16
0
DIMENSION
5
15E
100
AcDbEntity
8
SK2
62
256
6
ByLayer
370
18
48
1
60
0
100
AcDbDimension
2
_U2
10
0
20
-36.062769
30
0
11
-18
21
-36.062769
31
0
70
32
71
1
72
1
41
1
210
0
220
0
230
1
3
Standard
100
AcDbAlignedDimension
13
-36
23
-3
33
0
14
0
24
-3
34
0
50
0
100
AcDbRotatedDimension
1001
ACAD
1000
DSTYLE
1002
{
1070
   371
1070
    13
1070
   372
1070
    13
1070
     3
1000

1070
   170
1070
     0
1070
   144
1040
1.0
1070
   277
1070
     2
1070
   284
1070
     8
1070
   278
1070
    46
1070
   146
1040
1.166667
1070
   345
1005
16
1070
   347
1005
16
1070
   346
1005
16
1070
   344
1005
0
1070
   343
1005
0
1070
   172
1070
     1
1070
    76
1070
     0
1070
    75
1070
     0
1070
   282
1070
     0
1070
   281
1070
     0
1070
    71
1070
     0
1070
    74
1070
     0
1070
   279
1070
     0
1070
   173
1070
     1
1070
   340
1005
10A
1070
   271
1070
     2
1070
   272
1070
     2
1070
    77
1070
     1
1070
    73
1070
     1
1070
   171
1070
     3
1070
   274
1070
     4
1070
   177
1070
     2
1070
   176
1070
     2
1070
   178
1070
     2
1070
    78
1070
     8
1070
    48
1040
-0.1
1070
    41
1040
3.5
1070
   147
1040
1.5
1070
    42
1040
1.5875
1070
    44
1040
2.0
1070
   140
1040
3.0
1002
}
1001
ACAD_DSTYLE_DIM_LINETYPE
1070
   380
1005
16
1001
ACAD_DSTYLE_DIM_EXT1_LINETYPE
1070
   381
1005
16
1001
ACAD_DSTYLE_DIM_EXT2_LINETYPE
1070
   382
1005
16
0
DIMENSION
5
176
100
AcDbEntity
8
SK2
62
256
6
ByLayer
370
18
48
1
60
0
100
AcDbDimension
2
_U3
10
30
20
-44.062769
30
0
11
-3
21
-44.062769
31
0
70
32
71
1
72
1
41
1
210
0
220
0
230
1
3
Standard
100
AcDbAlignedDimension
13
-36
23
-3
33
0
14
30
24
-2.55
34
0
50
0
100
AcDbRotatedDimension
1001
ACAD
1000
DSTYLE
1002
{
1070
   371
1070
    13
1070
   372
1070
    13
1070
     3
1000

1070
   170
1070
     0
1070
   144
1040
1.0
1070
   277
1070
     2
1070
   284
1070
     8
1070
   278
1070
    46
1070
   146
1040
1.166667
1070
   345
1005
16
1070
   347
1005
16
1070
   346
1005
16
1070
   344
1005
0
1070
   343
1005
0
1070
   172
1070
     1
1070
    76
1070
     0
1070
    75
1070
     0
1070
   282
1070
     0
1070
   281
1070
     0
1070
    71
1070
     0
1070
    74
1070
     0
1070
   279
1070
     0
1070
   173
1070
     1
1070
   340
1005
10A
1070
   271
1070
     2
1070
   272
1070
     2
1070
    77
1070
     1
1070
    73
1070
     1
1070
   171
1070
     3
1070
   274
1070
     4
1070
   177
1070
     2
1070
   176
1070
     2
1070
   178
1070
     2
1070
    78
1070
     8
1070
    48
1040
-0.1
1070
    41
1040
3.5
1070
   147
1040
1.5
1070
    42
1040
1.5875
1070
    44
1040
2.0
1070
   140
1040
3.0
1002
}
1001
ACAD_DSTYLE_DIM_LINETYPE
1070
   380
1005
16
1001
ACAD_DSTYLE_DIM_EXT1_LINETYPE
1070
   381
1005
16
1001
ACAD_DSTYLE_DIM_EXT2_LINETYPE
1070
   382
1005
16
0
DIMENSION
5
18E
100
AcDbEntity
8
2
62
256
6
ByLayer
370
18
48
1
60
0
100
AcDbDimension
2
_U4
10
0
20
-36.062769
30
0
11
15
21
-36.062769
31
0
70
32
71
1
72
1
41
1
210
0
220
0
230
1
3
Standard
100
AcDbAlignedDimension
13
30
23
-2.55
33
0
14
0
24
-2.55
34
0
50
0
100
AcDbRotatedDimension
1001
ACAD
1000
DSTYLE
1002
{
1070
   371
1070
    13
1070
   372
1070
    13
1070
     3
1000

1070
   170
1070
     0
1070
   144
1040
1.0
1070
   277
1070
     2
1070
   284
1070
     8
1070
   278
1070
    46
1070
   146
1040
1.166667
1070
   345
1005
16
1070
   347
1005
16
1070
   346
1005
16
1070
   344
1005
0
1070
   343
1005
0
1070
   172
1070
     1
1070
    76
1070
     0
1070
    75
1070
     0
1070
   282
1070
     0
1070
   281
1070
     0
1070
    71
1070
     0
1070
    74
1070
     0
1070
   279
1070
     0
1070
   173
1070
     1
1070
   340
1005
10A
1070
   271
1070
     2
1070
   272
1070
     2
1070
    77
1070
     1
1070
    73
1070
     1
1070
   171
1070
     3
1070
   274
1070
     4
1070
   177
1070
     2
1070
   176
1070
     2
1070
   178
1070
     2
1070
    78
1070
     8
1070
    48
1040
-0.1
1070
    41
1040
3.5
1070
   147
1040
1.5
1070
    42
1040
1.5875
1070
    44
1040
2.0
1070
   140
1040
3.0
1002
}
1001
ACAD_DSTYLE_DIM_LINETYPE
1070
   380
1005
16
1001
ACAD_DSTYLE_DIM_EXT1_LINETYPE
1070
   381
1005
16
1001
ACAD_DSTYLE_DIM_EXT2_LINETYPE
1070
   382
1005
16
0
ENDSEC
0
SECTION
2
OBJECTS
0
DICTIONARY
5
216
330
0
100
AcDbDictionary
280
0
281
1
3
ACAD_GROUP
350
217
3
ACAD_MLINESTYLE
350
218
0
DICTIONARY
5
217
330
0
100
AcDbDictionary
280
0
281
1
0
DICTIONARY
5
218
330
0
100
AcDbDictionary
280
0
281
1
3
Standard
350
18
0
MLINESTYLE
5
18
330
218
100
AcDbMlineStyle
2
Standard
70
0
3

62
256
51
90
52
90
71
2
49
-0.5
62
256
6
ByLayer
49
0.5
62
256
6
ByLayer
0
RASTERVARIABLES
5
204
330

100
AcDbRasterVariables
90
0
70
1
71
1
72
1
0
ENDSEC
0
EOF
