0
SECTION
2
HEADER
9
$ACADVER
1
AC1015
9
$DWGCODEPAGE
3
ANSI_1252
9
$HANDSEED
5
232
9
$ANGBASE
50
0
9
$ANGDIR
70
0
9
$ATTMODE
70
1
9
$AUNITS
70
0
9
$AUPREC
70
0
9
$CECOLOR
62
256
9
$CELTSCALE
40
1
9
$CELTYPE
6
ByLayer
9
$CELWEIGHT
370
18
9
$CLAYER
8
0
9
$CMLJUST
70
0
9
$CMLSCALE
40
1
9
$CMLSTYLE
2
Standard
9
$DIMSTYLE
2
Standard
9
$TEXTSIZE
40
0.2
9
$TEXTSTYLE
7
Standard
9
$LUNITS
70
2
9
$LUPREC
70
4
9
$EXTNAMES
290
1
9
$INSUNITS
70
4
9
$LTSCALE
40
1
9
$LWDISPLAY
290
1
9
$PDMODE
70
0
9
$PDSIZE
40
0
9
$PLINEGEN
70
0
0
ENDSEC
0
SECTION
2
CLASSES
0
CLASS
1
RASTERVARIABLES
2
AcDbRasterVariables
3
ISM
90
0
280
0
281
0
0
ENDSEC
0
SECTION
2
TABLES
0
TABLE
2
VPORT
5
228
100
AcDbSymbolTable
0
VPORT
5
1
100
AcDbSymbolTableRecord
100
AcDbViewportTableRecord
2
*Active
70
0
10
0
20
0
11
1
21
1
12
-1
22
1
13
0
23
0
14
0.5
24
0.5
15
10
25
10
16
0
26
0
36
1
17
0
27
0
37
0
0
ENDTAB
0
TABLE
2
LTYPE
5
229
100
AcDbSymbolTable
0
LTYPE
5
14
100
AcDbSymbolTableRecord
100
AcDbLinetypeTableRecord
70
0
2
ByBlock
3

72
65
73
0
40
0
0
LTYPE
5
15
100
AcDbSymbolTableRecord
100
AcDbLinetypeTableRecord
70
0
2
ByLayer
3

72
65
73
0
40
0
0
LTYPE
5
16
100
AcDbSymbolTableRecord
100
AcDbLinetypeTableRecord
70
0
2
Continuous
3
Solid line
72
65
73
0
40
0
0
LTYPE
5
6E
100
AcDbSymbolTableRecord
100
AcDbLinetypeTableRecord
70
0
2
CENTER
3
____ _ ____ _ ____ _ ____
72
65
73
4
40
47.5
49
22
74
0
49
-8.5
74
0
49
8.5
74
0
49
-8.5
74
0
0
LTYPE
5
6F
100
AcDbSymbolTableRecord
100
AcDbLinetypeTableRecord
70
0
2
DASHED
3
__ __ __ __ __ __ __ __ __
72
65
73
2
40
25.72
49
12.86
74
0
49
-12.86
74
0
0
ENDTAB
0
TABLE
2
LAYER
5
22a
100
AcDbSymbolTable
0
LAYER
5
10
100
AcDbSymbolTableRecord
100
AcDbLayerTableRecord
2
0
70
0
62
7
6
Continuous
290
1
370
-3
390
0
0
LAYER
5
71
100
AcDbSymbolTableRecord
100
AcDbLayerTableRecord
2
80
70
0
62
-6
6
Continuous
290
1
370
-3
390
0
0
LAYER
5
73
100
AcDbSymbolTableRecord
100
AcDbLayerTableRecord
2
81
70
0
62
-3
6
Continuous
290
1
370
-3
390
0
0
LAYER
5
75
100
AcDbSymbolTableRecord
100
AcDbLayerTableRecord
2
1
70
0
62
4
6
Continuous
290
1
370
-3
390
0
0
LAYER
5
83
100
AcDbSymbolTableRecord
100
AcDbLayerTableRecord
2
4
70
0
62
-2
6
CENTER
290
1
370
-3
390
0
0
LAYER
5
A6
100
AcDbSymbolTableRecord
100
AcDbLayerTableRecord
2
2
70
0
62
7
6
Continuous
290
1
370
-3
390
0
0
LAYER
5
13D
100
AcDbSymbolTableRecord
100
AcDbLayerTableRecord
2
Defpoints
70
0
62
7
6
Continuous
290
0
370
-3
390
0
0
LAYER
5
214
100
AcDbSymbolTableRecord
100
AcDbLayerTableRecord
2
SK4
70
0
62
2
6
CENTER
290
1
370
-3
390
0
0
LAYER
5
215
100
AcDbSymbolTableRecord
100
AcDbLayerTableRecord
2
SK1
70
0
62
4
6
Continuous
290
1
370
-3
390
0
0
LAYER
5
216
100
AcDbSymbolTableRecord
100
AcDbLayerTableRecord
2
SK2
70
0
62
7
6
Continuous
290
1
370
-3
390
0
0
LAYER
5
217
100
AcDbSymbolTableRecord
100
AcDbLayerTableRecord
2
SK6
70
0
62
5
6
Continuous
290
1
370
-3
390
0
0
ENDTAB
0
TABLE
2
STYLE
5
22b
100
AcDbSymbolTable
0
STYLE
5
11
100
AcDbSymbolTableRecord
100
AcDbTextStyleTableRecord
2
Standard
3
txt
70
0
71
0
40
0
41
1
42
0
50
0
0
STYLE
5
119
100
AcDbSymbolTableRecord
100
AcDbTextStyleTableRecord
2
iso_b_vert
3
simplex.shx
70
0
71
0
40
0
41
1
42
0
50
0
0
STYLE
5
11A
100
AcDbSymbolTableRecord
100
AcDbTextStyleTableRecord
2
DWGDirectTextStyle
3
simplex
70
0
71
0
40
0
41
1
42
0
50
0
0
ENDTAB
0
TABLE
2
DIMSTYLE
5
22c
100
AcDbSymbolTable
100
AcDbDimStyleTable
0
DIMSTYLE
105
27
100
AcDbSymbolTableRecord
100
AcDbDimStyleTableRecord
2
Standard
70
0
3
<>
41
0.18
42
0.0625
44
0.18
140
0.18
147
0.09
73
0
74
0
77
1
271
2
275
0
278
52
280
0
340
11
0
ENDTAB
0
TABLE
2
VIEW
5
22d
100
AcDbSymbolTable
0
ENDTAB
0
TABLE
2
UCS
5
22e
100
AcDbSymbolTable
0
ENDTAB
0
TABLE
2
APPID
5
22f
100
AcDbSymbolTable
0
APPID
5
12
100
AcDbSymbolTableRecord
100
AcDbRegAppTableRecord
2
ACAD
70
0
0
APPID
5
139
100
AcDbSymbolTableRecord
100
AcDbRegAppTableRecord
2
ACAD_DSTYLE_DIMBREAK
70
0
0
APPID
5
1D3
100
AcDbSymbolTableRecord
100
AcDbRegAppTableRecord
2
ACAD_DSTYLE_DIM_LINETYPE
70
0
0
APPID
5
1D4
100
AcDbSymbolTableRecord
100
AcDbRegAppTableRecord
2
ACAD_DSTYLE_DIM_EXT1_LINETYPE
70
0
0
APPID
5
1D5
100
AcDbSymbolTableRecord
100
AcDbRegAppTableRecord
2
ACAD_DSTYLE_DIM_EXT2_LINETYPE
70
0
0
APPID
5
210
100
AcDbSymbolTableRecord
100
AcDbRegAppTableRecord
2
ACAD_MLEADERVER
70
0
0
ENDTAB
0
TABLE
2
BLOCK_RECORD
5
230
100
AcDbSymbolTable
0
BLOCK_RECORD
5
1F
100
AcDbSymbolTableRecord
100
AcDbBlockTableRecord
2
*Model_Space
340
0
70
0
0
BLOCK_RECORD
5
1B
100
AcDbSymbolTableRecord
100
AcDbBlockTableRecord
2
*Paper_Space
340
0
70
0
0
BLOCK_RECORD
5
23
100
AcDbSymbolTableRecord
100
AcDbBlockTableRecord
2
*Paper_Space0
340
0
70
0
0
BLOCK_RECORD
5
13E
100
AcDbSymbolTableRecord
100
AcDbBlockTableRecord
2
*D1
340
0
70
0
0
BLOCK_RECORD
5
14A
100
AcDbSymbolTableRecord
100
AcDbBlockTableRecord
2
_U0
340
0
70
0
0
BLOCK_RECORD
5
158
100
AcDbSymbolTableRecord
100
AcDbBlockTableRecord
2
*D3
340
0
70
0
0
BLOCK_RECORD
5
164
100
AcDbSymbolTableRecord
100
AcDbBlockTableRecord
2
_U1
340
0
70
0
0
BLOCK_RECORD
5
170
100
AcDbSymbolTableRecord
100
AcDbBlockTableRecord
2
*D5
340
0
70
0
0
BLOCK_RECORD
5
17C
100
AcDbSymbolTableRecord
100
AcDbBlockTableRecord
2
_U2
340
0
70
0
0
BLOCK_RECORD
5
188
100
AcDbSymbolTableRecord
100
AcDbBlockTableRecord
2
*D7
340
0
70
0
0
BLOCK_RECORD
5
194
100
AcDbSymbolTableRecord
100
AcDbBlockTableRecord
2
_U3
340
0
70
0
0
BLOCK_RECORD
5
1A0
100
AcDbSymbolTableRecord
100
AcDbBlockTableRecord
2
*D9
340
0
70
0
0
BLOCK_RECORD
5
1AC
100
AcDbSymbolTableRecord
100
AcDbBlockTableRecord
2
_U4
340
0
70
0
0
ENDTAB
0
ENDSEC
0
SECTION
2
BLOCKS
0
BLOCK
5
20
100
AcDbEntity
8
0
100
AcDbBlockBegin
2
*Model_Space
70
0
10
0
20
0
30
0
3
*Model_Space
0
ENDBLK
5
21
100
AcDbEntity
8
0
100
AcDbBlockEnd
0
BLOCK
5
1C
100
AcDbEntity
8
0
100
AcDbBlockBegin
2
*Paper_Space
70
0
10
0
20
0
30
0
3
*Paper_Space
0
ENDBLK
5
1D
100
AcDbEntity
8
0
100
AcDbBlockEnd
0
BLOCK
5
24
100
AcDbEntity
8
0
100
AcDbBlockBegin
2
*Paper_Space0
70
0
10
0
20
0
30
0
3
*Paper_Space0
0
ENDBLK
5
25
100
AcDbEntity
8
0
100
AcDbBlockEnd
0
BLOCK
5
13F
100
AcDbEntity
8
0
100
AcDbBlockBegin
2
*D1
70
1
10
0
20
0
30
0
3
*D1
0
LINE
5
141
100
AcDbEntity
8
0
62
256
6
ByLayer
370
-2
48
1
60
0
100
AcDbLine
10
68
20
-4.167
30
0
11
68
21
-20.182831
31
0
39
0
210
0
220
0
230
1
0
LINE
5
142
100
AcDbEntity
8
0
62
256
6
ByLayer
370
-2
48
1
60
0
100
AcDbLine
10
25.8
20
-4.167
30
0
11
25.8
21
-20.182831
31
0
39
0
210
0
220
0
230
1
0
LINE
5
143
100
AcDbEntity
8
0
62
256
6
ByLayer
370
-2
48
1
60
0
100
AcDbLine
10
64.5
20
-18.182831
30
0
11
29.3
21
-18.182831
31
0
39
0
210
0
220
0
230
1
0
SOLID
5
144
100
AcDbEntity
8
0
62
256
6
ByLayer
370
-1
48
1
60
0
100
AcDbTrace
10
64.5
20
-18.766164
30
0
11
64.5
21
-17.599498
31
0
12
68
22
-18.182831
32
0
13
68
23
-18.182831
33
0
39
0
210
0
220
0
230
1
0
SOLID
5
145
100
AcDbEntity
8
0
62
256
6
ByLayer
370
-1
48
1
60
0
100
AcDbTrace
10
29.3
20
-17.599498
30
0
11
29.3
21
-18.766164
31
0
12
25.8
22
-18.182831
32
0
13
25.8
23
-18.182831
33
0
39
0
210
0
220
0
230
1
0
MTEXT
5
146
100
AcDbEntity
8
0
62
256
6
ByLayer
370
18
48
1
60
0
100
AcDbMText
10
46.9
20
-12.182831
30
0
210
0
220
0
230
1
1
\A1;42.2
40
3
41
0
44
1
50
0
71
5
72
5
7
iso_b_vert
0
POINT
5
147
100
AcDbEntity
8
Defpoints
62
0
6
ByLayer
370
-1
48
1
60
0
100
AcDbPoint
10
68
20
-2.5795
30
0
39
0
210
0
220
0
230
1
50
360
0
POINT
5
148
100
AcDbEntity
8
Defpoints
62
0
6
ByLayer
370
-1
48
1
60
0
100
AcDbPoint
10
25.8
20
-2.5795
30
0
39
0
210
0
220
0
230
1
50
360
0
POINT
5
149
100
AcDbEntity
8
Defpoints
62
0
6
ByLayer
370
-1
48
1
60
0
100
AcDbPoint
10
25.8
20
-18.182831
30
0
39
0
210
0
220
0
230
1
50
360
0
ENDBLK
5
140
100
AcDbEntity
8
0
100
AcDbBlockEnd
0
BLOCK
5
153
100
AcDbEntity
8
0
100
AcDbBlockBegin
2
_U0
70
0
10
0
20
0
30
0
3
_U0
0
MTEXT
5
14B
100
AcDbEntity
8
SK2
62
256
6
ByLayer
370
18
48
1
60
0
100
AcDbMText
10
43.380601
20
-15.985217
30
0
210
0
220
0
230
1
1
\W0.7640;42.2
40
3
41
0
44
1.084337
50
0
71
7
72
5
7
iso_b_vert
0
MTEXT
5
14C
100
AcDbEntity
8
SK2
62
256
6
ByLayer
370
18
48
1
60
0
100
AcDbMText
10
41.280601
20
-15.985217
30
0
210
0
220
0
230
1
1
\W1.1313;{\H1.88x;(}
40
3
41
0
44
1.084337
50
0
71
7
72
5
7
iso_b_vert
0
MTEXT
5
14D
100
AcDbEntity
8
SK2
62
256
6
ByLayer
370
18
48
1
60
0
100
AcDbMText
10
50.737399
20
-15.985217
30
0
210
0
220
0
230
1
1
\W1.1313;{\H1.88x;)}
40
3
41
0
44
1.084337
50
0
71
7
72
5
7
iso_b_vert
0
LINE
5
14E
100
AcDbEntity
8
SK2
62
256
6
ByLayer
370
13
48
1
60
0
100
AcDbLine
10
68
20
-4.167
30
0
11
68
21
-20.182831
31
0
39
0
210
0
220
0
230
1
0
LINE
5
14F
100
AcDbEntity
8
SK2
62
256
6
ByLayer
370
13
48
1
60
0
100
AcDbLine
10
25.8
20
-4.167
30
0
11
25.8
21
-20.182831
31
0
39
0
210
0
220
0
230
1
0
LINE
5
150
100
AcDbEntity
8
SK2
62
256
6
ByLayer
370
13
48
1
60
0
100
AcDbLine
10
68
20
-18.182831
30
0
11
25.8
21
-18.182831
31
0
39
0
210
0
220
0
230
1
0
SOLID
5
151
100
AcDbEntity
8
SK2
62
256
6
ByLayer
370
18
48
1
60
0
100
AcDbTrace
10
68
20
-18.182831
30
0
11
64.500002
21
-18.643615
31
0
12
64.499998
22
-17.722047
32
0
13
64.499998
23
-17.722047
33
0
39
0
210
0
220
0
230
1
0
SOLID
5
152
100
AcDbEntity
8
SK2
62
256
6
ByLayer
370
18
48
1
60
0
100
AcDbTrace
10
25.8
20
-18.182831
30
0
11
29.299998
21
-17.722047
31
0
12
29.300002
22
-18.643615
32
0
13
29.300002
23
-18.643615
33
0
39
0
210
0
220
0
230
1
0
ENDBLK
5
154
100
AcDbEntity
8
0
100
AcDbBlockEnd
0
BLOCK
5
159
100
AcDbEntity
8
0
100
AcDbBlockBegin
2
*D3
70
1
10
0
20
0
30
0
3
*D3
0
LINE
5
15B
100
AcDbEntity
8
0
62
256
6
ByLayer
370
-2
48
1
60
0
100
AcDbLine
10
68
20
-4.167
30
0
11
68
21
-30.182831
31
0
39
0
210
0
220
0
230
1
0
LINE
5
15C
100
AcDbEntity
8
0
62
256
6
ByLayer
370
-2
48
1
60
0
100
AcDbLine
10
6
20
-4.167
30
0
11
6
21
-30.182831
31
0
39
0
210
0
220
0
230
1
0
LINE
5
15D
100
AcDbEntity
8
0
62
256
6
ByLayer
370
-2
48
1
60
0
100
AcDbLine
10
64.5
20
-28.182831
30
0
11
9.5
21
-28.182831
31
0
39
0
210
0
220
0
230
1
0
SOLID
5
15E
100
AcDbEntity
8
0
62
256
6
ByLayer
370
-1
48
1
60
0
100
AcDbTrace
10
64.5
20
-28.766164
30
0
11
64.5
21
-27.599498
31
0
12
68
22
-28.182831
32
0
13
68
23
-28.182831
33
0
39
0
210
0
220
0
230
1
0
SOLID
5
15F
100
AcDbEntity
8
0
62
256
6
ByLayer
370
-1
48
1
60
0
100
AcDbTrace
10
9.5
20
-27.599498
30
0
11
9.5
21
-28.766164
31
0
12
6
22
-28.182831
32
0
13
6
23
-28.182831
33
0
39
0
210
0
220
0
230
1
0
MTEXT
5
160
100
AcDbEntity
8
0
62
256
6
ByLayer
370
18
48
1
60
0
100
AcDbMText
10
37
20
-22.182831
30
0
210
0
220
0
230
1
1
\A1;62
40
3
41
0
44
1
50
0
71
5
72
5
7
iso_b_vert
0
POINT
5
161
100
AcDbEntity
8
Defpoints
62
0
6
ByLayer
370
-1
48
1
60
0
100
AcDbPoint
10
68
20
-2.5795
30
0
39
0
210
0
220
0
230
1
50
360
0
POINT
5
162
100
AcDbEntity
8
Defpoints
62
0
6
ByLayer
370
-1
48
1
60
0
100
AcDbPoint
10
6
20
-2.5795
30
0
39
0
210
0
220
0
230
1
50
360
0
POINT
5
163
100
AcDbEntity
8
Defpoints
62
0
6
ByLayer
370
-1
48
1
60
0
100
AcDbPoint
10
6
20
-28.182831
30
0
39
0
210
0
220
0
230
1
50
360
0
ENDBLK
5
15A
100
AcDbEntity
8
0
100
AcDbBlockEnd
0
BLOCK
5
16B
100
AcDbEntity
8
0
100
AcDbBlockBegin
2
_U1
70
0
10
0
20
0
30
0
3
_U1
0
MTEXT
5
165
100
AcDbEntity
8
SK2
62
256
6
ByLayer
370
18
48
1
60
0
100
AcDbMText
10
35.367172
20
-27.297717
30
0
210
0
220
0
230
1
1
\W0.6740;62
40
3
41
0
44
1.084337
50
0
71
7
72
5
7
iso_b_vert
0
LINE
5
166
100
AcDbEntity
8
SK2
62
256
6
ByLayer
370
13
48
1
60
0
100
AcDbLine
10
68
20
-4.167
30
0
11
68
21
-30.182831
31
0
39
0
210
0
220
0
230
1
0
LINE
5
167
100
AcDbEntity
8
SK2
62
256
6
ByLayer
370
13
48
1
60
0
100
AcDbLine
10
6
20
-4.167
30
0
11
6
21
-30.182831
31
0
39
0
210
0
220
0
230
1
0
LINE
5
168
100
AcDbEntity
8
SK2
62
256
6
ByLayer
370
13
48
1
60
0
100
AcDbLine
10
68
20
-28.182831
30
0
11
6
21
-28.182831
31
0
39
0
210
0
220
0
230
1
0
SOLID
5
169
100
AcDbEntity
8
SK2
62
256
6
ByLayer
370
18
48
1
60
0
100
AcDbTrace
10
68
20
-28.182831
30
0
11
64.500002
21
-28.643615
31
0
12
64.499998
22
-27.722047
32
0
13
64.499998
23
-27.722047
33
0
39
0
210
0
220
0
230
1
0
SOLID
5
16A
100
AcDbEntity
8
SK2
62
256
6
ByLayer
370
18
48
1
60
0
100
AcDbTrace
10
6
20
-28.182831
30
0
11
9.499998
21
-27.722047
31
0
12
9.500002
22
-28.643615
32
0
13
9.500002
23
-28.643615
33
0
39
0
210
0
220
0
230
1
0
ENDBLK
5
16C
100
AcDbEntity
8
0
100
AcDbBlockEnd
0
BLOCK
5
171
100
AcDbEntity
8
0
100
AcDbBlockBegin
2
*D5
70
1
10
0
20
0
30
0
3
*D5
0
LINE
5
173
100
AcDbEntity
8
0
62
256
6
ByLayer
370
-2
48
1
60
0
100
AcDbLine
10
-36
20
-4.5875
30
0
11
-36
21
-38.182831
31
0
39
0
210
0
220
0
230
1
0
LINE
5
174
100
AcDbEntity
8
0
62
256
6
ByLayer
370
-2
48
1
60
0
100
AcDbLine
10
0
20
-4.5875
30
0
11
0
21
-38.182831
31
0
39
0
210
0
220
0
230
1
0
LINE
5
175
100
AcDbEntity
8
0
62
256
6
ByLayer
370
-2
48
1
60
0
100
AcDbLine
10
-32.5
20
-36.182831
30
0
11
-3.5
21
-36.182831
31
0
39
0
210
0
220
0
230
1
0
SOLID
5
176
100
AcDbEntity
8
0
62
256
6
ByLayer
370
-1
48
1
60
0
100
AcDbTrace
10
-32.5
20
-35.599498
30
0
11
-32.5
21
-36.766164
31
0
12
-36
22
-36.182831
32
0
13
-36
23
-36.182831
33
0
39
0
210
0
220
0
230
1
0
SOLID
5
177
100
AcDbEntity
8
0
62
256
6
ByLayer
370
-1
48
1
60
0
100
AcDbTrace
10
-3.5
20
-36.766164
30
0
11
-3.5
21
-35.599498
31
0
12
0
22
-36.182831
32
0
13
0
23
-36.182831
33
0
39
0
210
0
220
0
230
1
0
MTEXT
5
178
100
AcDbEntity
8
0
62
256
6
ByLayer
370
18
48
1
60
0
100
AcDbMText
10
-18
20
-30.182831
30
0
210
0
220
0
230
1
1
\A1;36
40
3
41
0
44
1
50
0
71
5
72
5
7
iso_b_vert
0
POINT
5
179
100
AcDbEntity
8
Defpoints
62
0
6
ByLayer
370
-1
48
1
60
0
100
AcDbPoint
10
-36
20
-3
30
0
39
0
210
0
220
0
230
1
50
360
0
POINT
5
17A
100
AcDbEntity
8
Defpoints
62
0
6
ByLayer
370
-1
48
1
60
0
100
AcDbPoint
10
0
20
-3
30
0
39
0
210
0
220
0
230
1
50
360
0
POINT
5
17B
100
AcDbEntity
8
Defpoints
62
0
6
ByLayer
370
-1
48
1
60
0
100
AcDbPoint
10
0
20
-36.182831
30
0
39
0
210
0
220
0
230
1
50
360
0
ENDBLK
5
172
100
AcDbEntity
8
0
100
AcDbBlockEnd
0
BLOCK
5
183
100
AcDbEntity
8
0
100
AcDbBlockBegin
2
_U2
70
0
10
0
20
0
30
0
3
_U2
0
MTEXT
5
17D
100
AcDbEntity
8
SK2
62
256
6
ByLayer
370
18
48
1
60
0
100
AcDbMText
10
-19.632828
20
-35.297717
30
0
210
0
220
0
230
1
1
\W0.6740;36
40
3
41
0
44
1.084337
50
0
71
7
72
5
7
iso_b_vert
0
LINE
5
17E
100
AcDbEntity
8
SK2
62
256
6
ByLayer
370
13
48
1
60
0
100
AcDbLine
10
-36
20
-4.5875
30
0
11
-36
21
-38.182831
31
0
39
0
210
0
220
0
230
1
0
LINE
5
17F
100
AcDbEntity
8
SK2
62
256
6
ByLayer
370
13
48
1
60
0
100
AcDbLine
10
0
20
-4.5875
30
0
11
0
21
-38.182831
31
0
39
0
210
0
220
0
230
1
0
LINE
5
180
100
AcDbEntity
8
SK2
62
256
6
ByLayer
370
13
48
1
60
0
100
AcDbLine
10
-36
20
-36.182831
30
0
11
0
21
-36.182831
31
0
39
0
210
0
220
0
230
1
0
SOLID
5
181
100
AcDbEntity
8
SK2
62
256
6
ByLayer
370
18
48
1
60
0
100
AcDbTrace
10
-36
20
-36.182831
30
0
11
-32.500002
21
-35.722047
31
0
12
-32.499998
22
-36.643615
32
0
13
-32.499998
23
-36.643615
33
0
39
0
210
0
220
0
230
1
0
SOLID
5
182
100
AcDbEntity
8
SK2
62
256
6
ByLayer
370
18
48
1
60
0
100
AcDbTrace
10
0
20
-36.182831
30
0
11
-3.499998
21
-36.643615
31
0
12
-3.500002
22
-35.722047
32
0
13
-3.500002
23
-35.722047
33
0
39
0
210
0
220
0
230
1
0
ENDBLK
5
184
100
AcDbEntity
8
0
100
AcDbBlockEnd
0
BLOCK
5
189
100
AcDbEntity
8
0
100
AcDbBlockBegin
2
*D7
70
1
10
0
20
0
30
0
3
*D7
0
LINE
5
18B
100
AcDbEntity
8
0
62
256
6
ByLayer
370
-2
48
1
60
0
100
AcDbLine
10
-36
20
-4.5875
30
0
11
-36
21
-46.182831
31
0
39
0
210
0
220
0
230
1
0
LINE
5
18C
100
AcDbEntity
8
0
62
256
6
ByLayer
370
-2
48
1
60
0
100
AcDbLine
10
68
20
-4.167
30
0
11
68
21
-46.182831
31
0
39
0
210
0
220
0
230
1
0
LINE
5
18D
100
AcDbEntity
8
0
62
256
6
ByLayer
370
-2
48
1
60
0
100
AcDbLine
10
-32.5
20
-44.182831
30
0
11
64.5
21
-44.182831
31
0
39
0
210
0
220
0
230
1
0
SOLID
5
18E
100
AcDbEntity
8
0
62
256
6
ByLayer
370
-1
48
1
60
0
100
AcDbTrace
10
-32.5
20
-43.599498
30
0
11
-32.5
21
-44.766164
31
0
12
-36
22
-44.182831
32
0
13
-36
23
-44.182831
33
0
39
0
210
0
220
0
230
1
0
SOLID
5
18F
100
AcDbEntity
8
0
62
256
6
ByLayer
370
-1
48
1
60
0
100
AcDbTrace
10
64.5
20
-44.766164
30
0
11
64.5
21
-43.599498
31
0
12
68
22
-44.182831
32
0
13
68
23
-44.182831
33
0
39
0
210
0
220
0
230
1
0
MTEXT
5
190
100
AcDbEntity
8
0
62
256
6
ByLayer
370
18
48
1
60
0
100
AcDbMText
10
16
20
-38.182831
30
0
210
0
220
0
230
1
1
\A1;104
40
3
41
0
44
1
50
0
71
5
72
5
7
iso_b_vert
0
POINT
5
191
100
AcDbEntity
8
Defpoints
62
0
6
ByLayer
370
-1
48
1
60
0
100
AcDbPoint
10
-36
20
-3
30
0
39
0
210
0
220
0
230
1
50
360
0
POINT
5
192
100
AcDbEntity
8
Defpoints
62
0
6
ByLayer
370
-1
48
1
60
0
100
AcDbPoint
10
68
20
-2.5795
30
0
39
0
210
0
220
0
230
1
50
360
0
POINT
5
193
100
AcDbEntity
8
Defpoints
62
0
6
ByLayer
370
-1
48
1
60
0
100
AcDbPoint
10
68
20
-44.182831
30
0
39
0
210
0
220
0
230
1
50
360
0
ENDBLK
5
18A
100
AcDbEntity
8
0
100
AcDbBlockEnd
0
BLOCK
5
19B
100
AcDbEntity
8
0
100
AcDbBlockBegin
2
_U3
70
0
10
0
20
0
30
0
3
_U3
0
MTEXT
5
195
100
AcDbEntity
8
SK2
62
256
6
ByLayer
370
18
48
1
60
0
100
AcDbMText
10
13.463258
20
-43.297717
30
0
210
0
220
0
230
1
1
\W0.6506;104
40
3
41
0
44
1.084337
50
0
71
7
72
5
7
iso_b_vert
0
LINE
5
196
100
AcDbEntity
8
SK2
62
256
6
ByLayer
370
13
48
1
60
0
100
AcDbLine
10
-36
20
-4.5875
30
0
11
-36
21
-46.182831
31
0
39
0
210
0
220
0
230
1
0
LINE
5
197
100
AcDbEntity
8
SK2
62
256
6
ByLayer
370
13
48
1
60
0
100
AcDbLine
10
68
20
-4.167
30
0
11
68
21
-46.182831
31
0
39
0
210
0
220
0
230
1
0
LINE
5
198
100
AcDbEntity
8
SK2
62
256
6
ByLayer
370
13
48
1
60
0
100
AcDbLine
10
-36
20
-44.182831
30
0
11
68
21
-44.182831
31
0
39
0
210
0
220
0
230
1
0
SOLID
5
199
100
AcDbEntity
8
SK2
62
256
6
ByLayer
370
18
48
1
60
0
100
AcDbTrace
10
-36
20
-44.182831
30
0
11
-32.500002
21
-43.722047
31
0
12
-32.499998
22
-44.643615
32
0
13
-32.499998
23
-44.643615
33
0
39
0
210
0
220
0
230
1
0
SOLID
5
19A
100
AcDbEntity
8
SK2
62
256
6
ByLayer
370
18
48
1
60
0
100
AcDbTrace
10
68
20
-44.182831
30
0
11
64.500002
21
-44.643615
31
0
12
64.499998
22
-43.722047
32
0
13
64.499998
23
-43.722047
33
0
39
0
210
0
220
0
230
1
0
ENDBLK
5
19C
100
AcDbEntity
8
0
100
AcDbBlockEnd
0
BLOCK
5
1A1
100
AcDbEntity
8
0
100
AcDbBlockBegin
2
*D9
70
1
10
0
20
0
30
0
3
*D9
0
LINE
5
1A3
100
AcDbEntity
8
0
62
256
6
ByLayer
370
-2
48
1
60
0
100
AcDbLine
10
68
20
-4.167
30
0
11
68
21
-38.182831
31
0
39
0
210
0
220
0
230
1
0
LINE
5
1A4
100
AcDbEntity
8
0
62
256
6
ByLayer
370
-2
48
1
60
0
100
AcDbLine
10
0
20
-4.167
30
0
11
0
21
-38.182831
31
0
39
0
210
0
220
0
230
1
0
LINE
5
1A5
100
AcDbEntity
8
0
62
256
6
ByLayer
370
-2
48
1
60
0
100
AcDbLine
10
64.5
20
-36.182831
30
0
11
3.5
21
-36.182831
31
0
39
0
210
0
220
0
230
1
0
SOLID
5
1A6
100
AcDbEntity
8
0
62
256
6
ByLayer
370
-1
48
1
60
0
100
AcDbTrace
10
64.5
20
-36.766164
30
0
11
64.5
21
-35.599498
31
0
12
68
22
-36.182831
32
0
13
68
23
-36.182831
33
0
39
0
210
0
220
0
230
1
0
SOLID
5
1A7
100
AcDbEntity
8
0
62
256
6
ByLayer
370
-1
48
1
60
0
100
AcDbTrace
10
3.5
20
-35.599498
30
0
11
3.5
21
-36.766164
31
0
12
0
22
-36.182831
32
0
13
0
23
-36.182831
33
0
39
0
210
0
220
0
230
1
0
MTEXT
5
1A8
100
AcDbEntity
8
0
62
256
6
ByLayer
370
18
48
1
60
0
100
AcDbMText
10
34
20
-30.182831
30
0
210
0
220
0
230
1
1
\A1;68
40
3
41
0
44
1
50
0
71
5
72
5
7
iso_b_vert
0
POINT
5
1A9
100
AcDbEntity
8
Defpoints
62
0
6
ByLayer
370
-1
48
1
60
0
100
AcDbPoint
10
68
20
-2.5795
30
0
39
0
210
0
220
0
230
1
50
360
0
POINT
5
1AA
100
AcDbEntity
8
Defpoints
62
0
6
ByLayer
370
-1
48
1
60
0
100
AcDbPoint
10
0
20
-2.5795
30
0
39
0
210
0
220
0
230
1
50
360
0
POINT
5
1AB
100
AcDbEntity
8
Defpoints
62
0
6
ByLayer
370
-1
48
1
60
0
100
AcDbPoint
10
0
20
-36.182831
30
0
39
0
210
0
220
0
230
1
50
360
0
ENDBLK
5
1A2
100
AcDbEntity
8
0
100
AcDbBlockEnd
0
BLOCK
5
1B3
100
AcDbEntity
8
0
100
AcDbBlockBegin
2
_U4
70
0
10
0
20
0
30
0
3
_U4
0
MTEXT
5
1AD
100
AcDbEntity
8
2
62
256
6
ByLayer
370
18
48
1
60
0
100
AcDbMText
10
32.367172
20
-35.297717
30
0
210
0
220
0
230
1
1
\W0.6740;68
40
3
41
0
44
1.084337
50
0
71
7
72
5
7
iso_b_vert
0
LINE
5
1AE
100
AcDbEntity
8
2
62
256
6
ByLayer
370
13
48
1
60
0
100
AcDbLine
10
68
20
-4.167
30
0
11
68
21
-38.182831
31
0
39
0
210
0
220
0
230
1
0
LINE
5
1AF
100
AcDbEntity
8
2
62
256
6
ByLayer
370
13
48
1
60
0
100
AcDbLine
10
0
20
-4.167
30
0
11
0
21
-38.182831
31
0
39
0
210
0
220
0
230
1
0
LINE
5
1B0
100
AcDbEntity
8
2
62
256
6
ByLayer
370
13
48
1
60
0
100
AcDbLine
10
68
20
-36.182831
30
0
11
0
21
-36.182831
31
0
39
0
210
0
220
0
230
1
0
SOLID
5
1B1
100
AcDbEntity
8
2
62
256
6
ByLayer
370
18
48
1
60
0
100
AcDbTrace
10
68
20
-36.182831
30
0
11
64.500002
21
-36.643615
31
0
12
64.499998
22
-35.722047
32
0
13
64.499998
23
-35.722047
33
0
39
0
210
0
220
0
230
1
0
SOLID
5
1B2
100
AcDbEntity
8
2
62
256
6
ByLayer
370
18
48
1
60
0
100
AcDbTrace
10
0
20
-36.182831
30
0
11
3.499998
21
-35.722047
31
0
12
3.500002
22
-36.643615
32
0
13
3.500002
23
-36.643615
33
0
39
0
210
0
220
0
230
1
0
ENDBLK
5
1B4
100
AcDbEntity
8
0
100
AcDbBlockEnd
0
ENDSEC
0
SECTION
2
ENTITIES
0
ARC
5
C1
100
AcDbEntity
8
1
62
256
6
ByLayer
370
18
48
1
60
0
100
AcDbCircle
39
0
10
1.197666
20
-3.260942
30
0
40
0.799999999999997
210
0
220
0
230
1
100
AcDbArc
50
89.896868
51
138.464153
0
ARC
5
C2
100
AcDbEntity
8
1
62
256
6
ByLayer
370
18
48
1
60
0
100
AcDbCircle
39
0
10
1.197666
20
3.260942
30
0
40
0.799999999999997
210
0
220
0
230
1
100
AcDbArc
50
221.535847
51
270.103132
0
ARC
5
C3
100
AcDbEntity
8
1
62
256
6
ByLayer
370
18
48
1
60
0
100
AcDbCircle
39
0
10
0
20
-2.2
30
0
40
0.800000000000002
210
0
220
0
230
1
100
AcDbArc
50
270
51
318.464153
0
ARC
5
C4
100
AcDbEntity
8
1
62
256
6
ByLayer
370
18
48
1
60
0
100
AcDbCircle
39
0
10
0
20
2.2
30
0
40
0.800000000000002
210
0
220
0
230
1
100
AcDbArc
50
41.535847
51
90
0
ARC
5
C5
100
AcDbEntity
8
SK2
62
256
6
ByLayer
370
13
48
1
60
0
100
AcDbCircle
39
0
10
68
20
0
30
0
40
18.041376619076
210
0
220
0
230
1
100
AcDbArc
50
9.571858
51
69.997278
0
ARC
5
C6
100
AcDbEntity
8
SK2
62
256
6
ByLayer
370
13
48
1
60
0
100
AcDbCircle
39
0
10
68
20
0
30
0
40
18.041376619076
210
0
220
0
230
1
100
AcDbArc
50
290.002722
51
350.428142
0
ELLIPSE
5
C7
100
AcDbEntity
8
1
62
256
6
ByLayer
370
13
48
1
60
0
100
AcDbEllipse
10
42.305888
20
2.412134
30
0
11
-7.59989311715389E-05
21
0.00999971120395288
31
0
210
0
220
0
230
1
40
0.00859
41
-3.08037702081852
42
-1.50985465802946
0
ELLIPSE
5
C8
100
AcDbEntity
8
1
62
256
6
ByLayer
370
18
48
1
60
0
100
AcDbEllipse
10
42.34347
20
2.411892
30
0
11
-0.000227434909471082
21
-0.00999741333355553
31
0
210
0
220
0
230
1
40
0.425213
41
0.071582895056676
42
1.63567930923701
0
POINT
5
70
100
AcDbEntity
8
80
62
256
6
ByLayer
370
18
48
1
60
0
100
AcDbPoint
10
0
20
0
30
0
39
0
210
0
220
0
230
1
50
360
0
POINT
5
72
100
AcDbEntity
8
81
62
256
6
ByLayer
370
18
48
1
60
0
100
AcDbPoint
10
68
20
0
30
0
39
0
210
0
220
0
230
1
50
360
0
POINT
5
74
100
AcDbEntity
8
1
62
256
6
ByLayer
370
18
48
1
60
0
100
AcDbPoint
10
-203.154312
20
-200
30
0
39
0
210
0
220
0
230
1
50
360
0
POINT
5
76
100
AcDbEntity
8
1
62
256
6
ByLayer
370
13
48
1
60
1
100
AcDbPoint
10
-37.5
20
0
30
0
39
0
210
0
220
0
230
1
50
360
0
POINT
5
77
100
AcDbEntity
8
1
62
256
6
ByLayer
370
13
48
1
60
1
100
AcDbPoint
10
68.563483
20
0
30
0
39
0
210
0
220
0
230
1
50
360
0
POINT
5
78
100
AcDbEntity
8
1
62
256
6
ByLayer
370
18
48
1
60
1
100
AcDbPoint
10
68
20
-2.5795
30
0
39
0
210
0
220
0
230
1
50
360
0
POINT
5
79
100
AcDbEntity
8
1
62
256
6
ByLayer
370
18
48
1
60
1
100
AcDbPoint
10
25.8
20
-2.5795
30
0
39
0
210
0
220
0
230
1
50
360
0
POINT
5
7A
100
AcDbEntity
8
1
62
256
6
ByLayer
370
18
48
1
60
1
100
AcDbPoint
10
68
20
-2.5795
30
0
39
0
210
0
220
0
230
1
50
360
0
POINT
5
7B
100
AcDbEntity
8
1
62
256
6
ByLayer
370
18
48
1
60
1
100
AcDbPoint
10
6
20
-2.5795
30
0
39
0
210
0
220
0
230
1
50
360
0
POINT
5
7C
100
AcDbEntity
8
1
62
256
6
ByLayer
370
18
48
1
60
1
100
AcDbPoint
10
-36
20
-3
30
0
39
0
210
0
220
0
230
1
50
360
0
POINT
5
7D
100
AcDbEntity
8
1
62
256
6
ByLayer
370
18
48
1
60
1
100
AcDbPoint
10
0
20
-3
30
0
39
0
210
0
220
0
230
1
50
360
0
POINT
5
7E
100
AcDbEntity
8
1
62
256
6
ByLayer
370
18
48
1
60
1
100
AcDbPoint
10
-36
20
-3
30
0
39
0
210
0
220
0
230
1
50
360
0
POINT
5
7F
100
AcDbEntity
8
1
62
256
6
ByLayer
370
18
48
1
60
1
100
AcDbPoint
10
68
20
-2.5795
30
0
39
0
210
0
220
0
230
1
50
360
0
POINT
5
80
100
AcDbEntity
8
1
62
256
6
ByLayer
370
18
48
1
60
1
100
AcDbPoint
10
68
20
-2.5795
30
0
39
0
210
0
220
0
230
1
50
360
0
POINT
5
81
100
AcDbEntity
8
1
62
256
6
ByLayer
370
18
48
1
60
1
100
AcDbPoint
10
0
20
-2.5795
30
0
39
0
210
0
220
0
230
1
50
360
0
SPLINE
5
C9
100
AcDbEntity
8
1
62
256
6
ByLayer
370
18
48
1
60
0
100
AcDbSpline
70
4
71
3
72
8
73
4
40
0
40
0
40
0
40
0
40
1
40
1
40
1
40
1
41
1
10
67.7327888893044
20
0.867115763624099
30
0
41
1
10
67.8015936101449
20
0.675301938939924
30
0
41
1
10
67.8698239977126
20
0.483285839094208
30
0
41
1
10
67.9374683537806
20
0.291063344073706
30
0
0
SPLINE
5
CA
100
AcDbEntity
8
1
62
256
6
ByLayer
370
13
48
1
60
0
100
AcDbSpline
70
4
71
3
72
10
73
6
40
0
40
0
40
0
40
0
40
0.5
40
0.5
40
1
40
1
40
1
40
1
41
1
10
42.3477266461367
20
2.41244400288505
30
0
41
1
10
42.3411675781813
20
2.41259710823743
30
0
41
1
10
42.3343970363795
20
2.4126947165264
30
0
41
1
10
42.3204494003276
20
2.4127931130281
30
0
41
1
10
42.3132176921223
20
2.41279311788208
30
0
41
1
10
42.3059694333513
20
2.41274389599667
30
0
0
SPLINE
5
CB
100
AcDbEntity
8
1
62
256
6
ByLayer
370
18
48
1
60
0
100
AcDbSpline
70
4
71
3
72
24
73
20
40
0
40
0
40
0
40
0
40
0.125000000000178
40
0.125000000000178
40
0.18750000000016
40
0.18750000000016
40
0.250000000000141
40
0.250000000000141
40
0.312500000000122
40
0.312500000000122
40
0.375000000000104
40
0.375000000000104
40
0.50000000000007
40
0.50000000000007
40
0.750000000000005
40
0.750000000000005
40
0.875000000000003
40
0.875000000000003
40
1
40
1
40
1
40
1
41
1
10
42.3059694333513
20
2.41274389599667
30
0
41
1
10
42.2981628382435
20
2.41269088252929
30
0
41
1
10
42.2905599310054
20
2.41339425720213
30
0
41
1
10
42.2794372787102
20
2.41549360647454
30
0
41
1
10
42.2757858363625
20
2.41637111498372
30
0
41
1
10
42.2687931518113
20
2.41840402226862
30
0
41
1
10
42.2654217089259
20
2.41956455787766
30
0
41
1
10
42.2589093654947
20
2.42215071570533
30
0
41
1
10
42.255752849794
20
2.42358581937171
30
0
41
1
10
42.2497904625129
20
2.42663769705527
30
0
41
1
10
42.2469706355829
20
2.42825811186728
30
0
41
1
10
42.2389433548734
20
2.43337100910526
30
0
41
1
10
42.2341349490793
20
2.43714098349099
30
0
41
1
10
42.2214315452342
20
2.44913251663351
30
0
41
1
10
42.2153798081372
20
2.4577874134427
30
0
41
1
10
42.2092081553116
20
2.47152839750885
30
0
41
1
10
42.2076934207229
20
2.47614638642742
30
0
41
1
10
42.2056678402204
20
2.4854498883432
30
0
41
1
10
42.2051583162973
20
2.4901694674177
30
0
41
1
10
42.2051583162974
20
2.49484416973607
30
0
0
SPLINE
5
CC
100
AcDbEntity
8
1
62
256
6
ByLayer
370
18
48
1
60
0
100
AcDbSpline
70
4
71
3
72
8
73
4
40
0
40
0
40
0
40
0
40
1
40
1
40
1
40
1
41
1
10
67.9374683537806
20
0.291063344073706
30
0
41
1
10
67.9574830967358
20
0.234188180325106
30
0
41
1
10
67.97790839376
20
0.17754699644135
30
0
41
1
10
67.9987512540588
20
0.121134608191426
30
0
0
SPLINE
5
CD
100
AcDbEntity
8
1
62
256
6
ByLayer
370
18
48
1
60
0
100
AcDbSpline
70
4
71
3
72
12
73
8
40
0
40
0
40
0
40
0
40
0.231914397140357
40
0.231914397140357
40
0.615957198570178
40
0.615957198570178
40
1
40
1
40
1
40
1
41
1
10
67.4087659416996
20
-0.495788859811057
30
0
41
1
10
67.4179588126369
20
-0.502532929201095
30
0
41
1
10
67.4275403747233
20
-0.509454455625814
30
0
41
1
10
67.4537584266349
20
-0.528192330201136
30
0
41
1
10
67.4709610987494
20
-0.540280362249348
30
0
41
1
10
67.5062178953416
20
-0.564796816926474
30
0
41
1
10
67.5242926268406
20
-0.57723977121924
30
0
41
1
10
67.5426988009721
20
-0.589833249754349
30
0
0
SPLINE
5
CE
100
AcDbEntity
8
1
62
256
6
ByLayer
370
18
48
1
60
0
100
AcDbSpline
70
4
71
3
72
22
73
18
40
0
40
0
40
0
40
0
40
0.499999999999938
40
0.499999999999938
40
0.749999999999907
40
0.749999999999907
40
0.874999999999888
40
0.874999999999888
40
0.937499999999879
40
0.937499999999879
40
0.968749999999939
40
0.968749999999939
40
0.984374999999973
40
0.984374999999973
40
0.992187499999987
40
0.992187499999987
40
1
40
1
40
1
40
1
41
1
10
67.0112205898647
20
2.57939774699969
30
0
41
1
10
67.0220504053829
20
2.56169576917372
30
0
41
1
10
67.0328883719433
20
2.54392466771759
30
0
41
1
10
67.0492358494175
20
2.51699753915781
30
0
41
1
10
67.0547115422679
20
2.5079521658499
30
0
41
1
10
67.0628821352615
20
2.49446093980501
30
0
41
1
10
67.0655974634943
20
2.48997896315652
30
0
41
1
10
67.0696390746951
20
2.48331821078727
30
0
41
1
10
67.0709779845607
20
2.48111473521269
30
0
41
1
10
67.0729842057088
20
2.47781265253826
30
0
41
1
10
67.0736604248301
20
2.47669621868309
30
0
41
1
10
67.0747038312896
20
2.47495734944053
30
0
41
1
10
67.0750579566054
20
2.47436320736165
30
0
41
1
10
67.0755806610771
20
2.47349134704879
30
0
41
1
10
67.0757538183162
20
2.47320335056068
30
0
41
1
10
67.0760802690192
20
2.47266906208517
30
0
41
1
10
67.0762379357884
20
2.47241689540925
30
0
41
1
10
67.0763115687535
20
2.4723179286444
30
0
0
SPLINE
5
CF
100
AcDbEntity
8
1
62
256
6
ByLayer
370
18
48
1
60
0
100
AcDbSpline
70
4
71
3
72
34
73
30
40
0
40
0
40
0
40
0
40
0.125000000000044
40
0.125000000000044
40
0.156250000000055
40
0.156250000000055
40
0.187500000000066
40
0.187500000000066
40
0.250000000000074
40
0.250000000000074
40
0.37500000000009
40
0.37500000000009
40
0.43750000000009
40
0.43750000000009
40
0.50000000000009
40
0.50000000000009
40
0.625000000000091
40
0.625000000000091
40
0.656250000000083
40
0.656250000000083
40
0.687500000000076
40
0.687500000000076
40
0.750000000000061
40
0.750000000000061
40
0.87500000000003
40
0.87500000000003
40
0.937500000000015
40
0.937500000000015
40
1
40
1
40
1
40
1
41
1
10
67.9987512540504
20
0.121134608194268
30
0
41
1
10
67.9831591204068
20
0.0757192866312266
30
0
41
1
10
67.9664038614153
20
0.0308567051658883
30
0
41
1
10
67.9440387058926
20
-0.0245306008771422
30
0
41
1
10
67.9394941937991
20
-0.0355733083835332
30
0
41
1
10
67.9302612010722
20
-0.0575883212722204
30
0
41
1
10
67.9255611344856
20
-0.0685870125351755
30
0
41
1
10
67.9113366489667
20
-0.101259889434431
30
0
41
1
10
67.9017062196133
20
-0.122575023004174
30
0
41
1
10
67.872408281558
20
-0.185141482332796
30
0
41
1
10
67.8523384285809
20
-0.225024615552229
30
0
41
1
10
67.8214913472666
20
-0.282010070733264
30
0
41
1
10
67.8110842274634
20
-0.300529491961498
30
0
41
1
10
67.7900170122847
20
-0.336564016962967
30
0
41
1
10
67.7795151083294
20
-0.353806815599768
30
0
41
1
10
67.7482177425602
20
-0.403082301610567
30
0
41
1
10
67.7275850885798
20
-0.432762469582855
30
0
41
1
10
67.7020809589524
20
-0.465784820666471
30
0
41
1
10
67.6969943492213
20
-0.472183809986745
30
0
41
1
10
67.686848970878
20
-0.48456124548639
30
0
41
1
10
67.6817761689781
20
-0.49055549341665
30
0
41
1
10
67.6667093845992
20
-0.507762919580557
30
0
41
1
10
67.6568949881939
20
-0.518175641807034
30
0
41
1
10
67.628096849366
20
-0.546322234287572
30
0
41
1
10
67.609755936227
20
-0.560988463273588
30
0
41
1
10
67.583401072591
20
-0.576724535066234
30
0
41
1
10
67.5747914303801
20
-0.580915614526816
30
0
41
1
10
67.5582898774962
20
-0.587018113348705
30
0
41
1
10
67.5503513267962
20
-0.588962592277255
30
0
41
1
10
67.542698800972
20
-0.589833249754378
30
0
0
SPLINE
5
D0
100
AcDbEntity
8
1
62
256
6
ByLayer
370
18
48
1
60
0
100
AcDbSpline
70
4
71
3
72
93
73
89
40
0
40
0
40
0
40
0
40
0.0312499999999925
40
0.0312499999999925
40
0.0468749999999888
40
0.0468749999999888
40
0.0624999999999851
40
0.0624999999999851
40
0.0937499999999749
40
0.0937499999999749
40
0.109374999999972
40
0.109374999999972
40
0.124999999999969
40
0.124999999999969
40
0.156249999999963
40
0.156249999999963
40
0.17187499999996
40
0.17187499999996
40
0.187499999999957
40
0.187499999999957
40
0.218749999999958
40
0.218749999999958
40
0.234374999999958
40
0.234374999999958
40
0.249999999999959
40
0.249999999999959
40
0.28124999999996
40
0.28124999999996
40
0.296874999999964
40
0.296874999999964
40
0.312499999999968
40
0.312499999999968
40
0.328124999999972
40
0.328124999999972
40
0.343749999999977
40
0.343749999999977
40
0.374999999999985
40
0.374999999999985
40
0.390624999999989
40
0.390624999999989
40
0.406249999999993
40
0.406249999999993
40
0.437499999999995
40
0.468749999999998
40
0.468749999999998
40
0.484374999999999
40
0.484374999999999
40
0.5
40
0.5
40
0.531249999999998
40
0.531249999999998
40
0.546874999999998
40
0.546874999999998
40
0.562499999999997
40
0.562499999999997
40
0.593749999999995
40
0.593749999999995
40
0.624999999999993
40
0.624999999999993
40
0.656249999999991
40
0.656249999999991
40
0.687499999999989
40
0.687499999999989
40
0.703124999999989
40
0.703124999999989
40
0.718749999999989
40
0.718749999999989
40
0.74999999999999
40
0.74999999999999
40
0.78124999999999
40
0.78124999999999
40
0.79687499999999
40
0.79687499999999
40
0.81249999999999
40
0.81249999999999
40
0.84374999999999
40
0.84374999999999
40
0.874999999999991
40
0.874999999999991
40
0.906249999999991
40
0.906249999999991
40
0.937499999999992
40
0.937499999999992
40
0.968749999999992
40
0.968749999999992
40
0.984374999999996
40
0.984374999999996
40
1
40
1
40
1
40
1
41
1
10
67.5426988009721
20
-0.589833249754349
30
0
41
1
10
67.5430152972864
20
-0.605587665544505
30
0
41
1
10
67.5424780530026
20
-0.622394216168999
30
0
41
1
10
67.5403720165413
20
-0.649224832550061
30
0
41
1
10
67.539452408034
20
-0.658439815623439
30
0
41
1
10
67.5371626244813
20
-0.677437529022569
30
0
41
1
10
67.5357815619419
20
-0.687283591966377
30
0
41
1
10
67.5310230794694
20
-0.71714632009207
30
0
41
1
10
67.5270454131502
20
-0.737494082984455
30
0
41
1
10
67.5199389814932
20
-0.768667006516324
30
0
41
1
10
67.5173792133584
20
-0.779167119154124
30
0
41
1
10
67.5118776598915
20
-0.800391620721058
30
0
41
1
10
67.5089407041453
20
-0.811089726084077
30
0
41
1
10
67.4997633580672
20
-0.842838956774017
30
0
41
1
10
67.4931026432466
20
-0.863770923738173
30
0
41
1
10
67.4823769333572
20
-0.894846741912659
30
0
41
1
10
67.478661096705
20
-0.905197192216747
30
0
41
1
10
67.4710818275481
20
-0.925541447516878
30
0
41
1
10
67.4672255287724
20
-0.935520504560458
30
0
41
1
10
67.4554754110573
20
-0.964910904994696
30
0
41
1
10
67.4474018920784
20
-0.983779146193172
30
0
41
1
10
67.4349733635015
20
-1.0110457042876
30
0
41
1
10
67.4307741958929
20
-1.01996413304244
30
0
41
1
10
67.4224076036241
20
-1.03718204941484
30
0
41
1
10
67.4182233706892
20
-1.04551922536629
30
0
41
1
10
67.4056716507538
20
-1.0697492577913
30
0
41
1
10
67.3973055499105
20
-1.08486542483726
30
0
41
1
10
67.3847657562592
20
-1.10602183051546
30
0
41
1
10
67.3805840069347
20
-1.11282330436569
30
0
41
1
10
67.3723134552146
20
-1.12577446039251
30
0
41
1
10
67.3682133404695
20
-1.13194381579566
30
0
41
1
10
67.360081426947
20
-1.14367853270716
30
0
41
1
10
67.3560433910617
20
-1.14925055243489
30
0
41
1
10
67.3481305203101
20
-1.15966707873113
30
0
41
1
10
67.3442405930184
20
-1.16453382545583
30
0
41
1
10
67.3327607353241
20
-1.17813892594515
30
0
41
1
10
67.325360024887
20
-1.18588751470878
30
0
41
1
10
67.3146140133509
20
-1.19554096299416
30
0
41
1
10
67.3110913695555
20
-1.19842917685443
30
0
41
1
10
67.3041629640422
20
-1.20353179246246
30
0
41
1
10
67.3007471244022
20
-1.20575017320454
30
0
41
1
10
67.2908150833414
20
-1.2112860690041
30
0
41
1
10
67.2783326126627
20
-1.21576619040408
30
0
41
1
10
67.2672665839125
20
-1.21451440677657
30
0
41
1
10
67.2594925990758
20
-1.21130655535276
30
0
41
1
10
67.2569829425106
20
-1.20984959403171
30
0
41
1
10
67.2522176377126
20
-1.20620423409593
30
0
41
1
10
67.2499525564135
20
-1.20401435429474
30
0
41
1
10
67.2434999310004
20
-1.19634872374994
30
0
41
1
10
67.239652801017
20
-1.18978362240443
30
0
41
1
10
67.2345628452449
20
-1.17766191588385
30
0
41
1
10
67.2329801819903
20
-1.17324075859994
30
0
41
1
10
67.2300498737592
20
-1.16359977990373
30
0
41
1
10
67.2287016376472
20
-1.1583670105131
30
0
41
1
10
67.2250912267477
20
-1.14173637749079
30
0
41
1
10
67.2232304601857
20
-1.12932859877714
30
0
41
1
10
67.2206068925337
20
-1.10181995463896
30
0
41
1
10
67.2198430020634
20
-1.08671617113424
30
0
41
1
10
67.219529110637
20
-1.05355829034698
30
0
41
1
10
67.2199844401845
20
-1.03603415028195
30
0
41
1
10
67.2221297748451
20
-0.999116019236993
30
0
41
1
10
67.2238189362796
20
-0.979722942714233
30
0
41
1
10
67.2273828102773
20
-0.949124242709559
30
0
41
1
10
67.2287353686938
20
-0.938753967366068
30
0
41
1
10
67.2317364999556
20
-0.917944350538505
30
0
41
1
10
67.2333897028177
20
-0.907464445739464
30
0
41
1
10
67.2388139600882
20
-0.875803381671432
30
0
41
1
10
67.2430582450648
20
-0.854347340362921
30
0
41
1
10
67.2528510233138
20
-0.811059201314094
30
0
41
1
10
67.2582612629758
20
-0.78982762193732
30
0
41
1
10
67.2671451314878
20
-0.758573401771258
30
0
41
1
10
67.2702351378861
20
-0.748254732082444
30
0
41
1
10
67.2766794992477
20
-0.727818061480093
30
0
41
1
10
67.2800471457514
20
-0.717665545603381
30
0
41
1
10
67.290368785021
20
-0.688056925715529
30
0
41
1
10
67.2975861084897
20
-0.669284752871931
30
0
41
1
10
67.3126825390991
20
-0.633552793783764
30
0
41
1
10
67.3206247613608
20
-0.616485389392807
30
0
41
1
10
67.3367144655959
20
-0.585063656098384
30
0
41
1
10
67.3448935340158
20
-0.570609810985388
30
0
41
1
10
67.3615078237306
20
-0.544057298503247
30
0
41
1
10
67.3699936115912
20
-0.531907548279378
30
0
41
1
10
67.3867689121319
20
-0.510493040877918
30
0
41
1
10
67.3950994974115
20
-0.501147634162209
30
0
41
1
10
67.407499686951
20
-0.489066673715712
30
0
41
1
10
67.4116170008696
20
-0.485364037764157
30
0
41
1
10
67.4198161328967
20
-0.478606865000415
30
0
41
1
10
67.4239068009315
20
-0.475548143340035
30
0
41
1
10
67.4279254665208
20
-0.472850113367315
30
0
0
SPLINE
5
D1
100
AcDbEntity
8
1
62
256
6
ByLayer
370
18
48
1
60
0
100
AcDbSpline
70
4
71
3
72
8
73
4
40
0
40
0
40
0
40
0
40
1
40
1
40
1
40
1
41
1
10
67.4279254665208
20
-0.472850113367258
30
0
41
1
10
67.4183753226803
20
-0.443414316149386
30
0
41
1
10
67.4104946731455
20
-0.409387424687338
30
0
41
1
10
67.4040497485603
20
-0.371079359185615
30
0
0
SPLINE
5
D2
100
AcDbEntity
8
1
62
256
6
ByLayer
370
18
48
1
60
0
100
AcDbSpline
70
4
71
3
72
8
73
4
40
0
40
0
40
0
40
0
40
1
40
1
40
1
40
1
41
1
10
67.4040497485603
20
-0.371079359185558
30
0
41
1
10
67.3678973252628
20
-0.156192531355231
30
0
41
1
10
67.3206658868855
20
0.0639656089013272
30
0
41
1
10
67.262449999729
20
0.289350067646211
30
0
0
SPLINE
5
D3
100
AcDbEntity
8
1
62
256
6
ByLayer
370
18
48
1
60
0
100
AcDbSpline
70
4
71
3
72
13
73
9
40
0
40
0
40
0
40
0
40
0.499999999999985
40
0.499999999999985
40
0.624999999999989
40
0.624999999999989
40
0.749999999999993
40
1
40
1
40
1
40
1
41
1
10
67.1632055310202
20
-2.32133913883195
30
0
41
1
10
67.1446387791324
20
-2.3490076288345
30
0
41
1
10
67.1273691408343
20
-2.37281160160401
30
0
41
1
10
67.1074517531871
20
-2.39699036319692
30
0
41
1
10
67.1035699457771
20
-2.40152325619485
30
0
41
1
10
67.0960547490043
20
-2.40992650454271
30
0
41
1
10
67.085129721072
20
-2.42156774449648
30
0
41
1
10
67.0752067771521
20
-2.43035850574893
30
0
41
1
10
67.0690027588325
20
-2.43497880024
30
0
0
SPLINE
5
D4
100
AcDbEntity
8
1
62
256
6
ByLayer
370
18
48
1
60
0
100
AcDbSpline
70
4
71
3
72
8
73
4
40
0
40
0
40
0
40
0
40
1
40
1
40
1
40
1
41
1
10
67.7327888893044
20
-0.867115763624099
30
0
41
1
10
67.8015936101449
20
-0.675301938939896
30
0
41
1
10
67.8698239977125
20
-0.483285839094208
30
0
41
1
10
67.9374683537806
20
-0.291063344073734
30
0
0
SPLINE
5
D5
100
AcDbEntity
8
1
62
256
6
ByLayer
370
18
48
1
60
0
100
AcDbSpline
70
4
71
3
72
8
73
4
40
0
40
0
40
0
40
0
40
1
40
1
40
1
40
1
41
1
10
67.9374683537806
20
-0.291063344073734
30
0
41
1
10
67.9574830967356
20
-0.234188180325333
30
0
41
1
10
67.9779083937598
20
-0.177546996441805
30
0
41
1
10
67.9987512540586
20
-0.121134608192136
30
0
0
SPLINE
5
D6
100
AcDbEntity
8
1
62
256
6
ByLayer
370
18
48
1
60
0
100
AcDbSpline
70
4
71
3
72
8
73
4
40
0
40
0
40
0
40
0
40
1
40
1
40
1
40
1
41
1
10
67.9987512540541
20
0.121134608196712
30
0
41
1
10
68.0004140312752
20
0.0404857508852672
30
0
41
1
10
68.0004184719435
20
-0.0402703673571239
30
0
41
1
10
67.9987512540541
20
-0.121134608195462
30
0
0
SPLINE
5
D7
100
AcDbEntity
8
1
62
256
6
ByLayer
370
18
48
1
60
0
100
AcDbSpline
70
4
71
3
72
24
73
20
40
0
40
0
40
0
40
0
40
0.045686929948915
40
0.045686929948915
40
0.204739108290853
40
0.204739108290853
40
0.284265197461822
40
0.284265197461822
40
0.363791286632791
40
0.522843464974683
40
0.522843464974683
40
0.602369554145629
40
0.602369554145629
40
0.642132598731076
40
0.642132598731076
40
0.681895643316524
40
0.840947821658262
40
0.840947821658262
40
1
40
1
40
1
40
1
41
1
10
66.6781395349863
20
0.575753426724589
30
0
41
1
10
66.6860783452416
20
0.580273812319604
30
0
41
1
10
66.6941255285707
20
0.584870777755384
30
0
41
1
10
66.73069802883
20
0.605770780297235
30
0
41
1
10
66.7605269344115
20
0.622765466794306
30
0
41
1
10
66.807814399895
20
0.648805175405727
30
0
41
1
10
66.8240027302674
20
0.657586322521439
30
0
41
1
10
66.8567597349268
20
0.674931118149232
30
0
41
1
10
66.9066587967237
20
0.700724808142525
30
0
41
1
10
66.9590794226096
20
0.725204419928588
30
0
41
1
10
67.0135155194978
20
0.747919704312267
30
0
41
1
10
67.0319970462621
20
0.755197081626761
30
0
41
1
10
67.0602659870258
20
0.765559659896979
30
0
41
1
10
67.0697988705704
20
0.768927521299872
30
0
41
1
10
67.0888925469425
20
0.775407667108055
30
0
41
1
10
67.1367638528395
20
0.79099960802219
30
0
41
1
10
67.1853469618692
20
0.803420567537444
30
0
41
1
10
67.2640621841097
20
0.818874055493552
30
0
41
1
10
67.3039121823235
20
0.824384878174016
30
0
41
1
10
67.3442427039728
20
0.827721475291185
30
0
0
SPLINE
5
D8
100
AcDbEntity
8
1
62
256
6
ByLayer
370
18
48
1
60
0
100
AcDbSpline
70
4
71
3
72
8
73
4
40
0
40
0
40
0
40
0
40
1
40
1
40
1
40
1
41
1
10
67.3442427039728
20
0.827721475291241
30
0
41
1
10
67.4739795671818
20
0.838454776673672
30
0
41
1
10
67.6036640361253
20
0.850838836066771
30
0
41
1
10
67.7327888893106
20
0.867115763626288
30
0
0
SPLINE
5
D9
100
AcDbEntity
8
1
62
256
6
ByLayer
370
18
48
1
60
0
100
AcDbSpline
70
4
71
3
72
20
73
16
40
0
40
0
40
0
40
0
40
0.24999999999999
40
0.24999999999999
40
0.374999999999989
40
0.374999999999989
40
0.437499999999992
40
0.437499999999992
40
0.499999999999996
40
0.499999999999996
40
0.749999999999993
40
0.749999999999993
40
0.874999999999997
40
0.874999999999997
40
1
40
1
40
1
40
1
41
1
10
67.1632055310192
20
2.32133913883169
30
0
41
1
10
67.2058803476291
20
2.19685087153272
30
0
41
1
10
67.2488393608032
20
2.07197673163822
30
0
41
1
10
67.3139467426697
20
1.88431458726939
30
0
41
1
10
67.3357587684648
20
1.82170165402408
30
0
41
1
10
67.3686534635945
20
1.7277182284993
30
0
41
1
10
67.3796061447242
20
1.69638436663666
30
0
41
1
10
67.4019586882899
20
1.63365258779646
30
0
41
1
10
67.4133379782268
20
1.60220221948822
30
0
41
1
10
67.4708210390597
20
1.44622012225764
30
0
41
1
10
67.5189554830901
20
1.3246922652371
30
0
41
1
10
67.5958169581843
20
1.14771496994044
30
0
41
1
10
67.622223696755
20
1.08959088150633
30
0
41
1
10
67.6768378024018
20
0.975369242032798
30
0
41
1
10
67.7045694944864
20
0.920269360170124
30
0
41
1
10
67.7327888893051
20
0.867115763623389
30
0
0
SPLINE
5
DA
100
AcDbEntity
8
1
62
256
6
ByLayer
370
18
48
1
60
0
100
AcDbSpline
70
4
71
3
72
8
73
4
40
0
40
0
40
0
40
0
40
1
40
1
40
1
40
1
41
1
10
67.0763115687511
20
2.47231792864238
30
0
41
1
10
67.1052592489456
20
2.42200221329259
30
0
41
1
10
67.1342256074188
20
2.37167229556576
30
0
41
1
10
67.1632055310203
20
2.32133913883195
30
0
0
SPLINE
5
DB
100
AcDbEntity
8
1
62
256
6
ByLayer
370
18
48
1
60
0
100
AcDbSpline
70
4
71
3
72
24
73
20
40
0
40
0
40
0
40
0
40
0.198334005136819
40
0.198334005136819
40
0.297501007705233
40
0.297501007705233
40
0.396668010273646
40
0.396668010273646
40
0.49583501284206
40
0.49583501284206
40
0.595002015410473
40
0.595002015410473
40
0.694169017978887
40
0.694169017978887
40
0.793336020547301
40
0.793336020547301
40
0.99167002568412
40
0.99167002568412
40
1
40
1
40
1
40
1
41
1
10
67.0763115690033
20
2.47231792767909
30
0
41
1
10
66.8171077785224
20
2.47510274994005
30
0
41
1
10
66.5579323054945
20
2.46871947451888
30
0
41
1
10
66.1683566564617
20
2.44506134770478
30
0
41
1
10
66.0383602266486
20
2.43484121245353
30
0
41
1
10
65.7779879775964
20
2.4098266516938
30
0
41
1
10
65.6476873064452
20
2.39503222002233
30
0
41
1
10
65.3871850028357
20
2.36100187107402
30
0
41
1
10
65.256932313723
20
2.34175729762185
30
0
41
1
10
64.996417293495
20
2.29887956013934
30
0
41
1
10
64.8661587553482
20
2.27524480428613
30
0
41
1
10
64.6057165662681
20
2.22383766789162
30
0
41
1
10
64.4754825830697
20
2.19604032985649
30
0
41
1
10
64.214999571338
20
2.1364144369125
30
0
41
1
10
64.0849639973914
20
2.1046343697738
30
0
41
1
10
63.6952625136929
20
2.00363312422451
30
0
41
1
10
63.4360112161455
20
1.92874748324923
30
0
41
1
10
63.1659413004998
20
1.84353468802257
30
0
41
1
10
63.155055690149
20
1.84008794936577
30
0
41
1
10
63.1441700987894
20
1.83662918607058
30
0
0
SPLINE
5
DC
100
AcDbEntity
8
1
62
256
6
ByLayer
370
18
48
1
60
0
100
AcDbSpline
70
4
71
3
72
12
73
8
40
0
40
0
40
0
40
0
40
0.004727480820116
40
0.004727480820116
40
0.502363740410059
40
0.502363740410059
40
1
40
1
40
1
40
1
41
1
10
43.7610692510248
20
-0.622524995137127
30
0
41
1
10
43.7586262541559
20
-0.621401791984169
30
0
41
1
10
43.7561832469635
20
-0.620278380476094
30
0
41
1
10
43.4965769848648
20
-0.500877486750426
30
0
41
1
10
43.2392653084494
20
-0.380354225266672
30
0
41
1
10
42.723405094416
20
-0.136687902536835
30
0
41
1
10
42.4648753571391
20
-0.0134777149598051
30
0
41
1
10
42.2051583162971
20
0.109854244753478
30
0
0
SPLINE
5
DD
100
AcDbEntity
8
1
62
256
6
ByLayer
370
18
48
1
60
0
100
AcDbSpline
70
4
71
3
72
14
73
10
40
0
40
0
40
0
40
0
40
0.25
40
0.25
40
0.5
40
0.5
40
0.75
40
0.75
40
1
40
1
40
1
40
1
41
1
10
67.262449999729
20
0.289350067646211
30
0
41
1
10
67.2440886053504
20
0.280521542297833
30
0
41
1
10
67.2257348473111
20
0.269887173785577
30
0
41
1
10
67.1891894629998
20
0.247086361696091
30
0
41
1
10
67.170985437388
20
0.234692523598369
30
0
41
1
10
67.1347428696957
20
0.206752632101427
30
0
41
1
10
67.1167098027869
20
0.19134573936617
30
0
41
1
10
67.0808902790793
20
0.157812181407166
30
0
41
1
10
67.0631032803623
20
0.139633320692923
30
0
41
1
10
67.0454724810605
20
0.120304367737845
30
0
0
SPLINE
5
DE
100
AcDbEntity
8
1
62
256
6
ByLayer
370
18
48
1
60
0
100
AcDbSpline
70
4
71
3
72
23
73
19
40
0
40
0
40
0
40
0
40
0.219004001794807
40
0.219004001794807
40
0.32850600269221
40
0.438008003589614
40
0.438008003589614
40
0.547510004487017
40
0.547510004487017
40
0.65701200538442
40
0.65701200538442
40
0.766514006281823
40
0.766514006281823
40
0.876016007179225
40
0.876016007179225
40
0.985518008076628
40
0.985518008076628
40
1
40
1
40
1
40
1
41
1
10
67.262449999729
20
0.289350067646211
30
0
41
1
10
67.2200869209556
20
0.313332423429785
30
0
41
1
10
67.1778409417658
20
0.336496592870304
30
0
41
1
10
67.1146721489199
20
0.369844197997367
30
0
41
1
10
67.0726268545757
20
0.391606162622054
30
0
41
1
10
67.0307268355942
20
0.412353073955586
30
0
41
1
10
66.9888729091443
20
0.432777932222621
30
0
41
1
10
66.9679633827902
20
0.442868528220032
30
0
41
1
10
66.9261811678721
20
0.462792330940431
30
0
41
1
10
66.9053117268181
20
0.472602846990696
30
0
41
1
10
66.8636671537433
20
0.49156493257189
30
0
41
1
10
66.8428574987673
20
0.500726649790522
30
0
41
1
10
66.8015665189985
20
0.51818909098813
30
0
41
1
10
66.7810825588334
20
0.526492996121362
30
0
41
1
10
66.7404897662327
20
0.542108432469917
30
0
41
1
10
66.7203929684936
20
0.549388126745754
30
0
41
1
10
66.6978606812274
20
0.557042302334338
30
0
41
1
10
66.6952316470168
20
0.557928792439753
30
0
41
1
10
66.6926051273438
20
0.558808630513369
30
0
0
SPLINE
5
DF
100
AcDbEntity
8
1
62
256
6
ByLayer
370
18
48
1
60
0
100
AcDbSpline
70
4
71
3
72
20
73
16
40
0
40
0
40
0
40
0
40
0.249999999999991
40
0.249999999999991
40
0.374999999999991
40
0.374999999999991
40
0.437499999999991
40
0.437499999999991
40
0.499999999999991
40
0.499999999999991
40
0.74999999999999
40
0.74999999999999
40
0.874999999999995
40
0.874999999999995
40
1
40
1
40
1
40
1
41
1
10
67.1632055310193
20
-2.32133913883152
30
0
41
1
10
67.2058803476292
20
-2.19685087153258
30
0
41
1
10
67.2488393608032
20
-2.07197673163805
30
0
41
1
10
67.3139467426698
20
-1.88431458726922
30
0
41
1
10
67.3357587684648
20
-1.82170165402391
30
0
41
1
10
67.3686534635946
20
-1.72771822849913
30
0
41
1
10
67.3796061447242
20
-1.69638436663649
30
0
41
1
10
67.40195868829
20
-1.63365258779629
30
0
41
1
10
67.4133379782268
20
-1.60220221948805
30
0
41
1
10
67.4708210390598
20
-1.44622012225756
30
0
41
1
10
67.5189554830901
20
-1.32469226523705
30
0
41
1
10
67.5958169581843
20
-1.14771496994041
30
0
41
1
10
67.6222236967551
20
-1.08959088150621
30
0
41
1
10
67.6768378024018
20
-0.97536924203277
30
0
41
1
10
67.7045694944863
20
-0.920269360170124
30
0
41
1
10
67.7327888893051
20
-0.867115763623417
30
0
0
SPLINE
5
E0
100
AcDbEntity
8
1
62
256
6
ByLayer
370
18
48
1
60
0
100
AcDbSpline
70
4
71
3
72
8
73
4
40
0
40
0
40
0
40
0
40
1
40
1
40
1
40
1
41
1
10
67.0763115692179
20
-2.47231792783094
30
0
41
1
10
67.1052592492571
20
-2.42200221275141
30
0
41
1
10
67.1342256075746
20
-2.37167229529507
30
0
41
1
10
67.1632055310203
20
-2.32133913883178
30
0
0
SPLINE
5
E1
100
AcDbEntity
8
1
62
256
6
ByLayer
370
18
48
1
60
0
100
AcDbSpline
70
4
71
3
72
24
73
20
40
0
40
0
40
0
40
0
40
0.124999999999997
40
0.124999999999997
40
0.249999999999994
40
0.249999999999994
40
0.499999999999993
40
0.499999999999993
40
0.624999999999995
40
0.624999999999995
40
0.687499999999996
40
0.687499999999996
40
0.749999999999997
40
0.749999999999997
40
0.812499999999998
40
0.812499999999998
40
0.874999999999998
40
0.874999999999998
40
1
40
1
40
1
40
1
41
1
10
42.2051583162974
20
2.4948441697361
30
0
41
1
10
42.2051583162974
20
2.48955871058087
30
0
41
1
10
42.2056673562509
20
2.48422362880118
30
0
41
1
10
42.2076918621148
20
2.47370850924031
30
0
41
1
10
42.209206001995
20
2.46849003549181
30
0
41
1
10
42.2153769326551
20
2.45296511081125
30
0
41
1
10
42.2214295118135
20
2.44319105659545
30
0
41
1
10
42.2341378303806
20
2.42965596136799
30
0
41
1
10
42.2389482809472
20
2.42540221804123
30
0
41
1
10
42.2469783726622
20
2.41963534020272
30
0
41
1
10
42.2497991081658
20
2.41780802899174
30
0
41
1
10
42.2557630932541
20
2.41436714155344
30
0
41
1
10
42.2589202066105
20
2.41274951823189
30
0
41
1
10
42.2654331497632
20
2.40983504468988
30
0
41
1
10
42.2688046532142
20
2.40852748023025
30
0
41
1
10
42.2757967711944
20
2.4062374351833
30
0
41
1
10
42.2794475082419
20
2.4052491901696
30
0
41
1
10
42.2905668311316
20
2.40288524845369
30
0
41
1
10
42.2981667667223
20
2.40209357884211
30
0
41
1
10
42.3059694333513
20
2.40215328152166
30
0
0
SPLINE
5
E2
100
AcDbEntity
8
1
62
256
6
ByLayer
370
18
48
1
60
0
100
AcDbSpline
70
4
71
3
72
22
73
18
40
0
40
0
40
0
40
0
40
0.499999999999931
40
0.499999999999931
40
0.749999999999896
40
0.749999999999896
40
0.874999999999882
40
0.874999999999882
40
0.937499999999941
40
0.937499999999941
40
0.968749999999971
40
0.968749999999971
40
0.984374999999985
40
0.984374999999985
40
0.992187499999993
40
0.992187499999993
40
1
40
1
40
1
40
1
41
1
10
67.0112205898647
20
-2.57939774699969
30
0
41
1
10
67.0220504053923
20
-2.56169576915823
30
0
41
1
10
67.0328883719623
20
-2.54392466768652
30
0
41
1
10
67.0492358494508
20
-2.51699753910273
30
0
41
1
10
67.0547115423062
20
-2.50795216578669
30
0
41
1
10
67.0628821353065
20
-2.49446093973049
30
0
41
1
10
67.0655974635416
20
-2.48997896307841
30
0
41
1
10
67.0696390747456
20
-2.48331821070411
30
0
41
1
10
67.0709779846117
20
-2.4811147351291
30
0
41
1
10
67.0729842057623
20
-2.47781265245015
30
0
41
1
10
67.0736604248852
20
-2.47669621859174
30
0
41
1
10
67.0747038313468
20
-2.47495734934486
30
0
41
1
10
67.0750579566635
20
-2.47436320726419
30
0
41
1
10
67.0755806611344
20
-2.47349134695347
30
0
41
1
10
67.0757538183728
20
-2.47320335046686
30
0
41
1
10
67.0760802690713
20
-2.4726690620011
30
0
41
1
10
67.0762379358314
20
-2.47241689534371
30
0
41
1
10
67.0763115687782
20
-2.4723179286112
30
0
0
SPLINE
5
E3
100
AcDbEntity
8
1
62
256
6
ByLayer
370
18
48
1
60
0
100
AcDbSpline
70
4
71
3
72
56
73
52
40
0
40
0
40
0
40
0
40
0.0064257504824777
40
0.0064257504824777
40
0.0645771201793386
40
0.0645771201793386
40
0.122728489876199
40
0.122728489876199
40
0.137266332300415
40
0.137266332300415
40
0.151804174724631
40
0.151804174724631
40
0.180879859573063
40
0.180879859573063
40
0.239031229269926
40
0.239031229269926
40
0.29718259896679
40
0.29718259896679
40
0.413485338360519
40
0.413485338360519
40
0.442561023208952
40
0.442561023208952
40
0.457098865633168
40
0.457098865633168
40
0.471636708057384
40
0.471636708057384
40
0.529788077754251
40
0.529788077754251
40
0.587939447451119
40
0.587939447451119
40
0.617015132299551
40
0.617015132299551
40
0.646090817147983
40
0.646090817147983
40
0.704242186844848
40
0.704242186844848
40
0.762393556541713
40
0.762393556541713
40
0.820544926238578
40
0.820544926238578
40
0.878696295935443
40
0.878696295935443
40
0.907771980783874
40
0.907771980783874
40
0.922309823208089
40
0.922309823208089
40
0.936847665632305
40
0.936847665632305
40
0.994999035329164
40
0.994999035329164
40
1
40
1
40
1
40
1
41
1
10
60.1422858733052
20
-0.636676943656511
30
0
41
1
10
60.1135777287489
20
-0.623506299287953
30
0
41
1
10
60.0848752380843
20
-0.610309989896422
30
0
41
1
10
59.7964730225934
20
-0.477446330101486
30
0
41
1
10
59.5372119219222
20
-0.355748396990833
30
0
41
1
10
59.0185171100384
20
-0.110387234401458
30
0
41
1
10
58.7590487965157
20
0.0131989316846273
30
0
41
1
10
58.4339378437244
20
0.16746044029
30
0
41
1
10
58.3688758418691
20
0.198299747264287
30
0
41
1
10
58.2386564426731
20
0.259918659645791
30
0
41
1
10
58.1735263266456
20
0.290684447986933
30
0
41
1
10
57.9785000396911
20
0.382578940441476
30
0
41
1
10
57.8487983870359
20
0.443382015838125
30
0
41
1
10
57.460440640682
20
0.623983704119325
30
0
41
1
10
57.2025777850276
20
0.742076202884476
30
0
41
1
10
56.6878121957045
20
0.971515190165121
30
0
41
1
10
56.4308841361033
20
1.0827918151048
30
0
41
1
10
55.6600863914043
20
1.40386042534598
30
0
41
1
10
55.1461651511248
20
1.60077637980231
30
0
41
1
10
54.4986768815763
20
1.81544099470014
30
0
41
1
10
54.3689192697592
20
1.85679901951855
30
0
41
1
10
54.1737781375153
20
1.91627834131904
30
0
41
1
10
54.1086083076007
20
1.93568743527706
30
0
41
1
10
53.9783992227296
20
1.97354552514281
30
0
41
1
10
53.9133348180277
20
1.99200513825767
30
0
41
1
10
53.5881769690984
20
2.08193226029323
30
0
41
1
10
53.3285639221272
20
2.14625872511229
30
0
41
1
10
52.8092499899281
20
2.25835230684214
30
0
41
1
10
52.5495497037538
20
2.30611110152719
30
0
41
1
10
52.1591794120684
20
2.36485094475742
30
0
41
1
10
52.0287813286072
20
2.38228688358868
30
0
41
1
10
51.7688283777363
20
2.41258136242828
30
0
41
1
10
51.6391495173654
20
2.42545321058265
30
0
41
1
10
51.2508455254224
20
2.45732558288401
30
0
41
1
10
50.9929583668879
20
2.46959684891559
30
0
41
1
10
50.4781276720523
20
2.47582172485517
30
0
41
1
10
50.2211882948399
20
2.46966272625849
30
0
41
1
10
49.7072708393183
20
2.4390856288658
30
0
41
1
10
49.4502696621278
20
2.41470298535029
30
0
41
1
10
48.9350510199447
20
2.34847044788634
30
0
41
1
10
48.676891928407
20
2.30667038231306
30
0
41
1
10
48.2880289320407
20
2.23104215615598
30
0
41
1
10
48.1581336952403
20
2.20368731490569
30
0
41
1
10
47.9627759977671
20
2.1595046875899
30
0
41
1
10
47.8976285549297
20
2.14426381413577
30
0
41
1
10
47.7674726525756
20
2.11282273839876
30
0
41
1
10
47.7024327145
20
2.09661559655473
30
0
41
1
10
47.377373196846
20
2.01320209921087
30
0
41
1
10
47.1177845542266
20
1.93888907535137
30
0
41
1
10
46.8357741382311
20
1.85051748666621
30
0
41
1
10
46.8134416812923
20
1.8434668617582
30
0
41
1
10
46.7911085063645
20
1.83636422490878
30
0
0
SPLINE
5
E4
100
AcDbEntity
8
1
62
256
6
ByLayer
370
13
48
1
60
0
100
AcDbSpline
70
4
71
3
72
10
73
6
40
0
40
0
40
0
40
0
40
0.5
40
0.5
40
1
40
1
40
1
40
1
41
1
10
42.3435470020278
20
2.40191357364876
30
0
41
1
10
42.3376418671268
20
2.40204718408896
30
0
41
1
10
42.3315476342598
20
2.4021300681612
30
0
41
1
10
42.3189961142316
20
2.40220827582951
30
0
41
1
10
42.3124901183963
20
2.40220285516821
30
0
41
1
10
42.3059694333513
20
2.40215328152166
30
0
0
SPLINE
5
E5
100
AcDbEntity
8
1
62
256
6
ByLayer
370
13
48
1
60
0
100
AcDbSpline
70
4
71
3
72
37
73
33
40
0
40
0
40
0
40
0
40
0.124999999999999
40
0.124999999999999
40
0.187499999999998
40
0.187499999999998
40
0.218749999999998
40
0.218749999999998
40
0.249999999999998
40
0.249999999999998
40
0.374999999999997
40
0.374999999999997
40
0.437499999999997
40
0.468749999999997
40
0.468749999999997
40
0.499999999999997
40
0.499999999999997
40
0.624999999999997
40
0.624999999999997
40
0.656249999999997
40
0.656249999999997
40
0.687499999999997
40
0.687499999999997
40
0.749999999999997
40
0.749999999999997
40
0.874999999999998
40
0.874999999999998
40
0.906249999999999
40
0.906249999999999
40
0.937499999999999
40
0.937499999999999
40
1
40
1
40
1
40
1
41
1
10
42.3059694333512
20
2.40215328152166
30
0
41
1
10
42.3059602642984
20
2.39373611204098
30
0
41
1
10
42.3059487133115
20
2.37374216167834
30
0
41
1
10
42.3059284124942
20
2.32703449775005
30
0
41
1
10
42.3059211442903
20
2.30866346134496
30
0
41
1
10
42.3059095182891
20
2.27684682169718
30
0
41
1
10
42.3059055220313
20
2.26553030943018
30
0
41
1
10
42.3058972885872
20
2.24145382337474
30
0
41
1
10
42.30589304148
20
2.22866221529077
30
0
41
1
10
42.3058713822367
20
2.16159573351266
30
0
41
1
10
42.3058526565587
20
2.09790143572479
30
0
41
1
10
42.3058225317418
20
1.98779581285146
30
0
41
1
10
42.3058069534881
20
1.92908172412086
30
0
41
1
10
42.3057905513669
20
1.864787959279
30
0
41
1
10
42.3057794234645
20
1.82066275677027
30
0
41
1
10
42.3057737535026
20
1.79792970963788
30
0
41
1
10
42.3057451138417
20
1.68194558227063
30
0
41
1
10
42.3057211677564
20
1.58130864778624
30
0
41
1
10
42.3056895396717
20
1.44575449197544
30
0
41
1
10
42.3056831273812
20
1.41814925577941
30
0
41
1
10
42.30567011886
20
1.36195683184039
30
0
41
1
10
42.3056635630182
20
1.33354430061868
30
0
41
1
10
42.305643723789
20
1.24737706343956
30
0
41
1
10
42.3056302691807
20
1.18869440530921
30
0
41
1
10
42.3055890678515
20
1.00902207965822
30
0
41
1
10
42.3055604943116
20
0.884433682329529
30
0
41
1
10
42.305522753076
20
0.722591353179865
30
0
41
1
10
42.3055151027723
20
0.68991549298201
30
0
41
1
10
42.3054995782206
20
0.623937984745282
30
0
41
1
10
42.3054916932411
20
0.590591667813356
30
0
41
1
10
42.3054678221987
20
0.490230022820555
30
0
41
1
10
42.3054515834424
20
0.422734017780669
30
0
41
1
10
42.3054349553791
20
0.354648158170079
30
0
0
SPLINE
5
E6
100
AcDbEntity
8
1
62
256
6
ByLayer
370
13
48
1
60
0
100
AcDbSpline
70
4
71
3
72
8
73
4
40
0
40
0
40
0
40
0
40
1
40
1
40
1
40
1
41
1
10
42.3494101358817
20
2.53025728980961
30
0
41
1
10
42.3488565081657
20
2.49098672814517
30
0
41
1
10
42.3482953367431
20
2.45171564464809
30
0
41
1
10
42.3477266461367
20
2.41244400288505
30
0
0
SPLINE
5
E7
100
AcDbEntity
8
1
62
256
6
ByLayer
370
18
48
1
60
0
100
AcDbSpline
70
4
71
3
72
38
73
34
40
0
40
0
40
0
40
0
40
0.0984203568559227
40
0.0984203568559227
40
0.196840713711846
40
0.196840713711846
40
0.246050892139807
40
0.246050892139807
40
0.295261070567769
40
0.295261070567769
40
0.393681427423697
40
0.393681427423697
40
0.492101784279624
40
0.492101784279624
40
0.541311962707587
40
0.541311962707587
40
0.590522141135551
40
0.590522141135551
40
0.688942497991474
40
0.688942497991474
40
0.738152676419436
40
0.738152676419436
40
0.762757765633414
40
0.762757765633414
40
0.787362854847393
40
0.787362854847393
40
0.885783211703312
40
0.885783211703312
40
0.934993390131269
40
0.934993390131269
40
0.984203568559226
40
0.984203568559226
40
1
40
1
40
1
40
1
41
1
10
42.3477266461367
20
2.41244400288505
30
0
41
1
10
42.606923418504
20
2.40700451888375
30
0
41
1
10
42.8658377370149
20
2.39134310747562
30
0
41
1
10
43.383925776531
20
2.34154970226592
30
0
41
1
10
43.6430845021986
20
2.30741318437037
30
0
41
1
10
44.0323055722817
20
2.24386959826177
30
0
41
1
10
44.1621021791016
20
2.22065170945157
30
0
41
1
10
44.4218351656922
20
2.17033262218294
30
0
41
1
10
44.5513669735397
20
2.14325906704201
30
0
41
1
10
44.9391326519552
20
2.05609765294759
30
0
41
1
10
45.1965783207002
20
1.99019274442793
30
0
41
1
10
45.7104701809283
20
1.84447383925271
30
0
41
1
10
45.9668985282752
20
1.76467581154742
30
0
41
1
10
46.3512383067283
20
1.63600260947146
30
0
41
1
10
46.4792768051534
20
1.59160704870604
30
0
41
1
10
46.7352521188507
20
1.49999279288869
30
0
41
1
10
46.8632394439966
20
1.45277388063903
30
0
41
1
10
47.247862053222
20
1.30708190962022
30
0
41
1
10
47.505007427469
20
1.20459916777352
30
0
41
1
10
47.8916330988778
20
1.04423255583205
30
0
41
1
10
48.020642398857
20
0.989640403638248
30
0
41
1
10
48.2143990496185
20
0.906147228670761
30
0
41
1
10
48.2790376094022
20
0.87805789059945
30
0
41
1
10
48.4085073330344
20
0.821431965997959
30
0
41
1
10
48.4734071094655
20
0.79287070177503
30
0
41
1
10
48.7976198151297
20
0.649467557540845
30
0
41
1
10
49.0558599502774
20
0.532854223074651
30
0
41
1
10
49.441944161484
20
0.355841836730747
30
0
41
1
10
49.5704162554464
20
0.296467582799977
30
0
41
1
10
49.8269828368972
20
0.177122405732462
30
0
41
1
10
49.9551011319946
20
0.117208914388783
30
0
41
1
10
50.1242861147386
20
0.0381170263437696
30
0
41
1
10
50.1653903266339
20
0.0188956520947272
30
0
41
1
10
50.2064881785811
20
-0.0003262399634991
30
0
0
SPLINE
5
E8
100
AcDbEntity
8
1
62
256
6
ByLayer
370
18
48
1
60
0
100
AcDbSpline
70
4
71
3
72
40
73
36
40
0
40
0
40
0
40
0
40
0.0260191961474516
40
0.0260191961474516
40
0.0723992344261461
40
0.0723992344261461
40
0.118779272704841
40
0.118779272704841
40
0.165159310983535
40
0.165159310983535
40
0.257919387540924
40
0.257919387540924
40
0.281109406680272
40
0.281109406680272
40
0.304299425819619
40
0.304299425819619
40
0.350679464098313
40
0.350679464098313
40
0.443439540655698
40
0.443439540655698
40
0.489819578934391
40
0.489819578934391
40
0.536199617213083
40
0.536199617213083
40
0.628959693770468
40
0.628959693770468
40
0.721719770327853
40
0.721719770327853
40
0.768099808606546
40
0.768099808606546
40
0.814479846885238
40
0.814479846885238
40
0.907239923442619
40
0.907239923442619
40
1
40
1
40
1
40
1
41
1
10
50.6805227511367
20
-0.231941998867768
30
0
41
1
10
50.6086948081577
20
-0.198628750795336
30
0
41
1
10
50.5368913729447
20
-0.165215250705217
30
0
41
1
10
50.3370855626532
20
-0.0721438106542962
30
0
41
1
10
50.2090442060629
20
-0.0124830646256839
30
0
41
1
10
49.9528238148212
20
0.106817104724513
30
0
41
1
10
49.8246696120237
20
0.16651751086215
30
0
41
1
10
49.5680310334562
20
0.285447795154283
30
0
41
1
10
49.4395239001131
20
0.344621965190356
30
0
41
1
10
49.053342421427
20
0.521066418073929
30
0
41
1
10
48.795048077947
20
0.637344904002333
30
0
41
1
10
48.47078007347
20
0.780388291631311
30
0
41
1
10
48.4058666063013
20
0.808882360551735
30
0
41
1
10
48.2763665223162
20
0.865376407079509
30
0
41
1
10
48.2117117423626
20
0.893401445738959
30
0
41
1
10
48.0179043618877
20
0.976706627256391
30
0
41
1
10
47.8888592728604
20
1.03118117329959
30
0
41
1
10
47.5021277072164
20
1.19124033753934
30
0
41
1
10
47.2449130664405
20
1.29357711768418
30
0
41
1
10
46.860183817398
20
1.43913418969393
30
0
41
1
10
46.7321592863391
20
1.48632023855364
30
0
41
1
10
46.4761041757044
20
1.57787781561842
30
0
41
1
10
46.348024918918
20
1.62225248976796
30
0
41
1
10
45.9635698121309
20
1.7509068314057
30
0
41
1
10
45.7070702306723
20
1.83074543433619
30
0
41
1
10
45.193043244741
20
1.97663668254839
30
0
41
1
10
44.9355323022521
20
2.04267104914513
30
0
41
1
10
44.5476792010502
20
2.13009553063287
30
0
41
1
10
44.4181209629085
20
2.15726817529969
30
0
41
1
10
44.1583322659344
20
2.20780343660422
30
0
41
1
10
44.0285062750572
20
2.23113884161305
30
0
41
1
10
43.6391999445707
20
2.29507095693043
30
0
41
1
10
43.3799846517822
20
2.32951205172432
30
0
41
1
10
42.861780043674
20
2.37999797991986
30
0
41
1
10
42.6028056098661
20
2.39604755072057
30
0
41
1
10
42.3435470020278
20
2.40191357364876
30
0
0
SPLINE
5
E9
100
AcDbEntity
8
1
62
256
6
ByLayer
370
18
48
1
60
0
100
AcDbSpline
70
4
71
3
72
8
73
4
40
0
40
0
40
0
40
0
40
1
40
1
40
1
40
1
41
1
10
67.0706538855484
20
-2.43787360786271
30
0
41
1
10
67.0701032279198
20
-2.43695785342769
30
0
41
1
10
67.0695528633655
20
-2.43599289148423
30
0
41
1
10
67.0690027588325
20
-2.43497880023997
30
0
0
SPLINE
5
EA
100
AcDbEntity
8
1
62
256
6
ByLayer
370
18
48
1
60
0
100
AcDbSpline
70
4
71
3
72
42
73
38
40
0
40
0
40
0
40
0
40
0.125
40
0.125
40
0.1875
40
0.1875
40
0.21875
40
0.21875
40
0.25
40
0.25
40
0.375
40
0.375
40
0.437500000000001
40
0.437500000000001
40
0.468750000000001
40
0.468750000000001
40
0.500000000000001
40
0.500000000000001
40
0.562500000000001
40
0.562500000000001
40
0.593750000000001
40
0.593750000000001
40
0.625000000000002
40
0.625000000000002
40
0.687500000000002
40
0.687500000000002
40
0.718750000000002
40
0.718750000000002
40
0.750000000000002
40
0.750000000000002
40
0.875
40
0.875
40
0.9375
40
0.9375
40
0.96875
40
0.96875
40
1
40
1
40
1
40
1
41
1
10
67.0452558144273
20
-0.240031117250453
30
0
41
1
10
67.029514272388
20
-0.378498809737977
30
0
41
1
10
67.0177630807144
20
-0.514191390318672
30
0
41
1
10
67.0042089945272
20
-0.713560028718888
30
0
41
1
10
67.0003775836134
20
-0.779317960606704
30
0
41
1
10
66.9954826662265
20
-0.876876498823805
30
0
41
1
10
66.9939934399973
20
-0.909216071313153
30
0
41
1
10
66.9912746172652
20
-0.973527436284968
30
0
41
1
10
66.9900425206636
20
-1.00557434993647
30
0
41
1
10
66.9845096901779
20
-1.16384574919351
30
0
41
1
10
66.9820500241268
20
-1.28379856556106
30
0
41
1
10
66.9802572720595
20
-1.45405399372336
30
0
41
1
10
66.9799846160122
20
-1.50918471371608
30
0
41
1
10
66.9800053598046
20
-1.58941107174908
30
0
41
1
10
66.9800843842875
20
-1.61574102695749
30
0
41
1
10
66.9803830278206
20
-1.66756338370789
30
0
41
1
10
66.9806032459727
20
-1.69309336036702
30
0
41
1
10
66.9814690021011
20
-1.76791628579915
30
0
41
1
10
66.9823173027838
20
-1.81556662714806
30
0
41
1
10
66.9840113548807
20
-1.8837123478925
30
0
41
1
10
66.9846468348244
20
-1.90587185985228
30
0
41
1
10
66.986068305199
20
-1.94907317131106
30
0
41
1
10
66.9868548822124
20
-1.97012263171931
30
0
41
1
10
66.9894469197855
20
-2.03129489703039
30
0
41
1
10
66.9914855506785
20
-2.06954664644229
30
0
41
1
10
66.9951060257872
20
-2.12314467782613
30
0
41
1
10
66.9964071102166
20
-2.14037989620201
30
0
41
1
10
66.9992202111425
20
-2.1735808852182
30
0
41
1
10
67.0007315700069
20
-2.18953027710143
30
0
41
1
10
67.0088175999532
20
-2.26555437037652
30
0
41
1
10
67.0169867085333
20
-2.31501066744693
30
0
41
1
10
67.0331106469054
20
-2.37264798137488
30
0
41
1
10
67.0391364377272
20
-2.38908792574145
30
0
41
1
10
67.0493798304575
20
-2.40952127832617
30
0
41
1
10
67.0529955620474
20
-2.41562707036894
30
0
41
1
10
67.0606740094135
20
-2.42640538040214
30
0
41
1
10
67.0647277513224
20
-2.4310620676136
30
0
41
1
10
67.0690027588325
20
-2.43497880023997
30
0
0
SPLINE
5
EB
100
AcDbEntity
8
1
62
256
6
ByLayer
370
18
48
1
60
0
100
AcDbSpline
70
4
71
3
72
44
73
40
40
0
40
0
40
0
40
0
40
0.0556900022364968
40
0.0556900022364968
40
0.145295741259163
40
0.145295741259163
40
0.167697176014829
40
0.167697176014829
40
0.190098610770495
40
0.190098610770495
40
0.234901480281822
40
0.234901480281822
40
0.324507219304472
40
0.324507219304472
40
0.414112958327123
40
0.414112958327123
40
0.458915827838448
40
0.458915827838448
40
0.503718697349773
40
0.503718697349773
40
0.593324436372427
40
0.593324436372427
40
0.638127305883755
40
0.638127305883755
40
0.660528740639419
40
0.660528740639419
40
0.682930175395082
40
0.682930175395082
40
0.772535914417741
40
0.772535914417741
40
0.817338783929072
40
0.817338783929072
40
0.862141653440403
40
0.862141653440403
40
0.906944522951734
40
0.906944522951734
40
0.951747392463065
40
0.951747392463065
40
1
40
1
40
1
40
1
41
1
10
42.6009238179726
20
0.219223038495983
30
0
41
1
10
42.7625426056581
20
0.144898011897595
30
0
41
1
10
42.9239983687611
20
0.070290819176023
30
0
41
1
10
43.3451056740166
20
-0.124462701505649
30
0
41
1
10
43.6046810878691
20
-0.244661770969742
30
0
41
1
10
43.929683985345
20
-0.393521958018766
30
0
41
1
10
43.9947112105435
20
-0.423224577500918
30
0
41
1
10
44.1248358724635
20
-0.482453855947483
30
0
41
1
10
44.1899742898977
20
-0.511998936799529
30
0
41
1
10
44.3851916691732
20
-0.600165512254193
30
0
41
1
10
44.5150020051685
20
-0.658287957239111
30
0
41
1
10
44.9036601790359
20
-0.83033225131436
30
0
41
1
10
45.1617210213427
20
-0.941933634482638
30
0
41
1
10
45.6765905689829
20
-1.15709170528731
30
0
41
1
10
45.9334125050588
20
-1.26066190591257
30
0
41
1
10
46.3185728832823
20
-1.40872150720102
30
0
41
1
10
46.4469434751833
20
-1.45684631306884
30
0
41
1
10
46.7037529317366
20
-1.55029631904173
30
0
41
1
10
46.832194045456
20
-1.59563609454131
30
0
41
1
10
47.2178201422634
20
-1.7273211778882
30
0
41
1
10
47.4753036467404
20
-1.80932917554273
30
0
41
1
10
47.8628501378999
20
-1.92256584463161
30
0
41
1
10
47.9922536577407
20
-1.95866198100947
30
0
41
1
10
48.1867975528525
20
-2.01002930173681
30
0
41
1
10
48.2517183147299
20
-2.02669442889294
30
0
41
1
10
48.3817199721875
20
-2.05910494737111
30
0
41
1
10
48.4468469181622
20
-2.0748611997096
30
0
41
1
10
48.7719009987508
20
-2.15108713343656
30
0
41
1
10
49.0306781426228
20
-2.2040392159052
30
0
41
1
10
49.4176619470141
20
-2.27096202315539
30
0
41
1
10
49.5464574110639
20
-2.29117512085051
30
0
41
1
10
49.8037641052463
20
-2.32727632949565
30
0
41
1
10
49.932280400006
20
-2.3431864096728
30
0
41
1
10
50.1891977426889
20
-2.37079642982735
30
0
41
1
10
50.3175927844349
20
-2.38246977697943
30
0
41
1
10
50.5743416964789
20
-2.40130718695662
30
0
41
1
10
50.7026990401357
20
-2.40849514621971
30
0
41
1
10
50.9693995237245
20
-2.41888275367754
30
0
41
1
10
51.1077491515086
20
-2.4217314084884
30
0
41
1
10
51.2462298804467
20
-2.42203312629252
30
0
0
SPLINE
5
EC
100
AcDbEntity
8
1
62
256
6
ByLayer
370
18
48
1
60
0
100
AcDbSpline
70
4
71
3
72
8
73
4
40
0
40
0
40
0
40
0
40
1
40
1
40
1
40
1
41
1
10
66.9948093952449
20
-2.56326891149956
30
0
41
1
10
67.0183147161006
20
-2.52525458892092
30
0
41
1
10
67.04184953138
20
-2.48705174027637
30
0
41
1
10
67.0654188952309
20
-2.44866131034445
30
0
0
SPLINE
5
ED
100
AcDbEntity
8
1
62
256
6
ByLayer
370
18
48
1
60
0
100
AcDbSpline
70
4
71
3
72
14
73
10
40
0
40
0
40
0
40
0
40
0.249999999999999
40
0.249999999999999
40
0.499999999999998
40
0.499999999999998
40
0.749999999999997
40
0.749999999999997
40
1
40
1
40
1
40
1
41
1
10
67.0654188952309
20
-2.44866131034445
30
0
41
1
10
67.0661132103552
20
-2.44753039071944
30
0
41
1
10
67.0668169904512
20
-2.44633845888419
30
0
41
1
10
67.0681778833051
20
-2.44391463434101
30
0
41
1
10
67.0688265846063
20
-2.44269386216024
30
0
41
1
10
67.069866802017
20
-2.44056865682734
30
0
41
1
10
67.0702607803937
20
-2.43965685142692
30
0
41
1
10
67.0706934579397
20
-2.43838360799938
30
0
41
1
10
67.0707394051332
20
-2.43801582860911
30
0
41
1
10
67.0706538855483
20
-2.43787360786246
30
0
0
SPLINE
5
EE
100
AcDbEntity
8
1
62
256
6
ByLayer
370
18
48
1
60
0
100
AcDbSpline
70
4
71
3
72
39
73
35
40
0
40
0
40
0
40
0
40
0.0005235536626311
40
0.0005235536626311
40
0.04811767015489
40
0.04811767015489
40
0.143305903139407
40
0.143305903139407
40
0.238494136123924
40
0.238494136123924
40
0.333682369108442
40
0.333682369108442
40
0.428870602092959
40
0.428870602092959
40
0.452667660339086
40
0.452667660339086
40
0.476464718585213
40
0.476464718585213
40
0.524058835077464
40
0.524058835077464
40
0.619247068061968
40
0.619247068061968
40
0.666841184554223
40
0.666841184554223
40
0.714435301046477
40
0.714435301046477
40
0.809623534030986
40
0.809623534030986
40
0.904811767015495
40
0.904811767015495
40
0.952405883507747
40
0.976202941753874
40
0.976202941753874
40
1
40
1
40
1
40
1
41
1
10
58.9715696090113
20
0.212049268637145
30
0
41
1
10
58.9729903556241
20
0.211387370690773
30
0
41
1
10
58.9744110767112
20
0.210725473812857
30
0
41
1
10
59.1049813943459
20
0.149893373704032
30
0
41
1
10
59.233899259462
20
0.0896945625622436
30
0
41
1
10
59.619958528273
20
-0.0909162258780896
30
0
41
1
10
59.8764525969439
20
-0.21126009981495
30
0
41
1
10
60.3888412216759
20
-0.449340496728695
30
0
41
1
10
60.6447523680325
20
-0.567041393198622
30
0
41
1
10
61.1569267537194
20
-0.797824707060414
30
0
41
1
10
61.4131839812383
20
-0.910926070543866
30
0
41
1
10
61.9270589058395
20
-1.13031656262521
30
0
41
1
10
62.184692081157
20
-1.23657137912409
30
0
41
1
10
62.5082219240807
20
-1.36380734024823
30
0
41
1
10
62.5730017671148
20
-1.38897665675162
30
0
41
1
10
62.7027239829661
20
-1.4387291421142
30
0
41
1
10
62.7677221025257
20
-1.46333300848798
30
0
41
1
10
62.9625513541837
20
-1.53605850981842
30
0
41
1
10
63.0920729007779
20
-1.5830432487771
30
0
41
1
10
63.4797249476385
20
-1.71925923691856
30
0
41
1
10
63.7369457162033
20
-1.80373898694833
30
0
41
1
10
64.1217109405462
20
-1.91978193379723
30
0
41
1
10
64.2497953874685
20
-1.95669518368183
30
0
41
1
10
64.5058040062733
20
-2.026903812911
30
0
41
1
10
64.6337190914775
20
-2.06019045660457
30
0
41
1
10
65.0172845332588
20
-2.15430951304489
30
0
41
1
10
65.2727751061691
20
-2.20943048812623
30
0
41
1
10
65.7843730932695
20
-2.30356968177475
30
0
41
1
10
66.0404758474861
20
-2.34258100850042
30
0
41
1
10
66.425747962457
20
-2.38817756036337
30
0
41
1
10
66.6186644605276
20
-2.40774689818991
30
0
41
1
10
66.812153759474
20
-2.42234282186522
30
0
41
1
10
66.9412909505275
20
-2.43095227401349
30
0
41
1
10
67.0059281752442
20
-2.43466238595266
30
0
41
1
10
67.0706538855534
20
-2.43787360786268
30
0
0
SPLINE
5
EF
100
AcDbEntity
8
1
62
256
6
ByLayer
370
18
48
1
60
0
100
AcDbSpline
70
4
71
3
72
35
73
31
40
0
40
0
40
0
40
0
40
0.0251458445008767
40
0.0251458445008767
40
0.0502916890017537
40
0.100583378003512
40
0.100583378003512
40
0.201166756007028
40
0.201166756007028
40
0.301750134010544
40
0.301750134010544
40
0.352041823012302
40
0.352041823012302
40
0.40233351201406
40
0.40233351201406
40
0.502916890017572
40
0.502916890017572
40
0.55320857901933
40
0.55320857901933
40
0.578354423520208
40
0.578354423520208
40
0.603500268021088
40
0.603500268021088
40
0.704083646024617
40
0.704083646024617
40
0.804667024028146
40
0.804667024028146
40
0.905250402031675
40
0.905250402031675
40
1
40
1
40
1
40
1
41
1
10
67.0654188952317
20
-2.44866131034448
30
0
41
1
10
67.0007081854408
20
-2.44554871223568
30
0
41
1
10
66.9360692057336
20
-2.44192823989729
30
0
41
1
10
66.8069452602039
20
-2.43349809362502
30
0
41
1
10
66.6134766675347
20
-2.4191625421951
30
0
41
1
10
66.4205827469963
20
-2.39982864866982
30
0
41
1
10
66.0353565743681
20
-2.35467162329081
30
0
41
1
10
65.7792858465756
20
-2.31591179222232
30
0
41
1
10
65.2677529393681
20
-2.22218937518454
30
0
41
1
10
65.0122952831263
20
-2.16723340179226
30
0
41
1
10
64.6287744239833
20
-2.07329674678741
30
0
41
1
10
64.5008735804009
20
-2.04006008937006
30
0
41
1
10
64.2448937095345
20
-1.96992436751899
30
0
41
1
10
64.1168235765313
20
-1.93303394964295
30
0
41
1
10
63.732093395523
20
-1.81702445343879
30
0
41
1
10
63.4748866727901
20
-1.73251936362161
30
0
41
1
10
63.0872412328798
20
-1.59618846009855
30
0
41
1
10
62.9577193899447
20
-1.54915268763998
30
0
41
1
10
62.762885474716
20
-1.4763308422877
30
0
41
1
10
62.6978866808499
20
-1.45169215866326
30
0
41
1
10
62.5681644299069
20
-1.40186469881209
30
0
41
1
10
62.5033851114798
20
-1.37665515421878
30
0
41
1
10
62.1798604493103
20
-1.24920429218901
30
0
41
1
10
61.9222409620694
20
-1.14273155265161
30
0
41
1
10
61.408402402765
20
-0.922819997597799
30
0
41
1
10
61.1521645119493
20
-0.809420720921679
30
0
41
1
10
60.6400312259049
20
-0.577962305964235
30
0
41
1
10
60.3841437997887
20
-0.459880562449086
30
0
41
1
10
59.8866572200944
20
-0.227888315918449
30
0
41
1
10
59.6450723904363
20
-0.114170123418518
30
0
41
1
10
59.4027320744313
20
-0.0003013075403544
30
0
0
SPLINE
5
F0
100
AcDbEntity
8
1
62
256
6
ByLayer
370
18
48
1
60
0
100
AcDbSpline
70
4
71
3
72
44
73
40
40
0
40
0
40
0
40
0
40
0.0509577728170514
40
0.0509577728170514
40
0.0981409363685015
40
0.0981409363685015
40
0.145324099919952
40
0.145324099919952
40
0.192507263471403
40
0.192507263471403
40
0.239690427022853
40
0.239690427022853
40
0.334056754125754
40
0.334056754125754
40
0.357648335901479
40
0.357648335901479
40
0.381239917677204
40
0.381239917677204
40
0.428423081228655
40
0.428423081228655
40
0.522789408331556
40
0.522789408331556
40
0.569972571883009
40
0.569972571883009
40
0.617155735434461
40
0.617155735434461
40
0.711522062537362
40
0.711522062537362
40
0.805888389640263
40
0.805888389640263
40
0.853071553191713
40
0.853071553191713
40
0.876663134967439
40
0.876663134967439
40
0.900254716743164
40
0.900254716743164
40
0.994621043846056
40
0.994621043846056
40
1
40
1
40
1
40
1
41
1
10
51.2429111864524
20
-2.43200410770743
30
0
41
1
10
51.1040516401145
20
-2.43195331913142
30
0
41
1
10
50.9653250961199
20
-2.4293304876953
30
0
41
1
10
50.6982574599734
20
-2.41934470161152
30
0
41
1
10
50.5699096495402
20
-2.41234834847163
30
0
41
1
10
50.3131780653631
20
-2.39387571539203
30
0
41
1
10
50.184790892079
20
-2.38237571050811
30
0
41
1
10
49.9278907240106
20
-2.35508976537741
30
0
41
1
10
49.7993835549955
20
-2.33933016632244
30
0
41
1
10
49.5420911284991
20
-2.30350863559823
30
0
41
1
10
49.4133009702954
20
-2.2834248597182
30
0
41
1
10
49.0263293670662
20
-2.21685457705357
30
0
41
1
10
48.7675544907447
20
-2.1640906168623
30
0
41
1
10
48.4424959640793
20
-2.08803560426719
30
0
41
1
10
48.3773676890849
20
-2.07231022056408
30
0
41
1
10
48.2473650147188
20
-2.03995595991927
30
0
41
1
10
48.1824441923571
20
-2.02331614090446
30
0
41
1
10
47.9879004704484
20
-1.97201723149541
30
0
41
1
10
47.8584976173179
20
-1.93595664428435
30
0
41
1
10
47.4709602255705
20
-1.8227862190939
30
0
41
1
10
47.213489914334
20
-1.74077130378774
30
0
41
1
10
46.8278897386703
20
-1.60900381187054
30
0
41
1
10
46.6994585442461
20
-1.56362417740291
30
0
41
1
10
46.4426667569289
20
-1.4700753028288
30
0
41
1
10
46.3143040309511
20
-1.42189130722068
30
0
41
1
10
45.9291697642399
20
-1.27361252011559
30
0
41
1
10
45.6723663263135
20
-1.16984449218083
30
0
41
1
10
45.157523149823
20
-0.954203570315286
30
0
41
1
10
44.8994715301315
20
-0.842314727106441
30
0
41
1
10
44.5108191165186
20
-0.669761055751962
30
0
41
1
10
44.3810093305972
20
-0.611455803016753
30
0
41
1
10
44.185787911525
20
-0.523000011217306
30
0
41
1
10
44.1206473310913
20
-0.493356138812743
30
0
41
1
10
43.9905191036021
20
-0.433924884527954
30
0
41
1
10
43.9254901819453
20
-0.404118979987942
30
0
41
1
10
43.6004794572149
20
-0.254730177198724
30
0
41
1
10
43.3408995262716
20
-0.134070167809114
30
0
41
1
10
43.0663880430825
20
-0.0065906518144345
30
0
41
1
10
43.0515840536144
20
0.0002837161687239
30
0
41
1
10
43.0367795468128
20
0.007157686378747
30
0
0
SPLINE
5
F1
100
AcDbEntity
8
1
62
256
6
ByLayer
370
18
48
1
60
0
100
AcDbSpline
70
4
71
3
72
47
73
43
40
0
40
0
40
0
40
0
40
0.0886249803997602
40
0.0886249803997602
40
0.17724996079952
40
0.17724996079952
40
0.26587494119928
40
0.26587494119928
40
0.310187431399157
40
0.310187431399157
40
0.354499921599035
40
0.354499921599035
40
0.443124901998787
40
0.443124901998787
40
0.465281147098725
40
0.465281147098725
40
0.487437392198663
40
0.531749882398535
40
0.531749882398535
40
0.576062372598407
40
0.576062372598407
40
0.620374862798279
40
0.620374862798279
40
0.664687352998151
40
0.664687352998151
40
0.708999843198023
40
0.708999843198023
40
0.753312333397895
40
0.753312333397895
40
0.797624823597767
40
0.797624823597767
40
0.841937313797639
40
0.841937313797639
40
0.886249803997511
40
0.886249803997511
40
0.930562294197383
40
0.930562294197383
40
0.952718539297317
40
0.952718539297317
40
0.974874784397251
40
0.974874784397251
40
1
40
1
40
1
40
1
41
1
10
67.0452558144261
20
-0.240031117249515
30
0
41
1
10
66.787752033178
20
-0.11771444382731
30
0
41
1
10
66.5309549018795
20
0.0039722841373475
30
0
41
1
10
66.0181807174629
20
0.24481941936574
30
0
41
1
10
65.7622031363962
20
0.363980917427369
30
0
41
1
10
65.2508012182702
20
0.598769253209184
30
0
41
1
10
64.9953875913713
20
0.714417398634879
30
0
41
1
10
64.6119967093013
20
0.883658117282067
30
0
41
1
10
64.4841540568783
20
0.939365961257124
30
0
41
1
10
64.2282668339497
20
1.0490835783726
30
0
41
1
10
64.1002297525554
20
1.10309454884509
30
0
41
1
10
63.7154168012402
20
1.26206524805036
30
0
41
1
10
63.4578858158039
20
1.36392288841262
30
0
41
1
10
63.1343546611216
20
1.48514128794332
30
0
41
1
10
63.0695192095809
20
1.50909846373722
30
0
41
1
10
62.9399138567289
20
1.55628291373182
30
0
41
1
10
62.745759087892
20
1.62590872681619
30
0
41
1
10
62.5523497768463
20
1.69194441098722
30
0
41
1
10
62.29510799485
20
1.77656550799449
30
0
41
1
10
62.1668045777961
20
1.81717252346769
30
0
41
1
10
61.9108364201948
20
1.89457705785802
30
0
41
1
10
61.7832096833433
20
1.9313237291216
30
0
41
1
10
61.5279395024636
20
2.00142447576917
30
0
41
1
10
61.400245378608
20
2.0348233908087
30
0
41
1
10
61.1447882879646
20
2.09814642677856
30
0
41
1
10
61.0170299189935
20
2.1280848565213
30
0
41
1
10
60.7616128363777
20
2.18396961924142
30
0
41
1
10
60.633968171484
20
2.20990475624421
30
0
41
1
10
60.3787507152152
20
2.25732425961263
30
0
41
1
10
60.2511975663555
20
2.2787355083702
30
0
41
1
10
59.9957703988213
20
2.31767092728197
30
0
41
1
10
59.867864467491
20
2.33528283173496
30
0
41
1
10
59.6116147222037
20
2.3664973325356
30
0
41
1
10
59.4832769270125
20
2.38008343278531
30
0
41
1
10
59.2261610574276
20
2.40280218056066
30
0
41
1
10
59.097390921839
20
2.41193429242995
30
0
41
1
10
58.9038247481044
20
2.42198888774476
30
0
41
1
10
58.8392346245611
20
2.42471977869374
30
0
41
1
10
58.7098909085308
20
2.42900685839467
30
0
41
1
10
58.6450875003521
20
2.43057171814155
30
0
41
1
10
58.5069672616095
20
2.43280647609365
30
0
41
1
10
58.4336262813314
20
2.43336677998451
30
0
41
1
10
58.3603446968283
20
2.43327082298612
30
0
0
SPLINE
5
F2
100
AcDbEntity
8
1
62
256
6
ByLayer
370
18
48
1
60
0
100
AcDbSpline
70
4
71
3
72
8
73
4
40
0
40
0
40
0
40
0
40
1
40
1
40
1
40
1
41
1
10
67.042977480319
20
-0.228931953647674
30
0
41
1
10
67.0448671601475
20
-0.229329209273431
30
0
41
1
10
67.0459072865645
20
-0.234300557731643
30
0
41
1
10
67.0452558144273
20
-0.240031117250083
30
0
0
SPLINE
5
F3
100
AcDbEntity
8
1
62
256
6
ByLayer
370
18
48
1
60
0
100
AcDbSpline
70
4
71
3
72
47
73
43
40
0
40
0
40
0
40
0
40
0.0306725409690933
40
0.0306725409690933
40
0.0541224996074653
40
0.0541224996074653
40
0.0775724582458373
40
0.0775724582458373
40
0.124472375522581
40
0.124472375522581
40
0.171372292799325
40
0.171372292799325
40
0.218272210076069
40
0.218272210076069
40
0.265172127352813
40
0.265172127352813
40
0.312072044629557
40
0.312072044629557
40
0.358971961906301
40
0.358971961906301
40
0.405871879183045
40
0.405871879183045
40
0.452771796459789
40
0.452771796459789
40
0.499671713736533
40
0.499671713736533
40
0.546571631013276
40
0.570021589651646
40
0.570021589651646
40
0.593471548290016
40
0.593471548290016
40
0.687271382843496
40
0.687271382843496
40
0.734171300120235
40
0.734171300120235
40
0.781071217396975
40
0.781071217396975
40
0.874871051950455
40
0.874871051950455
40
0.968670886503934
40
0.968670886503934
40
1
40
1
40
1
40
1
41
1
10
58.3267113368072
20
2.4430580528923
30
0
41
1
10
58.4111927849091
20
2.44357850895372
30
0
41
1
10
58.4957541896176
20
2.44321669109891
30
0
41
1
10
58.6450957426369
20
2.44110068280679
30
0
41
1
10
58.709887085706
20
2.43966577425246
30
0
41
1
10
58.8392092239391
20
2.43563622497632
30
0
41
1
10
58.9037884795105
20
2.43303377304102
30
0
41
1
10
59.0973195563453
20
2.42335425001699
30
0
41
1
10
59.2260630747339
20
2.41445956828025
30
0
41
1
10
59.4831223294073
20
2.39219246411309
30
0
41
1
10
59.6114300419398
20
2.37882030201519
30
0
41
1
10
59.8676145412979
20
2.3480090265553
30
0
41
1
10
59.9954849108648
20
2.33058385048255
30
0
41
1
10
60.2508360981645
20
2.29200779925677
30
0
41
1
10
60.3783503540424
20
2.27077585337409
30
0
41
1
10
60.6334916047484
20
2.22369671665561
30
0
41
1
10
60.7610976889001
20
2.19791842104667
30
0
41
1
10
61.016436975108
20
2.14231762293446
30
0
41
1
10
61.1441560093787
20
2.11250458068355
30
0
41
1
10
61.3995317348355
20
2.04940237249568
30
0
41
1
10
61.5271843538374
20
2.01609819741495
30
0
41
1
10
61.7823669865181
20
1.94616891357225
30
0
41
1
10
61.9099479553445
20
1.9095078988768
30
0
41
1
10
62.165828826052
20
1.83225875893288
30
0
41
1
10
62.294090098868
20
1.79171309854266
30
0
41
1
10
62.5512501127091
20
1.70718379837305
30
0
41
1
10
62.7446003274066
20
1.64119554771705
30
0
41
1
10
62.9386993245267
20
1.57158363742889
30
0
41
1
10
63.0682682367432
20
1.52440081368994
30
0
41
1
10
63.1330983776693
20
1.50043587192758
30
0
41
1
10
63.456581369827
20
1.37916919010311
30
0
41
1
10
63.7140624850273
20
1.27722170269246
30
0
41
1
10
64.0987851380548
20
1.11804447925024
30
0
41
1
10
64.2267903778225
20
1.06395583851858
30
0
41
1
10
64.4826123613452
20
0.954060292290819
30
0
41
1
10
64.6104207364608
20
0.89824934555341
30
0
41
1
10
64.9937063692061
20
0.728662101980547
30
0
41
1
10
65.2490467255163
20
0.612734059894166
30
0
41
1
10
65.7602995171184
20
0.377288016488819
30
0
41
1
10
66.0162023119833
20
0.257750070864915
30
0
41
1
10
66.358122135774
20
0.0965393709960836
30
0
41
1
10
66.4437759397873
20
0.0560304604919395
30
0
41
1
10
66.5294865873901
20
0.0153992015992515
30
0
0
SPLINE
5
F4
100
AcDbEntity
8
1
62
256
6
ByLayer
370
18
48
1
60
0
100
AcDbSpline
70
4
71
3
72
8
73
4
40
0
40
0
40
0
40
0
40
1
40
1
40
1
40
1
41
1
10
67.0013404630906
20
-0.219224152461919
30
0
41
1
10
67.0152032882552
20
-0.222774999594805
30
0
41
1
10
67.0290794402535
20
-0.226010255209928
30
0
41
1
10
67.0429774803191
20
-0.228931953647731
30
0
0
SPLINE
5
F5
100
AcDbEntity
8
1
62
256
6
ByLayer
370
18
48
1
60
0
100
AcDbSpline
70
4
71
3
72
34
73
30
40
0
40
0
40
0
40
0
40
0.0471304044581535
40
0.0471304044581535
40
0.12042806565368
40
0.12042806565368
40
0.267023388044734
40
0.267023388044734
40
0.34032104924026
40
0.34032104924026
40
0.413618710435787
40
0.413618710435787
40
0.486916371631314
40
0.486916371631314
40
0.56021403282684
40
0.56021403282684
40
0.633511694022367
40
0.633511694022367
40
0.706809355217893
40
0.706809355217893
40
0.743458185815657
40
0.743458185815657
40
0.78010701641342
40
0.78010701641342
40
0.853404677608947
40
0.853404677608947
40
0.926702338804473
40
0.926702338804473
40
1
40
1
40
1
40
1
41
1
10
52.8152512819191
20
-2.43581151875344
30
0
41
1
10
52.6490607534878
20
-2.46002941478872
30
0
41
1
10
52.4833170753595
20
-2.48044776860337
30
0
41
1
10
52.0606068601511
20
-2.52286750947917
30
0
41
1
10
51.8040857617997
20
-2.53944352731494
30
0
41
1
10
51.0350215722007
20
-2.56128908229439
30
0
41
1
10
50.5230276227491
20
-2.53868732996895
30
0
41
1
10
49.7499383825399
20
-2.44944222699002
30
0
41
1
10
49.4913934998798
20
-2.41046635239036
30
0
41
1
10
48.9713868412905
20
-2.3143889081114
30
0
41
1
10
48.7126907120203
20
-2.25778904677003
30
0
41
1
10
48.19713826587
20
-2.12890284353085
30
0
41
1
10
47.9402153005623
20
-2.05663160176707
30
0
41
1
10
47.4269730286284
20
-1.89798591346099
30
0
41
1
10
47.1706672551505
20
-1.81159578876438
30
0
41
1
10
46.6576571409678
20
-1.6261899040245
30
0
41
1
10
46.4009346095442
20
-1.52720227691404
30
0
41
1
10
45.8860189855625
20
-1.31824574425067
30
0
41
1
10
45.6278348259364
20
-1.20825555667429
30
0
41
1
10
45.2385728310442
20
-1.0364753934648
30
0
41
1
10
45.1083462644914
20
-0.978014002616476
30
0
41
1
10
44.8486699925418
20
-0.859751028700742
30
0
41
1
10
44.7190560895573
20
-0.799879167014723
30
0
41
1
10
44.3306959081672
20
-0.618434520791197
30
0
41
1
10
44.072420472698
20
-0.495053561696153
30
0
41
1
10
43.5560083323987
20
-0.245768158113123
30
0
41
1
10
43.297876040952
20
-0.119854440619776
30
0
41
1
10
42.7806078194443
20
0.132128567340572
30
0
41
1
10
42.5214664740005
20
0.258184881859336
30
0
41
1
10
42.2613636535277
20
0.383365293797567
30
0
0
SPLINE
5
F6
100
AcDbEntity
8
1
62
256
6
ByLayer
370
18
48
1
60
0
100
AcDbSpline
70
4
71
3
72
16
73
12
40
0
40
0
40
0
40
0
40
0.2499999999999
40
0.2499999999999
40
0.37499999999985
40
0.37499999999985
40
0.4999999999998
40
0.4999999999998
40
0.7499999999999
40
0.7499999999999
40
1
40
1
40
1
40
1
41
1
10
42.2613636535276
20
0.383365293797595
30
0
41
1
10
42.2529169474933
20
0.387430463636832
30
0
41
1
10
42.245237707808
20
0.392552610526252
30
0
41
1
10
42.234842108938
20
0.401778190035259
30
0
41
1
10
42.2315598479265
20
0.405130443823964
30
0
41
1
10
42.2255819635025
20
0.412156386962295
30
0
41
1
10
42.2228581955365
20
0.415851687686995
30
0
41
1
10
42.2154765992676
20
0.427479330432988
30
0
41
1
10
42.2116097415819
20
0.436025908488801
30
0
41
1
10
42.2064927430279
20
0.453552329621516
30
0
41
1
10
42.2051583162974
20
0.462743820571831
30
0
41
1
10
42.2051583162974
20
0.471975158784318
30
0
0
SPLINE
5
F7
100
AcDbEntity
8
1
62
256
6
ByLayer
370
18
48
1
60
0
100
AcDbSpline
70
4
71
3
72
28
73
24
40
0
40
0
40
0
40
0
40
0.125000000000015
40
0.125000000000015
40
0.187500000000022
40
0.187500000000022
40
0.25000000000003
40
0.312500000000037
40
0.312500000000037
40
0.375000000000045
40
0.375000000000045
40
0.499999999999918
40
0.499999999999918
40
0.624999999999791
40
0.624999999999791
40
0.687499999999826
40
0.687499999999826
40
0.749999999999861
40
0.812499999999896
40
0.812499999999896
40
0.87499999999993
40
0.87499999999993
40
1
40
1
40
1
40
1
41
1
10
42.2051583162974
20
2.52292364295519
30
0
41
1
10
42.2051583162974
20
2.52374750809946
30
0
41
1
10
42.2062326879303
20
2.52451274190332
30
0
41
1
10
42.2094063496806
20
2.52558130759547
30
0
41
1
10
42.2107405134173
20
2.52592653398125
30
0
41
1
10
42.2138913656662
20
2.52657718172918
30
0
41
1
10
42.2175160289509
20
2.52718893224701
30
0
41
1
10
42.2220664056571
20
2.52773076225802
30
0
41
1
10
42.2270912377064
20
2.52824042479935
30
0
41
1
10
42.2298433296088
20
2.52847869250749
30
0
41
1
10
42.2385803539478
20
2.52913065499141
30
0
41
1
10
42.2451145229042
20
2.5294903901823
30
0
41
1
10
42.2596083305816
20
2.53008497468088
30
0
41
1
10
42.2672699532217
20
2.53030807618461
30
0
41
1
10
42.2793661332722
20
2.53055263392753
30
0
41
1
10
42.283530742002
20
2.53061912327721
30
0
41
1
10
42.2918801236401
20
2.53071961478858
30
0
41
1
10
42.3002582310715
20
2.53078838411889
30
0
41
1
10
42.3086925087393
20
2.5307968717666
30
0
41
1
10
42.3171556034769
20
2.53077431594639
30
0
41
1
10
42.3213939127471
20
2.53074725033224
30
0
41
1
10
42.3337892502934
20
2.53061998836389
30
0
41
1
10
42.3417541910988
20
2.53047484980732
30
0
41
1
10
42.3494101358817
20
2.53025728980961
30
0
0
SPLINE
5
F8
100
AcDbEntity
8
1
62
256
6
ByLayer
370
18
48
1
60
0
100
AcDbSpline
70
4
71
3
72
75
73
71
40
0
40
0
40
0
40
0
40
0.0480665254560317
40
0.0480665254560317
40
0.0961330509120635
40
0.0961330509120635
40
0.108149682276072
40
0.108149682276072
40
0.120166313640081
40
0.120166313640081
40
0.144199576368097
40
0.144199576368097
40
0.192266101824129
40
0.192266101824129
40
0.240332627280161
40
0.240332627280161
40
0.264365890008177
40
0.264365890008177
40
0.288399152736192
40
0.288399152736192
40
0.336465678192224
40
0.336465678192224
40
0.360498940920241
40
0.360498940920241
40
0.372515572284251
40
0.372515572284251
40
0.38453220364826
40
0.38453220364826
40
0.432598729104292
40
0.432598729104292
40
0.456631991832309
40
0.456631991832309
40
0.480665254560326
40
0.480665254560326
40
0.504698517288343
40
0.504698517288343
40
0.52873178001636
40
0.52873178001636
40
0.576798305472394
40
0.576798305472394
40
0.600831568200412
40
0.600831568200412
40
0.612848199564422
40
0.612848199564422
40
0.624864830928432
40
0.624864830928432
40
0.64889809365645
40
0.64889809365645
40
0.672931356384468
40
0.672931356384468
40
0.720997881840504
40
0.720997881840504
40
0.76906440729654
40
0.76906440729654
40
0.817130932752576
40
0.817130932752576
40
0.841164195480594
40
0.841164195480594
40
0.865197458208612
40
0.865197458208612
40
0.877214089572621
40
0.877214089572621
40
0.88923072093663
40
0.91326398366465
40
0.91326398366465
40
0.93729724639267
40
0.93729724639267
40
0.96133050912069
40
0.96133050912069
40
1
40
1
40
1
40
1
41
1
10
42.3494101358817
20
2.53025728980961
30
0
41
1
10
42.6079292021358
20
2.52291091923632
30
0
41
1
10
42.8663168873519
20
2.50606156565223
30
0
41
1
10
43.3833800515607
20
2.45430897338247
30
0
41
1
10
43.6420311897881
20
2.41939912790775
30
0
41
1
10
43.9657538613247
20
2.36459128618151
30
0
41
1
10
44.0305167226927
20
2.35306800781032
30
0
41
1
10
44.1600771660069
20
2.32888543467698
30
0
41
1
10
44.2249079070602
20
2.3162154142882
30
0
41
1
10
44.4192233115527
20
2.2765638748501
30
0
41
1
10
44.5483737688387
20
2.24799351332135
30
0
41
1
10
44.9351207744681
20
2.15642346901061
30
0
41
1
10
45.1919531605781
20
2.08751298768092
30
0
41
1
10
45.7047225293708
20
1.93566036527628
30
0
41
1
10
45.9606298753355
20
1.85269437100911
30
0
41
1
10
46.344263294257
20
1.71841509948783
30
0
41
1
10
46.472077747869
20
1.67197676988724
30
0
41
1
10
46.7276425508983
20
1.57579034000841
30
0
41
1
10
46.8554511624033
20
1.52612961732828
30
0
41
1
10
47.2396300437936
20
1.37359926533091
30
0
41
1
10
47.4965550078798
20
1.26690087728716
30
0
41
1
10
47.8831041175604
20
1.09910571262248
30
0
41
1
10
48.0121388272325
20
1.04185681557209
30
0
41
1
10
48.2060410880203
20
0.954073764220283
30
0
41
1
10
48.2708031206172
20
0.924489540106407
30
0
41
1
10
48.4001698461096
20
0.865047231542718
30
0
41
1
10
48.4647866241674
20
0.835193920748964
30
0
41
1
10
48.7876304793106
20
0.685461290982545
30
0
41
1
10
49.0450318848539
20
0.563960964616939
30
0
41
1
10
49.4298270442253
20
0.379141332806938
30
0
41
1
10
49.5578730085063
20
0.317104103208379
30
0
41
1
10
49.8136060929133
20
0.192335067728408
30
0
41
1
10
49.9413259262651
20
0.129671930260486
30
0
41
1
10
50.1967803862095
20
0.004434190632935
30
0
41
1
10
50.3244810357049
20
-0.0582116805933879
30
0
41
1
10
50.5798594590301
20
-0.183493860375506
30
0
41
1
10
50.7075736329746
20
-0.246053882895097
30
0
41
1
10
51.0913008968124
20
-0.432424703759324
30
0
41
1
10
51.3477426515184
20
-0.555253634357371
30
0
41
1
10
51.733249348447
20
-0.737556943537527
30
0
41
1
10
51.8619065043236
20
-0.797971431664507
30
0
41
1
10
52.055254205212
20
-0.887791763417141
30
0
41
1
10
52.119769423782
20
-0.917586506830304
30
0
41
1
10
52.2489939211218
20
-0.976755738688468
30
0
41
1
10
52.3137638313242
20
-1.00615198656686
30
0
41
1
10
52.5078823359938
20
-1.09333015875796
30
0
41
1
10
52.6370428755562
20
-1.15016703293855
30
0
41
1
10
52.8948001177329
20
-1.2614744942951
30
0
41
1
10
53.0233953064355
20
-1.31594634281484
30
0
41
1
10
53.4083364062943
20
-1.47581365841131
30
0
41
1
10
53.663890233515
20
-1.57751206097734
30
0
41
1
10
54.1750415795468
20
-1.76763820814165
30
0
41
1
10
54.4305314644189
20
-1.85631799971483
30
0
41
1
10
54.941284313686
20
-2.02089246254243
30
0
41
1
10
55.1966560518466
20
-2.09655329977443
30
0
41
1
10
55.5814147684863
20
-2.19789810456209
30
0
41
1
10
55.7099290367159
20
-2.22969587896452
30
0
41
1
10
55.9674422545928
20
-2.2893462845561
30
0
41
1
10
56.0964437028251
20
-2.31719463267666
30
0
41
1
10
56.2903600279034
20
-2.35590138167868
30
0
41
1
10
56.3551277055577
20
-2.3683010060883
30
0
41
1
10
56.4844498961264
20
-2.39197414056548
30
0
41
1
10
56.6781507335091
20
-2.42580606786365
30
0
41
1
10
56.8711067569163
20
-2.45454759595484
30
0
41
1
10
57.1278894403354
20
-2.48828140409574
30
0
41
1
10
57.2560403233061
20
-2.50284903341654
30
0
41
1
10
57.5121096742589
20
-2.52733697057164
30
0
41
1
10
57.6400220234411
20
-2.5372632354308
30
0
41
1
10
57.9735769690976
20
-2.55715689306896
30
0
41
1
10
58.1790805573239
20
-2.56350916780158
30
0
41
1
10
58.3843737952237
20
-2.56388016879126
30
0
0
SPLINE
5
F9
100
AcDbEntity
8
1
62
256
6
ByLayer
370
18
48
1
60
0
100
AcDbSpline
70
4
71
3
72
150
73
146
40
0
40
0
40
0
40
0
40
0.0051218777217795
40
0.0051218777217795
40
0.0161603800390529
40
0.0161603800390529
40
0.0271988823563263
40
0.0271988823563263
40
0.0492758869908746
40
0.0492758869908746
40
0.0603143893081489
40
0.0603143893081489
40
0.071352891625423
40
0.071352891625423
40
0.093429896259973
40
0.093429896259973
40
0.115506900894523
40
0.115506900894523
40
0.126545403211799
40
0.126545403211799
40
0.137583905529075
40
0.137583905529075
40
0.159660910163628
40
0.159660910163628
40
0.170699412480904
40
0.170699412480904
40
0.181737914798181
40
0.181737914798181
40
0.192776417115458
40
0.192776417115458
40
0.198295668274096
40
0.198295668274096
40
0.203814919432734
40
0.214853421750011
40
0.214853421750011
40
0.225891924067287
40
0.225891924067287
40
0.236930426384564
40
0.236930426384564
40
0.247968928701841
40
0.247968928701841
40
0.270045933336394
40
0.270045933336394
40
0.292122937970947
40
0.292122937970947
40
0.303161440288224
40
0.303161440288224
40
0.3141999426055
40
0.3141999426055
40
0.336276947240055
40
0.336276947240055
40
0.347315449557333
40
0.347315449557333
40
0.35835395187461
40
0.35835395187461
40
0.380430956509163
40
0.380430956509163
40
0.391469458826439
40
0.391469458826439
40
0.402507961143715
40
0.402507961143715
40
0.424584965778268
40
0.424584965778268
40
0.446661970412821
40
0.446661970412821
40
0.457700472730097
40
0.457700472730097
40
0.468738975047373
40
0.468738975047373
40
0.479777477364649
40
0.479777477364649
40
0.490815979681924
40
0.490815979681924
40
0.512892984316476
40
0.512892984316476
40
0.523931486633752
40
0.523931486633752
40
0.534969988951028
40
0.534969988951028
40
0.557046993585581
40
0.557046993585581
40
0.568085495902858
40
0.568085495902858
40
0.579123998220134
40
0.579123998220134
40
0.590162500537411
40
0.590162500537411
40
0.601201002854687
40
0.601201002854687
40
0.623278007489242
40
0.623278007489242
40
0.63431650980652
40
0.63431650980652
40
0.645355012123797
40
0.645355012123797
40
0.656393514441075
40
0.656393514441075
40
0.667432016758352
40
0.667432016758352
40
0.689509021392907
40
0.689509021392907
40
0.700547523710185
40
0.700547523710185
40
0.711586026027463
40
0.711586026027463
40
0.73366303066202
40
0.73366303066202
40
0.755740035296576
40
0.755740035296576
40
0.766778537613854
40
0.766778537613854
40
0.777817039931132
40
0.777817039931132
40
0.79989404456569
40
0.79989404456569
40
0.81093254688297
40
0.81093254688297
40
0.821971049200249
40
0.821971049200249
40
0.844048053834805
40
0.844048053834805
40
0.855086556152083
40
0.855086556152083
40
0.86612505846936
40
0.86612505846936
40
0.877163560786637
40
0.877163560786637
40
0.888202063103915
40
0.888202063103915
40
0.910279067738468
40
0.910279067738468
40
0.932356072373021
40
0.932356072373021
40
0.943394574690299
40
0.943394574690299
40
0.954433077007576
40
0.965471579324854
40
0.965471579324854
40
0.976510081642131
40
0.976510081642131
40
0.987548583959408
40
0.987548583959408
40
0.998587086276686
40
0.998587086276686
40
1
40
1
40
1
40
1
41
1
10
63.5087287228059
20
-1.71234433836287
30
0
41
1
10
63.4732043757819
20
-1.7254689352674
30
0
41
1
10
63.4376664543765
20
-1.73849426534611
30
0
41
1
10
63.3255057544982
20
-1.77924400700312
30
0
41
1
10
63.2490285250999
20
-1.80647203211669
30
0
41
1
10
63.0962262821881
20
-1.85954831374528
30
0
41
1
10
63.0199114091059
20
-1.88541366311395
30
0
41
1
10
62.7911890597044
20
-1.96097288671763
30
0
41
1
10
62.6389692315837
20
-2.00858711876336
30
0
41
1
10
62.4110598972042
20
-2.07600093512639
30
0
41
1
10
62.3351880233164
20
-2.09783833058628
30
0
41
1
10
62.1836469591244
20
-2.14023939050964
30
0
41
1
10
62.1079614510937
20
-2.16078141743066
30
0
41
1
10
61.8809279966899
20
-2.22017192459637
30
0
41
1
10
61.7296242387869
20
-2.25681615661111
30
0
41
1
10
61.4269375449614
20
-2.32412303274145
30
0
41
1
10
61.2754890954871
20
-2.35474242556779
30
0
41
1
10
61.0485300222632
20
-2.39640558648989
30
0
41
1
10
60.972909697424
20
-2.40957356185277
30
0
41
1
10
60.8215832060175
20
-2.4343451005733
30
0
41
1
10
60.7458665097357
20
-2.44594293367555
30
0
41
1
10
60.5185021703459
20
-2.47834661152513
30
0
41
1
10
60.3666493172499
20
-2.49676940398217
30
0
41
1
10
60.1383202227731
20
-2.51957676024415
30
0
41
1
10
60.0621235396775
20
-2.5263782654674
30
0
41
1
10
59.9096416253578
20
-2.5383942268532
30
0
41
1
10
59.8333716581728
20
-2.54361090968448
30
0
41
1
10
59.6806439250753
20
-2.55238991722365
30
0
41
1
10
59.6041735633216
20
-2.55594949154781
30
0
41
1
10
59.4892422702073
20
-2.56002568207606
30
0
41
1
10
59.4508776625302
20
-2.56117481592054
30
0
41
1
10
59.3742208353708
20
-2.5630493341483
30
0
41
1
10
59.2593112966106
20
-2.56522728948443
30
0
41
1
10
59.1446144974561
20
-2.56551795514858
30
0
41
1
10
58.9918473454998
20
-2.5642520288948
30
0
41
1
10
58.9155395506792
20
-2.56279405658498
30
0
41
1
10
58.7631515183858
20
-2.55823241057848
30
0
41
1
10
58.6870899977552
20
-2.555124465137
30
0
41
1
10
58.5351817293346
20
-2.54724933843028
30
0
41
1
10
58.4593196732711
20
-2.54248414912081
30
0
41
1
10
58.2318033751807
20
-2.52577611458966
30
0
41
1
10
58.0802599177251
20
-2.51141589684542
30
0
41
1
10
57.7772545788401
20
-2.47645376972875
30
0
41
1
10
57.6257460620722
20
-2.45589387991814
30
0
41
1
10
57.3988550330967
20
-2.42018183425603
30
0
41
1
10
57.3232682119448
20
-2.40747080718225
30
0
41
1
10
57.1720248861762
20
-2.38053721382809
30
0
41
1
10
57.0963650078036
20
-2.3663190852775
30
0
41
1
10
56.869239100294
20
-2.32144954508115
30
0
41
1
10
56.717620023875
20
-2.2885900952702
30
0
41
1
10
56.4897826553164
20
-2.23500417208572
30
0
41
1
10
56.4137785345768
20
-2.21641760632667
30
0
41
1
10
56.2617454270381
20
-2.17767726422153
30
0
41
1
10
56.1857182563071
20
-2.15751787437398
30
0
41
1
10
55.957379819461
20
-2.09488899963767
30
0
41
1
10
55.8047429238121
20
-2.05035591540624
30
0
41
1
10
55.5749819484076
20
-1.97961843429363
30
0
41
1
10
55.4981919571862
20
-1.95535637542272
30
0
41
1
10
55.3446757773261
20
-1.9056576511561
30
0
41
1
10
55.2680222214382
20
-1.88024527855003
30
0
41
1
10
55.0385002948551
20
-1.80213770195331
30
0
41
1
10
54.8861617279275
20
-1.74741773894823
30
0
41
1
10
54.5818250439051
20
-1.63428250599688
30
0
41
1
10
54.429879335443
20
-1.57579533299605
30
0
41
1
10
54.2021491315719
20
-1.48548115959275
30
0
41
1
10
54.1262628287471
20
-1.45495939510152
30
0
41
1
10
53.9746053821166
20
-1.39296848689719
30
0
41
1
10
53.8988510574287
20
-1.36146951590936
30
0
41
1
10
53.7474820769686
20
-1.29747141562979
30
0
41
1
10
53.6718509375416
20
-1.26500067277308
30
0
41
1
10
53.5205419269341
20
-1.19939347230894
30
0
41
1
10
53.4448712064445
20
-1.16624489043079
30
0
41
1
10
53.2177790660453
20
-1.06583055806408
30
0
41
1
10
53.0662602985925
20
-0.997630319162141
30
0
41
1
10
52.8387416082398
20
-0.893564842601023
30
0
41
1
10
52.7628784283598
20
-0.858550324786052
30
0
41
1
10
52.6111825967546
20
-0.787704343828892
30
0
41
1
10
52.5353371274519
20
-0.751896756612098
30
0
41
1
10
52.3075750597945
20
-0.643777293070627
30
0
41
1
10
52.155391690471
20
-0.57085624589908
30
0
41
1
10
51.9264605146674
20
-0.460516624505289
30
0
41
1
10
51.8500394022271
20
-0.423580026837641
30
0
41
1
10
51.6969620029814
20
-0.349421629099254
30
0
41
1
10
51.6203111255274
20
-0.312188920717347
30
0
41
1
10
51.4668729292231
20
-0.237210623962255
30
0
41
1
10
51.3900781272351
20
-0.199430700956327
30
0
41
1
10
51.2368942039994
20
-0.123942712996126
30
0
41
1
10
51.1604109804211
20
-0.0862219584680304
30
0
41
1
10
50.9311768391657
20
0.0266372096732255
30
0
41
1
10
50.7786704913726
20
0.101537561087696
30
0
41
1
10
50.5502350947404
20
0.213094311055613
30
0
41
1
10
50.4741409401258
20
0.250141543432107
30
0
41
1
10
50.3221383379114
20
0.324138681846335
30
0
41
1
10
50.2462495853673
20
0.361129438241875
30
0
41
1
10
50.0946221971466
20
0.434932857041474
30
0
41
1
10
50.018868667217
20
0.471714238431559
30
0
41
1
10
49.8673531123439
20
0.544772594291828
30
0
41
1
10
49.7916018251444
20
0.581072143544446
30
0
41
1
10
49.5643348485224
20
0.689222081209635
30
0
41
1
10
49.412775006731
20
0.760262746694423
30
0
41
1
10
49.1853808103592
20
0.865284755116988
30
0
41
1
10
49.1095995352838
20
0.900086427887629
30
0
41
1
10
48.9580998820571
20
0.969328395050297
30
0
41
1
10
48.8823644608232
20
1.00373461575674
30
0
41
1
10
48.6549609849347
20
1.105840274093
30
0
41
1
10
48.5031031938601
20
1.17244379291887
30
0
41
1
10
48.1987047062735
20
1.30240363855182
30
0
41
1
10
48.0460960299493
20
1.36563952302703
30
0
41
1
10
47.8169305066651
20
1.45851330625524
30
0
41
1
10
47.7405014258273
20
1.48914162235962
30
0
41
1
10
47.5874071566537
20
1.54945271024221
30
0
41
1
10
47.5107254195473
20
1.57911824874151
30
0
41
1
10
47.2802641596221
20
1.66651763251085
30
0
41
1
10
47.1270324436307
20
1.72231387087399
30
0
41
1
10
46.8976502494266
20
1.80219957659224
30
0
41
1
10
46.821271719841
20
1.8282021095078
30
0
41
1
10
46.6687694555577
20
1.87909440648701
30
0
41
1
10
46.5926616876416
20
1.90400469151032
30
0
41
1
10
46.3645750863205
20
1.97683320326951
30
0
41
1
10
46.2127381372578
20
2.02271885607345
30
0
41
1
10
45.9850559884696
20
2.0873016531765
30
0
41
1
10
45.9091804382598
20
2.10813029493272
30
0
41
1
10
45.7574417846383
20
2.14837338848025
30
0
41
1
10
45.6815727354628
20
2.16778238881784
30
0
41
1
10
45.5299143609844
20
2.2052640511188
30
0
41
1
10
45.4541439377921
20
2.22335531856299
30
0
41
1
10
45.3026797327111
20
2.25817556364191
30
0
41
1
10
45.2269697450594
20
2.27488709547257
30
0
41
1
10
44.9996869171334
20
2.32271978466144
30
0
41
1
10
44.8480018459219
20
2.3515831229407
30
0
41
1
10
44.5441292454579
20
2.40316992392394
30
0
41
1
10
44.391890528075
20
2.42587496309355
30
0
41
1
10
44.1634722021199
20
2.45547425200968
30
0
41
1
10
44.0873053612477
20
2.46458050846999
30
0
41
1
10
43.9347567897697
20
2.48117136518073
30
0
41
1
10
43.7819847207379
20
2.49614030751658
30
0
41
1
10
43.628723770768
20
2.50784894349894
30
0
41
1
10
43.4751958692599
20
2.51791729666493
30
0
41
1
10
43.3982154412361
20
2.52213319164338
30
0
41
1
10
43.2445294003098
20
2.52889595793718
30
0
41
1
10
43.1678017607206
20
2.5314495701592
30
0
41
1
10
43.0146726698931
20
2.534914083616
30
0
41
1
10
42.9382703530884
20
2.53582078373478
30
0
41
1
10
42.8521863368927
20
2.53590496781749
30
0
41
1
10
42.8424191708485
20
2.5359009151729
30
0
41
1
10
42.8326531160281
20
2.53588328254534
30
0
0
SPLINE
5
FA
100
AcDbEntity
8
1
62
256
6
ByLayer
370
18
48
1
60
0
100
AcDbSpline
70
4
71
3
72
143
73
139
40
0
40
0
40
0
40
0
40
0.0162353848773571
40
0.0162353848773571
40
0.027604706027427
40
0.027604706027427
40
0.0389740271774973
40
0.0389740271774973
40
0.0617126694776378
40
0.0617126694776378
40
0.073081990627708
40
0.073081990627708
40
0.0844513117777782
40
0.0844513117777782
40
0.10718995407792
40
0.10718995407792
40
0.129928596378062
40
0.129928596378062
40
0.141297917528134
40
0.141297917528134
40
0.152667238678205
40
0.152667238678205
40
0.164036559828276
40
0.164036559828276
40
0.175405880978347
40
0.175405880978347
40
0.198144523278489
40
0.198144523278489
40
0.20951384442856
40
0.20951384442856
40
0.220883165578631
40
0.220883165578631
40
0.243621807878773
40
0.243621807878773
40
0.266360450178916
40
0.266360450178916
40
0.277729771328987
40
0.277729771328987
40
0.289099092479059
40
0.289099092479059
40
0.311837734779202
40
0.311837734779202
40
0.323207055929273
40
0.323207055929273
40
0.334576377079345
40
0.334576377079345
40
0.357315019379488
40
0.357315019379488
40
0.36868434052956
40
0.36868434052956
40
0.380053661679633
40
0.380053661679633
40
0.391422982829704
40
0.391422982829704
40
0.402792303979777
40
0.402792303979777
40
0.42553094627992
40
0.42553094627992
40
0.448269588580064
40
0.448269588580064
40
0.459638909730135
40
0.459638909730135
40
0.471008230880207
40
0.471008230880207
40
0.493746873180349
40
0.493746873180349
40
0.50511619433042
40
0.50511619433042
40
0.516485515480492
40
0.516485515480492
40
0.539224157780633
40
0.539224157780633
40
0.550593478930704
40
0.550593478930704
40
0.561962800080774
40
0.561962800080774
40
0.573332121230845
40
0.573332121230845
40
0.584701442380916
40
0.584701442380916
40
0.607440084681057
40
0.607440084681057
40
0.618809405831128
40
0.618809405831128
40
0.630178726981199
40
0.630178726981199
40
0.64154804813127
40
0.64154804813127
40
0.652917369281342
40
0.652917369281342
40
0.675656011581484
40
0.675656011581484
40
0.687025332731555
40
0.687025332731555
40
0.698394653881626
40
0.698394653881626
40
0.721133296181769
40
0.721133296181769
40
0.73250261733184
40
0.73250261733184
40
0.743871938481911
40
0.743871938481911
40
0.755241259631982
40
0.755241259631982
40
0.766610580782053
40
0.766610580782053
40
0.789349223082194
40
0.789349223082194
40
0.800718544232265
40
0.800718544232265
40
0.812087865382336
40
0.812087865382336
40
0.834826507682477
40
0.834826507682477
40
0.846195828832547
40
0.846195828832547
40
0.857565149982618
40
0.857565149982618
40
0.868934471132687
40
0.868934471132687
40
0.880303792282758
40
0.880303792282758
40
0.903042434582897
40
0.903042434582897
40
0.925781076883037
40
0.925781076883037
40
0.937150398033107
40
0.937150398033107
40
0.948519719183177
40
0.959889040333247
40
0.959889040333247
40
0.971258361483317
40
0.971258361483317
40
0.982627682633388
40
0.982627682633388
40
0.993997003783458
40
0.993997003783458
40
1
40
1
40
1
40
1
41
1
10
30.3819728284027
20
-1.85212588529632
30
0
41
1
10
30.2730291520204
20
-1.88760226492195
30
0
41
1
10
30.1641831263445
20
-1.92174526568678
30
0
41
1
10
29.9792525069499
20
-1.97752998411278
30
0
41
1
10
29.9031419452377
20
-1.99987307066741
30
0
41
1
10
29.7511234372301
20
-2.04340169112143
30
0
41
1
10
29.6752044802882
20
-2.06456981978266
30
0
41
1
10
29.4474798634658
20
-2.12598127794837
30
0
41
1
10
29.2956545480731
20
-2.16407762522164
30
0
41
1
10
29.0677574245711
20
-2.21686501192667
30
0
41
1
10
28.9917648782591
20
-2.23373435936182
30
0
41
1
10
28.83971000137
20
-2.26601197067504
30
0
41
1
10
28.7636523709001
20
-2.28142621088281
30
0
41
1
10
28.5355343803214
20
-2.32560795735179
30
0
41
1
10
28.3835790021442
20
-2.35232734427319
30
0
41
1
10
28.0788440290594
20
-2.39937649681616
30
0
41
1
10
27.9261408091221
20
-2.41978405122242
30
0
41
1
10
27.6964490395487
20
-2.44565267722788
30
0
41
1
10
27.619773470848
20
-2.45348372750516
30
0
41
1
10
27.4662835297615
20
-2.46758968209784
30
0
41
1
10
27.3894891664544
20
-2.47387118273221
30
0
41
1
10
27.2357393442185
20
-2.4848293146143
30
0
41
1
10
27.1587062660752
20
-2.48950055608702
30
0
41
1
10
27.0049296514629
20
-2.49714675321815
30
0
41
1
10
26.9281337510352
20
-2.50013220394916
30
0
41
1
10
26.6979886361162
20
-2.50661156252463
30
0
41
1
10
26.5448496863525
20
-2.50763158019578
30
0
41
1
10
26.3155970398225
20
-2.50432652800981
30
0
41
1
10
26.2392828967298
20
-2.50241637577958
30
0
41
1
10
26.0868917438997
20
-2.49695925860399
30
0
41
1
10
26.0107970139421
20
-2.49341191858051
30
0
41
1
10
25.7825663749725
20
-2.48036775130254
30
0
41
1
10
25.630495291036
20
-2.46847586867366
30
0
41
1
10
25.3263461700515
20
-2.43849001926432
30
0
41
1
10
25.1741956462012
20
-2.42044832775355
30
0
41
1
10
24.9462664022431
20
-2.38857251220261
30
0
41
1
10
24.8703397532944
20
-2.37713720166485
30
0
41
1
10
24.718426039839
20
-2.35273546003134
30
0
41
1
10
24.6424270692376
20
-2.33977913929979
30
0
41
1
10
24.4142447699278
20
-2.29870143549042
30
0
41
1
10
24.2618882984543
20
-2.26836336837258
30
0
41
1
10
24.0328748293611
20
-2.21856932490317
30
0
41
1
10
23.9564616795176
20
-2.20125419368122
30
0
41
1
10
23.8035805880084
20
-2.16507297019552
30
0
41
1
10
23.7271296804267
20
-2.14618503079689
30
0
41
1
10
23.4975433005874
20
-2.08730449861954
30
0
41
1
10
23.3440733812544
20
-2.0452147208081
30
0
41
1
10
23.1129927931053
20
-1.97814053899097
30
0
41
1
10
23.0358433978984
20
-1.95512132302989
30
0
41
1
10
22.8818940731398
20
-1.90799097011413
30
0
41
1
10
22.8050075147058
20
-1.88386542810468
30
0
41
1
10
22.651495820889
20
-1.83437353435056
30
0
41
1
10
22.5748912081451
20
-1.80897507606673
30
0
41
1
10
22.4219268045311
20
-1.75695350850049
30
0
41
1
10
22.3455504787247
20
-1.73035542856366
30
0
41
1
10
22.1165271862706
20
-1.64914511866391
30
0
41
1
10
21.9640310721576
20
-1.59304873975117
30
0
41
1
10
21.659231870682
20
-1.47731932405895
30
0
41
1
10
21.5068875364926
20
-1.41776766030333
30
0
41
1
10
21.2788702252537
20
-1.32516205322185
30
0
41
1
10
21.2029239543839
20
-1.29378565006624
30
0
41
1
10
21.0509824667099
20
-1.2303207111047
30
0
41
1
10
20.9749879600161
20
-1.19823202109421
30
0
41
1
10
20.7469040321856
20
-1.10096147860267
30
0
41
1
10
20.5947026750293
20
-1.03479818988254
30
0
41
1
10
20.3661058541071
20
-0.933749143066905
30
0
41
1
10
20.2898707089929
20
-0.899740484005122
30
0
41
1
10
20.1374290244227
20
-0.830857152376382
30
0
41
1
10
20.061216267716
20
-0.795993000710723
30
0
41
1
10
19.8323605748732
20
-0.69061183144737
30
0
41
1
10
19.6794369124222
20
-0.619441575874248
30
0
41
1
10
19.4493638863914
20
-0.511656178746421
30
0
41
1
10
19.3725592502163
20
-0.475554068971547
30
0
41
1
10
19.2187038748228
20
-0.403043315309049
30
0
41
1
10
19.1416570404096
20
-0.366627011455421
30
0
41
1
10
18.9874194328258
20
-0.29324648079529
30
0
41
1
10
18.91038396783
20
-0.25630897864886
30
0
41
1
10
18.7566562109905
20
-0.182392013793532
30
0
41
1
10
18.6799019966356
20
-0.145421245569935
30
0
41
1
10
18.4498301592939
20
-0.0347745554616665
30
0
41
1
10
18.2967408529139
20
0.0387215820351798
30
0
41
1
10
18.0674019707419
20
0.148284628739134
30
0
41
1
10
17.990999261249
20
0.184680283370483
30
0
41
1
10
17.8383698176598
20
0.257415950893687
30
0
41
1
10
17.7621638480685
20
0.293800325300254
30
0
41
1
10
17.6099122920914
20
0.366473553474918
30
0
41
1
10
17.5338499378643
20
0.402726135401878
30
0
41
1
10
17.3817077373902
20
0.474758344868434
30
0
41
1
10
17.3056390657756
20
0.510562145646418
30
0
41
1
10
17.0774102105822
20
0.617279763573663
30
0
41
1
10
16.9251971677324
20
0.687438840859812
30
0
41
1
10
16.6968067740815
20
0.79125261355091
30
0
41
1
10
16.6206908377208
20
0.825672597607991
30
0
41
1
10
16.468532073043
20
0.894226568598071
30
0
41
1
10
16.3924710185963
20
0.928322924396952
30
0
41
1
10
16.1640888180303
20
1.02955779259292
30
0
41
1
10
16.0115685406984
20
1.09564465440886
30
0
41
1
10
15.7822684664936
20
1.19244262194337
30
0
41
1
10
15.7057433560413
20
1.22431001512564
30
0
41
1
10
15.5525199427858
20
1.28726741421954
30
0
41
1
10
15.4758293520241
20
1.31837257859627
30
0
41
1
10
15.3223900610345
20
1.38001626185238
30
0
41
1
10
15.2456347830413
20
1.41054117571315
30
0
41
1
10
15.0918901900809
20
1.47068489516778
30
0
41
1
10
15.0148889057427
20
1.50028206505652
30
0
41
1
10
14.7834369861962
20
1.58753670347824
30
0
41
1
10
14.6295149359598
20
1.6433165719011
30
0
41
1
10
14.3991079504322
20
1.72328781938543
30
0
41
1
10
14.3223876342433
20
1.74933959921376
30
0
41
1
10
14.1692107863732
20
1.80039193139282
30
0
41
1
10
14.0927704693482
20
1.82541419327663
30
0
41
1
10
13.8636848128861
20
1.89863430334199
30
0
41
1
10
13.7111762243909
20
1.94484382025311
30
0
41
1
10
13.4824853412547
20
2.01000477120635
30
0
41
1
10
13.406273300039
20
2.03104190320914
30
0
41
1
10
13.2538621059045
20
2.07173401863872
30
0
41
1
10
13.1776575559139
20
2.09138400701397
30
0
41
1
10
13.0253414490083
20
2.1293986028648
30
0
41
1
10
12.9492508216802
20
2.1477848999248
30
0
41
1
10
12.797147588138
20
2.18323079323511
30
0
41
1
10
12.7211179463426
20
2.20027125651589
30
0
41
1
10
12.4928755428873
20
2.24912796546161
30
0
41
1
10
12.3405558388644
20
2.27873208287556
30
0
41
1
10
12.0354348972525
20
2.3319250861812
30
0
41
1
10
11.8825900411804
20
2.35549993293839
30
0
41
1
10
11.6533194480739
20
2.3865397474847
30
0
41
1
10
11.5768717507503
20
2.39614338649506
30
0
41
1
10
11.423757285845
20
2.41375132939868
30
0
41
1
10
11.2704246515128
20
2.4297648584828
30
0
41
1
10
11.1166184606006
20
2.44257704280864
30
0
41
1
10
10.962554016142
20
2.45377949517666
30
0
41
1
10
10.8853589596195
20
2.45857664324234
30
0
41
1
10
10.7308350764498
20
2.46654806113313
30
0
41
1
10
10.6536361108922
20
2.46971861341311
30
0
41
1
10
10.4994182402243
20
2.47443963481507
30
0
41
1
10
10.4223945694649
20
2.47598722034203
30
0
41
1
10
10.3047708021291
20
2.47710095726549
30
0
41
1
10
10.2641368465798
20
2.4772576429819
30
0
41
1
10
10.2235114896994
20
2.47718667199848
30
0
0
SPLINE
5
FB
100
AcDbEntity
8
1
62
256
6
ByLayer
370
18
48
1
60
0
100
AcDbSpline
70
4
71
3
72
74
73
70
40
0
40
0
40
0
40
0
40
0.0213112551154138
40
0.0213112551154138
40
0.0722342328746287
40
0.0722342328746287
40
0.123157210633844
40
0.123157210633844
40
0.148618699513451
40
0.148618699513451
40
0.161349443953255
40
0.161349443953255
40
0.174080188393059
40
0.174080188393059
40
0.225003166152273
40
0.225003166152273
40
0.250464655031881
40
0.250464655031881
40
0.275926143911489
40
0.275926143911489
40
0.326849121670703
40
0.326849121670703
40
0.352310610550309
40
0.352310610550309
40
0.365041354990112
40
0.365041354990112
40
0.377772099429916
40
0.377772099429916
40
0.428695077189128
40
0.428695077189128
40
0.479618054948341
40
0.479618054948341
40
0.530541032707553
40
0.530541032707553
40
0.556002521587159
40
0.556002521587159
40
0.568733266026963
40
0.568733266026963
40
0.581464010466767
40
0.581464010466767
40
0.63238698822598
40
0.63238698822598
40
0.683309965985194
40
0.683309965985194
40
0.734232943744408
40
0.734232943744408
40
0.759694432624014
40
0.759694432624014
40
0.772425177063817
40
0.772425177063817
40
0.785155921503621
40
0.785155921503621
40
0.836078899262835
40
0.836078899262835
40
0.887001877022049
40
0.887001877022049
40
0.912463365901656
40
0.912463365901656
40
0.937924854781263
40
0.937924854781263
40
0.96338634366087
40
0.96338634366087
40
0.969751715880772
40
0.969751715880772
40
0.976117088100674
40
0.976117088100674
40
0.988847832540477
40
0.988847832540477
40
1
40
1
40
1
40
1
41
1
10
14.0623080947223
20
1.83739032507825
30
0
41
1
10
14.2059672746194
20
1.8837767499742
30
0
41
1
10
14.3493625030047
20
1.92798999254413
30
0
41
1
10
14.8347949114111
20
2.07013900335548
30
0
41
1
10
15.1760430809336
20
2.1572890998427
30
0
41
1
10
15.858974068986
20
2.3029228389602
30
0
41
1
10
16.2006295643443
20
2.36141850335071
30
0
41
1
10
16.7153524245229
20
2.42584736070205
30
0
41
1
10
16.8872751927586
20
2.44345607898217
30
0
41
1
10
17.1459339773697
20
2.46385122270581
30
0
41
1
10
17.2323341126109
20
2.46964923254649
30
0
41
1
10
17.4052168401676
20
2.47919534833085
30
0
41
1
10
17.4915040471631
20
2.48293415881892
30
0
41
1
10
17.9222878823129
20
2.49648652549112
30
0
41
1
10
18.2647608941761
20
2.49087231615067
30
0
41
1
10
18.7771151904303
20
2.4584965997326
30
0
41
1
10
18.9476893445421
20
2.44372180690547
30
0
41
1
10
19.2886679515833
20
2.40634266400926
30
0
41
1
10
19.4590699522968
20
2.38373415196392
30
0
41
1
10
19.9705203486691
20
2.30443661091138
30
0
41
1
10
20.3118230756781
20
2.23628705179047
30
0
41
1
10
20.8260029068717
20
2.11226313127537
30
0
41
1
10
20.9977772572152
20
2.0672990143367
30
0
41
1
10
21.2562576334203
20
1.99462030017852
30
0
41
1
10
21.342597225848
20
1.96951359998417
30
0
41
1
10
21.5154114409103
20
1.91763516884868
30
0
41
1
10
21.6016605716104
20
1.89092766986795
30
0
41
1
10
22.0322223174043
20
1.75372840134401
30
0
41
1
10
22.3745203398103
20
1.63230095831199
30
0
41
1
10
23.0573198201008
20
1.37057179270795
30
0
41
1
10
23.3977576831734
20
1.23015465872371
30
0
41
1
10
24.079343038716
20
0.935077466681491
30
0
41
1
10
24.4203967579225
20
0.780239669092396
30
0
41
1
10
24.9342922986693
20
0.540715813918013
30
0
41
1
10
25.1059877928385
20
0.459690556918389
30
0
41
1
10
25.3643120388417
20
0.336729433965587
30
0
41
1
10
25.4505869635567
20
0.295493376134488
30
0
41
1
10
25.6233015139362
20
0.212715606310809
30
0
41
1
10
25.7095039380752
20
0.171289264375105
30
0
41
1
10
26.1398449215266
20
-0.0358111266623951
30
0
41
1
10
26.4819856689635
20
-0.201355212683296
30
0
41
1
10
27.1643811667776
20
-0.527204296148398
30
0
41
1
10
27.5047006639862
20
-0.687372696633673
30
0
41
1
10
28.1858664212733
20
-0.997510500456002
30
0
41
1
10
28.526768623116
20
-1.14736571002786
30
0
41
1
10
29.0404030979289
20
-1.36069669071227
30
0
41
1
10
29.2119877455697
20
-1.42991169489861
30
0
41
1
10
29.4701853215491
20
-1.53037610334462
30
0
41
1
10
29.5564298757235
20
-1.56332424355657
30
0
41
1
10
29.7290475408312
20
-1.62794976436285
30
0
41
1
10
29.8152055147627
20
-1.65954340035302
30
0
41
1
10
30.2453175156127
20
-1.81383421888069
30
0
41
1
10
30.5871962159447
20
-1.9255413620931
30
0
41
1
10
31.2692377442718
20
-2.12227071770798
30
0
41
1
10
31.6093362519294
20
-2.20738655650695
30
0
41
1
10
32.119957454813
20
-2.31322846127924
30
0
41
1
10
32.2902587855398
20
-2.34486107162266
30
0
41
1
10
32.6313001672617
20
-2.40058316780789
30
0
41
1
10
32.8020400983962
20
-2.42466985675418
30
0
41
1
10
33.1443047346143
20
-2.46498831905072
30
0
41
1
10
33.3158258550324
20
-2.48122242359463
30
0
41
1
10
33.5309227502169
20
-2.49644255741427
30
0
41
1
10
33.5739762335241
20
-2.49923327407893
30
0
41
1
10
33.6601544491892
20
-2.50430450034523
30
0
41
1
10
33.7033041694853
20
-2.50658602272935
30
0
41
1
10
33.8326722691251
20
-2.51264975352612
30
0
41
1
10
33.9187612432644
20
-2.51565020080793
30
0
41
1
10
34.0800125763886
20
-2.51933600340965
30
0
41
1
10
34.1552080602832
20
-2.52026206933715
30
0
41
1
10
34.2303149409382
20
-2.52039878026551
30
0
0
SPLINE
5
FC
100
AcDbEntity
8
1
62
256
6
ByLayer
370
18
48
1
60
0
100
AcDbSpline
70
4
71
3
72
56
73
52
40
0
40
0
40
0
40
0
40
0.0051730973509898
40
0.0051730973509898
40
0.0168769432645046
40
0.0636923269185697
40
0.0636923269185697
40
0.1573230942267
40
0.1573230942267
40
0.204138477880764
40
0.204138477880764
40
0.227546169707795
40
0.227546169707795
40
0.23925001562131
40
0.23925001562131
40
0.250953861534826
40
0.250953861534826
40
0.34458462884296
40
0.34458462884296
40
0.438215396151094
40
0.438215396151094
40
0.461623087978128
40
0.473326933891646
40
0.473326933891646
40
0.485030779805164
40
0.485030779805164
40
0.53184616345924
40
0.53184616345924
40
0.578661547113317
40
0.578661547113317
40
0.625476930767393
40
0.625476930767393
40
0.672292314421469
40
0.672292314421469
40
0.719107698075545
40
0.719107698075545
40
0.730811543989064
40
0.730811543989064
40
0.742515389902583
40
0.765923081729621
40
0.765923081729621
40
0.812738465383695
40
0.812738465383695
40
0.836146157210733
40
0.836146157210733
40
0.847850003124252
40
0.847850003124252
40
0.859553849037771
40
0.906369232691848
40
0.906369232691848
40
1
40
1
40
1
40
1
41
1
10
50.4771560058375
20
2.54815466407513
30
0
41
1
10
50.5059152506678
20
2.54868698641482
30
0
41
1
10
50.5346777568147
20
2.5491030784271
30
0
41
1
10
50.6284982562036
20
2.55008050521269
30
0
41
1
10
50.953403973757
20
2.55048832523326
30
0
41
1
10
51.2764499297291
20
2.53610243163357
30
0
41
1
10
52.0497216922397
20
2.47400988403558
30
0
41
1
10
52.5625184535485
20
2.39578449871419
30
0
41
1
10
53.3341768631873
20
2.22742027678635
30
0
41
1
10
53.5917995980312
20
2.16280166437349
30
0
41
1
10
53.9796735662053
20
2.05379296511859
30
0
41
1
10
54.109205934796
20
2.01544531412603
30
0
41
1
10
54.3039770528087
20
1.95500831487556
30
0
41
1
10
54.3690360626018
20
1.93435833980175
30
0
41
1
10
54.4990218548489
20
1.89220593208924
30
0
41
1
10
54.5639291419142
20
1.87071083477824
30
0
41
1
10
55.1474081227773
20
1.67363242815904
30
0
41
1
10
55.6612158153437
20
1.47275978089203
30
0
41
1
10
56.6872241084564
20
1.03424005506275
30
0
41
1
10
57.1994708664445
20
0.796642142854751
30
0
41
1
10
57.8443057968244
20
0.487008281642574
30
0
41
1
10
58.0380929785089
20
0.393167697163903
30
0
41
1
10
58.2325403395883
20
0.298200909928965
30
0
41
1
10
58.3623368879001
20
0.234675289861542
30
0
41
1
10
58.4273765497512
20
0.202776165909569
30
0
41
1
10
58.7520881877493
20
0.0432994511273534
30
0
41
1
10
59.0104720596416
20
-0.0842952866464088
30
0
41
1
10
59.5256293137993
20
-0.337139311416905
30
0
41
1
10
59.7824045799633
20
-0.462387119695649
30
0
41
1
10
60.2953216750171
20
-0.708578298868076
30
0
41
1
10
60.5514637634784
20
-0.829519152018491
30
0
41
1
10
61.064209318841
20
-1.06490403974507
30
0
41
1
10
61.3208160435571
20
-1.17934111993313
30
0
41
1
10
61.8356410144076
20
-1.39946839861159
30
0
41
1
10
62.0938653502766
20
-1.50514946223944
30
0
41
1
10
62.4183092154375
20
-1.63051616095623
30
0
41
1
10
62.483319659989
20
-1.65526656615774
30
0
41
1
10
62.6132007502065
20
-1.7039400165713
30
0
41
1
10
62.8078952424109
20
-1.7757423997559
30
0
41
1
10
63.0022869671002
20
-1.84381192233536
30
0
41
1
10
63.3908803978835
20
-1.97468286128924
30
0
41
1
10
63.6496934905302
20
-2.05489824767381
30
0
41
1
10
64.0383801639903
20
-2.16357534444631
30
0
41
1
10
64.1680188255536
20
-2.19786219217082
30
0
41
1
10
64.362697434926
20
-2.24624996109
30
0
41
1
10
64.4276617169044
20
-2.26188003162289
30
0
41
1
10
64.5575027681519
20
-2.29206215831755
30
0
41
1
10
64.8817800043742
20
-2.364802643773
30
0
41
1
10
65.2046632680415
20
-2.42380864920105
30
0
41
1
10
65.9786475744431
20
-2.53810797431331
30
0
41
1
10
66.4934220936903
20
-2.57786988634598
30
0
41
1
10
67.0112205898647
20
-2.57939774699969
30
0
0
SPLINE
5
FD
100
AcDbEntity
8
1
62
256
6
ByLayer
370
18
48
1
60
0
100
AcDbSpline
70
4
71
3
72
10
73
6
40
0
40
0
40
0
40
0
40
0.5
40
0.5
40
1
40
1
40
1
40
1
41
1
10
66.9948093952372
20
-2.56326891151301
30
0
41
1
10
66.9975371408544
20
-2.56852098774115
30
0
41
1
10
67.0002677426374
20
-2.57249487325777
30
0
41
1
10
67.005740790237
20
-2.57787794654297
30
0
41
1
10
67.0084841725933
20
-2.57928347870916
30
0
41
1
10
67.0112205898647
20
-2.57939774699969
30
0
0
SPLINE
5
FE
100
AcDbEntity
8
1
62
256
6
ByLayer
370
18
48
1
60
0
100
AcDbSpline
70
4
71
3
72
62
73
58
40
0
40
0
40
0
40
0
40
0.048978791856754
40
0.048978791856754
40
0.097957583713508
40
0.097957583713508
40
0.110202281677697
40
0.110202281677697
40
0.122446979641886
40
0.146936375570262
40
0.146936375570262
40
0.171425771498638
40
0.171425771498638
40
0.195915167427014
40
0.195915167427014
40
0.293872751140516
40
0.293872751140516
40
0.342851542997265
40
0.342851542997265
40
0.355096240961452
40
0.355096240961452
40
0.367340938925638
40
0.367340938925638
40
0.391830334854011
40
0.391830334854011
40
0.440809126710754
40
0.440809126710754
40
0.489787918567498
40
0.489787918567498
40
0.514277314495868
40
0.514277314495868
40
0.538766710424239
40
0.538766710424239
40
0.587745502280982
40
0.587745502280982
40
0.612234898209353
40
0.612234898209353
40
0.624479596173539
40
0.624479596173539
40
0.636724294137726
40
0.685703085994473
40
0.685703085994473
40
0.734681877851221
40
0.734681877851221
40
0.783660669707969
40
0.783660669707969
40
0.832639461564716
40
0.857128857493089
40
0.869373555457275
40
0.869373555457275
40
0.881618253421462
40
0.881618253421462
40
0.930597045278214
40
0.930597045278214
40
0.979575837134966
40
0.979575837134966
40
1
40
1
40
1
40
1
41
1
10
66.9948093952442
20
-2.56326891151292
30
0
41
1
10
66.7360703533825
20
-2.54845785714232
30
0
41
1
10
66.4777546971791
20
-2.52413959463638
30
0
41
1
10
65.960847715878
20
-2.45714977792284
30
0
41
1
10
65.7022664016956
20
-2.41447987615541
30
0
41
1
10
65.3782707615855
20
-2.35002444906488
30
0
41
1
10
65.3134008853842
20
-2.33657074734916
30
0
41
1
10
65.183710146626
20
-2.30859506872707
30
0
41
1
10
64.9894332005386
20
-2.26507080165942
30
0
41
1
10
64.7958485506573
20
-2.21697945075891
30
0
41
1
10
64.5382077250941
20
-2.14899988785305
30
0
41
1
10
64.409626871139
20
-2.11307813531823
30
0
41
1
10
64.1528555995831
20
-2.03750199814959
30
0
41
1
10
64.0246598905119
20
-1.99785223359652
30
0
41
1
10
63.3841332053345
20
-1.79099505938291
30
0
41
1
10
62.8731825627452
20
-1.5979342637844
30
0
41
1
10
62.1028051985022
20
-1.27663286694451
30
0
41
1
10
61.8453999356411
20
-1.1641628942771
30
0
41
1
10
61.5221092917584
20
-1.0181240745558
30
0
41
1
10
61.4573726249616
20
-0.988647852248391
30
0
41
1
10
61.3277266292691
20
-0.92918464006209
30
0
41
1
10
61.2627832193788
20
-0.899181472643988
30
0
41
1
10
61.0683562334316
20
-0.808768173353172
30
0
41
1
10
60.9390684450975
20
-0.747860562122384
30
0
41
1
10
60.5519947423386
20
-0.563660103554383
30
0
41
1
10
60.2950344410407
20
-0.438814525085974
30
0
41
1
10
59.7821223380729
20
-0.187468800963586
30
0
41
1
10
59.5261390959747
20
-0.0610341879773841
30
0
41
1
10
59.1420472986225
20
0.128043165801586
30
0
41
1
10
59.0140008541682
20
0.190980849760791
30
0
41
1
10
58.7578373025183
20
0.31659858192441
30
0
41
1
10
58.6297153092376
20
0.379268361314416
30
0
41
1
10
58.2448574641544
20
0.566089692641384
30
0
41
1
10
57.9876445338924
20
0.689084248587847
30
0
41
1
10
57.6001505093964
20
0.869767020206325
30
0
41
1
10
57.4707064957288
20
0.929359287180944
30
0
41
1
10
57.2760483929193
20
1.01764260069032
30
0
41
1
10
57.2111029988709
20
1.04687416744974
30
0
41
1
10
57.0814923528117
20
1.10470802148382
30
0
41
1
10
56.7578784389523
20
1.24784795955273
30
0
41
1
10
56.4360462226058
20
1.38328530257462
30
0
41
1
10
55.9222984644874
20
1.5884454822326
30
0
41
1
10
55.6660197992317
20
1.68526518273777
30
0
41
1
10
55.1536816226144
20
1.8659386788062
30
0
41
1
10
54.8976422134029
20
1.94981392745191
30
0
41
1
10
54.3846149131197
20
2.10290277259776
30
0
41
1
10
53.9991065682196
20
2.20670082303462
30
0
41
1
10
53.5467336093076
20
2.30673485317519
30
0
41
1
10
53.352158053889
20
2.34490121447561
30
0
41
1
10
53.2222655062803
20
2.36927487775395
30
0
41
1
10
53.1573234538813
20
2.3809085081931
30
0
41
1
10
52.8332022093621
20
2.43617983545604
30
0
41
1
10
52.5751658206378
20
2.47123057953559
30
0
41
1
10
52.0606068601489
20
2.52286750947934
30
0
41
1
10
51.8040857617975
20
2.53944352731506
30
0
41
1
10
51.4408310747145
20
2.54976191210721
30
0
41
1
10
51.3339622223599
20
2.55118277820662
30
0
41
1
10
51.2270871821691
20
2.55099042882986
30
0
0
SPLINE
5
FF
100
AcDbEntity
8
1
62
256
6
ByLayer
370
18
48
1
60
0
100
AcDbSpline
70
4
71
3
72
49
73
45
40
0
40
0
40
0
40
0
40
0.0203096875111669
40
0.0203096875111669
40
0.057990084145351
40
0.057990084145351
40
0.0956704807795351
40
0.0956704807795351
40
0.171031274047907
40
0.171031274047907
40
0.208711670682093
40
0.208711670682093
40
0.246392067316278
40
0.246392067316278
40
0.321752860584647
40
0.321752860584647
40
0.340593058901739
40
0.340593058901739
40
0.359433257218832
40
0.359433257218832
40
0.397113653853018
40
0.397113653853018
40
0.434794050487204
40
0.434794050487204
40
0.47247444712139
40
0.47247444712139
40
0.510154843755575
40
0.510154843755575
40
0.547835240389761
40
0.547835240389761
40
0.623196033658132
40
0.623196033658132
40
0.698556826926504
40
0.698556826926504
40
0.736237223560691
40
0.736237223560691
40
0.755077421877783
40
0.755077421877783
40
0.773917620194875
40
0.849278413463251
40
0.849278413463251
40
0.924639206731625
40
0.924639206731625
40
1
40
1
40
1
40
1
41
1
10
56.791662048837
20
2.44214628818915
30
0
41
1
10
56.8610210776731
20
2.45256553341809
30
0
41
1
10
56.9302953231197
20
2.46232325944527
30
0
41
1
10
57.1278894403354
20
2.48828140409574
30
0
41
1
10
57.2560403233061
20
2.50284903341654
30
0
41
1
10
57.512109674259
20
2.52733697057164
30
0
41
1
10
57.6400220234411
20
2.5372632354308
30
0
41
1
10
58.0235656406831
20
2.56013828348532
30
0
41
1
10
58.2789469866336
20
2.56624710630362
30
0
41
1
10
58.6615276296139
20
2.5615115426136
30
0
41
1
10
58.7890044061505
20
2.55759668792859
30
0
41
1
10
59.0443327112
20
2.54515257572592
30
0
41
1
10
59.1721664679009
20
2.53663017804902
30
0
41
1
10
59.556263012065
20
2.50422372254766
30
0
41
1
10
59.8130785050082
20
2.47353488857999
30
0
41
1
10
60.1350314125959
20
2.42334948441226
30
0
41
1
10
60.1994748240836
20
2.41272086024742
30
0
41
1
10
60.3285437246037
20
2.3903242829264
30
0
41
1
10
60.3932275109856
20
2.37854523547242
30
0
41
1
10
60.5870705108981
20
2.34169224896911
30
0
41
1
10
60.7160707595714
20
2.31509077129672
30
0
41
1
10
60.973650896889
20
2.25797041255169
30
0
41
1
10
61.1022231526634
20
2.22744737875351
30
0
41
1
10
61.3587732557513
20
2.16233131548265
30
0
41
1
10
61.4867531599147
20
2.12773787815851
30
0
41
1
10
61.7420916197032
20
2.05438003965961
30
0
41
1
10
61.8694755135985
20
2.01563246855056
30
0
41
1
10
62.1244027749315
20
1.93494983546228
30
0
41
1
10
62.2519270053146
20
1.89300309476846
30
0
41
1
10
62.6346597409051
20
1.7624169744073
30
0
41
1
10
62.8900171518285
20
1.66902686993279
30
0
41
1
10
63.4015234794036
20
1.47016523877841
30
0
41
1
10
63.6576798581575
20
1.36469721058271
30
0
41
1
10
64.0430509582144
20
1.19797781515507
30
0
41
1
10
64.1717030616276
20
1.14098683833132
30
0
41
1
10
64.3652736607291
20
1.0539185718296
30
0
41
1
10
64.4299394862168
20
1.02461215476254
30
0
41
1
10
64.5591063819307
20
0.965659462530624
30
0
41
1
10
64.8817690454862
20
0.81735964595282
30
0
41
1
10
65.2032979678843
20
0.664761365297551
30
0
41
1
10
65.7172494528415
20
0.417051513032334
30
0
41
1
10
65.973971085856
20
0.291409889998562
30
0
41
1
10
66.4873940100936
20
0.0375126825843495
30
0
41
1
10
66.7441061947564
20
-0.090724014692853
30
0
41
1
10
67.0013404630883
20
-0.219224152463056
30
0
0
SPLINE
5
100
100
AcDbEntity
8
1
62
256
6
ByLayer
370
18
48
1
60
0
100
AcDbSpline
70
4
71
3
72
11
73
7
40
0
40
0
40
0
40
0
40
0.250000000000004
40
0.250000000000004
40
0.500000000000008
40
1
40
1
40
1
40
1
41
1
10
67.0013404630804
20
-0.219224152467575
30
0
41
1
10
67.0043795737263
20
-0.190808440432733
30
0
41
1
10
67.0075866896854
20
-0.162245574822776
30
0
41
1
10
67.0142989424764
20
-0.1053433792965
30
0
41
1
10
67.024825691678
20
-0.0202064545397889
30
0
41
1
10
67.0367929610688
20
0.0642776556946956
30
0
41
1
10
67.0454724810605
20
0.120304367737816
30
0
0
SPLINE
5
101
100
AcDbEntity
8
1
62
256
6
ByLayer
370
18
48
1
60
0
100
AcDbSpline
70
4
71
3
72
61
73
57
40
0
40
0
40
0
40
0
40
0.0288151237134743
40
0.0288151237134743
40
0.0576302474269487
40
0.0576302474269487
40
0.115260494853901
40
0.115260494853901
40
0.144075618567378
40
0.144075618567378
40
0.172890742280854
40
0.172890742280854
40
0.230520989707812
40
0.230520989707812
40
0.25933611342129
40
0.25933611342129
40
0.288151237134769
40
0.288151237134769
40
0.34578148456173
40
0.34578148456173
40
0.403411731988692
40
0.403411731988692
40
0.432226855702172
40
0.432226855702172
40
0.461041979415653
40
0.461041979415653
40
0.489857103129134
40
0.489857103129134
40
0.518672226842614
40
0.518672226842614
40
0.576302474269572
40
0.576302474269572
40
0.60511759798305
40
0.60511759798305
40
0.633932721696529
40
0.633932721696529
40
0.69156296912349
40
0.69156296912349
40
0.749193216550452
40
0.749193216550452
40
0.778008340263935
40
0.778008340263935
40
0.806823463977417
40
0.806823463977417
40
0.864453711404379
40
0.864453711404379
40
0.893268835117857
40
0.893268835117857
40
0.922083958831336
40
0.922083958831336
40
0.950899082544814
40
0.950899082544814
40
0.965306644401554
40
0.965306644401554
40
0.979714206258293
40
1
40
1
40
1
40
1
41
1
10
67.0454724810605
20
0.120304367737816
30
0
41
1
10
66.9691945628825
20
0.158295305757576
30
0
41
1
10
66.8930442257806
20
0.196242753541668
30
0
41
1
10
66.7408580378573
20
0.271753105798126
30
0
41
1
10
66.6648313016309
20
0.309336202753741
30
0
41
1
10
66.4369147430198
20
0.421506892683226
30
0
41
1
10
66.2851650981078
20
0.495468382640667
30
0
41
1
10
66.0577988567129
20
0.605146551466902
30
0
41
1
10
65.9820736129215
20
0.641536881122136
30
0
41
1
10
65.8308050509264
20
0.714084525036242
30
0
41
1
10
65.7552463439174
20
0.750209887682502
30
0
41
1
10
65.5285673020118
20
0.857682690507062
30
0
41
1
10
65.3774241577166
20
0.928090785227567
30
0
41
1
10
65.1505383282564
20
1.03160574630164
30
0
41
1
10
65.0748782407002
20
1.06575559319921
30
0
41
1
10
64.9234883146893
20
1.13333451589105
30
0
41
1
10
64.8477644423666
20
1.16677528866097
30
0
41
1
10
64.620640117301
20
1.26629076696324
30
0
41
1
10
64.4692817899484
20
1.33153810463153
30
0
41
1
10
64.1657025772507
20
1.45804421494284
30
0
41
1
10
64.013560123467
20
1.51945069452691
30
0
41
1
10
63.7846728176191
20
1.60854050022959
30
0
41
1
10
63.708263072134
20
1.63773148648067
30
0
41
1
10
63.5552950546393
20
1.69522916510502
30
0
41
1
10
63.4787306344232
20
1.72357500458838
30
0
41
1
10
63.3255057544981
20
1.77924400700317
30
0
41
1
10
63.2490285250998
20
1.80647203211674
30
0
41
1
10
63.096226282188
20
1.85954831374534
30
0
41
1
10
63.0199114091057
20
1.88541366311404
30
0
41
1
10
62.7911890597042
20
1.96097288671771
30
0
41
1
10
62.6389692315835
20
2.00858711876342
30
0
41
1
10
62.411059897204
20
2.07600093512644
30
0
41
1
10
62.3351880233163
20
2.09783833058634
30
0
41
1
10
62.1836469591241
20
2.14023939050969
30
0
41
1
10
62.1079614510934
20
2.16078141743071
30
0
41
1
10
61.8809279966897
20
2.22017192459643
30
0
41
1
10
61.7296242387867
20
2.25681615661114
30
0
41
1
10
61.4269375449612
20
2.32412303274151
30
0
41
1
10
61.2754890954869
20
2.35474242556785
30
0
41
1
10
61.048530022263
20
2.39640558648995
30
0
41
1
10
60.9729096974237
20
2.40957356185282
30
0
41
1
10
60.8215832060173
20
2.43434510057332
30
0
41
1
10
60.7458665097355
20
2.44594293367561
30
0
41
1
10
60.5185021703456
20
2.47834661152518
30
0
41
1
10
60.3666493172496
20
2.4967694039822
30
0
41
1
10
60.1383202227729
20
2.51957676024418
30
0
41
1
10
60.0621235396773
20
2.52637826546743
30
0
41
1
10
59.9096416253575
20
2.5383942268532
30
0
41
1
10
59.8333716581726
20
2.54361090968448
30
0
41
1
10
59.6806439250751
20
2.55238991722368
30
0
41
1
10
59.6041735633214
20
2.55594949154783
30
0
41
1
10
59.489242270207
20
2.56002568207609
30
0
41
1
10
59.45087766253
20
2.56117481592054
30
0
41
1
10
59.3742208353705
20
2.5630493341483
30
0
41
1
10
59.281986920766
20
2.5647975036097
30
0
41
1
10
59.1898900682893
20
2.56532974556418
30
0
41
1
10
59.1360815933884
20
2.56522944440923
30
0
0
SPLINE
5
102
100
AcDbEntity
8
1
62
256
6
ByLayer
370
18
48
1
60
0
100
AcDbSpline
70
4
71
3
72
150
73
146
40
0
40
0
40
0
40
0
40
0.0092637924885159
40
0.0092637924885159
40
0.0203448614381654
40
0.0203448614381654
40
0.0314259303878149
40
0.0314259303878149
40
0.0535880682871138
40
0.0535880682871138
40
0.0646691372367632
40
0.0646691372367632
40
0.0757502061864127
40
0.0757502061864127
40
0.0868312751360621
40
0.0868312751360621
40
0.0979123440857116
40
0.0979123440857116
40
0.120074481985009
40
0.120074481985009
40
0.142236619884306
40
0.142236619884306
40
0.153317688833955
40
0.153317688833955
40
0.164398757783603
40
0.175479826733252
40
0.175479826733252
40
0.1865608956829
40
0.1865608956829
40
0.197641964632549
40
0.197641964632549
40
0.208723033582197
40
0.208723033582197
40
0.230885171481495
40
0.230885171481495
40
0.241966240431144
40
0.241966240431144
40
0.253047309380794
40
0.253047309380794
40
0.275209447280092
40
0.275209447280092
40
0.297371585179391
40
0.297371585179391
40
0.308452654129041
40
0.308452654129041
40
0.31953372307869
40
0.31953372307869
40
0.33061479202834
40
0.33061479202834
40
0.341695860977989
40
0.341695860977989
40
0.363857998877288
40
0.363857998877288
40
0.374939067826937
40
0.374939067826937
40
0.380479602301762
40
0.380479602301762
40
0.386020136776587
40
0.386020136776587
40
0.408182274675889
40
0.408182274675889
40
0.419263343625541
40
0.419263343625541
40
0.430344412575193
40
0.430344412575193
40
0.441425481524844
40
0.441425481524844
40
0.452506550474496
40
0.452506550474496
40
0.474668688373801
40
0.474668688373801
40
0.485749757323455
40
0.485749757323455
40
0.496830826273108
40
0.496830826273108
40
0.507911895222762
40
0.507911895222762
40
0.518992964172416
40
0.530074033122069
40
0.530074033122069
40
0.541155102071723
40
0.541155102071723
40
0.552236171021376
40
0.552236171021376
40
0.56331723997103
40
0.56331723997103
40
0.574398308920683
40
0.574398308920683
40
0.585479377870337
40
0.585479377870337
40
0.607641515769644
40
0.607641515769644
40
0.618722584719298
40
0.618722584719298
40
0.629803653668951
40
0.629803653668951
40
0.65196579156826
40
0.65196579156826
40
0.663046860517914
40
0.663046860517914
40
0.674127929467569
40
0.674127929467569
40
0.696290067366879
40
0.696290067366879
40
0.707371136316534
40
0.707371136316534
40
0.718452205266189
40
0.718452205266189
40
0.740614343165501
40
0.740614343165501
40
0.762776481064813
40
0.762776481064813
40
0.773857550014469
40
0.773857550014469
40
0.784938618964125
40
0.784938618964125
40
0.79601968791378
40
0.79601968791378
40
0.807100756863436
40
0.807100756863436
40
0.829262894762747
40
0.829262894762747
40
0.840343963712402
40
0.840343963712402
40
0.851425032662057
40
0.851425032662057
40
0.873587170561367
40
0.873587170561367
40
0.884668239511023
40
0.884668239511023
40
0.895749308460679
40
0.895749308460679
40
0.91791144635999
40
0.91791144635999
40
0.9400735842593
40
0.9400735842593
40
0.951154653208956
40
0.951154653208956
40
0.962235722158612
40
0.962235722158612
40
0.973316791108268
40
0.973316791108268
40
0.984397860057924
40
0.984397860057924
40
1
40
1
40
1
40
1
41
1
10
47.1660447330439
20
-1.70746053652735
30
0
41
1
10
47.1020077927167
20
-1.73060430706053
30
0
41
1
10
47.0380322823226
20
-1.7533094794033
30
0
41
1
10
46.8976502494257
20
-1.80219957659256
30
0
41
1
10
46.8212717198401
20
-1.82820210950808
30
0
41
1
10
46.6687694555568
20
-1.87909440648733
30
0
41
1
10
46.5926616876407
20
-1.90400469151061
30
0
41
1
10
46.3645750863196
20
-1.97683320326979
30
0
41
1
10
46.2127381372569
20
-2.02271885607374
30
0
41
1
10
45.9850559884686
20
-2.08730165317675
30
0
41
1
10
45.9091804382589
20
-2.10813029493295
30
0
41
1
10
45.7574417846374
20
-2.14837338848048
30
0
41
1
10
45.6815727354619
20
-2.16778238881807
30
0
41
1
10
45.5299143609834
20
-2.20526405111903
30
0
41
1
10
45.4541439377912
20
-2.22335531856322
30
0
41
1
10
45.3026797327102
20
-2.25817556364211
30
0
41
1
10
45.2269697450585
20
-2.27488709547276
30
0
41
1
10
44.9996869171325
20
-2.32271978466164
30
0
41
1
10
44.848001845921
20
-2.35158312294087
30
0
41
1
10
44.544129245457
20
-2.40316992392408
30
0
41
1
10
44.391890528074
20
-2.42587496309369
30
0
41
1
10
44.163472202119
20
-2.45547425200979
30
0
41
1
10
44.0873053612468
20
-2.46458050847011
30
0
41
1
10
43.9347567897687
20
-2.48117136518084
30
0
41
1
10
43.781984554173
20
-2.49614026583617
30
0
41
1
10
43.6287237707669
20
-2.50784894349903
30
0
41
1
10
43.4751958692588
20
-2.51791729666499
30
0
41
1
10
43.3982154412352
20
-2.5221331916434
30
0
41
1
10
43.2445294003088
20
-2.52889595793721
30
0
41
1
10
43.1678017607196
20
-2.53144957015923
30
0
41
1
10
43.014672669892
20
-2.53491408361603
30
0
41
1
10
42.9382703530874
20
-2.53582078373478
30
0
41
1
10
42.7093232335409
20
-2.53604467783384
30
0
41
1
10
42.5569710342547
20
-2.53287225071711
30
0
41
1
10
42.3286760864833
20
-2.52327629378885
30
0
41
1
10
42.2526188152181
20
-2.51927129013353
30
0
41
1
10
42.1005625957285
20
-2.50967102403155
30
0
41
1
10
42.0245654408062
20
-2.50407697896242
30
0
41
1
10
41.7968027945319
20
-2.48486744915809
30
0
41
1
10
41.6453560022409
20
-2.46876054610999
30
0
41
1
10
41.3422085156505
20
-2.43037222808311
30
0
41
1
10
41.1905654197324
20
-2.40808565843278
30
0
41
1
10
40.9628626146579
20
-2.37016144221596
30
0
41
1
10
40.8869141057281
20
-2.35677783726354
30
0
41
1
10
40.7349926203846
20
-2.32847022988844
30
0
41
1
10
40.6590369839064
20
-2.31353117322914
30
0
41
1
10
40.5071256900376
20
-2.28206182126766
30
0
41
1
10
40.4311528327294
20
-2.26554459220881
30
0
41
1
10
40.279015715163
20
-2.23108508492427
30
0
41
1
10
40.2028590868009
20
-2.21313738580381
30
0
41
1
10
39.9740944362659
20
-2.15717786854836
30
0
41
1
10
39.8211723944059
20
-2.11707463611171
30
0
41
1
10
39.5911275573836
20
-2.05276005745742
30
0
41
1
10
39.5143542071581
20
-2.03060550457408
30
0
41
1
10
39.3991078381647
20
-1.99620308924221
30
0
41
1
10
39.3606551384521
20
-1.98453942495135
30
0
41
1
10
39.2838395942872
20
-1.96089919033486
30
0
41
1
10
39.2454662522171
20
-1.94891966272175
30
0
41
1
10
39.0537199620801
20
-1.88830180614775
30
0
41
1
10
38.9006820182337
20
-1.83754269129224
30
0
41
1
10
38.6715173666347
20
-1.75830541979337
30
0
41
1
10
38.5951917217958
20
-1.7313809320091
30
0
41
1
10
38.4426588156609
20
-1.67652829174801
30
0
41
1
10
38.3664576834672
20
-1.64859114821672
30
0
41
1
10
38.2142835920608
20
-1.5915337962405
30
0
41
1
10
38.1383165550166
20
-1.56240190613934
30
0
41
1
10
37.9864712329564
20
-1.50317825772655
30
0
41
1
10
37.9105805081707
20
-1.47310822991005
30
0
41
1
10
37.6829081612568
20
-1.3816999583133
30
0
41
1
10
37.5311524156983
20
-1.31911973369785
30
0
41
1
10
37.3034184360088
20
-1.22307473941805
30
0
41
1
10
37.2274887868367
20
-1.19070100627826
30
0
41
1
10
37.0756827003872
20
-1.12506705859701
30
0
41
1
10
36.9998265500774
20
-1.09176752519136
30
0
41
1
10
36.8481200155893
20
-1.02435713956839
30
0
41
1
10
36.7722545870109
20
-0.990274848170657
30
0
41
1
10
36.6203742008115
20
-0.921600003396804
30
0
41
1
10
36.4683665866837
20
-0.852372716968887
30
0
41
1
10
36.3160635207592
20
-0.78212847207655
30
0
41
1
10
36.1635895223619
20
-0.71142466163019
30
0
41
1
10
36.0872589774163
20
-0.675860272819079
30
0
41
1
10
35.93447270598
20
-0.60417427049714
30
0
41
1
10
35.8580329893401
20
-0.568018585450346
30
0
41
1
10
35.7050700675491
20
-0.495042587553229
30
0
41
1
10
35.6285291554328
20
-0.458258949868451
30
0
41
1
10
35.4751665472932
20
-0.38444535192582
30
0
41
1
10
35.3983476774131
20
-0.347403078284003
30
0
41
1
10
35.2444305296013
20
-0.27310054085126
30
0
41
1
10
35.1675743688964
20
-0.235957240454269
30
0
41
1
10
34.9372744890024
20
-0.124626849936703
30
0
41
1
10
34.7840345550379
20
-0.050677935577454
30
0
41
1
10
34.5550144216071
20
0.0607326167446729
30
0
41
1
10
34.4788062696213
20
0.0979307575788937
30
0
41
1
10
34.3264954242882
20
0.172104905798278
30
0
41
1
10
34.2503834892905
20
0.209061510005682
30
0
41
1
10
34.0221352055962
20
0.319456249217041
30
0
41
1
10
33.8700880744237
20
0.39242335663721
30
0
41
1
10
33.642073111512
20
0.500698314332965
30
0
41
1
10
33.5660848429537
20
0.5366099277648
30
0
41
1
10
33.4142394029416
20
0.608272804666598
30
0
41
1
10
33.3383941068564
20
0.644047537608259
30
0
41
1
10
33.1108707940245
20
0.750743719316091
30
0
41
1
10
32.9591180937833
20
0.820860654423541
30
0
41
1
10
32.7311583601391
20
0.92407800439949
30
0
41
1
10
32.6551217370905
20
0.95816772554511
30
0
41
1
10
32.5029246870734
20
1.02566997660324
30
0
41
1
10
32.4267602914474
20
1.05907519485765
30
0
41
1
10
32.1982008138023
20
1.15850516688013
30
0
41
1
10
32.0458692433276
20
1.22398673600213
30
0
41
1
10
31.7402748462955
20
1.35136016953785
30
0
41
1
10
31.5870413371248
20
1.41331449269543
30
0
41
1
10
31.3564053440092
20
1.50340320325964
30
0
41
1
10
31.2793065111787
20
1.53297409644878
30
0
41
1
10
31.1253377273065
20
1.59106786894233
30
0
41
1
10
31.0485030849621
20
1.61961202647743
30
0
41
1
10
30.8951551759885
20
1.67572232520877
30
0
41
1
10
30.8186245709273
20
1.70325622984163
30
0
41
1
10
30.6656870570182
20
1.75702134042768
30
0
41
1
10
30.5892843013403
20
1.78326137231602
30
0
41
1
10
30.3602410721603
20
1.86003555695564
30
0
41
1
10
30.2077500247581
20
1.90860321723287
30
0
41
1
10
29.9792525069483
20
1.97752998411326
30
0
41
1
10
29.9031419452362
20
1.99987307066786
30
0
41
1
10
29.7511234372286
20
2.04340169112189
30
0
41
1
10
29.6752044802866
20
2.06456981978309
30
0
41
1
10
29.4474798634642
20
2.12598127794877
30
0
41
1
10
29.2956545480715
20
2.16407762522203
30
0
41
1
10
29.0677574245695
20
2.21686501192704
30
0
41
1
10
28.9917648782575
20
2.23373435936216
30
0
41
1
10
28.8397100013683
20
2.26601197067538
30
0
41
1
10
28.7636523708984
20
2.28142621088313
30
0
41
1
10
28.5355343803197
20
2.3256079573521
30
0
41
1
10
28.3835790021425
20
2.35232734427348
30
0
41
1
10
28.0788440290577
20
2.39937649681639
30
0
41
1
10
27.9261408091204
20
2.41978405122265
30
0
41
1
10
27.6964490395471
20
2.44565267722808
30
0
41
1
10
27.6197734708463
20
2.4534837275053
30
0
41
1
10
27.4662835297598
20
2.46758968209798
30
0
41
1
10
27.3894891664526
20
2.47387118273235
30
0
41
1
10
27.2357393442167
20
2.48482931461442
30
0
41
1
10
27.1587062660735
20
2.48950055608711
30
0
41
1
10
27.0049296514612
20
2.49714675321823
30
0
41
1
10
26.9281337510335
20
2.50013220394922
30
0
41
1
10
26.7434039743697
20
2.50533296809746
30
0
41
1
10
26.6355335230417
20
2.5067386350228
30
0
41
1
10
26.5278117987446
20
2.50653556726678
30
0
0
SPLINE
5
103
100
AcDbEntity
8
1
62
256
6
ByLayer
370
18
48
1
60
0
100
AcDbSpline
70
4
71
3
72
41
73
37
40
0
40
0
40
0
40
0
40
0.0082644650537485
40
0.0082644650537485
40
0.0909090929659351
40
0.0909090929659351
40
0.132231406922029
40
0.132231406922029
40
0.173553720878122
40
0.173553720878122
40
0.214876034834216
40
0.214876034834216
40
0.256198348790308
40
0.256198348790308
40
0.338842976702496
40
0.338842976702496
40
0.421487604614683
40
0.421487604614683
40
0.462809918570776
40
0.462809918570776
40
0.50413223252687
40
0.545454546482963
40
0.545454546482963
40
0.586776860439056
40
0.586776860439056
40
0.62809917439515
40
0.62809917439515
40
0.669421488351243
40
0.669421488351243
40
0.752066116263432
40
0.752066116263432
40
0.834710744175622
40
0.834710744175622
40
0.917355372087811
40
0.917355372087811
40
1
40
1
40
1
40
1
41
1
10
14.0622356968873
20
-1.83510389678176
30
0
41
1
10
14.0469564836789
20
-1.84003359026306
30
0
41
1
10
14.0316809651371
20
-1.84493955462509
30
0
41
1
10
13.8636848128838
20
-1.8986343033427
30
0
41
1
10
13.7111762243886
20
-1.94484382025379
30
0
41
1
10
13.4824853412524
20
-2.01000477120698
30
0
41
1
10
13.4062733000368
20
-2.03104190320977
30
0
41
1
10
13.2538621059022
20
-2.07173401863932
30
0
41
1
10
13.1776575559116
20
-2.09138400701457
30
0
41
1
10
13.025341449006
20
-2.12939860286536
30
0
41
1
10
12.949250821678
20
-2.14778489992537
30
0
41
1
10
12.7971475881357
20
-2.18323079323562
30
0
41
1
10
12.7211179463403
20
-2.2002712565164
30
0
41
1
10
12.492875542885
20
-2.24912796546209
30
0
41
1
10
12.3405558388621
20
-2.27873208287599
30
0
41
1
10
12.0354348972502
20
-2.3319250861816
30
0
41
1
10
11.882590041178
20
-2.35549993293876
30
0
41
1
10
11.6533194480715
20
-2.38653974748502
30
0
41
1
10
11.5768717507479
20
-2.39614338649534
30
0
41
1
10
11.4237572858426
20
-2.41375132939893
30
0
41
1
10
11.2704246499463
20
-2.42976489883068
30
0
41
1
10
11.1166184605982
20
-2.44257704280884
30
0
41
1
10
10.9625540161397
20
-2.4537794951768
30
0
41
1
10
10.8853589596171
20
-2.45857664324248
30
0
41
1
10
10.7308350764474
20
-2.46654806113321
30
0
41
1
10
10.6536361108898
20
-2.46971861341319
30
0
41
1
10
10.4994182402219
20
-2.47443963481513
30
0
41
1
10
10.4223945694625
20
-2.47598722034209
30
0
41
1
10
10.1914577823603
20
-2.47817387727886
30
0
41
1
10
10.0376560705811
20
-2.47635791739143
30
0
41
1
10
9.73011666555206
20
-2.46623384723011
30
0
41
1
10
9.5763807108566
20
-2.4579336753057
30
0
41
1
10
9.26899123246056
20
-2.43480788819778
30
0
41
1
10
9.11535950166831
20
-2.41994494861964
30
0
41
1
10
8.80727265842711
20
-2.38405371979789
30
0
41
1
10
8.65288875036109
20
-2.36301265961265
30
0
41
1
10
8.49807119777608
20
-2.33899799889696
30
0
0
SPLINE
5
104
100
AcDbEntity
8
1
62
256
6
ByLayer
370
18
48
1
60
0
100
AcDbSpline
70
4
71
3
72
36
73
32
40
0
40
0
40
0
40
0
40
0.0601503770131389
40
0.0601503770131389
40
0.120300754026278
40
0.120300754026278
40
0.240601508052556
40
0.240601508052556
40
0.300751885065695
40
0.300751885065695
40
0.360902262078834
40
0.360902262078834
40
0.421052639091973
40
0.421052639091973
40
0.451127827598542
40
0.451127827598542
40
0.481203016105112
40
0.481203016105112
40
0.601503770131388
40
0.601503770131388
40
0.721804524157663
40
0.721804524157663
40
0.842105278183939
40
0.842105278183939
40
0.902255655197076
40
0.902255655197076
40
0.932330843703646
40
0.932330843703646
40
0.962406032210215
40
0.962406032210215
40
1
40
1
40
1
40
1
41
1
10
9.34307954322423
20
0.186047213541173
30
0
41
1
10
9.5162302456159
20
0.103916382444964
30
0
41
1
10
9.68878036657338
20
0.0217239552591195
30
0
41
1
10
10.0329524659473
20
-0.14220288119418
30
0
41
1
10
10.2045789602842
20
-0.223926108237038
30
0
41
1
10
10.7186282881198
20
-0.467209677120309
30
0
41
1
10
11.0601901117726
20
-0.626950552144905
30
0
41
1
10
11.5726312269682
20
-0.859152730700572
30
0
41
1
10
11.7434726832699
20
-0.935296820018095
30
0
41
1
10
12.0854538072184
20
-1.08457356689038
30
0
41
1
10
12.2566000164796
20
-1.15769229528567
30
0
41
1
10
12.5995430646579
20
-1.30020711920545
30
0
41
1
10
12.7713382392765
20
-1.36960674970462
30
0
41
1
10
13.0297488875924
20
-1.47045698259177
30
0
41
1
10
13.1160004552522
20
-1.50354136588584
30
0
41
1
10
13.2887752284028
20
-1.56856153294993
30
0
41
1
10
13.3753562082392
20
-1.6005162439663
30
0
41
1
10
13.807131518633
20
-1.75651688843288
30
0
41
1
10
14.1503641989041
20
-1.86971738529505
30
0
41
1
10
14.8347949114111
20
-2.07013900335545
30
0
41
1
10
15.1760430809334
20
-2.15728909984267
30
0
41
1
10
15.8589740689858
20
-2.30292283896017
30
0
41
1
10
16.2006295643441
20
-2.36141850335065
30
0
41
1
10
16.7153524245225
20
-2.42584736070199
30
0
41
1
10
16.8872751927581
20
-2.44345607898211
30
0
41
1
10
17.1459339773691
20
-2.46385122270576
30
0
41
1
10
17.2323341126103
20
-2.46964923254643
30
0
41
1
10
17.4052168401671
20
-2.47919534833082
30
0
41
1
10
17.4915040471626
20
-2.48293415881889
30
0
41
1
10
17.6853567218638
20
-2.48903272221329
30
0
41
1
10
17.7928422726783
20
-2.49081377252159
30
0
41
1
10
17.9001556311092
20
-2.4910026298916
30
0
0
SPLINE
5
105
100
AcDbEntity
8
1
62
256
6
ByLayer
370
18
48
1
60
0
100
AcDbSpline
70
4
71
3
72
50
73
46
40
0
40
0
40
0
40
0
40
0.0462979025413579
40
0.0462979025413579
40
0.132998093219395
40
0.132998093219395
40
0.176348188558416
40
0.176348188558416
40
0.219698283897436
40
0.219698283897436
40
0.263048379236456
40
0.263048379236456
40
0.273885903071212
40
0.273885903071212
40
0.284723426905968
40
0.284723426905968
40
0.306398474575482
40
0.306398474575482
40
0.393098665253548
40
0.393098665253548
40
0.479798855931614
40
0.479798855931614
40
0.56649904660968
40
0.56649904660968
40
0.609849141948714
40
0.609849141948714
40
0.620686665783472
40
0.620686665783472
40
0.63152418961823
40
0.63152418961823
40
0.653199237287745
40
0.653199237287745
40
0.739899427965811
40
0.739899427965811
40
0.826599618643877
40
0.826599618643877
40
0.913299809321943
40
0.913299809321943
40
0.956649904660976
40
0.956649904660976
40
0.967487428495732
40
0.967487428495732
40
0.978324952330489
40
0.978324952330489
40
1
40
1
40
1
40
1
41
1
10
30.3809617501342
20
1.85515798996335
30
0
41
1
10
30.5637621526695
20
1.91504787818678
30
0
41
1
10
30.7461118892157
20
1.9713793011353
30
0
41
1
10
31.2692377442719
20
2.122270717708
30
0
41
1
10
31.6093362519295
20
2.20738655650697
30
0
41
1
10
32.1199574548131
20
2.31322846127927
30
0
41
1
10
32.2902587855398
20
2.34486107162269
30
0
41
1
10
32.6313001672617
20
2.40058316780789
30
0
41
1
10
32.8020400983962
20
2.42466985675418
30
0
41
1
10
33.1443047346142
20
2.46498831905069
30
0
41
1
10
33.3158258550322
20
2.48122242359463
30
0
41
1
10
33.5309227502167
20
2.49644255741427
30
0
41
1
10
33.5739762335239
20
2.4992332740789
30
0
41
1
10
33.6601544491889
20
2.5043045003452
30
0
41
1
10
33.703304169485
20
2.50658602272935
30
0
41
1
10
33.8326722691249
20
2.51264975352612
30
0
41
1
10
33.9187612432643
20
2.51565020080793
30
0
41
1
10
34.3485349495098
20
2.52547375397765
30
0
41
1
10
34.6902457987488
20
2.51675619062144
30
0
41
1
10
35.3718323140811
20
2.46724808444344
30
0
41
1
10
35.7117355539285
20
2.42645690517997
30
0
41
1
10
36.3922419827502
20
2.31421638322911
30
0
41
1
10
36.7327861617972
20
2.2427133853038
30
0
41
1
10
37.2460333843494
20
2.11380060769193
30
0
41
1
10
37.4175025576843
20
2.06720456094413
30
0
41
1
10
37.6325198954161
20
2.00457718308021
30
0
41
1
10
37.6755577691831
20
1.99183311287604
30
0
41
1
10
37.7617079505279
20
1.96591277012135
30
0
41
1
10
37.8048443110348
20
1.9527289711697
30
0
41
1
10
37.9341029313653
20
1.91262138690479
30
0
41
1
10
38.02012240013
20
1.88512566855692
30
0
41
1
10
38.449566244464
20
1.74405095707456
30
0
41
1
10
38.7910125680878
20
1.61965363170896
30
0
41
1
10
39.4721584988829
20
1.35216472468539
30
0
41
1
10
39.8118929110238
20
1.20913584015108
30
0
41
1
10
40.4920287293161
20
0.908806578530971
30
0
41
1
10
40.8324954693864
20
0.751632234740157
30
0
41
1
10
41.3455570634256
20
0.508687884558384
30
0
41
1
10
41.5169788608807
20
0.426525330761166
30
0
41
1
10
41.7319640032454
20
0.322749066792483
30
0
41
1
10
41.7749966232188
20
0.301940628244068
30
0
41
1
10
41.8611390485221
20
0.260229555696668
30
0
41
1
10
41.9042514365843
20
0.239325483983862
30
0
41
1
10
42.0333987253936
20
0.17663452324885
30
0
41
1
10
42.1193456616223
20
0.134814893314854
30
0
41
1
10
42.2051583162865
20
0.0930047908383358
30
0
0
SPLINE
5
106
100
AcDbEntity
8
1
62
256
6
ByLayer
370
18
48
1
60
0
100
AcDbSpline
70
4
71
3
72
38
73
34
40
0
40
0
40
0
40
0
40
0.0460087415224481
40
0.0690131122836721
40
0.0690131122836721
40
0.0920174830448961
40
0.0920174830448961
40
0.1840349660898
40
0.1840349660898
40
0.276052449134704
40
0.276052449134704
40
0.368069932179608
40
0.368069932179608
40
0.460087415224512
40
0.460087415224512
40
0.506096156746966
40
0.529100527508195
40
0.529100527508195
40
0.552104898269424
40
0.552104898269424
40
0.736139864359248
40
0.736139864359248
40
0.782148605881704
40
0.782148605881704
40
0.82815734740416
40
0.82815734740416
40
0.920174830449068
40
0.920174830449068
40
0.966183571971522
40
0.966183571971522
40
0.989187942732751
40
0.989187942732751
40
1
40
1
40
1
40
1
41
1
10
42.2051583162975
20
0.129922706420501
30
0
41
1
10
42.3353807232526
20
0.0666695962117956
30
0
41
1
10
42.530666107988
20
-0.0283641322058088
30
0
41
1
10
42.7260340741802
20
-0.12330995522359
30
0
41
1
10
42.8563127978094
20
-0.186556618887266
30
0
41
1
10
42.9214930169109
20
-0.218166645099132
30
0
41
1
10
43.2468485713275
20
-0.375691065550114
30
0
41
1
10
43.5058329612
20
-0.500255763639132
30
0
41
1
10
44.0222636153902
20
-0.744359078428232
30
0
41
1
10
44.2797129045212
20
-0.863889565867339
30
0
41
1
10
44.7942059818629
20
-1.09571257491913
30
0
41
1
10
45.051257872936
20
-1.20799104911109
30
0
41
1
10
45.5660223552482
20
-1.4232961462271
30
0
41
1
10
45.8237256538847
20
-1.52633831612431
30
0
41
1
10
46.2115986460482
20
-1.67243972016649
30
0
41
1
10
46.4058661602711
20
-1.74337305054195
30
0
41
1
10
46.6007962002012
20
-1.81083314286761
30
0
41
1
10
46.7309154883375
20
-1.85500195585396
30
0
41
1
10
46.7960632054628
20
-1.87668451830854
30
0
41
1
10
47.3816953506351
20
-2.06759577015163
30
0
41
1
10
47.899921536274
20
-2.20820635862481
30
0
41
1
10
48.5500508058512
20
-2.34153964288481
30
0
41
1
10
48.6802961843998
20
-2.36609797457635
30
0
41
1
10
48.9403537778293
20
-2.41068489780878
30
0
41
1
10
49.070231974081
20
-2.43073020029198
30
0
41
1
10
49.45963725048
20
-2.48399933765484
30
0
41
1
10
49.7189344156146
20
-2.51034870559528
30
0
41
1
10
50.1083472277521
20
-2.53573904423783
30
0
41
1
10
50.2382297451308
20
-2.54184865525036
30
0
41
1
10
50.4332855002174
20
-2.54745073840812
30
0
41
1
10
50.4983727173348
20
-2.54872485065948
30
0
41
1
10
50.594014996915
20
-2.54972125684478
30
0
41
1
10
50.6245764758842
20
-2.54990812112325
30
0
41
1
10
50.6551206748846
20
-2.54996373950448
30
0
0
SPLINE
5
107
100
AcDbEntity
8
1
62
256
6
ByLayer
370
18
48
1
60
0
100
AcDbSpline
70
4
71
3
72
8
73
4
40
0
40
0
40
0
40
0
40
1
40
1
40
1
40
1
41
1
10
66.1426459407612
20
2.54111010924228
30
0
41
1
10
66.4317184312073
20
2.56567339349633
30
0
41
1
10
66.7209945037674
20
2.57854138101774
30
0
41
1
10
67.0112205898647
20
2.57939774699969
30
0
0
SPLINE
5
108
100
AcDbEntity
8
1
62
256
6
ByLayer
370
18
48
1
60
0
100
AcDbSpline
70
4
71
3
72
10
73
6
40
0
40
0
40
0
40
0
40
0.745833038998969
40
0.745833038998969
40
1
40
1
40
1
40
1
41
1
10
13.0153131773804
20
-1.45939846925137
30
0
41
1
10
11.8783029429732
20
-1.68598495576649
30
0
41
1
10
10.750576553952
20
-1.90940998296375
30
0
41
1
10
9.25450696349958
20
-2.19636690764085
30
0
41
1
10
8.87556218660325
20
-2.26822707886481
30
0
41
1
10
8.49785769926294
20
-2.33889495833284
30
0
0
SPLINE
5
109
100
AcDbEntity
8
1
62
256
6
ByLayer
370
18
48
1
60
0
100
AcDbSpline
70
4
71
3
72
96
73
92
40
0
40
0
40
0
40
0
40
0.0624999999999925
40
0.0624999999999925
40
0.124999999999985
40
0.124999999999985
40
0.187499999999977
40
0.187499999999977
40
0.203124999999975
40
0.203124999999975
40
0.218749999999973
40
0.218749999999973
40
0.249999999999968
40
0.249999999999968
40
0.281249999999963
40
0.281249999999963
40
0.296874999999961
40
0.296874999999961
40
0.31249999999996
40
0.31249999999996
40
0.343749999999957
40
0.343749999999957
40
0.359374999999956
40
0.359374999999956
40
0.367187499999955
40
0.367187499999955
40
0.374999999999954
40
0.374999999999954
40
0.406249999999947
40
0.406249999999947
40
0.414062499999946
40
0.414062499999946
40
0.421874999999945
40
0.437499999999942
40
0.453124999999939
40
0.453124999999939
40
0.460937499999938
40
0.460937499999938
40
0.468749999999937
40
0.484374999999934
40
0.484374999999934
40
0.492187499999933
40
0.492187499999933
40
0.499999999999933
40
0.499999999999933
40
0.531249999999932
40
0.531249999999932
40
0.546874999999932
40
0.546874999999932
40
0.554687499999932
40
0.554687499999932
40
0.562499999999932
40
0.562499999999932
40
0.593749999999932
40
0.593749999999932
40
0.624999999999932
40
0.624999999999932
40
0.656249999999932
40
0.656249999999932
40
0.687499999999931
40
0.687499999999931
40
0.718749999999931
40
0.718749999999931
40
0.749999999999931
40
0.749999999999931
40
0.751953124999932
40
0.751953124999932
40
0.753906249999933
40
0.753906249999933
40
0.755859374999934
40
0.755859374999934
40
0.757812499999934
40
0.757812499999934
40
0.759765624999935
40
0.759765624999935
40
0.761718749999936
40
0.765624999999938
40
0.765624999999938
40
0.769531249999939
40
0.769531249999939
40
0.773437499999941
40
0.773437499999941
40
0.781249999999942
40
0.781249999999942
40
0.81249999999995
40
0.81249999999995
40
0.874999999999967
40
0.874999999999967
40
0.937499999999983
40
0.937499999999983
40
1
40
1
40
1
40
1
41
1
10
8.49765506894022
20
-2.33893315295671
30
0
41
1
10
8.35004253025559
20
-2.31592703335525
30
0
41
1
10
8.20382747258108
20
-2.28948814387903
30
0
41
1
10
7.91464367730788
20
-2.22837030684158
30
0
41
1
10
7.7716696710211
20
-2.19370595727491
30
0
41
1
10
7.48966716523623
20
-2.11407340861001
30
0
41
1
10
7.35062594552232
20
-2.0691403390779
30
0
41
1
10
7.18003861306744
20
-2.0043809057758
30
0
41
1
10
7.14608373937352
20
-1.99099415019597
30
0
41
1
10
7.07852747001317
20
-1.96327055475382
30
0
41
1
10
7.04489839001775
20
-1.94892140113828
30
0
41
1
10
6.94479530996765
20
-1.90439664953044
30
0
41
1
10
6.87921751537681
20
-1.87280843242311
30
0
41
1
10
6.75082132412317
20
-1.80506363640396
30
0
41
1
10
6.68799894032122
20
-1.76891368679796
30
0
41
1
10
6.59632464499995
20
-1.71043270471588
30
0
41
1
10
6.56614563664436
20
-1.69018989271632
30
0
41
1
10
6.50706830043018
20
-1.64830723121432
30
0
41
1
10
6.47816486396354
20
-1.62666866596408
30
0
41
1
10
6.39358087013147
20
-1.55941663559116
30
0
41
1
10
6.33999816741976
20
-1.51149785448968
30
0
41
1
10
6.26510858092675
20
-1.43358750819968
30
0
41
1
10
6.24106540855934
20
-1.40660554745813
30
0
41
1
10
6.20662160816323
20
-1.36435019761998
30
0
41
1
10
6.19541121875187
20
-1.3499672315217
30
0
41
1
10
6.17358309459553
20
-1.32054980019055
30
0
41
1
10
6.16300633661467
20
-1.30556812388159
30
0
41
1
10
6.11213999263492
20
-1.22952801672221
30
0
41
1
10
6.0776002670641
20
-1.16482507964454
30
0
41
1
10
6.04451830309918
20
-1.07761584076044
30
0
41
1
10
6.0383940629284
20
-1.05979256708193
30
0
41
1
10
6.02734660303616
20
-1.02377199115057
30
0
41
1
10
6.01259991330022
20
-0.969298574270823
30
0
41
1
10
5.99731749880269
20
-0.876258965527796
30
0
41
1
10
5.99548623901279
20
-0.799322160901511
30
0
41
1
10
5.9982440332717
20
-0.740629486521158
30
0
41
1
10
5.99986390483218
20
-0.72084557295571
30
0
41
1
10
6.00442977670144
20
-0.681604998056542
30
0
41
1
10
6.01326777742929
20
-0.623015208213502
30
0
41
1
10
6.02781685124233
20
-0.565206704972269
30
0
41
1
10
6.04589655802974
20
-0.507885216238691
30
0
41
1
10
6.0525122520807
20
-0.488859314266477
30
0
41
1
10
6.06688316567778
20
-0.450965383282465
30
0
41
1
10
6.07465444944495
20
-0.432069284759819
30
0
41
1
10
6.11572426148834
20
-0.339132865342776
30
0
41
1
10
6.15589339035452
20
-0.2687370789954
30
0
41
1
10
6.22428284757189
20
-0.167553650296867
30
0
41
1
10
6.24845311095575
20
-0.134570452468665
30
0
41
1
10
6.28653398246115
20
-0.0860865584229487
30
0
41
1
10
6.2995193544669
20
-0.0701095122149411
30
0
41
1
10
6.32586923092927
20
-0.038692166775121
30
0
41
1
10
6.33925665457201
20
-0.0232223836181049
30
0
41
1
10
6.40717222791267
20
0.0530268094202029
30
0
41
1
10
6.4646029454259
20
0.11054404505839
30
0
41
1
10
6.58413682560911
20
0.220333581712396
30
0
41
1
10
6.64625301361056
20
0.27259119047028
30
0
41
1
10
6.7742389475309
20
0.372898164646386
30
0
41
1
10
6.84023526774598
20
0.421015434272761
30
0
41
1
10
6.97427402162884
20
0.513034504583828
30
0
41
1
10
7.04242420065961
20
0.557026308467528
30
0
41
1
10
7.1806027246015
20
0.641673749182416
30
0
41
1
10
7.25063282707097
20
0.682326184056365
30
0
41
1
10
7.39230072758443
20
0.760788186934747
30
0
41
1
10
7.46386178711032
20
0.798552627399914
30
0
41
1
10
7.54049019135459
20
0.83729585663886
30
0
41
1
10
7.54500292509178
20
0.839584100677229
30
0
41
1
10
7.55432766128769
20
0.843517225679562
30
0
41
1
10
7.55912449270477
20
0.845190426771552
30
0
41
1
10
7.5689003334864
20
0.847968929865942
30
0
41
1
10
7.5738402823695
20
0.848980923529524
30
0
41
1
10
7.58378807404378
20
0.850513172535017
30
0
41
1
10
7.58879379305529
20
0.851048775609627
30
0
41
1
10
7.59887282506364
20
0.851630703304181
30
0
41
1
10
7.60396647835154
20
0.851634859785776
30
0
41
1
10
7.61412888731496
20
0.851324003156634
30
0
41
1
10
7.62924645330881
20
0.850229664144138
30
0
41
1
10
7.64401272023974
20
0.847384073595208
30
0
41
1
10
7.66346737005409
20
0.842421345031568
30
0
41
1
10
7.67308464988952
20
0.839397896890063
30
0
41
1
10
7.69237946291565
20
0.833634831844904
30
0
41
1
10
7.70202231231576
20
0.830737983068303
30
0
41
1
10
7.73093935135819
20
0.822007685617422
30
0
41
1
10
7.75019952251415
20
0.816126767463913
30
0
41
1
10
7.84641595187753
20
0.78643911914449
30
0
41
1
10
7.92311741523645
20
0.761759829268811
30
0
41
1
10
8.15230747405775
20
0.685018120944221
30
0
41
1
10
8.30387423718742
20
0.630242608293457
30
0
41
1
10
8.60483617946554
20
0.51384333425375
30
0
41
1
10
8.75405877088554
20
0.45230017962453
30
0
41
1
10
9.05014444130404
20
0.323348749636836
30
0
41
1
10
9.19704593105411
20
0.255920062765881
30
0
41
1
10
9.3430746256164
20
0.186052076697507
30
0
0
SPLINE
5
10A
100
AcDbEntity
8
SK1
62
256
6
ByLayer
370
18
48
1
60
0
100
AcDbSpline
70
4
71
3
72
18
73
14
40
0
40
0
40
0
40
0
40
0.300435576024446
40
0.300435576024446
40
0.450653364036669
40
0.450653364036669
40
0.600871152048892
40
0.600871152048892
40
0.751088940061115
40
0.751088940061115
40
0.901306728073339
40
0.901306728073339
40
1
40
1
40
1
40
1
41
1
10
-35.75
20
0.119099503616639
30
0
41
1
10
-35.7379956523281
20
0.115611723408819
30
0
41
1
10
-35.7264866986603
20
0.110062970056561
30
0
41
1
10
-35.7098921057742
20
0.098813831195514
30
0
41
1
10
-35.7045257065493
20
0.09459243040817
30
0
41
1
10
-35.6942964893128
20
0.0853256344471447
30
0
41
1
10
-35.6894060316865
20
0.0802630592653486
30
0
41
1
10
-35.6801144608566
20
0.0691871419864185
30
0
41
1
10
-35.6756964104891
20
0.0631521919652016
30
0
41
1
10
-35.6675285377629
20
0.0500029827955188
30
0
41
1
10
-35.6638529491706
20
0.0430179710348
30
0
41
1
10
-35.6585958688877
20
0.0306016367188988
30
0
41
1
10
-35.6567258908125
20
0.025430622322915
30
0
41
1
10
-35.6551586811352
20
0.02009605420659
30
0
0
SPLINE
5
10B
100
AcDbEntity
8
SK1
62
256
6
ByLayer
370
18
48
1
60
0
100
AcDbSpline
70
4
71
3
72
8
73
4
40
0
40
0
40
0
40
0
40
1
40
1
40
1
40
1
41
1
10
-36
20
0.192258565342996
30
0
41
1
10
-35.9170280098612
20
0.167780254477606
30
0
41
1
10
-35.8336533712881
20
0.143404412193746
30
0
41
1
10
-35.7499999999999
20
0.119099503616525
30
0
0
SPLINE
5
10C
100
AcDbEntity
8
SK1
62
256
6
ByLayer
370
18
48
1
60
0
100
AcDbSpline
70
4
71
3
72
8
73
4
40
0
40
0
40
0
40
0
40
1
40
1
40
1
40
1
41
1
10
-35.75
20
1.32312134388681
30
0
41
1
10
-35.8336532555118
20
1.29881646894765
30
0
41
1
10
-35.9170278802068
20
1.27444063127629
30
0
41
1
10
-36
20
1.24996228216037
30
0
0
SPLINE
5
10D
100
AcDbEntity
8
SK1
62
256
6
ByLayer
370
18
48
1
60
0
100
AcDbSpline
70
4
71
3
72
22
73
18
40
0
40
0
40
0
40
0
40
0.0625000000000031
40
0.0625000000000031
40
0.125000000000006
40
0.125000000000006
40
0.250000000000006
40
0.250000000000006
40
0.375000000000005
40
0.375000000000005
40
0.500000000000005
40
0.500000000000005
40
0.625000000000004
40
0.625000000000004
40
0.750000000000004
40
0.750000000000004
40
1
40
1
40
1
40
1
41
1
10
-35.65
20
1.26428422550154
30
0
41
1
10
-35.65
20
1.2680283933766
30
0
41
1
10
-35.6502718586019
20
1.27165668980317
30
0
41
1
10
-35.6512913504498
20
1.27852339875955
30
0
41
1
10
-35.652030658643
20
1.28174113565385
30
0
41
1
10
-35.6548298230237
20
1.29084755944186
30
0
41
1
10
-35.6575061245997
20
1.29623887228718
30
0
41
1
10
-35.6638376796887
20
1.30547456340824
30
0
41
1
10
-35.6674983282837
20
1.30937451494631
30
0
41
1
10
-35.6756151818521
20
1.31602889921763
30
0
41
1
10
-35.6800682064548
20
1.31875973535338
30
0
41
1
10
-35.6893906957631
20
1.32308455778099
30
0
41
1
10
-35.6942952881823
20
1.32470589047867
30
0
41
1
10
-35.7045485857552
20
1.32697902674167
30
0
41
1
10
-35.7099306774388
20
1.32762988440021
30
0
41
1
10
-35.7265024515808
20
1.32813345585802
30
0
41
1
10
-35.7380004903212
20
1.32660771844934
30
0
41
1
10
-35.7500000000001
20
1.32312134388695
30
0
0
SPLINE
5
10E
100
AcDbEntity
8
SK1
62
256
6
ByLayer
370
18
48
1
60
0
100
AcDbSpline
70
4
71
3
72
22
73
18
40
0
40
0
40
0
40
0
40
0.25
40
0.25
40
0.374999999999999
40
0.374999999999999
40
0.499999999999999
40
0.499999999999999
40
0.624999999999999
40
0.624999999999999
40
0.749999999999999
40
0.749999999999999
40
0.874999999999999
40
0.874999999999999
40
0.937499999999999
40
0.937499999999999
40
1
40
1
40
1
40
1
41
1
10
-35.75
20
-0.119099503616639
30
0
41
1
10
-35.7379956523281
20
-0.115611723408819
30
0
41
1
10
-35.7264866986603
20
-0.110062970056589
30
0
41
1
10
-35.7098921057742
20
-0.098813831195514
30
0
41
1
10
-35.7045257065493
20
-0.09459243040817
30
0
41
1
10
-35.6942964893128
20
-0.0853256344471731
30
0
41
1
10
-35.6894060316865
20
-0.0802630592653486
30
0
41
1
10
-35.6801144608566
20
-0.0691871419864469
30
0
41
1
10
-35.6756964104891
20
-0.0631521919652016
30
0
41
1
10
-35.6675285377629
20
-0.0500029827955188
30
0
41
1
10
-35.6638529491706
20
-0.0430179710348284
30
0
41
1
10
-35.6575076548177
20
-0.0280314591729791
30
0
41
1
10
-35.6548318331324
20
-0.0199638127524793
30
0
41
1
10
-35.6520304488211
20
-0.0074470749902673
30
0
41
1
10
-35.65129058319
20
-0.0031867424631287
30
0
41
1
10
-35.650270741394
20
0.0055426030291414
30
0
41
1
10
-35.65
20
0.0099716320020775
30
0
41
1
10
-35.65
20
0.0143594909986007
30
0
0
SPLINE
5
10F
100
AcDbEntity
8
SK1
62
256
6
ByLayer
370
18
48
1
60
0
100
AcDbSpline
70
4
71
3
72
8
73
4
40
0
40
0
40
0
40
0
40
1
40
1
40
1
40
1
41
1
10
-36
20
-0.192258565342996
30
0
41
1
10
-35.9170280098612
20
-0.167780254477606
30
0
41
1
10
-35.8336533712881
20
-0.143404412193746
30
0
41
1
10
-35.7499999999999
20
-0.119099503616525
30
0
0
SPLINE
5
110
100
AcDbEntity
8
1
62
256
6
ByLayer
370
18
48
1
60
0
100
AcDbSpline
70
4
71
3
72
11
73
7
40
0
40
0
40
0
40
0
40
0.0993954671561559
40
0.34293018736927
40
0.655108124143972
40
1
40
1
40
1
40
1
41
1
10
66.6967733631063
20
0.558060355749916
30
0
41
1
10
66.6023012234633
20
0.589092938166488
30
0
41
1
10
66.2766718354139
20
0.697141683979453
30
0
41
1
10
65.6570076664274
20
0.911099320681956
30
0
41
1
10
64.8087416126439
20
1.21625416925463
30
0
41
1
10
64.1937639441608
20
1.44996140613691
30
0
41
1
10
63.8719721546353
20
1.57554396558464
30
0
0
SPLINE
5
111
100
AcDbEntity
8
1
62
256
6
ByLayer
370
18
48
1
60
0
100
AcDbSpline
70
4
71
3
72
27
73
23
40
0
40
0
40
0
40
0
40
5.94921552062E-05
40
0.0001055478358321
40
0.0001489498266182
40
0.0002338669959115
40
0.0004704925710496
40
0.0014175511557947
40
0.0021781430163513
40
0.0035911053336487
40
0.0062888994797269
40
0.0116633994067175
40
0.0230372471599611
40
0.110085389751389
40
0.211817829495908
40
0.32308008874905
40
0.431533894694861
40
0.515242311196457
40
0.599934470893449
40
0.715569827280146
40
0.868672031128976
40
1
40
1
40
1
40
1
41
1
10
35.9103293993559
20
-0.0380366516704953
30
0
41
1
10
35.9103419168918
20
-0.0380390165902327
30
0
41
1
10
35.9103514575304
20
-0.0380395368141535
30
0
41
1
10
35.9103196744483
20
-0.0380272206029133
30
0
41
1
10
35.9102228924635
20
-0.0379957720631694
30
0
41
1
10
35.9098174902264
20
-0.0378730483886613
30
0
41
1
10
35.9080817854079
20
-0.0373589360317226
30
0
41
1
10
35.9049027644749
20
-0.0364460555147446
30
0
41
1
10
35.9001525587068
20
-0.0350646706344548
30
0
41
1
10
35.8926050642433
20
-0.0328753061905331
30
0
41
1
10
35.8779912317089
20
-0.0286275767377333
30
0
41
1
10
35.8479533350737
20
-0.0198839795513663
30
0
41
1
10
35.6876349736899
20
0.0269533802672299
30
0
41
1
10
35.3783708083635
20
0.118935976878021
30
0
41
1
10
34.9161207401839
20
0.260723549356129
30
0
41
1
10
34.4220461801169
20
0.417424830587862
30
0
41
1
10
33.957157887341
20
0.569780856648862
30
0
41
1
10
33.5341177789273
20
0.712289320156373
30
0
41
1
10
33.1011416357821
20
0.8615520630986
30
0
41
1
10
32.5638240996888
20
1.05193331770795
30
0
41
1
10
31.9576752144196
20
1.27359344170091
30
0
41
1
10
31.5290152410209
20
1.437495763615
30
0
41
1
10
31.3315261346581
20
1.51439354332965
30
0
0
SPLINE
5
112
100
AcDbEntity
8
1
62
256
6
ByLayer
370
18
48
1
60
0
100
AcDbSpline
70
4
71
3
72
30
73
26
40
0
40
0
40
0
40
0
40
3.3612188061E-05
40
0.0001087870618602
40
0.0001694789665109
40
0.0002205334614845
40
0.0002665729086252
40
0.000660520242995
40
0.0009784988799288
40
0.0015799603347745
40
0.0027615853669761
40
0.0052159882415542
40
0.0107014182404435
40
0.0240251565576531
40
0.0830007969385363
40
0.167273521152918
40
0.247682302363385
40
0.321610813036477
40
0.389128234954723
40
0.453619452132218
40
0.529478572625133
40
0.610481358467014
40
0.721302590975009
40
0.864150591482728
40
1
40
1
40
1
40
1
41
1
10
52.2669828558005
20
-0.0394282931003715
30
0
41
1
10
52.266990023878
20
-0.039429370780482
30
0
41
1
10
52.2669977325592
20
-0.0394282887989448
30
0
41
1
10
52.2669066911865
20
-0.0393965983643341
30
0
41
1
10
52.2667815335586
20
-0.0393543497663416
30
0
41
1
10
52.2666190905665
20
-0.0393022921689123
30
0
41
1
10
52.2659616275344
20
-0.0390978592094484
30
0
41
1
10
52.2646811943114
20
-0.0387140207249388
30
0
41
1
10
52.262720301273
20
-0.038115906130713
30
0
41
1
10
52.259470973105
20
-0.0371337189904182
30
0
41
1
10
52.2529521319871
20
-0.0351710994060568
30
0
41
1
10
52.238767059132
20
-0.0309355929865944
30
0
41
1
10
52.2054932885
20
-0.0210802944438626
30
0
41
1
10
52.0829242943989
20
0.0150136331266992
30
0
41
1
10
51.8349328141366
20
0.0884722645243983
30
0
41
1
10
51.4807777221792
20
0.196009471151598
30
0
41
1
10
51.1038341056915
20
0.313474637328937
30
0
41
1
10
50.7540548783722
20
0.425118300244577
30
0
41
1
10
50.4300163147326
20
0.530768995070417
30
0
41
1
10
50.1035434045767
20
0.63929654917311
30
0
41
1
10
49.7565750146576
20
0.756986099940775
30
0
41
1
10
49.3379454136994
20
0.902118149884757
30
0
41
1
10
48.8161528370758
20
1.0878879283994
30
0
41
1
10
48.2110361318793
20
1.31020357943638
30
0
41
1
10
47.7803215429717
20
1.47514349505496
30
0
41
1
10
47.5708628528629
20
1.55685153055188
30
0
0
SPLINE
5
113
100
AcDbEntity
8
1
62
256
6
ByLayer
370
18
48
1
60
0
100
AcDbSpline
70
4
71
3
72
27
73
23
40
0
40
0
40
0
40
0
40
3.24306897513E-05
40
7.72267011027E-05
40
0.0001553402979081
40
0.0002891799869952
40
0.0004116477059877
40
0.0011647401332906
40
0.0017948855131236
40
0.0030234753458724
40
0.0055472352600865
40
0.011107043460688
40
0.0243970285936193
40
0.0736678605744898
40
0.125200302420602
40
0.24798012893475
40
0.370543227181601
40
0.482616044244983
40
0.584524058078445
40
0.70820505198277
40
0.873687039215448
40
1
40
1
40
1
40
1
41
1
10
19.6426668718094
20
-0.0610939442608753
30
0
41
1
10
19.6426754992533
20
-0.061096374623844
30
0
41
1
10
19.6426894993761
20
-0.061100256501021
30
0
41
1
10
19.6426753575004
20
-0.0610957440102311
30
0
41
1
10
19.6424625885108
20
-0.0610331913842117
30
0
41
1
10
19.6421082735802
20
-0.0609290220142213
30
0
41
1
10
19.6406413117957
20
-0.0604981955438859
30
0
41
1
10
19.6382578815797
20
-0.0597983303170508
30
0
41
1
10
19.6343011349522
20
-0.0586384897583798
30
0
41
1
10
19.6275749733087
20
-0.0566695309562419
30
0
41
1
10
19.613303719862
20
-0.0524997248161583
30
0
41
1
10
19.5804130915015
20
-0.0429043584819055
30
0
41
1
10
19.4753715915883
20
-0.0122482388996445
30
0
41
1
10
19.2991956424197
20
0.0396182488749446
30
0
41
1
10
18.954602506198
20
0.142763599218085
30
0
41
1
10
18.4978123733329
20
0.283267973783325
30
0
41
1
10
17.9494501133397
20
0.458340773905292
30
0
41
1
10
17.4347916336742
20
0.628359741080175
30
0
41
1
10
16.9199927848743
20
0.803543432068466
30
0
41
1
10
16.3258253949951
20
1.01219636440374
30
0
41
1
10
15.696884957056
20
1.24050892317521
30
0
41
1
10
15.2578706851178
20
1.40804029404927
30
0
41
1
10
15.0682627215906
20
1.48173978792872
30
0
0
SPLINE
5
114
100
AcDbEntity
8
1
62
256
6
ByLayer
370
18
48
1
60
0
100
AcDbSpline
70
4
71
3
72
22
73
18
40
0
40
0
40
0
40
0
40
0.115059373767851
40
0.20062953538785
40
0.264958128808724
40
0.316003665649931
40
0.365268745229579
40
0.429268364411522
40
0.511698268961839
40
0.586904009714169
40
0.649145789596823
40
0.704350672263014
40
0.771055632096986
40
0.853269161091307
40
0.914100815424784
40
0.97915199973428
40
1
40
1
40
1
40
1
41
1
10
51.2263629864563
20
-2.42199370737015
30
0
41
1
10
51.4395598008525
20
-2.4221995380685
30
0
41
1
10
51.8113710774395
20
-2.42269032167542
30
0
41
1
10
52.3025784408388
20
-2.42417071529684
30
0
41
1
10
52.6751276457177
20
-2.42476330302884
30
0
41
1
10
52.98067939395
20
-2.42509424452709
30
0
41
1
10
53.285546669882
20
-2.42553381080992
30
0
41
1
10
53.6486677319759
20
-2.4263944825851
30
0
41
1
10
54.0599175388105
20
-2.42722739969059
30
0
41
1
10
54.4679056383554
20
-2.42735560178537
30
0
41
1
10
54.8253789880633
20
-2.42798159871759
30
0
41
1
10
55.1670720467461
20
-2.42908056643049
30
0
41
1
10
55.5458296899791
20
-2.42998022830386
30
0
41
1
10
55.9350268571483
20
-2.42977487458714
30
0
41
1
10
56.3211584421955
20
-2.42998588101077
30
0
41
1
10
56.5934106989027
20
-2.4305816537557
30
0
41
1
10
56.7528109957566
20
-2.43105316578206
30
0
41
1
10
56.7914977373427
20
-2.43117184147442
30
0
0
SPLINE
5
115
100
AcDbEntity
8
1
62
256
6
ByLayer
370
18
48
1
60
0
100
AcDbSpline
70
4
71
3
72
21
73
17
40
0
40
0
40
0
40
0
40
0.108011738428771
40
0.177871286958424
40
0.226416784235097
40
0.322071764492179
40
0.393216693389146
40
0.481093069703028
40
0.570180345707068
40
0.636668676524105
40
0.700129896272679
40
0.777020156119626
40
0.860476802565323
40
0.924208063762798
40
0.973180323304753
40
1
40
1
40
1
40
1
41
1
10
58.3842037272158
20
2.43328622212746
30
0
41
1
10
58.1837091002383
20
2.43334129774112
30
0
41
1
10
57.8535476796523
20
2.43322831769683
30
0
41
1
10
57.4331265454812
20
2.43310754601941
30
0
41
1
10
57.0359313026865
20
2.43200358757679
30
0
41
1
10
56.6360639250441
20
2.43059438397083
30
0
41
1
10
56.1632775175578
20
2.42974800254845
30
0
41
1
10
55.7026601223241
20
2.42998568843851
30
0
41
1
10
55.2506903743458
20
2.42941212802464
30
0
41
1
10
54.8440559519223
20
2.42800191098553
30
0
41
1
10
54.4600573370743
20
2.42734943760769
30
0
41
1
10
54.0445589826393
20
2.42721997083081
30
0
41
1
10
53.6285597454827
20
2.42633825824578
30
0
41
1
10
53.2643841527741
20
2.42549442129052
30
0
41
1
10
53.0053748762838
20
2.42513424449882
30
0
41
1
10
52.8646446291617
20
2.42497114667972
30
0
41
1
10
52.8148517186665
20
2.42491178952909
30
0
0
SPLINE
5
116
100
AcDbEntity
8
1
62
256
6
ByLayer
370
18
48
1
60
0
100
AcDbSpline
70
4
71
2
72
6
73
3
40
0
40
0
40
0
40
1
40
1
40
1
41
1
10
43.0360822638095
20
0.0074794641720075
30
0
41
1
10
43.0360750172374
20
0.0075822618516383
30
0
41
1
10
43.0360677706738
20
0.0076851830632734
30
0
0
LINE
5
82
100
AcDbEntity
8
4
62
256
6
ByLayer
370
18
48
0.05
60
0
100
AcDbLine
10
0
20
0
30
0
11
68
21
0
31
0
39
0
210
0
220
0
230
1
0
LINE
5
84
100
AcDbEntity
8
81
62
256
6
ByLayer
370
18
48
1
60
0
100
AcDbLine
10
68
20
0
30
0
11
71
21
0
31
0
39
0
210
0
220
0
230
1
0
LINE
5
85
100
AcDbEntity
8
80
62
256
6
ByLayer
370
18
48
1
60
0
100
AcDbLine
10
0
20
0
30
0
11
-3
21
0
31
0
39
0
210
0
220
0
230
1
0
LINE
5
86
100
AcDbEntity
8
SK4
62
256
6
ByLayer
370
18
48
0.05
60
0
100
AcDbLine
10
-39
20
0
30
0
11
71
21
0
31
0
39
0
210
0
220
0
230
1
0
LINE
5
88
100
AcDbEntity
8
1
62
256
6
ByLayer
370
18
48
1
60
0
100
AcDbLine
10
0
20
3
30
0
11
0
21
-3
31
0
39
0
210
0
220
0
230
1
0
LINE
5
89
100
AcDbEntity
8
1
62
256
6
ByLayer
370
13
48
1
60
0
100
AcDbLine
10
67.937468
20
0.291063
30
0
11
67.344243
21
0.827721
31
0
39
0
210
0
220
0
230
1
0
LINE
5
8A
100
AcDbEntity
8
1
62
256
6
ByLayer
370
18
48
1
60
0
100
AcDbLine
10
42.205521
20
0.458123
30
0
11
42.205158
21
0.467643
31
0
39
0
210
0
220
0
230
1
0
LINE
5
8B
100
AcDbEntity
8
1
62
256
6
ByLayer
370
13
48
1
60
0
100
AcDbLine
10
0.598833
20
-2.730471
30
0
11
0.598833
21
2.730471
31
0
39
0
210
0
220
0
230
1
0
LINE
5
8C
100
AcDbEntity
8
1
62
256
6
ByLayer
370
18
48
1
60
0
100
AcDbLine
10
42.205158
20
0.471975
30
0
11
42.205158
21
2.522924
31
0
39
0
210
0
220
0
230
1
0
LINE
5
8D
100
AcDbEntity
8
1
62
256
6
ByLayer
370
18
48
1
60
0
100
AcDbLine
10
42.205158
20
0.129923
30
0
11
42.205158
21
0.093005
31
0
39
0
210
0
220
0
230
1
0
LINE
5
8E
100
AcDbEntity
8
1
62
256
6
ByLayer
370
13
48
1
60
0
100
AcDbLine
10
1.199106
20
-2.460943
30
0
11
1.199106
21
2.460943
31
0
39
0
210
0
220
0
230
1
0
LINE
5
8F
100
AcDbEntity
8
SK1
62
256
6
ByLayer
370
18
48
1
60
0
100
AcDbLine
10
-36
20
1.249962
30
0
11
-36
21
0.192259
31
0
39
0
210
0
220
0
230
1
0
LINE
5
91
100
AcDbEntity
8
SK1
62
256
6
ByLayer
370
13
48
1
60
0
100
AcDbLine
10
-35.75
20
0.1191
30
0
11
-35.75
21
1.323121
31
0
39
0
210
0
220
0
230
1
0
LINE
5
92
100
AcDbEntity
8
SK1
62
256
6
ByLayer
370
18
48
1
60
0
100
AcDbLine
10
-36
20
1.249962
30
0
11
-36
21
2.065
31
0
39
0
210
0
220
0
230
1
0
LINE
5
93
100
AcDbEntity
8
SK1
62
256
6
ByLayer
370
18
48
1
60
0
100
AcDbLine
10
-35.65
20
0.014359
30
0
11
-35.65
21
1.264284
31
0
39
0
210
0
220
0
230
1
0
LINE
5
94
100
AcDbEntity
8
SK1
62
256
6
ByLayer
370
18
48
1
60
0
100
AcDbLine
10
-36
20
-2.065
30
0
11
-36
21
-0.192259
31
0
39
0
210
0
220
0
230
1
0
LINE
5
95
100
AcDbEntity
8
SK1
62
256
6
ByLayer
370
18
48
1
60
0
100
AcDbLine
10
0
20
3
30
0
11
0
21
-3
31
0
39
0
210
0
220
0
230
1
0
LINE
5
96
100
AcDbEntity
8
SK1
62
256
6
ByLayer
370
18
48
1
60
0
100
AcDbLine
10
-35.065
20
-3
30
0
11
-35.065
21
3
31
0
39
0
210
0
220
0
230
1
0
LINE
5
97
100
AcDbEntity
8
1
62
256
6
ByLayer
370
18
48
1
60
0
100
AcDbLine
10
1.199106
20
-2.460943
30
0
11
10.223072
21
-2.477186
31
0
39
0
210
0
220
0
230
1
0
LINE
5
98
100
AcDbEntity
8
1
62
256
6
ByLayer
370
18
48
1
60
0
100
AcDbLine
10
17.899747
20
-2.491004
30
0
11
26.527714
21
-2.506534
31
0
39
0
210
0
220
0
230
1
0
LINE
5
99
100
AcDbEntity
8
1
62
256
6
ByLayer
370
18
48
1
60
0
100
AcDbLine
10
34.230408
20
-2.520399
30
0
11
42.832806
21
-2.535884
31
0
39
0
210
0
220
0
230
1
0
LINE
5
9A
100
AcDbEntity
8
1
62
256
6
ByLayer
370
18
48
1
60
0
100
AcDbLine
10
50.655068
20
-2.549964
30
0
11
51.227028
21
-2.550993
31
0
39
0
210
0
220
0
230
1
0
LINE
5
9B
100
AcDbEntity
8
1
62
256
6
ByLayer
370
18
48
1
60
0
100
AcDbLine
10
58.384632
20
-2.563877
30
0
11
59.136838
21
-2.565231
31
0
39
0
210
0
220
0
230
1
0
LINE
5
9C
100
AcDbEntity
8
1
62
256
6
ByLayer
370
18
48
1
60
0
100
AcDbLine
10
59.136838
20
2.565231
30
0
11
58.384632
21
2.563877
31
0
39
0
210
0
220
0
230
1
0
LINE
5
9D
100
AcDbEntity
8
1
62
256
6
ByLayer
370
18
48
1
60
0
100
AcDbLine
10
51.227028
20
2.550993
30
0
11
50.655068
21
2.549964
31
0
39
0
210
0
220
0
230
1
0
LINE
5
9E
100
AcDbEntity
8
1
62
256
6
ByLayer
370
18
48
1
60
0
100
AcDbLine
10
42.832806
20
2.535884
30
0
11
34.230408
21
2.520399
31
0
39
0
210
0
220
0
230
1
0
LINE
5
9F
100
AcDbEntity
8
1
62
256
6
ByLayer
370
18
48
1
60
0
100
AcDbLine
10
26.527714
20
2.506534
30
0
11
17.899747
21
2.491004
31
0
39
0
210
0
220
0
230
1
0
LINE
5
A0
100
AcDbEntity
8
1
62
256
6
ByLayer
370
18
48
1
60
0
100
AcDbLine
10
10.223072
20
2.477186
30
0
11
1.199106
21
2.460943
31
0
39
0
210
0
220
0
230
1
0
LINE
5
A1
100
AcDbEntity
8
SK1
62
256
6
ByLayer
370
18
48
1
60
0
100
AcDbLine
10
-36
20
-2.065
30
0
11
-35.065
21
-3
31
0
39
0
210
0
220
0
230
1
0
LINE
5
A2
100
AcDbEntity
8
SK1
62
256
6
ByLayer
370
18
48
1
60
0
100
AcDbLine
10
-35.065
20
3
30
0
11
-36
21
2.065
31
0
39
0
210
0
220
0
230
1
0
LINE
5
A3
100
AcDbEntity
8
SK1
62
256
6
ByLayer
370
18
48
1
60
0
100
AcDbLine
10
-35.065
20
-3
30
0
11
0
21
-3
31
0
39
0
210
0
220
0
230
1
0
LINE
5
A4
100
AcDbEntity
8
SK1
62
256
6
ByLayer
370
18
48
1
60
0
100
AcDbLine
10
0
20
3
30
0
11
-35.065
21
3
31
0
39
0
210
0
220
0
230
1
0
LINE
5
A5
100
AcDbEntity
8
2
62
256
6
ByLayer
370
13
48
1
60
0
100
AcDbLine
10
75.5
20
30.612355
30
0
11
75.5
21
-10.0795
31
0
39
0
210
0
220
0
230
1
0
LINE
5
A7
100
AcDbEntity
8
2
62
256
6
ByLayer
370
13
48
1
60
0
100
AcDbLine
10
69.5875
20
2.5795
30
0
11
77.5
21
2.5795
31
0
39
0
210
0
220
0
230
1
0
LINE
5
A8
100
AcDbEntity
8
2
62
256
6
ByLayer
370
13
48
1
60
0
100
AcDbLine
10
69.5875
20
-2.5795
30
0
11
77.5
21
-2.5795
31
0
39
0
210
0
220
0
230
1
0
LINE
5
A9
100
AcDbEntity
8
1
62
256
6
ByLayer
370
18
48
1
60
1
100
AcDbLine
10
75.5
20
2.5795
30
0
11
75.039216
21
6.079498
31
0
39
0
210
0
220
0
230
1
0
LINE
5
AA
100
AcDbEntity
8
1
62
256
6
ByLayer
370
18
48
1
60
1
100
AcDbLine
10
75.039216
20
6.079498
30
0
11
75.960784
21
6.079502
31
0
39
0
210
0
220
0
230
1
0
LINE
5
AB
100
AcDbEntity
8
1
62
256
6
ByLayer
370
18
48
1
60
1
100
AcDbLine
10
75.960784
20
6.079502
30
0
11
75.5
21
2.5795
31
0
39
0
210
0
220
0
230
1
0
LINE
5
AC
100
AcDbEntity
8
1
62
256
6
ByLayer
370
18
48
1
60
1
100
AcDbLine
10
75.5
20
-2.5795
30
0
11
75.960784
21
-6.079498
31
0
39
0
210
0
220
0
230
1
0
LINE
5
AD
100
AcDbEntity
8
1
62
256
6
ByLayer
370
18
48
1
60
1
100
AcDbLine
10
75.960784
20
-6.079498
30
0
11
75.039216
21
-6.079502
31
0
39
0
210
0
220
0
230
1
0
LINE
5
AE
100
AcDbEntity
8
1
62
256
6
ByLayer
370
18
48
1
60
1
100
AcDbLine
10
75.039216
20
-6.079502
30
0
11
75.5
21
-2.5795
31
0
39
0
210
0
220
0
230
1
0
LINE
5
AF
100
AcDbEntity
8
SK2
62
256
6
ByLayer
370
13
48
1
60
0
100
AcDbLine
10
-44.5
20
13.841828
30
0
11
-44.5
21
-10.5
31
0
39
0
210
0
220
0
230
1
0
LINE
5
B1
100
AcDbEntity
8
SK2
62
256
6
ByLayer
370
13
48
1
60
0
100
AcDbLine
10
-37.5875
20
3
30
0
11
-46.5
21
3
31
0
39
0
210
0
220
0
230
1
0
LINE
5
B2
100
AcDbEntity
8
SK2
62
256
6
ByLayer
370
13
48
1
60
0
100
AcDbLine
10
-37.5875
20
-3
30
0
11
-46.5
21
-3
31
0
39
0
210
0
220
0
230
1
0
LINE
5
B3
100
AcDbEntity
8
1
62
256
6
ByLayer
370
18
48
1
60
1
100
AcDbLine
10
-44.5
20
3
30
0
11
-44.960784
21
6.499998
31
0
39
0
210
0
220
0
230
1
0
LINE
5
B4
100
AcDbEntity
8
1
62
256
6
ByLayer
370
18
48
1
60
1
100
AcDbLine
10
-44.960784
20
6.499998
30
0
11
-44.039216
21
6.500002
31
0
39
0
210
0
220
0
230
1
0
LINE
5
B5
100
AcDbEntity
8
1
62
256
6
ByLayer
370
18
48
1
60
1
100
AcDbLine
10
-44.039216
20
6.500002
30
0
11
-44.5
21
3
31
0
39
0
210
0
220
0
230
1
0
LINE
5
B6
100
AcDbEntity
8
1
62
256
6
ByLayer
370
18
48
1
60
1
100
AcDbLine
10
-44.5
20
-3
30
0
11
-44.039216
21
-6.499998
31
0
39
0
210
0
220
0
230
1
0
LINE
5
B7
100
AcDbEntity
8
1
62
256
6
ByLayer
370
18
48
1
60
1
100
AcDbLine
10
-44.039216
20
-6.499998
30
0
11
-44.960784
21
-6.500002
31
0
39
0
210
0
220
0
230
1
0
LINE
5
B8
100
AcDbEntity
8
1
62
256
6
ByLayer
370
18
48
1
60
1
100
AcDbLine
10
-44.960784
20
-6.500002
30
0
11
-44.5
21
-3
31
0
39
0
210
0
220
0
230
1
0
LINE
5
B9
100
AcDbEntity
8
SK2
62
256
6
ByLayer
370
13
48
1
60
0
100
AcDbLine
10
68.543028
20
1.491736
30
0
11
74.855449
21
18.832408
31
0
39
0
210
0
220
0
230
1
0
LINE
5
BA
100
AcDbEntity
8
SK2
62
256
6
ByLayer
370
13
48
1
60
0
100
AcDbLine
10
68.543028
20
-1.491736
30
0
11
74.855449
21
-18.832408
31
0
39
0
210
0
220
0
230
1
0
LINE
5
BB
100
AcDbEntity
8
1
62
256
6
ByLayer
370
18
48
1
60
1
100
AcDbLine
10
74.17132
20
16.953055
30
0
11
77.576841
21
16.023143
31
0
39
0
210
0
220
0
230
1
0
LINE
5
BC
100
AcDbEntity
8
1
62
256
6
ByLayer
370
18
48
1
60
1
100
AcDbLine
10
77.576841
20
16.023143
30
0
11
77.220124
21
15.173413
31
0
39
0
210
0
220
0
230
1
0
LINE
5
BD
100
AcDbEntity
8
1
62
256
6
ByLayer
370
18
48
1
60
1
100
AcDbLine
10
77.220124
20
15.173413
30
0
11
74.17132
21
16.953055
31
0
39
0
210
0
220
0
230
1
0
LINE
5
BE
100
AcDbEntity
8
1
62
256
6
ByLayer
370
18
48
1
60
1
100
AcDbLine
10
74.17132
20
-16.953055
30
0
11
77.220121
21
-15.173415
31
0
39
0
210
0
220
0
230
1
0
LINE
5
BF
100
AcDbEntity
8
1
62
256
6
ByLayer
370
18
48
1
60
1
100
AcDbLine
10
77.220121
20
-15.173415
30
0
11
77.576844
21
-16.023142
31
0
39
0
210
0
220
0
230
1
0
LINE
5
C0
100
AcDbEntity
8
1
62
256
6
ByLayer
370
18
48
1
60
1
100
AcDbLine
10
77.576844
20
-16.023142
30
0
11
74.17132
21
-16.953055
31
0
39
0
210
0
220
0
230
1
0
LINE
5
117
100
AcDbEntity
8
1
62
256
6
ByLayer
370
13
48
0.05
60
0
100
AcDbLine
10
-42.5
20
0
30
0
11
73.563483
21
0
31
0
39
0
210
0
220
0
230
1
0
LINE
5
11C
100
AcDbEntity
8
1
62
256
6
ByLayer
370
18
48
1
60
1
100
AcDbLine
10
75.5
20
2.5795
30
0
11
75.039216
21
6.079498
31
0
39
0
210
0
220
0
230
1
0
LINE
5
11D
100
AcDbEntity
8
1
62
256
6
ByLayer
370
18
48
1
60
1
100
AcDbLine
10
75.039216
20
6.079498
30
0
11
75.960784
21
6.079502
31
0
39
0
210
0
220
0
230
1
0
LINE
5
11E
100
AcDbEntity
8
1
62
256
6
ByLayer
370
18
48
1
60
1
100
AcDbLine
10
75.960784
20
6.079502
30
0
11
75.5
21
2.5795
31
0
39
0
210
0
220
0
230
1
0
LINE
5
120
100
AcDbEntity
8
1
62
256
6
ByLayer
370
18
48
1
60
1
100
AcDbLine
10
75.5
20
-2.5795
30
0
11
75.960784
21
-6.079498
31
0
39
0
210
0
220
0
230
1
0
LINE
5
121
100
AcDbEntity
8
1
62
256
6
ByLayer
370
18
48
1
60
1
100
AcDbLine
10
75.960784
20
-6.079498
30
0
11
75.039216
21
-6.079502
31
0
39
0
210
0
220
0
230
1
0
LINE
5
122
100
AcDbEntity
8
1
62
256
6
ByLayer
370
18
48
1
60
1
100
AcDbLine
10
75.039216
20
-6.079502
30
0
11
75.5
21
-2.5795
31
0
39
0
210
0
220
0
230
1
0
LINE
5
126
100
AcDbEntity
8
1
62
256
6
ByLayer
370
18
48
1
60
1
100
AcDbLine
10
-44.5
20
3
30
0
11
-44.960784
21
6.499998
31
0
39
0
210
0
220
0
230
1
0
LINE
5
127
100
AcDbEntity
8
1
62
256
6
ByLayer
370
18
48
1
60
1
100
AcDbLine
10
-44.960784
20
6.499998
30
0
11
-44.039216
21
6.500002
31
0
39
0
210
0
220
0
230
1
0
LINE
5
128
100
AcDbEntity
8
1
62
256
6
ByLayer
370
18
48
1
60
1
100
AcDbLine
10
-44.039216
20
6.500002
30
0
11
-44.5
21
3
31
0
39
0
210
0
220
0
230
1
0
LINE
5
12A
100
AcDbEntity
8
1
62
256
6
ByLayer
370
18
48
1
60
1
100
AcDbLine
10
-44.5
20
-3
30
0
11
-44.039216
21
-6.499998
31
0
39
0
210
0
220
0
230
1
0
LINE
5
12B
100
AcDbEntity
8
1
62
256
6
ByLayer
370
18
48
1
60
1
100
AcDbLine
10
-44.039216
20
-6.499998
30
0
11
-44.960784
21
-6.500002
31
0
39
0
210
0
220
0
230
1
0
LINE
5
12C
100
AcDbEntity
8
1
62
256
6
ByLayer
370
18
48
1
60
1
100
AcDbLine
10
-44.960784
20
-6.500002
30
0
11
-44.5
21
-3
31
0
39
0
210
0
220
0
230
1
0
LINE
5
12F
100
AcDbEntity
8
1
62
256
6
ByLayer
370
18
48
1
60
1
100
AcDbLine
10
74.17132
20
16.953055
30
0
11
77.576841
21
16.023143
31
0
39
0
210
0
220
0
230
1
0
LINE
5
130
100
AcDbEntity
8
1
62
256
6
ByLayer
370
18
48
1
60
1
100
AcDbLine
10
77.576841
20
16.023143
30
0
11
77.220124
21
15.173413
31
0
39
0
210
0
220
0
230
1
0
LINE
5
131
100
AcDbEntity
8
1
62
256
6
ByLayer
370
18
48
1
60
1
100
AcDbLine
10
77.220124
20
15.173413
30
0
11
74.17132
21
16.953055
31
0
39
0
210
0
220
0
230
1
0
LINE
5
133
100
AcDbEntity
8
1
62
256
6
ByLayer
370
18
48
1
60
1
100
AcDbLine
10
74.17132
20
-16.953055
30
0
11
77.220121
21
-15.173415
31
0
39
0
210
0
220
0
230
1
0
LINE
5
134
100
AcDbEntity
8
1
62
256
6
ByLayer
370
18
48
1
60
1
100
AcDbLine
10
77.220121
20
-15.173415
30
0
11
77.576844
21
-16.023142
31
0
39
0
210
0
220
0
230
1
0
LINE
5
135
100
AcDbEntity
8
1
62
256
6
ByLayer
370
18
48
1
60
1
100
AcDbLine
10
77.576844
20
-16.023142
30
0
11
74.17132
21
-16.953055
31
0
39
0
210
0
220
0
230
1
0
MTEXT
5
118
100
AcDbEntity
8
2
62
256
6
ByLayer
370
18
48
1
60
0
100
AcDbMText
10
74.158886
20
16.237937
30
0
210
0
220
0
230
1
1
%%c
40
3
41
0
44
1.084337
50
90
71
7
72
5
7
iso_b_vert
0
MTEXT
5
11B
100
AcDbEntity
8
2
62
256
6
ByLayer
370
18
48
1
60
0
100
AcDbMText
10
74.158886
20
22.2145
30
0
210
0
220
0
230
1
1
\W0.6944;5.159
40
3
41
0
44
1.084337
50
90
71
7
72
5
7
iso_b_vert
0
MTEXT
5
124
100
AcDbEntity
8
SK2
62
256
6
ByLayer
370
18
48
1
60
0
100
AcDbMText
10
-45.841114
20
6.658437
30
0
210
0
220
0
230
1
1
%%c
40
3
41
0
44
1.084337
50
90
71
7
72
5
7
iso_b_vert
0
MTEXT
5
125
100
AcDbEntity
8
SK2
62
256
6
ByLayer
370
18
48
1
60
0
100
AcDbMText
10
-45.841114
20
12.635
30
0
210
0
220
0
230
1
1
\W0.5404;6
40
3
41
0
44
1.084337
50
90
71
7
72
5
7
iso_b_vert
0
MTEXT
5
12E
100
AcDbEntity
8
SK2
62
256
6
ByLayer
370
18
48
1
60
0
100
AcDbMText
10
82.60072
20
-2.114886
30
0
210
0
220
0
230
1
1
\W0.7071;140%%d
40
3
41
0
44
1.084337
50
0
71
7
72
5
7
iso_b_vert
0
MTEXT
5
137
100
AcDbEntity
8
SK6
62
256
6
ByLayer
370
18
48
1
60
0
100
AcDbMText
10
-9.053079
20
-77.114886
30
0
210
0
220
0
230
1
1
\W0.7455;860.1-0516-042A1-SD S2BM
40
3
41
0
44
1.084337
50
0
71
7
72
5
7
iso_b_vert
0
HATCH
5
11F
100
AcDbEntity
8
2
62
256
6
ByLayer
370
13
48
1
60
0
100
AcDbHatch
10
0
20
0
30
0
210
0
220
0
230
1
2
ANSI31
70
0
71
0
91
1
92
5
93
3
72
1
10
75.5
20
2.5795
11
75.0392162584472
21
6.07949830744681
72
1
10
75.0392162584472
20
6.07949830744681
11
75.9607837415528
21
6.07950169255318
72
1
10
75.9607837415528
20
6.07950169255318
11
75.5
21
2.5795
97
0
75
0
76
1
52
0
41
0.0062
77
0
78
1
53
45
43
0
44
0
45
-0.0139193969876572
46
0.0139193969876572
79
0
47
0
98
1
10
0
20
0
0
HATCH
5
123
100
AcDbEntity
8
2
62
256
6
ByLayer
370
13
48
1
60
0
100
AcDbHatch
10
0
20
0
30
0
210
0
220
0
230
1
2
ANSI31
70
0
71
0
91
1
92
5
93
3
72
1
10
75.5
20
-2.5795
11
75.9607837415528
21
-6.07949830744681
72
1
10
75.9607837415528
20
-6.07949830744681
11
75.0392162584472
21
-6.07950169255318
72
1
10
75.0392162584472
20
-6.07950169255318
11
75.5
21
-2.5795
97
0
75
0
76
1
52
0
41
0.0062
77
0
78
1
53
45
43
0
44
0
45
-0.0139193969876572
46
0.0139193969876572
79
0
47
0
98
1
10
0
20
0
0
HATCH
5
129
100
AcDbEntity
8
SK2
62
256
6
ByLayer
370
13
48
1
60
0
100
AcDbHatch
10
0
20
0
30
0
210
0
220
0
230
1
2
ANSI31
70
0
71
0
91
1
92
5
93
3
72
1
10
-44.5
20
3
11
-44.9607837415528
21
6.49999830744682
72
1
10
-44.9607837415528
20
6.49999830744682
11
-44.0392162584472
21
6.50000169255318
72
1
10
-44.0392162584472
20
6.50000169255318
11
-44.5
21
3
97
0
75
0
76
1
52
0
41
0.0062
77
0
78
1
53
45
43
0
44
0
45
-0.0139193969876572
46
0.0139193969876572
79
0
47
0
98
1
10
0
20
0
0
HATCH
5
12D
100
AcDbEntity
8
SK2
62
256
6
ByLayer
370
13
48
1
60
0
100
AcDbHatch
10
0
20
0
30
0
210
0
220
0
230
1
2
ANSI31
70
0
71
0
91
1
92
5
93
3
72
1
10
-44.5
20
-3
11
-44.0392162584472
21
-6.49999830744682
72
1
10
-44.0392162584472
20
-6.49999830744682
11
-44.9607837415528
21
-6.50000169255318
72
1
10
-44.9607837415528
20
-6.50000169255318
11
-44.5
21
-3
97
0
75
0
76
1
52
0
41
0.0062
77
0
78
1
53
45
43
0
44
0
45
-0.0139193969876572
46
0.0139193969876572
79
0
47
0
98
1
10
0
20
0
0
HATCH
5
132
100
AcDbEntity
8
SK2
62
256
6
ByLayer
370
13
48
1
60
0
100
AcDbHatch
10
0
20
0
30
0
210
0
220
0
230
1
2
ANSI31
70
0
71
0
91
1
92
5
93
3
72
1
10
74.171319612979
20
16.9530553159542
11
77.5768405138815
21
16.023142845812
72
1
10
77.5768405138815
20
16.023142845812
11
77.2201240440629
21
15.1734134853159
72
1
10
77.2201240440629
20
15.1734134853159
11
74.171319612979
21
16.9530553159542
97
0
75
0
76
1
52
0
41
0.0062
77
0
78
1
53
45
43
0
44
0
45
-0.0139193969876572
46
0.0139193969876572
79
0
47
0
98
1
10
0
20
0
0
HATCH
5
136
100
AcDbEntity
8
SK2
62
256
6
ByLayer
370
13
48
1
60
0
100
AcDbHatch
10
0
20
0
30
0
210
0
220
0
230
1
2
ANSI31
70
0
71
0
91
1
92
5
93
3
72
1
10
74.1713196129792
20
-16.9530553159541
11
77.2201209228377
21
-15.17341479562
72
1
10
77.2201209228377
20
-15.17341479562
11
77.5768436351071
21
-16.0231415355077
72
1
10
77.5768436351071
20
-16.0231415355077
11
74.1713196129792
21
-16.9530553159541
97
0
75
0
76
1
52
0
41
0.0062
77
0
78
1
53
45
43
0
44
0
45
-0.0139193969876572
46
0.0139193969876572
79
0
47
0
98
1
10
0
20
0
0
DIMENSION
5
13A
100
AcDbEntity
8
SK2
62
256
6
ByLayer
370
18
48
1
60
0
100
AcDbDimension
2
_U0
10
25.8
20
-18.182831
30
0
11
46.9
21
-18.182831
31
0
70
32
71
1
72
1
41
1
210
0
220
0
230
1
3
Standard
100
AcDbAlignedDimension
13
68
23
-2.5795
33
0
14
25.8
24
-2.5795
34
0
50
0
100
AcDbRotatedDimension
1001
ACAD
1000
DSTYLE
1002
{
1070
   371
1070
    13
1070
   372
1070
    13
1070
   170
1070
     0
1070
   144
1040
1.0
1070
   277
1070
     2
1070
   284
1070
     8
1070
   278
1070
    46
1070
   146
1040
1.166667
1070
   345
1005
16
1070
   347
1005
16
1070
   346
1005
16
1070
   344
1005
0
1070
   343
1005
0
1070
   172
1070
     1
1070
    76
1070
     0
1070
    75
1070
     0
1070
   282
1070
     0
1070
   281
1070
     0
1070
     3
1000

1070
    71
1070
     0
1070
    74
1070
     0
1070
   279
1070
     0
1070
   173
1070
     1
1070
   340
1005
119
1070
   271
1070
     2
1070
   272
1070
     2
1070
    77
1070
     1
1070
    73
1070
     1
1070
   171
1070
     3
1070
   274
1070
     4
1070
   177
1070
     2
1070
   176
1070
     2
1070
   178
1070
     2
1070
    78
1070
     8
1070
    48
1040
-0.1
1070
    41
1040
3.5
1070
   147
1040
1.5
1070
    42
1040
1.5875
1070
    44
1040
2.0
1070
   140
1040
3.0
1002
}
1001
ACAD_DSTYLE_DIM_LINETYPE
1070
   380
1005
16
1001
ACAD_DSTYLE_DIM_EXT1_LINETYPE
1070
   381
1005
16
1001
ACAD_DSTYLE_DIM_EXT2_LINETYPE
1070
   382
1005
16
0
DIMENSION
5
155
100
AcDbEntity
8
SK2
62
256
6
ByLayer
370
18
48
1
60
0
100
AcDbDimension
2
_U1
10
6
20
-28.182831
30
0
11
37
21
-28.182831
31
0
70
32
71
1
72
1
41
1
210
0
220
0
230
1
3
Standard
100
AcDbAlignedDimension
13
68
23
-2.5795
33
0
14
6
24
-2.5795
34
0
50
0
100
AcDbRotatedDimension
1001
ACAD
1000
DSTYLE
1002
{
1070
   371
1070
    13
1070
   372
1070
    13
1070
     3
1000

1070
   170
1070
     0
1070
   144
1040
1.0
1070
   277
1070
     2
1070
   284
1070
     8
1070
   278
1070
    46
1070
   146
1040
1.166667
1070
   345
1005
16
1070
   347
1005
16
1070
   346
1005
16
1070
   344
1005
0
1070
   343
1005
0
1070
   172
1070
     1
1070
    76
1070
     0
1070
    75
1070
     0
1070
   282
1070
     0
1070
   281
1070
     0
1070
    71
1070
     0
1070
    74
1070
     0
1070
   279
1070
     0
1070
   173
1070
     1
1070
   340
1005
119
1070
   271
1070
     2
1070
   272
1070
     2
1070
    77
1070
     1
1070
    73
1070
     1
1070
   171
1070
     3
1070
   274
1070
     4
1070
   177
1070
     2
1070
   176
1070
     2
1070
   178
1070
     2
1070
    78
1070
     8
1070
    48
1040
-0.1
1070
    41
1040
3.5
1070
   147
1040
1.5
1070
    42
1040
1.5875
1070
    44
1040
2.0
1070
   140
1040
3.0
1002
}
1001
ACAD_DSTYLE_DIM_LINETYPE
1070
   380
1005
16
1001
ACAD_DSTYLE_DIM_EXT1_LINETYPE
1070
   381
1005
16
1001
ACAD_DSTYLE_DIM_EXT2_LINETYPE
1070
   382
1005
16
0
DIMENSION
5
16D
100
AcDbEntity
8
SK2
62
256
6
ByLayer
370
18
48
1
60
0
100
AcDbDimension
2
_U2
10
0
20
-36.182831
30
0
11
-18
21
-36.182831
31
0
70
32
71
1
72
1
41
1
210
0
220
0
230
1
3
Standard
100
AcDbAlignedDimension
13
-36
23
-3
33
0
14
0
24
-3
34
0
50
0
100
AcDbRotatedDimension
1001
ACAD
1000
DSTYLE
1002
{
1070
   371
1070
    13
1070
   372
1070
    13
1070
     3
1000

1070
   170
1070
     0
1070
   144
1040
1.0
1070
   277
1070
     2
1070
   284
1070
     8
1070
   278
1070
    46
1070
   146
1040
1.166667
1070
   345
1005
16
1070
   347
1005
16
1070
   346
1005
16
1070
   344
1005
0
1070
   343
1005
0
1070
   172
1070
     1
1070
    76
1070
     0
1070
    75
1070
     0
1070
   282
1070
     0
1070
   281
1070
     0
1070
    71
1070
     0
1070
    74
1070
     0
1070
   279
1070
     0
1070
   173
1070
     1
1070
   340
1005
119
1070
   271
1070
     2
1070
   272
1070
     2
1070
    77
1070
     1
1070
    73
1070
     1
1070
   171
1070
     3
1070
   274
1070
     4
1070
   177
1070
     2
1070
   176
1070
     2
1070
   178
1070
     2
1070
    78
1070
     8
1070
    48
1040
-0.1
1070
    41
1040
3.5
1070
   147
1040
1.5
1070
    42
1040
1.5875
1070
    44
1040
2.0
1070
   140
1040
3.0
1002
}
1001
ACAD_DSTYLE_DIM_LINETYPE
1070
   380
1005
16
1001
ACAD_DSTYLE_DIM_EXT1_LINETYPE
1070
   381
1005
16
1001
ACAD_DSTYLE_DIM_EXT2_LINETYPE
1070
   382
1005
16
0
DIMENSION
5
185
100
AcDbEntity
8
SK2
62
256
6
ByLayer
370
18
48
1
60
0
100
AcDbDimension
2
_U3
10
68
20
-44.182831
30
0
11
16
21
-44.182831
31
0
70
32
71
1
72
1
41
1
210
0
220
0
230
1
3
Standard
100
AcDbAlignedDimension
13
-36
23
-3
33
0
14
68
24
-2.5795
34
0
50
0
100
AcDbRotatedDimension
1001
ACAD
1000
DSTYLE
1002
{
1070
   371
1070
    13
1070
   372
1070
    13
1070
     3
1000

1070
   170
1070
     0
1070
   144
1040
1.0
1070
   277
1070
     2
1070
   284
1070
     8
1070
   278
1070
    46
1070
   146
1040
1.166667
1070
   345
1005
16
1070
   347
1005
16
1070
   346
1005
16
1070
   344
1005
0
1070
   343
1005
0
1070
   172
1070
     1
1070
    76
1070
     0
1070
    75
1070
     0
1070
   282
1070
     0
1070
   281
1070
     0
1070
    71
1070
     0
1070
    74
1070
     0
1070
   279
1070
     0
1070
   173
1070
     1
1070
   340
1005
119
1070
   271
1070
     2
1070
   272
1070
     2
1070
    77
1070
     1
1070
    73
1070
     1
1070
   171
1070
     3
1070
   274
1070
     4
1070
   177
1070
     2
1070
   176
1070
     2
1070
   178
1070
     2
1070
    78
1070
     8
1070
    48
1040
-0.1
1070
    41
1040
3.5
1070
   147
1040
1.5
1070
    42
1040
1.5875
1070
    44
1040
2.0
1070
   140
1040
3.0
1002
}
1001
ACAD_DSTYLE_DIM_LINETYPE
1070
   380
1005
16
1001
ACAD_DSTYLE_DIM_EXT1_LINETYPE
1070
   381
1005
16
1001
ACAD_DSTYLE_DIM_EXT2_LINETYPE
1070
   382
1005
16
0
DIMENSION
5
19D
100
AcDbEntity
8
2
62
256
6
ByLayer
370
18
48
1
60
0
100
AcDbDimension
2
_U4
10
0
20
-36.182831
30
0
11
34
21
-36.182831
31
0
70
32
71
1
72
1
41
1
210
0
220
0
230
1
3
Standard
100
AcDbAlignedDimension
13
68
23
-2.5795
33
0
14
0
24
-2.5795
34
0
50
0
100
AcDbRotatedDimension
1001
ACAD
1000
DSTYLE
1002
{
1070
   371
1070
    13
1070
   372
1070
    13
1070
     3
1000

1070
   170
1070
     0
1070
   144
1040
1.0
1070
   277
1070
     2
1070
   284
1070
     8
1070
   278
1070
    46
1070
   146
1040
1.166667
1070
   345
1005
16
1070
   347
1005
16
1070
   346
1005
16
1070
   344
1005
0
1070
   343
1005
0
1070
   172
1070
     1
1070
    76
1070
     0
1070
    75
1070
     0
1070
   282
1070
     0
1070
   281
1070
     0
1070
    71
1070
     0
1070
    74
1070
     0
1070
   279
1070
     0
1070
   173
1070
     1
1070
   340
1005
119
1070
   271
1070
     2
1070
   272
1070
     2
1070
    77
1070
     1
1070
    73
1070
     1
1070
   171
1070
     3
1070
   274
1070
     4
1070
   177
1070
     2
1070
   176
1070
     2
1070
   178
1070
     2
1070
    78
1070
     8
1070
    48
1040
-0.1
1070
    41
1040
3.5
1070
   147
1040
1.5
1070
    42
1040
1.5875
1070
    44
1040
2.0
1070
   140
1040
3.0
1002
}
1001
ACAD_DSTYLE_DIM_LINETYPE
1070
   380
1005
16
1001
ACAD_DSTYLE_DIM_EXT1_LINETYPE
1070
   381
1005
16
1001
ACAD_DSTYLE_DIM_EXT2_LINETYPE
1070
   382
1005
16
0
ENDSEC
0
SECTION
2
OBJECTS
0
DICTIONARY
5
225
330
0
100
AcDbDictionary
280
0
281
1
3
ACAD_GROUP
350
226
3
ACAD_MLINESTYLE
350
227
0
DICTIONARY
5
226
330
0
100
AcDbDictionary
280
0
281
1
0
DICTIONARY
5
227
330
0
100
AcDbDictionary
280
0
281
1
3
Standard
350
18
0
MLINESTYLE
5
18
330
227
100
AcDbMlineStyle
2
Standard
70
0
3

62
256
51
90
52
90
71
2
49
-0.5
62
256
6
ByLayer
49
0.5
62
256
6
ByLayer
0
RASTERVARIABLES
5
213
330

100
AcDbRasterVariables
90
0
70
1
71
1
72
1
0
ENDSEC
0
EOF
