0
SECTION
2
HEADER
9
$ACADVER
1
AC1015
9
$DWGCODEPAGE
3
ANSI_1252
9
$HANDSEED
5
239
9
$ANGBASE
50
0
9
$ANGDIR
70
0
9
$ATTMODE
70
1
9
$AUNITS
70
0
9
$AUPREC
70
0
9
$CECOLOR
62
256
9
$CELTSCALE
40
1
9
$CELTYPE
6
ByLayer
9
$CELWEIGHT
370
18
9
$CLAYER
8
0
9
$CMLJUST
70
0
9
$CMLSCALE
40
1
9
$CMLSTYLE
2
Standard
9
$DIMSTYLE
2
Standard
9
$TEXTSIZE
40
0.2
9
$TEXTSTYLE
7
Standard
9
$LUNITS
70
2
9
$LUPREC
70
4
9
$EXTNAMES
290
1
9
$INSUNITS
70
4
9
$LTSCALE
40
1
9
$LWDISPLAY
290
1
9
$PDMODE
70
0
9
$PDSIZE
40
0
9
$PLINEGEN
70
0
0
ENDSEC
0
SECTION
2
CLASSES
0
CLASS
1
RASTERVARIABLES
2
AcDbRasterVariables
3
ISM
90
0
280
0
281
0
0
ENDSEC
0
SECTION
2
TABLES
0
TABLE
2
VPORT
5
22f
100
AcDbSymbolTable
0
VPORT
5
1
100
AcDbSymbolTableRecord
100
AcDbViewportTableRecord
2
*Active
70
0
10
0
20
0
11
1
21
1
12
-1
22
1
13
0
23
0
14
0.5
24
0.5
15
10
25
10
16
0
26
0
36
1
17
0
27
0
37
0
0
ENDTAB
0
TABLE
2
LTYPE
5
230
100
AcDbSymbolTable
0
LTYPE
5
14
100
AcDbSymbolTableRecord
100
AcDbLinetypeTableRecord
70
0
2
ByBlock
3

72
65
73
0
40
0
0
LTYPE
5
15
100
AcDbSymbolTableRecord
100
AcDbLinetypeTableRecord
70
0
2
ByLayer
3

72
65
73
0
40
0
0
LTYPE
5
16
100
AcDbSymbolTableRecord
100
AcDbLinetypeTableRecord
70
0
2
Continuous
3
Solid line
72
65
73
0
40
0
0
LTYPE
5
6E
100
AcDbSymbolTableRecord
100
AcDbLinetypeTableRecord
70
0
2
CENTER
3
____ _ ____ _ ____ _ ____
72
65
73
4
40
47.5
49
22
74
0
49
-8.5
74
0
49
8.5
74
0
49
-8.5
74
0
0
LTYPE
5
6F
100
AcDbSymbolTableRecord
100
AcDbLinetypeTableRecord
70
0
2
DASHED
3
__ __ __ __ __ __ __ __ __
72
65
73
2
40
25.72
49
12.86
74
0
49
-12.86
74
0
0
ENDTAB
0
TABLE
2
LAYER
5
231
100
AcDbSymbolTable
0
LAYER
5
10
100
AcDbSymbolTableRecord
100
AcDbLayerTableRecord
2
0
70
0
62
7
6
Continuous
290
1
370
-3
390
0
0
LAYER
5
71
100
AcDbSymbolTableRecord
100
AcDbLayerTableRecord
2
80
70
0
62
-6
6
Continuous
290
1
370
-3
390
0
0
LAYER
5
73
100
AcDbSymbolTableRecord
100
AcDbLayerTableRecord
2
81
70
0
62
-3
6
Continuous
290
1
370
-3
390
0
0
LAYER
5
75
100
AcDbSymbolTableRecord
100
AcDbLayerTableRecord
2
1
70
0
62
4
6
Continuous
290
1
370
-3
390
0
0
LAYER
5
83
100
AcDbSymbolTableRecord
100
AcDbLayerTableRecord
2
4
70
0
62
-2
6
CENTER
290
1
370
-3
390
0
0
LAYER
5
A5
100
AcDbSymbolTableRecord
100
AcDbLayerTableRecord
2
2
70
0
62
7
6
Continuous
290
1
370
-3
390
0
0
LAYER
5
144
100
AcDbSymbolTableRecord
100
AcDbLayerTableRecord
2
Defpoints
70
0
62
7
6
Continuous
290
0
370
-3
390
0
0
LAYER
5
21b
100
AcDbSymbolTableRecord
100
AcDbLayerTableRecord
2
SK4
70
0
62
2
6
CENTER
290
1
370
-3
390
0
0
LAYER
5
21c
100
AcDbSymbolTableRecord
100
AcDbLayerTableRecord
2
SK1
70
0
62
4
6
Continuous
290
1
370
-3
390
0
0
LAYER
5
21d
100
AcDbSymbolTableRecord
100
AcDbLayerTableRecord
2
SK2
70
0
62
7
6
Continuous
290
1
370
-3
390
0
0
LAYER
5
21e
100
AcDbSymbolTableRecord
100
AcDbLayerTableRecord
2
SK6
70
0
62
5
6
Continuous
290
1
370
-3
390
0
0
ENDTAB
0
TABLE
2
STYLE
5
232
100
AcDbSymbolTable
0
STYLE
5
11
100
AcDbSymbolTableRecord
100
AcDbTextStyleTableRecord
2
Standard
3
txt
70
0
71
0
40
0
41
1
42
0
50
0
0
STYLE
5
120
100
AcDbSymbolTableRecord
100
AcDbTextStyleTableRecord
2
iso_b_vert
3
simplex.shx
70
0
71
0
40
0
41
1
42
0
50
0
0
STYLE
5
121
100
AcDbSymbolTableRecord
100
AcDbTextStyleTableRecord
2
DWGDirectTextStyle
3
simplex
70
0
71
0
40
0
41
1
42
0
50
0
0
ENDTAB
0
TABLE
2
DIMSTYLE
5
233
100
AcDbSymbolTable
100
AcDbDimStyleTable
0
DIMSTYLE
105
27
100
AcDbSymbolTableRecord
100
AcDbDimStyleTableRecord
2
Standard
70
0
3
<>
41
0.18
42
0.0625
44
0.18
140
0.18
147
0.09
73
0
74
0
77
1
271
2
275
0
278
52
280
0
340
11
0
ENDTAB
0
TABLE
2
VIEW
5
234
100
AcDbSymbolTable
0
ENDTAB
0
TABLE
2
UCS
5
235
100
AcDbSymbolTable
0
ENDTAB
0
TABLE
2
APPID
5
236
100
AcDbSymbolTable
0
APPID
5
12
100
AcDbSymbolTableRecord
100
AcDbRegAppTableRecord
2
ACAD
70
0
0
APPID
5
140
100
AcDbSymbolTableRecord
100
AcDbRegAppTableRecord
2
ACAD_DSTYLE_DIMBREAK
70
0
0
APPID
5
1DA
100
AcDbSymbolTableRecord
100
AcDbRegAppTableRecord
2
ACAD_DSTYLE_DIM_LINETYPE
70
0
0
APPID
5
1DB
100
AcDbSymbolTableRecord
100
AcDbRegAppTableRecord
2
ACAD_DSTYLE_DIM_EXT1_LINETYPE
70
0
0
APPID
5
1DC
100
AcDbSymbolTableRecord
100
AcDbRegAppTableRecord
2
ACAD_DSTYLE_DIM_EXT2_LINETYPE
70
0
0
APPID
5
217
100
AcDbSymbolTableRecord
100
AcDbRegAppTableRecord
2
ACAD_MLEADERVER
70
0
0
ENDTAB
0
TABLE
2
BLOCK_RECORD
5
237
100
AcDbSymbolTable
0
BLOCK_RECORD
5
1F
100
AcDbSymbolTableRecord
100
AcDbBlockTableRecord
2
*Model_Space
340
0
70
0
0
BLOCK_RECORD
5
1B
100
AcDbSymbolTableRecord
100
AcDbBlockTableRecord
2
*Paper_Space
340
0
70
0
0
BLOCK_RECORD
5
23
100
AcDbSymbolTableRecord
100
AcDbBlockTableRecord
2
*Paper_Space0
340
0
70
0
0
BLOCK_RECORD
5
145
100
AcDbSymbolTableRecord
100
AcDbBlockTableRecord
2
*D1
340
0
70
0
0
BLOCK_RECORD
5
151
100
AcDbSymbolTableRecord
100
AcDbBlockTableRecord
2
_U0
340
0
70
0
0
BLOCK_RECORD
5
15F
100
AcDbSymbolTableRecord
100
AcDbBlockTableRecord
2
*D3
340
0
70
0
0
BLOCK_RECORD
5
16B
100
AcDbSymbolTableRecord
100
AcDbBlockTableRecord
2
_U1
340
0
70
0
0
BLOCK_RECORD
5
177
100
AcDbSymbolTableRecord
100
AcDbBlockTableRecord
2
*D5
340
0
70
0
0
BLOCK_RECORD
5
183
100
AcDbSymbolTableRecord
100
AcDbBlockTableRecord
2
_U2
340
0
70
0
0
BLOCK_RECORD
5
18F
100
AcDbSymbolTableRecord
100
AcDbBlockTableRecord
2
*D7
340
0
70
0
0
BLOCK_RECORD
5
19B
100
AcDbSymbolTableRecord
100
AcDbBlockTableRecord
2
_U3
340
0
70
0
0
BLOCK_RECORD
5
1A7
100
AcDbSymbolTableRecord
100
AcDbBlockTableRecord
2
*D9
340
0
70
0
0
BLOCK_RECORD
5
1B3
100
AcDbSymbolTableRecord
100
AcDbBlockTableRecord
2
_U4
340
0
70
0
0
ENDTAB
0
ENDSEC
0
SECTION
2
BLOCKS
0
BLOCK
5
20
100
AcDbEntity
8
0
100
AcDbBlockBegin
2
*Model_Space
70
0
10
0
20
0
30
0
3
*Model_Space
0
ENDBLK
5
21
100
AcDbEntity
8
0
100
AcDbBlockEnd
0
BLOCK
5
1C
100
AcDbEntity
8
0
100
AcDbBlockBegin
2
*Paper_Space
70
0
10
0
20
0
30
0
3
*Paper_Space
0
ENDBLK
5
1D
100
AcDbEntity
8
0
100
AcDbBlockEnd
0
BLOCK
5
24
100
AcDbEntity
8
0
100
AcDbBlockBegin
2
*Paper_Space0
70
0
10
0
20
0
30
0
3
*Paper_Space0
0
ENDBLK
5
25
100
AcDbEntity
8
0
100
AcDbBlockEnd
0
BLOCK
5
146
100
AcDbEntity
8
0
100
AcDbBlockBegin
2
*D1
70
1
10
0
20
0
30
0
3
*D1
0
LINE
5
148
100
AcDbEntity
8
0
62
256
6
ByLayer
370
-2
48
1
60
0
100
AcDbLine
10
68
20
-3.9875
30
0
11
68
21
-20.05505
31
0
39
0
210
0
220
0
230
1
0
LINE
5
149
100
AcDbEntity
8
0
62
256
6
ByLayer
370
-2
48
1
60
0
100
AcDbLine
10
28.8
20
-3.9875
30
0
11
28.8
21
-20.05505
31
0
39
0
210
0
220
0
230
1
0
LINE
5
14A
100
AcDbEntity
8
0
62
256
6
ByLayer
370
-2
48
1
60
0
100
AcDbLine
10
64.5
20
-18.05505
30
0
11
32.3
21
-18.05505
31
0
39
0
210
0
220
0
230
1
0
SOLID
5
14B
100
AcDbEntity
8
0
62
256
6
ByLayer
370
-1
48
1
60
0
100
AcDbTrace
10
64.5
20
-18.638384
30
0
11
64.5
21
-17.471717
31
0
12
68
22
-18.05505
32
0
13
68
23
-18.05505
33
0
39
0
210
0
220
0
230
1
0
SOLID
5
14C
100
AcDbEntity
8
0
62
256
6
ByLayer
370
-1
48
1
60
0
100
AcDbTrace
10
32.3
20
-17.471717
30
0
11
32.3
21
-18.638384
31
0
12
28.8
22
-18.05505
32
0
13
28.8
23
-18.05505
33
0
39
0
210
0
220
0
230
1
0
MTEXT
5
14D
100
AcDbEntity
8
0
62
256
6
ByLayer
370
18
48
1
60
0
100
AcDbMText
10
48.4
20
-12.05505
30
0
210
0
220
0
230
1
1
\A1;39.2
40
3
41
0
44
1
50
0
71
5
72
5
7
iso_b_vert
0
POINT
5
14E
100
AcDbEntity
8
Defpoints
62
0
6
ByLayer
370
-1
48
1
60
0
100
AcDbPoint
10
68
20
-2.4
30
0
39
0
210
0
220
0
230
1
50
360
0
POINT
5
14F
100
AcDbEntity
8
Defpoints
62
0
6
ByLayer
370
-1
48
1
60
0
100
AcDbPoint
10
28.8
20
-2.4
30
0
39
0
210
0
220
0
230
1
50
360
0
POINT
5
150
100
AcDbEntity
8
Defpoints
62
0
6
ByLayer
370
-1
48
1
60
0
100
AcDbPoint
10
28.8
20
-18.05505
30
0
39
0
210
0
220
0
230
1
50
360
0
ENDBLK
5
147
100
AcDbEntity
8
0
100
AcDbBlockEnd
0
BLOCK
5
15A
100
AcDbEntity
8
0
100
AcDbBlockBegin
2
_U0
70
0
10
0
20
0
30
0
3
_U0
0
MTEXT
5
152
100
AcDbEntity
8
SK2
62
256
6
ByLayer
370
18
48
1
60
0
100
AcDbMText
10
45.038544
20
-15.857436
30
0
210
0
220
0
230
1
1
\W0.7346;39.2
40
3
41
0
44
1.084337
50
0
71
7
72
5
7
iso_b_vert
0
MTEXT
5
153
100
AcDbEntity
8
SK2
62
256
6
ByLayer
370
18
48
1
60
0
100
AcDbMText
10
42.938544
20
-15.857436
30
0
210
0
220
0
230
1
1
\W1.1313;{\H1.88x;(}
40
3
41
0
44
1.084337
50
0
71
7
72
5
7
iso_b_vert
0
MTEXT
5
154
100
AcDbEntity
8
SK2
62
256
6
ByLayer
370
18
48
1
60
0
100
AcDbMText
10
52.079456
20
-15.857436
30
0
210
0
220
0
230
1
1
\W1.1313;{\H1.88x;)}
40
3
41
0
44
1.084337
50
0
71
7
72
5
7
iso_b_vert
0
LINE
5
155
100
AcDbEntity
8
SK2
62
256
6
ByLayer
370
13
48
1
60
0
100
AcDbLine
10
68
20
-3.9875
30
0
11
68
21
-20.05505
31
0
39
0
210
0
220
0
230
1
0
LINE
5
156
100
AcDbEntity
8
SK2
62
256
6
ByLayer
370
13
48
1
60
0
100
AcDbLine
10
28.8
20
-3.9875
30
0
11
28.8
21
-20.05505
31
0
39
0
210
0
220
0
230
1
0
LINE
5
157
100
AcDbEntity
8
SK2
62
256
6
ByLayer
370
13
48
1
60
0
100
AcDbLine
10
68
20
-18.05505
30
0
11
28.8
21
-18.05505
31
0
39
0
210
0
220
0
230
1
0
SOLID
5
158
100
AcDbEntity
8
SK2
62
256
6
ByLayer
370
18
48
1
60
0
100
AcDbTrace
10
68
20
-18.05505
30
0
11
64.500002
21
-18.515834
31
0
12
64.499998
22
-17.594266
32
0
13
64.499998
23
-17.594266
33
0
39
0
210
0
220
0
230
1
0
SOLID
5
159
100
AcDbEntity
8
SK2
62
256
6
ByLayer
370
18
48
1
60
0
100
AcDbTrace
10
28.8
20
-18.05505
30
0
11
32.299998
21
-17.594266
31
0
12
32.300002
22
-18.515834
32
0
13
32.300002
23
-18.515834
33
0
39
0
210
0
220
0
230
1
0
ENDBLK
5
15B
100
AcDbEntity
8
0
100
AcDbBlockEnd
0
BLOCK
5
160
100
AcDbEntity
8
0
100
AcDbBlockBegin
2
*D3
70
1
10
0
20
0
30
0
3
*D3
0
LINE
5
162
100
AcDbEntity
8
0
62
256
6
ByLayer
370
-2
48
1
60
0
100
AcDbLine
10
68
20
-3.9875
30
0
11
68
21
-30.05505
31
0
39
0
210
0
220
0
230
1
0
LINE
5
163
100
AcDbEntity
8
0
62
256
6
ByLayer
370
-2
48
1
60
0
100
AcDbLine
10
6
20
-3.9875
30
0
11
6
21
-30.05505
31
0
39
0
210
0
220
0
230
1
0
LINE
5
164
100
AcDbEntity
8
0
62
256
6
ByLayer
370
-2
48
1
60
0
100
AcDbLine
10
64.5
20
-28.05505
30
0
11
9.5
21
-28.05505
31
0
39
0
210
0
220
0
230
1
0
SOLID
5
165
100
AcDbEntity
8
0
62
256
6
ByLayer
370
-1
48
1
60
0
100
AcDbTrace
10
64.5
20
-28.638384
30
0
11
64.5
21
-27.471717
31
0
12
68
22
-28.05505
32
0
13
68
23
-28.05505
33
0
39
0
210
0
220
0
230
1
0
SOLID
5
166
100
AcDbEntity
8
0
62
256
6
ByLayer
370
-1
48
1
60
0
100
AcDbTrace
10
9.5
20
-27.471717
30
0
11
9.5
21
-28.638384
31
0
12
6
22
-28.05505
32
0
13
6
23
-28.05505
33
0
39
0
210
0
220
0
230
1
0
MTEXT
5
167
100
AcDbEntity
8
0
62
256
6
ByLayer
370
18
48
1
60
0
100
AcDbMText
10
37
20
-22.05505
30
0
210
0
220
0
230
1
1
\A1;62
40
3
41
0
44
1
50
0
71
5
72
5
7
iso_b_vert
0
POINT
5
168
100
AcDbEntity
8
Defpoints
62
0
6
ByLayer
370
-1
48
1
60
0
100
AcDbPoint
10
68
20
-2.4
30
0
39
0
210
0
220
0
230
1
50
360
0
POINT
5
169
100
AcDbEntity
8
Defpoints
62
0
6
ByLayer
370
-1
48
1
60
0
100
AcDbPoint
10
6
20
-2.4
30
0
39
0
210
0
220
0
230
1
50
360
0
POINT
5
16A
100
AcDbEntity
8
Defpoints
62
0
6
ByLayer
370
-1
48
1
60
0
100
AcDbPoint
10
6
20
-28.05505
30
0
39
0
210
0
220
0
230
1
50
360
0
ENDBLK
5
161
100
AcDbEntity
8
0
100
AcDbBlockEnd
0
BLOCK
5
172
100
AcDbEntity
8
0
100
AcDbBlockBegin
2
_U1
70
0
10
0
20
0
30
0
3
_U1
0
MTEXT
5
16C
100
AcDbEntity
8
SK2
62
256
6
ByLayer
370
18
48
1
60
0
100
AcDbMText
10
35.367172
20
-27.169936
30
0
210
0
220
0
230
1
1
\W0.6740;62
40
3
41
0
44
1.084337
50
0
71
7
72
5
7
iso_b_vert
0
LINE
5
16D
100
AcDbEntity
8
SK2
62
256
6
ByLayer
370
13
48
1
60
0
100
AcDbLine
10
68
20
-3.9875
30
0
11
68
21
-30.05505
31
0
39
0
210
0
220
0
230
1
0
LINE
5
16E
100
AcDbEntity
8
SK2
62
256
6
ByLayer
370
13
48
1
60
0
100
AcDbLine
10
6
20
-3.9875
30
0
11
6
21
-30.05505
31
0
39
0
210
0
220
0
230
1
0
LINE
5
16F
100
AcDbEntity
8
SK2
62
256
6
ByLayer
370
13
48
1
60
0
100
AcDbLine
10
68
20
-28.05505
30
0
11
6
21
-28.05505
31
0
39
0
210
0
220
0
230
1
0
SOLID
5
170
100
AcDbEntity
8
SK2
62
256
6
ByLayer
370
18
48
1
60
0
100
AcDbTrace
10
68
20
-28.05505
30
0
11
64.500002
21
-28.515834
31
0
12
64.499998
22
-27.594266
32
0
13
64.499998
23
-27.594266
33
0
39
0
210
0
220
0
230
1
0
SOLID
5
171
100
AcDbEntity
8
SK2
62
256
6
ByLayer
370
18
48
1
60
0
100
AcDbTrace
10
6
20
-28.05505
30
0
11
9.499998
21
-27.594266
31
0
12
9.500002
22
-28.515834
32
0
13
9.500002
23
-28.515834
33
0
39
0
210
0
220
0
230
1
0
ENDBLK
5
173
100
AcDbEntity
8
0
100
AcDbBlockEnd
0
BLOCK
5
178
100
AcDbEntity
8
0
100
AcDbBlockBegin
2
*D5
70
1
10
0
20
0
30
0
3
*D5
0
LINE
5
17A
100
AcDbEntity
8
0
62
256
6
ByLayer
370
-2
48
1
60
0
100
AcDbLine
10
-36
20
-4.5875
30
0
11
-36
21
-38.05505
31
0
39
0
210
0
220
0
230
1
0
LINE
5
17B
100
AcDbEntity
8
0
62
256
6
ByLayer
370
-2
48
1
60
0
100
AcDbLine
10
0
20
-4.5875
30
0
11
0
21
-38.05505
31
0
39
0
210
0
220
0
230
1
0
LINE
5
17C
100
AcDbEntity
8
0
62
256
6
ByLayer
370
-2
48
1
60
0
100
AcDbLine
10
-32.5
20
-36.05505
30
0
11
-3.5
21
-36.05505
31
0
39
0
210
0
220
0
230
1
0
SOLID
5
17D
100
AcDbEntity
8
0
62
256
6
ByLayer
370
-1
48
1
60
0
100
AcDbTrace
10
-32.5
20
-35.471717
30
0
11
-32.5
21
-36.638384
31
0
12
-36
22
-36.05505
32
0
13
-36
23
-36.05505
33
0
39
0
210
0
220
0
230
1
0
SOLID
5
17E
100
AcDbEntity
8
0
62
256
6
ByLayer
370
-1
48
1
60
0
100
AcDbTrace
10
-3.5
20
-36.638384
30
0
11
-3.5
21
-35.471717
31
0
12
0
22
-36.05505
32
0
13
0
23
-36.05505
33
0
39
0
210
0
220
0
230
1
0
MTEXT
5
17F
100
AcDbEntity
8
0
62
256
6
ByLayer
370
18
48
1
60
0
100
AcDbMText
10
-18
20
-30.05505
30
0
210
0
220
0
230
1
1
\A1;36
40
3
41
0
44
1
50
0
71
5
72
5
7
iso_b_vert
0
POINT
5
180
100
AcDbEntity
8
Defpoints
62
0
6
ByLayer
370
-1
48
1
60
0
100
AcDbPoint
10
-36
20
-3
30
0
39
0
210
0
220
0
230
1
50
360
0
POINT
5
181
100
AcDbEntity
8
Defpoints
62
0
6
ByLayer
370
-1
48
1
60
0
100
AcDbPoint
10
0
20
-3
30
0
39
0
210
0
220
0
230
1
50
360
0
POINT
5
182
100
AcDbEntity
8
Defpoints
62
0
6
ByLayer
370
-1
48
1
60
0
100
AcDbPoint
10
0
20
-36.05505
30
0
39
0
210
0
220
0
230
1
50
360
0
ENDBLK
5
179
100
AcDbEntity
8
0
100
AcDbBlockEnd
0
BLOCK
5
18A
100
AcDbEntity
8
0
100
AcDbBlockBegin
2
_U2
70
0
10
0
20
0
30
0
3
_U2
0
MTEXT
5
184
100
AcDbEntity
8
SK2
62
256
6
ByLayer
370
18
48
1
60
0
100
AcDbMText
10
-19.632828
20
-35.169936
30
0
210
0
220
0
230
1
1
\W0.6740;36
40
3
41
0
44
1.084337
50
0
71
7
72
5
7
iso_b_vert
0
LINE
5
185
100
AcDbEntity
8
SK2
62
256
6
ByLayer
370
13
48
1
60
0
100
AcDbLine
10
-36
20
-4.5875
30
0
11
-36
21
-38.05505
31
0
39
0
210
0
220
0
230
1
0
LINE
5
186
100
AcDbEntity
8
SK2
62
256
6
ByLayer
370
13
48
1
60
0
100
AcDbLine
10
0
20
-4.5875
30
0
11
0
21
-38.05505
31
0
39
0
210
0
220
0
230
1
0
LINE
5
187
100
AcDbEntity
8
SK2
62
256
6
ByLayer
370
13
48
1
60
0
100
AcDbLine
10
-36
20
-36.05505
30
0
11
0
21
-36.05505
31
0
39
0
210
0
220
0
230
1
0
SOLID
5
188
100
AcDbEntity
8
SK2
62
256
6
ByLayer
370
18
48
1
60
0
100
AcDbTrace
10
-36
20
-36.05505
30
0
11
-32.500002
21
-35.594266
31
0
12
-32.499998
22
-36.515834
32
0
13
-32.499998
23
-36.515834
33
0
39
0
210
0
220
0
230
1
0
SOLID
5
189
100
AcDbEntity
8
SK2
62
256
6
ByLayer
370
18
48
1
60
0
100
AcDbTrace
10
0
20
-36.05505
30
0
11
-3.499998
21
-36.515834
31
0
12
-3.500002
22
-35.594266
32
0
13
-3.500002
23
-35.594266
33
0
39
0
210
0
220
0
230
1
0
ENDBLK
5
18B
100
AcDbEntity
8
0
100
AcDbBlockEnd
0
BLOCK
5
190
100
AcDbEntity
8
0
100
AcDbBlockBegin
2
*D7
70
1
10
0
20
0
30
0
3
*D7
0
LINE
5
192
100
AcDbEntity
8
0
62
256
6
ByLayer
370
-2
48
1
60
0
100
AcDbLine
10
-36
20
-4.5875
30
0
11
-36
21
-46.05505
31
0
39
0
210
0
220
0
230
1
0
LINE
5
193
100
AcDbEntity
8
0
62
256
6
ByLayer
370
-2
48
1
60
0
100
AcDbLine
10
68
20
-3.9875
30
0
11
68
21
-46.05505
31
0
39
0
210
0
220
0
230
1
0
LINE
5
194
100
AcDbEntity
8
0
62
256
6
ByLayer
370
-2
48
1
60
0
100
AcDbLine
10
-32.5
20
-44.05505
30
0
11
64.5
21
-44.05505
31
0
39
0
210
0
220
0
230
1
0
SOLID
5
195
100
AcDbEntity
8
0
62
256
6
ByLayer
370
-1
48
1
60
0
100
AcDbTrace
10
-32.5
20
-43.471717
30
0
11
-32.5
21
-44.638384
31
0
12
-36
22
-44.05505
32
0
13
-36
23
-44.05505
33
0
39
0
210
0
220
0
230
1
0
SOLID
5
196
100
AcDbEntity
8
0
62
256
6
ByLayer
370
-1
48
1
60
0
100
AcDbTrace
10
64.5
20
-44.638384
30
0
11
64.5
21
-43.471717
31
0
12
68
22
-44.05505
32
0
13
68
23
-44.05505
33
0
39
0
210
0
220
0
230
1
0
MTEXT
5
197
100
AcDbEntity
8
0
62
256
6
ByLayer
370
18
48
1
60
0
100
AcDbMText
10
16
20
-38.05505
30
0
210
0
220
0
230
1
1
\A1;104
40
3
41
0
44
1
50
0
71
5
72
5
7
iso_b_vert
0
POINT
5
198
100
AcDbEntity
8
Defpoints
62
0
6
ByLayer
370
-1
48
1
60
0
100
AcDbPoint
10
-36
20
-3
30
0
39
0
210
0
220
0
230
1
50
360
0
POINT
5
199
100
AcDbEntity
8
Defpoints
62
0
6
ByLayer
370
-1
48
1
60
0
100
AcDbPoint
10
68
20
-2.4
30
0
39
0
210
0
220
0
230
1
50
360
0
POINT
5
19A
100
AcDbEntity
8
Defpoints
62
0
6
ByLayer
370
-1
48
1
60
0
100
AcDbPoint
10
68
20
-44.05505
30
0
39
0
210
0
220
0
230
1
50
360
0
ENDBLK
5
191
100
AcDbEntity
8
0
100
AcDbBlockEnd
0
BLOCK
5
1A2
100
AcDbEntity
8
0
100
AcDbBlockBegin
2
_U3
70
0
10
0
20
0
30
0
3
_U3
0
MTEXT
5
19C
100
AcDbEntity
8
SK2
62
256
6
ByLayer
370
18
48
1
60
0
100
AcDbMText
10
13.463258
20
-43.169936
30
0
210
0
220
0
230
1
1
\W0.6506;104
40
3
41
0
44
1.084337
50
0
71
7
72
5
7
iso_b_vert
0
LINE
5
19D
100
AcDbEntity
8
SK2
62
256
6
ByLayer
370
13
48
1
60
0
100
AcDbLine
10
-36
20
-4.5875
30
0
11
-36
21
-46.05505
31
0
39
0
210
0
220
0
230
1
0
LINE
5
19E
100
AcDbEntity
8
SK2
62
256
6
ByLayer
370
13
48
1
60
0
100
AcDbLine
10
68
20
-3.9875
30
0
11
68
21
-46.05505
31
0
39
0
210
0
220
0
230
1
0
LINE
5
19F
100
AcDbEntity
8
SK2
62
256
6
ByLayer
370
13
48
1
60
0
100
AcDbLine
10
-36
20
-44.05505
30
0
11
68
21
-44.05505
31
0
39
0
210
0
220
0
230
1
0
SOLID
5
1A0
100
AcDbEntity
8
SK2
62
256
6
ByLayer
370
18
48
1
60
0
100
AcDbTrace
10
-36
20
-44.05505
30
0
11
-32.500002
21
-43.594266
31
0
12
-32.499998
22
-44.515834
32
0
13
-32.499998
23
-44.515834
33
0
39
0
210
0
220
0
230
1
0
SOLID
5
1A1
100
AcDbEntity
8
SK2
62
256
6
ByLayer
370
18
48
1
60
0
100
AcDbTrace
10
68
20
-44.05505
30
0
11
64.500002
21
-44.515834
31
0
12
64.499998
22
-43.594266
32
0
13
64.499998
23
-43.594266
33
0
39
0
210
0
220
0
230
1
0
ENDBLK
5
1A3
100
AcDbEntity
8
0
100
AcDbBlockEnd
0
BLOCK
5
1A8
100
AcDbEntity
8
0
100
AcDbBlockBegin
2
*D9
70
1
10
0
20
0
30
0
3
*D9
0
LINE
5
1AA
100
AcDbEntity
8
0
62
256
6
ByLayer
370
-2
48
1
60
0
100
AcDbLine
10
68
20
-3.9875
30
0
11
68
21
-38.05505
31
0
39
0
210
0
220
0
230
1
0
LINE
5
1AB
100
AcDbEntity
8
0
62
256
6
ByLayer
370
-2
48
1
60
0
100
AcDbLine
10
0
20
-3.9875
30
0
11
0
21
-38.05505
31
0
39
0
210
0
220
0
230
1
0
LINE
5
1AC
100
AcDbEntity
8
0
62
256
6
ByLayer
370
-2
48
1
60
0
100
AcDbLine
10
64.5
20
-36.05505
30
0
11
3.5
21
-36.05505
31
0
39
0
210
0
220
0
230
1
0
SOLID
5
1AD
100
AcDbEntity
8
0
62
256
6
ByLayer
370
-1
48
1
60
0
100
AcDbTrace
10
64.5
20
-36.638384
30
0
11
64.5
21
-35.471717
31
0
12
68
22
-36.05505
32
0
13
68
23
-36.05505
33
0
39
0
210
0
220
0
230
1
0
SOLID
5
1AE
100
AcDbEntity
8
0
62
256
6
ByLayer
370
-1
48
1
60
0
100
AcDbTrace
10
3.5
20
-35.471717
30
0
11
3.5
21
-36.638384
31
0
12
0
22
-36.05505
32
0
13
0
23
-36.05505
33
0
39
0
210
0
220
0
230
1
0
MTEXT
5
1AF
100
AcDbEntity
8
0
62
256
6
ByLayer
370
18
48
1
60
0
100
AcDbMText
10
34
20
-30.05505
30
0
210
0
220
0
230
1
1
\A1;68
40
3
41
0
44
1
50
0
71
5
72
5
7
iso_b_vert
0
POINT
5
1B0
100
AcDbEntity
8
Defpoints
62
0
6
ByLayer
370
-1
48
1
60
0
100
AcDbPoint
10
68
20
-2.4
30
0
39
0
210
0
220
0
230
1
50
360
0
POINT
5
1B1
100
AcDbEntity
8
Defpoints
62
0
6
ByLayer
370
-1
48
1
60
0
100
AcDbPoint
10
0
20
-2.4
30
0
39
0
210
0
220
0
230
1
50
360
0
POINT
5
1B2
100
AcDbEntity
8
Defpoints
62
0
6
ByLayer
370
-1
48
1
60
0
100
AcDbPoint
10
0
20
-36.05505
30
0
39
0
210
0
220
0
230
1
50
360
0
ENDBLK
5
1A9
100
AcDbEntity
8
0
100
AcDbBlockEnd
0
BLOCK
5
1BA
100
AcDbEntity
8
0
100
AcDbBlockBegin
2
_U4
70
0
10
0
20
0
30
0
3
_U4
0
MTEXT
5
1B4
100
AcDbEntity
8
2
62
256
6
ByLayer
370
18
48
1
60
0
100
AcDbMText
10
32.367172
20
-35.169936
30
0
210
0
220
0
230
1
1
\W0.6740;68
40
3
41
0
44
1.084337
50
0
71
7
72
5
7
iso_b_vert
0
LINE
5
1B5
100
AcDbEntity
8
2
62
256
6
ByLayer
370
13
48
1
60
0
100
AcDbLine
10
68
20
-3.9875
30
0
11
68
21
-38.05505
31
0
39
0
210
0
220
0
230
1
0
LINE
5
1B6
100
AcDbEntity
8
2
62
256
6
ByLayer
370
13
48
1
60
0
100
AcDbLine
10
0
20
-3.9875
30
0
11
0
21
-38.05505
31
0
39
0
210
0
220
0
230
1
0
LINE
5
1B7
100
AcDbEntity
8
2
62
256
6
ByLayer
370
13
48
1
60
0
100
AcDbLine
10
68
20
-36.05505
30
0
11
0
21
-36.05505
31
0
39
0
210
0
220
0
230
1
0
SOLID
5
1B8
100
AcDbEntity
8
2
62
256
6
ByLayer
370
18
48
1
60
0
100
AcDbTrace
10
68
20
-36.05505
30
0
11
64.500002
21
-36.515834
31
0
12
64.499998
22
-35.594266
32
0
13
64.499998
23
-35.594266
33
0
39
0
210
0
220
0
230
1
0
SOLID
5
1B9
100
AcDbEntity
8
2
62
256
6
ByLayer
370
18
48
1
60
0
100
AcDbTrace
10
0
20
-36.05505
30
0
11
3.499998
21
-35.594266
31
0
12
3.500002
22
-36.515834
32
0
13
3.500002
23
-36.515834
33
0
39
0
210
0
220
0
230
1
0
ENDBLK
5
1BB
100
AcDbEntity
8
0
100
AcDbBlockEnd
0
ENDSEC
0
SECTION
2
ENTITIES
0
ARC
5
C0
100
AcDbEntity
8
1
62
256
6
ByLayer
370
18
48
1
60
0
100
AcDbCircle
39
0
10
1.335227
20
-3.081572
30
0
40
0.8
210
0
220
0
230
1
100
AcDbArc
50
89.896868
51
146.565574
0
ARC
5
C1
100
AcDbEntity
8
1
62
256
6
ByLayer
370
18
48
1
60
0
100
AcDbCircle
39
0
10
1.335227
20
3.081572
30
0
40
0.8
210
0
220
0
230
1
100
AcDbArc
50
213.434426
51
270.103132
0
ARC
5
C2
100
AcDbEntity
8
1
62
256
6
ByLayer
370
18
48
1
60
0
100
AcDbCircle
39
0
10
0
20
-2.2
30
0
40
0.799999999999994
210
0
220
0
230
1
100
AcDbArc
50
270
51
326.565574
0
ARC
5
C3
100
AcDbEntity
8
1
62
256
6
ByLayer
370
18
48
1
60
0
100
AcDbCircle
39
0
10
0
20
2.2
30
0
40
0.799999999999994
210
0
220
0
230
1
100
AcDbArc
50
33.434426
51
90
0
ARC
5
C4
100
AcDbEntity
8
SK2
62
256
6
ByLayer
370
13
48
1
60
0
100
AcDbCircle
39
0
10
68
20
0
30
0
40
17.60034397485
210
0
220
0
230
1
100
AcDbArc
50
9.814055
51
69.990062
0
ARC
5
C5
100
AcDbEntity
8
SK2
62
256
6
ByLayer
370
13
48
1
60
0
100
AcDbCircle
39
0
10
68
20
0
30
0
40
17.60034397485
210
0
220
0
230
1
100
AcDbArc
50
290.009938
51
350.185945
0
ELLIPSE
5
C6
100
AcDbEntity
8
1
62
256
6
ByLayer
370
13
48
1
60
0
100
AcDbEllipse
10
44.10125
20
2.075642
30
0
11
-4.52336684916615E-05
21
0.00999989769523843
31
0
210
0
220
0
230
1
40
0.010998
41
-2.74600945079745
42
-1.17599115862201
0
ELLIPSE
5
C7
100
AcDbEntity
8
1
62
256
6
ByLayer
370
13
48
1
60
0
100
AcDbEllipse
10
44.06471
20
-0.399184
30
0
11
0.00328629562392889
21
0.00944458898375921
31
0
210
0
220
0
230
1
40
0.429065
41
1.54786959818125
42
2.95650248143218
0
ELLIPSE
5
C8
100
AcDbEntity
8
1
62
256
6
ByLayer
370
13
48
1
60
0
100
AcDbEllipse
10
44.10074
20
-0.413144
30
0
11
-0.00391115357567547
21
-0.00920341663228831
31
0
210
0
220
0
230
1
40
0.070484
41
-1.74206572739369
42
-0.173994791792059
0
ELLIPSE
5
C9
100
AcDbEntity
8
1
62
256
6
ByLayer
370
18
48
1
60
0
100
AcDbEllipse
10
44.136626
20
2.072982
30
0
11
-0.00160763887838095
21
-0.00986992893777448
31
0
210
0
220
0
230
1
40
0.372771
41
0.431926808627925
42
1.99575283175755
0
POINT
5
70
100
AcDbEntity
8
80
62
256
6
ByLayer
370
18
48
1
60
0
100
AcDbPoint
10
0
20
0
30
0
39
0
210
0
220
0
230
1
50
360
0
POINT
5
72
100
AcDbEntity
8
81
62
256
6
ByLayer
370
18
48
1
60
0
100
AcDbPoint
10
68
20
0
30
0
39
0
210
0
220
0
230
1
50
360
0
POINT
5
74
100
AcDbEntity
8
1
62
256
6
ByLayer
370
18
48
1
60
0
100
AcDbPoint
10
-203.374828
20
-200
30
0
39
0
210
0
220
0
230
1
50
360
0
POINT
5
76
100
AcDbEntity
8
1
62
256
6
ByLayer
370
13
48
1
60
1
100
AcDbPoint
10
-37.5
20
0
30
0
39
0
210
0
220
0
230
1
50
360
0
POINT
5
77
100
AcDbEntity
8
1
62
256
6
ByLayer
370
13
48
1
60
1
100
AcDbPoint
10
68.633625
20
0
30
0
39
0
210
0
220
0
230
1
50
360
0
POINT
5
78
100
AcDbEntity
8
1
62
256
6
ByLayer
370
18
48
1
60
1
100
AcDbPoint
10
68
20
-2.4
30
0
39
0
210
0
220
0
230
1
50
360
0
POINT
5
79
100
AcDbEntity
8
1
62
256
6
ByLayer
370
18
48
1
60
1
100
AcDbPoint
10
28.8
20
-2.4
30
0
39
0
210
0
220
0
230
1
50
360
0
POINT
5
7A
100
AcDbEntity
8
1
62
256
6
ByLayer
370
18
48
1
60
1
100
AcDbPoint
10
68
20
-2.4
30
0
39
0
210
0
220
0
230
1
50
360
0
POINT
5
7B
100
AcDbEntity
8
1
62
256
6
ByLayer
370
18
48
1
60
1
100
AcDbPoint
10
6
20
-2.4
30
0
39
0
210
0
220
0
230
1
50
360
0
POINT
5
7C
100
AcDbEntity
8
1
62
256
6
ByLayer
370
18
48
1
60
1
100
AcDbPoint
10
-36
20
-3
30
0
39
0
210
0
220
0
230
1
50
360
0
POINT
5
7D
100
AcDbEntity
8
1
62
256
6
ByLayer
370
18
48
1
60
1
100
AcDbPoint
10
0
20
-3
30
0
39
0
210
0
220
0
230
1
50
360
0
POINT
5
7E
100
AcDbEntity
8
1
62
256
6
ByLayer
370
18
48
1
60
1
100
AcDbPoint
10
-36
20
-3
30
0
39
0
210
0
220
0
230
1
50
360
0
POINT
5
7F
100
AcDbEntity
8
1
62
256
6
ByLayer
370
18
48
1
60
1
100
AcDbPoint
10
68
20
-2.4
30
0
39
0
210
0
220
0
230
1
50
360
0
POINT
5
80
100
AcDbEntity
8
1
62
256
6
ByLayer
370
18
48
1
60
1
100
AcDbPoint
10
68
20
-2.4
30
0
39
0
210
0
220
0
230
1
50
360
0
POINT
5
81
100
AcDbEntity
8
1
62
256
6
ByLayer
370
18
48
1
60
1
100
AcDbPoint
10
0
20
-2.4
30
0
39
0
210
0
220
0
230
1
50
360
0
SPLINE
5
CA
100
AcDbEntity
8
1
62
256
6
ByLayer
370
18
48
1
60
0
100
AcDbSpline
70
4
71
3
72
8
73
4
40
0
40
0
40
0
40
0
40
1
40
1
40
1
40
1
41
1
10
44.0004932811157
20
-0.336165548165013
30
0
41
1
10
44.0004932811157
20
-0.334977132371904
30
0
41
1
10
44.0004932811157
20
-0.333788532245393
30
0
41
1
10
44.0004932811157
20
-0.332599746993679
30
0
0
SPLINE
5
CB
100
AcDbEntity
8
1
62
256
6
ByLayer
370
18
48
1
60
0
100
AcDbSpline
70
4
71
3
72
32
73
28
40
0
40
0
40
0
40
0
40
0.125
40
0.249999999999999
40
0.249999999999999
40
0.312499999999999
40
0.312499999999999
40
0.374999999999999
40
0.374999999999999
40
0.499999999999999
40
0.499999999999999
40
0.531249999999999
40
0.531249999999999
40
0.562499999999999
40
0.562499999999999
40
0.624999999999999
40
0.656249999999999
40
0.656249999999999
40
0.6875
40
0.6875
40
0.75
40
0.75
40
0.875
40
0.875
40
0.9375
40
0.9375
40
1
40
1
40
1
40
1
41
1
10
44.0004932811157
20
-0.332599746993338
30
0
41
1
10
44.0004932811157
20
-0.208201237435844
30
0
41
1
10
44.0004932811157
20
0.0402290549893962
30
0
41
1
10
44.0004932811157
20
0.287953997166142
30
0
41
1
10
44.0004932811157
20
0.473472975088953
30
0
41
1
10
44.0004932811158
20
0.534529273159222
30
0
41
1
10
44.0004932811157
20
0.654857417872137
30
0
41
1
10
44.0004932811157
20
0.714173870994983
30
0
41
1
10
44.0004932811157
20
0.889611219673924
30
0
41
1
10
44.0004932811158
20
1.00323651671556
30
0
41
1
10
44.0004932811157
20
1.1409626317502
30
0
41
1
10
44.0004932811157
20
1.16832875445144
30
0
41
1
10
44.0004932811157
20
1.22225167124438
30
0
41
1
10
44.0004932811157
20
1.24884616936731
30
0
41
1
10
44.0004932811157
20
1.32753704787473
30
0
41
1
10
44.0004932811157
20
1.40404531004859
30
0
41
1
10
44.0004932811157
20
1.47728097431559
30
0
41
1
10
44.0004932811157
20
1.52537104139017
30
0
41
1
10
44.0004932811157
20
1.5490898599287
30
0
41
1
10
44.0004932811157
20
1.61871066036491
30
0
41
1
10
44.0004932811157
20
1.66314736878681
30
0
41
1
10
44.0004932811157
20
1.79068509039922
30
0
41
1
10
44.0004932811157
20
1.8680492797167
30
0
41
1
10
44.0004932811157
20
1.97256650485497
30
0
41
1
10
44.0004932811157
20
2.0054752094571
30
0
41
1
10
44.0004932811157
20
2.06731199000234
30
0
41
1
10
44.0004932811157
20
2.09600527437067
30
0
41
1
10
44.0004932811157
20
2.12243232753667
30
0
0
SPLINE
5
CC
100
AcDbEntity
8
1
62
256
6
ByLayer
370
18
48
1
60
0
100
AcDbSpline
70
4
71
3
72
8
73
4
40
0
40
0
40
0
40
0
40
1
40
1
40
1
40
1
41
1
10
67.7438782433921
20
0.827690706669813
30
0
41
1
10
67.8104392938205
20
0.64226796085461
30
0
41
1
10
67.8764238642079
20
0.456642185061327
30
0
41
1
10
67.9418197515309
20
0.27080908151828
30
0
0
SPLINE
5
CD
100
AcDbEntity
8
1
62
256
6
ByLayer
370
18
48
1
60
0
100
AcDbSpline
70
4
71
3
72
24
73
20
40
0
40
0
40
0
40
0
40
0.124999999999999
40
0.124999999999999
40
0.187499999999998
40
0.187499999999998
40
0.249999999999998
40
0.249999999999998
40
0.312499999999998
40
0.312499999999998
40
0.374999999999997
40
0.374999999999997
40
0.499999999999998
40
0.499999999999998
40
0.75
40
0.75
40
0.875
40
0.875
40
1
40
1
40
1
40
1
41
1
10
44.1013344851922
20
2.07948831763989
30
0
41
1
10
44.0935306896788
20
2.07945907157816
30
0
41
1
10
44.0859298910302
20
2.07983223647895
30
0
41
1
10
44.0748094815677
20
2.08094624983295
30
0
41
1
10
44.0711584235483
20
2.08141190512461
30
0
41
1
10
44.0641661596509
20
2.08249014104661
30
0
41
1
10
44.0607947493053
20
2.08310544546245
30
0
41
1
10
44.0542821416364
20
2.08447556639814
30
0
41
1
10
44.0511252395484
20
2.08523541004269
30
0
41
1
10
44.0451614782786
20
2.08684989696022
30
0
41
1
10
44.0423408338124
20
2.08770643164382
30
0
41
1
10
44.0343107588175
20
2.09040626842455
30
0
41
1
10
44.0295002106415
20
2.09239326908622
30
0
41
1
10
44.0167878009666
20
2.09869842140037
30
0
41
1
10
44.0107297092293
20
2.10322893198386
30
0
41
1
10
44.0045497148662
20
2.11038028358345
30
0
41
1
10
44.0030326691027
20
2.1127770012487
30
0
41
1
10
44.0010037916141
20
2.11759162501929
30
0
41
1
10
44.0004932811157
20
2.12002648559044
30
0
41
1
10
44.0004932811157
20
2.12243232753664
30
0
0
SPLINE
5
CE
100
AcDbEntity
8
1
62
256
6
ByLayer
370
13
48
1
60
0
100
AcDbSpline
70
4
71
3
72
10
73
6
40
0
40
0
40
0
40
0
40
0.5
40
0.5
40
1
40
1
40
1
40
1
41
1
10
44.1406410964833
20
2.07650479829835
30
0
41
1
10
44.1344134245933
20
2.07752275535404
30
0
41
1
10
44.1280173044175
20
2.07827344712837
30
0
41
1
10
44.1149017362096
20
2.0792695846157
30
0
41
1
10
44.1081338767994
20
2.07951379952579
30
0
41
1
10
44.1013344851922
20
2.07948831763989
30
0
0
SPLINE
5
CF
100
AcDbEntity
8
1
62
256
6
ByLayer
370
18
48
1
60
0
100
AcDbSpline
70
4
71
3
72
8
73
4
40
0
40
0
40
0
40
0
40
1
40
1
40
1
40
1
41
1
10
67.9418197515309
20
0.270809081518308
30
0
41
1
10
67.9604417726805
20
0.217891564436854
30
0
41
1
10
67.979445732232
20
0.165191883404106
30
0
41
1
10
67.9988381507051
20
0.112705198547587
30
0
0
SPLINE
5
D0
100
AcDbEntity
8
1
62
256
6
ByLayer
370
18
48
1
60
0
100
AcDbSpline
70
4
71
3
72
22
73
18
40
0
40
0
40
0
40
0
40
0.125000000000008
40
0.125000000000008
40
0.250000000000017
40
0.250000000000017
40
0.312500000000022
40
0.312500000000022
40
0.375000000000027
40
0.375000000000027
40
0.500000000000038
40
0.500000000000038
40
0.750000000000061
40
0.750000000000061
40
0.87500000000003
40
0.87500000000003
40
1
40
1
40
1
40
1
41
1
10
67.484748339622
20
-0.482914740713341
30
0
41
1
10
67.4814668068197
20
-0.48217398628006
30
0
41
1
10
67.4788695636154
20
-0.481924215283925
30
0
41
1
10
67.47541385506
20
-0.482487519958539
30
0
41
1
10
67.4745102425056
20
-0.483286333158446
30
0
41
1
10
67.4743872666629
20
-0.485246995812645
30
0
41
1
10
67.4745548470639
20
-0.486032938138607
30
0
41
1
10
67.4752833925073
20
-0.487821370533482
30
0
41
1
10
67.4758419903338
20
-0.488824343735729
30
0
41
1
10
67.4780511754267
20
-0.492130030299421
30
0
41
1
10
67.4802381871368
20
-0.494733510480188
30
0
41
1
10
67.4885870037098
20
-0.503513348282837
30
0
41
1
10
67.4962666597471
20
-0.510407839974107
30
0
41
1
10
67.5097682971338
20
-0.521710327904202
30
0
41
1
10
67.5146258056697
20
-0.525656097733588
30
0
41
1
10
67.5248331160394
20
-0.53376215598999
30
0
41
1
10
67.5301646859435
20
-0.537908693907042
30
0
41
1
10
67.5356806079367
20
-0.54213074943263
30
0
0
SPLINE
5
D1
100
AcDbEntity
8
1
62
256
6
ByLayer
370
18
48
1
60
0
100
AcDbSpline
70
4
71
3
72
34
73
30
40
0
40
0
40
0
40
0
40
0.328403270284744
40
0.328403270284744
40
0.552238870887452
40
0.552238870887452
40
0.701639176027582
40
0.701639176027582
40
0.801406298814021
40
0.801406298814021
40
0.868152408189275
40
0.868152408189275
40
0.912914755331045
40
0.912914755331045
40
0.942754332064499
40
0.942754332064499
40
0.962483877879432
40
0.962483877879432
40
0.975516782646319
40
0.975516782646319
40
0.98412356028548
40
0.98412356028548
40
0.98998558152387
40
0.98998558152387
40
0.996115566946603
40
0.996115566946603
40
0.998860937314776
40
0.998860937314776
40
1
40
1
40
1
40
1
41
1
10
67.080337274429
20
2.3999102167293
30
0
41
1
10
67.0872647057109
20
2.38854792819947
30
0
41
1
10
67.0941946736107
20
2.37716008562384
30
0
41
1
10
67.1058611320672
20
2.35794825997917
30
0
41
1
10
67.1105935372189
20
2.35014394206354
30
0
41
1
10
67.1184933186656
20
2.33709652149554
30
0
41
1
10
67.1216585652739
20
2.33186308931897
30
0
41
1
10
67.1269393075975
20
2.32312444655793
30
0
41
1
10
67.1290543917605
20
2.3196223520539
30
0
41
1
10
67.1325712634634
20
2.31380315519874
30
0
41
1
10
67.1339768146489
20
2.31147897311305
30
0
41
1
10
67.1363040914
20
2.30763914627479
30
0
41
1
10
67.1372315906062
20
2.30611167956684
30
0
41
1
10
67.1387943542834
20
2.30352904330243
30
0
41
1
10
67.1394242414472
20
2.30248568326587
30
0
41
1
10
67.1404818431595
20
2.30072740091444
30
0
41
1
10
67.140905881914
20
2.30002077426738
30
0
41
1
10
67.1416146608716
20
2.29883665309399
30
0
41
1
10
67.1418979203719
20
2.2983626398599
30
0
41
1
10
67.1423700373061
20
2.29757131713796
30
0
41
1
10
67.1425582916507
20
2.29725549758692
30
0
41
1
10
67.1428716074502
20
2.29673180317101
30
0
41
1
10
67.1429978973032
20
2.2965212259285
30
0
41
1
10
67.1432496002166
20
2.29610443526019
30
0
41
1
10
67.1433772284688
20
2.29589447635269
30
0
41
1
10
67.1435395853887
20
2.29563430259282
30
0
41
1
10
67.143587172221
20
2.29555923408242
30
0
41
1
10
67.143642514506
20
2.29547514496909
30
0
41
1
10
67.1436573501956
20
2.29545308747512
30
0
41
1
10
67.1436701695923
20
2.29543466921214
30
0
0
SPLINE
5
D2
100
AcDbEntity
8
1
62
256
6
ByLayer
370
18
48
1
60
0
100
AcDbSpline
70
4
71
3
72
17
73
13
40
0
40
0
40
0
40
0
40
0.249999999999939
40
0.249999999999939
40
0.499999999999879
40
0.499999999999879
40
0.624999999999909
40
0.624999999999909
40
0.749999999999939
40
0.87499999999997
40
0.87499999999997
40
1
40
1
40
1
40
1
41
1
10
44.0607339046283
20
-0.408207952509059
30
0
41
1
10
44.0503499008351
20
-0.404513610062196
30
0
41
1
10
44.0415218724816
20
-0.399714225054908
30
0
41
1
10
44.026183420687
20
-0.388442461228664
30
0
41
1
10
44.020040237904
20
-0.38221745695887
30
0
41
1
10
44.0126579338847
20
-0.372247792227398
30
0
41
1
10
44.0104963182465
20
-0.368791611859251
30
0
41
1
10
44.0068337230526
20
-0.361788220442236
30
0
41
1
10
44.0038184330292
20
-0.354690477514936
30
0
41
1
10
44.0020104654035
20
-0.347414012858394
30
0
41
1
10
44.0007984882783
20
-0.340048549839452
30
0
41
1
10
44.0004932811157
20
-0.336289570562826
30
0
41
1
10
44.0004932811157
20
-0.332599746992997
30
0
0
SPLINE
5
D3
100
AcDbEntity
8
1
62
256
6
ByLayer
370
18
48
1
60
0
100
AcDbSpline
70
4
71
3
72
8
73
4
40
0
40
0
40
0
40
0
40
1
40
1
40
1
40
1
41
1
10
67.1436701696022
20
-2.29543466919262
30
0
41
1
10
67.1697265512318
20
-2.25010803878806
30
0
41
1
10
67.1957944249189
20
-2.20476791668341
30
0
41
1
10
67.2218702440794
20
-2.15942037070204
30
0
0
SPLINE
5
D4
100
AcDbEntity
8
1
62
256
6
ByLayer
370
18
48
1
60
0
100
AcDbSpline
70
4
71
3
72
28
73
24
40
0
40
0
40
0
40
0
40
0.0030895276743259
40
0.0030895276743259
40
0.0695502258293719
40
0.0695502258293719
40
0.202471622139436
40
0.202471622139436
40
0.268932320294467
40
0.268932320294467
40
0.335393018449499
40
0.335393018449499
40
0.468314414759599
40
0.468314414759599
40
0.601235811069699
40
0.601235811069699
40
0.7341572073798
40
0.7341572073798
40
0.8670786036899
40
0.8670786036899
40
0.93353930184495
40
0.93353930184495
40
1
40
1
40
1
40
1
41
1
10
66.6869145094563
20
0.480571725220273
30
0
41
1
10
66.6873731423505
20
0.480916875699336
30
0
41
1
10
66.687832522666
20
0.481262540425945
30
0
41
1
10
66.6981904264206
20
0.489055217767799
30
0
41
1
10
66.7084464100454
20
0.49674659611469
30
0
41
1
10
66.7403157761331
20
0.520472981790135
30
0
41
1
10
66.7630004717552
20
0.537187200403707
30
0
41
1
10
66.799471625452
20
0.563221374710423
30
0
41
1
10
66.8120399593699
20
0.572057298585378
30
0
41
1
10
66.8380854480781
20
0.589958184542326
30
0
41
1
10
66.8515555798294
20
0.59901537465646
30
0
41
1
10
66.8927336842461
20
0.625896277031217
30
0
41
1
10
66.9214287393783
20
0.643584891707832
30
0
41
1
10
66.9817374812199
20
0.677532998043006
30
0
41
1
10
67.0133428808032
20
0.693808339901693
30
0
41
1
10
67.0800752830977
20
0.72375657784653
30
0
41
1
10
67.1142373123225
20
0.736949339506765
30
0
41
1
10
67.1840883359595
20
0.75936287909704
30
0
41
1
10
67.2197904094383
20
0.768602698894142
30
0
41
1
10
67.2745022497552
20
0.779380934847183
30
0
41
1
10
67.2929430776763
20
0.78245578623708
30
0
41
1
10
67.3298123142744
20
0.787512591650312
30
0
41
1
10
67.3482906872046
20
0.789505801067975
30
0
41
1
10
67.3668134330446
20
0.790985200701812
30
0
0
SPLINE
5
D5
100
AcDbEntity
8
1
62
256
6
ByLayer
370
18
48
1
60
0
100
AcDbSpline
70
4
71
3
72
8
73
4
40
0
40
0
40
0
40
0
40
1
40
1
40
1
40
1
41
1
10
67.3668134330445
20
0.790985200701812
30
0
41
1
10
67.4927143866194
20
0.801040827779161
30
0
41
1
10
67.6184935335681
20
0.812811885552208
30
0
41
1
10
67.7438782433925
20
0.827690706669813
30
0
0
SPLINE
5
D6
100
AcDbEntity
8
1
62
256
6
ByLayer
370
18
48
1
60
0
100
AcDbSpline
70
4
71
3
72
28
73
24
40
0
40
0
40
0
40
0
40
0.124999999999984
40
0.124999999999984
40
0.249999999999968
40
0.249999999999968
40
0.31249999999996
40
0.31249999999996
40
0.343749999999961
40
0.343749999999961
40
0.374999999999961
40
0.374999999999961
40
0.499999999999974
40
0.499999999999974
40
0.624999999999986
40
0.624999999999986
40
0.687499999999992
40
0.687499999999992
40
0.749999999999998
40
0.749999999999998
40
0.874999999999999
40
0.874999999999999
40
1
40
1
40
1
40
1
41
1
10
67.2218702440788
20
2.15942037070204
30
0
41
1
10
67.2413242756716
20
2.10248245677099
30
0
41
1
10
67.2608214565944
20
2.04542830389994
30
0
41
1
10
67.2999368899528
20
1.9311233267108
30
0
41
1
10
67.319557634772
20
1.87386417661887
30
0
41
1
10
67.3490202221152
20
1.78806703512447
30
0
41
1
10
67.3588494845588
20
1.75947375510356
30
0
41
1
10
67.3736081177135
20
1.71659300314144
30
0
41
1
10
67.378532065644
20
1.70230185577702
30
0
41
1
10
67.3884535822747
20
1.67375376465154
30
0
41
1
10
67.393439639045
20
1.65949155959933
30
0
41
1
10
67.418511950933
20
1.58824607090204
30
0
41
1
10
67.4390285408442
20
1.53146136058297
30
0
41
1
10
67.4812673837547
20
1.4184264538213
30
0
41
1
10
67.5029878519075
20
1.3621754405192
30
0
41
1
10
67.5366828642713
20
1.27827988873523
30
0
41
1
10
67.5481005317906
20
1.25039498561114
30
0
41
1
10
67.5713448182181
20
1.19479990627099
30
0
41
1
10
67.5831869501938
20
1.16705819412405
30
0
41
1
10
67.6189401101823
20
1.08508289053853
30
0
41
1
10
67.6432117768764
20
1.03177381743586
30
0
41
1
10
67.692757607981
20
0.927757067050891
30
0
41
1
10
67.718032934666
20
0.877056904967674
30
0
41
1
10
67.7438782433922
20
0.827690706669785
30
0
0
SPLINE
5
D7
100
AcDbEntity
8
1
62
256
6
ByLayer
370
18
48
1
60
0
100
AcDbSpline
70
4
71
3
72
8
73
4
40
0
40
0
40
0
40
0
40
1
40
1
40
1
40
1
41
1
10
67.1436701695905
20
2.29543466921297
30
0
41
1
10
67.169726551224
20
2.25010803880161
30
0
41
1
10
67.1957944249149
20
2.2047679166902
30
0
41
1
10
67.2218702440795
20
2.15942037070201
30
0
0
SPLINE
5
D8
100
AcDbEntity
8
1
62
256
6
ByLayer
370
18
48
1
60
0
100
AcDbSpline
70
4
71
3
72
20
73
16
40
0
40
0
40
0
40
0
40
0.0922679570558825
40
0.0922679570558825
40
0.184535914111765
40
0.184535914111765
40
0.369071828223521
40
0.369071828223521
40
0.553607742335277
40
0.553607742335277
40
0.738143656447034
40
0.738143656447034
40
0.92267957055879
40
0.92267957055879
40
1
40
1
40
1
40
1
41
1
10
67.143670169601
20
2.295434669201
30
0
41
1
10
67.0225285925984
20
2.29667300907369
30
0
41
1
10
66.9010993264307
20
2.29600250139123
30
0
41
1
10
66.6578384576085
20
2.2908966718181
30
0
41
1
10
66.5364980369477
20
2.2864785256368
30
0
41
1
10
66.1731697999549
20
2.26773059724258
30
0
41
1
10
65.9318775555458
20
2.24791026599306
30
0
41
1
10
65.4503250962408
20
2.194253895597
30
0
41
1
10
65.2101443608233
20
2.16036636760879
30
0
41
1
10
64.7301885360525
20
2.0789976895401
30
0
41
1
10
64.490367831307
20
2.03157956005487
30
0
41
1
10
64.0104349410079
20
1.92413544833968
30
0
41
1
10
63.770326392485
20
1.86411762904621
30
0
41
1
10
63.4288234594454
20
1.77058536729234
30
0
41
1
10
63.3278866154271
20
1.74193356030895
30
0
41
1
10
63.2268292852025
20
1.71227665784326
30
0
0
SPLINE
5
D9
100
AcDbEntity
8
1
62
256
6
ByLayer
370
18
48
1
60
0
100
AcDbSpline
70
4
71
3
72
18
73
14
40
0
40
0
40
0
40
0
40
0.148814943637863
40
0.148814943637863
40
0.297629887275726
40
0.297629887275726
40
0.446444830913588
40
0.446444830913588
40
0.595259774551451
40
0.595259774551451
40
0.892889661827177
40
0.892889661827177
40
1
40
1
40
1
40
1
41
1
10
67.3213664610138
20
0.239589252884542
30
0
41
1
10
67.3046525923776
20
0.248015632506139
30
0
41
1
10
67.2879987085898
20
0.25623369847446
30
0
41
1
10
67.2548222504595
20
0.272213822750388
30
0
41
1
10
67.23830343022
20
0.279962843918099
30
0
41
1
10
67.20535236832
20
0.295160218657969
30
0
41
1
10
67.1889141154161
20
0.302629447903257
30
0
41
1
10
67.156056947046
20
0.317500751896802
30
0
41
1
10
67.139648149288
20
0.324867690159664
30
0
41
1
10
67.0906196783267
20
0.346281166041081
30
0
41
1
10
67.0582465754444
20
0.35947142135123
30
0
41
1
10
67.0148635102061
20
0.375184615566269
30
0
41
1
10
67.0034430055516
20
0.379133273940198
30
0
41
1
10
66.9920955901076
20
0.382828110209175
30
0
0
SPLINE
5
DA
100
AcDbEntity
8
1
62
256
6
ByLayer
370
18
48
1
60
0
100
AcDbSpline
70
4
71
3
72
35
73
31
40
0
40
0
40
0
40
0
40
0.12499999999999
40
0.12499999999999
40
0.187499999999986
40
0.187499999999986
40
0.249999999999981
40
0.249999999999981
40
0.374999999999971
40
0.374999999999971
40
0.406249999999965
40
0.406249999999965
40
0.437499999999958
40
0.499999999999961
40
0.562499999999964
40
0.562499999999964
40
0.593749999999965
40
0.593749999999965
40
0.624999999999966
40
0.624999999999966
40
0.749999999999957
40
0.749999999999957
40
0.781249999999958
40
0.781249999999958
40
0.812499999999959
40
0.812499999999959
40
0.874999999999972
40
0.937499999999986
40
0.937499999999986
40
1
40
1
40
1
40
1
41
1
10
67.9988381506961
20
0.112705198550628
30
0
41
1
10
67.9825584260169
20
0.0652871255556136
30
0
41
1
10
67.9649181621864
20
0.0185155795122967
30
0
41
1
10
67.9364579664656
20
-0.0506666983538082
30
0
41
1
10
67.9265844543367
20
-0.0736730355609154
30
0
41
1
10
67.9065596234327
20
-0.118445154620502
30
0
41
1
10
67.896380272545
20
-0.140288953500175
30
0
41
1
10
67.8653809038191
20
-0.20420506057502
30
0
41
1
10
67.844106365695
20
-0.24467972491118
30
0
41
1
10
67.8167871672394
20
-0.292404482832154
30
0
41
1
10
67.8112712198086
20
-0.301829203336411
30
0
41
1
10
67.8002946193325
20
-0.320163267058746
30
0
41
1
10
67.7838792642629
20
-0.346952145267465
30
0
41
1
10
67.7567731199546
20
-0.388090786427313
30
0
41
1
10
67.7353605871298
20
-0.417260311710066
30
0
41
1
10
67.7194010069478
20
-0.437690126471182
30
0
41
1
10
67.7140977480385
20
-0.444258367605556
30
0
41
1
10
67.7035235772854
20
-0.456897822581027
30
0
41
1
10
67.698249049333
20
-0.462971211494676
30
0
41
1
10
67.6722951390025
20
-0.491690895917799
30
0
41
1
10
67.6525889660562
20
-0.509784143607817
30
0
41
1
10
67.6291121596754
20
-0.526385085082694
30
0
41
1
10
67.6244749027833
20
-0.529401630324685
30
0
41
1
10
67.6153135922901
20
-0.534818170688084
30
0
41
1
10
67.6107761565177
20
-0.537223950541176
30
0
41
1
10
67.5974427291034
20
-0.543445431758755
30
0
41
1
10
67.5804262270617
20
-0.549099265881722
30
0
41
1
10
67.5647820505279
20
-0.549689630387718
30
0
41
1
10
67.5497681180411
20
-0.547786528191551
30
0
41
1
10
67.5425651871242
20
-0.545582359947758
30
0
41
1
10
67.5356806079366
20
-0.542130749432346
30
0
0
SPLINE
5
DB
100
AcDbEntity
8
1
62
256
6
ByLayer
370
18
48
1
60
0
100
AcDbSpline
70
4
71
3
72
97
73
93
40
0
40
0
40
0
40
0
40
0.0312500000000066
40
0.0312500000000066
40
0.0468750000000093
40
0.0468750000000093
40
0.0625000000000121
40
0.0625000000000121
40
0.0937500000000175
40
0.0937500000000175
40
0.109375000000019
40
0.109375000000019
40
0.125000000000021
40
0.140625000000023
40
0.140625000000023
40
0.156250000000025
40
0.156250000000025
40
0.187500000000024
40
0.187500000000024
40
0.203125000000023
40
0.203125000000023
40
0.218750000000023
40
0.234375000000022
40
0.234375000000022
40
0.250000000000022
40
0.250000000000022
40
0.281250000000021
40
0.281250000000021
40
0.296875000000021
40
0.296875000000021
40
0.31250000000002
40
0.31250000000002
40
0.34375000000002
40
0.34375000000002
40
0.375000000000019
40
0.375000000000019
40
0.390625000000021
40
0.390625000000021
40
0.406250000000024
40
0.406250000000024
40
0.437500000000028
40
0.437500000000028
40
0.453125000000028
40
0.453125000000028
40
0.468750000000028
40
0.468750000000028
40
0.500000000000029
40
0.500000000000029
40
0.531250000000029
40
0.531250000000029
40
0.546875000000028
40
0.546875000000028
40
0.562500000000027
40
0.562500000000027
40
0.593750000000023
40
0.593750000000023
40
0.609375000000021
40
0.609375000000021
40
0.625000000000019
40
0.625000000000019
40
0.656250000000015
40
0.656250000000015
40
0.687500000000012
40
0.687500000000012
40
0.70312500000001
40
0.70312500000001
40
0.718750000000008
40
0.718750000000008
40
0.750000000000004
40
0.750000000000004
40
0.765625000000002
40
0.765625000000002
40
0.781250000000001
40
0.796874999999999
40
0.796874999999999
40
0.812499999999997
40
0.812499999999997
40
0.843749999999993
40
0.843749999999993
40
0.859374999999991
40
0.859374999999991
40
0.874999999999989
40
0.874999999999989
40
0.906249999999992
40
0.906249999999992
40
0.937499999999995
40
0.937499999999995
40
0.968749999999998
40
0.968749999999998
40
0.984374999999999
40
0.984374999999999
40
1
40
1
40
1
40
1
41
1
10
67.5356806079365
20
-0.542130749432658
30
0
41
1
10
67.5391592169518
20
-0.554128105902322
30
0
41
1
10
67.541766257542
20
-0.567886172207551
30
0
41
1
10
67.5441840468297
20
-0.591503865882203
30
0
41
1
10
67.544736712962
20
-0.599908688737287
30
0
41
1
10
67.5452871162955
20
-0.617326695064861
30
0
41
1
10
67.545291743229
20
-0.626386807444163
30
0
41
1
10
67.5444906307758
20
-0.654629362039202
30
0
41
1
10
67.54287705003
20
-0.674862803609415
30
0
41
1
10
67.5387096111209
20
-0.70753525758164
30
0
41
1
10
67.5370356621246
20
-0.718728509133541
30
0
41
1
10
67.5331943896813
20
-0.741313684110054
30
0
41
1
10
67.5288451818857
20
-0.764215741444445
30
0
41
1
10
67.5235088481566
20
-0.787750014252651
30
0
41
1
10
67.5176811059973
20
-0.81160857902006
30
0
41
1
10
67.5145121271227
20
-0.823723966154603
30
0
41
1
10
67.5045204547774
20
-0.85967802953661
30
0
41
1
10
67.4971509525037
20
-0.883418891327466
30
0
41
1
10
67.4851488122521
20
-0.918723299898801
30
0
41
1
10
67.4809751170565
20
-0.930472502634956
30
0
41
1
10
67.4724940343084
20
-0.953401460709216
30
0
41
1
10
67.463842345072
20
-0.975875746841524
30
0
41
1
10
67.4548829211317
20
-0.997489178468669
30
0
41
1
10
67.4457804340793
20
-1.01868368694878
30
0
41
1
10
67.44113614064
20
-1.02911693427058
30
0
41
1
10
67.4271956652346
20
-1.05936453388804
30
0
41
1
10
67.4178866280835
20
-1.07816772245468
30
0
41
1
10
67.4039238924925
20
-1.1044850077387
30
0
41
1
10
67.3992695486698
20
-1.11294054489673
30
0
41
1
10
67.3899621336387
20
-1.12921854835324
30
0
41
1
10
67.3853238373272
20
-1.13701333766622
30
0
41
1
10
67.3715750822748
20
-1.15918371308959
30
0
41
1
10
67.3625415665516
20
-1.17248026109712
30
0
41
1
10
67.3452328531582
20
-1.19548614645228
30
0
41
1
10
67.3369023699616
20
-1.20529378732522
30
0
41
1
10
67.3248536151892
20
-1.21751117182276
30
0
41
1
10
67.3209121516146
20
-1.22116568163389
30
0
41
1
10
67.3131755841262
20
-1.22761952013727
30
0
41
1
10
67.3093697337061
20
-1.23042293148777
30
0
41
1
10
67.2983522730884
20
-1.23739328460178
30
0
41
1
10
67.2914812835671
20
-1.24018675663888
30
0
41
1
10
67.2818312619352
20
-1.24161093670517
30
0
41
1
10
67.278724547448
20
-1.24162229659154
30
0
41
1
10
67.2727284217335
20
-1.24069101672637
30
0
41
1
10
67.269829672167
20
-1.23974329474544
30
0
41
1
10
67.2615267177721
20
-1.23543015697174
30
0
41
1
10
67.2565800928256
20
-1.2306562815007
30
0
41
1
10
67.2477918103731
20
-1.21731956407419
30
0
41
1
10
67.2439496622405
20
-1.2087592988444
30
0
41
1
10
67.2390451868173
20
-1.19282059081846
30
0
41
1
10
67.237566290072
20
-1.18701700435031
30
0
41
1
10
67.234956292776
20
-1.17458962607529
30
0
41
1
10
67.2338181748084
20
-1.16794398069717
30
0
41
1
10
67.2309025446415
20
-1.14670122562205
30
0
41
1
10
67.2296178219227
20
-1.13081133815632
30
0
41
1
10
67.2287670783483
20
-1.10413768320274
30
0
41
1
10
67.2286679568319
20
-1.09479628738245
30
0
41
1
10
67.2288463664041
20
-1.07558532875313
30
0
41
1
10
67.2291218825968
20
-1.06566599166061
30
0
41
1
10
67.2305161801228
20
-1.03496317419217
30
0
41
1
10
67.2322003757289
20
-1.01319771898076
30
0
41
1
10
67.2372533559038
20
-0.967127088855733
30
0
41
1
10
67.2405334536693
20
-0.943618104352282
30
0
41
1
10
67.2466195874936
20
-0.907672850979196
30
0
41
1
10
67.248844040866
20
-0.895576691071739
30
0
41
1
10
67.2537083712405
20
-0.871150911954288
30
0
41
1
10
67.2563490786615
20
-0.858832420986602
30
0
41
1
10
67.264717034925
20
-0.822438003950509
30
0
41
1
10
67.2709448336989
20
-0.798612939888443
30
0
41
1
10
67.2813029087819
20
-0.763531987897267
30
0
41
1
10
67.2849424019485
20
-0.751904501477611
30
0
41
1
10
67.2924174373054
20
-0.729350830394679
30
0
41
1
10
67.3001170028113
20
-0.707391129990754
30
0
41
1
10
67.3082610373598
20
-0.686569928760065
30
0
41
1
10
67.3166290120101
20
-0.666307972331111
30
0
41
1
10
67.3209459837812
20
-0.656412343894175
30
0
41
1
10
67.3340633621998
20
-0.627945762096601
30
0
41
1
10
67.3430100267412
20
-0.610601911917996
30
0
41
1
10
67.3567177631663
20
-0.586826806749173
30
0
41
1
10
67.3613350672211
20
-0.579277749905884
30
0
41
1
10
67.370664374718
20
-0.564923663288653
30
0
41
1
10
67.3753483059515
20
-0.558164364802053
30
0
41
1
10
67.389326478438
20
-0.539258569520399
30
0
41
1
10
67.3986010128602
20
-0.528392380904961
30
0
41
1
10
67.4170373788832
20
-0.509946744313169
30
0
41
1
10
67.4262492853471
20
-0.502353666425989
30
0
41
1
10
67.4440011911462
20
-0.490817813968107
30
0
41
1
10
67.4525980391115
20
-0.486801608794508
30
0
41
1
10
67.4650390007799
20
-0.483361845587893
30
0
41
1
10
67.469109833107
20
-0.482648353696192
30
0
41
1
10
67.477087403067
20
-0.482109629134953
30
0
41
1
10
67.4809935018091
20
-0.482289350465948
30
0
41
1
10
67.4847483396201
20
-0.482914740712971
30
0
0
SPLINE
5
DC
100
AcDbEntity
8
1
62
256
6
ByLayer
370
18
48
1
60
0
100
AcDbSpline
70
4
71
3
72
12
73
8
40
0
40
0
40
0
40
0
40
0.250000000000001
40
0.250000000000001
40
0.500000000000001
40
0.500000000000001
40
1
40
1
40
1
40
1
41
1
10
67.4847483396204
20
-0.482914740712061
30
0
41
1
10
67.4805051099026
20
-0.47421256729902
30
0
41
1
10
67.4765003796974
20
-0.464696323974692
30
0
41
1
10
67.4690314126958
20
-0.444356920131952
30
0
41
1
10
67.465551193842
20
-0.433502860179175
30
0
41
1
10
67.4558116175494
20
-0.398980484599804
30
0
41
1
10
67.4502484325773
20
-0.373361117212909
30
0
41
1
10
67.4455202157571
20
-0.345257011841625
30
0
0
SPLINE
5
DD
100
AcDbEntity
8
1
62
256
6
ByLayer
370
18
48
1
60
0
100
AcDbSpline
70
4
71
3
72
8
73
4
40
0
40
0
40
0
40
0
40
1
40
1
40
1
40
1
41
1
10
67.4455202157571
20
-0.34525701184171
30
0
41
1
10
67.4134699879833
20
-0.154753273796672
30
0
41
1
10
67.3720609555418
20
0.0402071230139427
30
0
41
1
10
67.3213664610139
20
0.239589252884542
30
0
0
SPLINE
5
DE
100
AcDbEntity
8
1
62
256
6
ByLayer
370
18
48
1
60
0
100
AcDbSpline
70
4
71
3
72
18
73
14
40
0
40
0
40
0
40
0
40
0.124999999999992
40
0.124999999999992
40
0.249999999999984
40
0.249999999999984
40
0.374999999999976
40
0.374999999999976
40
0.499999999999968
40
0.499999999999968
40
0.749999999999984
40
0.749999999999984
40
1
40
1
40
1
40
1
41
1
10
67.3213664610139
20
0.239589252884542
30
0
41
1
10
67.3126127369943
20
0.23723579033151
30
0
41
1
10
67.3037799203125
20
0.234329784020588
30
0
41
1
10
67.2861352068444
20
0.227552976533417
30
0
41
1
10
67.2773046760377
20
0.223661238848877
30
0
41
1
10
67.2596490278025
20
0.215058326102849
30
0
41
1
10
67.25082610449
20
0.210392696570864
30
0
41
1
10
67.2332132854643
20
0.200696253491742
30
0
41
1
10
67.22442290723
20
0.195666670495342
30
0
41
1
10
67.1980908734031
20
0.179518971657018
30
0
41
1
10
67.1805855810046
20
0.167235628704446
30
0
41
1
10
67.1457538157482
20
0.139625147924875
30
0
41
1
10
67.1284284096483
20
0.124325547056799
30
0
41
1
10
67.1112326812771
20
0.107644353769047
30
0
0
SPLINE
5
DF
100
AcDbEntity
8
1
62
256
6
ByLayer
370
18
48
1
60
0
100
AcDbSpline
70
4
71
3
72
12
73
8
40
0
40
0
40
0
40
0
40
0.500000000000001
40
0.500000000000001
40
0.75
40
0.75
40
1
40
1
40
1
40
1
41
1
10
67.2218702440797
20
-2.15942037070155
30
0
41
1
10
67.2045695297277
20
-2.1852490530967
30
0
41
1
10
67.1884701134339
20
-2.20749606963585
30
0
41
1
10
67.1661794459793
20
-2.23465524220433
30
0
41
1
10
67.15916810283
20
-2.24253360744106
30
0
41
1
10
67.1459999484798
20
-2.2559033910664
30
0
41
1
10
67.1398294874789
20
-2.2614115440625
30
0
41
1
10
67.1340413167958
20
-2.26576680440391
30
0
0
SPLINE
5
E0
100
AcDbEntity
8
1
62
256
6
ByLayer
370
18
48
1
60
0
100
AcDbSpline
70
4
71
3
72
28
73
24
40
0
40
0
40
0
40
0
40
0.125000000000015
40
0.125000000000015
40
0.250000000000031
40
0.250000000000031
40
0.312500000000034
40
0.312500000000034
40
0.343750000000031
40
0.343750000000031
40
0.375000000000027
40
0.375000000000027
40
0.500000000000024
40
0.500000000000024
40
0.62500000000002
40
0.62500000000002
40
0.687500000000013
40
0.687500000000013
40
0.750000000000006
40
0.750000000000006
40
0.875000000000003
40
0.875000000000003
40
1
40
1
40
1
40
1
41
1
10
67.2218702440788
20
-2.15942037070209
30
0
41
1
10
67.2413242756716
20
-2.1024824567709
30
0
41
1
10
67.2608214565945
20
-2.04542830389971
30
0
41
1
10
67.299936889953
20
-1.93112332671035
30
0
41
1
10
67.3195576347721
20
-1.87386417661827
30
0
41
1
10
67.3490202221154
20
-1.78806703512367
30
0
41
1
10
67.3588494845591
20
-1.7594737551027
30
0
41
1
10
67.3736081177137
20
-1.7165930031405
30
0
41
1
10
67.3785320656443
20
-1.70230185577603
30
0
41
1
10
67.3884535822751
20
-1.67375376465048
30
0
41
1
10
67.3934396390453
20
-1.65949155959825
30
0
41
1
10
67.4185119509334
20
-1.58824607090082
30
0
41
1
10
67.4390285408447
20
-1.53146136058163
30
0
41
1
10
67.4812673837553
20
-1.41842645381973
30
0
41
1
10
67.5029878519081
20
-1.36217544051749
30
0
41
1
10
67.536682864272
20
-1.27827988873338
30
0
41
1
10
67.5481005317914
20
-1.25039498560923
30
0
41
1
10
67.571344818219
20
-1.194799906269
30
0
41
1
10
67.5831869501947
20
-1.16705819412201
30
0
41
1
10
67.6189401101833
20
-1.08508289053634
30
0
41
1
10
67.6432117768774
20
-1.03177381743359
30
0
41
1
10
67.6927576079821
20
-0.927757067048475
30
0
41
1
10
67.7180329346672
20
-0.877056904965173
30
0
41
1
10
67.7438782433935
20
-0.827690706667227
30
0
0
SPLINE
5
E1
100
AcDbEntity
8
1
62
256
6
ByLayer
370
18
48
1
60
0
100
AcDbSpline
70
4
71
3
72
8
73
4
40
0
40
0
40
0
40
0
40
1
40
1
40
1
40
1
41
1
10
67.7438782433928
20
-0.827690706667994
30
0
41
1
10
67.810439293821
20
-0.642267960853417
30
0
41
1
10
67.8764238642082
20
-0.45664218506073
30
0
41
1
10
67.9418197515309
20
-0.270809081518337
30
0
0
SPLINE
5
E2
100
AcDbEntity
8
1
62
256
6
ByLayer
370
18
48
1
60
0
100
AcDbSpline
70
4
71
3
72
8
73
4
40
0
40
0
40
0
40
0
40
1
40
1
40
1
40
1
41
1
10
67.9418197515308
20
-0.270809081518337
30
0
41
1
10
67.9604417726787
20
-0.217891564441913
30
0
41
1
10
67.9794457322283
20
-0.165191883414138
30
0
41
1
10
67.9988381506996
20
-0.112705198562566
30
0
0
SPLINE
5
E3
100
AcDbEntity
8
1
62
256
6
ByLayer
370
18
48
1
60
0
100
AcDbSpline
70
4
71
3
72
8
73
4
40
0
40
0
40
0
40
0
40
1
40
1
40
1
40
1
41
1
10
67.9988381507001
20
0.1127051985533
30
0
41
1
10
68.000385385314
20
0.0376604469062727
30
0
41
1
10
68.0003891855479
20
-0.0374761260504215
30
0
41
1
10
67.9988381506998
20
-0.112705198562338
30
0
0
SPLINE
5
E4
100
AcDbEntity
8
1
62
256
6
ByLayer
370
18
48
1
60
0
100
AcDbSpline
70
4
71
3
72
34
73
30
40
0
40
0
40
0
40
0
40
0.328403270218705
40
0.328403270218705
40
0.552238870800581
40
0.552238870800581
40
0.701639175947331
40
0.701639175947331
40
0.801406298750095
40
0.801406298750095
40
0.868152408141616
40
0.868152408141616
40
0.912914755295694
40
0.912914755295694
40
0.942754332042921
40
0.942754332042921
40
0.962483877871388
40
0.962483877871388
40
0.975516782648453
40
0.975516782648453
40
0.984123560294733
40
0.984123560294733
40
0.989985581536797
40
0.989985581536797
40
0.996115566961735
40
0.996115566961735
40
0.9988609373312
40
0.9988609373312
40
1
40
1
40
1
40
1
41
1
10
67.080337274429
20
-2.39991021672932
30
0
41
1
10
67.0872647057094
20
-2.388547928202
30
0
41
1
10
67.0941946736075
20
-2.3771600856289
30
0
41
1
10
67.1058611320619
20
-2.35794825998769
30
0
41
1
10
67.1105935372132
20
-2.35014394207297
30
0
41
1
10
67.1184933186594
20
-2.3370965215058
30
0
41
1
10
67.1216585652677
20
-2.33186308932915
30
0
41
1
10
67.1269393075917
20
-2.32312444656748
30
0
41
1
10
67.129054391755
20
-2.31962235206296
30
0
41
1
10
67.1325712634586
20
-2.31380315520673
30
0
41
1
10
67.1339768146444
20
-2.31147897312047
30
0
41
1
10
67.1363040913961
20
-2.30763914628125
30
0
41
1
10
67.1372315906026
20
-2.30611167957292
30
0
41
1
10
67.1387943542802
20
-2.30352904330775
30
0
41
1
10
67.1394242414441
20
-2.30248568327076
30
0
41
1
10
67.140481843157
20
-2.3007274009185
30
0
41
1
10
67.1409058819118
20
-2.30002077427099
30
0
41
1
10
67.1416146608699
20
-2.2988366530968
30
0
41
1
10
67.1418979203705
20
-2.29836263986238
30
0
41
1
10
67.1423700373051
20
-2.29757131713984
30
0
41
1
10
67.1425582916498
20
-2.29725549758854
30
0
41
1
10
67.1428716074495
20
-2.29673180317224
30
0
41
1
10
67.1429978973026
20
-2.29652122592955
30
0
41
1
10
67.143249600216
20
-2.29610443526099
30
0
41
1
10
67.1433772284682
20
-2.2958944763534
30
0
41
1
10
67.1435395853884
20
-2.29563430259333
30
0
41
1
10
67.1435871722208
20
-2.2955592340829
30
0
41
1
10
67.1436425145056
20
-2.29547514496977
30
0
41
1
10
67.143657350195
20
-2.29545308747603
30
0
41
1
10
67.1436701695915
20
-2.29543466921319
30
0
0
SPLINE
5
E5
100
AcDbEntity
8
1
62
256
6
ByLayer
370
18
48
1
60
0
100
AcDbSpline
70
4
71
3
72
58
73
54
40
0
40
0
40
0
40
0
40
0.034193545579542
40
0.034193545579542
40
0.0876209106828528
40
0.0876209106828528
40
0.141048275786164
40
0.141048275786164
40
0.167761958337819
40
0.167761958337819
40
0.181118799613647
40
0.181118799613647
40
0.194475640889474
40
0.194475640889474
40
0.221189323441132
40
0.221189323441132
40
0.24790300599279
40
0.24790300599279
40
0.301330371096106
40
0.301330371096106
40
0.354757736199422
40
0.354757736199422
40
0.408185101302738
40
0.408185101302738
40
0.461612466406054
40
0.461612466406054
40
0.48832614895771
40
0.48832614895771
40
0.501682990233537
40
0.501682990233537
40
0.515039831509364
40
0.515039831509364
40
0.568467196612668
40
0.568467196612668
40
0.621894561715971
40
0.621894561715971
40
0.675321926819274
40
0.675321926819274
40
0.728749291922577
40
0.728749291922577
40
0.78217665702588
40
0.78217665702588
40
0.808890339577532
40
0.808890339577532
40
0.835604022129183
40
0.835604022129183
40
0.889031387232486
40
0.889031387232486
40
0.942458752335789
40
0.942458752335789
40
0.995886117439092
40
0.995886117439092
40
1
40
1
40
1
40
1
41
1
10
60.3721205524232
20
-0.663610810283757
30
0
41
1
10
60.218578996657
20
-0.598743947589071
30
0
41
1
10
60.0650917364297
20
-0.532999584719164
30
0
41
1
10
59.6716248345792
20
-0.362948180249902
30
0
41
1
10
59.4315462126526
20
-0.257784406091929
30
0
41
1
10
58.9504781533793
20
-0.045953792396773
30
0
41
1
10
58.709463159946
20
0.0606615844701821
30
0
41
1
10
58.3465894531838
20
0.220202331524945
30
0
41
1
10
58.2254180905908
20
0.273340111878753
30
0
41
1
10
58.043289126881
20
0.35286164647772
30
0
41
1
10
57.9824891014374
20
0.379345181926993
30
0
41
1
10
57.860863208374
20
0.432161530689029
30
0
41
1
10
57.8001215413903
20
0.458458792857925
30
0
41
1
10
57.6180927267304
20
0.536971079664369
30
0
41
1
10
57.4970033712033
20
0.588805877785404
30
0
41
1
10
57.2552428422961
20
0.691212747035621
30
0
41
1
10
57.1345663067502
20
0.741776330417451
30
0
41
1
10
56.7730534056942
20
0.891461643522518
30
0
41
1
10
56.532723107195
20
0.988520512620369
30
0
41
1
10
56.0525899160614
20
1.17539067936829
30
0
41
1
10
55.8127787814153
20
1.26518408091584
30
0
41
1
10
55.333107922843
20
1.43629339619022
30
0
41
1
10
55.0932088866796
20
1.51756688550785
30
0
41
1
10
54.6124273304548
20
1.6700015653403
30
0
41
1
10
54.3716084859276
20
1.74132698259527
30
0
41
1
10
54.0091799098369
20
1.83999206895444
30
0
41
1
10
53.8881671064095
20
1.87148439631042
30
0
41
1
10
53.7062611759884
20
1.91647649834425
30
0
41
1
10
53.6455606170691
20
1.93109783084702
30
0
41
1
10
53.5240215007079
20
1.95957851408338
30
0
41
1
10
53.4631635618185
20
1.97344425804414
30
0
41
1
10
53.1594420534591
20
2.04065404067904
30
0
41
1
10
52.9175836593321
20
2.08774226172119
30
0
41
1
10
52.4352680318617
20
2.16772252065556
30
0
41
1
10
52.1947840857533
20
2.2006510080885
30
0
41
1
10
51.7145481123991
20
2.25239187961245
30
0
41
1
10
51.4747756712233
20
2.2711487379558
30
0
41
1
10
50.9950973856162
20
2.29388305451474
30
0
41
1
10
50.755245856622
20
2.29791272903168
30
0
41
1
10
50.2747593645552
20
2.29142143526772
30
0
41
1
10
50.0340871368759
20
2.28083151624853
30
0
41
1
10
49.6719393291325
20
2.25402972239252
30
0
41
1
10
49.5510447140525
20
2.24328921566629
30
0
41
1
10
49.308781955605
20
2.21814802944562
30
0
41
1
10
49.1873616154728
20
2.20374377347434
30
0
41
1
10
48.8225727260325
20
2.15503366784804
30
0
41
1
10
48.5804934184532
20
2.11545486564953
30
0
41
1
10
48.0978813927111
20
2.02330691179335
30
0
41
1
10
47.8573347408369
20
1.97070828227888
30
0
41
1
10
47.3769363219777
20
1.85347605249748
30
0
41
1
10
47.1371420248613
20
1.78876283021307
30
0
41
1
10
46.8789254260964
20
1.71301193675524
30
0
41
1
10
46.8604642814837
20
1.70756350609818
30
0
41
1
10
46.8420028951335
20
1.70208273685463
30
0
0
SPLINE
5
E6
100
AcDbEntity
8
1
62
256
6
ByLayer
370
18
48
1
60
0
100
AcDbSpline
70
4
71
3
72
17
73
13
40
0
40
0
40
0
40
0
40
0.250000000000065
40
0.250000000000065
40
0.50000000000013
40
0.50000000000013
40
0.625000000000097
40
0.625000000000097
40
0.750000000000065
40
0.875000000000032
40
0.875000000000032
40
1
40
1
40
1
40
1
41
1
10
44.0607339046283
20
-0.397557998533699
30
0
41
1
10
44.0503516329531
20
-0.394402562925677
30
0
41
1
10
44.0415219898927
20
-0.390299629337505
30
0
41
1
10
44.0261800417224
20
-0.380646753413913
30
0
41
1
10
44.0200357952186
20
-0.375309242978659
30
0
41
1
10
44.0126532486738
20
-0.366747936357001
30
0
41
1
10
44.0104917517538
20
-0.363777914487827
30
0
41
1
10
44.0068299181962
20
-0.357755651224949
30
0
41
1
10
44.0038157700981
20
-0.351648222014802
30
0
41
1
10
44.0020090786957
20
-0.345378653040143
30
0
41
1
10
44.0007981032457
20
-0.339028132018626
30
0
41
1
10
44.0004932811157
20
-0.335784891941444
30
0
41
1
10
44.0004932811157
20
-0.332599746993026
30
0
0
SPLINE
5
E7
100
AcDbEntity
8
1
62
256
6
ByLayer
370
13
48
1
60
0
100
AcDbSpline
70
4
71
3
72
10
73
6
40
0
40
0
40
0
40
0
40
0.5
40
0.5
40
1
40
1
40
1
40
1
41
1
10
44.1007671786028
20
-0.411303297158781
30
0
41
1
10
44.0938728252199
20
-0.408677774649931
30
0
41
1
10
44.0870877111795
20
-0.406225341995537
30
0
41
1
10
44.0737335035389
20
-0.401642560392389
30
0
41
1
10
44.067127789526
20
-0.399501262274271
30
0
41
1
10
44.060733904628
20
-0.397557998534751
30
0
0
SPLINE
5
E8
100
AcDbEntity
8
1
62
256
6
ByLayer
370
18
48
1
60
0
100
AcDbSpline
70
4
71
3
72
24
73
20
40
0
40
0
40
0
40
0
40
0.125000000000028
40
0.125000000000028
40
0.250000000000056
40
0.250000000000056
40
0.500000000000114
40
0.500000000000114
40
0.625000000000083
40
0.625000000000083
40
0.687500000000069
40
0.687500000000069
40
0.750000000000055
40
0.750000000000055
40
0.812500000000042
40
0.812500000000042
40
0.875000000000028
40
0.875000000000028
40
1
40
1
40
1
40
1
41
1
10
44.0004932811157
20
2.12243232753664
30
0
41
1
10
44.0004932811156
20
2.11927732707122
30
0
41
1
10
44.0010032724643
20
2.11608673328052
30
0
41
1
10
44.0030309964112
20
2.10978329000258
30
0
41
1
10
44.0045474034501
20
2.10664807518558
30
0
41
1
10
44.0107266209856
20
2.09730087763305
30
0
41
1
10
44.0167856119064
20
2.09139005937215
30
0
41
1
10
44.0295032905196
20
2.08317682190798
30
0
41
1
10
44.0343160294621
20
2.08059099161659
30
0
41
1
10
44.0423491168984
20
2.07708036052546
30
0
41
1
10
44.045170735058
20
2.07596710581379
30
0
41
1
10
44.051136208579
20
2.07386956019968
30
0
41
1
10
44.0542937501848
20
2.07288285306507
30
0
41
1
10
44.0608070004468
20
2.07110433359782
30
0
41
1
10
44.064178475608
20
2.07030597305697
30
0
41
1
10
44.0711701320304
20
2.06890739111523
30
0
41
1
10
44.0748204332113
20
2.06830365220344
30
0
41
1
10
44.0859372770848
20
2.06685961774443
30
0
41
1
10
44.0935348942354
20
2.06637627209537
30
0
41
1
10
44.1013344851922
20
2.06641418049958
30
0
0
SPLINE
5
E9
100
AcDbEntity
8
1
62
256
6
ByLayer
370
13
48
1
60
0
100
AcDbSpline
70
4
71
3
72
10
73
6
40
0
40
0
40
0
40
0
40
0.5
40
0.5
40
1
40
1
40
1
40
1
41
1
10
44.1367065226528
20
2.06376723698838
30
0
41
1
10
44.1310999456378
20
2.06467629756122
30
0
41
1
10
44.1253428585579
20
2.06534475976039
30
0
41
1
10
44.1135401379481
20
2.06622815759255
30
0
41
1
10
44.1074513395806
20
2.06644195129681
30
0
41
1
10
44.1013344851922
20
2.06641418049958
30
0
0
SPLINE
5
EA
100
AcDbEntity
8
1
62
256
6
ByLayer
370
13
48
1
60
0
100
AcDbSpline
70
4
71
3
72
41
73
37
40
0
40
0
40
0
40
0
40
0.0625000000000001
40
0.0625000000000001
40
0.0937500000000002
40
0.0937500000000002
40
0.125
40
0.125
40
0.25
40
0.25
40
0.3125
40
0.3125
40
0.34375
40
0.34375
40
0.375
40
0.375
40
0.4375
40
0.46875
40
0.46875
40
0.5
40
0.5
40
0.625
40
0.625
40
0.6875
40
0.6875
40
0.71875
40
0.71875
40
0.75
40
0.75
40
0.875
40
0.875
40
0.9375
40
0.9375
40
0.96875
40
0.96875
40
1
40
1
40
1
40
1
41
1
10
44.1013344851922
20
2.06641418049958
30
0
41
1
10
44.1013301875633
20
2.04178249943115
30
0
41
1
10
44.1013252158551
20
2.01468873486638
30
0
41
1
10
44.1013168037966
20
1.9703681565899
30
0
41
1
10
44.1013138353202
20
1.95495474228815
30
0
41
1
10
44.1013076118962
20
1.92302884750166
30
0
41
1
10
44.1013043596838
20
1.90652960820276
30
0
41
1
10
44.101287424437
20
1.8213984406913
30
0
41
1
10
44.1012717434199
20
1.7449179199306
30
0
41
1
10
44.1012452570149
20
1.61782392357401
30
0
41
1
10
44.1012359292659
20
1.57338607446911
30
0
41
1
10
44.1012211749074
20
1.50354137438811
30
0
41
1
10
44.101216119162
20
1.47967986060806
30
0
41
1
10
44.1012058056707
20
1.43114835888338
30
0
41
1
10
44.1012005494416
20
1.4064851673875
30
0
41
1
10
44.1011844818414
20
1.33131353617111
30
0
41
1
10
44.1011678180318
20
1.25378098414004
30
0
41
1
10
44.1011502276272
20
1.17270957137845
30
0
41
1
10
44.10113828708
20
1.11786774708329
30
0
41
1
10
44.1011322017647
20
1.09001202545102
30
0
41
1
10
44.1011014510753
20
0.949777834835572
30
0
41
1
10
44.1010756805166
20
0.833871989242112
30
0
41
1
10
44.1010349304692
20
0.654607932505485
30
0
41
1
10
44.1010209950524
20
0.593947402460799
30
0
41
1
10
44.1009994915523
20
0.501574989056081
30
0
41
1
10
44.1009922234342
20
0.470553606219852
30
0
41
1
10
44.1009774716532
20
0.408041965666285
30
0
41
1
10
44.1009699786143
20
0.376513699941
30
0
41
1
10
44.1009322966101
20
0.219186342049966
30
0
41
1
10
44.1009012034221
20
0.0932126788364371
30
0
41
1
10
44.1008525904292
20
-0.0959104740601049
30
0
41
1
10
44.1008360557809
20
-0.158978783670705
30
0
41
1
10
44.100810672652
20
-0.253622846273629
30
0
41
1
10
44.1008021146135
20
-0.285177809475869
30
0
41
1
10
44.1007847883857
20
-0.348301856907312
30
0
41
1
10
44.1007760169217
20
-0.379881404481807
30
0
41
1
10
44.1007671786029
20
-0.41130329715881
30
0
0
SPLINE
5
EB
100
AcDbEntity
8
1
62
256
6
ByLayer
370
18
48
1
60
0
100
AcDbSpline
70
4
71
3
72
8
73
4
40
0
40
0
40
0
40
0
40
1
40
1
40
1
40
1
41
1
10
67.1354804916324
20
-2.26827751565864
30
0
41
1
10
67.1350005362469
20
-2.26748078468151
30
0
41
1
10
67.134520819804
20
-2.26664386100123
30
0
41
1
10
67.1340413167957
20
-2.26576680440425
30
0
0
SPLINE
5
EC
100
AcDbEntity
8
1
62
256
6
ByLayer
370
18
48
1
60
0
100
AcDbSpline
70
4
71
3
72
38
73
34
40
0
40
0
40
0
40
0
40
0.125
40
0.125
40
0.187499999999999
40
0.187499999999999
40
0.218749999999999
40
0.218749999999999
40
0.249999999999999
40
0.249999999999999
40
0.374999999999999
40
0.374999999999999
40
0.437499999999999
40
0.437499999999999
40
0.468749999999999
40
0.468749999999999
40
0.499999999999999
40
0.499999999999999
40
0.624999999999999
40
0.624999999999999
40
0.687499999999998
40
0.687499999999998
40
0.718749999999998
40
0.718749999999998
40
0.749999999999998
40
0.749999999999998
40
0.874999999999998
40
0.874999999999998
40
0.937499999999998
40
0.937499999999998
40
0.968749999999999
40
0.968749999999999
40
1
40
1
40
1
40
1
41
1
10
67.1111114948953
20
-0.228439043712171
30
0
41
1
10
67.0965442010861
20
-0.357355084021577
30
0
41
1
10
67.0856829243438
20
-0.483660866446229
30
0
41
1
10
67.0731688297356
20
-0.66919888427114
30
0
41
1
10
67.06963442548
20
-0.730388389837373
30
0
41
1
10
67.0651230096136
20
-0.821158956910892
30
0
41
1
10
67.0637512580348
20
-0.851246662615182
30
0
41
1
10
67.0612484627508
20
-0.91107636401415
30
0
41
1
10
67.0601151030654
20
-0.940889127594033
30
0
41
1
10
67.0550309477719
20
-1.08808380348532
30
0
41
1
10
67.0527848857281
20
-1.19961053383744
30
0
41
1
10
67.0511744133471
20
-1.35785688308212
30
0
41
1
10
67.0509389030793
20
-1.40909014483785
30
0
41
1
10
67.0509850202026
20
-1.48363075574815
30
0
41
1
10
67.0510674129142
20
-1.50809223603724
30
0
41
1
10
67.051363071999
20
-1.55623196770213
30
0
41
1
10
67.05157709159
20
-1.57995402881042
30
0
41
1
10
67.0529616300478
20
-1.69554045243996
30
0
41
1
10
67.0550375252335
20
-1.77907115789844
30
0
41
1
10
67.05983808366
20
-1.89138538040157
30
0
41
1
10
67.0617267527064
20
-1.92664778325093
30
0
41
1
10
67.0650905269787
20
-1.97622397013239
30
0
41
1
10
67.0663007400659
20
-1.99219572097763
30
0
41
1
10
67.0689217821056
20
-2.02301357399875
30
0
41
1
10
67.0703346431828
20
-2.03787041508636
30
0
41
1
10
67.0778895219436
20
-2.10861709364787
30
0
41
1
10
67.0855197637276
20
-2.15456852842019
30
0
41
1
10
67.1005664359155
20
-2.20805258630421
30
0
41
1
10
67.1061878124859
20
-2.22329296657352
30
0
41
1
10
67.1157388941115
20
-2.24221639697754
30
0
41
1
10
67.1191095305971
20
-2.24786718389467
30
0
41
1
10
67.1262655997009
20
-2.25783497605542
30
0
41
1
10
67.1300513269283
20
-2.26214773983622
30
0
41
1
10
67.1340413167958
20
-2.26576680440425
30
0
0
SPLINE
5
ED
100
AcDbEntity
8
1
62
256
6
ByLayer
370
18
48
1
60
0
100
AcDbSpline
70
4
71
3
72
34
73
30
40
0
40
0
40
0
40
0
40
0.099880146850876
40
0.099880146850876
40
0.199760293701753
40
0.199760293701753
40
0.299640440552629
40
0.299640440552629
40
0.399520587403506
40
0.399520587403506
40
0.499400734254382
40
0.499400734254382
40
0.599280881105259
40
0.599280881105259
40
0.649220954530697
40
0.649220954530697
40
0.699161027956136
40
0.699161027956136
40
0.749101101381573
40
0.749101101381573
40
0.799041174807012
40
0.799041174807012
40
0.898921321657883
40
0.898921321657883
40
0.948861395083319
40
0.948861395083319
40
0.998801468508755
40
0.998801468508755
40
1
40
1
40
1
40
1
41
1
10
44.1007671786028
20
-0.411303297158781
30
0
41
1
10
44.3429117600691
20
-0.513744917751467
30
0
41
1
10
44.5849026218485
20
-0.614748741605723
30
0
41
1
10
45.0692456872236
20
-0.812499779186055
30
0
41
1
10
45.3103265695025
20
-0.908713802594946
30
0
41
1
10
45.7909379019089
20
-1.0942967563567
30
0
41
1
10
46.0304805887565
20
-1.18367751475981
30
0
41
1
10
46.5087789963765
20
-1.35420808027172
30
0
41
1
10
46.7475728484401
20
-1.43531911244293
30
0
41
1
10
47.2250886005796
20
-1.58795747119711
30
0
41
1
10
47.4637945395812
20
-1.6595093597281
30
0
41
1
10
47.9417438258188
20
-1.79195087263074
30
0
41
1
10
48.1809915605876
20
-1.85285599250378
30
0
41
1
10
48.5408521937705
20
-1.93552497856757
30
0
41
1
10
48.6609692747315
20
-1.96161830050181
30
0
41
1
10
48.9016156522797
20
-2.01061191297973
30
0
41
1
10
49.022145777352
20
-2.03352897125961
30
0
41
1
10
49.2637139918392
20
-2.07616785157953
30
0
41
1
10
49.3848508809974
20
-2.09589347700501
30
0
41
1
10
49.6263399119935
20
-2.13180556724893
30
0
41
1
10
49.7468474717697
20
-2.14802103751339
30
0
41
1
10
50.1077740120767
20
-2.19136751913533
30
0
41
1
10
50.3476089302671
20
-2.21323692728763
30
0
41
1
10
50.7067981436721
20
-2.23561330319129
30
0
41
1
10
50.8264283581161
20
-2.2413131686406
30
0
41
1
10
51.0655465769745
20
-2.2490501158029
30
0
41
1
10
51.1850408167024
20
-2.25111490079902
30
0
41
1
10
51.3074008273695
20
-2.25146129119147
30
0
41
1
10
51.3102685653933
20
-2.25146840032093
30
0
41
1
10
51.3131362998535
20
-2.25147449910767
30
0
0
SPLINE
5
EE
100
AcDbEntity
8
1
62
256
6
ByLayer
370
18
48
1
60
0
100
AcDbSpline
70
4
71
3
72
36
73
32
40
0
40
0
40
0
40
0
40
0.0177889165008729
40
0.0177889165008729
40
0.126923481334111
40
0.126923481334111
40
0.18149076375073
40
0.18149076375073
40
0.208774404959037
40
0.208774404959037
40
0.236058046167344
40
0.236058046167344
40
0.290625328583963
40
0.290625328583963
40
0.345192611000582
40
0.345192611000582
40
0.454327175833815
40
0.454327175833815
40
0.563461740667048
40
0.563461740667048
40
0.618029023083667
40
0.618029023083667
40
0.672596305500286
40
0.672596305500286
40
0.781730870333524
40
0.781730870333524
40
0.890865435166762
40
0.890865435166762
40
0.945432717583381
40
0.945432717583381
40
1
40
1
40
1
40
1
41
1
10
50.7234155649308
20
-0.209833379594158
30
0
41
1
10
50.684514486923
20
-0.193084400872124
30
0
41
1
10
50.64560018625
20
-0.176329428755111
30
0
41
1
10
50.3678477351073
20
-0.056752455121341
30
0
41
1
10
50.128533728935
20
0.0463230152240612
30
0
41
1
10
49.7685761793577
20
0.201047370586906
30
0
41
1
10
49.6484298034793
20
0.2526537717834
30
0
41
1
10
49.4678945253857
20
0.329946112299297
30
0
41
1
10
49.4076630776296
20
0.355689465217324
30
0
41
1
10
49.287080065481
20
0.407102699614882
30
0
41
1
10
49.2267481629933
20
0.432764041891318
30
0
41
1
10
49.046117321154
20
0.509350290440352
30
0
41
1
10
48.9260215811464
20
0.559968095467298
30
0
41
1
10
48.6861285787015
20
0.659908113900059
30
0
41
1
10
48.5662965273762
20
0.709198184014497
30
0
41
1
10
48.2070966834149
20
0.854890217917898
30
0
41
1
10
47.9680815553593
20
0.949189990742184
30
0
41
1
10
47.4907772314997
20
1.13108069226112
30
0
41
1
10
47.2524947589352
20
1.21869697198409
30
0
41
1
10
46.8953437566678
20
1.34390786683099
30
0
41
1
10
46.7763581208103
20
1.38460347094193
30
0
41
1
10
46.5382438888939
20
1.46375412456612
30
0
41
1
10
46.4190855288557
20
1.50220920505063
30
0
41
1
10
46.0612061413829
20
1.61401565535957
30
0
41
1
10
45.822144089762
20
1.68381754343625
30
0
41
1
10
45.3425400596494
20
1.81283375840951
30
0
41
1
10
45.1019900796781
20
1.87209563984911
30
0
41
1
10
44.7396660288359
20
1.95165513519549
30
0
41
1
10
44.6189432102705
20
1.97655060202788
30
0
41
1
10
44.3777220600172
20
2.02283572554958
30
0
41
1
10
44.2571921754862
20
2.04423147456353
30
0
41
1
10
44.1367065226528
20
2.06376723698838
30
0
0
SPLINE
5
EF
100
AcDbEntity
8
1
62
256
6
ByLayer
370
18
48
1
60
0
100
AcDbSpline
70
4
71
3
72
34
73
30
40
0
40
0
40
0
40
0
40
0.0394313736840411
40
0.0394313736840411
40
0.0874598049998415
40
0.0874598049998415
40
0.135488236315642
40
0.135488236315642
40
0.231545098947239
40
0.231545098947239
40
0.279573530263035
40
0.279573530263035
40
0.32760196157883
40
0.32760196157883
40
0.375630392894626
40
0.375630392894626
40
0.423658824210422
40
0.423658824210422
40
0.519715686842019
40
0.519715686842019
40
0.615772549473615
40
0.615772549473615
40
0.711829412105211
40
0.711829412105211
40
0.807886274736807
40
0.807886274736807
40
0.903943137368404
40
0.903943137368404
40
1
40
1
40
1
40
1
41
1
10
51.5944589180434
20
-2.25814533510854
30
0
41
1
10
51.4963557936525
20
-2.26045566279979
30
0
41
1
10
51.3982652023893
20
-2.26153448106282
30
0
41
1
10
51.1806888089746
20
-2.26129640726933
30
0
41
1
10
51.0612059160931
20
-2.25943119275547
30
0
41
1
10
50.8221072230536
20
-2.25207699300691
30
0
41
1
10
50.7024853426614
20
-2.24656065483447
30
0
41
1
10
50.3433198799555
20
-2.22470745523557
30
0
41
1
10
50.1034977451904
20
-2.20314915519134
30
0
41
1
10
49.7425811489704
20
-2.1602169078997
30
0
41
1
10
49.6220755102635
20
-2.14413087915276
30
0
41
1
10
49.3805875878779
20
-2.10845799744064
30
0
41
1
10
49.2594488996494
20
-2.08884205624793
30
0
41
1
10
49.0178842826843
20
-2.04640135390858
30
0
41
1
10
48.8973583957199
20
-2.02357261098331
30
0
41
1
10
48.656721564626
20
-1.97473710515502
30
0
41
1
10
48.5366098493683
20
-1.94871365383432
30
0
41
1
10
48.1767704644288
20
-1.86622048083203
30
0
41
1
10
47.9375423616437
20
-1.80538855026097
30
0
41
1
10
47.4596343085225
20
-1.67301603920379
30
0
41
1
10
47.2209505729296
20
-1.60145933369421
30
0
41
1
10
46.7434813903174
20
-1.44872665014427
30
0
41
1
10
46.5047124729426
20
-1.36752468079277
30
0
41
1
10
46.0264549484444
20
-1.19672887936608
30
0
41
1
10
45.786929146334
20
-1.10717284323528
30
0
41
1
10
45.3063389822664
20
-0.921157041963227
30
0
41
1
10
45.0652621887144
20
-0.824685762542373
30
0
41
1
10
44.580914170683
20
-0.626329606717434
30
0
41
1
10
44.33892237854
20
-0.524983076438502
30
0
41
1
10
44.0967753891795
20
-0.422160236443204
30
0
0
SPLINE
5
F0
100
AcDbEntity
8
1
62
256
6
ByLayer
370
13
48
1
60
0
100
AcDbSpline
70
4
71
3
72
10
73
6
40
0
40
0
40
0
40
0
40
0.5
40
0.5
40
1
40
1
40
1
40
1
41
1
10
44.0967753891795
20
-0.422160236443204
30
0
41
1
10
44.0905732685191
20
-0.419526630871729
30
0
41
1
10
44.0844669077101
20
-0.417052079820508
30
0
41
1
10
44.0724442819637
20
-0.412399920175744
30
0
41
1
10
44.0664959980472
20
-0.410211327982665
30
0
41
1
10
44.0607339046283
20
-0.408207952509059
30
0
0
SPLINE
5
F1
100
AcDbEntity
8
1
62
256
6
ByLayer
370
13
48
1
60
0
100
AcDbSpline
70
4
71
3
72
8
73
4
40
0
40
0
40
0
40
0
40
1
40
1
40
1
40
1
41
1
10
44.0592015906659
20
-0.426081143535299
30
0
41
1
10
44.0597066946526
20
-0.420130948197766
30
0
41
1
10
44.0602174822732
20
-0.414173336356043
30
0
41
1
10
44.0607339046283
20
-0.408207952509059
30
0
0
SPLINE
5
F2
100
AcDbEntity
8
1
62
256
6
ByLayer
370
13
48
1
60
0
100
AcDbSpline
70
4
71
3
72
8
73
4
40
0
40
0
40
0
40
0
40
1
40
1
40
1
40
1
41
1
10
44.1422579750321
20
2.17690354623693
30
0
41
1
10
44.1417254219654
20
2.1434405981876
30
0
41
1
10
44.1411864453655
20
2.10997440507558
30
0
41
1
10
44.1406410964833
20
2.07650479829835
30
0
0
SPLINE
5
F3
100
AcDbEntity
8
1
62
256
6
ByLayer
370
18
48
1
60
0
100
AcDbSpline
70
4
71
3
72
34
73
30
40
0
40
0
40
0
40
0
40
0.0587164621873284
40
0.0587164621873284
40
0.117432924374657
40
0.117432924374657
40
0.234865848749314
40
0.234865848749314
40
0.352298773123972
40
0.352298773123972
40
0.411015235311301
40
0.411015235311301
40
0.469731697498629
40
0.469731697498629
40
0.587164621873292
40
0.587164621873292
40
0.704597546247955
40
0.704597546247955
40
0.763314008435287
40
0.763314008435287
40
0.822030470622618
40
0.822030470622618
40
0.851388701716284
40
0.851388701716284
40
0.88074693280995
40
0.88074693280995
40
0.939463394997276
40
0.939463394997276
40
1
40
1
40
1
40
1
41
1
10
44.1406410964833
20
2.07650479829835
30
0
41
1
10
44.2610990672577
20
2.05708337550257
30
0
41
1
10
44.3816022413161
20
2.03579175396408
30
0
41
1
10
44.6227720246687
20
1.98969383945598
30
0
41
1
10
44.743470178884
20
1.96488149989142
30
0
41
1
10
45.1057235214276
20
1.88553827321445
30
0
41
1
10
45.3462185081899
20
1.82637825071123
30
0
41
1
10
45.8256992799536
20
1.69748750913843
30
0
41
1
10
46.0646941706797
20
1.62771043738573
30
0
41
1
10
46.4224643759794
20
1.5158783772788
30
0
41
1
10
46.5415840213991
20
1.47740272539374
30
0
41
1
10
46.7796210572719
20
1.39819569126985
30
0
41
1
10
46.8985694854798
20
1.35746633101553
30
0
41
1
10
47.2556114515056
20
1.23212489499144
30
0
41
1
10
47.493822272314
20
1.14437944582934
30
0
41
1
10
47.9709857779015
20
0.962146275080471
30
0
41
1
10
48.209931785722
20
0.867633106443407
30
0
41
1
10
48.5690281130592
20
0.721551011988453
30
0
41
1
10
48.6888253107665
20
0.672118415023022
30
0
41
1
10
48.9286513979212
20
0.571878771516168
30
0
41
1
10
49.0487160284537
20
0.521105932461523
30
0
41
1
10
49.2293038471738
20
0.444272108179149
30
0
41
1
10
49.2896217653374
20
0.418525509619713
30
0
41
1
10
49.4101815852671
20
0.36693526723559
30
0
41
1
10
49.4704009871938
20
0.341101411126061
30
0
41
1
10
49.6508989905665
20
0.26353186825304
30
0
41
1
10
49.7710191112407
20
0.211733279084228
30
0
41
1
10
50.0146543941263
20
0.106579775392362
30
0
41
1
10
50.1381549810078
20
0.0532120328996939
30
0
41
1
10
50.2615019900491
20
-0.0001192714212266
30
0
0
SPLINE
5
F4
100
AcDbEntity
8
1
62
256
6
ByLayer
370
18
48
1
60
0
100
AcDbSpline
70
4
71
3
72
47
73
43
40
0
40
0
40
0
40
0
40
0.0824470314612705
40
0.0824470314612705
40
0.164894062922541
40
0.164894062922541
40
0.247341094383811
40
0.267952852249132
40
0.267952852249132
40
0.288564610114452
40
0.288564610114452
40
0.329788125845094
40
0.329788125845094
40
0.41223515730638
40
0.41223515730638
40
0.494682188767667
40
0.494682188767667
40
0.535905704498308
40
0.535905704498308
40
0.577129220228949
40
0.577129220228949
40
0.61835273595959
40
0.61835273595959
40
0.659576251690231
40
0.659576251690231
40
0.700799767420873
40
0.700799767420873
40
0.742023283151514
40
0.742023283151514
40
0.783246798882155
40
0.783246798882155
40
0.803858556747476
40
0.803858556747476
40
0.824470314612796
40
0.824470314612796
40
0.865693830343442
40
0.865693830343442
40
0.906917346074087
40
0.906917346074087
40
0.989364377535373
40
0.989364377535373
40
1
40
1
40
1
40
1
41
1
10
67.1111114948956
20
-0.228439043712228
30
0
41
1
10
66.8712550468082
20
-0.122376204444066
30
0
41
1
10
66.6315326442217
20
-0.0167351687291557
30
0
41
1
10
66.1520301260735
20
0.192932746114337
30
0
41
1
10
65.9122510795869
20
0.296962103422175
30
0
41
1
10
65.4324303391954
20
0.50276802692099
30
0
41
1
10
65.1323829138767
20
0.629999567314655
30
0
41
1
10
64.831575647446
20
0.754162077684839
30
0
41
1
10
64.7111814303805
20
0.803554694680003
30
0
41
1
10
64.6509502808518
20
0.828114024527707
30
0
41
1
10
64.4706306261809
20
0.901144919431289
30
0
41
1
10
64.350758368235
20
0.949036140355105
30
0
41
1
10
63.9916050864609
20
1.08993932193008
30
0
41
1
10
63.7527608879126
20
1.18016496749232
30
0
41
1
10
63.2760509657337
20
1.35233509901826
30
0
41
1
10
63.0381866116263
20
1.43429200637576
30
0
41
1
10
62.6819803711659
20
1.54991468290615
30
0
41
1
10
62.5633431904534
20
1.58724191002412
30
0
41
1
10
62.3262552435654
20
1.65915547922478
30
0
41
1
10
62.2078207966181
20
1.6937189080538
30
0
41
1
10
61.9707039394529
20
1.7603111554246
30
0
41
1
10
61.8519990242991
20
1.79235563485548
30
0
41
1
10
61.6143124153788
20
1.85384783404896
30
0
41
1
10
61.4953299421863
20
1.88331201795509
30
0
41
1
10
61.2571986445465
20
1.93920316590302
30
0
41
1
10
61.1380592165291
20
1.96562419989434
30
0
41
1
10
60.8995689949172
20
2.01501980214954
30
0
41
1
10
60.780226912698
20
2.03794466310725
30
0
41
1
10
60.5410673020948
20
2.08078970548004
30
0
41
1
10
60.4212349640655
20
2.10076091055581
30
0
41
1
10
60.2410757313969
20
2.12836304681761
30
0
41
1
10
60.1809546970852
20
2.13716951695761
30
0
41
1
10
60.0605729114329
20
2.15395811745364
30
0
41
1
10
60.0002668331662
20
2.16194577307473
30
0
41
1
10
59.8194972932636
20
2.18457297889827
30
0
41
1
10
59.6992685068019
20
2.19787020230933
30
0
41
1
10
59.4593500644593
20
2.22068095953173
30
0
41
1
10
59.3396732587136
20
2.23015732906382
30
0
41
1
10
58.9810337501023
20
2.25355869309115
30
0
41
1
10
58.7423767962468
20
2.26266196952707
30
0
41
1
10
58.473536974489
20
2.26431094491929
30
0
41
1
10
58.4428288501431
20
2.26437112323731
30
0
41
1
10
58.4121292980001
20
2.26430271745497
30
0
0
SPLINE
5
F5
100
AcDbEntity
8
1
62
256
6
ByLayer
370
18
48
1
60
0
100
AcDbSpline
70
4
71
3
72
10
73
6
40
0
40
0
40
0
40
0
40
0.5
40
0.5
40
1
40
1
40
1
40
1
41
1
10
67.1088029872059
20
-0.217557196068384
30
0
41
1
10
67.1097448758348
20
-0.217719895278037
30
0
41
1
10
67.1104900968811
20
-0.21898607640216
30
0
41
1
10
67.1113363213594
20
-0.222929010523927
30
0
41
1
10
67.111432835614
20
-0.225595277835879
30
0
41
1
10
67.1111114948953
20
-0.228439043712143
30
0
0
SPLINE
5
F6
100
AcDbEntity
8
1
62
256
6
ByLayer
370
18
48
1
60
0
100
AcDbSpline
70
4
71
3
72
8
73
4
40
0
40
0
40
0
40
0
40
1
40
1
40
1
40
1
41
1
10
67.0651039657802
20
-2.38530823060393
30
0
41
1
10
67.0867942765257
20
-2.35004623457405
30
0
41
1
10
67.1085080385614
20
-2.3146312052906
30
0
41
1
10
67.130249191927
20
-2.27906396109779
30
0
0
SPLINE
5
F7
100
AcDbEntity
8
1
62
256
6
ByLayer
370
18
48
1
60
0
100
AcDbSpline
70
4
71
3
72
14
73
10
40
0
40
0
40
0
40
0
40
0.25
40
0.25
40
0.5
40
0.5
40
0.75
40
0.75
40
1
40
1
40
1
40
1
41
1
10
67.130249191927
20
-2.27906396109782
30
0
41
1
10
67.1309428755742
20
-2.27792913557781
30
0
41
1
10
67.1316430867536
20
-2.27673869318045
30
0
41
1
10
67.1329969574488
20
-2.27432090531042
30
0
41
1
10
67.1336409898285
20
-2.27310709280124
30
0
41
1
10
67.1346783900144
20
-2.2709889111789
30
0
41
1
10
67.1350740802496
20
-2.27007828470221
30
0
41
1
10
67.135516742482
20
-2.26878996364246
30
0
41
1
10
67.1355657472164
20
-2.26841904082289
30
0
41
1
10
67.1354804916323
20
-2.26827751565855
30
0
0
SPLINE
5
F8
100
AcDbEntity
8
1
62
256
6
ByLayer
370
18
48
1
60
0
100
AcDbSpline
70
4
71
3
72
45
73
41
40
0
40
0
40
0
40
0
40
0.0214393805550089
40
0.0214393805550089
40
0.0659194087115937
40
0.0659194087115937
40
0.110399436868179
40
0.110399436868179
40
0.132639450946473
40
0.132639450946473
40
0.154879465024768
40
0.154879465024768
40
0.199359493181357
40
0.199359493181357
40
0.243839521337946
40
0.243839521337946
40
0.288319549494535
40
0.288319549494535
40
0.377279605807718
40
0.377279605807718
40
0.4662396621209
40
0.4662396621209
40
0.555199718434083
40
0.555199718434083
40
0.644159774747265
40
0.644159774747265
40
0.688639802903857
40
0.688639802903857
40
0.710879816982152
40
0.710879816982152
40
0.733119831060448
40
0.733119831060448
40
0.82207988737363
40
0.82207988737363
40
0.911039943686813
40
0.911039943686813
40
0.955519971843404
40
0.977759985921702
40
0.977759985921702
40
1
40
1
40
1
40
1
41
1
10
59.0520390756938
20
0.19014529373851
30
0
41
1
10
59.1097640654689
20
0.165093882187904
30
0
41
1
10
59.1675235619825
20
0.139983676451266
30
0
41
1
10
59.3452386872935
20
0.0626349442588889
30
0
41
1
10
59.4653290176941
20
0.0102566728266424
30
0
41
1
10
59.7059826472197
20
-0.0945086167304794
30
0
41
1
10
59.8265412162056
20
-0.146915154881469
30
0
41
1
10
60.0077649703432
20
-0.225518874777805
30
0
41
1
10
60.0681903739438
20
-0.251696283568862
30
0
41
1
10
60.1888193721375
20
-0.303861908714765
30
0
41
1
10
60.2490620266668
20
-0.329867074076503
30
0
41
1
10
60.4295887775636
20
-0.407611290140437
30
0
41
1
10
60.5496700590555
20
-0.459080338232582
30
0
41
1
10
60.789377573764
20
-0.561087359557774
30
0
41
1
10
60.9090150434738
20
-0.611616818119103
30
0
41
1
10
61.1480612322177
20
-0.711432846832082
30
0
41
1
10
61.2674555353627
20
-0.76073274057822
30
0
41
1
10
61.6252300599393
20
-0.906676210125141
30
0
41
1
10
61.863182663233
20
-1.00138963157093
30
0
41
1
10
62.3388889140036
20
-1.18387829159855
30
0
41
1
10
62.5766521418071
20
-1.27162142108523
30
0
41
1
10
63.0525988277395
20
-1.43884600965731
30
0
41
1
10
63.2907858385933
20
-1.5183405187712
30
0
41
1
10
63.7682689756995
20
-1.66780118979994
30
0
41
1
10
64.0075644290924
20
-1.73776366602331
30
0
41
1
10
64.3678753728822
20
-1.83438287480146
30
0
41
1
10
64.4882089414901
20
-1.86520626332978
30
0
41
1
10
64.6691491061175
20
-1.90929967482933
30
0
41
1
10
64.7295664996257
20
-1.92364614289795
30
0
41
1
10
64.8502757251671
20
-1.9515312128861
30
0
41
1
10
64.9105917934426
20
-1.96507597715163
30
0
41
1
10
65.2119808000787
20
-2.03076062784541
30
0
41
1
10
65.4524954121551
20
-2.07680190152217
30
0
41
1
10
65.9331891595035
20
-2.15538633799636
30
0
41
1
10
66.1733643244144
20
-2.18792495181236
30
0
41
1
10
66.533843693764
20
-2.22611606839391
30
0
41
1
10
66.7141380003478
20
-2.24255803263361
30
0
41
1
10
66.8946268757547
20
-2.25494671495147
30
0
41
1
10
67.0150084694972
20
-2.26229606256172
30
0
41
1
10
67.0752221610855
20
-2.26548862665132
30
0
41
1
10
67.135480491634
20
-2.26827751565864
30
0
0
SPLINE
5
F9
100
AcDbEntity
8
1
62
256
6
ByLayer
370
18
48
1
60
0
100
AcDbSpline
70
4
71
3
72
44
73
40
40
0
40
0
40
0
40
0
40
0.046902118052733
40
0.046902118052733
40
0.0938042361054664
40
0.0938042361054664
40
0.187608472210938
40
0.187608472210938
40
0.281412708316409
40
0.281412708316409
40
0.304863767342774
40
0.304863767342774
40
0.328314826369138
40
0.328314826369138
40
0.375216944421867
40
0.375216944421867
40
0.46902118052733
40
0.46902118052733
40
0.562825416632792
40
0.562825416632792
40
0.656629652738254
40
0.656629652738254
40
0.703531770790984
40
0.703531770790984
40
0.750433888843713
40
0.750433888843713
40
0.797336006896442
40
0.797336006896442
40
0.844238124949171
40
0.844238124949171
40
0.8911402430019
40
0.8911402430019
40
0.914591302028264
40
0.914591302028264
40
0.938042361054628
40
0.938042361054628
40
0.984944479107358
40
0.984944479107358
40
1
40
1
40
1
40
1
41
1
10
67.1302491919965
20
-2.27906396110094
30
0
41
1
10
67.0097545688038
20
-2.27367298052917
30
0
41
1
10
66.8893888487987
20
-2.26653076033364
30
0
41
1
10
66.6488375705979
20
-2.24852789249707
30
0
41
1
10
66.5286482726816
20
-2.23771522096732
30
0
41
1
10
66.1681881045747
20
-2.19994186890344
30
0
41
1
10
65.9280240590215
20
-2.16764447379799
30
0
41
1
10
65.4473478818617
20
-2.08946464375089
30
0
41
1
10
65.206839490018
20
-2.04358660974842
30
0
41
1
10
64.9054504491236
20
-1.97805578739016
30
0
41
1
10
64.8451340448103
20
-1.96453926149894
30
0
41
1
10
64.7244239171315
20
-1.93670479224053
30
0
41
1
10
64.6640065258483
20
-1.92238085129955
30
0
41
1
10
64.4830713267403
20
-1.87834644556989
30
0
41
1
10
64.362743972144
20
-1.84755059541803
30
0
41
1
10
64.0024531115824
20
-1.75098744389914
30
0
41
1
10
63.7631750804098
20
-1.68102499500213
30
0
41
1
10
63.285734137486
20
-1.53148552535492
30
0
41
1
10
63.0475714785692
20
-1.45191264894092
30
0
41
1
10
62.5716767450941
20
-1.28445359886902
30
0
41
1
10
62.3339424162249
20
-1.19655338232579
30
0
41
1
10
61.9772054840399
20
-1.05938807550763
30
0
41
1
10
61.8582744552654
20
-1.01278099818123
30
0
41
1
10
61.620231074031
20
-0.918053405817773
30
0
41
1
10
61.5011144647141
20
-0.869936995952713
30
0
41
1
10
61.2626167098447
20
-0.772372318360652
30
0
41
1
10
61.1432312321212
20
-0.722927924469019
30
0
41
1
10
60.9042041981259
20
-0.622795385038614
30
0
41
1
10
60.7845766068848
20
-0.572094760288337
30
0
41
1
10
60.5448820477193
20
-0.469733322649546
30
0
41
1
10
60.4248043096457
20
-0.418080000573894
30
0
41
1
10
60.244279740224
20
-0.340045508576935
30
0
41
1
10
60.1840372368719
20
-0.313941392960203
30
0
41
1
10
60.0634074232636
20
-0.261573311149192
30
0
41
1
10
60.0029802858364
20
-0.23529199306185
30
0
41
1
10
59.8217567679759
20
-0.156372990244421
30
0
41
1
10
59.7012002733336
20
-0.10374916724129
30
0
41
1
10
59.5422550787536
20
-0.0342534035854953
30
0
41
1
10
59.5036565026752
20
-0.0173657957295461
30
0
41
1
10
59.4650804341024
20
-0.0004840042960268
30
0
0
SPLINE
5
FA
100
AcDbEntity
8
1
62
256
6
ByLayer
370
18
48
1
60
0
100
AcDbSpline
70
4
71
3
72
50
73
46
40
0
40
0
40
0
40
0
40
0.0042967763887497
40
0.0042967763887497
40
0.0464215510831585
40
0.0464215510831585
40
0.130671100471979
40
0.130671100471979
40
0.17279587516639
40
0.17279587516639
40
0.2149206498608
40
0.2149206498608
40
0.235983037208008
40
0.235983037208008
40
0.257045424555216
40
0.257045424555216
40
0.299170199249634
40
0.299170199249634
40
0.341294973944053
40
0.341294973944053
40
0.383419748638472
40
0.383419748638472
40
0.42554452333289
40
0.42554452333289
40
0.467669298027309
40
0.467669298027309
40
0.509794072721728
40
0.509794072721728
40
0.551918847416147
40
0.551918847416147
40
0.636168396804984
40
0.636168396804984
40
0.720417946193821
40
0.720417946193821
40
0.76254272088824
40
0.76254272088824
40
0.78360510823545
40
0.78360510823545
40
0.804667495582659
40
0.804667495582659
40
0.888917044971505
40
0.888917044971505
40
0.97316659436035
40
0.97316659436035
40
1
40
1
40
1
40
1
41
1
10
58.1113168965428
20
2.26878507597749
30
0
41
1
10
58.1234317646673
20
2.26917360235546
30
0
41
1
10
58.1355474913988
20
2.26954174510843
30
0
41
1
10
58.2664546318628
20
2.27329338126648
30
0
41
1
10
58.3853331329004
20
2.27474422187359
30
0
41
1
10
58.7424001122957
20
2.27329458297837
30
0
41
1
10
58.9809831398964
20
2.2646498751995
30
0
41
1
10
59.3395116433679
20
2.24188912783993
30
0
41
1
10
59.4591516346693
20
2.2326233389625
30
0
41
1
10
59.6989990372749
20
2.2102180891907
30
0
41
1
10
59.8191933694948
20
2.19711306292143
30
0
41
1
10
59.9999139228985
20
2.17475871655
30
0
41
1
10
60.060211838233
20
2.1668583807662
30
0
41
1
10
60.1805731350767
20
2.15023909178294
30
0
41
1
10
60.2406832572793
20
2.14151453551617
30
0
41
1
10
60.4208076580459
20
2.11414997709161
30
0
41
1
10
60.5406136773553
20
2.09432456938507
30
0
41
1
10
60.7797158320615
20
2.05175694145189
30
0
41
1
10
60.8990281977963
20
2.02897000991541
30
0
41
1
10
61.1374579852409
20
1.97983291859299
30
0
41
1
10
61.2565653842366
20
1.95352750576094
30
0
41
1
10
61.4946308762675
20
1.89784191624437
30
0
41
1
10
61.613579319847
20
1.86846556799887
30
0
41
1
10
61.8511936602114
20
1.80712294606622
30
0
41
1
10
61.9698609342734
20
1.77514168470643
30
0
41
1
10
62.2068973676784
20
1.70865706924789
30
0
41
1
10
62.3252895653802
20
1.67414489363739
30
0
41
1
10
62.5622955612761
20
1.60232278383143
30
0
41
1
10
62.6808920872954
20
1.56502778525174
30
0
41
1
10
63.0369765882067
20
1.44946292033316
30
0
41
1
10
63.274761119934
20
1.3674976429171
30
0
41
1
10
63.751312298153
20
1.19521156052269
30
0
41
1
10
63.9900786340212
20
1.10488215559363
30
0
41
1
10
64.3491178345704
20
0.963754342358811
30
0
41
1
10
64.4689515772242
20
0.915779328495887
30
0
41
1
10
64.6492148498746
20
0.842607236271931
30
0
41
1
10
64.7094273337883
20
0.817997371540343
30
0
41
1
10
64.8298001931444
20
0.768490932113423
30
0
41
1
10
64.8899505868672
20
0.74359874783778
30
0
41
1
10
65.1905483554865
20
0.618509681282859
30
0
41
1
10
65.4305351802019
20
0.51643299534112
30
0
41
1
10
65.9102470276575
20
0.309963363498042
30
0
41
1
10
66.1499691701928
20
0.205563303658011
30
0
41
1
10
66.46600170721
20
0.0667997931415982
30
0
41
1
10
66.5423399535604
20
0.0331942828257183
30
0
41
1
10
66.6186802983117
20
-0.0004843806535177
30
0
0
SPLINE
5
FB
100
AcDbEntity
8
1
62
256
6
ByLayer
370
18
48
1
60
0
100
AcDbSpline
70
4
71
3
72
8
73
4
40
0
40
0
40
0
40
0
40
1
40
1
40
1
40
1
41
1
10
67.0701844474274
20
-0.210069843953789
30
0
41
1
10
67.0830418278254
20
-0.21283520909293
30
0
41
1
10
67.0959122321949
20
-0.215330483070659
30
0
41
1
10
67.1088029872059
20
-0.217557196068412
30
0
0
SPLINE
5
FC
100
AcDbEntity
8
1
62
256
6
ByLayer
370
18
48
1
60
0
100
AcDbSpline
70
4
71
3
72
34
73
30
40
0
40
0
40
0
40
0
40
0.0044697765607162
40
0.0044697765607162
40
0.0247867198962105
40
0.0247867198962105
40
0.106054493238191
40
0.106054493238191
40
0.187322266580171
40
0.187322266580171
40
0.268590039922151
40
0.268590039922151
40
0.349857813264131
40
0.349857813264131
40
0.431125586606112
40
0.431125586606112
40
0.471759473277103
40
0.471759473277103
40
0.4920764166126
40
0.4920764166126
40
0.512393359948096
40
0.512393359948096
40
0.59366113329008
40
0.59366113329008
40
0.674928906632063
40
0.674928906632063
40
0.837464453316032
40
0.837464453316032
40
1
40
1
40
1
40
1
41
1
10
52.9080043219371
20
-2.26045797416995
30
0
41
1
10
52.8947273346427
20
-2.26228950405692
30
0
41
1
10
52.8814470594315
20
-2.26409932337802
30
0
41
1
10
52.807783973799
20
-2.27401470897613
30
0
41
1
10
52.7472872706709
20
-2.28169748780218
30
0
41
1
10
52.4451351856056
20
-2.31774403208001
30
0
41
1
10
52.2045058149573
20
-2.3390150704976
30
0
41
1
10
51.7246955171053
20
-2.36646922920258
30
0
41
1
10
51.4854957966814
20
-2.37264818305795
30
0
41
1
10
51.0078180894239
20
-2.37001657268499
30
0
41
1
10
50.7693171239956
20
-2.36119942252668
30
0
41
1
10
50.292173254279
20
-2.32879614048835
30
0
41
1
10
50.0535626118695
20
-2.30520008447229
30
0
41
1
10
49.5754590656966
20
-2.24354733034238
30
0
41
1
10
49.3359708540637
20
-2.20549389635869
30
0
41
1
10
48.975562866797
20
-2.1378176986297
30
0
41
1
10
48.8552305351476
20
-2.11349222638177
30
0
41
1
10
48.6743435208751
20
-2.07442135795037
30
0
41
1
10
48.6139830555827
20
-2.06096763795313
30
0
41
1
10
48.4931237951039
20
-2.03320457909265
30
0
41
1
10
48.4325812317351
20
-2.01888417064256
30
0
41
1
10
48.1303573317086
20
-1.94536948397561
30
0
41
1
10
47.8897249451334
20
-1.88034995863683
30
0
41
1
10
47.4098821753688
20
-1.73936673475058
30
0
41
1
10
47.1706742510133
20
-1.66340498075206
30
0
41
1
10
46.4541747594234
20
-1.42095353920203
30
0
41
1
10
45.9780976576117
20
-1.23967575034717
30
0
41
1
10
45.0225641384404
20
-0.850201010084334
30
0
41
1
10
44.5431265215245
20
-0.642026602208404
30
0
41
1
10
44.059201590666
20
-0.42608114353547
30
0
0
SPLINE
5
FD
100
AcDbEntity
8
1
62
256
6
ByLayer
370
18
48
1
60
0
100
AcDbSpline
70
4
71
3
72
18
73
14
40
0
40
0
40
0
40
0
40
0.249999999999818
40
0.249999999999818
40
0.374999999999865
40
0.374999999999865
40
0.499999999999912
40
0.499999999999912
40
0.62499999999996
40
0.62499999999996
40
0.750000000000007
40
0.750000000000007
40
1
40
1
40
1
40
1
41
1
10
44.0592015906659
20
-0.426081143535413
30
0
41
1
10
44.0504333531586
20
-0.422168427017738
30
0
41
1
10
44.0424387488645
20
-0.417128430304132
30
0
41
1
10
44.0315818193835
20
-0.407908832318839
30
0
41
1
10
44.0281556832201
20
-0.404545391146257
30
0
41
1
10
44.0219100833895
20
-0.397465108749003
30
0
41
1
10
44.0190594396163
20
-0.393724369335786
30
0
41
1
10
44.0139011738015
20
-0.385841669049853
30
0
41
1
10
44.0115785075261
20
-0.381664479509368
30
0
41
1
10
44.0075926720239
20
-0.373076282944084
30
0
41
1
10
44.0059285781798
20
-0.368679341037563
30
0
41
1
10
44.0018987719611
20
-0.355186562336371
30
0
41
1
10
44.0004932811157
20
-0.345694531776587
30
0
41
1
10
44.0004932811157
20
-0.336165548165496
30
0
0
SPLINE
5
FE
100
AcDbEntity
8
1
62
256
6
ByLayer
370
18
48
1
60
0
100
AcDbSpline
70
4
71
3
72
27
73
23
40
0
40
0
40
0
40
0
40
0.125000000000049
40
0.125000000000049
40
0.187500000000074
40
0.187500000000074
40
0.2500000000001
40
0.312500000000125
40
0.312500000000125
40
0.37500000000015
40
0.37500000000015
40
0.500000000000203
40
0.500000000000203
40
0.625000000000257
40
0.625000000000257
40
0.75000000000031
40
0.75000000000031
40
0.812500000000232
40
0.812500000000232
40
0.875000000000155
40
0.875000000000155
40
1
40
1
40
1
40
1
41
1
10
44.0004932811157
20
2.14007901762639
30
0
41
1
10
44.0004932811157
20
2.14361672292415
30
0
41
1
10
44.001538421727
20
2.14704043339969
30
0
41
1
10
44.004624645913
20
2.15201592235897
30
0
41
1
10
44.005921369803
20
2.15365871061445
30
0
41
1
10
44.0089895153944
20
2.15682609055372
30
0
41
1
10
44.0125194482566
20
2.15987278472031
30
0
41
1
10
44.0169498931187
20
2.16268983211026
30
0
41
1
10
44.0218403670188
20
2.16539300086552
30
0
41
1
10
44.0245256611959
20
2.16668946339809
30
0
41
1
10
44.0330541831345
20
2.17030383192215
30
0
41
1
10
44.0394253668342
20
2.17239017259865
30
0
41
1
10
44.0535727169303
20
2.17593061073447
30
0
41
1
10
44.061105074464
20
2.1773204722976
30
0
41
1
10
44.0768995272977
20
2.17935549159245
30
0
41
1
10
44.0852358972598
20
2.17999634927264
30
0
41
1
10
44.0976573394513
20
2.18034832545041
30
0
41
1
10
44.1018115050447
20
2.18036761067455
30
0
41
1
10
44.1101476790053
20
2.1802067681877
30
0
41
1
10
44.1143494535709
20
2.18002420111
30
0
41
1
10
44.1266719165666
20
2.17918518064082
30
0
41
1
10
44.1346079025627
20
2.17824432306708
30
0
41
1
10
44.1422579750321
20
2.17690354623693
30
0
0
SPLINE
5
FF
100
AcDbEntity
8
1
62
256
6
ByLayer
370
18
48
1
60
0
100
AcDbSpline
70
4
71
3
72
74
73
70
40
0
40
0
40
0
40
0
40
0.050160514104487
40
0.050160514104487
40
0.100321028208974
40
0.100321028208974
40
0.125401285261216
40
0.125401285261216
40
0.137941413787339
40
0.137941413787339
40
0.150481542313461
40
0.150481542313461
40
0.175561799365706
40
0.175561799365706
40
0.20064205641795
40
0.20064205641795
40
0.250802570522442
40
0.250802570522442
40
0.300963084626934
40
0.300963084626934
40
0.326043341679179
40
0.326043341679179
40
0.351123598731424
40
0.351123598731424
40
0.40128411283591
40
0.40128411283591
40
0.413824241362032
40
0.413824241362032
40
0.426364369888153
40
0.426364369888153
40
0.451444626940395
40
0.451444626940395
40
0.476524883992637
40
0.476524883992637
40
0.50160514104488
40
0.50160514104488
40
0.526685398097122
40
0.526685398097122
40
0.551765655149364
40
0.551765655149364
40
0.601926169253849
40
0.601926169253849
40
0.627006426306091
40
0.627006426306091
40
0.652086683358333
40
0.652086683358333
40
0.702247197462815
40
0.702247197462815
40
0.714787325988937
40
0.714787325988937
40
0.727327454515058
40
0.727327454515058
40
0.7524077115673
40
0.7524077115673
40
0.777487968619542
40
0.777487968619542
40
0.802568225671785
40
0.802568225671785
40
0.827648482724027
40
0.827648482724027
40
0.852728739776269
40
0.852728739776269
40
0.902889253880756
40
0.902889253880756
40
0.953049767985243
40
0.953049767985243
40
0.978130025037488
40
0.978130025037488
40
1
40
1
40
1
40
1
41
1
10
44.1422579750321
20
2.17690354623693
30
0
41
1
10
44.3827887530198
20
2.13474733198436
30
0
41
1
10
44.6232506330676
20
2.08587548120298
30
0
41
1
10
45.1044078576731
20
1.97565743653723
30
0
41
1
10
45.3450636248258
20
1.91427047380734
30
0
41
1
10
45.7063359773738
20
1.8129962186787
30
0
41
1
10
45.8268161323993
20
1.77771179014377
30
0
41
1
10
46.0076853804933
20
1.7225645315134
30
0
41
1
10
46.0680330812015
20
1.70380138166789
30
0
41
1
10
46.1885556868951
20
1.66562201072244
30
0
41
1
10
46.2487443500178
20
1.64620347411042
30
0
41
1
10
46.429098879696
20
1.58697380057652
30
0
41
1
10
46.5490386743218
20
1.54616265004611
30
0
41
1
10
46.7884345569083
20
1.46208239027496
30
0
41
1
10
46.9079307882011
20
1.41888426210147
30
0
41
1
10
47.26623790437
20
1.28664205425713
30
0
41
1
10
47.5047591532819
20
1.19476362023173
30
0
41
1
10
47.9814156532805
20
1.00433614969569
30
0
41
1
10
48.219544426693
20
0.905772860867046
30
0
41
1
10
48.5766997013991
20
0.753394777543889
30
0
41
1
10
48.695731138432
20
0.701815126955154
30
0
41
1
10
48.9338335942454
20
0.597225548176084
30
0
41
1
10
49.052939439425
20
0.544289807597607
30
0
41
1
10
49.4108455395684
20
0.384498576270175
30
0
41
1
10
49.6501622648714
20
0.276504712038587
30
0
41
1
10
49.9506168088785
20
0.140650065254647
30
0
41
1
10
50.0107712789452
20
0.113431603078936
30
0
41
1
10
50.1312094867529
20
0.0589030469387808
30
0
41
1
10
50.1915301769781
20
0.0315761870222104
30
0
41
1
10
50.3724288249265
20
-0.0504130405588228
30
0
41
1
10
50.4927341640205
20
-0.104988561556951
30
0
41
1
10
50.7327945699247
20
-0.213890310384301
30
0
41
1
10
50.8525389189622
20
-0.26824158049638
30
0
41
1
10
51.0915332724398
20
-0.376556680646047
30
0
41
1
10
51.2108180908253
20
-0.430437964949931
30
0
41
1
10
51.4492235002249
20
-0.53707120751676
30
0
41
1
10
51.5683098726947
20
-0.589902831257575
30
0
41
1
10
51.8062625674367
20
-0.694577040653456
30
0
41
1
10
51.9251564969331
20
-0.746357206868709
30
0
41
1
10
52.2818979446773
20
-0.899391215112161
30
0
41
1
10
52.5197025906221
20
-0.998575740933177
30
0
41
1
10
52.8763535366296
20
-1.14311495752796
30
0
41
1
10
52.9952354402409
20
-1.19056932400667
30
0
41
1
10
53.2331150347418
20
-1.28376918394955
30
0
41
1
10
53.3521377218124
20
-1.32946421035379
30
0
41
1
10
53.7098876286592
20
-1.4630104770385
30
0
41
1
10
53.9491764753774
20
-1.54757894377036
30
0
41
1
10
54.2491084099187
20
-1.6479150200347
30
0
41
1
10
54.3091420118188
20
-1.66770120109428
30
0
41
1
10
54.4293364522218
20
-1.70665036198989
30
0
41
1
10
54.489523696382
20
-1.72582229809399
30
0
41
1
10
54.6701473730528
20
-1.78226336565737
30
0
41
1
10
54.7903143750165
20
-1.81833158772045
30
0
41
1
10
55.0304057565783
20
-1.88707364075532
30
0
41
1
10
55.1502979057667
20
-1.91980709098587
30
0
41
1
10
55.3895920756123
20
-1.98230558940764
30
0
41
1
10
55.5089877779433
20
-2.01207588935182
30
0
41
1
10
55.7471993319282
20
-2.06868582945961
30
0
41
1
10
55.8660523052812
20
-2.09547030943426
30
0
41
1
10
56.1036334494803
20
-2.14556271468399
30
0
41
1
10
56.2223578822311
20
-2.16887810484315
30
0
41
1
10
56.5786965815913
20
-2.23338686266328
30
0
41
1
10
56.8163986642693
20
-2.26925734492408
30
0
41
1
10
57.2921214466712
20
-2.32694733553185
30
0
41
1
10
57.530122773819
20
-2.34877808478049
30
0
41
1
10
57.8873955074455
20
-2.37057351294405
30
0
41
1
10
58.0065610305712
20
-2.37598977723897
30
0
41
1
10
58.2301183171718
20
-2.38256146495229
30
0
41
1
10
58.3344385675256
20
-2.38418014843509
30
0
41
1
10
58.4389749385458
20
-2.38435698632952
30
0
0
SPLINE
5
100
100
AcDbEntity
8
1
62
256
6
ByLayer
370
18
48
1
60
0
100
AcDbSpline
70
4
71
3
72
158
73
154
40
0
40
0
40
0
40
0
40
0.001853164495808
40
0.001853164495808
40
0.012883873765055
40
0.012883873765055
40
0.023914583034302
40
0.023914583034302
40
0.034945292303549
40
0.034945292303549
40
0.045976001572796
40
0.045976001572796
40
0.057006710842043
40
0.057006710842043
40
0.06803742011129
40
0.06803742011129
40
0.090098838649784
40
0.090098838649784
40
0.101129547919031
40
0.101129547919031
40
0.112160257188278
40
0.112160257188278
40
0.123190966457525
40
0.123190966457525
40
0.134221675726772
40
0.134221675726772
40
0.156283094265266
40
0.156283094265266
40
0.167313803534513
40
0.167313803534513
40
0.17834451280376
40
0.17834451280376
40
0.200405931342252
40
0.200405931342252
40
0.211436640611498
40
0.211436640611498
40
0.222467349880745
40
0.222467349880745
40
0.233498059149991
40
0.233498059149991
40
0.244528768419237
40
0.244528768419237
40
0.266590186957729
40
0.266590186957729
40
0.277620896226976
40
0.277620896226976
40
0.288651605496223
40
0.288651605496223
40
0.29968231476547
40
0.29968231476547
40
0.310713024034717
40
0.321743733303964
40
0.321743733303964
40
0.332774442573211
40
0.332774442573211
40
0.343805151842458
40
0.343805151842458
40
0.354835861111705
40
0.354835861111705
40
0.376897279650199
40
0.376897279650199
40
0.398958698188693
40
0.398958698188693
40
0.409989407457939
40
0.409989407457939
40
0.421020116727185
40
0.421020116727185
40
0.432050825996431
40
0.432050825996431
40
0.443081535265678
40
0.443081535265678
40
0.454112244534924
40
0.454112244534924
40
0.46514295380417
40
0.46514295380417
40
0.487204372342661
40
0.487204372342661
40
0.498235081611906
40
0.498235081611906
40
0.509265790881151
40
0.509265790881151
40
0.520296500150397
40
0.520296500150397
40
0.531327209419642
40
0.531327209419642
40
0.553388627958132
40
0.553388627958132
40
0.575450046496623
40
0.575450046496623
40
0.586480755765869
40
0.586480755765869
40
0.597511465035115
40
0.597511465035115
40
0.619572883573609
40
0.619572883573609
40
0.630603592842856
40
0.630603592842856
40
0.641634302112103
40
0.641634302112103
40
0.663695720650596
40
0.663695720650596
40
0.674726429919842
40
0.674726429919842
40
0.68575713918909
40
0.68575713918909
40
0.707818557727582
40
0.707818557727582
40
0.729879976266074
40
0.729879976266074
40
0.740910685535321
40
0.740910685535321
40
0.751941394804568
40
0.751941394804568
40
0.762972104073815
40
0.762972104073815
40
0.774002813343063
40
0.774002813343063
40
0.796064231881556
40
0.796064231881556
40
0.807094941150803
40
0.807094941150803
40
0.818125650420051
40
0.818125650420051
40
0.829156359689298
40
0.829156359689298
40
0.840187068958545
40
0.840187068958545
40
0.851217778227792
40
0.851217778227792
40
0.862248487497039
40
0.862248487497039
40
0.873279196766286
40
0.873279196766286
40
0.884309906035533
40
0.884309906035533
40
0.906371324574028
40
0.906371324574028
40
0.917402033843276
40
0.917402033843276
40
0.928432743112524
40
0.928432743112524
40
0.939463452381772
40
0.939463452381772
40
0.95049416165102
40
0.961524870920268
40
0.961524870920268
40
0.972555580189515
40
0.972555580189515
40
0.983586289458763
40
0.983586289458763
40
0.994616998728011
40
0.994616998728011
40
1
40
1
40
1
40
1
41
1
10
63.5171811900145
20
-1.60911408678979
30
0
41
1
10
63.5043872800047
20
-1.61349007850464
30
0
41
1
10
63.4915903901744
20
-1.61785190460156
30
0
41
1
10
63.4025982203484
20
-1.6480732875055
30
0
41
1
10
63.3262773200252
20
-1.6734048970423
30
0
41
1
10
63.1733551304138
20
-1.72294504059477
30
0
41
1
10
63.0969263441677
20
-1.7470995079824
30
0
41
1
10
62.9442899697717
20
-1.794112014077
30
0
41
1
10
62.8680512897268
20
-1.81697545394971
30
0
41
1
10
62.7157268003562
20
-1.8614300747216
30
0
41
1
10
62.6396472465338
20
-1.88303259871955
30
0
41
1
10
62.4877658859759
20
-1.92514556002834
30
0
41
1
10
62.4119743556313
20
-1.94566600636668
30
0
41
1
10
62.2605316365659
20
-1.98540653284482
30
0
41
1
10
62.1848666556911
20
-2.00460997415689
30
0
41
1
10
61.9579293568296
20
-2.06010819794096
30
0
41
1
10
61.8067474145935
20
-2.09433475359285
30
0
41
1
10
61.5800205314867
20
-2.14148765695339
30
0
41
1
10
61.504448451321
20
-2.1565049198189
30
0
41
1
10
61.3534149544662
20
-2.18523880074602
30
0
41
1
10
61.2779760133194
20
-2.19897382325959
30
0
41
1
10
61.1271816580552
20
-2.2250895454967
30
0
41
1
10
61.0518091255256
20
-2.23745463649843
30
0
41
1
10
60.900967226901
20
-2.26068712242167
30
0
41
1
10
60.8255100853887
20
-2.27156571255546
30
0
41
1
10
60.5990054476802
20
-2.30198940770802
30
0
41
1
10
60.4477930094272
20
-2.31930838411441
30
0
41
1
10
60.220710442701
20
-2.3408977758836
30
0
41
1
10
60.14499964558
20
-2.3473752187451
30
0
41
1
10
59.9935966148935
20
-2.35888153521071
30
0
41
1
10
59.9178848485448
20
-2.36389921848777
30
0
41
1
10
59.6904547483375
20
-2.37663629057218
30
0
41
1
10
59.5384374513114
20
-2.3820494550391
30
0
41
1
10
59.309714168281
20
-2.38556173862426
30
0
41
1
10
59.2333518817314
20
-2.38596443162385
30
0
41
1
10
59.0803967743134
20
-2.38523241542225
30
0
41
1
10
59.0037481694033
20
-2.3840967874263
30
0
41
1
10
58.8509092921692
20
-2.38026648162244
30
0
41
1
10
58.7746641904274
20
-2.37756852486945
30
0
41
1
10
58.6223595074892
20
-2.37062967612283
30
0
41
1
10
58.5462864876081
20
-2.36639386988321
30
0
41
1
10
58.318234559309
20
-2.35144447479217
30
0
41
1
10
58.1664404852858
20
-2.33848579084216
30
0
41
1
10
57.9389909000647
20
-2.31473322071054
30
0
41
1
10
57.8632173073171
20
-2.30609695945088
30
0
41
1
10
57.7118651101618
20
-2.287322501559
30
0
41
1
10
57.6363077023677
20
-2.27716793006354
30
0
41
1
10
57.4853071268473
20
-2.2553836354077
30
0
41
1
10
57.4098486950274
20
-2.24376470370305
30
0
41
1
10
57.2589005891598
20
-2.21917043469412
30
0
41
1
10
57.1079445694414
20
-2.19320436955317
30
0
41
1
10
56.9569380126297
20
-2.1645538046611
30
0
41
1
10
56.8058864991388
20
-2.13459128131214
30
0
41
1
10
56.7303296783651
20
-2.1189638621772
30
0
41
1
10
56.5792404463523
20
-2.08632977284338
30
0
41
1
10
56.5037274825547
20
-2.06930139302079
30
0
41
1
10
56.3527631532017
20
-2.03379456204436
30
0
41
1
10
56.2772924736287
20
-2.01533556266176
30
0
41
1
10
56.0506566859522
20
-1.95814181412121
30
0
41
1
10
55.8993004175092
20
-1.91756031948904
30
0
41
1
10
55.5959215211562
20
-1.83173294251068
30
0
41
1
10
55.4438281041271
20
-1.7866120056805
30
0
41
1
10
55.2155640781849
20
-1.71479424240741
30
0
41
1
10
55.1394458267978
20
-1.69017184046592
30
0
41
1
10
54.9869765725002
20
-1.63982151036839
30
0
41
1
10
54.9106151430186
20
-1.61411371410563
30
0
41
1
10
54.7576128920315
20
-1.56168136891841
30
0
41
1
10
54.6810219982594
20
-1.53496948218617
30
0
41
1
10
54.528153419912
20
-1.48077813110942
30
0
41
1
10
54.4518016429801
20
-1.45327825270041
30
0
41
1
10
54.2992541706985
20
-1.3974947712955
30
0
41
1
10
54.2230644149051
20
-1.36920048589661
30
0
41
1
10
54.0709663449171
20
-1.31158675872703
30
0
41
1
10
53.9950707566131
20
-1.2822411616815
30
0
41
1
10
53.767611268283
20
-1.19303714803894
30
0
41
1
10
53.6161789759657
20
-1.13220212356555
30
0
41
1
10
53.3891251487763
20
-1.03937285477929
30
0
41
1
10
53.3134618751114
20
-1.00815591345176
30
0
41
1
10
53.1621576330652
20
-0.945221333965975
30
0
41
1
10
53.0865119292438
20
-0.913514085389693
30
0
41
1
10
52.9353371407296
20
-0.849403512083768
30
0
41
1
10
52.8598306922904
20
-0.816951932389003
30
0
41
1
10
52.7089142710144
20
-0.751385602781227
30
0
41
1
10
52.6334866795909
20
-0.718307860738634
30
0
41
1
10
52.4070691838788
20
-0.618677992223979
30
0
41
1
10
52.2559945972853
20
-0.551624314079589
30
0
41
1
10
51.9534458287637
20
-0.416585834355487
30
0
41
1
10
51.8019212930333
20
-0.348720544750705
30
0
41
1
10
51.5747511788183
20
-0.245269672575233
30
0
41
1
10
51.4990235280658
20
-0.210561587426241
30
0
41
1
10
51.347382746015
20
-0.14109714891336
30
0
41
1
10
51.2714670157046
20
-0.106347618844808
30
0
41
1
10
51.0434112809838
20
-0.0021029453212691
30
0
41
1
10
50.8909531783765
20
0.0673651349141267
30
0
41
1
10
50.6615735536025
20
0.171377093018691
30
0
41
1
10
50.5850083618598
20
0.206046147207473
30
0
41
1
10
50.4317921388756
20
0.275655790418682
30
0
41
1
10
50.3553654390851
20
0.310485037211919
30
0
41
1
10
50.1263831862037
20
0.414443543979303
30
0
41
1
10
49.9740508963753
20
0.482870062741995
30
0
41
1
10
49.7458701994957
20
0.583884480895449
30
0
41
1
10
49.6698651209217
20
0.617290215273556
30
0
41
1
10
49.5179460694299
20
0.683537822922148
30
0
41
1
10
49.4420344480951
20
0.716386041085514
30
0
41
1
10
49.2146099379579
20
0.814469674919422
30
0
41
1
10
49.0635053649424
20
0.879437106120292
30
0
41
1
10
48.7611781013264
20
1.0060773107727
30
0
41
1
10
48.6100230278676
20
1.06790756332194
30
0
41
1
10
48.3831945667949
20
1.15824488300501
30
0
41
1
10
48.3075601529072
20
1.18793897193657
30
0
41
1
10
48.1563299869182
20
1.24666429430471
30
0
41
1
10
48.0807541319544
20
1.27573331516456
30
0
41
1
10
47.9296775998334
20
1.33326180816201
30
0
41
1
10
47.8541573445211
20
1.36168292715996
30
0
41
1
10
47.7029790041396
20
1.41751348589469
30
0
41
1
10
47.6273290983375
20
1.44493925513319
30
0
41
1
10
47.4001739017983
20
1.52571438635246
30
0
41
1
10
47.2484432728984
20
1.57752847101921
30
0
41
1
10
47.0203956173442
20
1.65219012945695
30
0
41
1
10
46.9443237660803
20
1.67660042524011
30
0
41
1
10
46.792165143362
20
1.72461023377693
30
0
41
1
10
46.7160629185295
20
1.74818207502653
30
0
41
1
10
46.563638668266
20
1.79416768369899
30
0
41
1
10
46.4873063102295
20
1.81656645589499
30
0
41
1
10
46.3343767299567
20
1.86014048933984
30
0
41
1
10
46.2577140230992
20
1.88133601103851
30
0
41
1
10
46.1044411484222
20
1.92239527075043
30
0
41
1
10
46.0278936827009
20
1.94223976580074
30
0
41
1
10
45.8749690865097
20
1.98057396098625
30
0
41
1
10
45.7985980561167
20
1.99907406831011
30
0
41
1
10
45.6461538736545
20
2.03488403711941
30
0
41
1
10
45.5700923982633
20
2.05220347166238
30
0
41
1
10
45.4181317888713
20
2.08546748527939
30
0
41
1
10
45.342218451929
20
2.1013974687796
30
0
41
1
10
45.1145639353084
20
2.14698939393463
30
0
41
1
10
44.9629423834517
20
2.17449327521433
30
0
41
1
10
44.7356159365446
20
2.21142476800802
30
0
41
1
10
44.6598539137592
20
2.22301290989549
30
0
41
1
10
44.5084642070197
20
2.24482768862004
30
0
41
1
10
44.4328596629132
20
2.25506835868191
30
0
41
1
10
44.2817563059878
20
2.27413752198697
30
0
41
1
10
44.206239953902
20
2.28295367986084
30
0
41
1
10
44.055130538709
20
2.29906918003314
30
0
41
1
10
43.9039695729412
20
2.31368569540683
30
0
41
1
10
43.7526736652125
20
2.32531783768229
30
0
41
1
10
43.601291878808
20
2.33546167892061
30
0
41
1
10
43.5255488314375
20
2.33978765917365
30
0
41
1
10
43.3740257986564
20
2.34696913059767
30
0
41
1
10
43.2982617318757
20
2.34982837105372
30
0
41
1
10
43.1467782080529
20
2.35405981127226
30
0
41
1
10
43.0710386076268
20
2.35542511284285
30
0
41
1
10
42.9582072471178
20
2.35631749145983
30
0
41
1
10
42.92118244634
20
2.35642853804566
30
0
41
1
10
42.8841358066755
20
2.35635843262759
30
0
0
SPLINE
5
101
100
AcDbEntity
8
1
62
256
6
ByLayer
370
18
48
1
60
0
100
AcDbSpline
70
4
71
3
72
148
73
144
40
0
40
0
40
0
40
0
40
0.0105234402753005
40
0.0105234402753005
40
0.0218633657318897
40
0.0218633657318897
40
0.0332032911884788
40
0.0332032911884788
40
0.0558831421016568
40
0.0558831421016568
40
0.0672230675582454
40
0.0672230675582454
40
0.0785629930148339
40
0.0785629930148339
40
0.0899029184714221
40
0.0899029184714221
40
0.101242843928011
40
0.101242843928011
40
0.123922694841189
40
0.123922694841189
40
0.135262620297778
40
0.135262620297778
40
0.146602545754367
40
0.146602545754367
40
0.157942471210956
40
0.157942471210956
40
0.169282396667545
40
0.180622322124134
40
0.180622322124134
40
0.191962247580723
40
0.191962247580723
40
0.203302173037314
40
0.203302173037314
40
0.214642098493905
40
0.214642098493905
40
0.237321949407088
40
0.237321949407088
40
0.260001800320271
40
0.260001800320271
40
0.271341725776862
40
0.271341725776862
40
0.282681651233454
40
0.282681651233454
40
0.294021576690046
40
0.294021576690046
40
0.305361502146637
40
0.305361502146637
40
0.316701427603229
40
0.316701427603229
40
0.328041353059821
40
0.328041353059821
40
0.350721203973004
40
0.350721203973004
40
0.362061129429595
40
0.362061129429595
40
0.373401054886187
40
0.373401054886187
40
0.396080905799369
40
0.396080905799369
40
0.418760756712552
40
0.418760756712552
40
0.430100682169143
40
0.430100682169143
40
0.441440607625734
40
0.441440607625734
40
0.452780533082325
40
0.452780533082325
40
0.464120458538916
40
0.464120458538916
40
0.486800309452098
40
0.486800309452098
40
0.498140234908689
40
0.498140234908689
40
0.50948016036528
40
0.50948016036528
40
0.532160011278463
40
0.532160011278463
40
0.543499936735054
40
0.543499936735054
40
0.554839862191645
40
0.554839862191645
40
0.566179787648236
40
0.566179787648236
40
0.577519713104827
40
0.577519713104827
40
0.600199564018008
40
0.600199564018008
40
0.611539489474599
40
0.611539489474599
40
0.622879414931189
40
0.622879414931189
40
0.63421934038778
40
0.63421934038778
40
0.64555926584437
40
0.65689919130096
40
0.65689919130096
40
0.668239116757551
40
0.668239116757551
40
0.679579042214141
40
0.679579042214141
40
0.690918967670731
40
0.690918967670731
40
0.713598818583913
40
0.713598818583913
40
0.724938744040504
40
0.724938744040504
40
0.736278669497096
40
0.736278669497096
40
0.747618594953687
40
0.747618594953687
40
0.758958520410278
40
0.758958520410278
40
0.781638371323461
40
0.781638371323461
40
0.792978296780052
40
0.792978296780052
40
0.804318222236644
40
0.804318222236644
40
0.826998073149827
40
0.826998073149827
40
0.838337998606419
40
0.838337998606419
40
0.84967792406301
40
0.84967792406301
40
0.861017849519602
40
0.861017849519602
40
0.872357774976194
40
0.872357774976194
40
0.895037625889377
40
0.895037625889377
40
0.91771747680256
40
0.91771747680256
40
0.929057402259151
40
0.929057402259151
40
0.940397327715743
40
0.940397327715743
40
0.963077178628926
40
0.963077178628926
40
0.974417104085517
40
0.974417104085517
40
0.985757029542109
40
0.985757029542109
40
1
40
1
40
1
40
1
41
1
10
30.4333633125928
20
-1.71921562018073
30
0
41
1
10
30.3629243037177
20
-1.74045527367454
30
0
41
1
10
30.2924281734884
20
-1.76119484954248
30
0
41
1
10
30.1459014412211
20
-1.80332706917741
30
0
41
1
10
30.0698813946539
20
-1.82466895760226
30
0
41
1
10
29.9178587640593
20
-1.86639323955413
30
0
41
1
10
29.8418357483434
20
-1.88674354056158
30
0
41
1
10
29.6134591375752
20
-1.94586180973505
30
0
41
1
10
29.4607924927134
20
-1.9826978101141
30
0
41
1
10
29.2310768221626
20
-2.03399118696308
30
0
41
1
10
29.1543803351016
20
-2.05042257935818
30
0
41
1
10
29.0007538553453
20
-2.08197027026321
30
0
41
1
10
28.9238338092756
20
-2.09709568679284
30
0
41
1
10
28.7705024202398
20
-2.12604398183257
30
0
41
1
10
28.6940093189845
20
-2.13987102333783
30
0
41
1
10
28.5411984939312
20
-2.16605432987194
30
0
41
1
10
28.4648669397253
20
-2.17840018131628
30
0
41
1
10
28.2360276203832
20
-2.21318497671842
30
0
41
1
10
28.0836910419439
20
-2.23338717089033
30
0
41
1
10
27.8554093258619
20
-2.25926974636727
30
0
41
1
10
27.7793567789698
20
-2.2671650832595
30
0
41
1
10
27.6274523388152
20
-2.28155079576533
30
0
41
1
10
27.5516212197212
20
-2.28804721227164
30
0
41
1
10
27.4000633428235
20
-2.29956062645155
30
0
41
1
10
27.3243209403249
20
-2.30457190627359
30
0
41
1
10
27.1728007689549
20
-2.31308034525597
30
0
41
1
10
27.0212683539729
20
-2.32008474028859
30
0
41
1
10
26.8696792833383
20
-2.32410792191703
30
0
41
1
10
26.7180433293731
20
-2.32665181174701
30
0
41
1
10
26.6421937609285
20
-2.32718527967509
30
0
41
1
10
26.4905308379434
20
-2.3267783426185
30
0
41
1
10
26.4147394505981
20
-2.32583583306595
30
0
41
1
10
26.2632119331637
20
-2.32243919403399
30
0
41
1
10
26.1874559588917
20
-2.31998460062135
30
0
41
1
10
25.9599539102308
20
-2.31038900572534
30
0
41
1
10
25.8080176635386
20
-2.30101861227908
30
0
41
1
10
25.5034801788052
20
-2.27644994855763
30
0
41
1
10
25.3508147556479
20
-2.26130824194124
30
0
41
1
10
25.1217392241989
20
-2.23391765988217
30
0
41
1
10
25.0453493507267
20
-2.22400847081443
30
0
41
1
10
24.8923268741287
20
-2.20273292773231
30
0
41
1
10
24.815687563523
20
-2.19137462087528
30
0
41
1
10
24.6621364513522
20
-2.16723580743869
30
0
41
1
10
24.5852244011702
20
-2.15445302094327
30
0
41
1
10
24.4317221614028
20
-2.12759546959862
30
0
41
1
10
24.3550513989661
20
-2.11351323271768
30
0
41
1
10
24.2018754481297
20
-2.08405467192586
30
0
41
1
10
24.1253775519988
20
-2.06867220003346
30
0
41
1
10
23.9726856732258
20
-2.036457624012
30
0
41
1
10
23.8964930930503
20
-2.01962008951617
30
0
41
1
10
23.6681198651946
20
-1.96720136607226
30
0
41
1
10
23.5160597544386
20
-1.92982223951262
30
0
41
1
10
23.2880818499902
20
-1.87041976140557
30
0
41
1
10
23.2121112605747
20
-1.8500590754341
30
0
41
1
10
23.060195118073
20
-1.80825754458371
30
0
41
1
10
22.9842503314346
20
-1.78681720857904
30
0
41
1
10
22.756631103734
20
-1.72061457181636
30
0
41
1
10
22.6052889483282
20
-1.67376436581426
30
0
41
1
10
22.3022408665876
20
-1.57642357005594
30
0
41
1
10
22.1505976724762
20
-1.52585448291472
30
0
41
1
10
21.9228546681556
20
-1.44737990740433
30
0
41
1
10
21.8468843512441
20
-1.42080317228445
30
0
41
1
10
21.694921147126
20
-1.36664837890933
30
0
41
1
10
21.6189484514989
20
-1.33903185280548
30
0
41
1
10
21.4670266124885
20
-1.28268279727521
30
0
41
1
10
21.3910567852781
20
-1.25398787742003
30
0
41
1
10
21.2389193095403
20
-1.1959060533932
30
0
41
1
10
21.1627594989873
20
-1.16650547782641
30
0
41
1
10
20.9339854603657
20
-1.07727851219312
30
0
41
1
10
20.7810558441645
20
-1.0164740219447
30
0
41
1
10
20.5510412317768
20
-0.923295870811955
30
0
41
1
10
20.4742870651794
20
-0.891862103016877
30
0
41
1
10
20.320708143766
20
-0.827998977568711
30
0
41
1
10
20.2438372564757
20
-0.79559255736342
30
0
41
1
10
20.0137135806166
20
-0.697978471744477
30
0
41
1
10
19.8606148794686
20
-0.632356293685376
30
0
41
1
10
19.631323504216
20
-0.533373615344033
30
0
41
1
10
19.5549498693837
20
-0.500293990691318
30
0
41
1
10
19.4023150625903
20
-0.433965366529833
30
0
41
1
10
19.3260608297344
20
-0.40069994838214
30
0
41
1
10
19.1738031339475
20
-0.333676049765359
30
0
41
1
10
19.0978085631338
20
-0.2998970832775
30
0
41
1
10
18.9459186772639
20
-0.232201867042221
30
0
41
1
10
18.8700086648481
20
-0.19831980355616
30
0
41
1
10
18.642276310297
20
-0.0968180138177956
30
0
41
1
10
18.4904844722921
20
-0.0292660353357235
30
0
41
1
10
18.2627338886989
20
0.0716452847804874
30
0
41
1
10
18.1868037066058
20
0.105206480238792
30
0
41
1
10
18.0350324783452
20
0.17244430087834
30
0
41
1
10
17.9592156356782
20
0.206176580505314
30
0
41
1
10
17.8076277397976
20
0.273654359052472
30
0
41
1
10
17.7318388005391
20
0.307358628427039
30
0
41
1
10
17.580127605596
20
0.37436874820537
30
0
41
1
10
17.4283096190729
20
0.441041615261867
30
0
41
1
10
17.2762487192369
20
0.506974310868173
30
0
41
1
10
17.1240490047407
20
0.572497817578096
30
0
41
1
10
17.047870137505
20
0.605033158998509
30
0
41
1
10
16.8954347020632
20
0.669833950539754
30
0
41
1
10
16.8191967993755
20
0.702141842328388
30
0
41
1
10
16.6667080882484
20
0.766632474483714
30
0
41
1
10
16.5904361987458
20
0.798767120440544
30
0
41
1
10
16.3612623938381
20
0.89421334138035
30
0
41
1
10
16.2080240149782
20
0.956617069002021
30
0
41
1
10
15.9773906308994
20
1.04817643865391
30
0
41
1
10
15.9003240484896
20
1.07835868627905
30
0
41
1
10
15.7465243897577
20
1.13786278381764
30
0
41
1
10
15.6697411565553
20
1.16723383044371
30
0
41
1
10
15.5165168958262
20
1.2254363001727
30
0
41
1
10
15.4400614753008
20
1.25423286496002
30
0
41
1
10
15.2872881287035
20
1.31084823226988
30
0
41
1
10
15.2109586519119
20
1.33864589148848
30
0
41
1
10
14.9821006159906
20
1.42046009296541
30
0
41
1
10
14.8297059045317
20
1.47290651376801
30
0
41
1
10
14.6012886599404
20
1.54836407945376
30
0
41
1
10
14.5251870830356
20
1.57299765485257
30
0
41
1
10
14.3731836337424
20
1.62143327911451
30
0
41
1
10
14.29729590471
20
1.64525531528236
30
0
41
1
10
14.0697280867286
20
1.71509995800105
30
0
41
1
10
13.9180397083499
20
1.75933900828264
30
0
41
1
10
13.6903271203682
20
1.82195961337425
30
0
41
1
10
13.6143990876373
20
1.84221988951018
30
0
41
1
10
13.4624769067861
20
1.88149850728607
30
0
41
1
10
13.386477757629
20
1.90051175902156
30
0
41
1
10
13.2345168463983
20
1.93743198108425
30
0
41
1
10
13.1585792040582
20
1.95536758935259
30
0
41
1
10
13.0067172386427
20
1.99007082851847
30
0
41
1
10
12.9307740922121
20
2.00681456579886
30
0
41
1
10
12.7026772301415
20
2.0549540880389
30
0
41
1
10
12.5503100753153
20
2.0843272482351
30
0
41
1
10
12.244845990892
20
2.13756123254552
30
0
41
1
10
12.0917086868214
20
2.16140711958764
30
0
41
1
10
11.8618935856308
20
2.19333549253187
30
0
41
1
10
11.7852405540813
20
2.20330603265418
30
0
41
1
10
11.631653952889
20
2.22175288718694
30
0
41
1
10
11.5546626801314
20
2.23023961244823
30
0
41
1
10
11.3238818974807
20
2.25340726945632
30
0
41
1
10
11.1701957244712
20
2.26580840192969
30
0
41
1
10
10.939852389763
20
2.27994030183118
30
0
41
1
10
10.8631125241501
20
2.28391006483642
30
0
41
1
10
10.7097821537967
20
2.29038023845223
30
0
41
1
10
10.633184674335
20
2.29287640925179
30
0
41
1
10
10.4604361497329
20
2.2968142530834
30
0
41
1
10
10.3642896790002
20
2.29782240979446
30
0
41
1
10
10.2681465255472
20
2.29764938106098
30
0
0
SPLINE
5
102
100
AcDbEntity
8
1
62
256
6
ByLayer
370
18
48
1
60
0
100
AcDbSpline
70
4
71
3
72
83
73
79
40
0
40
0
40
0
40
0
40
0.0130022262057856
40
0.0130022262057856
40
0.0402034888945514
40
0.0402034888945514
40
0.0674047515833172
40
0.0674047515833172
40
0.12180727696085
40
0.12180727696085
40
0.135407908305233
40
0.135407908305233
40
0.149008539649617
40
0.149008539649617
40
0.176209802338384
40
0.176209802338384
40
0.203411065027151
40
0.203411065027151
40
0.230612327715918
40
0.230612327715918
40
0.257813590404685
40
0.257813590404685
40
0.285014853093452
40
0.285014853093452
40
0.312216115782219
40
0.312216115782219
40
0.339417378470987
40
0.339417378470987
40
0.35301800981537
40
0.35301800981537
40
0.366618641159754
40
0.393819903848521
40
0.393819903848521
40
0.448222429226055
40
0.448222429226055
40
0.475423691914822
40
0.475423691914822
40
0.50262495460359
40
0.50262495460359
40
0.529826217292357
40
0.529826217292357
40
0.557027479981125
40
0.557027479981125
40
0.570628111325509
40
0.570628111325509
40
0.584228742669892
40
0.584228742669892
40
0.611430005358661
40
0.611430005358661
40
0.665832530736197
40
0.665832530736197
40
0.693033793424965
40
0.693033793424965
40
0.720235056113733
40
0.720235056113733
40
0.747436318802501
40
0.747436318802501
40
0.774637581491269
40
0.774637581491269
40
0.78143789716346
40
0.78143789716346
40
0.788238212835651
40
0.788238212835651
40
0.801838844180035
40
0.801838844180035
40
0.829040106868803
40
0.829040106868803
40
0.856241369557571
40
0.856241369557571
40
0.883442632246339
40
0.883442632246339
40
0.937845157623875
40
0.937845157623875
40
0.992247683001411
40
0.992247683001411
40
0.999047998673602
40
0.999047998673602
40
1
40
1
40
1
40
1
41
1
10
14.1110560179401
20
1.70089447576817
30
0
41
1
10
14.1985607456996
20
1.72719558470919
30
0
41
1
10
14.2860117158882
20
1.75276495835996
30
0
41
1
10
14.556312689918
20
1.82946850656293
30
0
41
1
10
14.7390627920934
20
1.87801435353637
30
0
41
1
10
15.1045914694421
20
1.96801967504743
30
0
41
1
10
15.2873414431253
20
2.00951252605154
30
0
41
1
10
15.8361271911964
20
2.12271399810319
30
0
41
1
10
16.2027532894625
20
2.18309809378664
30
0
41
1
10
16.6635006164923
20
2.23797324947611
30
0
41
1
10
16.7557772327685
20
2.24791532647177
30
0
41
1
10
16.9406311325353
20
2.26568829686798
30
0
41
1
10
17.0329263141351
20
2.27349171672302
30
0
41
1
10
17.3093470375575
20
2.29363808982356
30
0
41
1
10
17.4930507691387
20
2.30273564268896
30
0
41
1
10
17.8595782325226
20
2.31231150293905
30
0
41
1
10
18.0424175823074
20
2.31278324873821
30
0
41
1
10
18.4076265432413
20
2.30518185918825
30
0
41
1
10
18.5900097933325
20
2.29711739810722
30
0
41
1
10
18.9545373293687
20
2.2725451460197
30
0
41
1
10
19.1367002530969
20
2.25603747195157
30
0
41
1
10
19.5011938356237
20
2.21474580901688
30
0
41
1
10
19.6835461335832
20
2.18998073281878
30
0
41
1
10
20.0486835654663
20
2.13232552240822
30
0
41
1
10
20.2314686622227
20
2.09942880938681
30
0
41
1
10
20.5978580405642
20
2.02575868954017
30
0
41
1
10
20.7814707287865
20
1.98499742897076
30
0
41
1
10
21.0577546655034
20
1.91815593703609
30
0
41
1
10
21.1499979103485
20
1.89491205124409
30
0
41
1
10
21.3347576656828
20
1.8465578374641
30
0
41
1
10
21.6113881610118
20
1.77146926950357
30
0
41
1
10
21.8867141950831
20
1.6890936459863
30
0
41
1
10
22.4361952825523
20
1.5156698668784
30
0
41
1
10
22.8007680101224
20
1.38815470466429
30
0
41
1
10
23.3472356357764
20
1.18326967939811
30
0
41
1
10
23.5293174844714
20
1.11269607510883
30
0
41
1
10
23.8935849213011
20
0.967486571107457
30
0
41
1
10
24.0757880386438
20
0.892884498208787
30
0
41
1
10
24.4407045640443
20
0.740449948955842
30
0
41
1
10
24.6234354160514
20
0.662659174320993
30
0
41
1
10
24.9896484685102
20
0.504342458680554
30
0
41
1
10
25.1731475397476
20
0.423851849134621
30
0
41
1
10
25.4492732197697
20
0.301743387941372
30
0
41
1
10
25.5414926663323
20
0.260798583881439
30
0
41
1
10
25.7261462574286
20
0.17862951432059
30
0
41
1
10
25.8183113386596
20
0.137517644317029
30
0
41
1
10
26.0943492940366
20
0.0141590171500638
30
0
41
1
10
26.2777748147706
20
-0.0680845726476775
30
0
41
1
10
26.8268355474097
20
-0.31348074824524
30
0
41
1
10
27.1912914704987
20
-0.47521669303373
30
0
41
1
10
27.7373897211012
20
-0.71103460944903
30
0
41
1
10
27.9193403794019
20
-0.788474289193658
30
0
41
1
10
28.2834591717281
20
-0.94019299062532
30
0
41
1
10
28.4655918967628
20
-1.01454855322851
30
0
41
1
10
28.8303219374161
20
-1.15956097419527
30
0
41
1
10
29.0129270116125
20
-1.23020089999849
30
0
41
1
10
29.3790076316307
20
-1.36692904390983
30
0
41
1
10
29.5624762488174
20
-1.43303298868199
30
0
41
1
10
29.7925046416933
20
-1.51249912271467
30
0
41
1
10
29.8385460551443
20
-1.52823200896108
30
0
41
1
10
29.9307066054389
20
-1.55936427063338
30
0
41
1
10
29.9768511534529
20
-1.57477198776115
30
0
41
1
10
30.1152162805712
20
-1.62041179854586
30
0
41
1
10
30.2072946899958
20
-1.65003778770588
30
0
41
1
10
30.4831071718206
20
-1.73641950788439
30
0
41
1
10
30.6664395506201
20
-1.79064781019469
30
0
41
1
10
31.0322358339063
20
-1.89217098999174
30
0
41
1
10
31.2147133177704
20
-1.93943957870917
30
0
41
1
10
31.5792054987443
20
-2.02655621982856
30
0
41
1
10
31.7612391330246
20
-2.06638590277441
30
0
41
1
10
32.3070783211338
20
-2.17433305376687
30
0
41
1
10
32.6705957856269
20
-2.23088345947752
30
0
41
1
10
33.3998527648455
20
-2.3105974213702
30
0
41
1
10
33.7654006463801
20
-2.33386141637428
30
0
41
1
10
34.1794088751653
20
-2.34024452803982
30
0
41
1
10
34.2254478639474
20
-2.34067977691424
30
0
41
1
10
34.2779764424266
20
-2.34086195365998
30
0
41
1
10
34.2844282991501
20
-2.34087891849674
30
0
41
1
10
34.2908810574414
20
-2.34089047616888
30
0
0
SPLINE
5
103
100
AcDbEntity
8
1
62
256
6
ByLayer
370
18
48
1
60
0
100
AcDbSpline
70
4
71
3
72
56
73
52
40
0
40
0
40
0
40
0
40
0.0310930850837978
40
0.0310930850837978
40
0.0751343084890807
40
0.0751343084890807
40
0.0971549201917221
40
0.0971549201917221
40
0.108165226043044
40
0.108165226043044
40
0.119175531894366
40
0.119175531894366
40
0.207257978704931
40
0.207257978704931
40
0.295340425515497
40
0.295340425515497
40
0.339381648920779
40
0.339381648920779
40
0.361402260623421
40
0.361402260623421
40
0.372412566474741
40
0.372412566474741
40
0.38342287232606
40
0.42746409573134
40
0.42746409573134
40
0.47150531913662
40
0.47150531913662
40
0.559587765947179
40
0.559587765947179
40
0.603628989352459
40
0.603628989352459
40
0.6256496010551
40
0.6256496010551
40
0.63665990690642
40
0.63665990690642
40
0.647670212757741
40
0.691711436163023
40
0.691711436163023
40
0.735752659568305
40
0.735752659568305
40
0.82383510637887
40
0.82383510637887
40
0.867876329784152
40
0.867876329784152
40
0.889896941486793
40
0.889896941486793
40
0.900907247338114
40
0.900907247338114
40
0.911917553189434
40
0.911917553189434
40
1
40
1
40
1
40
1
41
1
10
50.7178324779806
20
2.37044698773607
30
0
41
1
10
50.8871001990616
20
2.37076077639159
30
0
41
1
10
51.05641624224
20
2.36732432645817
30
0
41
1
10
51.466007900743
20
2.34991866440331
30
0
41
1
10
51.7064643497839
20
2.33217362601411
30
0
41
1
10
52.0682741937193
20
2.29427380363205
30
0
41
1
10
52.1890658003144
20
2.27976097364453
30
0
41
1
10
52.3706129609519
20
2.25518637661636
30
0
41
1
10
52.4312288342899
20
2.24652122977739
30
0
41
1
10
52.5523947533643
20
2.22828967026007
30
0
41
1
10
52.6129064774331
20
2.21872973738687
30
0
41
1
10
53.1569299324668
20
2.12876631325557
30
0
41
1
10
53.6364150298222
20
2.02091860710007
30
0
41
1
10
54.5931011582924
20
1.75753995937617
30
0
41
1
10
55.0703168417174
20
1.6019943560984
30
0
41
1
10
55.7891634355128
20
1.34015830837296
30
0
41
1
10
56.0292801650977
20
1.24813533668669
30
0
41
1
10
56.390759550573
20
1.10389992639841
30
0
41
1
10
56.5114707282721
20
1.05478937707179
30
0
41
1
10
56.6929409454238
20
0.979708587643046
30
0
41
1
10
56.7535464538942
20
0.954425620947831
30
0
41
1
10
56.8746022778393
20
0.90354000537053
30
0
41
1
10
57.1768848643476
20
0.775513566882552
30
0
41
1
10
57.4775587166746
20
0.643820638544128
30
0
41
1
10
57.9574003717273
20
0.430267036986521
30
0
41
1
10
58.1966891953415
20
0.322036923289005
30
0
41
1
10
58.9137454667067
20
-0.004573438908352
30
0
41
1
10
59.3907003261068
20
-0.224879391825709
30
0
41
1
10
60.1092202836413
20
-0.548595879760825
30
0
41
1
10
60.3492453421627
20
-0.655369022486269
30
0
41
1
10
60.7106167865824
20
-0.812579439573682
30
0
41
1
10
60.8312953439194
20
-0.864493388042149
30
0
41
1
10
61.0127184286073
20
-0.941465556112348
30
0
41
1
10
61.0733003247177
20
-0.966989488454118
30
0
41
1
10
61.1942564584775
20
-1.0175605688876
30
0
41
1
10
61.4962890725895
20
-1.14286691851655
30
0
41
1
10
61.7966939365027
20
-1.26225918191619
30
0
41
1
10
62.2761001069262
20
-1.44424293242113
30
0
41
1
10
62.5151871291176
20
-1.53070542620262
30
0
41
1
10
63.231795379366
20
-1.77458711034672
30
0
41
1
10
63.7085889168725
20
-1.91660489570612
30
0
41
1
10
64.4268681037239
20
-2.09198446508927
30
0
41
1
10
64.6668162360203
20
-2.14416694500943
30
0
41
1
10
65.0281094607963
20
-2.21221449374642
30
0
41
1
10
65.1487690017347
20
-2.23319325872166
30
0
41
1
10
65.3301733107427
20
-2.26200942182629
30
0
41
1
10
65.3907160264177
20
-2.2711729761302
30
0
41
1
10
65.511659818165
20
-2.28856085812825
30
0
41
1
10
65.5720972434149
20
-2.29679116232924
30
0
41
1
10
66.1157807676065
20
-2.36666337889673
30
0
41
1
10
66.5972352142044
20
-2.39880882435838
30
0
41
1
10
67.080337274429
20
-2.3999102167293
30
0
0
SPLINE
5
104
100
AcDbEntity
8
1
62
256
6
ByLayer
370
18
48
1
60
0
100
AcDbSpline
70
4
71
3
72
10
73
6
40
0
40
0
40
0
40
0
40
0.5
40
0.5
40
1
40
1
40
1
40
1
41
1
10
67.0651039657704
20
-2.38530823062078
30
0
41
1
10
67.0676359317945
20
-2.39011646245606
30
0
41
1
10
67.0701705713346
20
-2.39374092023741
30
0
41
1
10
67.0752508455097
20
-2.39861448070778
30
0
41
1
10
67.0777972858
20
-2.39986014402865
30
0
41
1
10
67.080337274429
20
-2.3999102167293
30
0
0
SPLINE
5
105
100
AcDbEntity
8
1
62
256
6
ByLayer
370
18
48
1
60
0
100
AcDbSpline
70
4
71
3
72
67
73
63
40
0
40
0
40
0
40
0
40
0.0455778133368172
40
0.0455778133368172
40
0.0911556266736344
40
0.0911556266736344
40
0.113944533342043
40
0.113944533342043
40
0.136733440010452
40
0.136733440010452
40
0.15952234667886
40
0.15952234667886
40
0.182311253347269
40
0.182311253347269
40
0.273466880020905
40
0.273466880020905
40
0.319044693357724
40
0.319044693357724
40
0.364622506694542
40
0.364622506694542
40
0.38741141336295
40
0.38741141336295
40
0.410200320031358
40
0.410200320031358
40
0.455778133368176
40
0.455778133368176
40
0.478567040036586
40
0.478567040036586
40
0.501355946704997
40
0.501355946704997
40
0.546933760041815
40
0.546933760041815
40
0.569722666710223
40
0.569722666710223
40
0.592511573378631
40
0.592511573378631
40
0.615300480047039
40
0.626694933381243
40
0.626694933381243
40
0.638089386715447
40
0.638089386715447
40
0.683667200052263
40
0.683667200052263
40
0.706456106720671
40
0.706456106720671
40
0.729245013389079
40
0.729245013389079
40
0.774822826725898
40
0.774822826725898
40
0.820400640062716
40
0.820400640062716
40
0.865978453399534
40
0.865978453399534
40
0.888767360067943
40
0.888767360067943
40
0.900161813402147
40
0.900161813402147
40
0.91155626673635
40
0.91155626673635
40
0.957134080073166
40
0.957134080073166
40
1
40
1
40
1
40
1
41
1
10
67.0651039657794
20
-2.38530823062069
30
0
41
1
10
66.824292415874
20
-2.37262728391366
30
0
41
1
10
66.5837486312515
20
-2.35227987583625
30
0
41
1
10
66.1023842381987
20
-2.29672171026735
30
0
41
1
10
65.8615713514261
20
-2.26151292807268
30
0
41
1
10
65.4996424919206
20
-2.19785751164346
30
0
41
1
10
65.3787947324193
20
-2.17481166011299
30
0
41
1
10
65.1378461552733
20
-2.12542666253361
30
0
41
1
10
65.0176210896891
20
-2.09906911678579
30
0
41
1
10
64.7775633100871
20
-2.04317924971386
30
0
41
1
10
64.6577359962458
20
-2.01364184873057
30
0
41
1
10
64.4184479657852
20
-1.95144362039312
30
0
41
1
10
64.2989792581495
20
-1.91879062291056
30
0
41
1
10
63.702087310448
20
-1.74836861100263
30
0
41
1
10
63.2261079211166
20
-1.5890128105973
30
0
41
1
10
62.5100933532764
20
-1.32268952053278
30
0
41
1
10
62.2710999944166
20
-1.22933341146654
30
0
41
1
10
61.7916821382208
20
-1.03481395041112
30
0
41
1
10
61.5511994837982
20
-0.933768836211271
30
0
41
1
10
61.1887272050664
20
-0.7776420971839
30
0
41
1
10
61.0681196644314
20
-0.725031837206444
30
0
41
1
10
60.827520846178
20
-0.618844655111729
30
0
41
1
10
60.7074864547008
20
-0.565269930005201
30
0
41
1
10
60.3478802960686
20
-0.403779007757521
30
0
41
1
10
60.1088261203354
20
-0.295048210995731
30
0
41
1
10
59.7507796150379
20
-0.131444034117209
30
0
41
1
10
59.6315216100016
20
-0.0768207695446392
30
0
41
1
10
59.3931458546327
20
0.0325097423013005
30
0
41
1
10
59.2740234526782
20
0.0872063328795036
30
0
41
1
10
58.9166071484511
20
0.250839236892659
30
0
41
1
10
58.678273461349
20
0.359339896517213
30
0
41
1
10
58.3201400414765
20
0.519985544950117
30
0
41
1
10
58.2006588933826
20
0.573188081763874
30
0
41
1
10
57.9614579905414
20
0.678828409013761
30
0
41
1
10
57.8417343185205
20
0.731257302092615
30
0
41
1
10
57.6018654510774
20
0.834944135987541
30
0
41
1
10
57.4216512165962
20
0.91183910673692
30
0
41
1
10
57.2408723308273
20
0.987216341238337
30
0
41
1
10
57.1202161262099
20
1.03710511909438
30
0
41
1
10
57.0597841261202
20
1.06188261927034
30
0
41
1
10
56.7576645284049
20
1.18463190027663
30
0
41
1
10
56.5170833193175
20
1.27877949214766
30
0
41
1
10
56.157308660025
20
1.41298542097456
30
0
41
1
10
56.0375688759184
20
1.45655687492442
30
0
41
1
10
55.7983999077613
20
1.54127937389683
30
0
41
1
10
55.6789680610904
20
1.58242345577582
30
0
41
1
10
55.3208809998504
20
1.70180177451027
30
0
41
1
10
55.0824420040894
20
1.77600462705382
30
0
41
1
10
54.6055244261485
20
1.91279949305164
30
0
41
1
10
54.3670522865868
20
1.97539330230234
30
0
41
1
10
53.8892863702631
20
2.08787343399223
30
0
41
1
10
53.6499747905275
20
2.13774257365787
30
0
41
1
10
53.2898341549121
20
2.20230520048099
30
0
41
1
10
53.1695939254586
20
2.22212064149974
30
0
41
1
10
52.9888531071164
20
2.24918261159453
30
0
41
1
10
52.9285428917181
20
2.25776001063841
30
0
41
1
10
52.8077839737992
20
2.2740147089761
30
0
41
1
10
52.7472872706711
20
2.28169748780215
30
0
41
1
10
52.4451351856058
20
2.31774403208001
30
0
41
1
10
52.2045058149576
20
2.3390150704976
30
0
41
1
10
51.7389699446123
20
2.36565246391024
30
0
41
1
10
51.5139632027031
20
2.37188616136666
30
0
41
1
10
51.2892937962094
20
2.37148763827079
30
0
0
SPLINE
5
106
100
AcDbEntity
8
1
62
256
6
ByLayer
370
18
48
1
60
0
100
AcDbSpline
70
4
71
3
72
53
73
49
40
0
40
0
40
0
40
0
40
0.0222781358678766
40
0.0222781358678766
40
0.0921154118773182
40
0.0921154118773182
40
0.127034049882038
40
0.127034049882038
40
0.161952687886757
40
0.161952687886757
40
0.196871325891476
40
0.196871325891476
40
0.231789963896195
40
0.231789963896195
40
0.266708601900915
40
0.266708601900915
40
0.301627239905634
40
0.301627239905634
40
0.371464515915072
40
0.371464515915072
40
0.40638315391979
40
0.40638315391979
40
0.441301791924507
40
0.441301791924507
40
0.476220429929225
40
0.476220429929225
40
0.511139067933942
40
0.511139067933942
40
0.54605770593866
40
0.54605770593866
40
0.580976343943377
40
0.580976343943377
40
0.598435662945738
40
0.598435662945738
40
0.615894981948098
40
0.615894981948098
40
0.650813619952816
40
0.650813619952816
40
0.72065089596225
40
0.72065089596225
40
0.755569533966968
40
0.755569533966968
40
0.790488171971686
40
0.860325447981124
40
0.860325447981124
40
0.930162723990562
40
0.930162723990562
40
1
40
1
40
1
40
1
41
1
10
56.8266743494623
20
2.26834928724696
30
0
41
1
10
56.9025203940298
20
2.27898427274434
30
0
41
1
10
56.9783821190201
20
2.28890076821361
30
0
41
1
10
57.2921214466712
20
2.32694733553185
30
0
41
1
10
57.530122773819
20
2.34877808478049
30
0
41
1
10
57.8873955074455
20
2.37057351294405
30
0
41
1
10
58.0065610305713
20
2.37598977723897
30
0
41
1
10
58.2454043322225
20
2.38301081249457
30
0
41
1
10
58.3650687744978
20
2.38462427835032
30
0
41
1
10
58.6049782751951
20
2.38405904003847
30
0
41
1
10
58.7252641563893
20
2.38188187663869
30
0
41
1
10
58.9661873503073
20
2.37371026819577
30
0
41
1
10
59.0863485284392
20
2.3677320435925
30
0
41
1
10
59.3260879540857
20
2.35200932711274
30
0
41
1
10
59.4456820229877
20
2.34226394960407
30
0
41
1
10
59.6845945593283
20
2.319165242835
30
0
41
1
10
59.8039016035237
20
2.30581184636785
30
0
41
1
10
60.1614456179361
20
2.26045566191547
30
0
41
1
10
60.3992745275559
20
2.22316475713964
30
0
41
1
10
60.7552051608691
20
2.15652189084025
30
0
41
1
10
60.8737411595362
20
2.13253244727542
30
0
41
1
10
61.1110612878675
20
2.08148968282646
30
0
41
1
10
61.2298274083626
20
2.05442795815776
30
0
41
1
10
61.4675635982136
20
1.99727395274036
30
0
41
1
10
61.5865265911291
20
1.96717710245053
30
0
41
1
10
61.8244653921371
20
1.90369033049731
30
0
41
1
10
61.9434459784534
20
1.87030261644773
30
0
41
1
10
62.181444730087
20
1.80015006948906
30
0
41
1
10
62.3004785825978
20
1.76339537884451
30
0
41
1
10
62.5391603293202
20
1.68734123867753
30
0
41
1
10
62.6587948113036
20
1.64803389213395
30
0
41
1
10
62.8386692461119
20
1.58714112241245
30
0
41
1
10
62.8986982696667
20
1.56652177677918
30
0
41
1
10
63.0189002929504
20
1.52464173627121
30
0
41
1
10
63.0791021618767
20
1.50337065809242
30
0
41
1
10
63.2597363696913
20
1.43866839560752
30
0
41
1
10
63.3798814682343
20
1.39446159412012
30
0
41
1
10
63.7395521227876
20
1.25877492270186
30
0
41
1
10
63.9783084526388
20
1.16422194674379
30
0
41
1
10
64.3352352909307
20
1.01689797652884
30
0
41
1
10
64.4540152731156
20
0.966883341788446
30
0
41
1
10
64.6914978898231
20
0.865692303991892
30
0
41
1
10
65.0475976082513
20
0.712152255052558
30
0
41
1
10
65.4034928916083
20
0.553754775878446
30
0
41
1
10
65.8784934138649
20
0.339680122125401
30
0
41
1
10
66.1162273071354
20
0.231202058403483
30
0
41
1
10
66.5924565853613
20
0.0119400334367015
30
0
41
1
10
66.8309586539229
20
-0.0988328357720434
30
0
41
1
10
67.0701844474255
20
-0.210069843954273
30
0
0
SPLINE
5
107
100
AcDbEntity
8
1
62
256
6
ByLayer
370
18
48
1
60
0
100
AcDbSpline
70
4
71
3
72
8
73
4
40
0
40
0
40
0
40
0
40
1
40
1
40
1
40
1
41
1
10
67.0701844474221
20
-0.2100698439518
30
0
41
1
10
67.0815199184933
20
-0.103266637791023
30
0
41
1
10
67.0950446412223
20
0.0026547039259128
30
0
41
1
10
67.1112326812771
20
0.107644353769047
30
0
0
SPLINE
5
108
100
AcDbEntity
8
1
62
256
6
ByLayer
370
18
48
1
60
0
100
AcDbSpline
70
4
71
3
72
62
73
58
40
0
40
0
40
0
40
0
40
0.0573723429923366
40
0.0573723429923366
40
0.0860585144885027
40
0.0860585144885027
40
0.114744685984669
40
0.114744685984669
40
0.172117028977001
40
0.172117028977001
40
0.229489371969333
40
0.229489371969333
40
0.258175543465497
40
0.258175543465497
40
0.286861714961661
40
0.286861714961661
40
0.315547886457825
40
0.315547886457825
40
0.344234057953989
40
0.344234057953989
40
0.401606400946317
40
0.401606400946317
40
0.430292572442483
40
0.430292572442483
40
0.458978743938649
40
0.458978743938649
40
0.487664915434815
40
0.487664915434815
40
0.516351086930982
40
0.516351086930982
40
0.545037258427148
40
0.545037258427148
40
0.573723429923314
40
0.573723429923314
40
0.60240960141948
40
0.60240960141948
40
0.631095772915646
40
0.631095772915646
40
0.688468115907979
40
0.688468115907979
40
0.717154287404142
40
0.717154287404142
40
0.745840458900306
40
0.745840458900306
40
0.77452663039647
40
0.77452663039647
40
0.803212801892634
40
0.803212801892634
40
0.860585144884962
40
0.860585144884962
40
0.889271316381126
40
0.889271316381126
40
0.91795748787729
40
0.91795748787729
40
0.975329830869618
40
0.975329830869618
40
1
40
1
40
1
40
1
41
1
10
67.111232681277
20
0.107644353769047
30
0
41
1
10
66.9590558647655
20
0.178308233406739
30
0
41
1
10
66.8071748108925
20
0.248402539544969
30
0
41
1
10
66.579646255532
20
0.352400199317884
30
0
41
1
10
66.5038530406421
20
0.386877316987096
30
0
41
1
10
66.3523490156209
20
0.455423764767119
30
0
41
1
10
66.2766420516185
20
0.489502510227339
30
0
41
1
10
66.0498194945876
20
0.591515326608516
30
0
41
1
10
65.8990800224966
20
0.659382094641046
30
0
41
1
10
65.5974263922124
20
0.792382208463607
30
0
41
1
10
65.4465858800401
20
0.857684589069294
30
0
41
1
10
65.2201922263862
20
0.953640266071801
30
0
41
1
10
65.1446973178723
20
0.985276234100724
30
0
41
1
10
64.9937361320873
20
1.0480311653686
30
0
41
1
10
64.9182898959896
20
1.07918992126625
30
0
41
1
10
64.7674495716007
20
1.14102463933293
30
0
41
1
10
64.692036717927
20
1.1716624874822
30
0
41
1
10
64.5410582499317
20
1.23204962431501
30
0
41
1
10
64.4655017691875
20
1.26181760176488
30
0
41
1
10
64.2386062330724
20
1.34980358121345
30
0
41
1
10
64.0870199962754
20
1.40666541166146
30
0
41
1
10
63.8591482947931
20
1.48925569319229
30
0
41
1
10
63.7831290161542
20
1.51637216884404
30
0
41
1
10
63.631053959348
20
1.56992184167692
30
0
41
1
10
63.5549820096483
20
1.59632436561961
30
0
41
1
10
63.4025982203483
20
1.6480732875055
30
0
41
1
10
63.3262773200252
20
1.6734048970423
30
0
41
1
10
63.1733551304138
20
1.72294504059477
30
0
41
1
10
63.0969263441678
20
1.7470995079824
30
0
41
1
10
62.9442899697717
20
1.794112014077
30
0
41
1
10
62.8680512897267
20
1.81697545394974
30
0
41
1
10
62.7157268003562
20
1.86143007472163
30
0
41
1
10
62.6396472465339
20
1.88303259871955
30
0
41
1
10
62.4877658859759
20
1.92514556002834
30
0
41
1
10
62.4119743556313
20
1.94566600636668
30
0
41
1
10
62.2605316365659
20
1.98540653284482
30
0
41
1
10
62.184866655691
20
2.00460997415689
30
0
41
1
10
61.9579293568296
20
2.06010819794096
30
0
41
1
10
61.8067474145936
20
2.09433475359285
30
0
41
1
10
61.5800205314867
20
2.14148765695339
30
0
41
1
10
61.504448451321
20
2.1565049198189
30
0
41
1
10
61.3534149544661
20
2.18523880074602
30
0
41
1
10
61.2779760133194
20
2.19897382325959
30
0
41
1
10
61.1271816580551
20
2.2250895454967
30
0
41
1
10
61.0518091255256
20
2.23745463649843
30
0
41
1
10
60.900967226901
20
2.26068712242167
30
0
41
1
10
60.8255100853887
20
2.27156571255546
30
0
41
1
10
60.5990054476802
20
2.30198940770802
30
0
41
1
10
60.4477930094272
20
2.31930838411441
30
0
41
1
10
60.220710442701
20
2.34089777588358
30
0
41
1
10
60.14499964558
20
2.3473752187451
30
0
41
1
10
59.9935966148934
20
2.35888153521071
30
0
41
1
10
59.9178848485447
20
2.36389921848777
30
0
41
1
10
59.6904547483375
20
2.37663629057218
30
0
41
1
10
59.5384374513114
20
2.3820494550391
30
0
41
1
10
59.3203877576547
20
2.38539783457281
30
0
41
1
10
59.2547306184813
20
2.38583662564014
30
0
41
1
10
59.1889876137941
20
2.38570694806523
30
0
0
SPLINE
5
109
100
AcDbEntity
8
1
62
256
6
ByLayer
370
18
48
1
60
0
100
AcDbSpline
70
4
71
3
72
160
73
156
40
0
40
0
40
0
40
0
40
0.0049561722165406
40
0.0049561722165406
40
0.0160190981668732
40
0.0160190981668732
40
0.0270820241172059
40
0.0270820241172059
40
0.0381449500675387
40
0.0381449500675387
40
0.0492078760178714
40
0.0492078760178714
40
0.0602708019682041
40
0.0602708019682041
40
0.0713337279185369
40
0.0713337279185369
40
0.0823966538688696
40
0.0823966538688696
40
0.0934595798192023
40
0.0934595798192023
40
0.115585431719869
40
0.115585431719869
40
0.126648357670203
40
0.126648357670203
40
0.137711283620537
40
0.137711283620537
40
0.14877420957087
40
0.14877420957087
40
0.159837135521204
40
0.170900061471537
40
0.170900061471537
40
0.181962987421871
40
0.181962987421871
40
0.193025913372204
40
0.193025913372204
40
0.204088839322538
40
0.204088839322538
40
0.226214691223205
40
0.226214691223205
40
0.237277617173537
40
0.237277617173537
40
0.24834054312387
40
0.24834054312387
40
0.259403469074203
40
0.259403469074203
40
0.270466395024536
40
0.270466395024536
40
0.292592246925203
40
0.292592246925203
40
0.303655172875535
40
0.303655172875535
40
0.314718098825868
40
0.314718098825868
40
0.325781024776201
40
0.325781024776201
40
0.336843950726534
40
0.347906876676866
40
0.347906876676866
40
0.358969802627199
40
0.358969802627199
40
0.370032728577532
40
0.370032728577532
40
0.381095654527864
40
0.381095654527864
40
0.40322150642853
40
0.40322150642853
40
0.425347358329195
40
0.425347358329195
40
0.436410284279528
40
0.436410284279528
40
0.44747321022986
40
0.44747321022986
40
0.458536136180193
40
0.458536136180193
40
0.469599062130526
40
0.469599062130526
40
0.480661988080859
40
0.480661988080859
40
0.491724914031191
40
0.491724914031191
40
0.513850765931857
40
0.513850765931857
40
0.52491369188219
40
0.52491369188219
40
0.535976617832523
40
0.535976617832523
40
0.558102469733191
40
0.558102469733191
40
0.580228321633858
40
0.580228321633858
40
0.591291247584191
40
0.591291247584191
40
0.602354173534525
40
0.602354173534525
40
0.613417099484858
40
0.613417099484858
40
0.624480025435192
40
0.624480025435192
40
0.646605877335859
40
0.646605877335859
40
0.657668803286192
40
0.657668803286192
40
0.668731729236526
40
0.668731729236526
40
0.679794655186859
40
0.679794655186859
40
0.690857581137193
40
0.690857581137193
40
0.701920507087526
40
0.701920507087526
40
0.71298343303786
40
0.71298343303786
40
0.724046358988193
40
0.724046358988193
40
0.735109284938527
40
0.735109284938527
40
0.757235136839192
40
0.757235136839192
40
0.768298062789525
40
0.768298062789525
40
0.779360988739857
40
0.779360988739857
40
0.79042391469019
40
0.79042391469019
40
0.801486840640523
40
0.812549766590855
40
0.812549766590855
40
0.823612692541188
40
0.823612692541188
40
0.83467561849152
40
0.83467561849152
40
0.845738544441853
40
0.845738544441853
40
0.867864396342519
40
0.867864396342519
40
0.87892732229285
40
0.87892732229285
40
0.889990248243182
40
0.889990248243182
40
0.901053174193514
40
0.901053174193514
40
0.912116100143846
40
0.912116100143846
40
0.934241952044508
40
0.934241952044508
40
0.945304877994839
40
0.945304877994839
40
0.95636780394517
40
0.95636780394517
40
0.967430729895501
40
0.967430729895501
40
0.978493655845832
40
0.989556581796164
40
0.989556581796164
40
1
40
1
40
1
40
1
41
1
10
47.1985312208923
20
-1.59354763204769
30
0
41
1
10
47.1645063699573
20
-1.60490170455651
30
0
41
1
10
47.1304664912236
20
-1.61615347751436
30
0
41
1
10
47.0203956173442
20
-1.65219012945695
30
0
41
1
10
46.9443237660803
20
-1.67660042524011
30
0
41
1
10
46.792165143362
20
-1.72461023377693
30
0
41
1
10
46.7160629185295
20
-1.74818207502653
30
0
41
1
10
46.563638668266
20
-1.79416768369899
30
0
41
1
10
46.4873063102295
20
-1.81656645589499
30
0
41
1
10
46.3343767299567
20
-1.86014048933984
30
0
41
1
10
46.2577140230992
20
-1.88133601103854
30
0
41
1
10
46.1044411484221
20
-1.92239527075046
30
0
41
1
10
46.0278936827009
20
-1.94223976580074
30
0
41
1
10
45.8749690865096
20
-1.98057396098625
30
0
41
1
10
45.7985980561167
20
-1.99907406831011
30
0
41
1
10
45.6461538736545
20
-2.03488403711941
30
0
41
1
10
45.5700923982633
20
-2.05220347166238
30
0
41
1
10
45.4181317888713
20
-2.08546748527939
30
0
41
1
10
45.3422184519289
20
-2.1013974687796
30
0
41
1
10
45.1145639353084
20
-2.14698939393463
30
0
41
1
10
44.9629423834517
20
-2.17449327521433
30
0
41
1
10
44.7356159365445
20
-2.21142476800802
30
0
41
1
10
44.6598539137592
20
-2.22301290989549
30
0
41
1
10
44.5084642070197
20
-2.24482768862004
30
0
41
1
10
44.4328596629132
20
-2.25506835868191
30
0
41
1
10
44.2817563059878
20
-2.27413752198697
30
0
41
1
10
44.206239953902
20
-2.28295367986084
30
0
41
1
10
44.055130538709
20
-2.29906918003314
30
0
41
1
10
43.9039695729412
20
-2.31368569540683
30
0
41
1
10
43.7526736652125
20
-2.32531783768229
30
0
41
1
10
43.601291878808
20
-2.33546167892061
30
0
41
1
10
43.5255488314375
20
-2.33978765917365
30
0
41
1
10
43.3740257986564
20
-2.34696913059767
30
0
41
1
10
43.2982617318757
20
-2.34982837105372
30
0
41
1
10
43.1467782080529
20
-2.35405981127226
30
0
41
1
10
43.0710386076268
20
-2.35542511284285
30
0
41
1
10
42.8435562359044
20
-2.35722426161985
30
0
41
1
10
42.6915503171242
20
-2.35537319108104
30
0
41
1
10
42.462917729022
20
-2.34806871785801
30
0
41
1
10
42.3865975464709
20
-2.34488042794555
30
0
41
1
10
42.2337543008005
20
-2.33699369806277
30
0
41
1
10
42.1572395268592
20
-2.33229497385176
30
0
41
1
10
42.0041364254455
20
-2.32131426628303
30
0
41
1
10
41.9274660179909
20
-2.31502175771899
30
0
41
1
10
41.7743816004786
20
-2.30093728824886
30
0
41
1
10
41.6979303614064
20
-2.29315408898677
30
0
41
1
10
41.468783296869
20
-2.26765554127414
30
0
41
1
10
41.3163094189904
20
-2.24778482468381
30
0
41
1
10
41.0879192587242
20
-2.21387495132959
30
0
41
1
10
41.0118467842897
20
-2.20188619309008
30
0
41
1
10
40.8599309629774
20
-2.17644204246659
30
0
41
1
10
40.7841078531351
20
-2.16296577599218
30
0
41
1
10
40.6325950285934
20
-2.13460881145389
30
0
41
1
10
40.5568900216642
20
-2.1197429384782
30
0
41
1
10
40.405476064406
20
-2.08875467122186
30
0
41
1
10
40.2540806483676
20
-2.05648938981295
30
0
41
1
10
40.1026879897566
20
-2.02173815818708
30
0
41
1
10
39.9512772707003
20
-1.98577907938571
30
0
41
1
10
39.8755548656059
20
-1.96720673857558
30
0
41
1
10
39.7241727395394
20
-1.92875772704966
30
0
41
1
10
39.6485344378857
20
-1.90885222903174
30
0
41
1
10
39.4973403478072
20
-1.86768301029934
30
0
41
1
10
39.4217651843769
20
-1.84644346529123
30
0
41
1
10
39.1948509646575
20
-1.78111398582843
30
0
41
1
10
39.0433654613759
20
-1.73536171992865
30
0
41
1
10
38.7398444644605
20
-1.63972914699832
30
0
41
1
10
38.5877428398042
20
-1.58997823082294
30
0
41
1
10
38.3595880885189
20
-1.51150221863756
30
0
41
1
10
38.2835200041693
20
-1.4847219809786
30
0
41
1
10
38.1311732573056
20
-1.43022350773137
30
0
41
1
10
38.0548864500035
20
-1.40252278080178
30
0
41
1
10
37.9020668840213
20
-1.34626020071909
30
0
41
1
10
37.8255348834504
20
-1.3176968955793
30
0
41
1
10
37.6722092480644
20
-1.25974315939561
30
0
41
1
10
37.5953624633161
20
-1.23033966859003
30
0
41
1
10
37.441986636092
20
-1.17094307632368
30
0
41
1
10
37.3654008525558
20
-1.14091225748115
30
0
41
1
10
37.2125524308455
20
-1.07993108233038
30
0
41
1
10
37.1362954778247
20
-1.04896780050936
30
0
41
1
10
36.9077784845744
20
-0.95518955661268
30
0
41
1
10
36.7556859421036
20
-0.891673608394939
30
0
41
1
10
36.5277401563688
20
-0.795326538843398
30
0
41
1
10
36.4517944001053
20
-0.763023321322521
30
0
41
1
10
36.2999549815743
20
-0.698089041122131
30
0
41
1
10
36.2240605475022
20
-0.665459989590374
30
0
41
1
10
35.9966210708082
20
-0.566715646723878
30
0
41
1
10
35.8454471377675
20
-0.499455368723517
30
0
41
1
10
35.5428585425241
20
-0.364617140112898
30
0
41
1
10
35.3914965508568
20
-0.296925810999312
30
0
41
1
10
35.1642476930929
20
-0.195228340695451
30
0
41
1
10
35.0884540515065
20
-0.161324694285753
30
0
41
1
10
34.936859907052
20
-0.0933235683040152
30
0
41
1
10
34.8610779123638
20
-0.0591836624360269
30
0
41
1
10
34.709567407687
20
0.0094332567763331
30
0
41
1
10
34.6338184810227
20
0.0438638142987315
30
0
41
1
10
34.4821528113319
20
0.112553957243961
30
0
41
1
10
34.4062411558745
20
0.146824916882736
30
0
41
1
10
34.1782480452624
20
0.249362959991402
30
0
41
1
10
34.0258920241585
20
0.317316361230041
30
0
41
1
10
33.7967932130737
20
0.418579761867392
30
0
41
1
10
33.7203499916041
20
0.452263459371807
30
0
41
1
10
33.5674160182225
20
0.519746586744958
30
0
41
1
10
33.4909122592209
20
0.553515888297312
30
0
41
1
10
33.3376556755784
20
0.620696011363805
30
0
41
1
10
33.2608758836715
20
0.654084406098207
30
0
41
1
10
33.107628938934
20
0.720113915176142
30
0
41
1
10
33.0310875416606
20
0.752794441214945
30
0
41
1
10
32.8781489093559
20
0.817459216380115
30
0
41
1
10
32.8017498480377
20
0.849439380418914
30
0
41
1
10
32.6490822126054
20
0.912688293493829
30
0
41
1
10
32.5728193552886
20
0.94397120096275
30
0
41
1
10
32.4205541703031
20
1.00610912780445
30
0
41
1
10
32.3445669425997
20
1.03699352395898
30
0
41
1
10
32.1927270954054
20
1.09805010773647
30
0
41
1
10
32.1168597602983
20
1.12819243679428
30
0
41
1
10
31.8892862606647
20
1.21721509172801
30
0
41
1
10
31.7376475532427
20
1.27477329073398
30
0
41
1
10
31.5101957256387
20
1.35828273662935
30
0
41
1
10
31.4343736750699
20
1.38563812192888
30
0
41
1
10
31.2828278253623
20
1.43958573197966
30
0
41
1
10
31.2071273745935
20
1.46621878188793
30
0
41
1
10
31.0558093659076
20
1.51867212659286
30
0
41
1
10
30.9801733103444
20
1.54445882154923
30
0
41
1
10
30.8287905960834
20
1.59488417153801
30
0
41
1
10
30.6773223419219
20
1.64420703715774
30
0
41
1
10
30.5256522447003
20
1.69129132972137
30
0
41
1
10
30.373863322745
20
1.73723424865034
30
0
41
1
10
30.2979001994805
20
1.75962142606281
30
0
41
1
10
30.1459014412211
20
1.80332706917741
30
0
41
1
10
30.0698813946539
20
1.82466895760226
30
0
41
1
10
29.9178587640593
20
1.86639323955413
30
0
41
1
10
29.8418357483435
20
1.88674354056158
30
0
41
1
10
29.6134591375752
20
1.94586180973508
30
0
41
1
10
29.4607924927135
20
1.9826978101141
30
0
41
1
10
29.2310768221626
20
2.03399118696308
30
0
41
1
10
29.1543803351016
20
2.05042257935818
30
0
41
1
10
29.0007538553452
20
2.08197027026321
30
0
41
1
10
28.9238338092756
20
2.09709568679284
30
0
41
1
10
28.7705024202398
20
2.12604398183257
30
0
41
1
10
28.6940093189845
20
2.13987102333783
30
0
41
1
10
28.5411984939312
20
2.16605432987194
30
0
41
1
10
28.4648669397253
20
2.17840018131628
30
0
41
1
10
28.2360276203831
20
2.21318497671842
30
0
41
1
10
28.0836910419438
20
2.23338717089033
30
0
41
1
10
27.8554093258619
20
2.25926974636727
30
0
41
1
10
27.7793567789698
20
2.2671650832595
30
0
41
1
10
27.6274523388152
20
2.2815507957653
30
0
41
1
10
27.5516212197212
20
2.28804721227164
30
0
41
1
10
27.4000633428235
20
2.29956062645155
30
0
41
1
10
27.3243209403249
20
2.30457190627359
30
0
41
1
10
27.1728007689549
20
2.31308034525597
30
0
41
1
10
27.0212683611372
20
2.32008469214864
30
0
41
1
10
26.8696792833383
20
2.32410792191706
30
0
41
1
10
26.7222890256992
20
2.3265805846836
30
0
41
1
10
26.650688592667
20
2.32712321707709
30
0
41
1
10
26.5791018153675
20
2.32700905996265
30
0
0
SPLINE
5
10A
100
AcDbEntity
8
1
62
256
6
ByLayer
370
18
48
1
60
0
100
AcDbSpline
70
4
71
3
72
38
73
34
40
0
40
0
40
0
40
0
40
0.0644667171841361
40
0.0644667171841361
40
0.10699095731213
40
0.10699095731213
40
0.149515197440125
40
0.149515197440125
40
0.19203943756812
40
0.19203943756812
40
0.234563677696115
40
0.234563677696115
40
0.319612157952102
40
0.319612157952102
40
0.404660638208089
40
0.404660638208089
40
0.447184878336082
40
0.447184878336082
40
0.489709118464074
40
0.489709118464074
40
0.574757598720059
40
0.574757598720059
40
0.617281838848054
40
0.617281838848054
40
0.659806078976049
40
0.659806078976049
40
0.744854559232037
40
0.744854559232037
40
0.829903039488024
40
0.829903039488024
40
0.914951519744013
40
0.914951519744013
40
1
40
1
40
1
40
1
41
1
10
14.1112990712519
20
-1.70193102321417
30
0
41
1
10
13.9963037730504
20
-1.73636574966417
30
0
41
1
10
13.8813020224229
20
-1.76944181438049
30
0
41
1
10
13.6903271203682
20
-1.82195961337428
30
0
41
1
10
13.6143990876373
20
-1.84221988951018
30
0
41
1
10
13.4624769067861
20
-1.88149850728607
30
0
41
1
10
13.386477757629
20
-1.90051175902156
30
0
41
1
10
13.2345168463983
20
-1.93743198108425
30
0
41
1
10
13.1585792040583
20
-1.95536758935259
30
0
41
1
10
13.0067172386427
20
-1.99007082851847
30
0
41
1
10
12.9307740922121
20
-2.00681456579886
30
0
41
1
10
12.7026772301415
20
-2.0549540880389
30
0
41
1
10
12.5503100753153
20
-2.0843272482351
30
0
41
1
10
12.244845990892
20
-2.13756123254552
30
0
41
1
10
12.0917086868215
20
-2.16140711958764
30
0
41
1
10
11.8618935856307
20
-2.19333549253187
30
0
41
1
10
11.7852405540813
20
-2.20330603265418
30
0
41
1
10
11.631653952889
20
-2.22175288718694
30
0
41
1
10
11.5546626801314
20
-2.23023961244823
30
0
41
1
10
11.3238818974807
20
-2.25340726945632
30
0
41
1
10
11.1701957244712
20
-2.26580840192969
30
0
41
1
10
10.9398523897629
20
-2.27994030183118
30
0
41
1
10
10.8631125241501
20
-2.28391006483642
30
0
41
1
10
10.7097821537967
20
-2.29038023845223
30
0
41
1
10
10.633184674335
20
-2.29287640925179
30
0
41
1
10
10.4034661078828
20
-2.29811289877895
30
0
41
1
10
10.2503944320851
20
-2.29860126844869
30
0
41
1
10
9.944190157854
20
-2.29359702816779
30
0
41
1
10
9.79106133888729
20
-2.28811367696014
30
0
41
1
10
9.48482187704016
20
-2.27109813238638
30
0
41
1
10
9.33173128392639
20
-2.25952278959235
30
0
41
1
10
9.02458966470098
20
-2.23067386605675
30
0
41
1
10
8.87061959001812
20
-2.21339073203708
30
0
41
1
10
8.71617616045637
20
-2.19338220167981
30
0
0
SPLINE
5
10B
100
AcDbEntity
8
1
62
256
6
ByLayer
370
18
48
1
60
0
100
AcDbSpline
70
4
71
3
72
40
73
36
40
0
40
0
40
0
40
0
40
0.0605400147699491
40
0.0605400147699491
40
0.121080029539898
40
0.121080029539898
40
0.242160059079796
40
0.242160059079796
40
0.302700073849745
40
0.302700073849745
40
0.363240088619694
40
0.363240088619694
40
0.423780103389643
40
0.423780103389643
40
0.454050110774619
40
0.454050110774619
40
0.484320118159594
40
0.484320118159594
40
0.544860132929545
40
0.544860132929545
40
0.605400147699496
40
0.605400147699496
40
0.665940162469447
40
0.665940162469447
40
0.726480177239398
40
0.726480177239398
40
0.847560206779298
40
0.847560206779298
40
0.877830214164274
40
0.877830214164274
40
0.90810022154925
40
0.90810022154925
40
0.968640236319204
40
0.968640236319204
40
1
40
1
40
1
40
1
41
1
10
8.86502440614748
20
0.408543192196419
30
0
41
1
10
9.05013027342707
20
0.328309901671844
30
0
41
1
10
9.23461844614627
20
0.247497239009306
30
0
41
1
10
9.60264890887788
20
0.0853955137622791
30
0
41
1
10
9.78620124986881
20
0.0041317289404503
30
0
41
1
10
10.3361016984622
20
-0.238823385534658
30
0
41
1
10
10.7016109884274
20
-0.399869989218843
30
0
41
1
10
11.250266179859
20
-0.635423915317404
30
0
41
1
10
11.433204389938
20
-0.712967965570357
30
0
41
1
10
11.7994714559835
20
-0.865461872741264
30
0
41
1
10
11.982814875593
20
-0.940378898723822
30
0
41
1
10
12.3502989820433
20
-1.08671335327793
30
0
41
1
10
12.5344518488077
20
-1.15810606688336
30
0
41
1
10
12.8114585801572
20
-1.26216803174663
30
0
41
1
10
12.9040072111397
20
-1.29636886968316
30
0
41
1
10
13.0886781307439
20
-1.36336647665166
30
0
41
1
10
13.1808720398274
20
-1.39619021864087
30
0
41
1
10
13.4570971773111
20
-1.4925269577048
30
0
41
1
10
13.6407968975162
20
-1.55386122017134
30
0
41
1
10
14.0075205356613
20
-1.67044018243368
30
0
41
1
10
14.1905470311764
20
-1.72567485973283
30
0
41
1
10
14.5563126899181
20
-1.82946850656293
30
0
41
1
10
14.7390627920935
20
-1.8780143535364
30
0
41
1
10
15.1045914694421
20
-1.96801967504743
30
0
41
1
10
15.2873414431254
20
-2.00951252605154
30
0
41
1
10
15.8361271911965
20
-2.12271399810319
30
0
41
1
10
16.2027532894626
20
-2.18309809378667
30
0
41
1
10
16.6635006164925
20
-2.23797324947614
30
0
41
1
10
16.7557772327687
20
-2.2479153264718
30
0
41
1
10
16.9406311325354
20
-2.26568829686798
30
0
41
1
10
17.0329263141352
20
-2.27349171672304
30
0
41
1
10
17.3093470375576
20
-2.29363808982356
30
0
41
1
10
17.4930507691389
20
-2.30273564268896
30
0
41
1
10
17.7712452229153
20
-2.3100037234683
30
0
41
1
10
17.8660620728873
20
-2.31132573561828
30
0
41
1
10
17.9607913915395
20
-2.31149568930914
30
0
0
SPLINE
5
10C
100
AcDbEntity
8
1
62
256
6
ByLayer
370
18
48
1
60
0
100
AcDbSpline
70
4
71
3
72
61
73
57
40
0
40
0
40
0
40
0
40
0.0306164004665235
40
0.0306164004665235
40
0.0710073837804326
40
0.0710073837804326
40
0.111398367094341
40
0.111398367094341
40
0.192180333722159
40
0.192180333722159
40
0.272962300349977
40
0.272962300349977
40
0.283060046178453
40
0.283060046178453
40
0.293157792006928
40
0.293157792006928
40
0.313353283663877
40
0.353744266977773
40
0.353744266977773
40
0.394135250291668
40
0.394135250291668
40
0.434526233605563
40
0.434526233605563
40
0.474917216919458
40
0.474917216919458
40
0.515308200233353
40
0.515308200233353
40
0.555699183547249
40
0.555699183547249
40
0.596090166861144
40
0.596090166861144
40
0.606187912689615
40
0.606187912689615
40
0.616285658518087
40
0.616285658518087
40
0.636481150175031
40
0.636481150175031
40
0.676872133488916
40
0.676872133488916
40
0.717263116802801
40
0.717263116802801
40
0.757654100116686
40
0.757654100116686
40
0.79804508343057
40
0.79804508343057
40
0.838436066744455
40
0.838436066744455
40
0.87882705005834
40
0.87882705005834
40
0.919218033372225
40
0.919218033372225
40
0.939413525029169
40
0.939413525029169
40
0.959609016686112
40
0.959609016686112
40
1
40
1
40
1
40
1
41
1
10
30.4326311500693
20
1.72004854252052
30
0
41
1
10
30.5718142939113
20
1.76246288882703
30
0
41
1
10
30.7107007418922
20
1.80293207081971
30
0
41
1
10
31.0322358339064
20
1.89217098999174
30
0
41
1
10
31.2147133177704
20
1.9394395787092
30
0
41
1
10
31.5792054987443
20
2.02655621982856
30
0
41
1
10
31.7612391330246
20
2.06638590277441
30
0
41
1
10
32.3070783211338
20
2.17433305376687
30
0
41
1
10
32.6705957856269
20
2.23088345947752
30
0
41
1
10
33.3998527648455
20
2.3105974213702
30
0
41
1
10
33.7654006463802
20
2.33386141637428
30
0
41
1
10
34.1794088751654
20
2.34024452803982
30
0
41
1
10
34.2254478639476
20
2.34067977691424
30
0
41
1
10
34.3176037743766
20
2.34099938700746
30
0
41
1
10
34.3637446668375
20
2.3408833068849
30
0
41
1
10
34.5019932519974
20
2.33970708052496
30
0
41
1
10
34.777986447886
20
2.3340479000737
30
0
41
1
10
35.0526857159344
20
2.31856453130664
30
0
41
1
10
35.4181991850799
20
2.28943950267848
30
0
41
1
10
35.600580071763
20
2.2706430081567
30
0
41
1
10
35.9648232154951
20
2.22477544577822
30
0
41
1
10
36.1467043956793
20
2.19771151526464
30
0
41
1
10
36.5103583470742
20
2.1356366696449
30
0
41
1
10
36.6921536206739
20
2.10065132985244
30
0
41
1
10
37.0558904445838
20
2.02298021913265
30
0
41
1
10
37.2378414292589
20
1.98029849009288
30
0
41
1
10
37.6022917377252
20
1.88763888609449
30
0
41
1
10
37.7848055084551
20
1.83768371659033
30
0
41
1
10
38.1506957759706
20
1.7308400887666
30
0
41
1
10
38.3340529405941
20
1.67391772553216
30
0
41
1
10
38.5640113139766
20
1.59869536167648
30
0
41
1
10
38.6100411547759
20
1.58344774853768
30
0
41
1
10
38.702182535221
20
1.55255316424484
30
0
41
1
10
38.7482812761008
20
1.53691014687885
30
0
41
1
10
38.8863802918066
20
1.48951274798128
30
0
41
1
10
38.9782931429206
20
1.45726077736899
30
0
41
1
10
39.2536202569873
20
1.35864653483608
30
0
41
1
10
39.4365964938514
20
1.29037385659888
30
0
41
1
10
39.8017656461849
20
1.14952128848518
30
0
41
1
10
39.9839600136857
20
1.07694390918221
30
0
41
1
10
40.347967704526
20
0.92832919651903
30
0
41
1
10
40.529756871138
20
0.852243114224279
30
0
41
1
10
40.8931896073853
20
0.697117240158178
30
0
41
1
10
41.0748466399694
20
0.618105209236148
30
0
41
1
10
41.4384222500118
20
0.458009729246953
30
0
41
1
10
41.6203515953786
20
0.376952246781059
30
0
41
1
10
41.9847091927784
20
0.213283608156701
30
0
41
1
10
42.1671565040069
20
0.130714177193539
30
0
41
1
10
42.5329700970798
20
-0.0350403580177101
30
0
41
1
10
42.7163580037556
20
-0.118172195875786
30
0
41
1
10
42.9923430955628
20
-0.242851592408869
30
0
41
1
10
43.0845541461907
20
-0.28443584432307
30
0
41
1
10
43.2684645691403
20
-0.367092798545457
30
0
41
1
10
43.3602617453979
20
-0.408209202488734
30
0
41
1
10
43.6352521796339
20
-0.530763859231712
30
0
41
1
10
43.8180561031018
20
-0.611380322711568
30
0
41
1
10
44.0004932811082
20
-0.690587778604169
30
0
0
SPLINE
5
10D
100
AcDbEntity
8
1
62
256
6
ByLayer
370
18
48
1
60
0
100
AcDbSpline
70
4
71
3
72
28
73
24
40
0
40
0
40
0
40
0
40
0.0537981509466513
40
0.0537981509466513
40
0.107596301893303
40
0.107596301893303
40
0.2151926037866
40
0.2151926037866
40
0.430385207573195
40
0.430385207573195
40
0.537981509466495
40
0.537981509466495
40
0.645577811359795
40
0.645577811359795
40
0.67247688683312
40
0.67247688683312
40
0.699375962306445
40
0.699375962306445
40
0.7531741132531
40
0.7531741132531
40
0.860770415146415
40
0.860770415146415
40
1
40
1
40
1
40
1
41
1
10
44.0004932811175
20
-0.655378320523653
30
0
41
1
10
44.12181010121
20
-0.708128849526958
30
0
41
1
10
44.2431026406439
20
-0.760327720629903
30
0
41
1
10
44.4857195728071
20
-0.863453752750132
30
0
41
1
10
44.6070855106162
20
-0.914397956370465
30
0
41
1
10
44.9711010473571
20
-1.06493154292099
30
0
41
1
10
45.2127172328339
20
-1.16183214083938
30
0
41
1
10
45.9355462042415
20
-1.44001894726961
30
0
41
1
10
46.4147504179016
20
-1.60870701556919
30
0
41
1
10
47.1344301338725
20
-1.82839190878033
30
0
41
1
10
47.3744691760411
20
-1.89607969871562
30
0
41
1
10
47.8555475551832
20
-2.01928854741337
30
0
41
1
10
48.0965848594518
20
-2.07480927015456
30
0
41
1
10
48.3990036548718
20
-2.13588153405664
30
0
41
1
10
48.4595437321736
20
-2.14767952151502
30
0
41
1
10
48.5807497245626
20
-2.17042463049873
30
0
41
1
10
48.6414120730353
20
-2.18137024382165
30
0
41
1
10
48.8230854833919
20
-2.21281922644485
30
0
41
1
10
48.9439578270193
20
-2.23196714612701
30
0
41
1
10
49.3059945998101
20
-2.28390291793491
30
0
41
1
10
49.5465706500486
20
-2.31118798880078
30
0
41
1
10
50.0975055941718
20
-2.35669821029541
30
0
41
1
10
50.4075876182903
20
-2.36987184189823
30
0
41
1
10
50.717831974367
20
-2.37044698680228
30
0
0
SPLINE
5
10E
100
AcDbEntity
8
1
62
256
6
ByLayer
370
18
48
1
60
0
100
AcDbSpline
70
4
71
3
72
14
73
10
40
0
40
0
40
0
40
0
40
0.163320093273719
40
0.163320093273719
40
0.246988083946346
40
0.246988083946346
40
0.330656074618971
40
0.330656074618971
40
1
40
1
40
1
40
1
41
1
10
64.9163494398081
20
2.19116210259801
30
0
41
1
10
65.0339010250417
20
2.2132204121925
30
0
41
1
10
65.1516713438562
20
2.23365429718547
30
0
41
1
10
65.3301733107426
20
2.26200942182629
30
0
41
1
10
65.3907160264177
20
2.27117297613017
30
0
41
1
10
65.511659818165
20
2.28856085812822
30
0
41
1
10
65.5720972434149
20
2.29679116232924
30
0
41
1
10
66.1157807676065
20
2.36666337889673
30
0
41
1
10
66.5972352142043
20
2.39880882435838
30
0
41
1
10
67.0803372744289
20
2.3999102167293
30
0
0
SPLINE
5
10F
100
AcDbEntity
8
1
62
256
6
ByLayer
370
18
48
1
60
0
100
AcDbSpline
70
4
71
3
72
22
73
18
40
0
40
0
40
0
40
0
40
0.113584624510899
40
0.113584624510899
40
0.135369076517628
40
0.135369076517628
40
0.157153528524355
40
0.157153528524355
40
0.178937980531084
40
0.178937980531084
40
0.200722432537812
40
0.200722432537812
40
0.287860240564719
40
0.287860240564719
40
0.462135856618545
40
0.462135856618545
40
1
40
1
40
1
40
1
41
1
10
8.6612300616859
20
0.494104277488475
30
0
41
1
10
8.65645054425633
20
0.494822694578716
30
0
41
1
10
8.65163321510289
20
0.495481495335639
30
0
41
1
10
8.64584960180702
20
0.496194775239672
30
0
41
1
10
8.64491755999862
20
0.496307343021329
30
0
41
1
10
8.64305087741985
20
0.496528036147424
30
0
41
1
10
8.64133131818716
20
0.496891823335858
30
0
41
1
10
8.64259936834361
20
0.496037160571689
30
0
41
1
10
8.64449847547999
20
0.495262575024412
30
0
41
1
10
8.6479237298785
20
0.493844358259025
30
0
41
1
10
8.64974538796264
20
0.493111416368464
30
0
41
1
10
8.65896336718578
20
0.489433102000248
30
0
41
1
10
8.66674701504718
20
0.486412187989316
30
0
41
1
10
8.69013754421917
20
0.477344115260422
30
0
41
1
10
8.70599546260149
20
0.471250633313872
30
0
41
1
10
8.77102334929074
20
0.446290011662796
30
0
41
1
10
8.82070933460037
20
0.427292370303974
30
0
41
1
10
8.87054498907074
20
0.408216597452792
30
0
0
SPLINE
5
110
100
AcDbEntity
8
1
62
256
6
ByLayer
370
18
48
1
60
0
100
AcDbSpline
70
4
71
3
72
26
73
22
40
0
40
0
40
0
40
0
40
0.0019569851158024
40
0.0019569851158024
40
0.0142609644076381
40
0.0142609644076381
40
0.0157989618191178
40
0.0157989618191178
40
0.0165679605248582
40
0.0165679605248582
40
0.0173369592305978
40
0.0173369592305978
40
0.0204129540535551
40
0.0204129540535551
40
0.0265649436994708
40
0.0388689229913015
40
0.0880848401586233
40
0.0880848401586233
40
0.875539514835775
40
0.875539514835775
40
1
40
1
40
1
40
1
41
1
10
13.0537300025967
20
-1.34529203426621
30
0
41
1
10
13.0562358741378
20
-1.34660226261343
30
0
41
1
10
13.0587381905037
20
-1.34791825141588
30
0
41
1
10
13.0769441596557
20
-1.35755466900017
30
0
41
1
10
13.0929632655393
20
-1.36545412523307
30
0
41
1
10
13.1090346965827
20
-1.37728237281081
30
0
41
1
10
13.110824941917
20
-1.37863136827173
30
0
41
1
10
13.1129390333409
20
-1.38117435598852
30
0
41
1
10
13.1137799504749
20
-1.38234422663825
30
0
41
1
10
13.1125461716671
20
-1.38442466842028
30
0
41
1
10
13.1111558803976
20
-1.38469823968381
30
0
41
1
10
13.105394331258
20
-1.38606333393534
30
0
41
1
10
13.1007296268837
20
-1.38676229739329
30
0
41
1
10
13.0868128131203
20
-1.38940203777659
30
0
41
1
10
13.0589810117646
20
-1.39468067631981
30
0
41
1
10
12.9569510417463
20
-1.41402633730999
30
0
41
1
10
12.8642583424813
20
-1.4315840897313
30
0
41
1
10
11.6043050027595
20
-1.67002504019126
30
0
41
1
10
10.4289809234437
20
-1.8891354285077
30
0
41
1
10
9.08242206756992
20
-2.12891289637659
30
0
41
1
10
8.8989129217932
20
-2.16134494867856
30
0
41
1
10
8.71567826449848
20
-2.19346949301425
30
0
0
SPLINE
5
111
100
AcDbEntity
8
1
62
256
6
ByLayer
370
18
48
1
60
0
100
AcDbSpline
70
4
71
3
72
97
73
93
40
0
40
0
40
0
40
0
40
0.0624999999999959
40
0.0624999999999959
40
0.124999999999992
40
0.124999999999992
40
0.187499999999988
40
0.187499999999988
40
0.249999999999983
40
0.249999999999983
40
0.281249999999981
40
0.281249999999981
40
0.312499999999979
40
0.312499999999979
40
0.328124999999979
40
0.328124999999979
40
0.343749999999979
40
0.343749999999979
40
0.374999999999978
40
0.374999999999978
40
0.390624999999976
40
0.390624999999976
40
0.406249999999974
40
0.406249999999974
40
0.437499999999971
40
0.437499999999971
40
0.453124999999971
40
0.453124999999971
40
0.46874999999997
40
0.46874999999997
40
0.48437499999997
40
0.48437499999997
40
0.49218749999997
40
0.49218749999997
40
0.499999999999969
40
0.515624999999969
40
0.515624999999969
40
0.523437499999969
40
0.523437499999969
40
0.531249999999968
40
0.531249999999968
40
0.546874999999969
40
0.546874999999969
40
0.554687499999969
40
0.554687499999969
40
0.562499999999969
40
0.562499999999969
40
0.593749999999972
40
0.593749999999972
40
0.609374999999973
40
0.609374999999973
40
0.624999999999974
40
0.624999999999974
40
0.656249999999975
40
0.656249999999975
40
0.687499999999977
40
0.687499999999977
40
0.718749999999978
40
0.718749999999978
40
0.74999999999998
40
0.74999999999998
40
0.781249999999982
40
0.781249999999982
40
0.789062499999981
40
0.792968749999981
40
0.792968749999981
40
0.796874999999981
40
0.796874999999981
40
0.798828124999982
40
0.798828124999982
40
0.800781249999983
40
0.800781249999983
40
0.804687499999986
40
0.804687499999986
40
0.806640624999987
40
0.806640624999987
40
0.808593749999988
40
0.808593749999988
40
0.812499999999988
40
0.812499999999988
40
0.816406249999987
40
0.816406249999987
40
0.820312499999987
40
0.820312499999987
40
0.828124999999986
40
0.828124999999986
40
0.843749999999987
40
0.874999999999988
40
0.874999999999988
40
0.937499999999994
40
0.937499999999994
40
1
40
1
40
1
40
1
41
1
10
8.71547155393023
20
-2.19329089506908
30
0
41
1
10
8.57434049609168
20
-2.17482287123428
30
0
41
1
10
8.43438766926707
20
-2.15351837687939
30
0
41
1
10
8.15714140920795
20
-2.10429381172804
30
0
41
1
10
8.01984536495146
20
-2.07638099687006
30
0
41
1
10
7.74835800593894
20
-2.01260023556989
30
0
41
1
10
7.6141611609263
20
-1.97674761377905
30
0
41
1
10
7.34957631948527
20
-1.89502780488732
30
0
41
1
10
7.21917461696421
20
-1.84919848221344
30
0
41
1
10
7.02734646596727
20
-1.77031800110774
30
0
41
1
10
6.96403778554821
20
-1.74232130965211
30
0
41
1
10
6.83894704436594
20
-1.68219190065062
30
0
41
1
10
6.77716247908771
20
-1.65006607124209
30
0
41
1
10
6.68591924501536
20
-1.59796660977492
30
0
41
1
10
6.65578474635797
20
-1.57996330732584
30
0
41
1
10
6.59655336183357
20
-1.54278610000222
30
0
41
1
10
6.56740113037802
20
-1.52358149967924
30
0
41
1
10
6.48149522147881
20
-1.46390319779752
30
0
41
1
10
6.42627210726965
20
-1.42139185761542
30
0
41
1
10
6.34742970235476
20
-1.35229873329922
30
0
41
1
10
6.32180538780148
20
-1.32836113304472
30
0
41
1
10
6.27218030083526
20
-1.27844510164496
30
0
41
1
10
6.24837307534881
20
-1.25266133805741
30
0
41
1
10
6.18036776571179
20
-1.17250383659245
30
0
41
1
10
6.13952220760024
20
-1.11537560092492
30
0
41
1
10
6.08744147232849
20
-1.02214447620128
30
0
41
1
10
6.07157409195005
20
-0.989622612221979
30
0
41
1
10
6.04416810187936
20
-0.923117134312662
30
0
41
1
10
6.03254140218709
20
-0.889015829509987
30
0
41
1
10
6.01387895198835
20
-0.818941241510231
30
0
41
1
10
6.00684164552641
20
-0.782968553118707
30
0
41
1
10
6.0001524794373
20
-0.727437102324217
30
0
41
1
10
5.99859207102395
20
-0.708838725846391
30
0
41
1
10
5.99681526223819
20
-0.671653432178402
30
0
41
1
10
5.99615579777657
20
-0.615803138526132
30
0
41
1
10
6.00144478437988
20
-0.55974093248409
30
0
41
1
10
6.01064300832988
20
-0.503543442438627
30
0
41
1
10
6.01436100711391
20
-0.484788389074083
30
0
41
1
10
6.02309594157586
20
-0.447234063225238
30
0
41
1
10
6.02809469158305
20
-0.428528666327821
30
0
41
1
10
6.04474311740609
20
-0.373121629579856
30
0
41
1
10
6.05808889061137
20
-0.336914029087694
30
0
41
1
10
6.0810843146665
20
-0.283572644157346
30
0
41
1
10
6.0892467247026
20
-0.265954219000065
30
0
41
1
10
6.10651227015825
20
-0.231024290135593
30
0
41
1
10
6.11563585955071
20
-0.213676603647826
30
0
41
1
10
6.16324415755295
20
-0.128098768752267
30
0
41
1
10
6.20713847867574
20
-0.0640502845792525
30
0
41
1
10
6.27919561340656
20
0.0272975166540448
30
0
41
1
10
6.30426761588228
20
0.0569463712805032
30
0
41
1
10
6.35625009908097
20
0.114846381621561
30
0
41
1
10
6.38320617430645
20
0.143141440193631
30
0
41
1
10
6.46622521785406
20
0.225872254334206
30
0
41
1
10
6.52384790871807
20
0.277639705159601
30
0
41
1
10
6.64249834664898
20
0.376126779063753
30
0
41
1
10
6.70353620125883
20
0.42283121584066
30
0
41
1
10
6.82833099632307
20
0.512222813775367
30
0
41
1
10
6.89209239672994
20
0.554903274519916
30
0
41
1
10
7.02187135765033
20
0.63694246304425
30
0
41
1
10
7.08795667033553
20
0.676334340429747
30
0
41
1
10
7.22173053123694
20
0.752111610460418
30
0
41
1
10
7.2893698461493
20
0.788471556767121
30
0
41
1
10
7.37466584912511
20
0.832262303779572
30
0
41
1
10
7.40031113526712
20
0.84527477891433
30
0
41
1
10
7.42603502912931
20
0.858105379628512
30
0
41
1
10
7.44320142913119
20
0.866619406893847
30
0
41
1
10
7.45176758348839
20
0.870901616488482
30
0
41
1
10
7.46471162730518
20
0.877150540008444
30
0
41
1
10
7.46910538761702
20
0.879115463325547
30
0
41
1
10
7.47811834833948
20
0.882436117557972
30
0
41
1
10
7.48267997490615
20
0.883927797223549
30
0
41
1
10
7.49679266835531
20
0.887101100080031
30
0
41
1
10
7.50645292522734
20
0.888407427288598
30
0
41
1
10
7.52085603003331
20
0.888938387522728
30
0
41
1
10
7.52566181971827
20
0.888880612326915
30
0
41
1
10
7.53527896163615
20
0.888490403905223
30
0
41
1
10
7.54009336657754
20
0.888112693497646
30
0
41
1
10
7.55453465294556
20
0.886432164060551
30
0
41
1
10
7.56395050870555
20
0.884603231271427
30
0
41
1
10
7.58248319039907
20
0.879940531650817
30
0
41
1
10
7.59160071538039
20
0.87710878443724
30
0
41
1
10
7.60990739846668
20
0.871680559093704
30
0
41
1
10
7.61905788780672
20
0.868954156530634
30
0
41
1
10
7.64649745875354
20
0.860731721625626
30
0
41
1
10
7.66477489161196
20
0.855196680795586
30
0
41
1
10
7.71956158495198
20
0.838436878460612
30
0
41
1
10
7.82894679714332
20
0.804288607248651
30
0
41
1
10
7.93776501891781
20
0.76826609486929
30
0
41
1
10
8.15455958100139
20
0.693804434900471
30
0
41
1
10
8.2980054632705
20
0.64091169243423
30
0
41
1
10
8.58303439619743
20
0.529041498311386
30
0
41
1
10
8.72449933495506
20
0.47010853390961
30
0
41
1
10
8.86503243229339
20
0.408539765233428
30
0
0
SPLINE
5
112
100
AcDbEntity
8
SK1
62
256
6
ByLayer
370
18
48
1
60
0
100
AcDbSpline
70
4
71
3
72
22
73
18
40
0
40
0
40
0
40
0
40
0.250000000000003
40
0.250000000000003
40
0.375000000000003
40
0.375000000000003
40
0.500000000000002
40
0.500000000000002
40
0.625000000000002
40
0.625000000000002
40
0.750000000000001
40
0.750000000000001
40
0.875000000000001
40
0.875000000000001
40
0.9375
40
0.9375
40
1
40
1
40
1
40
1
41
1
10
-35.75
20
0.174261887670497
30
0
41
1
10
-35.7379956523281
20
0.171066369348381
30
0
41
1
10
-35.7264866986603
20
0.165800945455658
30
0
41
1
10
-35.7098921057742
20
0.154963313721794
30
0
41
1
10
-35.7045257065493
20
0.150875518609894
30
0
41
1
10
-35.6942964893128
20
0.141864177958837
30
0
41
1
10
-35.6894060316865
20
0.13692413867625
30
0
41
1
10
-35.6801144608566
20
0.126081625337918
30
0
41
1
10
-35.6756964104891
20
0.120157971050872
30
0
41
1
10
-35.6675285377629
20
0.107214991607066
30
0
41
1
10
-35.6638529491706
20
0.100323034658828
30
0
41
1
10
-35.6575076548177
20
0.0854975890740377
30
0
41
1
10
-35.6548318331324
20
0.0774981120748919
30
0
41
1
10
-35.6520304488211
20
0.0650532640943311
30
0
41
1
10
-35.65129058319
20
0.0608120418974352
30
0
41
1
10
-35.650270741394
20
0.052109431147187
30
0
41
1
10
-35.65
20
0.0476877898100554
30
0
41
1
10
-35.65
20
0.0433005586179434
30
0
0
SPLINE
5
113
100
AcDbEntity
8
SK1
62
256
6
ByLayer
370
18
48
1
60
0
100
AcDbSpline
70
4
71
3
72
8
73
4
40
0
40
0
40
0
40
0
40
1
40
1
40
1
40
1
41
1
10
-36
20
0.241290515694089
30
0
41
1
10
-35.9170291330051
20
0.218863691933961
30
0
41
1
10
-35.8336543742398
20
0.196530410118783
30
0
41
1
10
-35.7499999999999
20
0.174261887670411
30
0
0
SPLINE
5
114
100
AcDbEntity
8
SK1
62
256
6
ByLayer
370
18
48
1
60
0
100
AcDbSpline
70
4
71
3
72
8
73
4
40
0
40
0
40
0
40
0
40
1
40
1
40
1
40
1
41
1
10
-35.75
20
1.27739156373971
30
0
41
1
10
-35.833653308835
20
1.25512332489865
30
0
41
1
10
-35.917027939922
20
1.23279008196363
30
0
41
1
10
-36
20
1.21036293571606
30
0
0
SPLINE
5
115
100
AcDbEntity
8
SK1
62
256
6
ByLayer
370
18
48
1
60
0
100
AcDbSpline
70
4
71
3
72
22
73
18
40
0
40
0
40
0
40
0
40
0.0624999999999987
40
0.0624999999999987
40
0.124999999999998
40
0.124999999999998
40
0.249999999999997
40
0.249999999999997
40
0.374999999999997
40
0.374999999999997
40
0.499999999999997
40
0.499999999999997
40
0.624999999999996
40
0.624999999999996
40
0.749999999999996
40
0.749999999999996
40
1
40
1
40
1
40
1
41
1
10
-35.65
20
1.21479909927083
30
0
41
1
10
-35.65
20
1.21859712479133
30
0
41
1
10
-35.6502718586019
20
1.22228557172988
30
0
41
1
10
-35.6512913504498
20
1.22928095573536
30
0
41
1
10
-35.652030658643
20
1.23256667521341
30
0
41
1
10
-35.6548298230237
20
1.24188629689135
30
0
41
1
10
-35.6575061245997
20
1.24743382787219
30
0
41
1
10
-35.6638376796887
20
1.25698848618438
30
0
41
1
10
-35.6674983282837
20
1.26105213904933
30
0
41
1
10
-35.6756151818521
20
1.26804058306408
30
0
41
1
10
-35.6800682064548
20
1.27094133962248
30
0
41
1
10
-35.6893906957631
20
1.27560135741456
30
0
41
1
10
-35.6942952881823
20
1.27738939137336
30
0
41
1
10
-35.7045485857552
20
1.27999418899205
30
0
41
1
10
-35.7099306774388
20
1.28081096170567
30
0
41
1
10
-35.7265024515808
20
1.28180219141774
30
0
41
1
10
-35.7380004903212
20
1.28058579420397
30
0
41
1
10
-35.7500000000001
20
1.27739156373985
30
0
0
SPLINE
5
116
100
AcDbEntity
8
SK1
62
256
6
ByLayer
370
18
48
1
60
0
100
AcDbSpline
70
4
71
3
72
22
73
18
40
0
40
0
40
0
40
0
40
0.249999999999997
40
0.249999999999997
40
0.374999999999998
40
0.374999999999998
40
0.499999999999998
40
0.499999999999998
40
0.624999999999998
40
0.624999999999998
40
0.749999999999999
40
0.749999999999999
40
0.874999999999999
40
0.874999999999999
40
0.9375
40
0.9375
40
1
40
1
40
1
40
1
41
1
10
-35.75
20
-0.174261887670525
30
0
41
1
10
-35.7379956523281
20
-0.171066369348381
30
0
41
1
10
-35.7264866986603
20
-0.165800945455658
30
0
41
1
10
-35.7098921057742
20
-0.154963313721794
30
0
41
1
10
-35.7045257065493
20
-0.150875518609894
30
0
41
1
10
-35.6942964893128
20
-0.141864177958837
30
0
41
1
10
-35.6894060316865
20
-0.13692413867625
30
0
41
1
10
-35.6801144608566
20
-0.126081625337918
30
0
41
1
10
-35.6756964104891
20
-0.120157971050872
30
0
41
1
10
-35.6675285377629
20
-0.107214991607066
30
0
41
1
10
-35.6638529491706
20
-0.100323034658857
30
0
41
1
10
-35.6575076548177
20
-0.0854975890740377
30
0
41
1
10
-35.6548318331325
20
-0.0774981120748919
30
0
41
1
10
-35.6520304488211
20
-0.0650532640943311
30
0
41
1
10
-35.65129058319
20
-0.0608120418974352
30
0
41
1
10
-35.650270741394
20
-0.0521094311472154
30
0
41
1
10
-35.65
20
-0.0476877898100554
30
0
41
1
10
-35.65
20
-0.0433005586179434
30
0
0
SPLINE
5
117
100
AcDbEntity
8
SK1
62
256
6
ByLayer
370
18
48
1
60
0
100
AcDbSpline
70
4
71
3
72
8
73
4
40
0
40
0
40
0
40
0
40
1
40
1
40
1
40
1
41
1
10
-36
20
-0.241290515694089
30
0
41
1
10
-35.9170291330051
20
-0.21886369193399
30
0
41
1
10
-35.8336543742398
20
-0.196530410118783
30
0
41
1
10
-35.7499999999999
20
-0.174261887670411
30
0
0
SPLINE
5
118
100
AcDbEntity
8
1
62
256
6
ByLayer
370
18
48
1
60
0
100
AcDbSpline
70
4
71
3
72
28
73
24
40
0
40
0
40
0
40
0
40
4.79660256374E-05
40
0.00011424592131
40
0.0001733385252538
40
0.0002285975427594
40
0.0003363464431989
40
0.000970328257396
40
0.0014622150881894
40
0.0023570335845266
40
0.0040079339618974
40
0.0071248025617261
40
0.0132291612536152
40
0.0258473358244631
40
0.0515433150425954
40
0.103715669662471
40
0.216689063885213
40
0.420662169802191
40
0.505108066405206
40
0.590492805981836
40
0.707696330411976
40
0.860418151439644
40
1
40
1
40
1
40
1
41
1
10
52.1499809684526
20
-0.0798678518362976
30
0
41
1
10
52.1499815688969
20
-0.0798666200219031
30
0
41
1
10
52.1499699268966
20
-0.0798598957241268
30
0
41
1
10
52.1499088425023
20
-0.0798372663225564
30
0
41
1
10
52.1497943349776
20
-0.079799319958255
30
0
41
1
10
52.1495942143957
20
-0.0797362238918708
30
0
41
1
10
52.1486195350835
20
-0.0794411564770883
30
0
41
1
10
52.1468337312503
20
-0.0789190866526894
30
0
41
1
10
52.1440450477628
20
-0.0780988566026792
30
0
41
1
10
52.139777212761
20
-0.0768492548951656
30
0
41
1
10
52.1318957010487
20
-0.074534679849819
30
0
41
1
10
52.1167030936026
20
-0.0700794358255337
30
0
41
1
10
52.0861888390993
20
-0.061129100528575
30
0
41
1
10
52.0240073744443
20
-0.0428791036243013
30
0
41
1
10
51.8973302725262
20
-0.0055182448684263
30
0
41
1
10
51.6303388089673
20
0.0740881967631424
30
0
41
1
10
51.1145433467974
20
0.231512056899476
30
0
41
1
10
50.555733250767
20
0.4097371967394
30
0
41
1
10
50.0374341874829
20
0.581420494854314
30
0
41
1
10
49.6404168367662
20
0.715774550217247
30
0
41
1
10
49.1501586227181
20
0.885985480967349
30
0
41
1
10
48.5869562439563
20
1.08754020695508
30
0
41
1
10
48.1868880052395
20
1.23677163207438
30
0
41
1
10
47.9962480564091
20
1.30916183287803
30
0
0
SPLINE
5
119
100
AcDbEntity
8
1
62
256
6
ByLayer
370
18
48
1
60
0
100
AcDbSpline
70
4
71
3
72
29
73
25
40
0
40
0
40
0
40
0
40
5.53863207703E-05
40
0.0001168693781747
40
0.0002205457673551
40
0.0003122518654189
40
0.0004932236200432
40
0.0016658542629562
40
0.0026114061653189
40
0.0043673053147911
40
0.0077167626774505
40
0.014380269690341
40
0.0284558251056136
40
0.126689808285895
40
0.24125341445397
40
0.359424893201312
40
0.477127940788378
40
0.546394169200436
40
0.607374999584114
40
0.662174846218468
40
0.726217228284669
40
0.821068623679814
40
0.946710910587524
40
1
40
1
40
1
40
1
41
1
10
19.4354480699734
20
-0.0757279812608544
30
0
41
1
10
19.4354603151026
20
-0.075729768023308
30
0
41
1
10
19.4354730822851
20
-0.0757297022171883
30
0
41
1
10
19.4354353776664
20
-0.0757117594085628
30
0
41
1
10
19.4353153273822
20
-0.0756690357081311
30
0
41
1
10
19.4349627565038
20
-0.0755576442869028
30
0
41
1
10
19.4330955126828
20
-0.0749995292069627
30
0
41
1
10
19.4300492715776
20
-0.0741043555921408
30
0
41
1
10
19.4249090244366
20
-0.0725916321813145
30
0
41
1
10
19.4169093551784
20
-0.0702349148376982
30
0
41
1
10
19.4013179862824
20
-0.0656464739657281
30
0
41
1
10
19.3693904655091
20
-0.0562526055297212
30
0
41
1
10
19.2114850173269
20
-0.0097731527253018
30
0
41
1
10
18.9098299636527
20
0.0800810315074614
30
0
41
1
10
18.4710532012109
20
0.214704544903441
30
0
41
1
10
18.0075235436408
20
0.361287206402608
30
0
41
1
10
17.6048794977671
20
0.492512510020703
30
0
41
1
10
17.2784333339465
20
0.601378439932404
30
0
41
1
10
17.0351773878749
20
0.683782840911363
30
0
41
1
10
16.7991096517777
20
0.764864016882314
30
0
41
1
10
16.5189815764578
20
0.862388778075484
30
0
41
1
10
16.1467866071627
20
0.994550727611056
30
0
41
1
10
15.7893697803076
20
1.12378657198897
30
0
41
1
10
15.5567896221589
20
1.21101674052056
30
0
41
1
10
15.4875893969839
20
1.23717986880658
30
0
0
SPLINE
5
11A
100
AcDbEntity
8
1
62
256
6
ByLayer
370
18
48
1
60
0
100
AcDbSpline
70
4
71
3
72
11
73
7
40
0
40
0
40
0
40
0
40
0.144887339664012
40
0.38714920652591
40
0.681390726589497
40
1
40
1
40
1
40
1
41
1
10
67.0012632706432
20
0.380354107181603
30
0
41
1
10
66.8662873662776
20
0.42367200858294
30
0
41
1
10
66.5060914442814
20
0.540876353987443
30
0
41
1
10
65.8745185119599
20
0.754638983218996
30
0
41
1
10
65.0852825135304
20
1.03304647097076
30
0
41
1
10
64.5228761367927
20
1.24172214802621
30
0
41
1
10
64.2313229826621
20
1.35260649277586
30
0
0
SPLINE
5
11B
100
AcDbEntity
8
1
62
256
6
ByLayer
370
18
48
1
60
0
100
AcDbSpline
70
4
71
3
72
28
73
24
40
0
40
0
40
0
40
0
40
0.000110118022099
40
0.0001540860227195
40
0.0001929634354857
40
0.0002633376891923
40
0.0005495957431077
40
0.0007607615388441
40
0.0011376377079614
40
0.001820068349959
40
0.0030697268245442
40
0.0053935978871588
40
0.0098376336399828
40
0.0189948659296696
40
0.0737235734191533
40
0.167077143369288
40
0.27257802414253
40
0.369521260962803
40
0.457908103138722
40
0.560874156719183
40
0.693916137402861
40
0.865967079557261
40
1
40
1
40
1
40
1
41
1
10
35.7797395534634
20
-0.0756101636400786
30
0
41
1
10
35.779764351206
20
-0.0756139101732458
30
0
41
1
10
35.7797675422147
20
-0.0756099122233422
30
0
41
1
10
35.779697801435
20
-0.0755839761720551
30
0
41
1
10
35.7795990750395
20
-0.075551243091013
30
0
41
1
10
35.7791862383906
20
-0.0754238408857475
30
0
41
1
10
35.7784162675574
20
-0.0751972817399178
30
0
41
1
10
35.7772895460627
20
-0.0748640303915806
30
0
41
1
10
35.7755871838967
20
-0.0743649166025477
30
0
41
1
10
35.7725354411903
20
-0.0734662847316656
30
0
41
1
10
35.7669158150117
20
-0.0718078636243433
30
0
41
1
10
35.7563185768311
20
-0.0686722028771385
30
0
41
1
10
35.7352624656313
20
-0.0624070366033607
30
0
41
1
10
35.6447027066514
20
-0.0352745037774298
30
0
41
1
10
35.4320944702343
20
0.0278596308042154
30
0
41
1
10
35.0897624939481
20
0.131282963086505
30
0
41
1
10
34.690424699486
20
0.255242004657077
30
0
41
1
10
34.2989384057021
20
0.380089575886899
30
0
41
1
10
33.9116542274103
20
0.506583447795038
30
0
41
1
10
33.4769656296198
20
0.651969332777554
30
0
41
1
10
32.9317082217271
20
0.839779089898684
30
0
41
1
10
32.3468246159399
20
1.04775815523291
30
0
41
1
10
31.9412210630359
20
1.19877962451983
30
0
41
1
10
31.7639549253925
20
1.26593772891454
30
0
0
SPLINE
5
11C
100
AcDbEntity
8
1
62
256
6
ByLayer
370
18
48
1
60
0
100
AcDbSpline
70
4
71
3
72
19
73
15
40
0
40
0
40
0
40
0
40
0.12890749315228
40
0.223721458784174
40
0.286178068397037
40
0.342725378626266
40
0.402293367626368
40
0.514178337168483
40
0.617621000824435
40
0.705158474242385
40
0.807295572138932
40
0.916569888380833
40
0.977931355016583
40
1
40
1
40
1
40
1
41
1
10
51.2870774796504
20
-2.25141753882937
30
0
41
1
10
51.5250334959633
20
-2.25194610497627
30
0
41
1
10
51.9380433972092
20
-2.25278012726693
30
0
41
1
10
52.4666188977957
20
-2.25349526231508
30
0
41
1
10
52.8613431964931
20
-2.25413909999918
30
0
41
1
10
53.1910458514328
20
-2.25491806560541
30
0
41
1
10
53.6121058877549
20
-2.2561081284185
30
0
41
1
10
54.1197498333086
20
-2.25621535900132
30
0
41
1
10
54.6790499162352
20
-2.25832061592411
30
0
41
1
10
55.2203490763989
20
-2.2581106013225
30
0
41
1
10
55.7724161237643
20
-2.25825372264234
30
0
41
1
10
56.2761370597016
20
-2.26161806739387
30
0
41
1
10
56.6320070849794
20
-2.26179285745971
30
0
41
1
10
56.786074007984
20
-2.26167626287105
30
0
41
1
10
56.8268271127835
20
-2.2616382026946
30
0
0
SPLINE
5
11D
100
AcDbEntity
8
1
62
256
6
ByLayer
370
18
48
1
60
0
100
AcDbSpline
70
4
71
3
72
18
73
14
40
0
40
0
40
0
40
0
40
0.117676056963618
40
0.206274589877957
40
0.267426387566749
40
0.324079993471754
40
0.383758932007182
40
0.495704645062855
40
0.604195460268391
40
0.75451477166912
40
0.91902739251299
40
0.980169615295526
40
1
40
1
40
1
40
1
41
1
10
58.4370596228866
20
2.26435658042212
30
0
41
1
10
58.2202296177124
20
2.2631596625927
30
0
41
1
10
57.8401241076693
20
2.26170188234534
30
0
41
1
10
57.3471533252475
20
2.26088577348489
30
0
41
1
10
56.9668045447965
20
2.26156861159512
30
0
41
1
10
56.6397072978427
20
2.26181823044493
30
0
41
1
10
56.2189449565738
20
2.26143984630903
30
0
41
1
10
55.702657698038
20
2.25770515912154
30
0
41
1
10
55.0192899234211
20
2.25873055711386
30
0
41
1
10
54.2390397407189
20
2.25650387901169
30
0
41
1
10
53.5460566471995
20
2.25601635878377
30
0
41
1
10
53.0935887192004
20
2.25466764800103
30
0
41
1
10
52.9443455577944
20
2.2543474160382
30
0
41
1
10
52.9077955988179
20
2.25427476377234
30
0
0
LINE
5
82
100
AcDbEntity
8
4
62
256
6
ByLayer
370
18
48
0.05
60
0
100
AcDbLine
10
0
20
0
30
0
11
68
21
0
31
0
39
0
210
0
220
0
230
1
0
LINE
5
84
100
AcDbEntity
8
81
62
256
6
ByLayer
370
18
48
1
60
0
100
AcDbLine
10
68
20
0
30
0
11
71
21
0
31
0
39
0
210
0
220
0
230
1
0
LINE
5
85
100
AcDbEntity
8
80
62
256
6
ByLayer
370
18
48
1
60
0
100
AcDbLine
10
0
20
0
30
0
11
-3
21
0
31
0
39
0
210
0
220
0
230
1
0
LINE
5
86
100
AcDbEntity
8
SK4
62
256
6
ByLayer
370
18
48
0.05
60
0
100
AcDbLine
10
-39
20
0
30
0
11
71
21
0
31
0
39
0
210
0
220
0
230
1
0
LINE
5
88
100
AcDbEntity
8
1
62
256
6
ByLayer
370
18
48
1
60
0
100
AcDbLine
10
0
20
3
30
0
11
0
21
-3
31
0
39
0
210
0
220
0
230
1
0
LINE
5
89
100
AcDbEntity
8
1
62
256
6
ByLayer
370
13
48
1
60
0
100
AcDbLine
10
67.94182
20
0.270809
30
0
11
67.366813
21
0.790985
31
0
39
0
210
0
220
0
230
1
0
LINE
5
8A
100
AcDbEntity
8
1
62
256
6
ByLayer
370
13
48
1
60
0
100
AcDbLine
10
0.667614
20
-2.640786
30
0
11
0.667614
21
2.640786
31
0
39
0
210
0
220
0
230
1
0
LINE
5
8B
100
AcDbEntity
8
1
62
256
6
ByLayer
370
18
48
1
60
0
100
AcDbLine
10
44.000493
20
-0.336166
30
0
11
44.000493
21
2.140079
31
0
39
0
210
0
220
0
230
1
0
LINE
5
8C
100
AcDbEntity
8
1
62
256
6
ByLayer
370
18
48
1
60
0
100
AcDbLine
10
44.000493
20
-0.655378
30
0
11
44.000493
21
-0.690588
31
0
39
0
210
0
220
0
230
1
0
LINE
5
8D
100
AcDbEntity
8
1
62
256
6
ByLayer
370
13
48
1
60
0
100
AcDbLine
10
1.336667
20
-2.281573
30
0
11
1.336667
21
2.281573
31
0
39
0
210
0
220
0
230
1
0
LINE
5
8E
100
AcDbEntity
8
SK1
62
256
6
ByLayer
370
18
48
1
60
0
100
AcDbLine
10
-36
20
1.210363
30
0
11
-36
21
0.241291
31
0
39
0
210
0
220
0
230
1
0
LINE
5
90
100
AcDbEntity
8
SK1
62
256
6
ByLayer
370
13
48
1
60
0
100
AcDbLine
10
-35.75
20
0.174262
30
0
11
-35.75
21
1.277392
31
0
39
0
210
0
220
0
230
1
0
LINE
5
91
100
AcDbEntity
8
SK1
62
256
6
ByLayer
370
18
48
1
60
0
100
AcDbLine
10
0
20
3
30
0
11
0
21
-3
31
0
39
0
210
0
220
0
230
1
0
LINE
5
92
100
AcDbEntity
8
SK1
62
256
6
ByLayer
370
18
48
1
60
0
100
AcDbLine
10
-36
20
1.210363
30
0
11
-36
21
2.065
31
0
39
0
210
0
220
0
230
1
0
LINE
5
93
100
AcDbEntity
8
SK1
62
256
6
ByLayer
370
18
48
1
60
0
100
AcDbLine
10
-35.65
20
-0.043301
30
0
11
-35.65
21
1.214799
31
0
39
0
210
0
220
0
230
1
0
LINE
5
94
100
AcDbEntity
8
SK1
62
256
6
ByLayer
370
18
48
1
60
0
100
AcDbLine
10
-36
20
-2.065
30
0
11
-36
21
-0.241291
31
0
39
0
210
0
220
0
230
1
0
LINE
5
95
100
AcDbEntity
8
SK1
62
256
6
ByLayer
370
18
48
1
60
0
100
AcDbLine
10
-35.065
20
-3
30
0
11
-35.065
21
3
31
0
39
0
210
0
220
0
230
1
0
LINE
5
96
100
AcDbEntity
8
1
62
256
6
ByLayer
370
18
48
1
60
0
100
AcDbLine
10
1.336667
20
-2.281573
30
0
11
10.267637
21
-2.297649
31
0
39
0
210
0
220
0
230
1
0
LINE
5
97
100
AcDbEntity
8
1
62
256
6
ByLayer
370
18
48
1
60
0
100
AcDbLine
10
17.960609
20
-2.311496
30
0
11
26.57831
21
-2.327008
31
0
39
0
210
0
220
0
230
1
0
LINE
5
98
100
AcDbEntity
8
1
62
256
6
ByLayer
370
18
48
1
60
0
100
AcDbLine
10
34.290956
20
-2.340891
30
0
11
42.884703
21
-2.356359
31
0
39
0
210
0
220
0
230
1
0
LINE
5
99
100
AcDbEntity
8
1
62
256
6
ByLayer
370
18
48
1
60
0
100
AcDbLine
10
50.717797
20
-2.370459
30
0
11
51.28908
21
-2.371487
31
0
39
0
210
0
220
0
230
1
0
LINE
5
9A
100
AcDbEntity
8
1
62
256
6
ByLayer
370
18
48
1
60
0
100
AcDbLine
10
58.439294
20
-2.384358
30
0
11
59.189742
21
-2.385708
31
0
39
0
210
0
220
0
230
1
0
LINE
5
9B
100
AcDbEntity
8
1
62
256
6
ByLayer
370
18
48
1
60
0
100
AcDbLine
10
59.189742
20
2.385708
30
0
11
58.439294
21
2.384358
31
0
39
0
210
0
220
0
230
1
0
LINE
5
9C
100
AcDbEntity
8
1
62
256
6
ByLayer
370
18
48
1
60
0
100
AcDbLine
10
51.28908
20
2.371487
30
0
11
50.717797
21
2.370459
31
0
39
0
210
0
220
0
230
1
0
LINE
5
9D
100
AcDbEntity
8
1
62
256
6
ByLayer
370
18
48
1
60
0
100
AcDbLine
10
42.884703
20
2.356359
30
0
11
34.290956
21
2.340891
31
0
39
0
210
0
220
0
230
1
0
LINE
5
9E
100
AcDbEntity
8
1
62
256
6
ByLayer
370
18
48
1
60
0
100
AcDbLine
10
26.57831
20
2.327008
30
0
11
17.960609
21
2.311496
31
0
39
0
210
0
220
0
230
1
0
LINE
5
9F
100
AcDbEntity
8
1
62
256
6
ByLayer
370
18
48
1
60
0
100
AcDbLine
10
10.267637
20
2.297649
30
0
11
1.336667
21
2.281573
31
0
39
0
210
0
220
0
230
1
0
LINE
5
A0
100
AcDbEntity
8
SK1
62
256
6
ByLayer
370
18
48
1
60
0
100
AcDbLine
10
-35.065
20
-3
30
0
11
0
21
-3
31
0
39
0
210
0
220
0
230
1
0
LINE
5
A1
100
AcDbEntity
8
SK1
62
256
6
ByLayer
370
18
48
1
60
0
100
AcDbLine
10
0
20
3
30
0
11
-35.065
21
3
31
0
39
0
210
0
220
0
230
1
0
LINE
5
A2
100
AcDbEntity
8
SK1
62
256
6
ByLayer
370
18
48
1
60
0
100
AcDbLine
10
-36
20
-2.065
30
0
11
-35.065
21
-3
31
0
39
0
210
0
220
0
230
1
0
LINE
5
A3
100
AcDbEntity
8
SK1
62
256
6
ByLayer
370
18
48
1
60
0
100
AcDbLine
10
-35.065
20
3
30
0
11
-36
21
2.065
31
0
39
0
210
0
220
0
230
1
0
LINE
5
A4
100
AcDbEntity
8
2
62
256
6
ByLayer
370
13
48
1
60
0
100
AcDbLine
10
75.5
20
27.01497
30
0
11
75.5
21
-9.9
31
0
39
0
210
0
220
0
230
1
0
LINE
5
A6
100
AcDbEntity
8
2
62
256
6
ByLayer
370
13
48
1
60
0
100
AcDbLine
10
69.5875
20
2.4
30
0
11
77.5
21
2.4
31
0
39
0
210
0
220
0
230
1
0
LINE
5
A7
100
AcDbEntity
8
2
62
256
6
ByLayer
370
13
48
1
60
0
100
AcDbLine
10
69.5875
20
-2.4
30
0
11
77.5
21
-2.4
31
0
39
0
210
0
220
0
230
1
0
LINE
5
A8
100
AcDbEntity
8
1
62
256
6
ByLayer
370
18
48
1
60
1
100
AcDbLine
10
75.5
20
2.4
30
0
11
75.039216
21
5.899998
31
0
39
0
210
0
220
0
230
1
0
LINE
5
A9
100
AcDbEntity
8
1
62
256
6
ByLayer
370
18
48
1
60
1
100
AcDbLine
10
75.039216
20
5.899998
30
0
11
75.960784
21
5.900002
31
0
39
0
210
0
220
0
230
1
0
LINE
5
AA
100
AcDbEntity
8
1
62
256
6
ByLayer
370
18
48
1
60
1
100
AcDbLine
10
75.960784
20
5.900002
30
0
11
75.5
21
2.4
31
0
39
0
210
0
220
0
230
1
0
LINE
5
AB
100
AcDbEntity
8
1
62
256
6
ByLayer
370
18
48
1
60
1
100
AcDbLine
10
75.5
20
-2.4
30
0
11
75.960784
21
-5.899998
31
0
39
0
210
0
220
0
230
1
0
LINE
5
AC
100
AcDbEntity
8
1
62
256
6
ByLayer
370
18
48
1
60
1
100
AcDbLine
10
75.960784
20
-5.899998
30
0
11
75.039216
21
-5.900002
31
0
39
0
210
0
220
0
230
1
0
LINE
5
AD
100
AcDbEntity
8
1
62
256
6
ByLayer
370
18
48
1
60
1
100
AcDbLine
10
75.039216
20
-5.900002
30
0
11
75.5
21
-2.4
31
0
39
0
210
0
220
0
230
1
0
LINE
5
AE
100
AcDbEntity
8
SK2
62
256
6
ByLayer
370
13
48
1
60
0
100
AcDbLine
10
-44.5
20
13.841828
30
0
11
-44.5
21
-10.5
31
0
39
0
210
0
220
0
230
1
0
LINE
5
B0
100
AcDbEntity
8
SK2
62
256
6
ByLayer
370
13
48
1
60
0
100
AcDbLine
10
-37.5875
20
3
30
0
11
-46.5
21
3
31
0
39
0
210
0
220
0
230
1
0
LINE
5
B1
100
AcDbEntity
8
SK2
62
256
6
ByLayer
370
13
48
1
60
0
100
AcDbLine
10
-37.5875
20
-3
30
0
11
-46.5
21
-3
31
0
39
0
210
0
220
0
230
1
0
LINE
5
B2
100
AcDbEntity
8
1
62
256
6
ByLayer
370
18
48
1
60
1
100
AcDbLine
10
-44.5
20
3
30
0
11
-44.960784
21
6.499998
31
0
39
0
210
0
220
0
230
1
0
LINE
5
B3
100
AcDbEntity
8
1
62
256
6
ByLayer
370
18
48
1
60
1
100
AcDbLine
10
-44.960784
20
6.499998
30
0
11
-44.039216
21
6.500002
31
0
39
0
210
0
220
0
230
1
0
LINE
5
B4
100
AcDbEntity
8
1
62
256
6
ByLayer
370
18
48
1
60
1
100
AcDbLine
10
-44.039216
20
6.500002
30
0
11
-44.5
21
3
31
0
39
0
210
0
220
0
230
1
0
LINE
5
B5
100
AcDbEntity
8
1
62
256
6
ByLayer
370
18
48
1
60
1
100
AcDbLine
10
-44.5
20
-3
30
0
11
-44.039216
21
-6.499998
31
0
39
0
210
0
220
0
230
1
0
LINE
5
B6
100
AcDbEntity
8
1
62
256
6
ByLayer
370
18
48
1
60
1
100
AcDbLine
10
-44.039216
20
-6.499998
30
0
11
-44.960784
21
-6.500002
31
0
39
0
210
0
220
0
230
1
0
LINE
5
B7
100
AcDbEntity
8
1
62
256
6
ByLayer
370
18
48
1
60
1
100
AcDbLine
10
-44.960784
20
-6.500002
30
0
11
-44.5
21
-3
31
0
39
0
210
0
220
0
230
1
0
LINE
5
B8
100
AcDbEntity
8
SK2
62
256
6
ByLayer
370
13
48
1
60
0
100
AcDbLine
10
68.543216
20
1.491668
30
0
11
74.706907
21
18.417136
31
0
39
0
210
0
220
0
230
1
0
LINE
5
B9
100
AcDbEntity
8
SK2
62
256
6
ByLayer
370
13
48
1
60
0
100
AcDbLine
10
68.543216
20
-1.491668
30
0
11
74.706907
21
-18.417136
31
0
39
0
210
0
220
0
230
1
0
LINE
5
BA
100
AcDbEntity
8
1
62
256
6
ByLayer
370
18
48
1
60
1
100
AcDbLine
10
74.022541
20
16.537869
30
0
11
77.426822
21
15.603429
31
0
39
0
210
0
220
0
230
1
0
LINE
5
BB
100
AcDbEntity
8
1
62
256
6
ByLayer
370
18
48
1
60
1
100
AcDbLine
10
77.426822
20
15.603429
30
0
11
77.068976
21
14.754175
31
0
39
0
210
0
220
0
230
1
0
LINE
5
BC
100
AcDbEntity
8
1
62
256
6
ByLayer
370
18
48
1
60
1
100
AcDbLine
10
77.068976
20
14.754175
30
0
11
74.022541
21
16.537869
31
0
39
0
210
0
220
0
230
1
0
LINE
5
BD
100
AcDbEntity
8
1
62
256
6
ByLayer
370
18
48
1
60
1
100
AcDbLine
10
74.022541
20
-16.537869
30
0
11
77.068973
21
-14.754176
31
0
39
0
210
0
220
0
230
1
0
LINE
5
BE
100
AcDbEntity
8
1
62
256
6
ByLayer
370
18
48
1
60
1
100
AcDbLine
10
77.068973
20
-14.754176
30
0
11
77.426825
21
-15.603428
31
0
39
0
210
0
220
0
230
1
0
LINE
5
BF
100
AcDbEntity
8
1
62
256
6
ByLayer
370
18
48
1
60
1
100
AcDbLine
10
77.426825
20
-15.603428
30
0
11
74.022541
21
-16.537869
31
0
39
0
210
0
220
0
230
1
0
LINE
5
11E
100
AcDbEntity
8
1
62
256
6
ByLayer
370
13
48
0.05
60
0
100
AcDbLine
10
-42.5
20
0
30
0
11
73.633625
21
0
31
0
39
0
210
0
220
0
230
1
0
LINE
5
123
100
AcDbEntity
8
1
62
256
6
ByLayer
370
18
48
1
60
1
100
AcDbLine
10
75.5
20
2.4
30
0
11
75.039216
21
5.899998
31
0
39
0
210
0
220
0
230
1
0
LINE
5
124
100
AcDbEntity
8
1
62
256
6
ByLayer
370
18
48
1
60
1
100
AcDbLine
10
75.039216
20
5.899998
30
0
11
75.960784
21
5.900002
31
0
39
0
210
0
220
0
230
1
0
LINE
5
125
100
AcDbEntity
8
1
62
256
6
ByLayer
370
18
48
1
60
1
100
AcDbLine
10
75.960784
20
5.900002
30
0
11
75.5
21
2.4
31
0
39
0
210
0
220
0
230
1
0
LINE
5
127
100
AcDbEntity
8
1
62
256
6
ByLayer
370
18
48
1
60
1
100
AcDbLine
10
75.5
20
-2.4
30
0
11
75.960784
21
-5.899998
31
0
39
0
210
0
220
0
230
1
0
LINE
5
128
100
AcDbEntity
8
1
62
256
6
ByLayer
370
18
48
1
60
1
100
AcDbLine
10
75.960784
20
-5.899998
30
0
11
75.039216
21
-5.900002
31
0
39
0
210
0
220
0
230
1
0
LINE
5
129
100
AcDbEntity
8
1
62
256
6
ByLayer
370
18
48
1
60
1
100
AcDbLine
10
75.039216
20
-5.900002
30
0
11
75.5
21
-2.4
31
0
39
0
210
0
220
0
230
1
0
LINE
5
12D
100
AcDbEntity
8
1
62
256
6
ByLayer
370
18
48
1
60
1
100
AcDbLine
10
-44.5
20
3
30
0
11
-44.960784
21
6.499998
31
0
39
0
210
0
220
0
230
1
0
LINE
5
12E
100
AcDbEntity
8
1
62
256
6
ByLayer
370
18
48
1
60
1
100
AcDbLine
10
-44.960784
20
6.499998
30
0
11
-44.039216
21
6.500002
31
0
39
0
210
0
220
0
230
1
0
LINE
5
12F
100
AcDbEntity
8
1
62
256
6
ByLayer
370
18
48
1
60
1
100
AcDbLine
10
-44.039216
20
6.500002
30
0
11
-44.5
21
3
31
0
39
0
210
0
220
0
230
1
0
LINE
5
131
100
AcDbEntity
8
1
62
256
6
ByLayer
370
18
48
1
60
1
100
AcDbLine
10
-44.5
20
-3
30
0
11
-44.039216
21
-6.499998
31
0
39
0
210
0
220
0
230
1
0
LINE
5
132
100
AcDbEntity
8
1
62
256
6
ByLayer
370
18
48
1
60
1
100
AcDbLine
10
-44.039216
20
-6.499998
30
0
11
-44.960784
21
-6.500002
31
0
39
0
210
0
220
0
230
1
0
LINE
5
133
100
AcDbEntity
8
1
62
256
6
ByLayer
370
18
48
1
60
1
100
AcDbLine
10
-44.960784
20
-6.500002
30
0
11
-44.5
21
-3
31
0
39
0
210
0
220
0
230
1
0
LINE
5
136
100
AcDbEntity
8
1
62
256
6
ByLayer
370
18
48
1
60
1
100
AcDbLine
10
74.022541
20
16.537869
30
0
11
77.426822
21
15.603429
31
0
39
0
210
0
220
0
230
1
0
LINE
5
137
100
AcDbEntity
8
1
62
256
6
ByLayer
370
18
48
1
60
1
100
AcDbLine
10
77.426822
20
15.603429
30
0
11
77.068976
21
14.754175
31
0
39
0
210
0
220
0
230
1
0
LINE
5
138
100
AcDbEntity
8
1
62
256
6
ByLayer
370
18
48
1
60
1
100
AcDbLine
10
77.068976
20
14.754175
30
0
11
74.022541
21
16.537869
31
0
39
0
210
0
220
0
230
1
0
LINE
5
13A
100
AcDbEntity
8
1
62
256
6
ByLayer
370
18
48
1
60
1
100
AcDbLine
10
74.022541
20
-16.537869
30
0
11
77.068973
21
-14.754176
31
0
39
0
210
0
220
0
230
1
0
LINE
5
13B
100
AcDbEntity
8
1
62
256
6
ByLayer
370
18
48
1
60
1
100
AcDbLine
10
77.068973
20
-14.754176
30
0
11
77.426825
21
-15.603428
31
0
39
0
210
0
220
0
230
1
0
LINE
5
13C
100
AcDbEntity
8
1
62
256
6
ByLayer
370
18
48
1
60
1
100
AcDbLine
10
77.426825
20
-15.603428
30
0
11
74.022541
21
-16.537869
31
0
39
0
210
0
220
0
230
1
0
MTEXT
5
11F
100
AcDbEntity
8
2
62
256
6
ByLayer
370
18
48
1
60
0
100
AcDbMText
10
74.158886
20
16.058437
30
0
210
0
220
0
230
1
1
%%c
40
3
41
0
44
1.084337
50
90
71
7
72
5
7
iso_b_vert
0
MTEXT
5
122
100
AcDbEntity
8
2
62
256
6
ByLayer
370
18
48
1
60
0
100
AcDbMText
10
74.158886
20
22.035
30
0
210
0
220
0
230
1
1
\W0.7610;4.8
40
3
41
0
44
1.084337
50
90
71
7
72
5
7
iso_b_vert
0
MTEXT
5
12B
100
AcDbEntity
8
SK2
62
256
6
ByLayer
370
18
48
1
60
0
100
AcDbMText
10
-45.841114
20
6.658437
30
0
210
0
220
0
230
1
1
%%c
40
3
41
0
44
1.084337
50
90
71
7
72
5
7
iso_b_vert
0
MTEXT
5
12C
100
AcDbEntity
8
SK2
62
256
6
ByLayer
370
18
48
1
60
0
100
AcDbMText
10
-45.841114
20
12.635
30
0
210
0
220
0
230
1
1
\W0.5404;6
40
3
41
0
44
1.084337
50
90
71
7
72
5
7
iso_b_vert
0
MTEXT
5
135
100
AcDbEntity
8
SK2
62
256
6
ByLayer
370
18
48
1
60
0
100
AcDbMText
10
82.159687
20
-2.114886
30
0
210
0
220
0
230
1
1
\W0.7071;140%%d
40
3
41
0
44
1.084337
50
0
71
7
72
5
7
iso_b_vert
0
MTEXT
5
13E
100
AcDbEntity
8
SK6
62
256
6
ByLayer
370
18
48
1
60
0
100
AcDbMText
10
-9.648538
20
-77.114886
30
0
210
0
220
0
230
1
1
\W0.7562;860.1-0480-039A1-SD S2BM
40
3
41
0
44
1.084337
50
0
71
7
72
5
7
iso_b_vert
0
HATCH
5
126
100
AcDbEntity
8
2
62
256
6
ByLayer
370
13
48
1
60
0
100
AcDbHatch
10
0
20
0
30
0
210
0
220
0
230
1
2
ANSI31
70
0
71
0
91
1
92
5
93
3
72
1
10
75.5
20
2.39999999999998
11
75.0392162584472
21
5.89999830744679
72
1
10
75.0392162584472
20
5.89999830744679
11
75.9607837415528
21
5.90000169255316
72
1
10
75.9607837415528
20
5.90000169255316
11
75.5
21
2.39999999999998
97
0
75
0
76
1
52
0
41
0.0062
77
0
78
1
53
45
43
0
44
0
45
-0.0139193969876572
46
0.0139193969876572
79
0
47
0
98
1
10
0
20
0
0
HATCH
5
12A
100
AcDbEntity
8
2
62
256
6
ByLayer
370
13
48
1
60
0
100
AcDbHatch
10
0
20
0
30
0
210
0
220
0
230
1
2
ANSI31
70
0
71
0
91
1
92
5
93
3
72
1
10
75.5
20
-2.40000000000001
11
75.9607837415528
21
-5.89999830744682
72
1
10
75.9607837415528
20
-5.89999830744682
11
75.0392162584472
21
-5.90000169255319
72
1
10
75.0392162584472
20
-5.90000169255319
11
75.5
21
-2.40000000000001
97
0
75
0
76
1
52
0
41
0.0062
77
0
78
1
53
45
43
0
44
0
45
-0.0139193969876572
46
0.0139193969876572
79
0
47
0
98
1
10
0
20
0
0
HATCH
5
130
100
AcDbEntity
8
SK2
62
256
6
ByLayer
370
13
48
1
60
0
100
AcDbHatch
10
0
20
0
30
0
210
0
220
0
230
1
2
ANSI31
70
0
71
0
91
1
92
5
93
3
72
1
10
-44.5
20
3
11
-44.9607837415528
21
6.49999830744682
72
1
10
-44.9607837415528
20
6.49999830744682
11
-44.0392162584472
21
6.50000169255318
72
1
10
-44.0392162584472
20
6.50000169255318
11
-44.5
21
3
97
0
75
0
76
1
52
0
41
0.0062
77
0
78
1
53
45
43
0
44
0
45
-0.0139193969876572
46
0.0139193969876572
79
0
47
0
98
1
10
0
20
0
0
HATCH
5
134
100
AcDbEntity
8
SK2
62
256
6
ByLayer
370
13
48
1
60
0
100
AcDbHatch
10
0
20
0
30
0
210
0
220
0
230
1
2
ANSI31
70
0
71
0
91
1
92
5
93
3
72
1
10
-44.5
20
-3
11
-44.0392162584472
21
-6.49999830744682
72
1
10
-44.0392162584472
20
-6.49999830744682
11
-44.9607837415528
21
-6.50000169255318
72
1
10
-44.9607837415528
20
-6.50000169255318
11
-44.5
21
-3
97
0
75
0
76
1
52
0
41
0.0062
77
0
78
1
53
45
43
0
44
0
45
-0.0139193969876572
46
0.0139193969876572
79
0
47
0
98
1
10
0
20
0
0
HATCH
5
139
100
AcDbEntity
8
SK2
62
256
6
ByLayer
370
13
48
1
60
0
100
AcDbHatch
10
0
20
0
30
0
210
0
220
0
230
1
2
ANSI31
70
0
71
0
91
1
92
5
93
3
72
1
10
74.0225406407399
20
16.5378690363564
11
77.4268220855058
21
15.6034292825825
72
1
10
77.4268220855058
20
15.6034292825825
11
77.0689760996523
21
14.7541749765366
72
1
10
77.0689760996523
20
14.7541749765366
11
74.0225406407399
21
16.5378690363564
97
0
75
0
76
1
52
0
41
0.0062
77
0
78
1
53
45
43
0
44
0
45
-0.0139193969876572
46
0.0139193969876572
79
0
47
0
98
1
10
0
20
0
0
HATCH
5
13D
100
AcDbEntity
8
SK2
62
256
6
ByLayer
370
13
48
1
60
0
100
AcDbHatch
10
0
20
0
30
0
210
0
220
0
230
1
2
ANSI31
70
0
71
0
91
1
92
5
93
3
72
1
10
74.0225406407397
20
-16.5378690363565
11
77.0689729801717
21
-14.7541762909899
72
1
10
77.0689729801717
20
-14.7541762909899
11
77.426825204986
21
-15.6034279681295
72
1
10
77.426825204986
20
-15.6034279681295
11
74.0225406407397
21
-16.5378690363565
97
0
75
0
76
1
52
0
41
0.0062
77
0
78
1
53
45
43
0
44
0
45
-0.0139193969876572
46
0.0139193969876572
79
0
47
0
98
1
10
0
20
0
0
DIMENSION
5
141
100
AcDbEntity
8
SK2
62
256
6
ByLayer
370
18
48
1
60
0
100
AcDbDimension
2
_U0
10
28.8
20
-18.05505
30
0
11
48.4
21
-18.05505
31
0
70
32
71
1
72
1
41
1
210
0
220
0
230
1
3
Standard
100
AcDbAlignedDimension
13
68
23
-2.4
33
0
14
28.8
24
-2.4
34
0
50
0
100
AcDbRotatedDimension
1001
ACAD
1000
DSTYLE
1002
{
1070
   371
1070
    13
1070
   372
1070
    13
1070
   170
1070
     0
1070
   144
1040
1.0
1070
   277
1070
     2
1070
   284
1070
     8
1070
   278
1070
    46
1070
   146
1040
1.166667
1070
   345
1005
16
1070
   347
1005
16
1070
   346
1005
16
1070
   344
1005
0
1070
   343
1005
0
1070
   172
1070
     1
1070
    76
1070
     0
1070
    75
1070
     0
1070
   282
1070
     0
1070
   281
1070
     0
1070
     3
1000

1070
    71
1070
     0
1070
    74
1070
     0
1070
   279
1070
     0
1070
   173
1070
     1
1070
   340
1005
120
1070
   271
1070
     2
1070
   272
1070
     2
1070
    77
1070
     1
1070
    73
1070
     1
1070
   171
1070
     3
1070
   274
1070
     4
1070
   177
1070
     2
1070
   176
1070
     2
1070
   178
1070
     2
1070
    78
1070
     8
1070
    48
1040
-0.1
1070
    41
1040
3.5
1070
   147
1040
1.5
1070
    42
1040
1.5875
1070
    44
1040
2.0
1070
   140
1040
3.0
1002
}
1001
ACAD_DSTYLE_DIM_LINETYPE
1070
   380
1005
16
1001
ACAD_DSTYLE_DIM_EXT1_LINETYPE
1070
   381
1005
16
1001
ACAD_DSTYLE_DIM_EXT2_LINETYPE
1070
   382
1005
16
0
DIMENSION
5
15C
100
AcDbEntity
8
SK2
62
256
6
ByLayer
370
18
48
1
60
0
100
AcDbDimension
2
_U1
10
6
20
-28.05505
30
0
11
37
21
-28.05505
31
0
70
32
71
1
72
1
41
1
210
0
220
0
230
1
3
Standard
100
AcDbAlignedDimension
13
68
23
-2.4
33
0
14
6
24
-2.4
34
0
50
0
100
AcDbRotatedDimension
1001
ACAD
1000
DSTYLE
1002
{
1070
   371
1070
    13
1070
   372
1070
    13
1070
     3
1000

1070
   170
1070
     0
1070
   144
1040
1.0
1070
   277
1070
     2
1070
   284
1070
     8
1070
   278
1070
    46
1070
   146
1040
1.166667
1070
   345
1005
16
1070
   347
1005
16
1070
   346
1005
16
1070
   344
1005
0
1070
   343
1005
0
1070
   172
1070
     1
1070
    76
1070
     0
1070
    75
1070
     0
1070
   282
1070
     0
1070
   281
1070
     0
1070
    71
1070
     0
1070
    74
1070
     0
1070
   279
1070
     0
1070
   173
1070
     1
1070
   340
1005
120
1070
   271
1070
     2
1070
   272
1070
     2
1070
    77
1070
     1
1070
    73
1070
     1
1070
   171
1070
     3
1070
   274
1070
     4
1070
   177
1070
     2
1070
   176
1070
     2
1070
   178
1070
     2
1070
    78
1070
     8
1070
    48
1040
-0.1
1070
    41
1040
3.5
1070
   147
1040
1.5
1070
    42
1040
1.5875
1070
    44
1040
2.0
1070
   140
1040
3.0
1002
}
1001
ACAD_DSTYLE_DIM_LINETYPE
1070
   380
1005
16
1001
ACAD_DSTYLE_DIM_EXT1_LINETYPE
1070
   381
1005
16
1001
ACAD_DSTYLE_DIM_EXT2_LINETYPE
1070
   382
1005
16
0
DIMENSION
5
174
100
AcDbEntity
8
SK2
62
256
6
ByLayer
370
18
48
1
60
0
100
AcDbDimension
2
_U2
10
0
20
-36.05505
30
0
11
-18
21
-36.05505
31
0
70
32
71
1
72
1
41
1
210
0
220
0
230
1
3
Standard
100
AcDbAlignedDimension
13
-36
23
-3
33
0
14
0
24
-3
34
0
50
0
100
AcDbRotatedDimension
1001
ACAD
1000
DSTYLE
1002
{
1070
   371
1070
    13
1070
   372
1070
    13
1070
     3
1000

1070
   170
1070
     0
1070
   144
1040
1.0
1070
   277
1070
     2
1070
   284
1070
     8
1070
   278
1070
    46
1070
   146
1040
1.166667
1070
   345
1005
16
1070
   347
1005
16
1070
   346
1005
16
1070
   344
1005
0
1070
   343
1005
0
1070
   172
1070
     1
1070
    76
1070
     0
1070
    75
1070
     0
1070
   282
1070
     0
1070
   281
1070
     0
1070
    71
1070
     0
1070
    74
1070
     0
1070
   279
1070
     0
1070
   173
1070
     1
1070
   340
1005
120
1070
   271
1070
     2
1070
   272
1070
     2
1070
    77
1070
     1
1070
    73
1070
     1
1070
   171
1070
     3
1070
   274
1070
     4
1070
   177
1070
     2
1070
   176
1070
     2
1070
   178
1070
     2
1070
    78
1070
     8
1070
    48
1040
-0.1
1070
    41
1040
3.5
1070
   147
1040
1.5
1070
    42
1040
1.5875
1070
    44
1040
2.0
1070
   140
1040
3.0
1002
}
1001
ACAD_DSTYLE_DIM_LINETYPE
1070
   380
1005
16
1001
ACAD_DSTYLE_DIM_EXT1_LINETYPE
1070
   381
1005
16
1001
ACAD_DSTYLE_DIM_EXT2_LINETYPE
1070
   382
1005
16
0
DIMENSION
5
18C
100
AcDbEntity
8
SK2
62
256
6
ByLayer
370
18
48
1
60
0
100
AcDbDimension
2
_U3
10
68
20
-44.05505
30
0
11
16
21
-44.05505
31
0
70
32
71
1
72
1
41
1
210
0
220
0
230
1
3
Standard
100
AcDbAlignedDimension
13
-36
23
-3
33
0
14
68
24
-2.4
34
0
50
0
100
AcDbRotatedDimension
1001
ACAD
1000
DSTYLE
1002
{
1070
   371
1070
    13
1070
   372
1070
    13
1070
     3
1000

1070
   170
1070
     0
1070
   144
1040
1.0
1070
   277
1070
     2
1070
   284
1070
     8
1070
   278
1070
    46
1070
   146
1040
1.166667
1070
   345
1005
16
1070
   347
1005
16
1070
   346
1005
16
1070
   344
1005
0
1070
   343
1005
0
1070
   172
1070
     1
1070
    76
1070
     0
1070
    75
1070
     0
1070
   282
1070
     0
1070
   281
1070
     0
1070
    71
1070
     0
1070
    74
1070
     0
1070
   279
1070
     0
1070
   173
1070
     1
1070
   340
1005
120
1070
   271
1070
     2
1070
   272
1070
     2
1070
    77
1070
     1
1070
    73
1070
     1
1070
   171
1070
     3
1070
   274
1070
     4
1070
   177
1070
     2
1070
   176
1070
     2
1070
   178
1070
     2
1070
    78
1070
     8
1070
    48
1040
-0.1
1070
    41
1040
3.5
1070
   147
1040
1.5
1070
    42
1040
1.5875
1070
    44
1040
2.0
1070
   140
1040
3.0
1002
}
1001
ACAD_DSTYLE_DIM_LINETYPE
1070
   380
1005
16
1001
ACAD_DSTYLE_DIM_EXT1_LINETYPE
1070
   381
1005
16
1001
ACAD_DSTYLE_DIM_EXT2_LINETYPE
1070
   382
1005
16
0
DIMENSION
5
1A4
100
AcDbEntity
8
2
62
256
6
ByLayer
370
18
48
1
60
0
100
AcDbDimension
2
_U4
10
0
20
-36.05505
30
0
11
34
21
-36.05505
31
0
70
32
71
1
72
1
41
1
210
0
220
0
230
1
3
Standard
100
AcDbAlignedDimension
13
68
23
-2.4
33
0
14
0
24
-2.4
34
0
50
0
100
AcDbRotatedDimension
1001
ACAD
1000
DSTYLE
1002
{
1070
   371
1070
    13
1070
   372
1070
    13
1070
     3
1000

1070
   170
1070
     0
1070
   144
1040
1.0
1070
   277
1070
     2
1070
   284
1070
     8
1070
   278
1070
    46
1070
   146
1040
1.166667
1070
   345
1005
16
1070
   347
1005
16
1070
   346
1005
16
1070
   344
1005
0
1070
   343
1005
0
1070
   172
1070
     1
1070
    76
1070
     0
1070
    75
1070
     0
1070
   282
1070
     0
1070
   281
1070
     0
1070
    71
1070
     0
1070
    74
1070
     0
1070
   279
1070
     0
1070
   173
1070
     1
1070
   340
1005
120
1070
   271
1070
     2
1070
   272
1070
     2
1070
    77
1070
     1
1070
    73
1070
     1
1070
   171
1070
     3
1070
   274
1070
     4
1070
   177
1070
     2
1070
   176
1070
     2
1070
   178
1070
     2
1070
    78
1070
     8
1070
    48
1040
-0.1
1070
    41
1040
3.5
1070
   147
1040
1.5
1070
    42
1040
1.5875
1070
    44
1040
2.0
1070
   140
1040
3.0
1002
}
1001
ACAD_DSTYLE_DIM_LINETYPE
1070
   380
1005
16
1001
ACAD_DSTYLE_DIM_EXT1_LINETYPE
1070
   381
1005
16
1001
ACAD_DSTYLE_DIM_EXT2_LINETYPE
1070
   382
1005
16
0
ENDSEC
0
SECTION
2
OBJECTS
0
DICTIONARY
5
22c
330
0
100
AcDbDictionary
280
0
281
1
3
ACAD_GROUP
350
22d
3
ACAD_MLINESTYLE
350
22e
0
DICTIONARY
5
22d
330
0
100
AcDbDictionary
280
0
281
1
0
DICTIONARY
5
22e
330
0
100
AcDbDictionary
280
0
281
1
3
Standard
350
18
0
MLINESTYLE
5
18
330
22e
100
AcDbMlineStyle
2
Standard
70
0
3

62
256
51
90
52
90
71
2
49
-0.5
62
256
6
ByLayer
49
0.5
62
256
6
ByLayer
0
RASTERVARIABLES
5
21a
330

100
AcDbRasterVariables
90
0
70
1
71
1
72
1
0
ENDSEC
0
EOF
