0
SECTION
2
HEADER
9
$ACADVER
1
AC1015
9
$DWGCODEPAGE
3
ANSI_1252
9
$HANDSEED
5
234
9
$ANGBASE
50
0
9
$ANGDIR
70
0
9
$ATTMODE
70
1
9
$AUNITS
70
0
9
$AUPREC
70
0
9
$CECOLOR
62
256
9
$CELTSCALE
40
1
9
$CELTYPE
6
ByLayer
9
$CELWEIGHT
370
18
9
$CLAYER
8
0
9
$CMLJUST
70
0
9
$CMLSCALE
40
1
9
$CMLSTYLE
2
Standard
9
$DIMSTYLE
2
Standard
9
$TEXTSIZE
40
0.2
9
$TEXTSTYLE
7
Standard
9
$LUNITS
70
2
9
$LUPREC
70
4
9
$EXTNAMES
290
1
9
$INSUNITS
70
4
9
$LTSCALE
40
1
9
$LWDISPLAY
290
1
9
$PDMODE
70
0
9
$PDSIZE
40
0
9
$PLINEGEN
70
0
0
ENDSEC
0
SECTION
2
CLASSES
0
CLASS
1
RASTERVARIABLES
2
AcDbRasterVariables
3
ISM
90
0
280
0
281
0
0
ENDSEC
0
SECTION
2
TABLES
0
TABLE
2
VPORT
5
22a
100
AcDbSymbolTable
0
VPORT
5
1
100
AcDbSymbolTableRecord
100
AcDbViewportTableRecord
2
*Active
70
0
10
0
20
0
11
1
21
1
12
-1
22
1
13
0
23
0
14
0.5
24
0.5
15
10
25
10
16
0
26
0
36
1
17
0
27
0
37
0
0
ENDTAB
0
TABLE
2
LTYPE
5
22b
100
AcDbSymbolTable
0
LTYPE
5
14
100
AcDbSymbolTableRecord
100
AcDbLinetypeTableRecord
70
0
2
ByBlock
3

72
65
73
0
40
0
0
LTYPE
5
15
100
AcDbSymbolTableRecord
100
AcDbLinetypeTableRecord
70
0
2
ByLayer
3

72
65
73
0
40
0
0
LTYPE
5
16
100
AcDbSymbolTableRecord
100
AcDbLinetypeTableRecord
70
0
2
Continuous
3
Solid line
72
65
73
0
40
0
0
LTYPE
5
6E
100
AcDbSymbolTableRecord
100
AcDbLinetypeTableRecord
70
0
2
CENTER
3
____ _ ____ _ ____ _ ____
72
65
73
4
40
47.5
49
22
74
0
49
-8.5
74
0
49
8.5
74
0
49
-8.5
74
0
0
LTYPE
5
6F
100
AcDbSymbolTableRecord
100
AcDbLinetypeTableRecord
70
0
2
DASHED
3
__ __ __ __ __ __ __ __ __
72
65
73
2
40
25.72
49
12.86
74
0
49
-12.86
74
0
0
ENDTAB
0
TABLE
2
LAYER
5
22c
100
AcDbSymbolTable
0
LAYER
5
10
100
AcDbSymbolTableRecord
100
AcDbLayerTableRecord
2
0
70
0
62
7
6
Continuous
290
1
370
-3
390
0
0
LAYER
5
71
100
AcDbSymbolTableRecord
100
AcDbLayerTableRecord
2
80
70
0
62
-6
6
Continuous
290
1
370
-3
390
0
0
LAYER
5
73
100
AcDbSymbolTableRecord
100
AcDbLayerTableRecord
2
81
70
0
62
-3
6
Continuous
290
1
370
-3
390
0
0
LAYER
5
75
100
AcDbSymbolTableRecord
100
AcDbLayerTableRecord
2
1
70
0
62
4
6
Continuous
290
1
370
-3
390
0
0
LAYER
5
83
100
AcDbSymbolTableRecord
100
AcDbLayerTableRecord
2
4
70
0
62
-2
6
CENTER
290
1
370
-3
390
0
0
LAYER
5
A0
100
AcDbSymbolTableRecord
100
AcDbLayerTableRecord
2
2
70
0
62
7
6
Continuous
290
1
370
-3
390
0
0
LAYER
5
13E
100
AcDbSymbolTableRecord
100
AcDbLayerTableRecord
2
Defpoints
70
0
62
7
6
Continuous
290
0
370
-3
390
0
0
LAYER
5
216
100
AcDbSymbolTableRecord
100
AcDbLayerTableRecord
2
SK4
70
0
62
2
6
CENTER
290
1
370
-3
390
0
0
LAYER
5
217
100
AcDbSymbolTableRecord
100
AcDbLayerTableRecord
2
SK1
70
0
62
4
6
Continuous
290
1
370
-3
390
0
0
LAYER
5
218
100
AcDbSymbolTableRecord
100
AcDbLayerTableRecord
2
SK2
70
0
62
7
6
Continuous
290
1
370
-3
390
0
0
LAYER
5
219
100
AcDbSymbolTableRecord
100
AcDbLayerTableRecord
2
SK6
70
0
62
5
6
Continuous
290
1
370
-3
390
0
0
ENDTAB
0
TABLE
2
STYLE
5
22d
100
AcDbSymbolTable
0
STYLE
5
11
100
AcDbSymbolTableRecord
100
AcDbTextStyleTableRecord
2
Standard
3
txt
70
0
71
0
40
0
41
1
42
0
50
0
0
STYLE
5
11A
100
AcDbSymbolTableRecord
100
AcDbTextStyleTableRecord
2
iso_b_vert
3
simplex.shx
70
0
71
0
40
0
41
1
42
0
50
0
0
STYLE
5
11B
100
AcDbSymbolTableRecord
100
AcDbTextStyleTableRecord
2
DWGDirectTextStyle
3
simplex
70
0
71
0
40
0
41
1
42
0
50
0
0
ENDTAB
0
TABLE
2
DIMSTYLE
5
22e
100
AcDbSymbolTable
100
AcDbDimStyleTable
0
DIMSTYLE
105
27
100
AcDbSymbolTableRecord
100
AcDbDimStyleTableRecord
2
Standard
70
0
3
<>
41
0.18
42
0.0625
44
0.18
140
0.18
147
0.09
73
0
74
0
77
1
271
2
275
0
278
52
280
0
340
11
0
ENDTAB
0
TABLE
2
VIEW
5
22f
100
AcDbSymbolTable
0
ENDTAB
0
TABLE
2
UCS
5
230
100
AcDbSymbolTable
0
ENDTAB
0
TABLE
2
APPID
5
231
100
AcDbSymbolTable
0
APPID
5
12
100
AcDbSymbolTableRecord
100
AcDbRegAppTableRecord
2
ACAD
70
0
0
APPID
5
13A
100
AcDbSymbolTableRecord
100
AcDbRegAppTableRecord
2
ACAD_DSTYLE_DIMBREAK
70
0
0
APPID
5
1D5
100
AcDbSymbolTableRecord
100
AcDbRegAppTableRecord
2
ACAD_DSTYLE_DIM_LINETYPE
70
0
0
APPID
5
1D6
100
AcDbSymbolTableRecord
100
AcDbRegAppTableRecord
2
ACAD_DSTYLE_DIM_EXT1_LINETYPE
70
0
0
APPID
5
1D7
100
AcDbSymbolTableRecord
100
AcDbRegAppTableRecord
2
ACAD_DSTYLE_DIM_EXT2_LINETYPE
70
0
0
APPID
5
212
100
AcDbSymbolTableRecord
100
AcDbRegAppTableRecord
2
ACAD_MLEADERVER
70
0
0
ENDTAB
0
TABLE
2
BLOCK_RECORD
5
232
100
AcDbSymbolTable
0
BLOCK_RECORD
5
1F
100
AcDbSymbolTableRecord
100
AcDbBlockTableRecord
2
*Model_Space
340
0
70
0
0
BLOCK_RECORD
5
1B
100
AcDbSymbolTableRecord
100
AcDbBlockTableRecord
2
*Paper_Space
340
0
70
0
0
BLOCK_RECORD
5
23
100
AcDbSymbolTableRecord
100
AcDbBlockTableRecord
2
*Paper_Space0
340
0
70
0
0
BLOCK_RECORD
5
13F
100
AcDbSymbolTableRecord
100
AcDbBlockTableRecord
2
*D1
340
0
70
0
0
BLOCK_RECORD
5
14C
100
AcDbSymbolTableRecord
100
AcDbBlockTableRecord
2
_U0
340
0
70
0
0
BLOCK_RECORD
5
15A
100
AcDbSymbolTableRecord
100
AcDbBlockTableRecord
2
*D3
340
0
70
0
0
BLOCK_RECORD
5
166
100
AcDbSymbolTableRecord
100
AcDbBlockTableRecord
2
_U1
340
0
70
0
0
BLOCK_RECORD
5
172
100
AcDbSymbolTableRecord
100
AcDbBlockTableRecord
2
*D5
340
0
70
0
0
BLOCK_RECORD
5
17E
100
AcDbSymbolTableRecord
100
AcDbBlockTableRecord
2
_U2
340
0
70
0
0
BLOCK_RECORD
5
18A
100
AcDbSymbolTableRecord
100
AcDbBlockTableRecord
2
*D7
340
0
70
0
0
BLOCK_RECORD
5
196
100
AcDbSymbolTableRecord
100
AcDbBlockTableRecord
2
_U3
340
0
70
0
0
BLOCK_RECORD
5
1A2
100
AcDbSymbolTableRecord
100
AcDbBlockTableRecord
2
*D9
340
0
70
0
0
BLOCK_RECORD
5
1AE
100
AcDbSymbolTableRecord
100
AcDbBlockTableRecord
2
_U4
340
0
70
0
0
ENDTAB
0
ENDSEC
0
SECTION
2
BLOCKS
0
BLOCK
5
20
100
AcDbEntity
8
0
100
AcDbBlockBegin
2
*Model_Space
70
0
10
0
20
0
30
0
3
*Model_Space
0
ENDBLK
5
21
100
AcDbEntity
8
0
100
AcDbBlockEnd
0
BLOCK
5
1C
100
AcDbEntity
8
0
100
AcDbBlockBegin
2
*Paper_Space
70
0
10
0
20
0
30
0
3
*Paper_Space
0
ENDBLK
5
1D
100
AcDbEntity
8
0
100
AcDbBlockEnd
0
BLOCK
5
24
100
AcDbEntity
8
0
100
AcDbBlockBegin
2
*Paper_Space0
70
0
10
0
20
0
30
0
3
*Paper_Space0
0
ENDBLK
5
25
100
AcDbEntity
8
0
100
AcDbBlockEnd
0
BLOCK
5
140
100
AcDbEntity
8
0
100
AcDbBlockBegin
2
*D1
70
1
10
0
20
0
30
0
3
*D1
0
LINE
5
142
100
AcDbEntity
8
0
62
256
6
ByLayer
370
-2
48
1
60
0
100
AcDbLine
10
30
20
-3.8875
30
0
11
30
21
-21.81599
31
0
39
0
210
0
220
0
230
1
0
LINE
5
143
100
AcDbEntity
8
0
62
256
6
ByLayer
370
-2
48
1
60
0
100
AcDbLine
10
15.4
20
-3.8875
30
0
11
15.4
21
-21.81599
31
0
39
0
210
0
220
0
230
1
0
LINE
5
144
100
AcDbEntity
8
0
62
256
6
ByLayer
370
-2
48
1
60
0
100
AcDbLine
10
33.5
20
-19.81599
30
0
11
37
21
-19.81599
31
0
39
0
210
0
220
0
230
1
0
LINE
5
145
100
AcDbEntity
8
0
62
256
6
ByLayer
370
-2
48
1
60
0
100
AcDbLine
10
11.9
20
-19.81599
30
0
11
8.4
21
-19.81599
31
0
39
0
210
0
220
0
230
1
0
SOLID
5
146
100
AcDbEntity
8
0
62
256
6
ByLayer
370
-1
48
1
60
0
100
AcDbTrace
10
33.5
20
-19.232656
30
0
11
33.5
21
-20.399323
31
0
12
30
22
-19.81599
32
0
13
30
23
-19.81599
33
0
39
0
210
0
220
0
230
1
0
SOLID
5
147
100
AcDbEntity
8
0
62
256
6
ByLayer
370
-1
48
1
60
0
100
AcDbTrace
10
11.9
20
-20.399323
30
0
11
11.9
21
-19.232656
31
0
12
15.4
22
-19.81599
32
0
13
15.4
23
-19.81599
33
0
39
0
210
0
220
0
230
1
0
MTEXT
5
148
100
AcDbEntity
8
0
62
256
6
ByLayer
370
18
48
1
60
0
100
AcDbMText
10
22.7
20
-13.81599
30
0
210
0
220
0
230
1
1
\A1;14.6
40
3
41
0
44
1
50
0
71
5
72
5
7
iso_b_vert
0
POINT
5
149
100
AcDbEntity
8
Defpoints
62
0
6
ByLayer
370
-1
48
1
60
0
100
AcDbPoint
10
30
20
-2.3
30
0
39
0
210
0
220
0
230
1
50
360
0
POINT
5
14A
100
AcDbEntity
8
Defpoints
62
0
6
ByLayer
370
-1
48
1
60
0
100
AcDbPoint
10
15.4
20
-2.3
30
0
39
0
210
0
220
0
230
1
50
360
0
POINT
5
14B
100
AcDbEntity
8
Defpoints
62
0
6
ByLayer
370
-1
48
1
60
0
100
AcDbPoint
10
15.4
20
-19.81599
30
0
39
0
210
0
220
0
230
1
50
360
0
ENDBLK
5
141
100
AcDbEntity
8
0
100
AcDbBlockEnd
0
BLOCK
5
155
100
AcDbEntity
8
0
100
AcDbBlockBegin
2
_U0
70
0
10
0
20
0
30
0
3
_U0
0
MTEXT
5
14D
100
AcDbEntity
8
SK2
62
256
6
ByLayer
370
18
48
1
60
0
100
AcDbMText
10
19.555544
20
-17.618375
30
0
210
0
220
0
230
1
1
\W0.6856;14.6
40
3
41
0
44
1.084337
50
0
71
7
72
5
7
iso_b_vert
0
MTEXT
5
14E
100
AcDbEntity
8
SK2
62
256
6
ByLayer
370
18
48
1
60
0
100
AcDbMText
10
17.455544
20
-17.618375
30
0
210
0
220
0
230
1
1
\W1.1313;{\H1.88x;(}
40
3
41
0
44
1.084337
50
0
71
7
72
5
7
iso_b_vert
0
MTEXT
5
14F
100
AcDbEntity
8
SK2
62
256
6
ByLayer
370
18
48
1
60
0
100
AcDbMText
10
26.162456
20
-17.618375
30
0
210
0
220
0
230
1
1
\W1.1313;{\H1.88x;)}
40
3
41
0
44
1.084337
50
0
71
7
72
5
7
iso_b_vert
0
LINE
5
150
100
AcDbEntity
8
SK2
62
256
6
ByLayer
370
13
48
1
60
0
100
AcDbLine
10
30
20
-3.8875
30
0
11
30
21
-21.81599
31
0
39
0
210
0
220
0
230
1
0
LINE
5
151
100
AcDbEntity
8
SK2
62
256
6
ByLayer
370
13
48
1
60
0
100
AcDbLine
10
15.4
20
-3.8875
30
0
11
15.4
21
-21.81599
31
0
39
0
210
0
220
0
230
1
0
LINE
5
152
100
AcDbEntity
8
SK2
62
256
6
ByLayer
370
13
48
1
60
0
100
AcDbLine
10
30
20
-19.81599
30
0
11
15.4
21
-19.81599
31
0
39
0
210
0
220
0
230
1
0
SOLID
5
153
100
AcDbEntity
8
SK2
62
256
6
ByLayer
370
18
48
1
60
0
100
AcDbTrace
10
30
20
-19.81599
30
0
11
26.500002
21
-20.276773
31
0
12
26.499998
22
-19.355206
32
0
13
26.499998
23
-19.355206
33
0
39
0
210
0
220
0
230
1
0
SOLID
5
154
100
AcDbEntity
8
SK2
62
256
6
ByLayer
370
18
48
1
60
0
100
AcDbTrace
10
15.4
20
-19.81599
30
0
11
18.899998
21
-19.355206
31
0
12
18.900002
22
-20.276773
32
0
13
18.900002
23
-20.276773
33
0
39
0
210
0
220
0
230
1
0
ENDBLK
5
156
100
AcDbEntity
8
0
100
AcDbBlockEnd
0
BLOCK
5
15B
100
AcDbEntity
8
0
100
AcDbBlockBegin
2
*D3
70
1
10
0
20
0
30
0
3
*D3
0
LINE
5
15D
100
AcDbEntity
8
0
62
256
6
ByLayer
370
-2
48
1
60
0
100
AcDbLine
10
30
20
-3.8875
30
0
11
30
21
-31.81599
31
0
39
0
210
0
220
0
230
1
0
LINE
5
15E
100
AcDbEntity
8
0
62
256
6
ByLayer
370
-2
48
1
60
0
100
AcDbLine
10
6
20
-3.8875
30
0
11
6
21
-31.81599
31
0
39
0
210
0
220
0
230
1
0
LINE
5
15F
100
AcDbEntity
8
0
62
256
6
ByLayer
370
-2
48
1
60
0
100
AcDbLine
10
26.5
20
-29.81599
30
0
11
9.5
21
-29.81599
31
0
39
0
210
0
220
0
230
1
0
SOLID
5
160
100
AcDbEntity
8
0
62
256
6
ByLayer
370
-1
48
1
60
0
100
AcDbTrace
10
26.5
20
-30.399323
30
0
11
26.5
21
-29.232656
31
0
12
30
22
-29.81599
32
0
13
30
23
-29.81599
33
0
39
0
210
0
220
0
230
1
0
SOLID
5
161
100
AcDbEntity
8
0
62
256
6
ByLayer
370
-1
48
1
60
0
100
AcDbTrace
10
9.5
20
-29.232656
30
0
11
9.5
21
-30.399323
31
0
12
6
22
-29.81599
32
0
13
6
23
-29.81599
33
0
39
0
210
0
220
0
230
1
0
MTEXT
5
162
100
AcDbEntity
8
0
62
256
6
ByLayer
370
18
48
1
60
0
100
AcDbMText
10
18
20
-23.81599
30
0
210
0
220
0
230
1
1
\A1;24
40
3
41
0
44
1
50
0
71
5
72
5
7
iso_b_vert
0
POINT
5
163
100
AcDbEntity
8
Defpoints
62
0
6
ByLayer
370
-1
48
1
60
0
100
AcDbPoint
10
30
20
-2.3
30
0
39
0
210
0
220
0
230
1
50
360
0
POINT
5
164
100
AcDbEntity
8
Defpoints
62
0
6
ByLayer
370
-1
48
1
60
0
100
AcDbPoint
10
6
20
-2.3
30
0
39
0
210
0
220
0
230
1
50
360
0
POINT
5
165
100
AcDbEntity
8
Defpoints
62
0
6
ByLayer
370
-1
48
1
60
0
100
AcDbPoint
10
6
20
-29.81599
30
0
39
0
210
0
220
0
230
1
50
360
0
ENDBLK
5
15C
100
AcDbEntity
8
0
100
AcDbBlockEnd
0
BLOCK
5
16D
100
AcDbEntity
8
0
100
AcDbBlockBegin
2
_U1
70
0
10
0
20
0
30
0
3
_U1
0
MTEXT
5
167
100
AcDbEntity
8
SK2
62
256
6
ByLayer
370
18
48
1
60
0
100
AcDbMText
10
16.209229
20
-28.930875
30
0
210
0
220
0
230
1
1
\W0.7167;24
40
3
41
0
44
1.084337
50
0
71
7
72
5
7
iso_b_vert
0
LINE
5
168
100
AcDbEntity
8
SK2
62
256
6
ByLayer
370
13
48
1
60
0
100
AcDbLine
10
30
20
-3.8875
30
0
11
30
21
-31.81599
31
0
39
0
210
0
220
0
230
1
0
LINE
5
169
100
AcDbEntity
8
SK2
62
256
6
ByLayer
370
13
48
1
60
0
100
AcDbLine
10
6
20
-3.8875
30
0
11
6
21
-31.81599
31
0
39
0
210
0
220
0
230
1
0
LINE
5
16A
100
AcDbEntity
8
SK2
62
256
6
ByLayer
370
13
48
1
60
0
100
AcDbLine
10
30
20
-29.81599
30
0
11
6
21
-29.81599
31
0
39
0
210
0
220
0
230
1
0
SOLID
5
16B
100
AcDbEntity
8
SK2
62
256
6
ByLayer
370
18
48
1
60
0
100
AcDbTrace
10
30
20
-29.81599
30
0
11
26.500002
21
-30.276773
31
0
12
26.499998
22
-29.355206
32
0
13
26.499998
23
-29.355206
33
0
39
0
210
0
220
0
230
1
0
SOLID
5
16C
100
AcDbEntity
8
SK2
62
256
6
ByLayer
370
18
48
1
60
0
100
AcDbTrace
10
6
20
-29.81599
30
0
11
9.499998
21
-29.355206
31
0
12
9.500002
22
-30.276773
32
0
13
9.500002
23
-30.276773
33
0
39
0
210
0
220
0
230
1
0
ENDBLK
5
16E
100
AcDbEntity
8
0
100
AcDbBlockEnd
0
BLOCK
5
173
100
AcDbEntity
8
0
100
AcDbBlockBegin
2
*D5
70
1
10
0
20
0
30
0
3
*D5
0
LINE
5
175
100
AcDbEntity
8
0
62
256
6
ByLayer
370
-2
48
1
60
0
100
AcDbLine
10
-36
20
-4.5875
30
0
11
-36
21
-39.81599
31
0
39
0
210
0
220
0
230
1
0
LINE
5
176
100
AcDbEntity
8
0
62
256
6
ByLayer
370
-2
48
1
60
0
100
AcDbLine
10
0
20
-4.5875
30
0
11
0
21
-39.81599
31
0
39
0
210
0
220
0
230
1
0
LINE
5
177
100
AcDbEntity
8
0
62
256
6
ByLayer
370
-2
48
1
60
0
100
AcDbLine
10
-32.5
20
-37.81599
30
0
11
-3.5
21
-37.81599
31
0
39
0
210
0
220
0
230
1
0
SOLID
5
178
100
AcDbEntity
8
0
62
256
6
ByLayer
370
-1
48
1
60
0
100
AcDbTrace
10
-32.5
20
-37.232656
30
0
11
-32.5
21
-38.399323
31
0
12
-36
22
-37.81599
32
0
13
-36
23
-37.81599
33
0
39
0
210
0
220
0
230
1
0
SOLID
5
179
100
AcDbEntity
8
0
62
256
6
ByLayer
370
-1
48
1
60
0
100
AcDbTrace
10
-3.5
20
-38.399323
30
0
11
-3.5
21
-37.232656
31
0
12
0
22
-37.81599
32
0
13
0
23
-37.81599
33
0
39
0
210
0
220
0
230
1
0
MTEXT
5
17A
100
AcDbEntity
8
0
62
256
6
ByLayer
370
18
48
1
60
0
100
AcDbMText
10
-18
20
-31.81599
30
0
210
0
220
0
230
1
1
\A1;36
40
3
41
0
44
1
50
0
71
5
72
5
7
iso_b_vert
0
POINT
5
17B
100
AcDbEntity
8
Defpoints
62
0
6
ByLayer
370
-1
48
1
60
0
100
AcDbPoint
10
-36
20
-3
30
0
39
0
210
0
220
0
230
1
50
360
0
POINT
5
17C
100
AcDbEntity
8
Defpoints
62
0
6
ByLayer
370
-1
48
1
60
0
100
AcDbPoint
10
0
20
-3
30
0
39
0
210
0
220
0
230
1
50
360
0
POINT
5
17D
100
AcDbEntity
8
Defpoints
62
0
6
ByLayer
370
-1
48
1
60
0
100
AcDbPoint
10
0
20
-37.81599
30
0
39
0
210
0
220
0
230
1
50
360
0
ENDBLK
5
174
100
AcDbEntity
8
0
100
AcDbBlockEnd
0
BLOCK
5
185
100
AcDbEntity
8
0
100
AcDbBlockBegin
2
_U2
70
0
10
0
20
0
30
0
3
_U2
0
MTEXT
5
17F
100
AcDbEntity
8
SK2
62
256
6
ByLayer
370
18
48
1
60
0
100
AcDbMText
10
-19.632828
20
-36.930875
30
0
210
0
220
0
230
1
1
\W0.6740;36
40
3
41
0
44
1.084337
50
0
71
7
72
5
7
iso_b_vert
0
LINE
5
180
100
AcDbEntity
8
SK2
62
256
6
ByLayer
370
13
48
1
60
0
100
AcDbLine
10
-36
20
-4.5875
30
0
11
-36
21
-39.81599
31
0
39
0
210
0
220
0
230
1
0
LINE
5
181
100
AcDbEntity
8
SK2
62
256
6
ByLayer
370
13
48
1
60
0
100
AcDbLine
10
0
20
-4.5875
30
0
11
0
21
-39.81599
31
0
39
0
210
0
220
0
230
1
0
LINE
5
182
100
AcDbEntity
8
SK2
62
256
6
ByLayer
370
13
48
1
60
0
100
AcDbLine
10
-36
20
-37.81599
30
0
11
0
21
-37.81599
31
0
39
0
210
0
220
0
230
1
0
SOLID
5
183
100
AcDbEntity
8
SK2
62
256
6
ByLayer
370
18
48
1
60
0
100
AcDbTrace
10
-36
20
-37.81599
30
0
11
-32.500002
21
-37.355206
31
0
12
-32.499998
22
-38.276773
32
0
13
-32.499998
23
-38.276773
33
0
39
0
210
0
220
0
230
1
0
SOLID
5
184
100
AcDbEntity
8
SK2
62
256
6
ByLayer
370
18
48
1
60
0
100
AcDbTrace
10
0
20
-37.81599
30
0
11
-3.499998
21
-38.276773
31
0
12
-3.500002
22
-37.355206
32
0
13
-3.500002
23
-37.355206
33
0
39
0
210
0
220
0
230
1
0
ENDBLK
5
186
100
AcDbEntity
8
0
100
AcDbBlockEnd
0
BLOCK
5
18B
100
AcDbEntity
8
0
100
AcDbBlockBegin
2
*D7
70
1
10
0
20
0
30
0
3
*D7
0
LINE
5
18D
100
AcDbEntity
8
0
62
256
6
ByLayer
370
-2
48
1
60
0
100
AcDbLine
10
-36
20
-4.5875
30
0
11
-36
21
-47.81599
31
0
39
0
210
0
220
0
230
1
0
LINE
5
18E
100
AcDbEntity
8
0
62
256
6
ByLayer
370
-2
48
1
60
0
100
AcDbLine
10
30
20
-3.8875
30
0
11
30
21
-47.81599
31
0
39
0
210
0
220
0
230
1
0
LINE
5
18F
100
AcDbEntity
8
0
62
256
6
ByLayer
370
-2
48
1
60
0
100
AcDbLine
10
-32.5
20
-45.81599
30
0
11
26.5
21
-45.81599
31
0
39
0
210
0
220
0
230
1
0
SOLID
5
190
100
AcDbEntity
8
0
62
256
6
ByLayer
370
-1
48
1
60
0
100
AcDbTrace
10
-32.5
20
-45.232656
30
0
11
-32.5
21
-46.399323
31
0
12
-36
22
-45.81599
32
0
13
-36
23
-45.81599
33
0
39
0
210
0
220
0
230
1
0
SOLID
5
191
100
AcDbEntity
8
0
62
256
6
ByLayer
370
-1
48
1
60
0
100
AcDbTrace
10
26.5
20
-46.399323
30
0
11
26.5
21
-45.232656
31
0
12
30
22
-45.81599
32
0
13
30
23
-45.81599
33
0
39
0
210
0
220
0
230
1
0
MTEXT
5
192
100
AcDbEntity
8
0
62
256
6
ByLayer
370
18
48
1
60
0
100
AcDbMText
10
-3
20
-39.81599
30
0
210
0
220
0
230
1
1
\A1;66
40
3
41
0
44
1
50
0
71
5
72
5
7
iso_b_vert
0
POINT
5
193
100
AcDbEntity
8
Defpoints
62
0
6
ByLayer
370
-1
48
1
60
0
100
AcDbPoint
10
-36
20
-3
30
0
39
0
210
0
220
0
230
1
50
360
0
POINT
5
194
100
AcDbEntity
8
Defpoints
62
0
6
ByLayer
370
-1
48
1
60
0
100
AcDbPoint
10
30
20
-2.3
30
0
39
0
210
0
220
0
230
1
50
360
0
POINT
5
195
100
AcDbEntity
8
Defpoints
62
0
6
ByLayer
370
-1
48
1
60
0
100
AcDbPoint
10
30
20
-45.81599
30
0
39
0
210
0
220
0
230
1
50
360
0
ENDBLK
5
18C
100
AcDbEntity
8
0
100
AcDbBlockEnd
0
BLOCK
5
19D
100
AcDbEntity
8
0
100
AcDbBlockBegin
2
_U3
70
0
10
0
20
0
30
0
3
_U3
0
MTEXT
5
197
100
AcDbEntity
8
SK2
62
256
6
ByLayer
370
18
48
1
60
0
100
AcDbMText
10
-4.632828
20
-44.930875
30
0
210
0
220
0
230
1
1
\W0.6740;66
40
3
41
0
44
1.084337
50
0
71
7
72
5
7
iso_b_vert
0
LINE
5
198
100
AcDbEntity
8
SK2
62
256
6
ByLayer
370
13
48
1
60
0
100
AcDbLine
10
-36
20
-4.5875
30
0
11
-36
21
-47.81599
31
0
39
0
210
0
220
0
230
1
0
LINE
5
199
100
AcDbEntity
8
SK2
62
256
6
ByLayer
370
13
48
1
60
0
100
AcDbLine
10
30
20
-3.8875
30
0
11
30
21
-47.81599
31
0
39
0
210
0
220
0
230
1
0
LINE
5
19A
100
AcDbEntity
8
SK2
62
256
6
ByLayer
370
13
48
1
60
0
100
AcDbLine
10
-36
20
-45.81599
30
0
11
30
21
-45.81599
31
0
39
0
210
0
220
0
230
1
0
SOLID
5
19B
100
AcDbEntity
8
SK2
62
256
6
ByLayer
370
18
48
1
60
0
100
AcDbTrace
10
-36
20
-45.81599
30
0
11
-32.500002
21
-45.355206
31
0
12
-32.499998
22
-46.276773
32
0
13
-32.499998
23
-46.276773
33
0
39
0
210
0
220
0
230
1
0
SOLID
5
19C
100
AcDbEntity
8
SK2
62
256
6
ByLayer
370
18
48
1
60
0
100
AcDbTrace
10
30
20
-45.81599
30
0
11
26.500002
21
-46.276773
31
0
12
26.499998
22
-45.355206
32
0
13
26.499998
23
-45.355206
33
0
39
0
210
0
220
0
230
1
0
ENDBLK
5
19E
100
AcDbEntity
8
0
100
AcDbBlockEnd
0
BLOCK
5
1A3
100
AcDbEntity
8
0
100
AcDbBlockBegin
2
*D9
70
1
10
0
20
0
30
0
3
*D9
0
LINE
5
1A5
100
AcDbEntity
8
0
62
256
6
ByLayer
370
-2
48
1
60
0
100
AcDbLine
10
30
20
-3.8875
30
0
11
30
21
-39.81599
31
0
39
0
210
0
220
0
230
1
0
LINE
5
1A6
100
AcDbEntity
8
0
62
256
6
ByLayer
370
-2
48
1
60
0
100
AcDbLine
10
0
20
-3.8875
30
0
11
0
21
-39.81599
31
0
39
0
210
0
220
0
230
1
0
LINE
5
1A7
100
AcDbEntity
8
0
62
256
6
ByLayer
370
-2
48
1
60
0
100
AcDbLine
10
26.5
20
-37.81599
30
0
11
3.5
21
-37.81599
31
0
39
0
210
0
220
0
230
1
0
SOLID
5
1A8
100
AcDbEntity
8
0
62
256
6
ByLayer
370
-1
48
1
60
0
100
AcDbTrace
10
26.5
20
-38.399323
30
0
11
26.5
21
-37.232656
31
0
12
30
22
-37.81599
32
0
13
30
23
-37.81599
33
0
39
0
210
0
220
0
230
1
0
SOLID
5
1A9
100
AcDbEntity
8
0
62
256
6
ByLayer
370
-1
48
1
60
0
100
AcDbTrace
10
3.5
20
-37.232656
30
0
11
3.5
21
-38.399323
31
0
12
0
22
-37.81599
32
0
13
0
23
-37.81599
33
0
39
0
210
0
220
0
230
1
0
MTEXT
5
1AA
100
AcDbEntity
8
0
62
256
6
ByLayer
370
18
48
1
60
0
100
AcDbMText
10
15
20
-31.81599
30
0
210
0
220
0
230
1
1
\A1;30
40
3
41
0
44
1
50
0
71
5
72
5
7
iso_b_vert
0
POINT
5
1AB
100
AcDbEntity
8
Defpoints
62
0
6
ByLayer
370
-1
48
1
60
0
100
AcDbPoint
10
30
20
-2.3
30
0
39
0
210
0
220
0
230
1
50
360
0
POINT
5
1AC
100
AcDbEntity
8
Defpoints
62
0
6
ByLayer
370
-1
48
1
60
0
100
AcDbPoint
10
0
20
-2.3
30
0
39
0
210
0
220
0
230
1
50
360
0
POINT
5
1AD
100
AcDbEntity
8
Defpoints
62
0
6
ByLayer
370
-1
48
1
60
0
100
AcDbPoint
10
0
20
-37.81599
30
0
39
0
210
0
220
0
230
1
50
360
0
ENDBLK
5
1A4
100
AcDbEntity
8
0
100
AcDbBlockEnd
0
BLOCK
5
1B5
100
AcDbEntity
8
0
100
AcDbBlockBegin
2
_U4
70
0
10
0
20
0
30
0
3
_U4
0
MTEXT
5
1AF
100
AcDbEntity
8
2
62
256
6
ByLayer
370
18
48
1
60
0
100
AcDbMText
10
13.367172
20
-36.930875
30
0
210
0
220
0
230
1
1
\W0.6740;30
40
3
41
0
44
1.084337
50
0
71
7
72
5
7
iso_b_vert
0
LINE
5
1B0
100
AcDbEntity
8
2
62
256
6
ByLayer
370
13
48
1
60
0
100
AcDbLine
10
30
20
-3.8875
30
0
11
30
21
-39.81599
31
0
39
0
210
0
220
0
230
1
0
LINE
5
1B1
100
AcDbEntity
8
2
62
256
6
ByLayer
370
13
48
1
60
0
100
AcDbLine
10
0
20
-3.8875
30
0
11
0
21
-39.81599
31
0
39
0
210
0
220
0
230
1
0
LINE
5
1B2
100
AcDbEntity
8
2
62
256
6
ByLayer
370
13
48
1
60
0
100
AcDbLine
10
30
20
-37.81599
30
0
11
0
21
-37.81599
31
0
39
0
210
0
220
0
230
1
0
SOLID
5
1B3
100
AcDbEntity
8
2
62
256
6
ByLayer
370
18
48
1
60
0
100
AcDbTrace
10
30
20
-37.81599
30
0
11
26.500002
21
-38.276773
31
0
12
26.499998
22
-37.355206
32
0
13
26.499998
23
-37.355206
33
0
39
0
210
0
220
0
230
1
0
SOLID
5
1B4
100
AcDbEntity
8
2
62
256
6
ByLayer
370
18
48
1
60
0
100
AcDbTrace
10
0
20
-37.81599
30
0
11
3.499998
21
-37.355206
31
0
12
3.500002
22
-38.276773
32
0
13
3.500002
23
-38.276773
33
0
39
0
210
0
220
0
230
1
0
ENDBLK
5
1B6
100
AcDbEntity
8
0
100
AcDbBlockEnd
0
ENDSEC
0
SECTION
2
ENTITIES
0
ARC
5
BB
100
AcDbEntity
8
1
62
256
6
ByLayer
370
18
48
1
60
0
100
AcDbCircle
39
0
10
1.35558
20
-3.049943
30
0
40
0.799999999999993
210
0
220
0
230
1
100
AcDbArc
50
89.896868
51
147.912469
0
ARC
5
BC
100
AcDbEntity
8
1
62
256
6
ByLayer
370
18
48
1
60
0
100
AcDbCircle
39
0
10
1.35558
20
3.049943
30
0
40
0.799999999999993
210
0
220
0
230
1
100
AcDbArc
50
212.087531
51
270.103132
0
ARC
5
BD
100
AcDbEntity
8
1
62
256
6
ByLayer
370
18
48
1
60
0
100
AcDbCircle
39
0
10
0
20
-2.2
30
0
40
0.799999999999999
210
0
220
0
230
1
100
AcDbArc
50
270
51
327.912469
0
ARC
5
BE
100
AcDbEntity
8
1
62
256
6
ByLayer
370
18
48
1
60
0
100
AcDbCircle
39
0
10
0
20
2.2
30
0
40
0.799999999999999
210
0
220
0
230
1
100
AcDbArc
50
32.087531
51
90
0
ARC
5
BF
100
AcDbEntity
8
SK2
62
256
6
ByLayer
370
13
48
1
60
0
100
AcDbCircle
39
0
10
30
20
0
30
0
40
17.104172837522
210
0
220
0
230
1
100
AcDbArc
50
10.101692
51
70.002894
0
ARC
5
C0
100
AcDbEntity
8
SK2
62
256
6
ByLayer
370
13
48
1
60
0
100
AcDbCircle
39
0
10
30
20
0
30
0
40
17.104172837522
210
0
220
0
230
1
100
AcDbArc
50
289.997106
51
349.898308
0
ELLIPSE
5
C1
100
AcDbEntity
8
1
62
256
6
ByLayer
370
13
48
1
60
0
100
AcDbEllipse
10
15.453129
20
-1.536028
30
0
11
2.50391882943266E-05
21
0.00999996865190335
31
0
210
0
220
0
230
1
40
0.651304
41
0.927417351331355
42
2.22186422888925
0
ELLIPSE
5
C2
100
AcDbEntity
8
1
62
256
6
ByLayer
370
13
48
1
60
0
100
AcDbEllipse
10
15.500872
20
1.089682
30
0
11
3.9812703096846E-05
21
0.00999992074711956
31
0
210
0
220
0
230
1
40
0.014908
41
-2.09618661683436
42
-0.523456893624716
0
ELLIPSE
5
C3
100
AcDbEntity
8
1
62
256
6
ByLayer
370
13
48
1
60
0
100
AcDbEllipse
10
15.500252
20
-1.546878
30
0
11
-0.00392476567166279
21
-0.00919762004121378
31
0
210
0
220
0
230
1
40
0.36635
41
-2.2879726787078
42
-0.718786327286774
0
ELLIPSE
5
C4
100
AcDbEntity
8
1
62
256
6
ByLayer
370
18
48
1
60
0
100
AcDbEllipse
10
15.546998
20
1.078389
30
0
11
-0.00467150560252263
21
-0.00884177784190486
31
0
210
0
220
0
230
1
40
0.267061
41
1.12175589870179
42
2.68380541486169
0
POINT
5
70
100
AcDbEntity
8
80
62
256
6
ByLayer
370
18
48
1
60
0
100
AcDbPoint
10
0
20
0
30
0
39
0
210
0
220
0
230
1
50
360
0
POINT
5
72
100
AcDbEntity
8
81
62
256
6
ByLayer
370
18
48
1
60
0
100
AcDbPoint
10
30
20
0
30
0
39
0
210
0
220
0
230
1
50
360
0
POINT
5
74
100
AcDbEntity
8
1
62
256
6
ByLayer
370
18
48
1
60
0
100
AcDbPoint
10
-222.622914
20
-200
30
0
39
0
210
0
220
0
230
1
50
360
0
POINT
5
76
100
AcDbEntity
8
1
62
256
6
ByLayer
370
13
48
1
60
1
100
AcDbPoint
10
-37.5
20
0
30
0
39
0
210
0
220
0
230
1
50
360
0
POINT
5
77
100
AcDbEntity
8
1
62
256
6
ByLayer
370
13
48
1
60
1
100
AcDbPoint
10
30.654515
20
0
30
0
39
0
210
0
220
0
230
1
50
360
0
POINT
5
78
100
AcDbEntity
8
1
62
256
6
ByLayer
370
18
48
1
60
1
100
AcDbPoint
10
30
20
-2.3
30
0
39
0
210
0
220
0
230
1
50
360
0
POINT
5
79
100
AcDbEntity
8
1
62
256
6
ByLayer
370
18
48
1
60
1
100
AcDbPoint
10
15.4
20
-2.3
30
0
39
0
210
0
220
0
230
1
50
360
0
POINT
5
7A
100
AcDbEntity
8
1
62
256
6
ByLayer
370
18
48
1
60
1
100
AcDbPoint
10
30
20
-2.3
30
0
39
0
210
0
220
0
230
1
50
360
0
POINT
5
7B
100
AcDbEntity
8
1
62
256
6
ByLayer
370
18
48
1
60
1
100
AcDbPoint
10
6
20
-2.3
30
0
39
0
210
0
220
0
230
1
50
360
0
POINT
5
7C
100
AcDbEntity
8
1
62
256
6
ByLayer
370
18
48
1
60
1
100
AcDbPoint
10
-36
20
-3
30
0
39
0
210
0
220
0
230
1
50
360
0
POINT
5
7D
100
AcDbEntity
8
1
62
256
6
ByLayer
370
18
48
1
60
1
100
AcDbPoint
10
0
20
-3
30
0
39
0
210
0
220
0
230
1
50
360
0
POINT
5
7E
100
AcDbEntity
8
1
62
256
6
ByLayer
370
18
48
1
60
1
100
AcDbPoint
10
-36
20
-3
30
0
39
0
210
0
220
0
230
1
50
360
0
POINT
5
7F
100
AcDbEntity
8
1
62
256
6
ByLayer
370
18
48
1
60
1
100
AcDbPoint
10
30
20
-2.3
30
0
39
0
210
0
220
0
230
1
50
360
0
POINT
5
80
100
AcDbEntity
8
1
62
256
6
ByLayer
370
18
48
1
60
1
100
AcDbPoint
10
30
20
-2.3
30
0
39
0
210
0
220
0
230
1
50
360
0
POINT
5
81
100
AcDbEntity
8
1
62
256
6
ByLayer
370
18
48
1
60
1
100
AcDbPoint
10
0
20
-2.3
30
0
39
0
210
0
220
0
230
1
50
360
0
SPLINE
5
C5
100
AcDbEntity
8
1
62
256
6
ByLayer
370
18
48
1
60
0
100
AcDbSpline
70
4
71
3
72
8
73
4
40
0
40
0
40
0
40
0
40
1
40
1
40
1
40
1
41
1
10
15.3998914713505
20
1.06280079716393
30
0
41
1
10
15.3998914713505
20
1.06049921176856
30
0
41
1
10
15.3998914713505
20
1.05819748961207
30
0
41
1
10
15.3998914713505
20
1.05589563000535
30
0
0
SPLINE
5
C6
100
AcDbEntity
8
1
62
256
6
ByLayer
370
18
48
1
60
0
100
AcDbSpline
70
4
71
3
72
28
73
24
40
0
40
0
40
0
40
0
40
0.125
40
0.125
40
0.25
40
0.25
40
0.375
40
0.375
40
0.5
40
0.5
40
0.53125
40
0.53125
40
0.5625
40
0.5625
40
0.625
40
0.625
40
0.75
40
0.75
40
0.8125
40
0.8125
40
0.875
40
0.875
40
1
40
1
40
1
40
1
41
1
10
15.3998914713505
20
-1.53478375847959
30
0
41
1
10
15.3998914713505
20
-1.44889070915502
30
0
41
1
10
15.3998914713505
20
-1.35788844921137
30
0
41
1
10
15.3998914713505
20
-1.1660235034463
30
0
41
1
10
15.3998914713505
20
-1.06512100251015
30
0
41
1
10
15.3998914713505
20
-0.853255616071152
30
0
41
1
10
15.3998914713505
20
-0.744873171716506
30
0
41
1
10
15.3998914713505
20
-0.523410977022081
30
0
41
1
10
15.3998914713506
20
-0.410330858683807
30
0
41
1
10
15.3998914713506
20
-0.265957821933114
30
0
41
1
10
15.3998914713506
20
-0.236872038434456
30
0
41
1
10
15.3998914713506
20
-0.178701329406351
30
0
41
1
10
15.3998914713505
20
-0.149648890179748
30
0
41
1
10
15.3998914713505
20
-0.0625888253469498
30
0
41
1
10
15.3998914713506
20
-0.0046783085602158
30
0
41
1
10
15.3998914713506
20
0.168671148298529
30
0
41
1
10
15.3998914713505
20
0.283730252566187
30
0
41
1
10
15.3998914713505
20
0.455543039430495
30
0
41
1
10
15.3998914713505
20
0.512859578519652
30
0
41
1
10
15.3998914713505
20
0.625634392978355
30
0
41
1
10
15.3998914713505
20
0.681244148958797
30
0
41
1
10
15.3998914713505
20
0.845771888572727
30
0
41
1
10
15.3998914713505
20
0.952402262478529
30
0
41
1
10
15.3998914713505
20
1.05589563000535
30
0
0
SPLINE
5
C7
100
AcDbEntity
8
1
62
256
6
ByLayer
370
18
48
1
60
0
100
AcDbSpline
70
4
71
3
72
8
73
4
40
0
40
0
40
0
40
0
40
1
40
1
40
1
40
1
41
1
10
29.7563300329219
20
0.788244362378606
30
0
41
1
10
29.819514121756
20
0.612197043588935
30
0
41
1
10
29.8821558779493
20
0.435958714581432
30
0
41
1
10
29.9442439285501
20
0.259525369788662
30
0
0
SPLINE
5
C8
100
AcDbEntity
8
1
62
256
6
ByLayer
370
18
48
1
60
0
100
AcDbSpline
70
4
71
3
72
8
73
4
40
0
40
0
40
0
40
0
40
1
40
1
40
1
40
1
41
1
10
29.9442439285501
20
0.259525369788662
30
0
41
1
10
29.9620899182162
20
0.208813073018774
30
0
41
1
10
29.9803020453583
20
0.158309198696315
30
0
41
1
10
29.9988865610918
20
0.108009148609
30
0
0
SPLINE
5
C9
100
AcDbEntity
8
1
62
256
6
ByLayer
370
18
48
1
60
0
100
AcDbSpline
70
4
71
3
72
10
73
6
40
0
40
0
40
0
40
0
40
0.412542379894923
40
0.412542379894923
40
1
40
1
40
1
40
1
41
1
10
29.4653381653192
20
-0.32908492593009
30
0
41
1
10
29.4964050688058
20
-0.346523812503847
30
0
41
1
10
29.527937386488
20
-0.364175385562049
30
0
41
1
10
29.605130210401
20
-0.407279609705029
30
0
41
1
10
29.6509908980169
20
-0.432798434630001
30
0
41
1
10
29.697224848587
20
-0.458498657569606
30
0
0
SPLINE
5
CA
100
AcDbEntity
8
1
62
256
6
ByLayer
370
18
48
1
60
0
100
AcDbSpline
70
4
71
3
72
16
73
12
40
0
40
0
40
0
40
0
40
0.49999999999999
40
0.749999999999988
40
0.875000000000055
40
0.937500000000024
40
0.937500000000024
40
0.968750000000012
40
0.984375000000006
40
0.984375000000006
40
1
40
1
40
1
40
1
41
1
10
29.1182679696986
20
2.29989063565526
30
0
41
1
10
29.1288252357141
20
2.28279794157959
30
0
41
1
10
29.1446739139411
20
2.25702390718391
30
0
41
1
10
29.1631855171847
20
2.22672290521521
30
0
41
1
10
29.1724464513182
20
2.21151535279793
30
0
41
1
10
29.1764165204758
20
2.2049856460863
30
0
41
1
10
29.178401751761
20
2.20171873618119
30
0
41
1
10
29.1793945581535
20
2.20008447396995
30
0
41
1
10
29.1803916201384
20
2.19844077425276
30
0
41
1
10
29.1810576438451
20
2.19734210604671
30
0
41
1
10
29.181411091739
20
2.19675254416791
30
0
41
1
10
29.1817107562718
20
2.19626901967914
30
0
0
SPLINE
5
CB
100
AcDbEntity
8
1
62
256
6
ByLayer
370
18
48
1
60
0
100
AcDbSpline
70
4
71
3
72
18
73
14
40
0
40
0
40
0
40
0
40
0.249999999999977
40
0.249999999999977
40
0.374999999999966
40
0.374999999999966
40
0.499999999999954
40
0.499999999999954
40
0.749999999999992
40
0.749999999999992
40
0.874999999999996
40
0.874999999999996
40
1
40
1
40
1
40
1
41
1
10
15.4479327528428
20
-1.54207564427577
30
0
41
1
10
15.4396003598168
20
-1.54169836986742
30
0
41
1
10
15.4325722448703
20
-1.54124921492834
30
0
41
1
10
15.4235044916583
20
-1.5404756447214
30
0
41
1
10
15.4207207812177
20
-1.54019896647012
30
0
41
1
10
15.4157440836011
20
-1.53962415771042
30
0
41
1
10
15.4135371360308
20
-1.53932530201425
30
0
41
1
10
15.4076758242059
20
-1.53839451442101
30
0
41
1
10
15.404765839222
20
-1.53772681546513
30
0
41
1
10
15.4018339409318
20
-1.53665804929045
30
0
41
1
10
15.4011063663379
20
-1.53629394856384
30
0
41
1
10
15.4001347356538
20
-1.53554991335273
30
0
41
1
10
15.3998914713505
20
-1.53516605686107
30
0
41
1
10
15.3998914713505
20
-1.53478375847956
30
0
0
SPLINE
5
CC
100
AcDbEntity
8
1
62
256
6
ByLayer
370
18
48
1
60
0
100
AcDbSpline
70
4
71
3
72
24
73
20
40
0
40
0
40
0
40
0
40
0.125000000000016
40
0.125000000000016
40
0.187500000000024
40
0.187500000000024
40
0.250000000000032
40
0.250000000000032
40
0.31250000000004
40
0.31250000000004
40
0.375000000000048
40
0.375000000000048
40
0.500000000000063
40
0.500000000000063
40
0.750000000000032
40
0.750000000000032
40
0.875000000000016
40
0.875000000000016
40
1
40
1
40
1
40
1
41
1
10
15.5009814783292
20
1.09834212097258
30
0
41
1
10
15.4931630183828
20
1.0983775154742
30
0
41
1
10
15.4855443716645
20
1.09803671001671
30
0
41
1
10
15.474393126973
20
1.09700204775851
30
0
41
1
10
15.4707329816292
20
1.09656815851088
30
0
41
1
10
15.4637222801914
20
1.09555941855262
30
0
41
1
10
15.4603415327731
20
1.09498202794563
30
0
41
1
10
15.4538101088635
20
1.09369124331059
30
0
41
1
10
15.4506444493549
20
1.09297319653857
30
0
41
1
10
15.444666347338
20
1.09144212877007
30
0
41
1
10
15.4418386405149
20
1.09062700182054
30
0
41
1
10
15.4337877764472
20
1.08804686951157
30
0
41
1
10
15.4289616563366
20
1.08613284411575
30
0
41
1
10
15.4162246910196
20
1.0800100781976
30
0
41
1
10
15.4101466142896
20
1.07553255318419
30
0
41
1
10
15.403956334219
20
1.06832807536546
30
0
41
1
10
15.4024363610756
20
1.06589002656349
30
0
41
1
10
15.4004032749386
20
1.06094333734131
30
0
41
1
10
15.3998914713505
20
1.05841479723273
30
0
41
1
10
15.3998914713505
20
1.05589563000535
30
0
0
SPLINE
5
CD
100
AcDbEntity
8
1
62
256
6
ByLayer
370
13
48
1
60
0
100
AcDbSpline
70
4
71
3
72
12
73
8
40
0
40
0
40
0
40
0
40
0.499999999999999
40
0.499999999999999
40
0.749999999999999
40
0.749999999999999
40
1
40
1
40
1
40
1
41
1
10
15.5522324932735
20
1.08576887786802
30
0
41
1
10
15.5445084745948
20
1.08985266652346
30
0
41
1
10
15.5363267632871
20
1.09293884515213
30
0
41
1
10
15.5233863627026
20
1.09612237894442
30
0
41
1
10
15.5189379392903
20
1.09693963721003
30
0
41
1
10
15.5100110043423
20
1.09803563601307
30
0
41
1
10
15.5055134970828
20
1.09832160433038
30
0
41
1
10
15.5009814783292
20
1.09834212097258
30
0
0
SPLINE
5
CE
100
AcDbEntity
8
1
62
256
6
ByLayer
370
18
48
1
60
0
100
AcDbSpline
70
4
71
3
72
10
73
6
40
0
40
0
40
0
40
0
40
0.0760018401987508
40
0.0760018401987508
40
1
40
1
40
1
40
1
41
1
10
18.2850344182833
20
-2.17557741175517
30
0
41
1
10
18.2823092589248
20
-2.17558269275457
30
0
41
1
10
18.2795844880896
20
-2.17558607006089
30
0
41
1
10
18.2437385756197
20
-2.17560543236746
30
0
41
1
10
18.2106594295654
20
-2.17533948768244
30
0
41
1
10
18.1776168178264
20
-2.17479251314478
30
0
0
SPLINE
5
CF
100
AcDbEntity
8
1
62
256
6
ByLayer
370
18
48
1
60
0
100
AcDbSpline
70
4
71
3
72
18
73
14
40
0
40
0
40
0
40
0
40
0.145755408130641
40
0.145755408130641
40
0.359316556097985
40
0.359316556097985
40
0.572877704065328
40
0.572877704065328
40
0.679658278048996
40
0.679658278048996
40
0.786438852032664
40
0.786438852032664
40
1
40
1
40
1
40
1
41
1
10
17.5002058815963
20
-2.1247788435735
30
0
41
1
10
17.4033674913571
20
-2.11214747303455
30
0
41
1
10
17.3065892528023
20
-2.09719907686102
30
0
41
1
10
17.0679431191547
20
-2.05473367218869
30
0
41
1
10
16.9260425353293
20
-2.02454797620643
30
0
41
1
10
16.6419418803628
20
-1.95455463297606
30
0
41
1
10
16.4997017374698
20
-1.91493056911094
30
0
41
1
10
16.2854525167313
20
-1.84862696641989
30
0
41
1
10
16.2138848031701
20
-1.82537134709196
30
0
41
1
10
16.0703650928722
20
-1.77656455929946
30
0
41
1
10
15.998373957589
20
-1.75099865150332
30
0
41
1
10
15.7826852633536
20
-1.67127674292024
30
0
41
1
10
15.6389731882959
20
-1.61400354157834
30
0
41
1
10
15.4950796419777
20
-1.55285350829487
30
0
0
SPLINE
5
D0
100
AcDbEntity
8
1
62
256
6
ByLayer
370
13
48
1
60
0
100
AcDbSpline
70
4
71
3
72
10
73
6
40
0
40
0
40
0
40
0
40
0.5
40
0.5
40
1
40
1
40
1
40
1
41
1
10
15.4950796419777
20
-1.55285350829487
30
0
41
1
10
15.4868626446515
20
-1.54936155418761
30
0
41
1
10
15.478799975744
20
-1.54671460874744
30
0
41
1
10
15.462999835283
20
-1.54307059064135
30
0
41
1
10
15.4552183800728
20
-1.54208468913958
30
0
41
1
10
15.4479327528428
20
-1.54207564427577
30
0
0
SPLINE
5
D1
100
AcDbEntity
8
1
62
256
6
ByLayer
370
13
48
1
60
0
100
AcDbSpline
70
4
71
3
72
8
73
4
40
0
40
0
40
0
40
0
40
1
40
1
40
1
40
1
41
1
10
15.4463271303917
20
-1.60605059374598
30
0
41
1
10
15.4468530076216
20
-1.58473128449438
30
0
41
1
10
15.4473881662798
20
-1.56340645355954
30
0
41
1
10
15.4479327528428
20
-1.54207564427574
30
0
0
SPLINE
5
D2
100
AcDbEntity
8
1
62
256
6
ByLayer
370
18
48
1
60
0
100
AcDbSpline
70
4
71
3
72
21
73
17
40
0
40
0
40
0
40
0
40
0.250000000000018
40
0.250000000000018
40
0.500000000000036
40
0.500000000000036
40
0.56250000000004
40
0.56250000000004
40
0.625000000000045
40
0.625000000000045
40
0.75000000000003
40
0.875000000000015
40
0.875000000000015
40
0.937500000000008
40
0.937500000000008
40
1
40
1
40
1
40
1
41
1
10
29.998886561084
20
0.108009148611643
30
0
41
1
10
29.9788172153203
20
0.049553018600875
30
0
41
1
10
29.9565829940063
20
-0.0079282948064758
30
0
41
1
10
29.9079317849989
20
-0.120618618164656
30
0
41
1
10
29.8825180501394
20
-0.17352967718989
30
0
41
1
10
29.8496129100803
20
-0.235343320306384
30
0
41
1
10
29.8429736787471
20
-0.247486684042684
30
0
41
1
10
29.8295789250492
20
-0.2713203586801
30
0
41
1
10
29.822796542554
20
-0.283055334548152
30
0
41
1
10
29.8024822925604
20
-0.317197450801274
30
0
41
1
10
29.7756065885461
20
-0.359716213229262
30
0
41
1
10
29.7491637965785
20
-0.396330288887441
30
0
41
1
10
29.7294902638914
20
-0.421499091773143
30
0
41
1
10
29.7229587561855
20
-0.429505518577031
30
0
41
1
10
29.7099465610419
20
-0.444722777236137
30
0
41
1
10
29.70352969784
20
-0.451857842071519
30
0
41
1
10
29.697224848587
20
-0.458498657569635
30
0
0
SPLINE
5
D3
100
AcDbEntity
8
1
62
256
6
ByLayer
370
18
48
1
60
0
100
AcDbSpline
70
4
71
3
72
66
73
62
40
0
40
0
40
0
40
0
40
0.031249999999995
40
0.031249999999995
40
0.0468749999999925
40
0.0468749999999925
40
0.06249999999999
40
0.06249999999999
40
0.124999999999987
40
0.124999999999987
40
0.187499999999985
40
0.187499999999985
40
0.203124999999984
40
0.203124999999984
40
0.218749999999984
40
0.249999999999983
40
0.249999999999983
40
0.281249999999982
40
0.281249999999982
40
0.312499999999981
40
0.312499999999981
40
0.34374999999998
40
0.34374999999998
40
0.374999999999978
40
0.406249999999977
40
0.406249999999977
40
0.437499999999976
40
0.437499999999976
40
0.499999999999974
40
0.499999999999974
40
0.531249999999977
40
0.531249999999977
40
0.562499999999979
40
0.562499999999979
40
0.624999999999985
40
0.624999999999985
40
0.640624999999986
40
0.640624999999986
40
0.656249999999988
40
0.687499999999988
40
0.718749999999989
40
0.718749999999989
40
0.734374999999989
40
0.734374999999989
40
0.749999999999989
40
0.781249999999989
40
0.781249999999989
40
0.796874999999989
40
0.796874999999989
40
0.812499999999989
40
0.812499999999989
40
0.874999999999994
40
0.874999999999994
40
0.906249999999993
40
0.906249999999993
40
0.937499999999992
40
0.937499999999992
40
0.953124999999992
40
0.953124999999992
40
0.968749999999991
40
1
40
1
40
1
40
1
41
1
10
29.6972248485869
20
-0.458498657569663
30
0
41
1
10
29.695083923719
20
-0.472075268360072
30
0
41
1
10
29.6924657239394
20
-0.485950180885226
30
0
41
1
10
29.6878467750606
20
-0.507207898546483
30
0
41
1
10
29.6861914920489
20
-0.514368281769663
30
0
41
1
10
29.682649411309
20
-0.528840752537576
30
0
41
1
10
29.6807545937912
20
-0.536181989084383
30
0
41
1
10
29.6707929787326
20
-0.57291797253302
30
0
41
1
10
29.6614211426221
20
-0.601972866220109
30
0
41
1
10
29.6402579852655
20
-0.659522619075005
30
0
41
1
10
29.6289014738638
20
-0.686828884127266
30
0
41
1
10
29.61400210536
20
-0.719197312331659
30
0
41
1
10
29.6109760009262
20
-0.725602169621141
30
0
41
1
10
29.6049197581036
20
-0.738098666060722
30
0
41
1
10
29.595814762867
20
-0.756407254281527
30
0
41
1
10
29.5866575476514
20
-0.77346881154125
30
0
41
1
10
29.5744114069479
20
-0.795160424626943
30
0
41
1
10
29.5682431368851
20
-0.805519410244017
30
0
41
1
10
29.5560080541346
20
-0.824966403224892
30
0
41
1
10
29.5499637111893
20
-0.83402437037347
30
0
41
1
10
29.5380147974309
20
-0.850858492413607
30
0
41
1
10
29.532079436038
20
-0.858670000957488
30
0
41
1
10
29.5205326810372
20
-0.872778153912037
30
0
41
1
10
29.5092910067709
20
-0.885410697532535
30
0
41
1
10
29.4986184549013
20
-0.895200593993593
30
0
41
1
10
29.4882190679014
20
-0.903562818978685
30
0
41
1
10
29.4831416273608
20
-0.90703800000145
30
0
41
1
10
29.4684074055661
20
-0.915171790131666
30
0
41
1
10
29.4594691493641
20
-0.917459867060188
30
0
41
1
10
29.4472752402837
20
-0.916201109114212
30
0
41
1
10
29.4434148236866
20
-0.9149922134809
30
0
41
1
10
29.4361082683053
20
-0.910896709556425
30
0
41
1
10
29.4327124287996
20
-0.908031877598773
30
0
41
1
10
29.4233627553235
20
-0.897079443642241
30
0
41
1
10
29.4181879078709
20
-0.886649101182712
30
0
41
1
10
29.4131017047562
20
-0.869285902226295
30
0
41
1
10
29.4121532304325
20
-0.865583285453852
30
0
41
1
10
29.4104276348074
20
-0.857838443921679
30
0
41
1
10
29.4080854025732
20
-0.845678113970422
30
0
41
1
10
29.4053943629676
20
-0.82271566549781
30
0
41
1
10
29.4045661746087
20
-0.801382089895753
30
0
41
1
10
29.4044855009014
20
-0.784176103104755
30
0
41
1
10
29.4045501597714
20
-0.77824816033359
30
0
41
1
10
29.4048622245667
20
-0.766189805393481
30
0
41
1
10
29.4056043408428
20
-0.747724944718613
30
0
41
1
10
29.4071659915651
20
-0.72813907828143
30
0
41
1
10
29.409303492946
20
-0.707782616400493
30
0
41
1
10
29.4101123312552
20
-0.700868279547961
30
0
41
1
10
29.4119325809374
20
-0.686772359454409
30
0
41
1
10
29.4129479810704
20
-0.679569146115455
30
0
41
1
10
29.4184573632314
20
-0.643515829066416
30
0
41
1
10
29.4242717338963
20
-0.614116724049921
30
0
41
1
10
29.4352920687966
20
-0.569204108686847
30
0
41
1
10
29.4392842461416
20
-0.55439032471395
30
0
41
1
10
29.4478204779495
20
-0.525348573290728
30
0
41
1
10
29.4523763293282
20
-0.511072895195412
30
0
41
1
10
29.4596530714141
20
-0.490027069791665
30
0
41
1
10
29.4621620830518
20
-0.483049184967541
30
0
41
1
10
29.4672640033917
20
-0.469397916096909
30
0
41
1
10
29.4750543779695
20
-0.449338965438443
30
0
41
1
10
29.4832482355878
20
-0.430479144178463
30
0
41
1
10
29.4888883072757
20
-0.418416018196325
30
0
0
SPLINE
5
D4
100
AcDbEntity
8
1
62
256
6
ByLayer
370
18
48
1
60
0
100
AcDbSpline
70
4
71
3
72
8
73
4
40
0
40
0
40
0
40
0
40
1
40
1
40
1
40
1
41
1
10
29.4888883072757
20
-0.418416018196297
30
0
41
1
10
29.4808329866146
20
-0.392910186465372
30
0
41
1
10
29.4741381467744
20
-0.363649640579837
30
0
41
1
10
29.468623540102
20
-0.33087130301638
30
0
0
SPLINE
5
D5
100
AcDbEntity
8
1
62
256
6
ByLayer
370
18
48
1
60
0
100
AcDbSpline
70
4
71
3
72
8
73
4
40
0
40
0
40
0
40
0
40
1
40
1
40
1
40
1
41
1
10
29.468623540102
20
-0.330871303016408
30
0
41
1
10
29.4368643061296
20
-0.142097206558475
30
0
41
1
10
29.3955148868551
20
0.0512471449403051
30
0
41
1
10
29.3446530220988
20
0.249124704145117
30
0
0
SPLINE
5
D6
100
AcDbEntity
8
1
62
256
6
ByLayer
370
18
48
1
60
0
100
AcDbSpline
70
4
71
3
72
13
73
9
40
0
40
0
40
0
40
0
40
0.499999999999985
40
0.499999999999985
40
0.624999999999989
40
0.624999999999989
40
0.749999999999993
40
1
40
1
40
1
40
1
41
1
10
29.2586443410838
20
-2.06306390653779
30
0
41
1
10
29.2411763296053
20
-2.08946234496153
30
0
41
1
10
29.224948334476
20
-2.11219174869657
30
0
41
1
10
29.2062663245269
20
-2.1352739265526
30
0
41
1
10
29.2026182778983
20
-2.13961137222753
30
0
41
1
10
29.1955685000119
20
-2.14763916863751
30
0
41
1
10
29.1853301327538
20
-2.15875155110533
30
0
41
1
10
29.1760599541562
20
-2.16711524598128
30
0
41
1
10
29.1702764737847
20
-2.1714948365838
30
0
0
SPLINE
5
D7
100
AcDbEntity
8
1
62
256
6
ByLayer
370
18
48
1
60
0
100
AcDbSpline
70
4
71
3
72
8
73
4
40
0
40
0
40
0
40
0
40
1
40
1
40
1
40
1
41
1
10
29.7563300329219
20
-0.788244362378606
30
0
41
1
10
29.819514121756
20
-0.612197043588935
30
0
41
1
10
29.8821558779493
20
-0.435958714581403
30
0
41
1
10
29.94424392855
20
-0.259525369788662
30
0
0
SPLINE
5
D8
100
AcDbEntity
8
1
62
256
6
ByLayer
370
18
48
1
60
0
100
AcDbSpline
70
4
71
3
72
8
73
4
40
0
40
0
40
0
40
0
40
1
40
1
40
1
40
1
41
1
10
29.9442439285501
20
-0.259525369788662
30
0
41
1
10
29.9620899182147
20
-0.208813073023123
30
0
41
1
10
29.9803020453552
20
-0.158309198705013
30
0
41
1
10
29.998886561087
20
-0.108009148622045
30
0
0
SPLINE
5
D9
100
AcDbEntity
8
1
62
256
6
ByLayer
370
18
48
1
60
0
100
AcDbSpline
70
4
71
3
72
8
73
4
40
0
40
0
40
0
40
0
40
1
40
1
40
1
40
1
41
1
10
29.9988865610874
20
0.108009148613945
30
0
41
1
10
30.0003694252806
20
0.0360865234969481
30
0
41
1
10
30.0003728713276
20
-0.0359193815953915
30
0
41
1
10
29.9988865610873
20
-0.108009148621818
30
0
0
SPLINE
5
DA
100
AcDbEntity
8
1
62
256
6
ByLayer
370
18
48
1
60
0
100
AcDbSpline
70
4
71
3
72
28
73
24
40
0
40
0
40
0
40
0
40
0.125000000000004
40
0.125000000000004
40
0.250000000000009
40
0.250000000000009
40
0.500000000000008
40
0.500000000000008
40
0.562500000000007
40
0.562500000000007
40
0.593750000000002
40
0.593750000000002
40
0.624999999999997
40
0.624999999999997
40
0.687499999999997
40
0.687499999999997
40
0.749999999999998
40
0.749999999999998
40
0.874999999999999
40
0.874999999999999
40
0.937499999999999
40
0.937499999999999
40
1
40
1
40
1
40
1
41
1
10
29.2586443410836
20
-2.06306390653847
30
0
41
1
10
29.2773430071524
20
-2.00897487864646
30
0
41
1
10
29.2962142766702
20
-1.95474976025008
30
0
41
1
10
29.3343419842125
20
-1.84608923613487
30
0
41
1
10
29.3536116451188
20
-1.79161793370656
30
0
41
1
10
29.4119141826426
20
-1.62830481819762
30
0
41
1
10
29.4514695437848
20
-1.51949985872736
30
0
41
1
10
29.5016819807588
20
-1.3838783034297
30
0
41
1
10
29.5117622868541
20
-1.35677203095568
30
0
41
1
10
29.526937822082
20
-1.31613830262523
30
0
41
1
10
29.5319976698624
20
-1.30259424775957
30
0
41
1
10
29.5422217204846
20
-1.27555595686582
30
0
41
1
10
29.5473752195546
20
-1.26205333510237
30
0
41
1
10
29.5629612158477
20
-1.22162632414268
30
0
41
1
10
29.5735220614606
20
-1.19478240260673
30
0
41
1
10
29.5949479308389
20
-1.14151862345372
30
0
41
1
10
29.6058033129393
20
-1.11511321060706
30
0
41
1
10
29.6388394656151
20
-1.03659335717666
30
0
41
1
10
29.6614850762978
20
-0.98516543516746
30
0
41
1
10
29.6965500242258
20
-0.909474485504006
30
0
41
1
10
29.708365687727
20
-0.884611335232222
30
0
41
1
10
29.7321838884689
20
-0.83579329881033
30
0
41
1
10
29.7441998487636
20
-0.811809114237292
30
0
41
1
10
29.7563300329223
20
-0.788244362378407
30
0
0
SPLINE
5
DB
100
AcDbEntity
8
1
62
256
6
ByLayer
370
18
48
1
60
0
100
AcDbSpline
70
4
71
3
72
8
73
4
40
0
40
0
40
0
40
0
40
1
40
1
40
1
40
1
41
1
10
29.1817107562713
20
-2.19626901967934
30
0
41
1
10
29.2073307201949
20
-2.15186209008399
30
0
41
1
10
29.2329789800178
20
-2.10745375333815
30
0
41
1
10
29.2586443410833
20
-2.06306390653845
30
0
0
SPLINE
5
DC
100
AcDbEntity
8
1
62
256
6
ByLayer
370
18
48
1
60
0
100
AcDbSpline
70
4
71
3
72
8
73
4
40
0
40
0
40
0
40
0
40
1
40
1
40
1
40
1
41
1
10
15.3998914713505
20
1.78609296284125
30
0
41
1
10
15.3998914713505
20
1.75971674905946
30
0
41
1
10
15.3998914713506
20
1.73347388864181
30
0
41
1
10
15.3998914713506
20
1.70736197350652
30
0
0
SPLINE
5
DD
100
AcDbEntity
8
1
62
256
6
ByLayer
370
18
48
1
60
0
100
AcDbSpline
70
4
71
3
72
22
73
18
40
0
40
0
40
0
40
0
40
0.0042821208901243
40
0.0042821208901243
40
0.2034256967121
40
0.2034256967121
40
0.402569272534074
40
0.402569272534074
40
0.502141060445062
40
0.502141060445062
40
0.60171284835605
40
0.60171284835605
40
0.800856424178025
40
0.800856424178025
40
0.900428212089012
40
0.900428212089012
40
1
40
1
40
1
40
1
41
1
10
28.8747856560114
20
0.529997199691621
30
0
41
1
10
28.8754818927161
20
0.530275678718198
30
0
41
1
10
28.8761783541167
20
0.530554724795678
30
0
41
1
10
28.9092741766371
20
0.543837231993592
30
0
41
1
10
28.9424134389165
20
0.558052927749003
30
0
41
1
10
29.0106311830959
20
0.58792345331608
30
0
41
1
10
29.0456978398559
20
0.603608217079227
30
0
41
1
10
29.100355786427
20
0.627029224676903
30
0
41
1
10
29.1187981513851
20
0.634761159675264
30
0
41
1
10
29.1558878796057
20
0.649723344140369
30
0
41
1
10
29.1745826974304
20
0.656973619355284
30
0
41
1
10
29.2312072592083
20
0.677723763131809
30
0
41
1
10
29.2696728618678
20
0.690236501858038
30
0
41
1
10
29.3287735739205
20
0.705873892795012
30
0
41
1
10
29.3487284553902
20
0.710563557713215
30
0
41
1
10
29.3890536408657
20
0.718762794785164
30
0
41
1
10
29.4092829451268
20
0.722246018226883
30
0
41
1
10
29.4295851936035
20
0.725108398777223
30
0
0
SPLINE
5
DE
100
AcDbEntity
8
1
62
256
6
ByLayer
370
18
48
1
60
0
100
AcDbSpline
70
4
71
3
72
10
73
6
40
0
40
0
40
0
40
0
40
0.5
40
0.5
40
1
40
1
40
1
40
1
41
1
10
29.4295851936035
20
0.725108398777252
30
0
41
1
10
29.4845368044176
20
0.732855935814172
30
0
41
1
10
29.539442246067
20
0.741569602812092
30
0
41
1
10
29.6484817140519
20
0.762130859599068
30
0
41
1
10
29.7026785032915
20
0.773916814816573
30
0
41
1
10
29.7563300329245
20
0.788244362379515
30
0
0
SPLINE
5
DF
100
AcDbEntity
8
1
62
256
6
ByLayer
370
18
48
1
60
0
100
AcDbSpline
70
4
71
3
72
28
73
24
40
0
40
0
40
0
40
0
40
0.124999999999996
40
0.124999999999996
40
0.249999999999992
40
0.249999999999992
40
0.499999999999974
40
0.499999999999974
40
0.562499999999969
40
0.562499999999969
40
0.593749999999967
40
0.593749999999967
40
0.624999999999965
40
0.624999999999965
40
0.687499999999971
40
0.687499999999971
40
0.749999999999977
40
0.749999999999977
40
0.874999999999988
40
0.874999999999988
40
0.937499999999994
40
0.937499999999994
40
1
40
1
40
1
40
1
41
1
10
29.2586443410836
20
2.06306390653845
30
0
41
1
10
29.2773430071524
20
2.0089748786464
30
0
41
1
10
29.2962142766702
20
1.95474976025
30
0
41
1
10
29.3343419842124
20
1.84608923613479
30
0
41
1
10
29.3536116451188
20
1.79161793370648
30
0
41
1
10
29.4119141826426
20
1.62830481819751
30
0
41
1
10
29.4514695437849
20
1.51949985872722
30
0
41
1
10
29.5016819807589
20
1.38387830342953
30
0
41
1
10
29.5117622868542
20
1.35677203095551
30
0
41
1
10
29.5269378220821
20
1.31613830262506
30
0
41
1
10
29.5319976698625
20
1.30259424775937
30
0
41
1
10
29.5422217204846
20
1.27555595686564
30
0
41
1
10
29.5473752195548
20
1.26205333510217
30
0
41
1
10
29.5629612158478
20
1.22162632414248
30
0
41
1
10
29.5735220614606
20
1.19478240260654
30
0
41
1
10
29.5949479308389
20
1.14151862345358
30
0
41
1
10
29.6058033129393
20
1.11511321060692
30
0
41
1
10
29.6388394656152
20
1.03659335717654
30
0
41
1
10
29.6614850762978
20
0.985165435167289
30
0
41
1
10
29.6965500242259
20
0.909474485503779
30
0
41
1
10
29.7083656877271
20
0.884611335232108
30
0
41
1
10
29.732183888469
20
0.835793298810273
30
0
41
1
10
29.7441998487636
20
0.811809114237292
30
0
41
1
10
29.7563300329223
20
0.788244362378407
30
0
0
SPLINE
5
E0
100
AcDbEntity
8
1
62
256
6
ByLayer
370
18
48
1
60
0
100
AcDbSpline
70
4
71
3
72
8
73
4
40
0
40
0
40
0
40
0
40
1
40
1
40
1
40
1
41
1
10
29.1817107562715
20
2.19626901967899
30
0
41
1
10
29.207330720195
20
2.15186209008377
30
0
41
1
10
29.2329789800179
20
2.10745375333801
30
0
41
1
10
29.2586443410833
20
2.06306390653839
30
0
0
SPLINE
5
E1
100
AcDbEntity
8
1
62
256
6
ByLayer
370
18
48
1
60
0
100
AcDbSpline
70
4
71
3
72
24
73
20
40
0
40
0
40
0
40
0
40
0.155195139751485
40
0.155195139751485
40
0.31039027950297
40
0.31039027950297
40
0.465585419254455
40
0.465585419254455
40
0.543182989130197
40
0.543182989130197
40
0.581981774068074
40
0.581981774068074
40
0.62078055900595
40
0.62078055900595
40
0.775975698757468
40
0.775975698757468
40
0.931170838508985
40
0.931170838508985
40
1
40
1
40
1
40
1
41
1
10
29.1817107562726
20
2.19626901968402
30
0
41
1
10
29.039049879569
20
2.198563639913
30
0
41
1
10
28.8966939164675
20
2.19562493734836
30
0
41
1
10
28.6120277488275
20
2.17934689487944
30
0
41
1
10
28.4697549026724
20
2.16617901640271
30
0
41
1
10
28.1847897400326
20
2.12970172737073
30
0
41
1
10
28.0420834432033
20
2.10633292999015
30
0
41
1
10
27.8272472199038
20
2.06339250172081
30
0
41
1
10
27.7555015349342
20
2.04775353700993
30
0
41
1
10
27.647654181795
20
2.02242060679853
30
0
41
1
10
27.6116674022003
20
2.01366430916539
30
0
41
1
10
27.5396098208502
20
1.9955305875034
30
0
41
1
10
27.5035153806087
20
1.98614487699794
30
0
41
1
10
27.3232011462732
20
1.93774333498266
30
0
41
1
10
27.179308848865
20
1.89426045003245
30
0
41
1
10
26.8916061309929
20
1.79838010467529
30
0
41
1
10
26.7477792672946
20
1.74601041334995
30
0
41
1
10
26.5399267059107
20
1.6644274266601
30
0
41
1
10
26.4760273148461
20
1.63853527626642
30
0
41
1
10
26.4120571561898
20
1.61183803986862
30
0
0
SPLINE
5
E2
100
AcDbEntity
8
1
62
256
6
ByLayer
370
18
48
1
60
0
100
AcDbSpline
70
4
71
3
72
16
73
12
40
0
40
0
40
0
40
0
40
0.124999999999988
40
0.124999999999988
40
0.249999999999975
40
0.249999999999975
40
0.499999999999984
40
0.499999999999984
40
0.749999999999992
40
0.749999999999992
40
1
40
1
40
1
40
1
41
1
10
29.3446530220988
20
0.249124704145117
30
0
41
1
10
29.3357126446042
20
0.242802426553709
30
0
41
1
10
29.3267696989064
20
0.236056632027356
30
0
41
1
10
29.3088916302517
20
0.221739834920811
30
0
41
1
10
29.2999439306869
20
0.214156690524106
30
0
41
1
10
29.2732850451811
20
0.190334125083609
30
0
41
1
10
29.255725533561
20
0.172963300961754
30
0
41
1
10
29.2210505355108
20
0.136098237189657
30
0
41
1
10
29.2039340510975
20
0.116590175323239
30
0
41
1
10
29.1702240096438
20
0.0748280476105379
30
0
41
1
10
29.1536295353729
20
0.0526039642824117
30
0
41
1
10
29.1373188077783
20
0.0290687907311451
30
0
0
SPLINE
5
E3
100
AcDbEntity
8
1
62
256
6
ByLayer
370
18
48
1
60
0
100
AcDbSpline
70
4
71
3
72
26
73
22
40
0
40
0
40
0
40
0
40
0.165374599150095
40
0.165374599150095
40
0.248061898725142
40
0.248061898725142
40
0.33074919830019
40
0.33074919830019
40
0.496123797450314
40
0.496123797450314
40
0.578811097025362
40
0.578811097025362
40
0.661498396600409
40
0.661498396600409
40
0.744185696175456
40
0.744185696175456
40
0.826872995750503
40
0.826872995750503
40
0.992247594900598
40
0.992247594900598
40
1
40
1
40
1
40
1
41
1
10
29.3446530220988
20
0.249124704145117
30
0
41
1
10
29.296352534252
20
0.281257888671121
30
0
41
1
10
29.2478207006818
20
0.312698631542702
30
0
41
1
10
29.1747404848551
20
0.359014297507088
30
0
41
1
10
29.1503405279991
20
0.374333473160476
30
0
41
1
10
29.1014614259479
20
0.40473480558552
30
0
41
1
10
29.0769802841632
20
0.419806034720494
30
0
41
1
10
29.0036425234365
20
0.464277203799554
30
0
41
1
10
28.9548202264199
20
0.492925290932163
30
0
41
1
10
28.881704895319
20
0.534200084595312
30
0
41
1
10
28.8573527836605
20
0.54767575225344
30
0
41
1
10
28.8086911645539
20
0.574014853251214
30
0
41
1
10
28.7843827482699
20
0.586862606259842
30
0
41
1
10
28.7358049980087
20
0.61199648868805
30
0
41
1
10
28.7115446780946
20
0.624294352048565
30
0
41
1
10
28.6631720618748
20
0.648506984881521
30
0
41
1
10
28.639047145909
20
0.660401794610948
30
0
41
1
10
28.5670341308302
20
0.694839990895218
30
0
41
1
10
28.5195518490396
20
0.715985265711197
30
0
41
1
10
28.470603340295
20
0.735504692067821
30
0
41
1
10
28.4684131668631
20
0.736372965996424
30
0
41
1
10
28.4662246856829
20
0.737235409821835
30
0
0
SPLINE
5
E4
100
AcDbEntity
8
1
62
256
6
ByLayer
370
18
48
1
60
0
100
AcDbSpline
70
4
71
3
72
16
73
12
40
0
40
0
40
0
40
0
40
0.499999999999939
40
0.749999999999973
40
0.87499999999999
40
0.937500000000064
40
0.937500000000064
40
0.968750000000028
40
0.984375000000014
40
0.984375000000014
40
1
40
1
40
1
40
1
41
1
10
29.1182679696986
20
-2.29989063565526
30
0
41
1
10
29.1288252357142
20
-2.28279794157939
30
0
41
1
10
29.1446739139414
20
-2.25702390718342
30
0
41
1
10
29.1631855171852
20
-2.22672290521436
30
0
41
1
10
29.1724464513188
20
-2.21151535279691
30
0
41
1
10
29.1764165204764
20
-2.20498564608519
30
0
41
1
10
29.1784017517616
20
-2.20171873618006
30
0
41
1
10
29.1793945581543
20
-2.20008447396879
30
0
41
1
10
29.180391620139
20
-2.19844077425154
30
0
41
1
10
29.1810576438458
20
-2.19734210604545
30
0
41
1
10
29.1814110917398
20
-2.19675254416657
30
0
41
1
10
29.1817107562725
20
-2.19626901967808
30
0
0
SPLINE
5
E5
100
AcDbEntity
8
1
62
256
6
ByLayer
370
18
48
1
60
0
100
AcDbSpline
70
4
71
3
72
61
73
57
40
0
40
0
40
0
40
0
40
0.0033932400318693
40
0.0033932400318693
40
0.0508507047922521
40
0.0508507047922521
40
0.145765634313018
40
0.145765634313018
40
0.16949436669321
40
0.16949436669321
40
0.193223099073403
40
0.240680563833788
40
0.240680563833788
40
0.264409296213981
40
0.264409296213981
40
0.276273662404078
40
0.276273662404078
40
0.288138028594175
40
0.288138028594175
40
0.335595493354562
40
0.335595493354562
40
0.383052958114949
40
0.383052958114949
40
0.430510422875336
40
0.430510422875336
40
0.477967887635723
40
0.477967887635723
40
0.52542535239611
40
0.52542535239611
40
0.549154084776303
40
0.549154084776303
40
0.572882817156497
40
0.572882817156497
40
0.620340281916884
40
0.620340281916884
40
0.644069014297078
40
0.644069014297078
40
0.667797746677272
40
0.667797746677272
40
0.715255211437662
40
0.715255211437662
40
0.762712676198052
40
0.762712676198052
40
0.786441408578247
40
0.786441408578247
40
0.810170140958441
40
0.810170140958441
40
0.85762760571883
40
0.85762760571883
40
0.881356338099024
40
0.881356338099024
40
0.90508507047922
40
0.90508507047922
40
0.95254253523961
40
0.95254253523961
40
1
40
1
40
1
40
1
41
1
10
24.4775785052368
20
-0.614070253122094
30
0
41
1
10
24.4673941145671
20
-0.608072322126873
30
0
41
1
10
24.4572105544011
20
-0.60206734672488
30
0
41
1
10
24.3046116774553
20
-0.511974273427171
30
0
41
1
10
24.1623407227504
20
-0.426537434427757
30
0
41
1
10
23.7351068645752
20
-0.16756804457134
30
0
41
1
10
23.4499131396888
20
0.0087784035475522
30
0
41
1
10
23.0897747775109
20
0.228938505738796
30
0
41
1
10
23.0175195235018
20
0.272983868859598
30
0
41
1
10
22.8733377268697
20
0.36053333089319
30
0
41
1
10
22.6573004948455
20
0.491208222107872
30
0
41
1
10
22.4415893761453
20
0.619195390837717
30
0
41
1
10
22.2256269386036
20
0.744684836656489
30
0
41
1
10
22.1535936772588
20
0.78609224316682
30
0
41
1
10
22.0454493681709
20
0.847541407303396
30
0
41
1
10
22.0093861573955
20
0.867914855477835
30
0
41
1
10
21.937224230134
20
0.908432585965386
30
0
41
1
10
21.9011151349071
20
0.928580936571137
30
0
41
1
10
21.720905198568
20
1.02843056110999
30
0
41
1
10
21.5774548587361
20
1.10563766988827
30
0
41
1
10
21.2914183499158
20
1.25383626735351
30
0
41
1
10
21.1488279663766
20
1.3247644323817
30
0
41
1
10
20.8640366332327
20
1.46007798921227
30
0
41
1
10
20.7217936781392
20
1.52442428864407
30
0
41
1
10
20.4370269912212
20
1.64547964863908
30
0
41
1
10
20.2944886874759
20
1.70211899047575
30
0
41
1
10
20.0086217393293
20
1.80751296261715
30
0
41
1
10
19.865315583487
20
1.85633010468203
30
0
41
1
10
19.6492725150548
20
1.92283596256149
30
0
41
1
10
19.5770411384055
20
1.94390429728241
30
0
41
1
10
19.4328935855388
20
1.98352985340884
30
0
41
1
10
19.3608850187052
20
2.00210603701888
30
0
41
1
10
19.1449760519963
20
2.05419424521188
30
0
41
1
10
19.001229070764
20
2.08412706967729
30
0
41
1
10
18.7853889529407
20
2.12127679629541
30
0
41
1
10
18.713406201605
20
2.13237502292321
30
0
41
1
10
18.5692906324301
20
2.15196006133513
30
0
41
1
10
18.4970943791168
20
2.16044897778647
30
0
41
1
10
18.2807000027575
20
2.18193360441023
30
0
41
1
10
18.1367811192274
20
2.1911052440899
30
0
41
1
10
17.8490420329118
20
2.19890271989522
30
0
41
1
10
17.7052104417426
20
2.19750465505251
30
0
41
1
10
17.4890797561492
20
2.18731615281956
30
0
41
1
10
17.4169646016764
20
2.18256849836564
30
0
41
1
10
17.2725956789257
20
2.17042976353113
30
0
41
1
10
17.2005104301431
20
2.16305432650412
30
0
41
1
10
16.9844039132898
20
2.13700298912917
30
0
41
1
10
16.8405309936577
20
2.11438878821596
30
0
41
1
10
16.6245581368798
20
2.0727450045942
30
0
41
1
10
16.5525369504221
20
2.05756737434203
30
0
41
1
10
16.4083796927774
20
2.02475136748828
30
0
41
1
10
16.3361966360185
20
2.00711727209247
30
0
41
1
10
16.1197982918538
20
1.95070806627709
30
0
41
1
10
15.9758444883437
20
1.90839133032216
30
0
41
1
10
15.6879742241945
20
1.81459607645135
30
0
41
1
10
15.5440390718132
20
1.76308968398223
30
0
41
1
10
15.3998914713501
20
1.70736197350644
30
0
0
SPLINE
5
E6
100
AcDbEntity
8
1
62
256
6
ByLayer
370
13
48
1
60
0
100
AcDbSpline
70
4
71
3
72
18
73
14
40
0
40
0
40
0
40
0
40
0.250000000000072
40
0.250000000000072
40
0.375000000000059
40
0.375000000000059
40
0.500000000000046
40
0.500000000000046
40
0.750000000000021
40
0.750000000000021
40
0.87500000000001
40
0.87500000000001
40
1
40
1
40
1
40
1
41
1
10
15.4479327528428
20
-1.53001622158268
30
0
41
1
10
15.4395998061214
20
-1.53036664288035
30
0
41
1
10
15.4325699758025
20
-1.53076183075595
30
0
41
1
10
15.4235002622351
20
-1.53138433886554
30
0
41
1
10
15.420715945128
20
-1.53159843786546
30
0
41
1
10
15.415738737851
20
-1.53202344729354
30
0
41
1
10
15.4135317938995
20
-1.53223507642329
30
0
41
1
10
15.4076710501162
20
-1.53286384850369
30
0
41
1
10
15.4047621663966
20
-1.53327572568054
30
0
41
1
10
15.4018320893435
20
-1.53386875856364
30
0
41
1
10
15.4011051255083
20
-1.53406050189341
30
0
41
1
10
15.4001344196981
20
-1.53443176305527
30
0
41
1
10
15.3998914713505
20
-1.53461179286032
30
0
41
1
10
15.3998914713505
20
-1.53478375847956
30
0
0
SPLINE
5
E7
100
AcDbEntity
8
1
62
256
6
ByLayer
370
13
48
1
60
0
100
AcDbSpline
70
4
71
3
72
10
73
6
40
0
40
0
40
0
40
0
40
0.5
40
0.5
40
1
40
1
40
1
40
1
41
1
10
15.500292273614
20
-1.53974923695813
30
0
41
1
10
15.4911482925543
20
-1.53625101081303
30
0
41
1
10
15.4821847726099
20
-1.5336914490062
30
0
41
1
10
15.4646342591715
20
-1.53039653591057
30
0
41
1
10
15.4559969676023
20
-1.52967710113762
30
0
41
1
10
15.4479327528428
20
-1.53001622158268
30
0
0
SPLINE
5
E8
100
AcDbEntity
8
1
62
256
6
ByLayer
370
13
48
1
60
0
100
AcDbSpline
70
4
71
3
72
24
73
20
40
0
40
0
40
0
40
0
40
0.124999999999987
40
0.124999999999987
40
0.249999999999973
40
0.249999999999973
40
0.499999999999979
40
0.499999999999979
40
0.625000000000011
40
0.625000000000011
40
0.687500000000027
40
0.687500000000027
40
0.750000000000043
40
0.750000000000043
40
0.812500000000059
40
0.812500000000059
40
0.875000000000075
40
0.875000000000075
40
1
40
1
40
1
40
1
41
1
10
15.3998914713505
20
1.05589563000535
30
0
41
1
10
15.3998914713505
20
1.05763844945719
30
0
41
1
10
15.4004027326402
20
1.05938275675496
30
0
41
1
10
15.4024346136636
20
1.0627828229855
30
0
41
1
10
15.4039539194812
20
1.06445279996353
30
0
41
1
10
15.4101433857593
20
1.06937077517006
30
0
41
1
10
15.4162224250713
20
1.07240405683663
30
0
41
1
10
15.4289648961735
20
1.07652643204094
30
0
41
1
10
15.4337933252323
20
1.07781036124135
30
0
41
1
10
15.4418473469904
20
1.07953618731114
30
0
41
1
10
15.4446760734153
20
1.08008052779906
30
0
41
1
10
15.4506559655415
20
1.08110159722605
30
0
41
1
10
15.4538222995821
20
1.08157970339039
30
0
41
1
10
15.4603543888154
20
1.08243815329539
30
0
41
1
10
15.4637351998034
20
1.08282161356186
30
0
41
1
10
15.4707452562835
20
1.08349093840488
30
0
41
1
10
15.4744046094027
20
1.08377847869457
30
0
41
1
10
15.4855520948487
20
1.08446374193869
30
0
41
1
10
15.4931674054907
20
1.08468896251875
30
0
41
1
10
15.5009814783292
20
1.08466554228354
30
0
0
SPLINE
5
E9
100
AcDbEntity
8
1
62
256
6
ByLayer
370
18
48
1
60
0
100
AcDbSpline
70
4
71
3
72
10
73
6
40
0
40
0
40
0
40
0
40
0.5
40
0.5
40
1
40
1
40
1
40
1
41
1
10
29.1379160090208
20
-0.280261806115021
30
0
41
1
10
29.1388803197504
20
-0.280490042078384
30
0
41
1
10
29.1396089038995
20
-0.281956752185721
30
0
41
1
10
29.1404239087118
20
-0.286186606362435
30
0
41
1
10
29.1405183109989
20
-0.288960803077686
30
0
41
1
10
29.1402113658453
20
-0.291941550131526
30
0
0
SPLINE
5
EA
100
AcDbEntity
8
1
62
256
6
ByLayer
370
18
48
1
60
0
100
AcDbSpline
70
4
71
3
72
14
73
10
40
0
40
0
40
0
40
0
40
0.25
40
0.25
40
0.5
40
0.5
40
0.75
40
0.75
40
1
40
1
40
1
40
1
41
1
10
29.1663718871546
20
-2.18459299455373
30
0
41
1
10
29.1670694902847
20
-2.18347617614253
30
0
41
1
10
29.1677893021634
20
-2.18227562710965
30
0
41
1
10
29.1691832783057
20
-2.17981840219539
30
0
41
1
10
29.1698510223115
20
-2.17856852988291
30
0
41
1
10
29.1709032321578
20
-2.17640881507097
30
0
41
1
10
29.171277239885
20
-2.17551840124261
30
0
41
1
10
29.1716676916324
20
-2.17430600555863
30
0
41
1
10
29.1716985680498
20
-2.17395908824386
30
0
41
1
10
29.1716116711679
20
-2.17381516837659
30
0
0
SPLINE
5
EB
100
AcDbEntity
8
1
62
256
6
ByLayer
370
18
48
1
60
0
100
AcDbSpline
70
4
71
3
72
8
73
4
40
0
40
0
40
0
40
0
40
1
40
1
40
1
40
1
41
1
10
29.1035084807077
20
-2.28470161972024
30
0
41
1
10
29.1244193064946
20
-2.25158349173566
30
0
41
1
10
29.1453713760544
20
-2.21821348223105
30
0
41
1
10
29.1663718871546
20
-2.18459299455367
30
0
0
SPLINE
5
EC
100
AcDbEntity
8
1
62
256
6
ByLayer
370
18
48
1
60
0
100
AcDbSpline
70
4
71
3
72
45
73
41
40
0
40
0
40
0
40
0
40
0.0201914146506317
40
0.0201914146506317
40
0.0403828293012635
40
0.0807656586025273
40
0.0807656586025273
40
0.16153131720506
40
0.16153131720506
40
0.201914146506327
40
0.201914146506327
40
0.242296975807593
40
0.242296975807593
40
0.323062634410127
40
0.323062634410127
40
0.363445463711393
40
0.363445463711393
40
0.383636878362026
40
0.383636878362026
40
0.403828293012659
40
0.403828293012659
40
0.484593951615204
40
0.484593951615204
40
0.524976780916476
40
0.524976780916476
40
0.565359610217749
40
0.565359610217749
40
0.646125268820296
40
0.646125268820296
40
0.726890927422844
40
0.726890927422844
40
0.807656586025391
40
0.807656586025391
40
0.848039415326665
40
0.848039415326665
40
0.888422244627938
40
0.888422244627938
40
0.969187903230486
40
0.969187903230486
40
1
40
1
40
1
40
1
41
1
10
29.1663718895354
20
-2.18459299469998
30
0
41
1
10
29.1307194506435
20
-2.18240248667615
30
0
41
1
10
29.0950916769281
20
-2.17995203046351
30
0
41
1
10
29.0238981507506
20
-2.17433862701503
30
0
41
1
10
28.9171903759081
20
-2.16494623133204
30
0
41
1
10
28.8106899413226
20
-2.15266335632882
30
0
41
1
10
28.5978579738455
20
-2.12430547619874
30
0
41
1
10
28.4561957824656
20
-2.10034695179937
30
0
41
1
10
28.2436042835474
20
-2.05702315777782
30
0
41
1
10
28.1727175941141
20
-2.04134073393084
30
0
41
1
10
28.0309718151362
20
-2.0076829647281
30
0
41
1
10
27.9601255090602
20
-1.98972878219962
30
0
41
1
10
27.7474166761705
20
-1.93232256755661
30
0
41
1
10
27.6053539818964
20
-1.88925149111705
30
0
41
1
10
27.3913963789777
20
-1.81782024525958
30
0
41
1
10
27.31993277637
20
-1.79287474261673
30
0
41
1
10
27.2124664785439
20
-1.75378587475996
30
0
41
1
10
27.1765779578302
20
-1.7404693220268
30
0
41
1
10
27.1049372834621
20
-1.71337464824117
30
0
41
1
10
27.0691601410357
20
-1.69958775074267
30
0
41
1
10
26.8904678238364
20
-1.6294866340335
30
0
41
1
10
26.7481316651921
20
-1.56967630001748
30
0
41
1
10
26.5351360105541
20
-1.47491759625143
30
0
41
1
10
26.4642176556657
20
-1.44248849604284
30
0
41
1
10
26.322558532508
20
-1.37603721805181
30
0
41
1
10
26.2518276194971
20
-1.3420187736576
30
0
41
1
10
26.0397335422039
20
-1.2377011275114
30
0
41
1
10
25.8984432220836
20
-1.16511617449785
30
0
41
1
10
25.6154995511249
20
-1.01475229973747
30
0
41
1
10
25.4738464503072
20
-0.936977749116267
30
0
41
1
10
25.1896584712261
20
-0.777013723682586
30
0
41
1
10
25.0471284282945
20
-0.694823396336062
30
0
41
1
10
24.8322043575758
20
-0.568779415680467
30
0
41
1
10
24.760307030958
20
-0.526270899872259
30
0
41
1
10
24.6171505077506
20
-0.440988418993584
30
0
41
1
10
24.5457726234285
20
-0.398129483740803
30
0
41
1
10
24.3320877664049
20
-0.269181989998799
30
0
41
1
10
24.1902165559357
20
-0.182759520182287
30
0
41
1
10
23.9946097900592
20
-0.063413138678726
30
0
41
1
10
23.9406339561862
20
-0.0304602748468881
30
0
41
1
10
23.88668407768
20
0.0024628629339816
30
0
0
SPLINE
5
ED
100
AcDbEntity
8
1
62
256
6
ByLayer
370
13
48
1
60
0
100
AcDbSpline
70
4
71
3
72
8
73
4
40
0
40
0
40
0
40
0
40
1
40
1
40
1
40
1
41
1
10
15.5540099876418
20
1.13656526663894
30
0
41
1
10
15.5534291116214
20
1.11964195383607
30
0
41
1
10
15.552836686863
20
1.10271007915549
30
0
41
1
10
15.5522324932735
20
1.08576887786799
30
0
0
SPLINE
5
EE
100
AcDbEntity
8
1
62
256
6
ByLayer
370
18
48
1
60
0
100
AcDbSpline
70
4
71
3
72
20
73
16
40
0
40
0
40
0
40
0
40
0.227066297544476
40
0.227066297544476
40
0.34059944631671
40
0.34059944631671
40
0.454132595088944
40
0.454132595088944
40
0.681198892633405
40
0.681198892633405
40
0.794732041405639
40
0.794732041405639
40
0.908265190177873
40
0.908265190177873
40
1
40
1
40
1
40
1
41
1
10
15.5522324932735
20
1.08576887786802
30
0
41
1
10
15.6944892280775
20
1.0107799984969
30
0
41
1
10
15.8369167675072
20
0.933274623643172
30
0
41
1
10
16.0510553588522
20
0.813883876519043
30
0
41
1
10
16.1225702040212
20
0.773533977263469
30
0
41
1
10
16.2651513518034
20
0.69227303124714
30
0
41
1
10
16.3362944549431
20
0.651324040721818
30
0
41
1
10
16.5493465232734
20
0.527639950869144
30
0
41
1
10
16.6908885369109
20
0.444083856379905
30
0
41
1
10
16.9025959521551
20
0.317366550240166
30
0
41
1
10
16.9730343913109
20
0.274850939459412
30
0
41
1
10
17.1138135976012
20
0.18952632505281
30
0
41
1
10
17.1841867974636
20
0.146766530124267
30
0
41
1
10
17.3115093161177
20
0.0694659914906595
30
0
41
1
10
17.3684338371908
20
0.0349117010709108
30
0
41
1
10
17.4253888745321
20
0.0003616816057104
30
0
0
SPLINE
5
EF
100
AcDbEntity
8
1
62
256
6
ByLayer
370
18
48
1
60
0
100
AcDbSpline
70
4
71
3
72
20
73
16
40
0
40
0
40
0
40
0
40
0.235327957336721
40
0.235327957336721
40
0.330911962669628
40
0.330911962669628
40
0.426495968002535
40
0.426495968002535
40
0.617663978668357
40
0.617663978668357
40
0.713247984001268
40
0.713247984001268
40
0.808831989334178
40
0.808831989334178
40
1
40
1
40
1
40
1
41
1
10
17.7716594639682
20
-0.219891346616947
30
0
41
1
10
17.597547994968
20
-0.115300376154693
30
0
41
1
10
17.4238512878364
20
-0.0103888839774129
30
0
41
1
10
17.1799149612029
20
0.137076404091033
30
0
41
1
10
17.109503481532
20
0.179684742731268
30
0
41
1
10
16.9686393301923
20
0.264702477598036
30
0
41
1
10
16.8981543230507
20
0.307062219688845
30
0
41
1
10
16.6863174771177
20
0.433339274601195
30
0
41
1
10
16.5446987082352
20
0.51663337456705
30
0
41
1
10
16.3315389659722
20
0.639962215115872
30
0
41
1
10
16.2603612728789
20
0.680799132901711
30
0
41
1
10
16.1177130760736
20
0.761847919468977
30
0
41
1
10
16.0461661089364
20
0.802097565730321
30
0
41
1
10
15.8319264022152
20
0.921211826483898
30
0
41
1
10
15.6894284020045
20
0.998562913362264
30
0
41
1
10
15.5470976925304
20
1.0734267736035
30
0
0
SPLINE
5
F0
100
AcDbEntity
8
1
62
256
6
ByLayer
370
13
48
1
60
0
100
AcDbSpline
70
4
71
3
72
12
73
8
40
0
40
0
40
0
40
0
40
0.500000000000205
40
0.500000000000205
40
0.750000000000102
40
0.750000000000102
40
1
40
1
40
1
40
1
41
1
10
15.5470976925304
20
1.0734267736035
30
0
41
1
10
15.5401422747676
20
1.07708522106878
30
0
41
1
10
15.5327773574865
20
1.07984596254858
30
0
41
1
10
15.5211339183419
20
1.08269028398035
30
0
41
1
10
15.5171323763999
20
1.08341955467145
30
0
41
1
10
15.5091026368576
20
1.08439598248395
30
0
41
1
10
15.5050574303224
20
1.08464955664954
30
0
41
1
10
15.5009814783292
20
1.08466554228354
30
0
0
SPLINE
5
F1
100
AcDbEntity
8
1
62
256
6
ByLayer
370
13
48
1
60
0
100
AcDbSpline
70
4
71
3
72
34
73
30
40
0
40
0
40
0
40
0
40
0.125
40
0.125
40
0.1875
40
0.21875
40
0.21875
40
0.25
40
0.25
40
0.375
40
0.375
40
0.4375
40
0.46875
40
0.46875
40
0.5
40
0.5
40
0.624999999999999
40
0.624999999999999
40
0.687499999999999
40
0.718749999999999
40
0.718749999999999
40
0.749999999999999
40
0.749999999999999
40
0.875
40
0.875
40
0.9375
40
0.96875
40
0.96875
40
1
40
1
40
1
40
1
41
1
10
15.5009814783292
20
1.08466554228354
30
0
41
1
10
15.5009568025759
20
0.981112966341641
30
0
41
1
10
15.5009297308102
20
0.873902236622797
30
0
41
1
10
15.5008874130603
20
0.707782234957932
30
0
41
1
10
15.5008658116737
20
0.623389279867467
30
0
41
1
10
15.5008437791599
20
0.536969116363196
30
0
41
1
10
15.5008290133373
20
0.478897666046152
30
0
41
1
10
15.5008215811144
20
0.44958952559503
30
0
41
1
10
15.5007845830356
20
0.303134035277225
30
0
41
1
10
15.5007553318935
20
0.185398585600581
30
0
41
1
10
15.5007122454843
20
0.0079620984751614
30
0
41
1
10
15.5006908875143
20
-0.0809655513146765
30
0
41
1
10
15.5006697463832
20
-0.170212687155868
30
0
41
1
10
15.5006556856213
20
-0.229783078039844
30
0
41
1
10
15.5006486848354
20
-0.259551377536979
30
0
41
1
10
15.5006140298684
20
-0.407254819956023
30
0
41
1
10
15.5005872216797
20
-0.522770367276081
30
0
41
1
10
15.5005470346518
20
-0.692177631838348
30
0
41
1
10
15.5005269387347
20
-0.775909771538409
30
0
41
1
10
15.5005064940558
20
-0.858159258640484
30
0
41
1
10
15.5004927406071
20
-0.9126566765338
30
0
41
1
10
15.5004857951813
20
-0.93976292281917
30
0
41
1
10
15.5004509652108
20
-1.07320193752653
30
0
41
1
10
15.50042254316
20
-1.1742797011089
30
0
41
1
10
15.50037674506
20
-1.31764233319714
30
0
41
1
10
15.5003530503796
20
-1.38724941703887
30
0
41
1
10
15.5003276652309
20
-1.45369691282852
30
0
41
1
10
15.5003103047975
20
-1.49728083128588
30
0
41
1
10
15.5003013951458
20
-1.51874056644215
30
0
41
1
10
15.500292273614
20
-1.53974923695813
30
0
0
SPLINE
5
F2
100
AcDbEntity
8
1
62
256
6
ByLayer
370
18
48
1
60
0
100
AcDbSpline
70
4
71
3
72
22
73
18
40
0
40
0
40
0
40
0
40
0.153775194741201
40
0.153775194741201
40
0.230662792111804
40
0.230662792111804
40
0.307550389482407
40
0.307550389482407
40
0.461325584223608
40
0.461325584223608
40
0.615100778964809
40
0.615100778964809
40
0.922651168447211
40
0.922651168447211
40
0.999538765817808
40
0.999538765817808
40
1
40
1
40
1
40
1
41
1
10
15.500292273614
20
-1.53974923695813
30
0
41
1
10
15.6441728562727
20
-1.6008635217546
30
0
41
1
10
15.7878736655412
20
-1.65813374321456
30
0
41
1
10
16.003547114961
20
-1.7378971592745
30
0
41
1
10
16.0755331426231
20
-1.76348453420172
30
0
41
1
10
16.2190455112063
20
-1.8123498960498
30
0
41
1
10
16.2906106305032
20
-1.83564259181568
30
0
41
1
10
16.5048567452477
20
-1.90207859020955
30
0
41
1
10
16.6471015102267
20
-1.94181936537731
30
0
41
1
10
16.9312104945839
20
-2.01211585784938
30
0
41
1
10
17.0731157723212
20
-2.04248697240823
30
0
41
1
10
17.4986517409122
20
-2.1188371317225
30
0
41
1
10
17.782104774546
20
-2.15028302246012
30
0
41
1
10
18.1388712193206
20
-2.16403715007004
30
0
41
1
10
18.2103625206578
20
-2.16549359784767
30
0
41
1
10
18.2824822197066
20
-2.16562792220628
30
0
41
1
10
18.2829122826759
20
-2.16562867595118
30
0
41
1
10
18.2833423558529
20
-2.16562938246696
30
0
0
SPLINE
5
F3
100
AcDbEntity
8
1
62
256
6
ByLayer
370
18
48
1
60
0
100
AcDbSpline
70
4
71
3
72
45
73
41
40
0
40
0
40
0
40
0
40
0.0299656860559044
40
0.0299656860559044
40
0.0661124414144944
40
0.0661124414144944
40
0.102259196773084
40
0.102259196773084
40
0.138405952131675
40
0.138405952131675
40
0.210699462848855
40
0.210699462848855
40
0.282992973566036
40
0.282992973566036
40
0.319139728924625
40
0.319139728924625
40
0.355286484283214
40
0.355286484283214
40
0.427579995000391
40
0.427579995000391
40
0.499873505717569
40
0.499873505717569
40
0.572167016434747
40
0.572167016434747
40
0.608313771793336
40
0.608313771793336
40
0.644460527151924
40
0.644460527151924
40
0.78904754858629
40
0.825194303944882
40
0.825194303944882
40
0.84326768162418
40
0.84326768162418
40
0.861341059303478
40
0.861341059303478
40
0.897487814662075
40
0.897487814662075
40
0.933634570020671
40
0.933634570020671
40
1
40
1
40
1
40
1
41
1
10
22.8169438516068
20
2.17932887712016
30
0
41
1
10
22.8760396339598
20
2.18161509286739
30
0
41
1
10
22.9351540851654
20
2.18307223759027
30
0
41
1
10
23.0652758177052
20
2.18456088764742
30
0
41
1
10
23.1362002553217
20
2.18426432690046
30
0
41
1
10
23.2776761542008
20
2.18148630385446
30
0
41
1
10
23.3482459074739
20
2.17892413842054
30
0
41
1
10
23.4892407944397
20
2.17089580024452
30
0
41
1
10
23.5596622740602
20
2.16547069636792
30
0
41
1
10
23.7708466406243
20
2.14497369248752
30
0
41
1
10
23.9115003683476
20
2.12576380728569
30
0
41
1
10
24.1926135444626
20
2.0781385694882
30
0
41
1
10
24.3330380020888
20
2.04971557010373
30
0
41
1
10
24.5433473032121
20
2.00111457718666
30
0
41
1
10
24.613438448467
20
1.98385898628325
30
0
41
1
10
24.753992227949
20
1.94665670998586
30
0
41
1
10
24.8244326972783
20
1.9267520889685
30
0
41
1
10
25.0363177320918
20
1.86333244103491
30
0
41
1
10
25.1783131818461
20
1.81610826233577
30
0
41
1
10
25.4637639416572
20
1.71289188508467
30
0
41
1
10
25.6057541554836
20
1.6574188783548
30
0
41
1
10
25.8884871472344
20
1.53969423877905
30
0
41
1
10
26.029250030897
20
1.47742932481788
30
0
41
1
10
26.2399100804863
20
1.37919781946155
30
0
41
1
10
26.3100578291716
20
1.3456506736598
30
0
41
1
10
26.4504222803192
20
1.27699461587358
30
0
41
1
10
26.520631584554
20
1.24188687931093
30
0
41
1
10
26.8719041764935
20
1.06283293374202
30
0
41
1
10
27.2240739791365
20
0.86966965055143
30
0
41
1
10
27.5789879105798
20
0.663361729334554
30
0
41
1
10
27.6856665302306
20
0.600730034733857
30
0
41
1
10
27.7212833259493
20
0.579715625350985
30
0
41
1
10
27.7924176337454
20
0.53755153664693
30
0
41
1
10
27.827946822502
20
0.516395124322997
30
0
41
1
10
27.9344301033667
20
0.452718608704231
30
0
41
1
10
28.0052819475363
20
0.409994709046345
30
0
41
1
10
28.1469167167777
20
0.324313148180039
30
0
41
1
10
28.2176988295414
20
0.281353661347424
30
0
41
1
10
28.418370977412
20
0.159257584561061
30
0
41
1
10
28.5482073355164
20
0.0799041856703582
30
0
41
1
10
28.6781067088064
20
0.0004802070431822
30
0
0
SPLINE
5
F4
100
AcDbEntity
8
1
62
256
6
ByLayer
370
18
48
1
60
0
100
AcDbSpline
70
4
71
3
72
8
73
4
40
0
40
0
40
0
40
0
40
1
40
1
40
1
40
1
41
1
10
29.101893308072
20
-0.270692329687506
30
0
41
1
10
29.1138787931232
20
-0.274224922002873
30
0
41
1
10
29.1258832814797
20
-0.277413863975937
30
0
41
1
10
29.1379160090208
20
-0.280261806114993
30
0
0
SPLINE
5
F5
100
AcDbEntity
8
1
62
256
6
ByLayer
370
18
48
1
60
0
100
AcDbSpline
70
4
71
3
72
28
73
24
40
0
40
0
40
0
40
0
40
0.101527479212903
40
0.101527479212903
40
0.129604745487497
40
0.129604745487497
40
0.157682011762092
40
0.157682011762092
40
0.213836544311285
40
0.213836544311285
40
0.269991076860479
40
0.269991076860479
40
0.326145609409672
40
0.326145609409672
40
0.550763739606446
40
0.550763739606446
40
0.663072804704835
40
0.663072804704835
40
0.719227337254029
40
0.719227337254029
40
0.775381869803223
40
0.775381869803223
40
1
40
1
40
1
40
1
41
1
10
19.255598118002
20
-2.19546440962267
30
0
41
1
10
19.1272015824029
20
-2.21759411036709
30
0
41
1
10
18.9984719721431
20
-2.2355316938706
30
0
41
1
10
18.8334205476365
20
-2.25287735455746
30
0
41
1
10
18.7976206265456
20
-2.25630244137773
30
0
41
1
10
18.7259259990877
20
-2.26248123788005
30
0
41
1
10
18.6900039723102
20
-2.26523639010318
30
0
41
1
10
18.5824363363803
20
-2.27246356331184
30
0
41
1
10
18.5109073876785
20
-2.27590667111161
30
0
41
1
10
18.3681512918153
20
-2.28007275389973
30
0
41
1
10
18.2969229329216
20
-2.28079609450492
30
0
41
1
10
18.1547333216613
20
-2.27954434155242
30
0
41
1
10
18.0837762276539
20
-2.2775673591434
30
0
41
1
10
17.7293178768449
20
-2.26098928363271
30
0
41
1
10
17.4467319179575
20
-2.22635600767595
30
0
41
1
10
17.0210020915085
20
-2.14366463850644
30
0
41
1
10
16.8788174723967
20
-2.11096333235972
30
0
41
1
10
16.6648470142629
20
-2.05418417146814
30
0
41
1
10
16.5933935395615
20
-2.03397722679583
30
0
41
1
10
16.450120895416
20
-1.99103949830393
30
0
41
1
10
16.3782684500968
20
-1.96829442791628
30
0
41
1
10
16.0197220269753
20
-1.84902138513579
30
0
41
1
10
15.7336688133595
20
-1.7355231951133
30
0
41
1
10
15.446327130392
20
-1.60605059374962
30
0
0
SPLINE
5
F6
100
AcDbEntity
8
1
62
256
6
ByLayer
370
18
48
1
60
0
100
AcDbSpline
70
4
71
3
72
17
73
13
40
0
40
0
40
0
40
0
40
0.249999999999905
40
0.249999999999905
40
0.374999999999929
40
0.374999999999929
40
0.499999999999952
40
0.624999999999976
40
0.624999999999976
40
0.75
40
0.75
40
1
40
1
40
1
40
1
41
1
10
15.4463271303917
20
-1.60605059374944
30
0
41
1
10
15.4391827247136
20
-1.60283141309043
30
0
41
1
10
15.4327563099261
20
-1.59904002965894
30
0
41
1
10
15.4241591006419
20
-1.59250452619719
30
0
41
1
10
15.4214521182065
20
-1.59016476993173
30
0
41
1
10
15.416510203225
20
-1.58528461059399
30
0
41
1
10
15.4120359823829
20
-1.58021162881016
30
0
41
1
10
15.4084740812279
20
-1.57475713817607
30
0
41
1
10
15.405378628552
20
-1.56910526195543
30
0
41
1
10
15.4040668933509
20
-1.56617530363317
30
0
41
1
10
15.4009467307227
20
-1.55732912230764
30
0
41
1
10
15.3998914713505
20
-1.55127893965249
30
0
41
1
10
15.3998914713505
20
-1.54506846254088
30
0
0
SPLINE
5
F7
100
AcDbEntity
8
1
62
256
6
ByLayer
370
18
48
1
60
0
100
AcDbSpline
70
4
71
3
72
28
73
24
40
0
40
0
40
0
40
0
40
0.12500000000007
40
0.12500000000007
40
0.18750000000009
40
0.18750000000009
40
0.25000000000011
40
0.25000000000011
40
0.375000000000146
40
0.375000000000146
40
0.437500000000165
40
0.437500000000165
40
0.500000000000183
40
0.500000000000183
40
0.625000000000137
40
0.625000000000137
40
0.750000000000091
40
0.750000000000091
40
0.812500000000068
40
0.812500000000068
40
0.875000000000045
40
0.875000000000045
40
1
40
1
40
1
40
1
41
1
10
15.3998914713505
20
1.06280079715711
30
0
41
1
10
15.3998914713505
20
1.07076730342314
30
0
41
1
10
15.4010857955172
20
1.07852988761724
30
0
41
1
10
15.4046208766454
20
1.08987998042497
30
0
41
1
10
15.4061076296103
20
1.09363544767541
30
0
41
1
10
15.4095989670084
20
1.10083910858532
30
0
41
1
10
15.4116064953281
20
1.10430875892197
30
0
41
1
10
15.4184031446101
20
1.11433002004222
30
0
41
1
10
15.4240529556435
20
1.12055659950531
30
0
41
1
10
15.4336474153071
20
1.1286113435113
30
0
41
1
10
15.4370419902208
20
1.13110179092791
30
0
41
1
10
15.4442282404052
20
1.13569208832351
30
0
41
1
10
15.4480484963157
20
1.13780293303827
30
0
41
1
10
15.4598122194792
20
1.14337266805006
30
0
41
1
10
15.4681052400594
20
1.14613354847987
30
0
41
1
10
15.4856103452581
20
1.14972686728498
30
0
41
1
10
15.4944885377987
20
1.15048373869533
30
0
41
1
10
15.5078555497545
20
1.15009085667552
30
0
41
1
10
15.5123595658283
20
1.14969657075846
30
0
41
1
10
15.5211719763164
20
1.14840228908255
30
0
41
1
10
15.5254939857074
20
1.14750603624475
30
0
41
1
10
15.5382122373052
20
1.14408237768171
30
0
41
1
10
15.5464335008774
20
1.14078269784903
30
0
41
1
10
15.5540099876418
20
1.13656526663894
30
0
0
SPLINE
5
F8
100
AcDbEntity
8
1
62
256
6
ByLayer
370
18
48
1
60
0
100
AcDbSpline
70
4
71
3
72
53
73
49
40
0
40
0
40
0
40
0
40
0.0565051534031631
40
0.0565051534031631
40
0.113010306806326
40
0.113010306806326
40
0.169515460209489
40
0.169515460209489
40
0.226020613612652
40
0.226020613612652
40
0.240146901963443
40
0.240146901963443
40
0.254273190314234
40
0.254273190314234
40
0.282525767015818
40
0.282525767015818
40
0.339030920418985
40
0.339030920418985
40
0.395536073822152
40
0.395536073822152
40
0.452041227225319
40
0.452041227225319
40
0.480293803926902
40
0.480293803926902
40
0.494420092277695
40
0.494420092277695
40
0.508546380628488
40
0.508546380628488
40
0.565051534031665
40
0.565051534031665
40
0.621556687434842
40
0.621556687434842
40
0.678061840838018
40
0.678061840838018
40
0.734566994241195
40
0.734566994241195
40
0.791072147644372
40
0.791072147644372
40
0.805198435995166
40
0.805198435995166
40
0.819324724345959
40
0.847577301047547
40
0.847577301047547
40
0.904082454450724
40
0.904082454450724
40
0.960587607853901
40
0.960587607853901
40
1
40
1
40
1
40
1
41
1
10
15.5540099876418
20
1.13656526663894
30
0
41
1
10
15.6957708641964
20
1.05765445167339
30
0
41
1
10
15.8372918091786
20
0.976832997560308
30
0
41
1
10
16.1200369537609
20
0.811773296172277
30
0
41
1
10
16.2612658264566
20
0.727540549059484
30
0
41
1
10
16.5437080155116
20
0.55612124377285
30
0
41
1
10
16.6849241177343
20
0.468939867796024
30
0
41
1
10
16.9675097571355
20
0.291843241476698
30
0
41
1
10
17.1087302167507
20
0.201677994309108
30
0
41
1
10
17.2863107697858
20
0.088750396446585
30
0
41
1
10
17.3218712721258
20
0.0661408925738556
30
0
41
1
10
17.3930833909031
20
0.0208771839241706
30
0
41
1
10
17.4287173018861
20
-0.0017657560958355
30
0
41
1
10
17.5354433814005
20
-0.0695540917377286
30
0
41
1
10
17.6064586920444
20
-0.114622597849916
30
0
41
1
10
17.8191471085425
20
-0.249389360041221
30
0
41
1
10
17.9604702826109
20
-0.338638286047171
30
0
41
1
10
18.2424731540984
20
-0.515483766158894
30
0
41
1
10
18.3829761503521
20
-0.603343112203987
30
0
41
1
10
18.6650404512662
20
-0.774777698018653
30
0
41
1
10
18.8064375836219
20
-0.858618193779762
30
0
41
1
10
19.0190882965948
20
-0.981552363991625
30
0
41
1
10
19.0900664270097
20
-1.02205537113909
30
0
41
1
10
19.196693046004
20
-1.08206445101166
30
0
41
1
10
19.2322619482619
20
-1.1019430133849
30
0
41
1
10
19.3034576738012
20
-1.14144294693264
30
0
41
1
10
19.3390749266993
20
-1.16105847793367
30
0
41
1
10
19.5167313141594
20
-1.25815862376061
30
0
41
1
10
19.657820287516
20
-1.33310470540587
30
0
41
1
10
19.939736330747
20
-1.47526744606012
30
0
41
1
10
20.080408137131
20
-1.5427281293278
30
0
41
1
10
20.3610537962905
20
-1.67061876989038
30
0
41
1
10
20.5011293621715
20
-1.73089908982598
30
0
41
1
10
20.782130724715
20
-1.84277163668367
30
0
41
1
10
20.9229557573675
20
-1.89449501585807
30
0
41
1
10
21.205266027983
20
-1.98945315803402
30
0
41
1
10
21.3467410007381
20
-2.03269007711665
30
0
41
1
10
21.5242085870318
20
-2.08105053803743
30
0
41
1
10
21.5597688154684
20
-2.0904432329441
30
0
41
1
10
21.6307959669584
20
-2.10858907755758
30
0
41
1
10
21.7371806697641
20
-2.13484703805506
30
0
41
1
10
21.8431769235034
20
-2.15819014353369
30
0
41
1
10
22.0548268334412
20
-2.20094985996994
30
0
41
1
10
22.1954762481665
20
-2.22421456117957
30
0
41
1
10
22.4766758463168
20
-2.26024998837286
30
0
41
1
10
22.6171761883738
20
-2.27305654356186
30
0
41
1
10
22.8556122604721
20
-2.28598908440543
30
0
41
1
10
22.9535528776152
20
-2.28878126597991
30
0
41
1
10
23.0514818222672
20
-2.28899562314197
30
0
0
SPLINE
5
F9
100
AcDbEntity
8
1
62
256
6
ByLayer
370
18
48
1
60
0
100
AcDbSpline
70
4
71
3
72
109
73
105
40
0
40
0
40
0
40
0
40
0.0209324056991645
40
0.0209324056991645
40
0.0450759150843321
40
0.0450759150843321
40
0.0692194244694996
40
0.0692194244694996
40
0.0933629338546672
40
0.0933629338546672
40
0.10543468854725
40
0.10543468854725
40
0.117506443239834
40
0.117506443239834
40
0.141649952624999
40
0.141649952624999
40
0.165793462010165
40
0.165793462010165
40
0.18993697139533
40
0.18993697139533
40
0.214080480780496
40
0.214080480780496
40
0.238223990165661
40
0.238223990165661
40
0.250295744858243
40
0.250295744858243
40
0.256331622204534
40
0.256331622204534
40
0.262367499550826
40
0.262367499550826
40
0.286511008935991
40
0.286511008935991
40
0.310654518321157
40
0.310654518321157
40
0.334798027706322
40
0.334798027706322
40
0.358941537091488
40
0.358941537091488
40
0.371013291784071
40
0.371013291784071
40
0.383085046476654
40
0.383085046476654
40
0.40722855586182
40
0.40722855586182
40
0.419300310554402
40
0.419300310554402
40
0.431372065246984
40
0.431372065246984
40
0.455515574632149
40
0.455515574632149
40
0.479659084017314
40
0.479659084017314
40
0.503802593402478
40
0.503802593402478
40
0.527946102787643
40
0.527946102787643
40
0.552089612172807
40
0.552089612172807
40
0.576233121557972
40
0.576233121557972
40
0.588304876250554
40
0.588304876250554
40
0.600376630943137
40
0.600376630943137
40
0.624520140328303
40
0.624520140328303
40
0.636591895020885
40
0.636591895020885
40
0.648663649713468
40
0.648663649713468
40
0.672807159098634
40
0.672807159098634
40
0.696950668483799
40
0.696950668483799
40
0.721094177868965
40
0.721094177868965
40
0.733165932561548
40
0.739201809907839
40
0.739201809907839
40
0.74523768725413
40
0.74523768725413
40
0.769381196639295
40
0.769381196639295
40
0.793524706024459
40
0.793524706024459
40
0.817668215409624
40
0.817668215409624
40
0.841811724794788
40
0.841811724794788
40
0.865955234179953
40
0.865955234179953
40
0.890098743565117
40
0.890098743565117
40
0.9021704982577
40
0.9021704982577
40
0.914242252950282
40
0.914242252950282
40
0.938385762335448
40
0.938385762335448
40
0.962529271720613
40
0.962529271720613
40
0.986672781105779
40
0.986672781105779
40
1
40
1
40
1
40
1
41
1
10
26.3874294089628
20
-1.61846111642606
30
0
41
1
10
26.2900511667263
20
-1.66272664851232
30
0
41
1
10
26.1927245379317
20
-1.70509743665306
30
0
41
1
10
25.9830580582984
20
-1.79208363940452
30
0
41
1
10
25.870733418898
20
-1.83608050564368
30
0
41
1
10
25.6460497805692
20
-1.91883563273365
30
0
41
1
10
25.5335657911737
20
-1.95747042624674
30
0
41
1
10
25.3078467680864
20
-2.02881556704216
30
0
41
1
10
25.1946317968372
20
-2.06154679163643
30
0
41
1
10
25.0241060313422
20
-2.10604725508085
30
0
41
1
10
24.967084547429
20
-2.12013572128862
30
0
41
1
10
24.8534425020187
20
-2.1466512950127
30
0
41
1
10
24.7967670524664
20
-2.15908838125671
30
0
41
1
10
24.627013332532
20
-2.19386466890555
30
0
41
1
10
24.5141719301195
20
-2.21365459848951
30
0
41
1
10
24.2888485816226
20
-2.24647539625906
30
0
41
1
10
24.1763394488348
20
-2.2595021139457
30
0
41
1
10
23.9515795203789
20
-2.2788468917193
30
0
41
1
10
23.8394384246433
20
-2.28517205322277
30
0
41
1
10
23.6149095717239
20
-2.2909879989877
30
0
41
1
10
23.5025290037854
20
-2.29049076461132
30
0
41
1
10
23.2772729056532
20
-2.28268510186967
30
0
41
1
10
23.1643569018493
20
-2.27539024377813
30
0
41
1
10
22.9946481565283
20
-2.25925287300927
30
0
41
1
10
22.9380233759216
20
-2.25300394231297
30
0
41
1
10
22.8529206062563
20
-2.2423293271207
30
0
41
1
10
22.8245246471547
20
-2.23855468402527
30
0
41
1
10
22.7676651149048
20
-2.2305742236619
30
0
41
1
10
22.7391817943775
20
-2.22636487196544
30
0
41
1
10
22.5969043821504
20
-2.20428769350519
30
0
41
1
10
22.4835089758538
20
-2.18333259051883
30
0
41
1
10
22.2572768259381
20
-2.13514323656591
30
0
41
1
10
22.1444611309716
20
-2.1079044303859
30
0
41
1
10
21.9194663677814
20
-2.04715046492572
30
0
41
1
10
21.8071615449101
20
-2.01370806725359
30
0
41
1
10
21.5824564131665
20
-1.94110323528983
30
0
41
1
10
21.4700797384703
20
-1.90192743928569
30
0
41
1
10
21.3013129061861
20
-1.83901104304783
30
0
41
1
10
21.2450312269358
20
-1.81734015361616
30
0
41
1
10
21.1324500454768
20
-1.77255503213164
30
0
41
1
10
21.0761477321508
20
-1.74944203707352
30
0
41
1
10
20.907042257889
20
-1.67808623456233
30
0
41
1
10
20.7939991738087
20
-1.62787335914356
30
0
41
1
10
20.623744999021
20
-1.54880110290188
30
0
41
1
10
20.5668801270245
20
-1.52181646920144
30
0
41
1
10
20.4528857259732
20
-1.46662584156144
30
0
41
1
10
20.3958969846952
20
-1.43849156876629
30
0
41
1
10
20.2254417048727
20
-1.35265085416515
30
0
41
1
10
20.1123826471594
20
-1.29330370475378
30
0
41
1
10
19.8866898058899
20
-1.17137376837675
30
0
41
1
10
19.7740576276212
20
-1.10879344470811
30
0
41
1
10
19.5489562679783
20
-0.980817031937079
30
0
41
1
10
19.4364450239224
20
-0.915484441137522
30
0
41
1
10
19.2116457215931
20
-0.781922019077484
30
0
41
1
10
19.0993464745425
20
-0.71370038687661
30
0
41
1
10
18.8742162545133
20
-0.575464120089038
30
0
41
1
10
18.7614355218135
20
-0.505376828271437
30
0
41
1
10
18.5351677086949
20
-0.363678800816984
30
0
41
1
10
18.4216928639059
20
-0.292052162737775
30
0
41
1
10
18.2510105216672
20
-0.183322224004826
30
0
41
1
10
18.1939819195053
20
-0.146873812981624
30
0
41
1
10
18.0802620362866
20
-0.0742075446949002
30
0
41
1
10
18.0234987272978
20
-0.0379315840191339
30
0
41
1
10
17.8534482811265
20
0.0706509355673575
30
0
41
1
10
17.740392375143
20
0.14269904133468
30
0
41
1
10
17.5711011499199
20
0.250005278786972
30
0
41
1
10
17.514727193406
20
0.285658786366469
30
0
41
1
10
17.4021286974324
20
0.356793466732768
30
0
41
1
10
17.345901610011
20
0.392270154464939
30
0
41
1
10
17.1772726781431
20
0.498168547707792
30
0
41
1
10
17.064879838483
20
0.567991551124607
30
0
41
1
10
16.8398484717604
20
0.705634930028253
30
0
41
1
10
16.7271879177898
20
0.773422989307221
30
0
41
1
10
16.5015139225191
20
0.906828990931217
30
0
41
1
10
16.3886231678771
20
0.972626422612848
30
0
41
1
10
16.2186643062097
20
1.06913610114427
30
0
41
1
10
16.1335263071227
20
1.11684110091412
30
0
41
1
10
16.0481139357404
20
1.16366525317969
30
0
41
1
10
15.9911068757506
20
1.19467867154418
30
0
41
1
10
15.9625588009515
20
1.21009024263239
30
0
41
1
10
15.8200403349478
20
1.28641259665622
30
0
41
1
10
15.7064053057919
20
1.34522454969786
30
0
41
1
10
15.4800296969185
20
1.45863692400604
30
0
41
1
10
15.3672795776398
20
1.51320699350057
30
0
41
1
10
15.1419081092543
20
1.61722301079939
30
0
41
1
10
15.0293378435778
20
1.66673794762707
30
0
41
1
10
14.8041574173928
20
1.76054434758828
30
0
41
1
10
14.691558717184
20
1.80485473057351
30
0
41
1
10
14.4664319388821
20
1.88832433327036
30
0
41
1
10
14.3537762968385
20
1.92735248122943
30
0
41
1
10
14.1277642039917
20
1.99951238863289
30
0
41
1
10
14.0144371132003
20
2.03267386276986
30
0
41
1
10
13.8437893644628
20
2.07785765347697
30
0
41
1
10
13.7868045458847
20
2.09216467197342
30
0
41
1
10
13.67266602833
20
2.11927018527163
30
0
41
1
10
13.6157221181798
20
2.13201490222292
30
0
41
1
10
13.4452494398548
20
2.16770740965151
30
0
41
1
10
13.3319679568015
20
2.18810917684223
30
0
41
1
10
13.1058249760978
20
2.22215818007425
30
0
41
1
10
12.9929401408495
20
2.23580257569606
30
0
41
1
10
12.7674902024345
20
2.25640429554639
30
0
41
1
10
12.6550493846006
20
2.26337384999133
30
0
41
1
10
12.48041661157
20
2.2689068833125
30
0
41
1
10
12.4182794243127
20
2.26984100773905
30
0
41
1
10
12.3560952273679
20
2.26974244251912
30
0
0
SPLINE
5
FA
100
AcDbEntity
8
1
62
256
6
ByLayer
370
18
48
1
60
0
100
AcDbSpline
70
4
71
3
72
8
73
4
40
0
40
0
40
0
40
0
40
1
40
1
40
1
40
1
41
1
10
15.0741356565776
20
1.65003521760022
30
0
41
1
10
15.1824349483365
20
1.69759255303742
30
0
41
1
10
15.2909689144969
20
1.74301171831513
30
0
41
1
10
15.3998914713608
20
1.78609296285771
30
0
0
SPLINE
5
FB
100
AcDbEntity
8
1
62
256
6
ByLayer
370
18
48
1
60
0
100
AcDbSpline
70
4
71
3
72
76
73
72
40
0
40
0
40
0
40
0
40
0.0156249999999993
40
0.0156249999999993
40
0.0312499999999986
40
0.0624999999999972
40
0.0624999999999972
40
0.078124999999997
40
0.078124999999997
40
0.0937499999999968
40
0.0937499999999968
40
0.124999999999995
40
0.124999999999995
40
0.156249999999994
40
0.156249999999994
40
0.171874999999993
40
0.171874999999993
40
0.187499999999993
40
0.218749999999991
40
0.218749999999991
40
0.234374999999991
40
0.234374999999991
40
0.249999999999991
40
0.249999999999991
40
0.312499999999993
40
0.312499999999993
40
0.374999999999996
40
0.374999999999996
40
0.390624999999996
40
0.390624999999996
40
0.406249999999996
40
0.406249999999996
40
0.437499999999997
40
0.437499999999997
40
0.468749999999998
40
0.468749999999998
40
0.484375
40
0.484375
40
0.500000000000001
40
0.531250000000003
40
0.546875000000004
40
0.554687500000004
40
0.554687500000004
40
0.562500000000004
40
0.562500000000004
40
0.625000000000004
40
0.625000000000004
40
0.687500000000003
40
0.687500000000003
40
0.718750000000003
40
0.718750000000003
40
0.734375000000002
40
0.734375000000002
40
0.750000000000001
40
0.781249999999999
40
0.781249999999999
40
0.796874999999997
40
0.796874999999997
40
0.812499999999996
40
0.812499999999996
40
0.874999999999991
40
0.874999999999991
40
0.882812499999992
40
0.882812499999992
40
0.890624999999992
40
0.890624999999992
40
0.906249999999994
40
0.906249999999994
40
0.937499999999997
40
0.937499999999997
40
1
40
1
40
1
40
1
41
1
10
15.3998914713509
20
1.75372959440659
30
0
41
1
10
15.4717837462412
20
1.78292405059088
30
0
41
1
10
15.5437225914406
20
1.81106556516107
30
0
41
1
10
15.6874250774434
20
1.86506028093424
30
0
41
1
10
15.9027583895781
20
1.94263929386926
30
0
41
1
10
16.1177238408261
20
2.00977453686499
30
0
41
1
10
16.3328683172319
20
2.06961503425538
30
0
41
1
10
16.4046133619126
20
2.08834546842911
30
0
41
1
10
16.5482391606459
20
2.12331231823157
30
0
41
1
10
16.6201728008525
20
2.13955829979327
30
0
41
1
10
16.8356302099913
20
2.18432981193413
30
0
41
1
10
16.9789596963375
20
2.20893271007031
30
0
41
1
10
17.265626018745
20
2.24745114912721
30
0
41
1
10
17.4089691653825
20
2.26136653986657
30
0
41
1
10
17.6244203409775
20
2.27407924511084
30
0
41
1
10
17.6963520732398
20
2.27695560015636
30
0
41
1
10
17.8399634404493
20
2.27995596117862
30
0
41
1
10
18.0551489679143
20
2.28034130665958
30
0
41
1
10
18.2699648271439
20
2.26842501295548
30
0
41
1
10
18.484989128346
20
2.24835450591209
30
0
41
1
10
18.5566988662805
20
2.2403052272297
30
0
41
1
10
18.7002662913194
20
2.22149588869951
30
0
41
1
10
18.7721686698803
20
2.21072495812294
30
0
41
1
10
19.1304359066465
20
2.1504501225356
30
0
41
1
10
19.4144775558908
20
2.08158524111462
30
0
41
1
10
19.9818979010751
20
1.90638981660555
30
0
41
1
10
20.2652383272118
20
1.80000606564016
30
0
41
1
10
20.6219880589032
20
1.64592110995312
30
0
41
1
10
20.6934678410021
20
1.6140499798276
30
0
41
1
10
20.8367660436162
20
1.54826202997799
30
0
41
1
10
20.9086568914597
20
1.51430848272071
30
0
41
1
10
21.1239039938606
20
1.40999205104961
30
0
41
1
10
21.2671128437092
20
1.3370615124887
30
0
41
1
10
21.5535048803671
20
1.18517503797486
30
0
41
1
10
21.6966797867143
20
1.10620824908332
30
0
41
1
10
21.9118225103554
20
0.983753055259342
30
0
41
1
10
21.9836645048806
20
0.942230024603703
30
0
41
1
10
22.1271908650333
20
0.858157437229778
30
0
41
1
10
22.3422058833568
20
0.730535542564866
30
0
41
1
10
22.6282541655839
20
0.555016389602969
30
0
41
1
10
22.8788023468128
20
0.397979954636526
30
0
41
1
10
22.9863222064397
20
0.330069333475876
30
0
41
1
10
23.0580432849263
20
0.284674645148812
30
0
41
1
10
23.0939479823754
20
0.261901850140902
30
0
41
1
10
23.4167396249774
20
0.0568352540745423
30
0
41
1
10
23.7006569102267
20
-0.125898411451146
30
0
41
1
10
24.2671998242469
20
-0.484952530149826
30
0
41
1
10
24.5498583554166
20
-0.661223131569358
30
0
41
1
10
24.9762294000407
20
-0.915582128059867
30
0
41
1
10
25.118749258504
20
-0.998694375441374
30
0
41
1
10
25.33357689393
20
-1.12013687283058
30
0
41
1
10
25.4053962209352
20
-1.16009653902006
30
0
41
1
10
25.5486954749851
20
-1.23840245354609
30
0
41
1
10
25.7634148332321
20
-1.3536002190784
30
0
41
1
10
25.9777764919247
20
-1.46161248137045
30
0
41
1
10
26.1923507433108
20
-1.56427551415229
30
0
41
1
10
26.2639110952179
20
-1.59760468945984
30
0
41
1
10
26.4071791843104
20
-1.66238396979554
30
0
41
1
10
26.4789480647985
20
-1.69385904825523
30
0
41
1
10
26.8372510388911
20
-1.84583994118287
30
0
41
1
10
27.122552979235
20
-1.95042445131654
30
0
41
1
10
27.4447140540121
20
-2.04656621848355
30
0
41
1
10
27.4805268152888
20
-2.05694927201702
30
0
41
1
10
27.5521965748958
20
-2.07710767503528
30
0
41
1
10
27.5880688167585
20
-2.08688674075225
30
0
41
1
10
27.6955196788365
20
-2.11523542039862
30
0
41
1
10
27.7670016765802
20
-2.13283696967753
30
0
41
1
10
27.9811122193711
20
-2.18172522278499
30
0
41
1
10
28.123408319037
20
-2.2090970499703
30
0
41
1
10
28.5497480053111
20
-2.27540603495154
30
0
41
1
10
28.8332240556872
20
-2.2985480808459
30
0
41
1
10
29.1182679696986
20
-2.29989063565529
30
0
0
SPLINE
5
FC
100
AcDbEntity
8
1
62
256
6
ByLayer
370
18
48
1
60
0
100
AcDbSpline
70
4
71
3
72
10
73
6
40
0
40
0
40
0
40
0
40
0.5
40
0.5
40
1
40
1
40
1
40
1
41
1
10
29.1035084806954
20
-2.28470161974173
30
0
41
1
10
29.1059616325193
20
-2.28955928710883
30
0
41
1
10
29.108417023225
20
-2.29325673732049
30
0
41
1
10
29.1133382660529
20
-2.29832543681675
30
0
41
1
10
29.1158060623487
20
-2.29969427804417
30
0
41
1
10
29.1182679696985
20
-2.29989063565529
30
0
0
SPLINE
5
FD
100
AcDbEntity
8
1
62
256
6
ByLayer
370
18
48
1
60
0
100
AcDbSpline
70
4
71
3
72
63
73
59
40
0
40
0
40
0
40
0
40
0.0787231099619395
40
0.0787231099619395
40
0.0984038874524237
40
0.0984038874524237
40
0.118084664942908
40
0.118084664942908
40
0.157446219923874
40
0.157446219923874
40
0.196807774904839
40
0.196807774904839
40
0.236169329885805
40
0.236169329885805
40
0.314892439847739
40
0.314892439847739
40
0.334573217338223
40
0.334573217338223
40
0.354253994828708
40
0.354253994828708
40
0.393615549809676
40
0.393615549809676
40
0.413296327300161
40
0.413296327300161
40
0.432977104790646
40
0.432977104790646
40
0.472338659771615
40
0.472338659771615
40
0.511700214752585
40
0.511700214752585
40
0.53138099224307
40
0.53138099224307
40
0.551061769733555
40
0.551061769733555
40
0.629784879695492
40
0.629784879695492
40
0.66914643467646
40
0.66914643467646
40
0.708507989657428
40
0.708507989657428
40
0.747869544638395
40
0.747869544638395
40
0.757709933383638
40
0.757709933383638
40
0.76755032212888
40
0.787231099619364
40
0.787231099619364
40
0.865954209581303
40
0.865954209581303
40
0.944677319543241
40
0.944677319543241
40
0.954517708288483
40
0.954517708288483
40
0.964358097033726
40
0.964358097033726
40
0.984038874524211
40
0.984038874524211
40
1
40
1
40
1
40
1
41
1
10
29.1035084807057
20
-2.28470161974153
30
0
41
1
10
28.818398232934
20
-2.26312101714211
30
0
41
1
10
28.5350883123717
20
-2.21993275204272
30
0
41
1
10
28.1803497817503
20
-2.14079410805735
30
0
41
1
10
28.109388165089
20
-2.1237000423148
30
0
41
1
10
27.9674656041924
20
-2.08694017595775
30
0
41
1
10
27.8964883058894
20
-2.06728182069301
30
0
41
1
10
27.6832585065864
20
-2.00460615390082
30
0
41
1
10
27.5407340143622
20
-1.9578734689886
30
0
41
1
10
27.2542612805358
20
-1.85487434617048
30
0
41
1
10
27.1115775292812
20
-1.79906380244853
30
0
41
1
10
26.8269156420394
20
-1.67965341934161
30
0
41
1
10
26.6849045768639
20
-1.61604491598496
30
0
41
1
10
26.2590206559396
20
-1.41453756356191
30
0
41
1
10
25.9757957581763
20
-1.26532710023244
30
0
41
1
10
25.6189070533752
20
-1.06463054681845
30
0
41
1
10
25.5473802381712
20
-1.02376928921956
30
0
41
1
10
25.4040316494133
20
-0.940727546991184
30
0
41
1
10
25.3325444378787
20
-0.898741335552188
30
0
41
1
10
25.1185354566501
20
-0.771559903320394
30
0
41
1
10
24.9764609812344
20
-0.685150206179429
30
0
41
1
10
24.7638170135459
20
-0.553784898058041
30
0
41
1
10
24.6930193570359
20
-0.509695887209944
30
0
41
1
10
24.5515713395107
20
-0.420948570033431
30
0
41
1
10
24.4809133038725
20
-0.376302001403957
30
0
41
1
10
24.2689266295073
20
-0.241874122697624
30
0
41
1
10
24.127603343936
20
-0.15157714271723
30
0
41
1
10
23.8444012444192
20
0.0294908599280745
30
0
41
1
10
23.7025185341606
20
0.120255494176917
30
0
41
1
10
23.4888757375959
20
0.256125764099409
30
0
41
1
10
23.4175274224494
20
0.301373615751743
30
0
41
1
10
23.274535606002
20
0.39174630942631
30
0
41
1
10
23.2027727052045
20
0.436936342586449
30
0
41
1
10
22.8451444259641
20
0.660539744135548
30
0
41
1
10
22.5617044991345
20
0.832701067301883
30
0
41
1
10
22.1372828531784
20
1.07649628521727
30
0
41
1
10
21.9959386641435
20
1.15535960608796
30
0
41
1
10
21.7129807497496
20
1.30753329628055
30
0
41
1
10
21.5713668045989
20
1.38084011829992
30
0
41
1
10
21.2871191501421
20
1.5208606169663
30
0
41
1
10
21.1444872832086
20
1.58757992462674
30
0
41
1
10
20.965215206497
20
1.66637888256673
30
0
41
1
10
20.9293141069848
20
1.68190673859422
30
0
41
1
10
20.8576628732415
20
1.71238170964034
30
0
41
1
10
20.7503156770251
20
1.7572660341589
30
0
41
1
10
20.6433168954972
20
1.79964501844179
30
0
41
1
10
20.2872556960113
20
1.93524662557462
30
0
41
1
10
20.0045744064905
20
2.02583405467584
30
0
41
1
10
19.438510769119
20
2.1677060319617
30
0
41
1
10
19.1552277083
20
2.21905784750283
30
0
41
1
10
18.8334205476365
20
2.25287735455746
30
0
41
1
10
18.7976206265456
20
2.25630244137773
30
0
41
1
10
18.7259259990878
20
2.26248123788005
30
0
41
1
10
18.6900039723102
20
2.26523639010318
30
0
41
1
10
18.5824363363804
20
2.27246356331184
30
0
41
1
10
18.5109073876785
20
2.27590667111161
30
0
41
1
10
18.3816416887228
20
2.27967906065658
30
0
41
1
10
18.3238524915066
20
2.28047410337174
30
0
41
1
10
18.2661531410627
20
2.28038043279938
30
0
0
SPLINE
5
FE
100
AcDbEntity
8
1
62
256
6
ByLayer
370
18
48
1
60
0
100
AcDbSpline
70
4
71
3
72
55
73
51
40
0
40
0
40
0
40
0
40
0.0388369653785973
40
0.0388369653785973
40
0.0989096550424379
40
0.0989096550424379
40
0.158982344706279
40
0.158982344706279
40
0.1890186895382
40
0.1890186895382
40
0.219055034370121
40
0.219055034370121
40
0.249091379202042
40
0.249091379202042
40
0.279127724033964
40
0.279127724033964
40
0.339200413697804
40
0.339200413697804
40
0.369236758529725
40
0.369236758529725
40
0.399273103361647
40
0.399273103361647
40
0.45934579302549
40
0.45934579302549
40
0.519418482689332
40
0.519418482689332
40
0.549454827521253
40
0.564472999937211
40
0.564472999937211
40
0.57949117235317
40
0.57949117235317
40
0.609527517185089
40
0.609527517185089
40
0.639563862017007
40
0.639563862017007
40
0.699636551680839
40
0.699636551680839
40
0.759709241344671
40
0.759709241344671
40
0.819781931008503
40
0.819781931008503
40
0.849818275840419
40
0.849818275840419
40
0.879854620672336
40
0.879854620672336
40
0.909890965504252
40
0.909890965504252
40
0.939927310336168
40
0.939927310336168
40
1
40
1
40
1
40
1
41
1
10
22.0632123940756
20
2.20070923442518
30
0
41
1
10
22.1542599029562
20
2.21674234865429
30
0
41
1
10
22.2451783438181
20
2.23058383148077
30
0
41
1
10
22.4766758463168
20
2.26024998837286
30
0
41
1
10
22.6171761883738
20
2.27305654356186
30
0
41
1
10
22.8981022015157
20
2.28829369751685
30
0
41
1
10
23.0384985115014
20
2.29072883400571
30
0
41
1
10
23.2490847684027
20
2.28635865199473
30
0
41
1
10
23.3193124698996
20
2.28355928285629
30
0
41
1
10
23.4601343883349
20
2.27528971500718
30
0
41
1
10
23.5307168965324
20
2.26982096722611
30
0
41
1
10
23.6723214728587
20
2.25624021497174
30
0
41
1
10
23.7433352699554
20
2.24812807756857
30
0
41
1
10
23.8857680362423
20
2.22923733913956
30
0
41
1
10
23.9568760693483
20
2.21849851682163
30
0
41
1
10
24.1695760853046
20
2.18249592215139
30
0
41
1
10
24.3106510636132
20
2.15343052390045
30
0
41
1
10
24.5211376433501
20
2.10216295760586
30
0
41
1
10
24.5911425000378
20
2.08380508377849
30
0
41
1
10
24.7312501036058
20
2.04484079402306
30
0
41
1
10
24.8013360570627
20
2.02422800949625
30
0
41
1
10
25.0117275655881
20
1.95908476898489
30
0
41
1
10
25.1521537804758
20
1.91125140730659
30
0
41
1
10
25.4333654588271
20
1.8068532889755
30
0
41
1
10
25.5741543109284
20
1.75028642944684
30
0
41
1
10
25.7858065840551
20
1.65888981660024
30
0
41
1
10
25.8917531912991
20
1.61155435617076
30
0
41
1
10
25.9979936730174
20
1.56183638153684
30
0
41
1
10
26.0688979742713
20
1.52816975371593
30
0
41
1
10
26.1044114471036
20
1.51106438800292
30
0
41
1
10
26.2107195246437
20
1.45915889008185
30
0
41
1
10
26.2813831067913
20
1.42372035637291
30
0
41
1
10
26.4225522444076
20
1.35152556716022
30
0
41
1
10
26.4930588368982
20
1.31477231046961
30
0
41
1
10
26.7043614792351
20
1.20260293338686
30
0
41
1
10
26.8449388852784
20
1.12527802145857
30
0
41
1
10
27.1257464976282
20
0.965940282359185
30
0
41
1
10
27.2659749753543
20
0.883923168446586
30
0
41
1
10
27.5464474614246
20
0.715694753011775
30
0
41
1
10
27.6866953678823
20
0.629487405524884
30
0
41
1
10
27.897487899187
20
0.497574419954475
30
0
41
1
10
27.9678124393849
20
0.453153115385902
30
0
41
1
10
28.1088377453511
20
0.363804185131016
30
0
41
1
10
28.1795527325159
20
0.318901055152765
30
0
41
1
10
28.3213846573903
20
0.228629027908085
30
0
41
1
10
28.3925443504461
20
0.183220636456184
30
0
41
1
10
28.5345845630152
20
0.092430279289573
30
0
41
1
10
28.6055479397728
20
0.0469972160886414
30
0
41
1
10
28.8183402247902
20
-0.0893027939906972
30
0
41
1
10
28.9600674626666
20
-0.180176654223345
30
0
41
1
10
29.1018933080715
20
-0.270692329688643
30
0
0
SPLINE
5
FF
100
AcDbEntity
8
1
62
256
6
ByLayer
370
18
48
1
60
0
100
AcDbSpline
70
4
71
3
72
11
73
7
40
0
40
0
40
0
40
0
40
0.25
40
0.25
40
0.5
40
1
40
1
40
1
40
1
41
1
10
29.1018933080674
20
-0.270692329690576
30
0
41
1
10
29.1043167827066
20
-0.245636044258134
30
0
41
1
10
29.106876070944
20
-0.220466721157607
30
0
41
1
10
29.1122403073781
20
-0.170316263639023
30
0
41
1
10
29.1206691185015
20
-0.0952237199859667
30
0
41
1
10
29.1303040745006
20
-0.0205362440278805
30
0
41
1
10
29.1373188077783
20
0.0290687907311451
30
0
0
SPLINE
5
100
100
AcDbEntity
8
1
62
256
6
ByLayer
370
18
48
1
60
0
100
AcDbSpline
70
4
71
3
72
48
73
44
40
0
40
0
40
0
40
0
40
0.0607754913998887
40
0.0607754913998887
40
0.0911632370998331
40
0.0911632370998331
40
0.121550982799777
40
0.121550982799777
40
0.182326474199672
40
0.182326474199672
40
0.243101965599566
40
0.243101965599566
40
0.30387745699946
40
0.30387745699946
40
0.334265202699407
40
0.334265202699407
40
0.34945907554938
40
0.34945907554938
40
0.364652948399354
40
0.364652948399354
40
0.425428439799248
40
0.425428439799248
40
0.486203931199142
40
0.486203931199142
40
0.546979422599031
40
0.546979422599031
40
0.60775491399892
40
0.60775491399892
40
0.668530405398808
40
0.668530405398808
40
0.729305896798697
40
0.729305896798697
40
0.759693642498643
40
0.759693642498643
40
0.790081388198588
40
0.790081388198588
40
0.850856879598482
40
0.850856879598482
40
0.911632370998376
40
0.911632370998376
40
0.97240786239827
40
0.97240786239827
40
1
40
1
40
1
40
1
41
1
10
29.1373188077783
20
0.0290687907311167
30
0
41
1
10
29.0243563425916
20
0.101813955392174
30
0
41
1
10
28.9116767895852
20
0.174189666135476
30
0
41
1
10
28.7429278758855
20
0.28197575056484
30
0
41
1
10
28.68673331197
20
0.317790715958978
30
0
41
1
10
28.5744764405248
20
0.38922743704552
30
0
41
1
10
28.5184069543237
20
0.424837577262906
30
0
41
1
10
28.350215649959
20
0.531094310598661
30
0
41
1
10
28.2380819402629
20
0.601123222250607
30
0
41
1
10
28.0135277849153
20
0.739151880628611
30
0
41
1
10
27.9010776703914
20
0.807108125560092
30
0
41
1
10
27.6757940845323
20
0.940837248584813
30
0
41
1
10
27.5630614596298
20
1.0067550678605
30
0
41
1
10
27.3932687297653
20
1.1033702718577
30
0
41
1
10
27.3365588824666
20
1.13520392547042
30
0
41
1
10
27.2513002858957
20
1.1823583738919
30
0
41
1
10
27.2228296951829
20
1.19798723865137
30
0
41
1
10
27.1659628149947
20
1.22896135549266
30
0
41
1
10
27.1375562285858
20
1.2443124659969
30
0
41
1
10
26.9956455471742
20
1.32037802859927
30
0
41
1
10
26.882471937678
20
1.37898155912359
30
0
41
1
10
26.6569618861725
20
1.49194192257741
30
0
41
1
10
26.54458497318
20
1.54623187711579
30
0
41
1
10
26.3199107452312
20
1.64968049531356
30
0
41
1
10
26.2076606918472
20
1.69890074123904
30
0
41
1
10
25.9830580582984
20
1.79208363940452
30
0
41
1
10
25.870733418898
20
1.83608050564368
30
0
41
1
10
25.6460497805693
20
1.91883563273365
30
0
41
1
10
25.5335657911737
20
1.95747042624674
30
0
41
1
10
25.3078467680864
20
2.02881556704216
30
0
41
1
10
25.1946317968372
20
2.06154679163643
30
0
41
1
10
25.0241060313422
20
2.10604725508088
30
0
41
1
10
24.967084547429
20
2.12013572128862
30
0
41
1
10
24.8534425020187
20
2.1466512950127
30
0
41
1
10
24.7967670524664
20
2.15908838125671
30
0
41
1
10
24.627013332532
20
2.19386466890555
30
0
41
1
10
24.5141719301195
20
2.21365459848951
30
0
41
1
10
24.2888485816225
20
2.24647539625906
30
0
41
1
10
24.1763394488349
20
2.2595021139457
30
0
41
1
10
23.9515795203789
20
2.2788468917193
30
0
41
1
10
23.8394384246433
20
2.28517205322277
30
0
41
1
10
23.6762058294152
20
2.28940024888036
30
0
41
1
10
23.6252137219178
20
2.29001860067439
30
0
41
1
10
23.574185385279
20
2.28993504501687
30
0
0
SPLINE
5
101
100
AcDbEntity
8
1
62
256
6
ByLayer
370
18
48
1
60
0
100
AcDbSpline
70
4
71
3
72
58
73
54
40
0
40
0
40
0
40
0
40
0.0206552246834061
40
0.0206552246834061
40
0.0651708962887048
40
0.0651708962887048
40
0.109686567894003
40
0.109686567894003
40
0.154202239499302
40
0.154202239499302
40
0.176460075301952
40
0.176460075301952
40
0.198717911104602
40
0.198717911104602
40
0.243233582709903
40
0.243233582709903
40
0.287749254315204
40
0.287749254315204
40
0.332264925920504
40
0.332264925920504
40
0.376780597525805
40
0.376780597525805
40
0.421296269131105
40
0.421296269131105
40
0.465811940736406
40
0.465811940736406
40
0.488069776539056
40
0.488069776539056
40
0.510327612341706
40
0.510327612341706
40
0.554843283947007
40
0.554843283947007
40
0.599358955552307
40
0.599358955552307
40
0.643874627157608
40
0.643874627157608
40
0.666132462960259
40
0.666132462960259
40
0.68839029876291
40
0.68839029876291
40
0.732905970368211
40
0.732905970368211
40
0.755163806170861
40
0.755163806170861
40
0.777421641973511
40
0.777421641973511
40
0.82193731357881
40
0.82193731357881
40
0.910968656789405
40
0.910968656789405
40
0.955484328394703
40
0.955484328394703
40
1
40
1
40
1
40
1
41
1
10
15.0734734947951
20
-1.64667701403056
30
0
41
1
10
15.0212268162046
20
-1.66955278300338
30
0
41
1
10
14.9689893706346
20
-1.69187811227579
30
0
41
1
10
14.8041574173928
20
-1.76054434758828
30
0
41
1
10
14.691558717184
20
-1.80485473057351
30
0
41
1
10
14.4664319388821
20
-1.88832433327036
30
0
41
1
10
14.3537762968385
20
-1.92735248122943
30
0
41
1
10
14.1277642039917
20
-1.99951238863289
30
0
41
1
10
14.0144371132003
20
-2.03267386276986
30
0
41
1
10
13.8437893644628
20
-2.07785765347697
30
0
41
1
10
13.7868045458847
20
-2.09216467197342
30
0
41
1
10
13.67266602833
20
-2.11927018527163
30
0
41
1
10
13.6157221181798
20
-2.13201490222292
30
0
41
1
10
13.4452494398548
20
-2.16770740965151
30
0
41
1
10
13.3319679568015
20
-2.18810917684223
30
0
41
1
10
13.1058249760978
20
-2.22215818007425
30
0
41
1
10
12.9929401408496
20
-2.23580257569606
30
0
41
1
10
12.7674902024345
20
-2.25640429554639
30
0
41
1
10
12.6550493846006
20
-2.26337384999133
30
0
41
1
10
12.4300071616053
20
-2.27050404724406
30
0
41
1
10
12.3174022779295
20
-2.27067631216178
30
0
41
1
10
12.0917695038192
20
-2.26424849971502
30
0
41
1
10
11.9786976300669
20
-2.25766194916977
30
0
41
1
10
11.7521927528914
20
-2.2376171443951
30
0
41
1
10
11.6387543852747
20
-2.22413599319876
30
0
41
1
10
11.4677367886535
20
-2.19878616700251
30
0
41
1
10
11.4105828290204
20
-2.18947384969758
30
0
41
1
10
11.2966329173765
20
-2.16926124393018
30
0
41
1
10
11.2397559129085
20
-2.15834990129611
30
0
41
1
10
11.0693625202671
20
-2.12326035809355
30
0
41
1
10
10.9561002545454
20
-2.09672625284739
30
0
41
1
10
10.7303177426559
20
-2.03737339880945
30
0
41
1
10
10.6176648598271
20
-2.00463002760222
30
0
41
1
10
10.3923295958585
20
-1.93345007549104
30
0
41
1
10
10.2796747676329
20
-1.89499771619987
30
0
41
1
10
10.1105491659627
20
-1.83319082663107
30
0
41
1
10
10.0541578099047
20
-1.8118937424602
30
0
41
1
10
9.94138288047722
20
-1.76786012531406
30
0
41
1
10
9.88499708153637
20
-1.74512413995401
30
0
41
1
10
9.7156742343158
20
-1.67491163333179
30
0
41
1
10
9.60252613322257
20
-1.62548170701675
30
0
41
1
10
9.43217629100934
20
-1.54762553876458
30
0
41
1
10
9.37529012418602
20
-1.52105290973023
30
0
41
1
10
9.26127561279995
20
-1.46670022875836
30
0
41
1
10
9.20407380473389
20
-1.43888690432726
30
0
41
1
10
9.03270811340832
20
-1.35390835783625
30
0
41
1
10
8.91890706854028
20
-1.29517620171504
30
0
41
1
10
8.57806105421622
20
-1.11380365722661
30
0
41
1
10
8.35151090742525
20
-0.986101934095643
30
0
41
1
10
8.01161518871058
20
-0.785931039369927
30
0
41
1
10
7.89824808606582
20
-0.717846224179993
30
0
41
1
10
7.67075747218615
20
-0.579891642634692
30
0
41
1
10
7.55667697498444
20
-0.509959519877498
30
0
41
1
10
7.4421377135545
20
-0.439262162026381
30
0
0
SPLINE
5
102
100
AcDbEntity
8
1
62
256
6
ByLayer
370
18
48
1
60
0
100
AcDbSpline
70
4
71
3
72
42
73
38
40
0
40
0
40
0
40
0
40
0.062499999999999
40
0.062499999999999
40
0.124999999999998
40
0.124999999999998
40
0.249999999999994
40
0.249999999999994
40
0.281249999999994
40
0.281249999999994
40
0.296874999999995
40
0.296874999999995
40
0.312499999999995
40
0.312499999999995
40
0.375000000000001
40
0.375000000000001
40
0.437500000000007
40
0.437500000000007
40
0.500000000000013
40
0.500000000000013
40
0.562500000000019
40
0.562500000000019
40
0.625000000000025
40
0.625000000000025
40
0.656250000000028
40
0.656250000000028
40
0.671875000000028
40
0.671875000000028
40
0.687500000000029
40
0.687500000000029
40
0.750000000000023
40
0.750000000000023
40
0.875000000000011
40
0.875000000000011
40
0.937500000000006
40
0.937500000000006
40
1
40
1
40
1
40
1
41
1
10
9.09653801690411
20
1.71468975787383
30
0
41
1
10
9.22917887270609
20
1.66013681703944
30
0
41
1
10
9.36124373219934
20
1.60226907077629
30
0
41
1
10
9.62461929545145
20
1.48044361429905
30
0
41
1
10
9.75592939347618
20
1.4164817305612
30
0
41
1
10
10.1496145558452
20
1.21660974119089
30
0
41
1
10
10.4117057624035
20
1.07268303948845
30
0
41
1
10
10.7410042796513
20
0.882241375005492
30
0
41
1
10
10.806956102668
20
0.843637336774208
30
0
41
1
10
10.906064003868
20
0.78501273398598
30
0
41
1
10
10.9391296042365
20
0.765350843008093
30
0
41
1
10
11.0053237255901
20
0.725790028997523
30
0
41
1
10
11.0384768192218
20
0.705876054123507
30
0
41
1
10
11.2039933941826
20
0.605994811995117
30
0
41
1
10
11.335747707379
20
0.525015868699455
30
0
41
1
10
11.5984249140366
20
0.361689890672921
30
0
41
1
10
11.7293628352916
20
0.279366921858525
30
0
41
1
10
11.9909474875078
20
0.114218891503754
30
0
41
1
10
12.1215441912289
20
0.031313671542847
30
0
41
1
10
12.3827909217175
20
-0.134446626561868
30
0
41
1
10
12.5134309651384
20
-0.21731772347016
30
0
41
1
10
12.775317771382
20
-0.382122714170407
30
0
41
1
10
12.9065603419055
20
-0.464063301051624
30
0
41
1
10
13.1041165588971
20
-0.585891030780033
30
0
41
1
10
13.1700885518561
20
-0.626312489933383
30
0
41
1
10
13.2692726939752
20
-0.686588848388482
30
0
41
1
10
13.3023992875074
20
-0.706638182795871
30
0
41
1
10
13.3685663691822
20
-0.746503706154016
30
0
41
1
10
13.401608861716
20
-0.766321355294991
30
0
41
1
10
13.5666398334847
20
-0.864802656345404
30
0
41
1
10
13.698119434638
20
-0.94159241582912
30
0
41
1
10
14.091480500258
20
-1.16532384686022
30
0
41
1
10
14.3521875445759
20
-1.30574759322175
30
0
41
1
10
14.7440179284322
20
-1.49931831530139
30
0
41
1
10
14.874723407904
20
-1.56104291584336
30
0
41
1
10
15.1367262287761
20
-1.67835346200994
30
0
41
1
10
15.268024075228
20
-1.73393653444143
30
0
41
1
10
15.3998914713608
20
-1.78609296285771
30
0
0
SPLINE
5
103
100
AcDbEntity
8
1
62
256
6
ByLayer
370
18
48
1
60
0
100
AcDbSpline
70
4
71
3
72
23
73
19
40
0
40
0
40
0
40
0
40
0.0870019159423287
40
0.0870019159423287
40
0.174003831884657
40
0.348007663769315
40
0.348007663769315
40
0.435009579711646
40
0.435009579711646
40
0.522011495653978
40
0.522011495653978
40
0.696015327538635
40
0.696015327538635
40
0.870019159423292
40
0.870019159423292
40
0.95702107536562
40
0.95702107536562
40
1
40
1
40
1
40
1
41
1
10
15.3998914713509
20
-1.75372959440659
30
0
41
1
10
15.4717837462412
20
-1.78292405059085
30
0
41
1
10
15.5437225914405
20
-1.81106556516104
30
0
41
1
10
15.6874250774434
20
-1.86506028093424
30
0
41
1
10
15.9027583895781
20
-1.94263929386926
30
0
41
1
10
16.1177238408261
20
-2.00977453686499
30
0
41
1
10
16.3328683172319
20
-2.06961503425535
30
0
41
1
10
16.4046133619126
20
-2.08834546842908
30
0
41
1
10
16.5482391606459
20
-2.12331231823154
30
0
41
1
10
16.6201728008525
20
-2.13955829979324
30
0
41
1
10
16.8356302099913
20
-2.18432981193413
30
0
41
1
10
16.9789596963374
20
-2.20893271007031
30
0
41
1
10
17.2656260187449
20
-2.24745114912721
30
0
41
1
10
17.4089691653825
20
-2.26136653986657
30
0
41
1
10
17.6244203409774
20
-2.27407924511084
30
0
41
1
10
17.6963520732398
20
-2.27695560015636
30
0
41
1
10
17.8036297465191
20
-2.27919686946339
30
0
41
1
10
17.8390829028687
20
-2.27960320660489
30
0
41
1
10
17.8745215779026
20
-2.27967538078164
30
0
0
SPLINE
5
104
100
AcDbEntity
8
1
62
256
6
ByLayer
370
18
48
1
60
0
100
AcDbSpline
70
4
71
3
72
16
73
12
40
0
40
0
40
0
40
0
40
0.0088541404010273
40
0.0088541404010273
40
0.074930531040957
40
0.074930531040957
40
0.207083312320818
40
0.207083312320818
40
0.47138887488054
40
0.47138887488054
40
1
40
1
40
1
40
1
41
1
10
27.5019574088583
20
2.06296032167504
30
0
41
1
10
27.506758448523
20
2.06432182094358
30
0
41
1
10
27.5115598732318
20
2.06567787515922
30
0
41
1
10
27.5521965748958
20
2.07710767503525
30
0
41
1
10
27.5880688167584
20
2.08688674075225
30
0
41
1
10
27.6955196788364
20
2.11523542039862
30
0
41
1
10
27.7670016765801
20
2.13283696967753
30
0
41
1
10
27.9811122193711
20
2.18172522278499
30
0
41
1
10
28.123408319037
20
2.2090970499703
30
0
41
1
10
28.5497480053111
20
2.27540603495154
30
0
41
1
10
28.8332240556872
20
2.2985480808459
30
0
41
1
10
29.1182679696985
20
2.29989063565529
30
0
0
SPLINE
5
105
100
AcDbEntity
8
1
62
256
6
ByLayer
370
18
48
1
60
0
100
AcDbSpline
70
4
71
3
72
8
73
4
40
0
40
0
40
0
40
0
40
1
40
1
40
1
40
1
41
1
10
29.1402113658411
20
-0.291941550128996
30
0
41
1
10
29.1294227256928
20
-0.285411068970063
30
0
41
1
10
29.1186356664791
20
-0.278878972376447
30
0
41
1
10
29.1078501086417
20
-0.27234539634901
30
0
0
SPLINE
5
106
100
AcDbEntity
8
1
62
256
6
ByLayer
370
18
48
1
60
0
100
AcDbSpline
70
4
71
3
72
44
73
40
40
0
40
0
40
0
40
0
40
0.124236789033495
40
0.124236789033495
40
0.159531323956343
40
0.159531323956343
40
0.194825858879191
40
0.194825858879191
40
0.212473126340616
40
0.212473126340616
40
0.230120393802039
40
0.230120393802039
40
0.265414928724888
40
0.265414928724888
40
0.406593068416281
40
0.406593068416281
40
0.441887603339126
40
0.441887603339126
40
0.477182138261972
40
0.477182138261972
40
0.547771208107661
40
0.547771208107661
40
0.618360277953349
40
0.618360277953349
40
0.688949347799038
40
0.688949347799038
40
0.724243882721883
40
0.724243882721883
40
0.759538417644727
40
0.759538417644727
40
0.830127487490416
40
0.830127487490416
40
0.900716557336105
40
0.900716557336105
40
0.93601109225895
40
0.93601109225895
40
0.971305627181795
40
0.971305627181795
40
1
40
1
40
1
40
1
41
1
10
29.0380472234954
20
-0.230029324622279
30
0
41
1
10
28.7884155830326
20
-0.0785908638800947
30
0
41
1
10
28.5394970556012
20
0.0734836221697321
30
0
41
1
10
28.2195099590108
20
0.267408856733624
30
0
41
1
10
28.1486948269335
20
0.310228705441148
30
0
41
1
10
28.006998434518
20
0.395651306243479
30
0
41
1
10
27.9361151015578
20
0.438250580014426
30
0
41
1
10
27.8295855757316
20
0.501747514605682
30
0
41
1
10
27.7940414041183
20
0.52284580797712
30
0
41
1
10
27.7228779605378
20
0.564897049280205
30
0
41
1
10
27.687241057921
20
0.585860254158519
30
0
41
1
10
27.5804914685298
20
0.648350865687917
30
0
41
1
10
27.5094612398638
20
0.689526093803181
30
0
41
1
10
27.1548623818168
20
0.892815965807642
30
0
41
1
10
26.8729502975804
20
1.04718494277509
30
0
41
1
10
26.5214630560711
20
1.22619600402055
30
0
41
1
10
26.4512114994983
20
1.26130426410194
30
0
41
1
10
26.3107656671802
20
1.32998349986437
30
0
41
1
10
26.2405776569425
20
1.36354847188363
30
0
41
1
10
26.0297986942207
20
1.46184133157425
30
0
41
1
10
25.8889598081855
20
1.5241688534968
30
0
41
1
10
25.6060890633262
20
1.64207405375311
30
0
41
1
10
25.4640512982105
20
1.69766636328714
30
0
41
1
10
25.1784760456028
20
1.80120846979321
30
0
41
1
10
25.0363669083464
20
1.84865283081203
30
0
41
1
10
24.8243461912172
20
1.91244026114089
30
0
41
1
10
24.75385987159
20
1.93247545275869
30
0
41
1
10
24.6132153231094
20
1.96995649000652
30
0
41
1
10
24.5430780016248
20
1.98735462198633
30
0
41
1
10
24.3326273446974
20
2.03635838822143
30
0
41
1
10
24.1921143759166
20
2.06506678999395
30
0
41
1
10
23.9108363497167
20
2.11334267400079
30
0
41
1
10
23.7701068706702
20
2.13291114456183
30
0
41
1
10
23.5588156963565
20
2.15399356223139
30
0
41
1
10
23.4883591395188
20
2.15962088444616
30
0
41
1
10
23.3472949585374
20
2.1680610375596
30
0
41
1
10
23.2766909391847
20
2.17083322084923
30
0
41
1
10
23.1483775212837
20
2.17372491692859
30
0
41
1
10
23.0907149482655
20
2.17429895596732
30
0
41
1
10
23.0329138731394
20
2.17414637050678
30
0
0
SPLINE
5
107
100
AcDbEntity
8
1
62
256
6
ByLayer
370
18
48
1
60
0
100
AcDbSpline
70
4
71
3
72
45
73
41
40
0
40
0
40
0
40
0
40
0.0237309093329493
40
0.0237309093329493
40
0.0988285316919443
40
0.0988285316919443
40
0.173926154050939
40
0.173926154050939
40
0.211474965230438
40
0.211474965230438
40
0.249023776409937
40
0.249023776409937
40
0.324121398768934
40
0.324121398768934
40
0.399219021127932
40
0.399219021127932
40
0.47431664348693
40
0.47431664348693
40
0.511865454666427
40
0.511865454666427
40
0.549414265845924
40
0.549414265845924
40
0.62451188820492
40
0.643286293794671
40
0.643286293794671
40
0.662060699384422
40
0.662060699384422
40
0.69960951056393
40
0.69960951056393
40
0.774707132922952
40
0.774707132922952
40
0.81225594410246
40
0.81225594410246
40
0.849804755281968
40
0.849804755281968
40
0.924902377640984
40
0.962451188820489
40
0.981225594410245
40
0.981225594410245
40
1
40
1
40
1
40
1
41
1
10
23.4956105792328
20
0.250902360559706
30
0
41
1
10
23.5402649505218
20
0.224005805690609
30
0
41
1
10
23.5849171182742
20
0.197053909117272
30
0
41
1
10
23.7708706490633
20
0.0845861273062098
30
0
41
1
10
23.9121853101642
20
-0.0013792532120078
30
0
41
1
10
24.1953723864473
20
-0.173407972310059
30
0
41
1
10
24.3372438267296
20
-0.259476787941452
30
0
41
1
10
24.550930822829
20
-0.38791105096584
30
0
41
1
10
24.6223108817845
20
-0.430599585746563
30
0
41
1
10
24.7654644309774
20
-0.515558705675062
30
0
41
1
10
24.8373554621794
20
-0.557914782415025
30
0
41
1
10
25.0522654973955
20
-0.683526127390081
30
0
41
1
10
25.1947909620804
20
-0.765456831403668
30
0
41
1
10
25.4789763323028
20
-0.924959603329967
30
0
41
1
10
25.6206310838112
20
-1.00253303784641
30
0
41
1
10
25.9035824305767
20
-1.15255303488155
30
0
41
1
10
26.04487765036
20
-1.22499665246153
30
0
41
1
10
26.2569821496204
20
-1.32914105263299
30
0
41
1
10
26.3277184444847
20
-1.36310635086869
30
0
41
1
10
26.4693835232354
20
-1.42947111861477
30
0
41
1
10
26.5403015935724
20
-1.4618678996801
30
0
41
1
10
26.7532937572049
20
-1.55655152857594
30
0
41
1
10
26.9312084452145
20
-1.63128634234292
30
0
41
1
10
27.1100829524049
20
-1.70023804190311
30
0
41
1
10
27.1817187707464
20
-1.72734284444786
30
0
41
1
10
27.2176044980475
20
-1.74066623579188
30
0
41
1
10
27.3250645322125
20
-1.77978206812591
30
0
41
1
10
27.396525779807
20
-1.80475373428655
30
0
41
1
10
27.6104811015024
20
-1.87628771719048
30
0
41
1
10
27.7525474647348
20
-1.91946039065743
30
0
41
1
10
27.9652712996229
20
-1.97706227425417
30
0
41
1
10
28.0361258688149
20
-1.99508779791037
30
0
41
1
10
28.177885019348
20
-2.02890730163205
30
0
41
1
10
28.2487753968257
20
-2.04468074043697
30
0
41
1
10
28.4613777800664
20
-2.08829664064069
30
0
41
1
10
28.6738858679728
20
-2.1245632748396
30
0
41
1
10
28.9224072313347
20
-2.15367418403858
30
0
41
1
10
29.0291237551811
20
-2.16327367093265
30
0
41
1
10
29.1003230962586
20
-2.16902840474404
30
0
41
1
10
29.1359401926391
20
-2.1715535525509
30
0
41
1
10
29.1716116711871
20
-2.17381516837813
30
0
0
SPLINE
5
108
100
AcDbEntity
8
1
62
256
6
ByLayer
370
18
48
1
60
0
100
AcDbSpline
70
4
71
3
72
8
73
4
40
0
40
0
40
0
40
0
40
1
40
1
40
1
40
1
41
1
10
29.1716116711689
20
-2.17381516837815
30
0
41
1
10
29.1711664299326
20
-2.17307775342724
30
0
41
1
10
29.1707213714148
20
-2.1723042925469
30
0
41
1
10
29.1702764737847
20
-2.17149483658375
30
0
0
SPLINE
5
109
100
AcDbEntity
8
1
62
256
6
ByLayer
370
18
48
1
60
0
100
AcDbSpline
70
4
71
3
72
30
73
26
40
0
40
0
40
0
40
0
40
0.125
40
0.125
40
0.187500000000001
40
0.187500000000001
40
0.218750000000001
40
0.218750000000001
40
0.250000000000001
40
0.250000000000001
40
0.375000000000001
40
0.375000000000001
40
0.437500000000001
40
0.437500000000001
40
0.468750000000001
40
0.468750000000001
40
0.500000000000001
40
0.500000000000001
40
0.625
40
0.625
40
0.75
40
0.75
40
0.875
40
0.875
40
1
40
1
40
1
40
1
41
1
10
29.1402113658455
20
-0.291941550129252
30
0
41
1
10
29.1278279720689
20
-0.412196794660247
30
0
41
1
10
29.118663101997
20
-0.529694420205686
30
0
41
1
10
29.1081740093925
20
-0.701843813152919
30
0
41
1
10
29.1052273801011
20
-0.758540925942128
30
0
41
1
10
29.1014885265836
20
-0.8425335655661
30
0
41
1
10
29.100356084296
20
-0.870355403572347
30
0
41
1
10
29.0982987820887
20
-0.925641072496688
30
0
41
1
10
29.0973728345801
20
-0.953141181003616
30
0
41
1
10
29.0932300050521
20
-1.08932631568919
30
0
41
1
10
29.0914872969967
20
-1.19226784244989
30
0
41
1
10
29.0904180235563
20
-1.33800685784172
30
0
41
1
10
29.0903263593129
20
-1.38513325999057
30
0
41
1
10
29.0905456644526
20
-1.45361712943873
30
0
41
1
10
29.0906786369898
20
-1.47607699814321
30
0
41
1
10
29.0910625334169
20
-1.5202504259446
30
0
41
1
10
29.0913138640562
20
-1.54199159207425
30
0
41
1
10
29.092864974693
20
-1.6484928305521
30
0
41
1
10
29.0949916270633
20
-1.72526160845828
30
0
41
1
10
29.1013434682886
20
-1.86260772117703
30
0
41
1
10
29.1055675679983
20
-1.92320495481857
30
0
41
1
10
29.117281857321
20
-2.02742825526957
30
0
41
1
10
29.1246178722067
20
-2.06957186790083
30
0
41
1
10
29.1436593584102
20
-2.13489490866007
30
0
41
1
10
29.1553624363092
20
-2.15806090128237
30
0
41
1
10
29.1702764737847
20
-2.17149483658375
30
0
0
SPLINE
5
10A
100
AcDbEntity
8
1
62
256
6
ByLayer
370
18
48
1
60
0
100
AcDbSpline
70
4
71
3
72
69
73
65
40
0
40
0
40
0
40
0
40
0.0011925310408611
40
0.0011925310408611
40
0.0363557371069611
40
0.0363557371069611
40
0.0539373401400111
40
0.0539373401400111
40
0.0715189431730611
40
0.0715189431730611
40
0.106682149239161
40
0.106682149239161
40
0.111077549997423
40
0.113275250376555
40
0.11437410056612
40
0.11437410056612
40
0.115472950755686
40
0.115472950755686
40
0.116022375850469
40
0.116022375850469
40
0.116571800945252
40
0.116571800945252
40
0.117670651134817
40
0.117670651134817
40
0.119868351513949
40
0.119868351513949
40
0.124263752272211
40
0.124263752272211
40
0.141845355305261
40
0.141845355305261
40
0.177008561371361
40
0.177008561371361
40
0.24733497350356
40
0.24733497350356
40
0.38798779776796
40
0.38798779776796
40
0.458314209900159
40
0.458314209900159
40
0.475895812933209
40
0.475895812933209
40
0.493477415966259
40
0.493477415966259
40
0.497872816724522
40
0.497872816724522
40
0.500070517103653
40
0.500070517103653
40
0.501169367293219
40
0.501169367293219
40
0.502268217482784
40
0.502268217482784
40
0.502542930030176
40
0.502542930030176
40
0.502817642577567
40
0.502817642577567
40
0.50336706767235
40
0.50336706767235
40
0.504465917861916
40
0.506663618241049
40
0.511059018999313
40
0.528640622032371
40
0.528640622032371
40
0.809946270561298
40
0.809946270561298
40
1
40
1
40
1
40
1
41
1
10
9.09653801691408
20
1.71468975773547
30
0
41
1
10
9.09666569180825
20
1.71291691389817
30
0
41
1
10
9.0967797235304
20
1.71114342266759
30
0
41
1
10
9.0998347658209
20
1.65706097116916
30
0
41
1
10
9.09102862288935
20
1.6047762241916
30
0
41
1
10
9.06860540877099
20
1.52113861948692
30
0
41
1
10
9.0595301435782
20
1.49243310140912
30
0
41
1
10
9.03899287823322
20
1.4328416090122
30
0
41
1
10
9.02726288156111
20
1.40197830787827
30
0
41
1
10
8.98691981074151
20
1.30769519570418
30
0
41
1
10
8.954920637676
20
1.24146794222244
30
0
41
1
10
8.91008817902355
20
1.16546262937382
30
0
41
1
10
8.90246293473456
20
1.15275629957986
30
0
41
1
10
8.8933162725352
20
1.13785813168192
30
0
41
1
10
8.88934449289698
20
1.1314568406851
30
0
41
1
10
8.88668532323743
20
1.12718559271906
30
0
41
1
10
8.88503013912597
20
1.12524398072588
30
0
41
1
10
8.88357047711011
20
1.12169716061416
30
0
41
1
10
8.88424574609971
20
1.12004327296782
30
0
41
1
10
8.88609840987991
20
1.11727727050405
30
0
41
1
10
8.88720754034759
20
1.11600593712771
30
0
41
1
10
8.890656411035
20
1.11226830633637
30
0
41
1
10
8.8931613492141
20
1.10990044080921
30
0
41
1
10
8.90076286621581
20
1.10293834557521
30
0
41
1
10
8.90601475978181
20
1.09847122148531
30
0
41
1
10
8.92189696300889
20
1.08518916006597
30
0
41
1
10
8.93269538822898
20
1.07653667356587
30
0
41
1
10
8.98691944207232
20
1.03359710848375
30
0
41
1
10
9.03113981887373
20
1.00018116045197
30
0
41
1
10
9.16399112183436
20
0.900179816240382
30
0
41
1
10
9.25318847190252
20
0.834266907692069
30
0
41
1
10
9.52111479360457
20
0.636874754768741
30
0
41
1
10
9.70028662115612
20
0.50586426886403
30
0
41
1
10
10.2370529969386
20
0.111792431174763
30
0
41
1
10
10.594488340647
20
-0.151668054005995
30
0
41
1
10
11.1307319793981
20
-0.547025675890865
30
0
41
1
10
11.3096758887668
20
-0.678587182151404
30
0
41
1
10
11.5321084866157
20
-0.844811150487345
30
0
41
1
10
11.5765287851303
20
-0.878157435219293
30
0
41
1
10
11.6650021519738
20
-0.945320969534976
30
0
41
1
10
11.7091630648507
20
-0.979015477101683
30
0
41
1
10
11.7633547052441
20
-1.02236455755556
30
0
41
1
10
11.7741403295051
20
-1.03110007804173
30
0
41
1
10
11.7900568750749
20
-1.04449696632932
30
0
41
1
10
11.7953249470945
20
-1.04900955210212
30
0
41
1
10
11.803031849301
20
-1.0559716243807
30
0
41
1
10
11.8055733529538
20
-1.05832467395163
30
0
41
1
10
11.810470760571
20
-1.06319540905375
30
0
41
1
10
11.8130534782456
20
-1.06563532205138
30
0
41
1
10
11.8150664969709
20
-1.06930820818573
30
0
41
1
10
11.8154425681787
20
-1.07016491523601
30
0
41
1
10
11.8149191008688
20
-1.07154907980038
30
0
41
1
10
11.814027343988
20
-1.07176450860459
30
0
41
1
10
11.811646842088
20
-1.07197521957852
30
0
41
1
10
11.8099882019656
20
-1.07174384352112
30
0
41
1
10
11.8050719756117
20
-1.07134308544158
30
0
41
1
10
11.7952398707041
20
-1.07054027327823
30
0
41
1
10
11.7723007400129
20
-1.06865797170065
30
0
41
1
10
11.7002215839549
20
-1.06268509711416
30
0
41
1
10
11.6347422400636
20
-1.05708218339964
30
0
41
1
10
10.7447304338142
20
-0.978992523787412
30
0
41
1
10
9.91507320197604
20
-0.876959214933862
30
0
41
1
10
8.5400844356474
20
-0.656840184654101
30
0
41
1
10
7.98927990146575
20
-0.554608602477515
30
0
41
1
10
7.44213771352546
20
-0.439262162020242
30
0
0
SPLINE
5
10B
100
AcDbEntity
8
1
62
256
6
ByLayer
370
18
48
1
60
0
100
AcDbSpline
70
4
71
3
72
99
73
95
40
0
40
0
40
0
40
0
40
0.06249999999997
40
0.06249999999997
40
0.12499999999994
40
0.12499999999994
40
0.156249999999926
40
0.156249999999926
40
0.171874999999919
40
0.171874999999919
40
0.187499999999912
40
0.187499999999912
40
0.218749999999901
40
0.218749999999901
40
0.24999999999989
40
0.24999999999989
40
0.281249999999878
40
0.281249999999878
40
0.289062499999875
40
0.289062499999875
40
0.296874999999872
40
0.312499999999865
40
0.328124999999859
40
0.328124999999859
40
0.335937499999855
40
0.335937499999855
40
0.343749999999851
40
0.343749999999851
40
0.374999999999835
40
0.374999999999835
40
0.382812499999831
40
0.382812499999831
40
0.390624999999827
40
0.390624999999827
40
0.406249999999819
40
0.421874999999811
40
0.421874999999811
40
0.437499999999803
40
0.437499999999803
40
0.468749999999789
40
0.468749999999789
40
0.48437499999978
40
0.48437499999978
40
0.492187499999777
40
0.492187499999777
40
0.499999999999774
40
0.499999999999774
40
0.53124999999976
40
0.53124999999976
40
0.562499999999746
40
0.562499999999746
40
0.593749999999732
40
0.593749999999732
40
0.609374999999726
40
0.609374999999726
40
0.62499999999972
40
0.62499999999972
40
0.656249999999711
40
0.656249999999711
40
0.671874999999706
40
0.671874999999706
40
0.679687499999704
40
0.679687499999704
40
0.683593749999705
40
0.683593749999705
40
0.685546874999706
40
0.685546874999706
40
0.687499999999708
40
0.687499999999708
40
0.689453124999709
40
0.689453124999709
40
0.691406249999711
40
0.691406249999711
40
0.695312499999714
40
0.695312499999714
40
0.699218749999717
40
0.699218749999717
40
0.70312499999972
40
0.70312499999972
40
0.710937499999726
40
0.710937499999726
40
0.718749999999732
40
0.718749999999732
40
0.74999999999976
40
0.74999999999976
40
0.812499999999818
40
0.812499999999818
40
0.874999999999877
40
0.874999999999877
40
0.906249999999908
40
0.906249999999908
40
0.937499999999939
40
0.937499999999939
40
1
40
1
40
1
40
1
41
1
10
7.44213475171998
20
-0.439268699651223
30
0
41
1
10
7.32855924101349
20
-0.369362621491547
30
0
41
1
10
7.21709327123989
20
-0.296555052242951
30
0
41
1
10
6.99929790695253
20
-0.143866590883761
30
0
41
1
10
6.89295126081842
20
-0.0640094594639038
30
0
41
1
10
6.7384644322963
20
0.062712534698079
30
0
41
1
10
6.68781409686576
20
0.106118088960301
30
0
41
1
10
6.61335434021518
20
0.173315739025355
30
0
41
1
10
6.5887879269205
20
0.196064389083631
30
0
41
1
10
6.54021732635951
20
0.242336707859749
30
0
41
1
10
6.51619609689027
20
0.26588078588756
30
0
41
1
10
6.44567474890766
20
0.33719245648706
30
0
41
1
10
6.40051438028342
20
0.385813163713976
30
0
41
1
10
6.31463357062367
20
0.485641325380442
30
0
41
1
10
6.27390576952496
20
0.536844410104663
30
0
41
1
10
6.19799164357266
20
0.642483845524652
30
0
41
1
10
6.162788544932
20
0.696910226134662
30
0
41
1
10
6.12337981282283
20
0.767631098037526
30
0
41
1
10
6.11573414921028
20
0.781908310486642
30
0
41
1
10
6.10108559849411
20
0.810474740752369
30
0
41
1
10
6.08002116065646
20
0.85344191688344
30
0
41
1
10
6.04964974959097
20
0.925669730018143
30
0
41
1
10
6.03091548800415
20
0.984184022572094
30
0
41
1
10
6.01919458580292
20
1.02838046368427
30
0
41
1
10
6.01566748110801
20
1.04321112092052
30
0
41
1
10
6.0094922020148
20
1.0727204842479
30
0
41
1
10
6.00684294246904
20
1.08738910939655
30
0
41
1
10
5.9958025117169
20
1.16030186560044
30
0
41
1
10
5.99401198821187
20
1.2172574698568
30
0
41
1
10
6.00096512716783
20
1.286706839658
30
0
41
1
10
6.0028163996582
20
1.30050929353558
30
0
41
1
10
6.00745443981467
20
1.32793801917816
30
0
41
1
10
6.01023296183646
20
1.34150063785702
30
0
41
1
10
6.01983481209857
20
1.38142867960477
30
0
41
1
10
6.03605386371547
20
1.43291327258979
30
0
41
1
10
6.05859101261032
20
1.48118320758039
30
0
41
1
10
6.08407592377577
20
1.52796547817141
30
0
41
1
10
6.0983563889898
20
1.55068323564183
30
0
41
1
10
6.14444718184433
20
1.61559191219448
30
0
41
1
10
6.17964599312896
20
1.65497366115577
30
0
41
1
10
6.23766045584671
20
1.70957352034293
30
0
41
1
10
6.25787592711183
20
1.7270207816608
30
0
41
1
10
6.28938380867751
20
1.75218289330837
30
0
41
1
10
6.30008418035101
20
1.76040186193109
30
0
41
1
10
6.3218616938623
20
1.77652015810014
30
0
41
1
10
6.33295516956525
20
1.78443042098658
30
0
41
1
10
6.38906900614288
20
1.82305027901907
30
0
41
1
10
6.43603276348696
20
1.85102606639063
30
0
41
1
10
6.53318330243835
20
1.90250975278789
30
0
41
1
10
6.58337666525722
20
1.92600782977644
30
0
41
1
10
6.68640062261622
20
1.9694070834347
30
0
41
1
10
6.73923437683157
20
1.98930354838461
30
0
41
1
10
6.82015582030243
20
2.016907143933
30
0
41
1
10
6.84740923358297
20
2.02573314552833
30
0
41
1
10
6.90243450861695
20
2.0426953487061
30
0
41
1
10
6.93022357046658
20
2.05083594593236
30
0
41
1
10
7.01410352407524
20
2.07424407435317
30
0
41
1
10
7.07075324713213
20
2.08851833888835
30
0
41
1
10
7.15667276611052
20
2.10823871169583
30
0
41
1
10
7.18547245612544
20
2.11452982073774
30
0
41
1
10
7.22888727587411
20
2.12357189595755
30
0
41
1
10
7.24339307979128
20
2.12651976705558
30
0
41
1
10
7.26520066315297
20
2.13084582547128
30
0
41
1
10
7.27247190852412
20
2.13227538111349
30
0
41
1
10
7.28340959983501
20
2.13438528904507
30
0
41
1
10
7.28709133507067
20
2.13507064376702
30
0
41
1
10
7.29467237618167
20
2.13627782774148
30
0
41
1
10
7.29853555523803
20
2.13681383632368
30
0
41
1
10
7.30646227160099
20
2.13770408312982
30
0
41
1
10
7.31054406680278
20
2.13806026838765
30
0
41
1
10
7.31877164833841
20
2.13862444965983
30
0
41
1
10
7.3228968552807
20
2.13884320818178
30
0
41
1
10
7.33531935900973
20
2.1392415808408
30
0
41
1
10
7.34364878896238
20
2.13924465422429
30
0
41
1
10
7.36038759723252
20
2.13881142944217
30
0
41
1
10
7.36861882773729
20
2.13837658806665
30
0
41
1
10
7.38476996709735
20
2.13712657632527
30
0
41
1
10
7.39268765890762
20
2.13629011559595
30
0
41
1
10
7.41631965852642
20
2.1336034661403
30
0
41
1
10
7.43202999308346
20
2.13173965298893
30
0
41
1
10
7.4634325664656
20
2.12796601274349
30
0
41
1
10
7.47911243100447
20
2.12603916875133
30
0
41
1
10
7.55740750380599
20
2.11620248119564
30
0
41
1
10
7.61969035113617
20
2.10768329293271
30
0
41
1
10
7.80550061116099
20
2.07997073846863
30
0
41
1
10
7.92772693329522
20
2.0586448843147
30
0
41
1
10
8.169041306418
20
2.0093337607336
30
0
41
1
10
8.28815962142059
20
1.98134025846122
30
0
41
1
10
8.46494699018498
20
1.93379657043187
30
0
41
1
10
8.52355578618048
20
1.91702039735412
30
0
41
1
10
8.63993640225553
20
1.88162764349229
30
0
41
1
10
8.69774662263202
20
1.86300442826709
30
0
41
1
10
8.87018665545335
20
1.80431070625985
30
0
41
1
10
8.9838240379859
20
1.76140808326153
30
0
41
1
10
9.09653520554201
20
1.71469111357777
30
0
0
SPLINE
5
10C
100
AcDbEntity
8
SK1
62
256
6
ByLayer
370
18
48
1
60
0
100
AcDbSpline
70
4
71
3
72
22
73
18
40
0
40
0
40
0
40
0
40
0.250000000000003
40
0.250000000000003
40
0.375000000000003
40
0.375000000000003
40
0.500000000000002
40
0.500000000000002
40
0.625000000000001
40
0.625000000000001
40
0.750000000000001
40
0.750000000000001
40
0.875
40
0.875
40
0.9375
40
0.9375
40
1
40
1
40
1
40
1
41
1
10
-35.75
20
2.30959838444218
30
0
41
1
10
-35.7379956523281
20
2.32185537884121
30
0
41
1
10
-35.7264866986603
20
2.33374842241776
30
0
41
1
10
-35.7098921057742
20
2.35103754468602
30
0
41
1
10
-35.7045257065493
20
2.35665367260825
30
0
41
1
10
-35.6942964893128
20
2.36739764163602
30
0
41
1
10
-35.6894060316865
20
2.37255430780007
30
0
41
1
10
-35.6801144608566
20
2.38238366989856
30
0
41
1
10
-35.6756964104891
20
2.38707438375627
30
0
41
1
10
-35.6675285377629
20
2.39577589496807
30
0
41
1
10
-35.6638529491705
20
2.39970735717958
30
0
41
1
10
-35.6575076548177
20
2.40652647308786
30
0
41
1
10
-35.6548318331324
20
2.40942106729602
30
0
41
1
10
-35.6520304488211
20
2.41249335111195
30
0
41
1
10
-35.65129058319
20
2.41331463968507
30
0
41
1
10
-35.650270741394
20
2.41447721635498
30
0
41
1
10
-35.65
20
2.41480839168935
30
0
41
1
10
-35.65
20
2.41485626482171
30
0
0
SPLINE
5
10D
100
AcDbEntity
8
SK1
62
256
6
ByLayer
370
18
48
1
60
0
100
AcDbSpline
70
4
71
3
72
8
73
4
40
0
40
0
40
0
40
0
40
1
40
1
40
1
40
1
41
1
10
-36
20
2.05249783440865
30
0
41
1
10
-35.9170288300855
20
2.13852032875502
30
0
41
1
10
-35.8336541037318
20
2.2241836739619
30
0
41
1
10
-35.7499999999999
20
2.3095983844421
30
0
0
SPLINE
5
10E
100
AcDbEntity
8
SK1
62
256
6
ByLayer
370
18
48
1
60
0
100
AcDbSpline
70
4
71
3
72
8
73
4
40
0
40
0
40
0
40
0
40
1
40
1
40
1
40
1
41
1
10
-35.75
20
-1.92165704831777
30
0
41
1
10
-35.8336532931472
20
-1.83624316548202
30
0
41
1
10
-35.9170279223537
20
-1.75057993374514
30
0
41
1
10
-36
20
-1.66455649828441
30
0
0
SPLINE
5
10F
100
AcDbEntity
8
SK1
62
256
6
ByLayer
370
18
48
1
60
0
100
AcDbSpline
70
4
71
3
72
22
73
18
40
0
40
0
40
0
40
0
40
0.0625000000000024
40
0.0625000000000024
40
0.125000000000005
40
0.125000000000005
40
0.250000000000004
40
0.250000000000004
40
0.375000000000002
40
0.375000000000002
40
0.500000000000001
40
0.500000000000001
40
0.625
40
0.625
40
0.749999999999998
40
0.749999999999998
40
1
40
1
40
1
40
1
41
1
10
-35.65
20
-2.07864044018069
30
0
41
1
10
-35.65
20
-2.0764033130871
30
0
41
1
10
-35.6502718586019
20
-2.07390207272948
30
0
41
1
10
-35.6512913504498
20
-2.06854697277476
30
0
41
1
10
-35.652030658643
20
-2.06571570833248
30
0
41
1
10
-35.6548298230237
20
-2.05683183269312
30
0
41
1
10
-35.6575061245997
20
-2.05031598005127
30
0
41
1
10
-35.6638376796887
20
-2.03700315347572
30
0
41
1
10
-35.6674983282837
20
-2.03016657203415
30
0
41
1
10
-35.6756151818521
20
-2.01620897820004
30
0
41
1
10
-35.6800682064548
20
-2.00910619280816
30
0
41
1
10
-35.6893906957631
20
-1.99508958198879
30
0
41
1
10
-35.6942952881823
20
-1.98811615723198
30
0
41
1
10
-35.7045485857552
20
-1.97423745880607
30
0
41
1
10
-35.7099306774388
20
-1.96729218702191
30
0
41
1
10
-35.7265024515808
20
-1.94687168184498
30
0
41
1
10
-35.7380004903212
20
-1.93390910290213
30
0
41
1
10
-35.7500000000001
20
-1.92165704831783
30
0
0
SPLINE
5
110
100
AcDbEntity
8
SK1
62
256
6
ByLayer
370
18
48
1
60
0
100
AcDbSpline
70
4
71
3
72
22
73
18
40
0
40
0
40
0
40
0
40
0.250000000000003
40
0.250000000000003
40
0.375000000000003
40
0.375000000000003
40
0.500000000000002
40
0.500000000000002
40
0.625000000000002
40
0.625000000000002
40
0.750000000000001
40
0.750000000000001
40
0.875000000000001
40
0.875000000000001
40
0.9375
40
0.9375
40
1
40
1
40
1
40
1
41
1
10
-35.75
20
-2.30959838444218
30
0
41
1
10
-35.7379956523281
20
-2.32185537884121
30
0
41
1
10
-35.7264866986603
20
-2.33374842241776
30
0
41
1
10
-35.7098921057742
20
-2.35103754468602
30
0
41
1
10
-35.7045257065493
20
-2.35665367260825
30
0
41
1
10
-35.6942964893128
20
-2.36739764163602
30
0
41
1
10
-35.6894060316865
20
-2.37255430780007
30
0
41
1
10
-35.6801144608566
20
-2.38238366989856
30
0
41
1
10
-35.6756964104891
20
-2.38707438375627
30
0
41
1
10
-35.6675285377629
20
-2.39577589496807
30
0
41
1
10
-35.6638529491705
20
-2.39970735717958
30
0
41
1
10
-35.6575076548177
20
-2.40652647308786
30
0
41
1
10
-35.6548318331324
20
-2.40942106729602
30
0
41
1
10
-35.6520304488211
20
-2.41249335111195
30
0
41
1
10
-35.65129058319
20
-2.41331463968507
30
0
41
1
10
-35.650270741394
20
-2.41447721635498
30
0
41
1
10
-35.65
20
-2.41480839168935
30
0
41
1
10
-35.65
20
-2.41485626482171
30
0
0
SPLINE
5
111
100
AcDbEntity
8
SK1
62
256
6
ByLayer
370
18
48
1
60
0
100
AcDbSpline
70
4
71
3
72
8
73
4
40
0
40
0
40
0
40
0
40
1
40
1
40
1
40
1
41
1
10
-36
20
-2.05249783440865
30
0
41
1
10
-35.9170288300855
20
-2.13852032875502
30
0
41
1
10
-35.8336541037318
20
-2.2241836739619
30
0
41
1
10
-35.7499999999999
20
-2.3095983844421
30
0
0
SPLINE
5
112
100
AcDbEntity
8
1
62
256
6
ByLayer
370
18
48
1
60
0
100
AcDbSpline
70
4
71
3
72
24
73
20
40
0
40
0
40
0
40
0
40
1.66370748766E-05
40
9.29854194433E-05
40
0.0001475819753248
40
0.0002227159993399
40
0.0004427292036809
40
0.000617595324631
40
0.0009499120217347
40
0.0048080457339638
40
0.0249051218243292
40
0.0595198098887727
40
0.181257334052315
40
0.296265848460772
40
0.393029479062722
40
0.489808287072469
40
0.628804641677975
40
0.811739447104074
40
1
40
1
40
1
40
1
41
1
10
19.1581691410395
20
0.0197570293929914
30
0
41
1
10
19.1581708979831
20
0.0197569123564563
30
0
41
1
10
19.1581770352782
20
0.0197575386703761
30
0
41
1
10
19.1581512103467
20
0.0197708817313185
30
0
41
1
10
19.1580493928707
20
0.0198124260690236
30
0
41
1
10
19.1578162978628
20
0.0199060187509872
30
0
41
1
10
19.1571817627302
20
0.0201425338103718
30
0
41
1
10
19.1563687890694
20
0.0204500600817425
30
0
41
1
10
19.1511465654078
20
0.0224006296577954
30
0
41
1
10
19.1202248362041
20
0.0335288018849553
30
0
41
1
10
19.0424856663131
20
0.0604129465543224
30
0
41
1
10
18.8080223748552
20
0.14164957655808
30
0
41
1
10
18.4452035011108
20
0.270465131966347
30
0
41
1
10
18.0021051539854
20
0.433797254382682
30
0
41
1
10
17.5934072509876
20
0.589190813606194
30
0
41
1
10
17.1546880074547
20
0.760616544016074
30
0
41
1
10
16.6045656489328
20
0.982685725978854
30
0
41
1
10
15.9379370048923
20
1.2628002743929
30
0
41
1
10
15.4566379545725
20
1.47555949397858
30
0
41
1
10
15.2134382413875
20
1.58568773323645
30
0
0
SPLINE
5
113
100
AcDbEntity
8
1
62
256
6
ByLayer
370
18
48
1
60
0
100
AcDbSpline
70
4
71
3
72
13
73
9
40
0
40
0
40
0
40
0
40
0.0398005702180501
40
0.185765921827562
40
0.306910302095767
40
0.484332035401578
40
0.729863099735589
40
1
40
1
40
1
40
1
41
1
10
28.4745539429854
20
0.73428479108253
30
0
41
1
10
28.4466100819029
20
0.745163390210877
30
0
41
1
10
28.3162681510711
20
0.796155763678115
30
0
41
1
10
28.1019213256184
20
0.88298949803135
30
0
41
1
10
27.7918780927196
20
1.00983672377384
30
0
41
1
10
27.4136613339898
20
1.1681237746073
30
0
41
1
10
26.9337842699039
20
1.37429576365338
30
0
41
1
10
26.5788303649926
20
1.53238523708688
30
0
41
1
10
26.393424966318
20
1.61643908903841
30
0
0
SPLINE
5
114
100
AcDbEntity
8
1
62
256
6
ByLayer
370
18
48
1
60
0
100
AcDbSpline
70
4
71
2
72
6
73
3
40
0
40
0
40
0
40
1
40
1
40
1
41
1
10
23.8867477315877
20
0.0024243265018811
30
0
41
1
10
23.886730610805
20
0.0024313899691037
30
0
41
1
10
23.8867134902409
20
0.0024392113460863
30
0
0
SPLINE
5
115
100
AcDbEntity
8
1
62
256
6
ByLayer
370
18
48
1
60
0
100
AcDbSpline
70
4
71
3
72
21
73
17
40
0
40
0
40
0
40
0
40
0.0980034907283751
40
0.177299534014965
40
0.279990870052289
40
0.342528955971983
40
0.408620900629585
40
0.47246458910942
40
0.533265983824688
40
0.598269855134006
40
0.668310313437297
40
0.752033943104789
40
0.837911667076047
40
0.918810423130071
40
0.993298435424098
40
1
40
1
40
1
40
1
41
1
10
18.2622194988949
20
-2.16558976703973
30
0
41
1
10
18.3863063708596
20
-2.16588468030849
30
0
41
1
10
18.6108711571169
20
-2.16635710304351
30
0
41
1
10
18.9657389877704
20
-2.16697184227178
30
0
41
1
10
19.275826044469
20
-2.16726547170566
30
0
41
1
10
19.5685946720606
20
-2.16811007003943
30
0
41
1
10
19.8126589301801
20
-2.16910655851046
30
0
41
1
10
20.0544057273723
20
-2.16950804196094
30
0
41
1
10
20.2942228096585
20
-2.17000020164011
30
0
41
1
10
20.5427257313463
20
-2.17096494368036
30
0
41
1
10
20.8196071565996
20
-2.17134066734593
30
0
41
1
10
21.1233739361922
20
-2.17090140116818
30
0
41
1
10
21.4409175754274
20
-2.17081868169188
30
0
41
1
10
21.7467347564921
20
-2.17255286204295
30
0
41
1
10
21.9522197809332
20
-2.17367725504644
30
0
41
1
10
22.0551176661533
20
-2.17408322758107
30
0
41
1
10
22.0636109221601
20
-2.17411558959523
30
0
0
SPLINE
5
116
100
AcDbEntity
8
1
62
256
6
ByLayer
370
18
48
1
60
0
100
AcDbSpline
70
4
71
3
72
19
73
15
40
0
40
0
40
0
40
0
40
0.122728741015895
40
0.19993709173799
40
0.267082383449993
40
0.341672276664315
40
0.422681681928365
40
0.508676865089115
40
0.592515007685299
40
0.727709344575371
40
0.852515348815017
40
0.918697690678
40
0.981321313015581
40
1
40
1
40
1
40
1
41
1
10
23.0522744801944
20
2.17419489757717
30
0
41
1
10
22.896943045217
20
2.17424477495598
30
0
41
1
10
22.6438929140337
20
2.17425104635709
30
0
41
1
10
22.305777216224
20
2.17487437438504
30
0
41
1
10
22.0287306001299
20
2.17409615262622
30
0
41
1
10
21.7467327070966
20
2.17255180863884
30
0
41
1
10
21.4409261519885
20
2.17082309010641
30
0
41
1
10
21.1233401967951
20
2.17088405887358
30
0
41
1
10
20.7374067373382
20
2.17153875985974
30
0
41
1
10
20.3020105284514
20
2.1698698467543
30
0
41
1
10
19.8898075528144
20
2.16939264927032
30
0
41
1
10
19.5685850011679
20
2.16811370273263
30
0
41
1
10
19.3821826276827
20
2.16757699471393
30
0
41
1
10
19.2793339145615
20
2.16737046780321
30
0
41
1
10
19.2557012707001
20
2.16732702731201
30
0
0
SPLINE
5
117
100
AcDbEntity
8
1
62
256
6
ByLayer
370
18
48
1
60
0
100
AcDbSpline
70
4
71
3
72
8
73
4
40
0
40
0
40
0
40
0
40
1
40
1
40
1
40
1
41
1
10
18.2845794366256
20
2.16564252950565
30
0
41
1
10
18.2771259751488
20
2.16562506730264
30
0
41
1
10
18.2696726631799
20
2.16560748073505
30
0
41
1
10
18.2622194988949
20
2.16558976703973
30
0
0
LINE
5
82
100
AcDbEntity
8
4
62
256
6
ByLayer
370
18
48
0.05
60
0
100
AcDbLine
10
0
20
0
30
0
11
30
21
0
31
0
39
0
210
0
220
0
230
1
0
LINE
5
84
100
AcDbEntity
8
81
62
256
6
ByLayer
370
18
48
1
60
0
100
AcDbLine
10
30
20
0
30
0
11
33
21
0
31
0
39
0
210
0
220
0
230
1
0
LINE
5
85
100
AcDbEntity
8
80
62
256
6
ByLayer
370
18
48
1
60
0
100
AcDbLine
10
0
20
0
30
0
11
-3
21
0
31
0
39
0
210
0
220
0
230
1
0
LINE
5
86
100
AcDbEntity
8
SK4
62
256
6
ByLayer
370
18
48
0.05
60
0
100
AcDbLine
10
-39
20
0
30
0
11
33
21
0
31
0
39
0
210
0
220
0
230
1
0
LINE
5
88
100
AcDbEntity
8
1
62
256
6
ByLayer
370
18
48
1
60
0
100
AcDbLine
10
0
20
3
30
0
11
0
21
-3
31
0
39
0
210
0
220
0
230
1
0
LINE
5
89
100
AcDbEntity
8
1
62
256
6
ByLayer
370
13
48
1
60
0
100
AcDbLine
10
29.944244
20
0.259525
30
0
11
29.429585
21
0.725108
31
0
39
0
210
0
220
0
230
1
0
LINE
5
8A
100
AcDbEntity
8
1
62
256
6
ByLayer
370
18
48
1
60
0
100
AcDbLine
10
15.399891
20
-1.545068
30
0
11
15.399891
21
1.062801
31
0
39
0
210
0
220
0
230
1
0
LINE
5
8B
100
AcDbEntity
8
1
62
256
6
ByLayer
370
18
48
1
60
0
100
AcDbLine
10
15.399891
20
-1.75373
30
0
11
15.399891
21
-1.786093
31
0
39
0
210
0
220
0
230
1
0
LINE
5
8C
100
AcDbEntity
8
1
62
256
6
ByLayer
370
13
48
1
60
0
100
AcDbLine
10
1.35702
20
-2.249944
30
0
11
1.35702
21
2.249944
31
0
39
0
210
0
220
0
230
1
0
LINE
5
8D
100
AcDbEntity
8
1
62
256
6
ByLayer
370
13
48
1
60
0
100
AcDbLine
10
0.67779
20
-2.624971
30
0
11
0.67779
21
2.624971
31
0
39
0
210
0
220
0
230
1
0
LINE
5
8E
100
AcDbEntity
8
SK1
62
256
6
ByLayer
370
18
48
1
60
0
100
AcDbLine
10
-36
20
-1.66453
30
0
11
-36
21
-2.052498
31
0
39
0
210
0
220
0
230
1
0
LINE
5
90
100
AcDbEntity
8
SK1
62
256
6
ByLayer
370
13
48
1
60
0
100
AcDbLine
10
-35.75
20
-2.309598
30
0
11
-35.75
21
-1.921645
31
0
39
0
210
0
220
0
230
1
0
LINE
5
91
100
AcDbEntity
8
SK1
62
256
6
ByLayer
370
18
48
1
60
0
100
AcDbLine
10
-36
20
2.052498
30
0
11
-36
21
-1.664556
31
0
39
0
210
0
220
0
230
1
0
LINE
5
92
100
AcDbEntity
8
SK1
62
256
6
ByLayer
370
18
48
1
60
0
100
AcDbLine
10
-35.65
20
-2.414856
30
0
11
-35.65
21
-2.07864
31
0
39
0
210
0
220
0
230
1
0
LINE
5
93
100
AcDbEntity
8
SK1
62
256
6
ByLayer
370
18
48
1
60
0
100
AcDbLine
10
0
20
3
30
0
11
0
21
-3
31
0
39
0
210
0
220
0
230
1
0
LINE
5
94
100
AcDbEntity
8
SK1
62
256
6
ByLayer
370
18
48
1
60
0
100
AcDbLine
10
-35.065
20
-3
30
0
11
-35.065
21
3
31
0
39
0
210
0
220
0
230
1
0
LINE
5
95
100
AcDbEntity
8
1
62
256
6
ByLayer
370
18
48
1
60
0
100
AcDbLine
10
1.35702
20
-2.249944
30
0
11
12.355375
21
-2.269741
31
0
39
0
210
0
220
0
230
1
0
LINE
5
96
100
AcDbEntity
8
1
62
256
6
ByLayer
370
18
48
1
60
0
100
AcDbLine
10
17.874805
20
-2.279676
30
0
11
18.265782
21
-2.28038
31
0
39
0
210
0
220
0
230
1
0
LINE
5
97
100
AcDbEntity
8
1
62
256
6
ByLayer
370
18
48
1
60
0
100
AcDbLine
10
23.051653
20
-2.288994
30
0
11
23.573564
21
-2.289934
31
0
39
0
210
0
220
0
230
1
0
LINE
5
98
100
AcDbEntity
8
1
62
256
6
ByLayer
370
18
48
1
60
0
100
AcDbLine
10
23.573564
20
2.289934
30
0
11
23.051653
21
2.288994
31
0
39
0
210
0
220
0
230
1
0
LINE
5
99
100
AcDbEntity
8
1
62
256
6
ByLayer
370
18
48
1
60
0
100
AcDbLine
10
18.265782
20
2.28038
30
0
11
17.874805
21
2.279676
31
0
39
0
210
0
220
0
230
1
0
LINE
5
9A
100
AcDbEntity
8
1
62
256
6
ByLayer
370
18
48
1
60
0
100
AcDbLine
10
12.355375
20
2.269741
30
0
11
1.35702
21
2.249944
31
0
39
0
210
0
220
0
230
1
0
LINE
5
9B
100
AcDbEntity
8
SK1
62
256
6
ByLayer
370
18
48
1
60
0
100
AcDbLine
10
-35.65
20
-2.415
30
0
11
-35.065
21
-3
31
0
39
0
210
0
220
0
230
1
0
LINE
5
9C
100
AcDbEntity
8
SK1
62
256
6
ByLayer
370
18
48
1
60
0
100
AcDbLine
10
-35.065
20
3
30
0
11
-35.65
21
2.415
31
0
39
0
210
0
220
0
230
1
0
LINE
5
9D
100
AcDbEntity
8
SK1
62
256
6
ByLayer
370
18
48
1
60
0
100
AcDbLine
10
-35.065
20
-3
30
0
11
0
21
-3
31
0
39
0
210
0
220
0
230
1
0
LINE
5
9E
100
AcDbEntity
8
SK1
62
256
6
ByLayer
370
18
48
1
60
0
100
AcDbLine
10
0
20
3
30
0
11
-35.065
21
3
31
0
39
0
210
0
220
0
230
1
0
LINE
5
9F
100
AcDbEntity
8
2
62
256
6
ByLayer
370
13
48
1
60
0
100
AcDbLine
10
37.5
20
26.91497
30
0
11
37.5
21
-9.8
31
0
39
0
210
0
220
0
230
1
0
LINE
5
A1
100
AcDbEntity
8
2
62
256
6
ByLayer
370
13
48
1
60
0
100
AcDbLine
10
31.5875
20
2.3
30
0
11
39.5
21
2.3
31
0
39
0
210
0
220
0
230
1
0
LINE
5
A2
100
AcDbEntity
8
2
62
256
6
ByLayer
370
13
48
1
60
0
100
AcDbLine
10
31.5875
20
-2.3
30
0
11
39.5
21
-2.3
31
0
39
0
210
0
220
0
230
1
0
LINE
5
A3
100
AcDbEntity
8
1
62
256
6
ByLayer
370
18
48
1
60
1
100
AcDbLine
10
37.5
20
2.3
30
0
11
37.039216
21
5.799998
31
0
39
0
210
0
220
0
230
1
0
LINE
5
A4
100
AcDbEntity
8
1
62
256
6
ByLayer
370
18
48
1
60
1
100
AcDbLine
10
37.039216
20
5.799998
30
0
11
37.960784
21
5.800002
31
0
39
0
210
0
220
0
230
1
0
LINE
5
A5
100
AcDbEntity
8
1
62
256
6
ByLayer
370
18
48
1
60
1
100
AcDbLine
10
37.960784
20
5.800002
30
0
11
37.5
21
2.3
31
0
39
0
210
0
220
0
230
1
0
LINE
5
A6
100
AcDbEntity
8
1
62
256
6
ByLayer
370
18
48
1
60
1
100
AcDbLine
10
37.5
20
-2.3
30
0
11
37.960784
21
-5.799998
31
0
39
0
210
0
220
0
230
1
0
LINE
5
A7
100
AcDbEntity
8
1
62
256
6
ByLayer
370
18
48
1
60
1
100
AcDbLine
10
37.960784
20
-5.799998
30
0
11
37.039216
21
-5.800002
31
0
39
0
210
0
220
0
230
1
0
LINE
5
A8
100
AcDbEntity
8
1
62
256
6
ByLayer
370
18
48
1
60
1
100
AcDbLine
10
37.039216
20
-5.800002
30
0
11
37.5
21
-2.3
31
0
39
0
210
0
220
0
230
1
0
LINE
5
A9
100
AcDbEntity
8
SK2
62
256
6
ByLayer
370
13
48
1
60
0
100
AcDbLine
10
-44.5
20
13.841828
30
0
11
-44.5
21
-10.5
31
0
39
0
210
0
220
0
230
1
0
LINE
5
AB
100
AcDbEntity
8
SK2
62
256
6
ByLayer
370
13
48
1
60
0
100
AcDbLine
10
-37.5875
20
3
30
0
11
-46.5
21
3
31
0
39
0
210
0
220
0
230
1
0
LINE
5
AC
100
AcDbEntity
8
SK2
62
256
6
ByLayer
370
13
48
1
60
0
100
AcDbLine
10
-37.5875
20
-3
30
0
11
-46.5
21
-3
31
0
39
0
210
0
220
0
230
1
0
LINE
5
AD
100
AcDbEntity
8
1
62
256
6
ByLayer
370
18
48
1
60
1
100
AcDbLine
10
-44.5
20
3
30
0
11
-44.960784
21
6.499998
31
0
39
0
210
0
220
0
230
1
0
LINE
5
AE
100
AcDbEntity
8
1
62
256
6
ByLayer
370
18
48
1
60
1
100
AcDbLine
10
-44.960784
20
6.499998
30
0
11
-44.039216
21
6.500002
31
0
39
0
210
0
220
0
230
1
0
LINE
5
AF
100
AcDbEntity
8
1
62
256
6
ByLayer
370
18
48
1
60
1
100
AcDbLine
10
-44.039216
20
6.500002
30
0
11
-44.5
21
3
31
0
39
0
210
0
220
0
230
1
0
LINE
5
B0
100
AcDbEntity
8
1
62
256
6
ByLayer
370
18
48
1
60
1
100
AcDbLine
10
-44.5
20
-3
30
0
11
-44.039216
21
-6.499998
31
0
39
0
210
0
220
0
230
1
0
LINE
5
B1
100
AcDbEntity
8
1
62
256
6
ByLayer
370
18
48
1
60
1
100
AcDbLine
10
-44.039216
20
-6.499998
30
0
11
-44.960784
21
-6.500002
31
0
39
0
210
0
220
0
230
1
0
LINE
5
B2
100
AcDbEntity
8
1
62
256
6
ByLayer
370
18
48
1
60
1
100
AcDbLine
10
-44.960784
20
-6.500002
30
0
11
-44.5
21
-3
31
0
39
0
210
0
220
0
230
1
0
LINE
5
B3
100
AcDbEntity
8
SK2
62
256
6
ByLayer
370
13
48
1
60
0
100
AcDbLine
10
30.542882
20
1.491789
30
0
11
36.533105
21
17.95238
31
0
39
0
210
0
220
0
230
1
0
LINE
5
B4
100
AcDbEntity
8
SK2
62
256
6
ByLayer
370
13
48
1
60
0
100
AcDbLine
10
30.542882
20
-1.491789
30
0
11
36.533105
21
-17.95238
31
0
39
0
210
0
220
0
230
1
0
LINE
5
B5
100
AcDbEntity
8
1
62
256
6
ByLayer
370
18
48
1
60
1
100
AcDbLine
10
35.84916
20
16.07296
30
0
11
39.252314
21
15.134424
31
0
39
0
210
0
220
0
230
1
0
LINE
5
B6
100
AcDbEntity
8
1
62
256
6
ByLayer
370
18
48
1
60
1
100
AcDbLine
10
39.252314
20
15.134424
30
0
11
38.893446
21
14.285601
31
0
39
0
210
0
220
0
230
1
0
LINE
5
B7
100
AcDbEntity
8
1
62
256
6
ByLayer
370
18
48
1
60
1
100
AcDbLine
10
38.893446
20
14.285601
30
0
11
35.84916
21
16.07296
31
0
39
0
210
0
220
0
230
1
0
LINE
5
B8
100
AcDbEntity
8
1
62
256
6
ByLayer
370
18
48
1
60
1
100
AcDbLine
10
35.84916
20
-16.07296
30
0
11
38.893443
21
-14.285602
31
0
39
0
210
0
220
0
230
1
0
LINE
5
B9
100
AcDbEntity
8
1
62
256
6
ByLayer
370
18
48
1
60
1
100
AcDbLine
10
38.893443
20
-14.285602
30
0
11
39.252317
21
-15.134422
31
0
39
0
210
0
220
0
230
1
0
LINE
5
BA
100
AcDbEntity
8
1
62
256
6
ByLayer
370
18
48
1
60
1
100
AcDbLine
10
39.252317
20
-15.134422
30
0
11
35.84916
21
-16.07296
31
0
39
0
210
0
220
0
230
1
0
LINE
5
118
100
AcDbEntity
8
1
62
256
6
ByLayer
370
13
48
0.05
60
0
100
AcDbLine
10
-42.5
20
0
30
0
11
35.654515
21
0
31
0
39
0
210
0
220
0
230
1
0
LINE
5
11D
100
AcDbEntity
8
1
62
256
6
ByLayer
370
18
48
1
60
1
100
AcDbLine
10
37.5
20
2.3
30
0
11
37.039216
21
5.799998
31
0
39
0
210
0
220
0
230
1
0
LINE
5
11E
100
AcDbEntity
8
1
62
256
6
ByLayer
370
18
48
1
60
1
100
AcDbLine
10
37.039216
20
5.799998
30
0
11
37.960784
21
5.800002
31
0
39
0
210
0
220
0
230
1
0
LINE
5
11F
100
AcDbEntity
8
1
62
256
6
ByLayer
370
18
48
1
60
1
100
AcDbLine
10
37.960784
20
5.800002
30
0
11
37.5
21
2.3
31
0
39
0
210
0
220
0
230
1
0
LINE
5
121
100
AcDbEntity
8
1
62
256
6
ByLayer
370
18
48
1
60
1
100
AcDbLine
10
37.5
20
-2.3
30
0
11
37.960784
21
-5.799998
31
0
39
0
210
0
220
0
230
1
0
LINE
5
122
100
AcDbEntity
8
1
62
256
6
ByLayer
370
18
48
1
60
1
100
AcDbLine
10
37.960784
20
-5.799998
30
0
11
37.039216
21
-5.800002
31
0
39
0
210
0
220
0
230
1
0
LINE
5
123
100
AcDbEntity
8
1
62
256
6
ByLayer
370
18
48
1
60
1
100
AcDbLine
10
37.039216
20
-5.800002
30
0
11
37.5
21
-2.3
31
0
39
0
210
0
220
0
230
1
0
LINE
5
127
100
AcDbEntity
8
1
62
256
6
ByLayer
370
18
48
1
60
1
100
AcDbLine
10
-44.5
20
3
30
0
11
-44.960784
21
6.499998
31
0
39
0
210
0
220
0
230
1
0
LINE
5
128
100
AcDbEntity
8
1
62
256
6
ByLayer
370
18
48
1
60
1
100
AcDbLine
10
-44.960784
20
6.499998
30
0
11
-44.039216
21
6.500002
31
0
39
0
210
0
220
0
230
1
0
LINE
5
129
100
AcDbEntity
8
1
62
256
6
ByLayer
370
18
48
1
60
1
100
AcDbLine
10
-44.039216
20
6.500002
30
0
11
-44.5
21
3
31
0
39
0
210
0
220
0
230
1
0
LINE
5
12B
100
AcDbEntity
8
1
62
256
6
ByLayer
370
18
48
1
60
1
100
AcDbLine
10
-44.5
20
-3
30
0
11
-44.039216
21
-6.499998
31
0
39
0
210
0
220
0
230
1
0
LINE
5
12C
100
AcDbEntity
8
1
62
256
6
ByLayer
370
18
48
1
60
1
100
AcDbLine
10
-44.039216
20
-6.499998
30
0
11
-44.960784
21
-6.500002
31
0
39
0
210
0
220
0
230
1
0
LINE
5
12D
100
AcDbEntity
8
1
62
256
6
ByLayer
370
18
48
1
60
1
100
AcDbLine
10
-44.960784
20
-6.500002
30
0
11
-44.5
21
-3
31
0
39
0
210
0
220
0
230
1
0
LINE
5
130
100
AcDbEntity
8
1
62
256
6
ByLayer
370
18
48
1
60
1
100
AcDbLine
10
35.84916
20
16.07296
30
0
11
39.252314
21
15.134424
31
0
39
0
210
0
220
0
230
1
0
LINE
5
131
100
AcDbEntity
8
1
62
256
6
ByLayer
370
18
48
1
60
1
100
AcDbLine
10
39.252314
20
15.134424
30
0
11
38.893446
21
14.285601
31
0
39
0
210
0
220
0
230
1
0
LINE
5
132
100
AcDbEntity
8
1
62
256
6
ByLayer
370
18
48
1
60
1
100
AcDbLine
10
38.893446
20
14.285601
30
0
11
35.84916
21
16.07296
31
0
39
0
210
0
220
0
230
1
0
LINE
5
134
100
AcDbEntity
8
1
62
256
6
ByLayer
370
18
48
1
60
1
100
AcDbLine
10
35.84916
20
-16.07296
30
0
11
38.893443
21
-14.285602
31
0
39
0
210
0
220
0
230
1
0
LINE
5
135
100
AcDbEntity
8
1
62
256
6
ByLayer
370
18
48
1
60
1
100
AcDbLine
10
38.893443
20
-14.285602
30
0
11
39.252317
21
-15.134422
31
0
39
0
210
0
220
0
230
1
0
LINE
5
136
100
AcDbEntity
8
1
62
256
6
ByLayer
370
18
48
1
60
1
100
AcDbLine
10
39.252317
20
-15.134422
30
0
11
35.84916
21
-16.07296
31
0
39
0
210
0
220
0
230
1
0
MTEXT
5
119
100
AcDbEntity
8
2
62
256
6
ByLayer
370
18
48
1
60
0
100
AcDbMText
10
36.158886
20
15.958437
30
0
210
0
220
0
230
1
1
%%c
40
3
41
0
44
1.084337
50
90
71
7
72
5
7
iso_b_vert
0
MTEXT
5
11C
100
AcDbEntity
8
2
62
256
6
ByLayer
370
18
48
1
60
0
100
AcDbMText
10
36.158886
20
21.935
30
0
210
0
220
0
230
1
1
\W0.7610;4.6
40
3
41
0
44
1.084337
50
90
71
7
72
5
7
iso_b_vert
0
MTEXT
5
125
100
AcDbEntity
8
SK2
62
256
6
ByLayer
370
18
48
1
60
0
100
AcDbMText
10
-45.841114
20
6.658437
30
0
210
0
220
0
230
1
1
%%c
40
3
41
0
44
1.084337
50
90
71
7
72
5
7
iso_b_vert
0
MTEXT
5
126
100
AcDbEntity
8
SK2
62
256
6
ByLayer
370
18
48
1
60
0
100
AcDbMText
10
-45.841114
20
12.635
30
0
210
0
220
0
230
1
1
\W0.5404;6
40
3
41
0
44
1.084337
50
90
71
7
72
5
7
iso_b_vert
0
MTEXT
5
12F
100
AcDbEntity
8
SK2
62
256
6
ByLayer
370
18
48
1
60
0
100
AcDbMText
10
43.663516
20
-2.114886
30
0
210
0
220
0
230
1
1
\W0.7071;140%%d
40
3
41
0
44
1.084337
50
0
71
7
72
5
7
iso_b_vert
0
MTEXT
5
138
100
AcDbEntity
8
SK6
62
256
6
ByLayer
370
18
48
1
60
0
100
AcDbMText
10
-28.679624
20
-77.114886
30
0
210
0
220
0
230
1
1
\W0.7502;860.1-0460-014A1-SD S2BM
40
3
41
0
44
1.084337
50
0
71
7
72
5
7
iso_b_vert
0
HATCH
5
120
100
AcDbEntity
8
2
62
256
6
ByLayer
370
13
48
1
60
0
100
AcDbHatch
10
0
20
0
30
0
210
0
220
0
230
1
2
ANSI31
70
0
71
0
91
1
92
5
93
3
72
1
10
37.5
20
2.29999999999998
11
37.0392162584472
21
5.7999983074468
72
1
10
37.0392162584472
20
5.7999983074468
11
37.9607837415528
21
5.80000169255317
72
1
10
37.9607837415528
20
5.80000169255317
11
37.5
21
2.29999999999998
97
0
75
0
76
1
52
0
41
0.0062
77
0
78
1
53
45
43
0
44
0
45
-0.0139193969876572
46
0.0139193969876572
79
0
47
0
98
1
10
0
20
0
0
HATCH
5
124
100
AcDbEntity
8
2
62
256
6
ByLayer
370
13
48
1
60
0
100
AcDbHatch
10
0
20
0
30
0
210
0
220
0
230
1
2
ANSI31
70
0
71
0
91
1
92
5
93
3
72
1
10
37.5
20
-2.30000000000001
11
37.9607837415528
21
-5.79999830744683
72
1
10
37.9607837415528
20
-5.79999830744683
11
37.0392162584472
21
-5.8000016925532
72
1
10
37.0392162584472
20
-5.8000016925532
11
37.5
21
-2.30000000000001
97
0
75
0
76
1
52
0
41
0.0062
77
0
78
1
53
45
43
0
44
0
45
-0.0139193969876572
46
0.0139193969876572
79
0
47
0
98
1
10
0
20
0
0
HATCH
5
12A
100
AcDbEntity
8
SK2
62
256
6
ByLayer
370
13
48
1
60
0
100
AcDbHatch
10
0
20
0
30
0
210
0
220
0
230
1
2
ANSI31
70
0
71
0
91
1
92
5
93
3
72
1
10
-44.5
20
3
11
-44.9607837415528
21
6.49999830744682
72
1
10
-44.9607837415528
20
6.49999830744682
11
-44.0392162584472
21
6.50000169255318
72
1
10
-44.0392162584472
20
6.50000169255318
11
-44.5
21
3
97
0
75
0
76
1
52
0
41
0.0062
77
0
78
1
53
45
43
0
44
0
45
-0.0139193969876572
46
0.0139193969876572
79
0
47
0
98
1
10
0
20
0
0
HATCH
5
12E
100
AcDbEntity
8
SK2
62
256
6
ByLayer
370
13
48
1
60
0
100
AcDbHatch
10
0
20
0
30
0
210
0
220
0
230
1
2
ANSI31
70
0
71
0
91
1
92
5
93
3
72
1
10
-44.5
20
-3
11
-44.0392162584472
21
-6.49999830744682
72
1
10
-44.0392162584472
20
-6.49999830744682
11
-44.9607837415528
21
-6.50000169255318
72
1
10
-44.9607837415528
20
-6.50000169255318
11
-44.5
21
-3
97
0
75
0
76
1
52
0
41
0.0062
77
0
78
1
53
45
43
0
44
0
45
-0.0139193969876572
46
0.0139193969876572
79
0
47
0
98
1
10
0
20
0
0
HATCH
5
133
100
AcDbEntity
8
SK2
62
256
6
ByLayer
370
13
48
1
60
0
100
AcDbHatch
10
0
20
0
30
0
210
0
220
0
230
1
2
ANSI31
70
0
71
0
91
1
92
5
93
3
72
1
10
35.8491599415558
20
16.0729604128775
11
39.2523141378674
21
15.1344236129935
72
1
10
39.2523141378674
20
15.1344236129935
11
38.8934461664684
21
14.285600660292
72
1
10
38.8934461664684
20
14.285600660292
11
35.8491599415558
21
16.0729604128775
97
0
75
0
76
1
52
0
41
0.0062
77
0
78
1
53
45
43
0
44
0
45
-0.0139193969876572
46
0.0139193969876572
79
0
47
0
98
1
10
0
20
0
0
HATCH
5
137
100
AcDbEntity
8
SK2
62
256
6
ByLayer
370
13
48
1
60
0
100
AcDbHatch
10
0
20
0
30
0
210
0
220
0
230
1
2
ANSI31
70
0
71
0
91
1
92
5
93
3
72
1
10
35.8491599415558
20
-16.0729604128775
11
38.8934430485724
21
-14.2856019784992
72
1
10
38.8934430485724
20
-14.2856019784992
11
39.2523172557634
21
-15.1344222947864
72
1
10
39.2523172557634
20
-15.1344222947864
11
35.8491599415558
21
-16.0729604128775
97
0
75
0
76
1
52
0
41
0.0062
77
0
78
1
53
45
43
0
44
0
45
-0.0139193969876572
46
0.0139193969876572
79
0
47
0
98
1
10
0
20
0
0
DIMENSION
5
13B
100
AcDbEntity
8
SK2
62
256
6
ByLayer
370
18
48
1
60
0
100
AcDbDimension
2
_U0
10
15.4
20
-19.81599
30
0
11
22.7
21
-19.81599
31
0
70
32
71
1
72
1
41
1
210
0
220
0
230
1
3
Standard
100
AcDbAlignedDimension
13
30
23
-2.3
33
0
14
15.4
24
-2.3
34
0
50
0
100
AcDbRotatedDimension
1001
ACAD
1000
DSTYLE
1002
{
1070
   371
1070
    13
1070
   372
1070
    13
1070
   170
1070
     0
1070
   144
1040
1.0
1070
   277
1070
     2
1070
   284
1070
     8
1070
   278
1070
    46
1070
   146
1040
1.166667
1070
   345
1005
16
1070
   347
1005
16
1070
   346
1005
16
1070
   344
1005
0
1070
   343
1005
0
1070
   172
1070
     1
1070
    76
1070
     0
1070
    75
1070
     0
1070
   282
1070
     0
1070
   281
1070
     0
1070
     3
1000

1070
    71
1070
     0
1070
    74
1070
     0
1070
   279
1070
     0
1070
   173
1070
     1
1070
   340
1005
11A
1070
   271
1070
     2
1070
   272
1070
     2
1070
    77
1070
     1
1070
    73
1070
     1
1070
   171
1070
     3
1070
   274
1070
     4
1070
   177
1070
     2
1070
   176
1070
     2
1070
   178
1070
     2
1070
    78
1070
     8
1070
    48
1040
-0.1
1070
    41
1040
3.5
1070
   147
1040
1.5
1070
    42
1040
1.5875
1070
    44
1040
2.0
1070
   140
1040
3.0
1002
}
1001
ACAD_DSTYLE_DIM_LINETYPE
1070
   380
1005
16
1001
ACAD_DSTYLE_DIM_EXT1_LINETYPE
1070
   381
1005
16
1001
ACAD_DSTYLE_DIM_EXT2_LINETYPE
1070
   382
1005
16
0
DIMENSION
5
157
100
AcDbEntity
8
SK2
62
256
6
ByLayer
370
18
48
1
60
0
100
AcDbDimension
2
_U1
10
6
20
-29.81599
30
0
11
18
21
-29.81599
31
0
70
32
71
1
72
1
41
1
210
0
220
0
230
1
3
Standard
100
AcDbAlignedDimension
13
30
23
-2.3
33
0
14
6
24
-2.3
34
0
50
0
100
AcDbRotatedDimension
1001
ACAD
1000
DSTYLE
1002
{
1070
   371
1070
    13
1070
   372
1070
    13
1070
     3
1000

1070
   170
1070
     0
1070
   144
1040
1.0
1070
   277
1070
     2
1070
   284
1070
     8
1070
   278
1070
    46
1070
   146
1040
1.166667
1070
   345
1005
16
1070
   347
1005
16
1070
   346
1005
16
1070
   344
1005
0
1070
   343
1005
0
1070
   172
1070
     1
1070
    76
1070
     0
1070
    75
1070
     0
1070
   282
1070
     0
1070
   281
1070
     0
1070
    71
1070
     0
1070
    74
1070
     0
1070
   279
1070
     0
1070
   173
1070
     1
1070
   340
1005
11A
1070
   271
1070
     2
1070
   272
1070
     2
1070
    77
1070
     1
1070
    73
1070
     1
1070
   171
1070
     3
1070
   274
1070
     4
1070
   177
1070
     2
1070
   176
1070
     2
1070
   178
1070
     2
1070
    78
1070
     8
1070
    48
1040
-0.1
1070
    41
1040
3.5
1070
   147
1040
1.5
1070
    42
1040
1.5875
1070
    44
1040
2.0
1070
   140
1040
3.0
1002
}
1001
ACAD_DSTYLE_DIM_LINETYPE
1070
   380
1005
16
1001
ACAD_DSTYLE_DIM_EXT1_LINETYPE
1070
   381
1005
16
1001
ACAD_DSTYLE_DIM_EXT2_LINETYPE
1070
   382
1005
16
0
DIMENSION
5
16F
100
AcDbEntity
8
SK2
62
256
6
ByLayer
370
18
48
1
60
0
100
AcDbDimension
2
_U2
10
0
20
-37.81599
30
0
11
-18
21
-37.81599
31
0
70
32
71
1
72
1
41
1
210
0
220
0
230
1
3
Standard
100
AcDbAlignedDimension
13
-36
23
-3
33
0
14
0
24
-3
34
0
50
0
100
AcDbRotatedDimension
1001
ACAD
1000
DSTYLE
1002
{
1070
   371
1070
    13
1070
   372
1070
    13
1070
     3
1000

1070
   170
1070
     0
1070
   144
1040
1.0
1070
   277
1070
     2
1070
   284
1070
     8
1070
   278
1070
    46
1070
   146
1040
1.166667
1070
   345
1005
16
1070
   347
1005
16
1070
   346
1005
16
1070
   344
1005
0
1070
   343
1005
0
1070
   172
1070
     1
1070
    76
1070
     0
1070
    75
1070
     0
1070
   282
1070
     0
1070
   281
1070
     0
1070
    71
1070
     0
1070
    74
1070
     0
1070
   279
1070
     0
1070
   173
1070
     1
1070
   340
1005
11A
1070
   271
1070
     2
1070
   272
1070
     2
1070
    77
1070
     1
1070
    73
1070
     1
1070
   171
1070
     3
1070
   274
1070
     4
1070
   177
1070
     2
1070
   176
1070
     2
1070
   178
1070
     2
1070
    78
1070
     8
1070
    48
1040
-0.1
1070
    41
1040
3.5
1070
   147
1040
1.5
1070
    42
1040
1.5875
1070
    44
1040
2.0
1070
   140
1040
3.0
1002
}
1001
ACAD_DSTYLE_DIM_LINETYPE
1070
   380
1005
16
1001
ACAD_DSTYLE_DIM_EXT1_LINETYPE
1070
   381
1005
16
1001
ACAD_DSTYLE_DIM_EXT2_LINETYPE
1070
   382
1005
16
0
DIMENSION
5
187
100
AcDbEntity
8
SK2
62
256
6
ByLayer
370
18
48
1
60
0
100
AcDbDimension
2
_U3
10
30
20
-45.81599
30
0
11
-3
21
-45.81599
31
0
70
32
71
1
72
1
41
1
210
0
220
0
230
1
3
Standard
100
AcDbAlignedDimension
13
-36
23
-3
33
0
14
30
24
-2.3
34
0
50
0
100
AcDbRotatedDimension
1001
ACAD
1000
DSTYLE
1002
{
1070
   371
1070
    13
1070
   372
1070
    13
1070
     3
1000

1070
   170
1070
     0
1070
   144
1040
1.0
1070
   277
1070
     2
1070
   284
1070
     8
1070
   278
1070
    46
1070
   146
1040
1.166667
1070
   345
1005
16
1070
   347
1005
16
1070
   346
1005
16
1070
   344
1005
0
1070
   343
1005
0
1070
   172
1070
     1
1070
    76
1070
     0
1070
    75
1070
     0
1070
   282
1070
     0
1070
   281
1070
     0
1070
    71
1070
     0
1070
    74
1070
     0
1070
   279
1070
     0
1070
   173
1070
     1
1070
   340
1005
11A
1070
   271
1070
     2
1070
   272
1070
     2
1070
    77
1070
     1
1070
    73
1070
     1
1070
   171
1070
     3
1070
   274
1070
     4
1070
   177
1070
     2
1070
   176
1070
     2
1070
   178
1070
     2
1070
    78
1070
     8
1070
    48
1040
-0.1
1070
    41
1040
3.5
1070
   147
1040
1.5
1070
    42
1040
1.5875
1070
    44
1040
2.0
1070
   140
1040
3.0
1002
}
1001
ACAD_DSTYLE_DIM_LINETYPE
1070
   380
1005
16
1001
ACAD_DSTYLE_DIM_EXT1_LINETYPE
1070
   381
1005
16
1001
ACAD_DSTYLE_DIM_EXT2_LINETYPE
1070
   382
1005
16
0
DIMENSION
5
19F
100
AcDbEntity
8
2
62
256
6
ByLayer
370
18
48
1
60
0
100
AcDbDimension
2
_U4
10
0
20
-37.81599
30
0
11
15
21
-37.81599
31
0
70
32
71
1
72
1
41
1
210
0
220
0
230
1
3
Standard
100
AcDbAlignedDimension
13
30
23
-2.3
33
0
14
0
24
-2.3
34
0
50
0
100
AcDbRotatedDimension
1001
ACAD
1000
DSTYLE
1002
{
1070
   371
1070
    13
1070
   372
1070
    13
1070
     3
1000

1070
   170
1070
     0
1070
   144
1040
1.0
1070
   277
1070
     2
1070
   284
1070
     8
1070
   278
1070
    46
1070
   146
1040
1.166667
1070
   345
1005
16
1070
   347
1005
16
1070
   346
1005
16
1070
   344
1005
0
1070
   343
1005
0
1070
   172
1070
     1
1070
    76
1070
     0
1070
    75
1070
     0
1070
   282
1070
     0
1070
   281
1070
     0
1070
    71
1070
     0
1070
    74
1070
     0
1070
   279
1070
     0
1070
   173
1070
     1
1070
   340
1005
11A
1070
   271
1070
     2
1070
   272
1070
     2
1070
    77
1070
     1
1070
    73
1070
     1
1070
   171
1070
     3
1070
   274
1070
     4
1070
   177
1070
     2
1070
   176
1070
     2
1070
   178
1070
     2
1070
    78
1070
     8
1070
    48
1040
-0.1
1070
    41
1040
3.5
1070
   147
1040
1.5
1070
    42
1040
1.5875
1070
    44
1040
2.0
1070
   140
1040
3.0
1002
}
1001
ACAD_DSTYLE_DIM_LINETYPE
1070
   380
1005
16
1001
ACAD_DSTYLE_DIM_EXT1_LINETYPE
1070
   381
1005
16
1001
ACAD_DSTYLE_DIM_EXT2_LINETYPE
1070
   382
1005
16
0
ENDSEC
0
SECTION
2
OBJECTS
0
DICTIONARY
5
227
330
0
100
AcDbDictionary
280
0
281
1
3
ACAD_GROUP
350
228
3
ACAD_MLINESTYLE
350
229
0
DICTIONARY
5
228
330
0
100
AcDbDictionary
280
0
281
1
0
DICTIONARY
5
229
330
0
100
AcDbDictionary
280
0
281
1
3
Standard
350
18
0
MLINESTYLE
5
18
330
229
100
AcDbMlineStyle
2
Standard
70
0
3

62
256
51
90
52
90
71
2
49
-0.5
62
256
6
ByLayer
49
0.5
62
256
6
ByLayer
0
RASTERVARIABLES
5
215
330

100
AcDbRasterVariables
90
0
70
1
71
1
72
1
0
ENDSEC
0
EOF
