0
SECTION
2
HEADER
9
$ACADVER
1
AC1015
9
$DWGCODEPAGE
3
ANSI_1252
9
$HANDSEED
5
235
9
$ANGBASE
50
0
9
$ANGDIR
70
0
9
$ATTMODE
70
1
9
$AUNITS
70
0
9
$AUPREC
70
0
9
$CECOLOR
62
256
9
$CELTSCALE
40
1
9
$CELTYPE
6
ByLayer
9
$CELWEIGHT
370
18
9
$CLAYER
8
0
9
$CMLJUST
70
0
9
$CMLSCALE
40
1
9
$CMLSTYLE
2
Standard
9
$DIMSTYLE
2
Standard
9
$TEXTSIZE
40
0.2
9
$TEXTSTYLE
7
Standard
9
$LUNITS
70
2
9
$LUPREC
70
4
9
$EXTNAMES
290
1
9
$INSUNITS
70
4
9
$LTSCALE
40
1
9
$LWDISPLAY
290
1
9
$PDMODE
70
0
9
$PDSIZE
40
0
9
$PLINEGEN
70
0
0
ENDSEC
0
SECTION
2
CLASSES
0
CLASS
1
RASTERVARIABLES
2
AcDbRasterVariables
3
ISM
90
0
280
0
281
0
0
ENDSEC
0
SECTION
2
TABLES
0
TABLE
2
VPORT
5
22b
100
AcDbSymbolTable
0
VPORT
5
1
100
AcDbSymbolTableRecord
100
AcDbViewportTableRecord
2
*Active
70
0
10
0
20
0
11
1
21
1
12
-1
22
1
13
0
23
0
14
0.5
24
0.5
15
10
25
10
16
0
26
0
36
1
17
0
27
0
37
0
0
ENDTAB
0
TABLE
2
LTYPE
5
22c
100
AcDbSymbolTable
0
LTYPE
5
14
100
AcDbSymbolTableRecord
100
AcDbLinetypeTableRecord
70
0
2
ByBlock
3

72
65
73
0
40
0
0
LTYPE
5
15
100
AcDbSymbolTableRecord
100
AcDbLinetypeTableRecord
70
0
2
ByLayer
3

72
65
73
0
40
0
0
LTYPE
5
16
100
AcDbSymbolTableRecord
100
AcDbLinetypeTableRecord
70
0
2
Continuous
3
Solid line
72
65
73
0
40
0
0
LTYPE
5
6E
100
AcDbSymbolTableRecord
100
AcDbLinetypeTableRecord
70
0
2
CENTER
3
____ _ ____ _ ____ _ ____
72
65
73
4
40
47.5
49
22
74
0
49
-8.5
74
0
49
8.5
74
0
49
-8.5
74
0
0
LTYPE
5
6F
100
AcDbSymbolTableRecord
100
AcDbLinetypeTableRecord
70
0
2
DASHED
3
__ __ __ __ __ __ __ __ __
72
65
73
2
40
25.72
49
12.86
74
0
49
-12.86
74
0
0
ENDTAB
0
TABLE
2
LAYER
5
22d
100
AcDbSymbolTable
0
LAYER
5
10
100
AcDbSymbolTableRecord
100
AcDbLayerTableRecord
2
0
70
0
62
7
6
Continuous
290
1
370
-3
390
0
0
LAYER
5
71
100
AcDbSymbolTableRecord
100
AcDbLayerTableRecord
2
80
70
0
62
-6
6
Continuous
290
1
370
-3
390
0
0
LAYER
5
73
100
AcDbSymbolTableRecord
100
AcDbLayerTableRecord
2
81
70
0
62
-3
6
Continuous
290
1
370
-3
390
0
0
LAYER
5
75
100
AcDbSymbolTableRecord
100
AcDbLayerTableRecord
2
1
70
0
62
4
6
Continuous
290
1
370
-3
390
0
0
LAYER
5
83
100
AcDbSymbolTableRecord
100
AcDbLayerTableRecord
2
4
70
0
62
-2
6
CENTER
290
1
370
-3
390
0
0
LAYER
5
A1
100
AcDbSymbolTableRecord
100
AcDbLayerTableRecord
2
2
70
0
62
7
6
Continuous
290
1
370
-3
390
0
0
LAYER
5
13F
100
AcDbSymbolTableRecord
100
AcDbLayerTableRecord
2
Defpoints
70
0
62
7
6
Continuous
290
0
370
-3
390
0
0
LAYER
5
217
100
AcDbSymbolTableRecord
100
AcDbLayerTableRecord
2
SK4
70
0
62
2
6
CENTER
290
1
370
-3
390
0
0
LAYER
5
218
100
AcDbSymbolTableRecord
100
AcDbLayerTableRecord
2
SK1
70
0
62
4
6
Continuous
290
1
370
-3
390
0
0
LAYER
5
219
100
AcDbSymbolTableRecord
100
AcDbLayerTableRecord
2
SK2
70
0
62
7
6
Continuous
290
1
370
-3
390
0
0
LAYER
5
21a
100
AcDbSymbolTableRecord
100
AcDbLayerTableRecord
2
SK6
70
0
62
5
6
Continuous
290
1
370
-3
390
0
0
ENDTAB
0
TABLE
2
STYLE
5
22e
100
AcDbSymbolTable
0
STYLE
5
11
100
AcDbSymbolTableRecord
100
AcDbTextStyleTableRecord
2
Standard
3
txt
70
0
71
0
40
0
41
1
42
0
50
0
0
STYLE
5
11B
100
AcDbSymbolTableRecord
100
AcDbTextStyleTableRecord
2
iso_b_vert
3
simplex.shx
70
0
71
0
40
0
41
1
42
0
50
0
0
STYLE
5
11C
100
AcDbSymbolTableRecord
100
AcDbTextStyleTableRecord
2
DWGDirectTextStyle
3
simplex
70
0
71
0
40
0
41
1
42
0
50
0
0
ENDTAB
0
TABLE
2
DIMSTYLE
5
22f
100
AcDbSymbolTable
100
AcDbDimStyleTable
0
DIMSTYLE
105
27
100
AcDbSymbolTableRecord
100
AcDbDimStyleTableRecord
2
Standard
70
0
3
<>
41
0.18
42
0.0625
44
0.18
140
0.18
147
0.09
73
0
74
0
77
1
271
2
275
0
278
52
280
0
340
11
0
ENDTAB
0
TABLE
2
VIEW
5
230
100
AcDbSymbolTable
0
ENDTAB
0
TABLE
2
UCS
5
231
100
AcDbSymbolTable
0
ENDTAB
0
TABLE
2
APPID
5
232
100
AcDbSymbolTable
0
APPID
5
12
100
AcDbSymbolTableRecord
100
AcDbRegAppTableRecord
2
ACAD
70
0
0
APPID
5
13B
100
AcDbSymbolTableRecord
100
AcDbRegAppTableRecord
2
ACAD_DSTYLE_DIMBREAK
70
0
0
APPID
5
1D6
100
AcDbSymbolTableRecord
100
AcDbRegAppTableRecord
2
ACAD_DSTYLE_DIM_LINETYPE
70
0
0
APPID
5
1D7
100
AcDbSymbolTableRecord
100
AcDbRegAppTableRecord
2
ACAD_DSTYLE_DIM_EXT1_LINETYPE
70
0
0
APPID
5
1D8
100
AcDbSymbolTableRecord
100
AcDbRegAppTableRecord
2
ACAD_DSTYLE_DIM_EXT2_LINETYPE
70
0
0
APPID
5
213
100
AcDbSymbolTableRecord
100
AcDbRegAppTableRecord
2
ACAD_MLEADERVER
70
0
0
ENDTAB
0
TABLE
2
BLOCK_RECORD
5
233
100
AcDbSymbolTable
0
BLOCK_RECORD
5
1F
100
AcDbSymbolTableRecord
100
AcDbBlockTableRecord
2
*Model_Space
340
0
70
0
0
BLOCK_RECORD
5
1B
100
AcDbSymbolTableRecord
100
AcDbBlockTableRecord
2
*Paper_Space
340
0
70
0
0
BLOCK_RECORD
5
23
100
AcDbSymbolTableRecord
100
AcDbBlockTableRecord
2
*Paper_Space0
340
0
70
0
0
BLOCK_RECORD
5
140
100
AcDbSymbolTableRecord
100
AcDbBlockTableRecord
2
*D1
340
0
70
0
0
BLOCK_RECORD
5
14D
100
AcDbSymbolTableRecord
100
AcDbBlockTableRecord
2
_U0
340
0
70
0
0
BLOCK_RECORD
5
15B
100
AcDbSymbolTableRecord
100
AcDbBlockTableRecord
2
*D3
340
0
70
0
0
BLOCK_RECORD
5
167
100
AcDbSymbolTableRecord
100
AcDbBlockTableRecord
2
_U1
340
0
70
0
0
BLOCK_RECORD
5
173
100
AcDbSymbolTableRecord
100
AcDbBlockTableRecord
2
*D5
340
0
70
0
0
BLOCK_RECORD
5
17F
100
AcDbSymbolTableRecord
100
AcDbBlockTableRecord
2
_U2
340
0
70
0
0
BLOCK_RECORD
5
18B
100
AcDbSymbolTableRecord
100
AcDbBlockTableRecord
2
*D7
340
0
70
0
0
BLOCK_RECORD
5
197
100
AcDbSymbolTableRecord
100
AcDbBlockTableRecord
2
_U3
340
0
70
0
0
BLOCK_RECORD
5
1A3
100
AcDbSymbolTableRecord
100
AcDbBlockTableRecord
2
*D9
340
0
70
0
0
BLOCK_RECORD
5
1AF
100
AcDbSymbolTableRecord
100
AcDbBlockTableRecord
2
_U4
340
0
70
0
0
ENDTAB
0
ENDSEC
0
SECTION
2
BLOCKS
0
BLOCK
5
20
100
AcDbEntity
8
0
100
AcDbBlockBegin
2
*Model_Space
70
0
10
0
20
0
30
0
3
*Model_Space
0
ENDBLK
5
21
100
AcDbEntity
8
0
100
AcDbBlockEnd
0
BLOCK
5
1C
100
AcDbEntity
8
0
100
AcDbBlockBegin
2
*Paper_Space
70
0
10
0
20
0
30
0
3
*Paper_Space
0
ENDBLK
5
1D
100
AcDbEntity
8
0
100
AcDbBlockEnd
0
BLOCK
5
24
100
AcDbEntity
8
0
100
AcDbBlockBegin
2
*Paper_Space0
70
0
10
0
20
0
30
0
3
*Paper_Space0
0
ENDBLK
5
25
100
AcDbEntity
8
0
100
AcDbBlockEnd
0
BLOCK
5
141
100
AcDbEntity
8
0
100
AcDbBlockBegin
2
*D1
70
1
10
0
20
0
30
0
3
*D1
0
LINE
5
143
100
AcDbEntity
8
0
62
256
6
ByLayer
370
-2
48
1
60
0
100
AcDbLine
10
30
20
-3.6625
30
0
11
30
21
-21.664552
31
0
39
0
210
0
220
0
230
1
0
LINE
5
144
100
AcDbEntity
8
0
62
256
6
ByLayer
370
-2
48
1
60
0
100
AcDbLine
10
16.8
20
-3.6625
30
0
11
16.8
21
-21.664552
31
0
39
0
210
0
220
0
230
1
0
LINE
5
145
100
AcDbEntity
8
0
62
256
6
ByLayer
370
-2
48
1
60
0
100
AcDbLine
10
33.5
20
-19.664552
30
0
11
37
21
-19.664552
31
0
39
0
210
0
220
0
230
1
0
LINE
5
146
100
AcDbEntity
8
0
62
256
6
ByLayer
370
-2
48
1
60
0
100
AcDbLine
10
13.3
20
-19.664552
30
0
11
9.8
21
-19.664552
31
0
39
0
210
0
220
0
230
1
0
SOLID
5
147
100
AcDbEntity
8
0
62
256
6
ByLayer
370
-1
48
1
60
0
100
AcDbTrace
10
33.5
20
-19.081219
30
0
11
33.5
21
-20.247885
31
0
12
30
22
-19.664552
32
0
13
30
23
-19.664552
33
0
39
0
210
0
220
0
230
1
0
SOLID
5
148
100
AcDbEntity
8
0
62
256
6
ByLayer
370
-1
48
1
60
0
100
AcDbTrace
10
13.3
20
-20.247885
30
0
11
13.3
21
-19.081219
31
0
12
16.8
22
-19.664552
32
0
13
16.8
23
-19.664552
33
0
39
0
210
0
220
0
230
1
0
MTEXT
5
149
100
AcDbEntity
8
0
62
256
6
ByLayer
370
18
48
1
60
0
100
AcDbMText
10
23.4
20
-13.664552
30
0
210
0
220
0
230
1
1
\A1;13.2
40
3
41
0
44
1
50
0
71
5
72
5
7
iso_b_vert
0
POINT
5
14A
100
AcDbEntity
8
Defpoints
62
0
6
ByLayer
370
-1
48
1
60
0
100
AcDbPoint
10
30
20
-2.075
30
0
39
0
210
0
220
0
230
1
50
360
0
POINT
5
14B
100
AcDbEntity
8
Defpoints
62
0
6
ByLayer
370
-1
48
1
60
0
100
AcDbPoint
10
16.8
20
-2.075
30
0
39
0
210
0
220
0
230
1
50
360
0
POINT
5
14C
100
AcDbEntity
8
Defpoints
62
0
6
ByLayer
370
-1
48
1
60
0
100
AcDbPoint
10
16.8
20
-19.664552
30
0
39
0
210
0
220
0
230
1
50
360
0
ENDBLK
5
142
100
AcDbEntity
8
0
100
AcDbBlockEnd
0
BLOCK
5
156
100
AcDbEntity
8
0
100
AcDbBlockBegin
2
_U0
70
0
10
0
20
0
30
0
3
_U0
0
MTEXT
5
14E
100
AcDbEntity
8
SK2
62
256
6
ByLayer
370
18
48
1
60
0
100
AcDbMText
10
20.413486
20
-17.466937
30
0
210
0
220
0
230
1
1
\W0.6563;13.2
40
3
41
0
44
1.084337
50
0
71
7
72
5
7
iso_b_vert
0
MTEXT
5
14F
100
AcDbEntity
8
SK2
62
256
6
ByLayer
370
18
48
1
60
0
100
AcDbMText
10
18.313486
20
-17.466937
30
0
210
0
220
0
230
1
1
\W1.1313;{\H1.88x;(}
40
3
41
0
44
1.084337
50
0
71
7
72
5
7
iso_b_vert
0
MTEXT
5
150
100
AcDbEntity
8
SK2
62
256
6
ByLayer
370
18
48
1
60
0
100
AcDbMText
10
26.704514
20
-17.466937
30
0
210
0
220
0
230
1
1
\W1.1313;{\H1.88x;)}
40
3
41
0
44
1.084337
50
0
71
7
72
5
7
iso_b_vert
0
LINE
5
151
100
AcDbEntity
8
SK2
62
256
6
ByLayer
370
13
48
1
60
0
100
AcDbLine
10
30
20
-3.6625
30
0
11
30
21
-21.664552
31
0
39
0
210
0
220
0
230
1
0
LINE
5
152
100
AcDbEntity
8
SK2
62
256
6
ByLayer
370
13
48
1
60
0
100
AcDbLine
10
16.8
20
-3.6625
30
0
11
16.8
21
-21.664552
31
0
39
0
210
0
220
0
230
1
0
LINE
5
153
100
AcDbEntity
8
SK2
62
256
6
ByLayer
370
13
48
1
60
0
100
AcDbLine
10
30
20
-19.664552
30
0
11
16.8
21
-19.664552
31
0
39
0
210
0
220
0
230
1
0
SOLID
5
154
100
AcDbEntity
8
SK2
62
256
6
ByLayer
370
18
48
1
60
0
100
AcDbTrace
10
30
20
-19.664552
30
0
11
26.500002
21
-20.125336
31
0
12
26.499998
22
-19.203768
32
0
13
26.499998
23
-19.203768
33
0
39
0
210
0
220
0
230
1
0
SOLID
5
155
100
AcDbEntity
8
SK2
62
256
6
ByLayer
370
18
48
1
60
0
100
AcDbTrace
10
16.8
20
-19.664552
30
0
11
20.299998
21
-19.203768
31
0
12
20.300002
22
-20.125336
32
0
13
20.300002
23
-20.125336
33
0
39
0
210
0
220
0
230
1
0
ENDBLK
5
157
100
AcDbEntity
8
0
100
AcDbBlockEnd
0
BLOCK
5
15C
100
AcDbEntity
8
0
100
AcDbBlockBegin
2
*D3
70
1
10
0
20
0
30
0
3
*D3
0
LINE
5
15E
100
AcDbEntity
8
0
62
256
6
ByLayer
370
-2
48
1
60
0
100
AcDbLine
10
30
20
-3.6625
30
0
11
30
21
-31.664552
31
0
39
0
210
0
220
0
230
1
0
LINE
5
15F
100
AcDbEntity
8
0
62
256
6
ByLayer
370
-2
48
1
60
0
100
AcDbLine
10
6
20
-3.6625
30
0
11
6
21
-31.664552
31
0
39
0
210
0
220
0
230
1
0
LINE
5
160
100
AcDbEntity
8
0
62
256
6
ByLayer
370
-2
48
1
60
0
100
AcDbLine
10
26.5
20
-29.664552
30
0
11
9.5
21
-29.664552
31
0
39
0
210
0
220
0
230
1
0
SOLID
5
161
100
AcDbEntity
8
0
62
256
6
ByLayer
370
-1
48
1
60
0
100
AcDbTrace
10
26.5
20
-30.247885
30
0
11
26.5
21
-29.081219
31
0
12
30
22
-29.664552
32
0
13
30
23
-29.664552
33
0
39
0
210
0
220
0
230
1
0
SOLID
5
162
100
AcDbEntity
8
0
62
256
6
ByLayer
370
-1
48
1
60
0
100
AcDbTrace
10
9.5
20
-29.081219
30
0
11
9.5
21
-30.247885
31
0
12
6
22
-29.664552
32
0
13
6
23
-29.664552
33
0
39
0
210
0
220
0
230
1
0
MTEXT
5
163
100
AcDbEntity
8
0
62
256
6
ByLayer
370
18
48
1
60
0
100
AcDbMText
10
18
20
-23.664552
30
0
210
0
220
0
230
1
1
\A1;24
40
3
41
0
44
1
50
0
71
5
72
5
7
iso_b_vert
0
POINT
5
164
100
AcDbEntity
8
Defpoints
62
0
6
ByLayer
370
-1
48
1
60
0
100
AcDbPoint
10
30
20
-2.075
30
0
39
0
210
0
220
0
230
1
50
360
0
POINT
5
165
100
AcDbEntity
8
Defpoints
62
0
6
ByLayer
370
-1
48
1
60
0
100
AcDbPoint
10
6
20
-2.075
30
0
39
0
210
0
220
0
230
1
50
360
0
POINT
5
166
100
AcDbEntity
8
Defpoints
62
0
6
ByLayer
370
-1
48
1
60
0
100
AcDbPoint
10
6
20
-29.664552
30
0
39
0
210
0
220
0
230
1
50
360
0
ENDBLK
5
15D
100
AcDbEntity
8
0
100
AcDbBlockEnd
0
BLOCK
5
16E
100
AcDbEntity
8
0
100
AcDbBlockBegin
2
_U1
70
0
10
0
20
0
30
0
3
_U1
0
MTEXT
5
168
100
AcDbEntity
8
SK2
62
256
6
ByLayer
370
18
48
1
60
0
100
AcDbMText
10
16.209229
20
-28.779437
30
0
210
0
220
0
230
1
1
\W0.7167;24
40
3
41
0
44
1.084337
50
0
71
7
72
5
7
iso_b_vert
0
LINE
5
169
100
AcDbEntity
8
SK2
62
256
6
ByLayer
370
13
48
1
60
0
100
AcDbLine
10
30
20
-3.6625
30
0
11
30
21
-31.664552
31
0
39
0
210
0
220
0
230
1
0
LINE
5
16A
100
AcDbEntity
8
SK2
62
256
6
ByLayer
370
13
48
1
60
0
100
AcDbLine
10
6
20
-3.6625
30
0
11
6
21
-31.664552
31
0
39
0
210
0
220
0
230
1
0
LINE
5
16B
100
AcDbEntity
8
SK2
62
256
6
ByLayer
370
13
48
1
60
0
100
AcDbLine
10
30
20
-29.664552
30
0
11
6
21
-29.664552
31
0
39
0
210
0
220
0
230
1
0
SOLID
5
16C
100
AcDbEntity
8
SK2
62
256
6
ByLayer
370
18
48
1
60
0
100
AcDbTrace
10
30
20
-29.664552
30
0
11
26.500002
21
-30.125336
31
0
12
26.499998
22
-29.203768
32
0
13
26.499998
23
-29.203768
33
0
39
0
210
0
220
0
230
1
0
SOLID
5
16D
100
AcDbEntity
8
SK2
62
256
6
ByLayer
370
18
48
1
60
0
100
AcDbTrace
10
6
20
-29.664552
30
0
11
9.499998
21
-29.203768
31
0
12
9.500002
22
-30.125336
32
0
13
9.500002
23
-30.125336
33
0
39
0
210
0
220
0
230
1
0
ENDBLK
5
16F
100
AcDbEntity
8
0
100
AcDbBlockEnd
0
BLOCK
5
174
100
AcDbEntity
8
0
100
AcDbBlockBegin
2
*D5
70
1
10
0
20
0
30
0
3
*D5
0
LINE
5
176
100
AcDbEntity
8
0
62
256
6
ByLayer
370
-2
48
1
60
0
100
AcDbLine
10
-36
20
-4.5875
30
0
11
-36
21
-39.664552
31
0
39
0
210
0
220
0
230
1
0
LINE
5
177
100
AcDbEntity
8
0
62
256
6
ByLayer
370
-2
48
1
60
0
100
AcDbLine
10
0
20
-4.5875
30
0
11
0
21
-39.664552
31
0
39
0
210
0
220
0
230
1
0
LINE
5
178
100
AcDbEntity
8
0
62
256
6
ByLayer
370
-2
48
1
60
0
100
AcDbLine
10
-32.5
20
-37.664552
30
0
11
-3.5
21
-37.664552
31
0
39
0
210
0
220
0
230
1
0
SOLID
5
179
100
AcDbEntity
8
0
62
256
6
ByLayer
370
-1
48
1
60
0
100
AcDbTrace
10
-32.5
20
-37.081219
30
0
11
-32.5
21
-38.247885
31
0
12
-36
22
-37.664552
32
0
13
-36
23
-37.664552
33
0
39
0
210
0
220
0
230
1
0
SOLID
5
17A
100
AcDbEntity
8
0
62
256
6
ByLayer
370
-1
48
1
60
0
100
AcDbTrace
10
-3.5
20
-38.247885
30
0
11
-3.5
21
-37.081219
31
0
12
0
22
-37.664552
32
0
13
0
23
-37.664552
33
0
39
0
210
0
220
0
230
1
0
MTEXT
5
17B
100
AcDbEntity
8
0
62
256
6
ByLayer
370
18
48
1
60
0
100
AcDbMText
10
-18
20
-31.664552
30
0
210
0
220
0
230
1
1
\A1;36
40
3
41
0
44
1
50
0
71
5
72
5
7
iso_b_vert
0
POINT
5
17C
100
AcDbEntity
8
Defpoints
62
0
6
ByLayer
370
-1
48
1
60
0
100
AcDbPoint
10
-36
20
-3
30
0
39
0
210
0
220
0
230
1
50
360
0
POINT
5
17D
100
AcDbEntity
8
Defpoints
62
0
6
ByLayer
370
-1
48
1
60
0
100
AcDbPoint
10
0
20
-3
30
0
39
0
210
0
220
0
230
1
50
360
0
POINT
5
17E
100
AcDbEntity
8
Defpoints
62
0
6
ByLayer
370
-1
48
1
60
0
100
AcDbPoint
10
0
20
-37.664552
30
0
39
0
210
0
220
0
230
1
50
360
0
ENDBLK
5
175
100
AcDbEntity
8
0
100
AcDbBlockEnd
0
BLOCK
5
186
100
AcDbEntity
8
0
100
AcDbBlockBegin
2
_U2
70
0
10
0
20
0
30
0
3
_U2
0
MTEXT
5
180
100
AcDbEntity
8
SK2
62
256
6
ByLayer
370
18
48
1
60
0
100
AcDbMText
10
-19.632828
20
-36.779437
30
0
210
0
220
0
230
1
1
\W0.6740;36
40
3
41
0
44
1.084337
50
0
71
7
72
5
7
iso_b_vert
0
LINE
5
181
100
AcDbEntity
8
SK2
62
256
6
ByLayer
370
13
48
1
60
0
100
AcDbLine
10
-36
20
-4.5875
30
0
11
-36
21
-39.664552
31
0
39
0
210
0
220
0
230
1
0
LINE
5
182
100
AcDbEntity
8
SK2
62
256
6
ByLayer
370
13
48
1
60
0
100
AcDbLine
10
0
20
-4.5875
30
0
11
0
21
-39.664552
31
0
39
0
210
0
220
0
230
1
0
LINE
5
183
100
AcDbEntity
8
SK2
62
256
6
ByLayer
370
13
48
1
60
0
100
AcDbLine
10
-36
20
-37.664552
30
0
11
0
21
-37.664552
31
0
39
0
210
0
220
0
230
1
0
SOLID
5
184
100
AcDbEntity
8
SK2
62
256
6
ByLayer
370
18
48
1
60
0
100
AcDbTrace
10
-36
20
-37.664552
30
0
11
-32.500002
21
-37.203768
31
0
12
-32.499998
22
-38.125336
32
0
13
-32.499998
23
-38.125336
33
0
39
0
210
0
220
0
230
1
0
SOLID
5
185
100
AcDbEntity
8
SK2
62
256
6
ByLayer
370
18
48
1
60
0
100
AcDbTrace
10
0
20
-37.664552
30
0
11
-3.499998
21
-38.125336
31
0
12
-3.500002
22
-37.203768
32
0
13
-3.500002
23
-37.203768
33
0
39
0
210
0
220
0
230
1
0
ENDBLK
5
187
100
AcDbEntity
8
0
100
AcDbBlockEnd
0
BLOCK
5
18C
100
AcDbEntity
8
0
100
AcDbBlockBegin
2
*D7
70
1
10
0
20
0
30
0
3
*D7
0
LINE
5
18E
100
AcDbEntity
8
0
62
256
6
ByLayer
370
-2
48
1
60
0
100
AcDbLine
10
-36
20
-4.5875
30
0
11
-36
21
-47.664552
31
0
39
0
210
0
220
0
230
1
0
LINE
5
18F
100
AcDbEntity
8
0
62
256
6
ByLayer
370
-2
48
1
60
0
100
AcDbLine
10
30
20
-3.6625
30
0
11
30
21
-47.664552
31
0
39
0
210
0
220
0
230
1
0
LINE
5
190
100
AcDbEntity
8
0
62
256
6
ByLayer
370
-2
48
1
60
0
100
AcDbLine
10
-32.5
20
-45.664552
30
0
11
26.5
21
-45.664552
31
0
39
0
210
0
220
0
230
1
0
SOLID
5
191
100
AcDbEntity
8
0
62
256
6
ByLayer
370
-1
48
1
60
0
100
AcDbTrace
10
-32.5
20
-45.081219
30
0
11
-32.5
21
-46.247885
31
0
12
-36
22
-45.664552
32
0
13
-36
23
-45.664552
33
0
39
0
210
0
220
0
230
1
0
SOLID
5
192
100
AcDbEntity
8
0
62
256
6
ByLayer
370
-1
48
1
60
0
100
AcDbTrace
10
26.5
20
-46.247885
30
0
11
26.5
21
-45.081219
31
0
12
30
22
-45.664552
32
0
13
30
23
-45.664552
33
0
39
0
210
0
220
0
230
1
0
MTEXT
5
193
100
AcDbEntity
8
0
62
256
6
ByLayer
370
18
48
1
60
0
100
AcDbMText
10
-3
20
-39.664552
30
0
210
0
220
0
230
1
1
\A1;66
40
3
41
0
44
1
50
0
71
5
72
5
7
iso_b_vert
0
POINT
5
194
100
AcDbEntity
8
Defpoints
62
0
6
ByLayer
370
-1
48
1
60
0
100
AcDbPoint
10
-36
20
-3
30
0
39
0
210
0
220
0
230
1
50
360
0
POINT
5
195
100
AcDbEntity
8
Defpoints
62
0
6
ByLayer
370
-1
48
1
60
0
100
AcDbPoint
10
30
20
-2.075
30
0
39
0
210
0
220
0
230
1
50
360
0
POINT
5
196
100
AcDbEntity
8
Defpoints
62
0
6
ByLayer
370
-1
48
1
60
0
100
AcDbPoint
10
30
20
-45.664552
30
0
39
0
210
0
220
0
230
1
50
360
0
ENDBLK
5
18D
100
AcDbEntity
8
0
100
AcDbBlockEnd
0
BLOCK
5
19E
100
AcDbEntity
8
0
100
AcDbBlockBegin
2
_U3
70
0
10
0
20
0
30
0
3
_U3
0
MTEXT
5
198
100
AcDbEntity
8
SK2
62
256
6
ByLayer
370
18
48
1
60
0
100
AcDbMText
10
-4.632828
20
-44.779437
30
0
210
0
220
0
230
1
1
\W0.6740;66
40
3
41
0
44
1.084337
50
0
71
7
72
5
7
iso_b_vert
0
LINE
5
199
100
AcDbEntity
8
SK2
62
256
6
ByLayer
370
13
48
1
60
0
100
AcDbLine
10
-36
20
-4.5875
30
0
11
-36
21
-47.664552
31
0
39
0
210
0
220
0
230
1
0
LINE
5
19A
100
AcDbEntity
8
SK2
62
256
6
ByLayer
370
13
48
1
60
0
100
AcDbLine
10
30
20
-3.6625
30
0
11
30
21
-47.664552
31
0
39
0
210
0
220
0
230
1
0
LINE
5
19B
100
AcDbEntity
8
SK2
62
256
6
ByLayer
370
13
48
1
60
0
100
AcDbLine
10
-36
20
-45.664552
30
0
11
30
21
-45.664552
31
0
39
0
210
0
220
0
230
1
0
SOLID
5
19C
100
AcDbEntity
8
SK2
62
256
6
ByLayer
370
18
48
1
60
0
100
AcDbTrace
10
-36
20
-45.664552
30
0
11
-32.500002
21
-45.203768
31
0
12
-32.499998
22
-46.125336
32
0
13
-32.499998
23
-46.125336
33
0
39
0
210
0
220
0
230
1
0
SOLID
5
19D
100
AcDbEntity
8
SK2
62
256
6
ByLayer
370
18
48
1
60
0
100
AcDbTrace
10
30
20
-45.664552
30
0
11
26.500002
21
-46.125336
31
0
12
26.499998
22
-45.203768
32
0
13
26.499998
23
-45.203768
33
0
39
0
210
0
220
0
230
1
0
ENDBLK
5
19F
100
AcDbEntity
8
0
100
AcDbBlockEnd
0
BLOCK
5
1A4
100
AcDbEntity
8
0
100
AcDbBlockBegin
2
*D9
70
1
10
0
20
0
30
0
3
*D9
0
LINE
5
1A6
100
AcDbEntity
8
0
62
256
6
ByLayer
370
-2
48
1
60
0
100
AcDbLine
10
30
20
-3.6625
30
0
11
30
21
-39.664552
31
0
39
0
210
0
220
0
230
1
0
LINE
5
1A7
100
AcDbEntity
8
0
62
256
6
ByLayer
370
-2
48
1
60
0
100
AcDbLine
10
0
20
-3.6625
30
0
11
0
21
-39.664552
31
0
39
0
210
0
220
0
230
1
0
LINE
5
1A8
100
AcDbEntity
8
0
62
256
6
ByLayer
370
-2
48
1
60
0
100
AcDbLine
10
26.5
20
-37.664552
30
0
11
3.5
21
-37.664552
31
0
39
0
210
0
220
0
230
1
0
SOLID
5
1A9
100
AcDbEntity
8
0
62
256
6
ByLayer
370
-1
48
1
60
0
100
AcDbTrace
10
26.5
20
-38.247885
30
0
11
26.5
21
-37.081219
31
0
12
30
22
-37.664552
32
0
13
30
23
-37.664552
33
0
39
0
210
0
220
0
230
1
0
SOLID
5
1AA
100
AcDbEntity
8
0
62
256
6
ByLayer
370
-1
48
1
60
0
100
AcDbTrace
10
3.5
20
-37.081219
30
0
11
3.5
21
-38.247885
31
0
12
0
22
-37.664552
32
0
13
0
23
-37.664552
33
0
39
0
210
0
220
0
230
1
0
MTEXT
5
1AB
100
AcDbEntity
8
0
62
256
6
ByLayer
370
18
48
1
60
0
100
AcDbMText
10
15
20
-31.664552
30
0
210
0
220
0
230
1
1
\A1;30
40
3
41
0
44
1
50
0
71
5
72
5
7
iso_b_vert
0
POINT
5
1AC
100
AcDbEntity
8
Defpoints
62
0
6
ByLayer
370
-1
48
1
60
0
100
AcDbPoint
10
30
20
-2.075
30
0
39
0
210
0
220
0
230
1
50
360
0
POINT
5
1AD
100
AcDbEntity
8
Defpoints
62
0
6
ByLayer
370
-1
48
1
60
0
100
AcDbPoint
10
0
20
-2.075
30
0
39
0
210
0
220
0
230
1
50
360
0
POINT
5
1AE
100
AcDbEntity
8
Defpoints
62
0
6
ByLayer
370
-1
48
1
60
0
100
AcDbPoint
10
0
20
-37.664552
30
0
39
0
210
0
220
0
230
1
50
360
0
ENDBLK
5
1A5
100
AcDbEntity
8
0
100
AcDbBlockEnd
0
BLOCK
5
1B6
100
AcDbEntity
8
0
100
AcDbBlockBegin
2
_U4
70
0
10
0
20
0
30
0
3
_U4
0
MTEXT
5
1B0
100
AcDbEntity
8
2
62
256
6
ByLayer
370
18
48
1
60
0
100
AcDbMText
10
13.367172
20
-36.779437
30
0
210
0
220
0
230
1
1
\W0.6740;30
40
3
41
0
44
1.084337
50
0
71
7
72
5
7
iso_b_vert
0
LINE
5
1B1
100
AcDbEntity
8
2
62
256
6
ByLayer
370
13
48
1
60
0
100
AcDbLine
10
30
20
-3.6625
30
0
11
30
21
-39.664552
31
0
39
0
210
0
220
0
230
1
0
LINE
5
1B2
100
AcDbEntity
8
2
62
256
6
ByLayer
370
13
48
1
60
0
100
AcDbLine
10
0
20
-3.6625
30
0
11
0
21
-39.664552
31
0
39
0
210
0
220
0
230
1
0
LINE
5
1B3
100
AcDbEntity
8
2
62
256
6
ByLayer
370
13
48
1
60
0
100
AcDbLine
10
30
20
-37.664552
30
0
11
0
21
-37.664552
31
0
39
0
210
0
220
0
230
1
0
SOLID
5
1B4
100
AcDbEntity
8
2
62
256
6
ByLayer
370
18
48
1
60
0
100
AcDbTrace
10
30
20
-37.664552
30
0
11
26.500002
21
-38.125336
31
0
12
26.499998
22
-37.203768
32
0
13
26.499998
23
-37.203768
33
0
39
0
210
0
220
0
230
1
0
SOLID
5
1B5
100
AcDbEntity
8
2
62
256
6
ByLayer
370
18
48
1
60
0
100
AcDbTrace
10
0
20
-37.664552
30
0
11
3.499998
21
-37.203768
31
0
12
3.500002
22
-38.125336
32
0
13
3.500002
23
-38.125336
33
0
39
0
210
0
220
0
230
1
0
ENDBLK
5
1B7
100
AcDbEntity
8
0
100
AcDbBlockEnd
0
ENDSEC
0
SECTION
2
ENTITIES
0
ARC
5
BC
100
AcDbEntity
8
1
62
256
6
ByLayer
370
18
48
1
60
0
100
AcDbCircle
39
0
10
1.472877
20
-2.825006
30
0
40
0.799999999999998
210
0
220
0
230
1
100
AcDbArc
50
89.896868
51
157.006355
0
ARC
5
BD
100
AcDbEntity
8
1
62
256
6
ByLayer
370
18
48
1
60
0
100
AcDbCircle
39
0
10
1.472877
20
2.825006
30
0
40
0.799999999999998
210
0
220
0
230
1
100
AcDbArc
50
202.993645
51
270.103132
0
ARC
5
BE
100
AcDbEntity
8
1
62
256
6
ByLayer
370
18
48
1
60
0
100
AcDbCircle
39
0
10
0
20
-2.2
30
0
40
0.800000000000004
210
0
220
0
230
1
100
AcDbArc
50
270
51
337.006355
0
ARC
5
BF
100
AcDbEntity
8
1
62
256
6
ByLayer
370
18
48
1
60
0
100
AcDbCircle
39
0
10
0
20
2.2
30
0
40
0.800000000000004
210
0
220
0
230
1
100
AcDbArc
50
22.993645
51
90
0
ARC
5
C0
100
AcDbEntity
8
SK2
62
256
6
ByLayer
370
13
48
1
60
0
100
AcDbCircle
39
0
10
30
20
0
30
0
40
16.6720428577649
210
0
220
0
230
1
100
AcDbArc
50
10.366379
51
70.005809
0
ARC
5
C1
100
AcDbEntity
8
SK2
62
256
6
ByLayer
370
13
48
1
60
0
100
AcDbCircle
39
0
10
30
20
0
30
0
40
16.6720428577649
210
0
220
0
230
1
100
AcDbArc
50
289.994191
51
349.633621
0
ELLIPSE
5
C2
100
AcDbEntity
8
1
62
256
6
ByLayer
370
13
48
1
60
0
100
AcDbEllipse
10
16.856483
20
-1.798182
30
0
11
-0.00267689045242983
21
0.00963505358084168
31
0
210
0
220
0
230
1
40
0.571584
41
0.451536531614659
42
1.78517681195651
0
ELLIPSE
5
C3
100
AcDbEntity
8
1
62
256
6
ByLayer
370
18
48
1
60
0
100
AcDbEllipse
10
16.900101
20
-1.797618
30
0
11
-0.00214903384635084
21
-0.00976635313344949
31
0
210
0
220
0
230
1
40
0.438411
41
-2.68367779946746
42
-1.1153806038468
0
ELLIPSE
5
C4
100
AcDbEntity
8
1
62
256
6
ByLayer
370
13
48
1
60
0
100
AcDbEllipse
10
16.900638
20
0.331301
30
0
11
7.72666690725783E-05
21
0.00999970148863707
31
0
210
0
220
0
230
1
40
0.010908
41
-1.74037897710817
42
-0.168531524051854
0
ELLIPSE
5
C5
100
AcDbEntity
8
1
62
256
6
ByLayer
370
18
48
1
60
0
100
AcDbEllipse
10
16.943366
20
0.320272
30
0
11
-0.00478241903486351
21
-0.00878228149030622
31
0
210
0
220
0
230
1
40
0.086365
41
1.43117087617618
42
2.99374706044748
0
POINT
5
70
100
AcDbEntity
8
80
62
256
6
ByLayer
370
18
48
1
60
0
100
AcDbPoint
10
0
20
0
30
0
39
0
210
0
220
0
230
1
50
360
0
POINT
5
72
100
AcDbEntity
8
81
62
256
6
ByLayer
370
18
48
1
60
0
100
AcDbPoint
10
30
20
0
30
0
39
0
210
0
220
0
230
1
50
360
0
POINT
5
74
100
AcDbEntity
8
1
62
256
6
ByLayer
370
18
48
1
60
0
100
AcDbPoint
10
-222.838979
20
-200
30
0
39
0
210
0
220
0
230
1
50
360
0
POINT
5
76
100
AcDbEntity
8
1
62
256
6
ByLayer
370
13
48
1
60
1
100
AcDbPoint
10
-37.5
20
0
30
0
39
0
210
0
220
0
230
1
50
360
0
POINT
5
77
100
AcDbEntity
8
1
62
256
6
ByLayer
370
13
48
1
60
1
100
AcDbPoint
10
30.743875
20
0
30
0
39
0
210
0
220
0
230
1
50
360
0
POINT
5
78
100
AcDbEntity
8
1
62
256
6
ByLayer
370
18
48
1
60
1
100
AcDbPoint
10
30
20
-2.075
30
0
39
0
210
0
220
0
230
1
50
360
0
POINT
5
79
100
AcDbEntity
8
1
62
256
6
ByLayer
370
18
48
1
60
1
100
AcDbPoint
10
16.8
20
-2.075
30
0
39
0
210
0
220
0
230
1
50
360
0
POINT
5
7A
100
AcDbEntity
8
1
62
256
6
ByLayer
370
18
48
1
60
1
100
AcDbPoint
10
30
20
-2.075
30
0
39
0
210
0
220
0
230
1
50
360
0
POINT
5
7B
100
AcDbEntity
8
1
62
256
6
ByLayer
370
18
48
1
60
1
100
AcDbPoint
10
6
20
-2.075
30
0
39
0
210
0
220
0
230
1
50
360
0
POINT
5
7C
100
AcDbEntity
8
1
62
256
6
ByLayer
370
18
48
1
60
1
100
AcDbPoint
10
-36
20
-3
30
0
39
0
210
0
220
0
230
1
50
360
0
POINT
5
7D
100
AcDbEntity
8
1
62
256
6
ByLayer
370
18
48
1
60
1
100
AcDbPoint
10
0
20
-3
30
0
39
0
210
0
220
0
230
1
50
360
0
POINT
5
7E
100
AcDbEntity
8
1
62
256
6
ByLayer
370
18
48
1
60
1
100
AcDbPoint
10
-36
20
-3
30
0
39
0
210
0
220
0
230
1
50
360
0
POINT
5
7F
100
AcDbEntity
8
1
62
256
6
ByLayer
370
18
48
1
60
1
100
AcDbPoint
10
30
20
-2.075
30
0
39
0
210
0
220
0
230
1
50
360
0
POINT
5
80
100
AcDbEntity
8
1
62
256
6
ByLayer
370
18
48
1
60
1
100
AcDbPoint
10
30
20
-2.075
30
0
39
0
210
0
220
0
230
1
50
360
0
POINT
5
81
100
AcDbEntity
8
1
62
256
6
ByLayer
370
18
48
1
60
1
100
AcDbPoint
10
0
20
-2.075
30
0
39
0
210
0
220
0
230
1
50
360
0
SPLINE
5
C6
100
AcDbEntity
8
1
62
256
6
ByLayer
370
18
48
1
60
0
100
AcDbSpline
70
4
71
3
72
8
73
4
40
0
40
0
40
0
40
0
40
1
40
1
40
1
40
1
41
1
10
16.799788242179
20
0.257792480185117
30
0
41
1
10
16.799788242179
20
0.257641331503407
30
0
41
1
10
16.799788242179
20
0.257490176427893
30
0
41
1
10
16.799788242179
20
0.257339014952407
30
0
0
SPLINE
5
C7
100
AcDbEntity
8
1
62
256
6
ByLayer
370
18
48
1
60
0
100
AcDbSpline
70
4
71
3
72
29
73
25
40
0
40
0
40
0
40
0
40
0.125
40
0.25
40
0.25
40
0.375
40
0.375
40
0.5
40
0.5
40
0.53125
40
0.53125
40
0.5625
40
0.5625
40
0.625
40
0.625
40
0.75
40
0.75
40
0.78125
40
0.78125
40
0.8125
40
0.8125
40
0.875
40
0.875
40
1
40
1
40
1
40
1
41
1
10
16.799788242179
20
-1.83673218749647
30
0
41
1
10
16.799788242179
20
-1.78952940546543
30
0
41
1
10
16.799788242179
20
-1.68146245269156
30
0
41
1
10
16.799788242179
20
-1.54704444694241
30
0
41
1
10
16.799788242179
20
-1.39896925600141
30
0
41
1
10
16.799788242179
20
-1.31996879244329
30
0
41
1
10
16.7997882421789
20
-1.15247618792412
30
0
41
1
10
16.799788242179
20
-1.06398006614242
30
0
41
1
10
16.799788242179
20
-0.947247534090366
30
0
41
1
10
16.799788242179
20
-0.92354553196418
30
0
41
1
10
16.799788242179
20
-0.875768920964447
30
0
41
1
10
16.799788242179
20
-0.851720214209507
30
0
41
1
10
16.799788242179
20
-0.779099789406445
30
0
41
1
10
16.799788242179
20
-0.730054473496978
30
0
41
1
10
16.799788242179
20
-0.581051935704352
30
0
41
1
10
16.7997882421789
20
-0.479239361453239
30
0
41
1
10
16.7997882421789
20
-0.34880301214335
30
0
41
1
10
16.799788242179
20
-0.32250555829259
30
0
41
1
10
16.799788242179
20
-0.269907372394187
30
0
41
1
10
16.7997882421789
20
-0.24359953780359
30
0
41
1
10
16.7997882421789
20
-0.164650141208909
30
0
41
1
10
16.7997882421789
20
-0.111982724830767
30
0
41
1
10
16.7997882421789
20
0.0461217645731153
30
0
41
1
10
16.799788242179
20
0.151660449954733
30
0
41
1
10
16.799788242179
20
0.257339014952379
30
0
0
SPLINE
5
C8
100
AcDbEntity
8
1
62
256
6
ByLayer
370
18
48
1
60
0
100
AcDbSpline
70
4
71
3
72
8
73
4
40
0
40
0
40
0
40
0
40
1
40
1
40
1
40
1
41
1
10
29.7711922363508
20
0.736127724911398
30
0
41
1
10
29.8312396181585
20
0.568989569085971
30
0
41
1
10
29.8907456321915
20
0.401660736749818
30
0
41
1
10
29.9496983268429
20
0.234137018397377
30
0
0
SPLINE
5
C9
100
AcDbEntity
8
1
62
256
6
ByLayer
370
18
48
1
60
0
100
AcDbSpline
70
4
71
3
72
18
73
14
40
0
40
0
40
0
40
0
40
0.5
40
0.5
40
0.749999999999999
40
0.749999999999999
40
0.874999999999929
40
0.874999999999929
40
0.937499999999898
40
0.937499999999898
40
0.968749999999949
40
0.968749999999949
40
1
40
1
40
1
40
1
41
1
10
29.2050165569624
20
2.07491889743025
30
0
41
1
10
29.215553405171
20
2.05776040455109
30
0
41
1
10
29.2261048834489
20
2.04050083713074
30
0
41
1
10
29.2419643180093
20
2.01444243072103
30
0
41
1
10
29.2472608097704
20
2.00571851585062
30
0
41
1
10
29.2551768130216
20
1.99266818502878
30
0
41
1
10
29.257810332107
20
1.98832469659075
30
0
41
1
10
29.2617451918081
20
1.98183480050696
30
0
41
1
10
29.2630550373517
20
1.97967416273224
30
0
41
1
10
29.265048669514
20
1.97637119298383
30
0
41
1
10
29.2657210262519
20
1.97525350270652
30
0
41
1
10
29.2670598435007
20
1.97303018146903
30
0
41
1
10
29.2677517964203
20
1.9718785192502
30
0
41
1
10
29.2683183803225
20
1.97096960317259
30
0
0
SPLINE
5
CA
100
AcDbEntity
8
1
62
256
6
ByLayer
370
18
48
1
60
0
100
AcDbSpline
70
4
71
3
72
19
73
15
40
0
40
0
40
0
40
0
40
0.250000000000068
40
0.250000000000068
40
0.375000000000056
40
0.375000000000056
40
0.500000000000045
40
0.625000000000034
40
0.625000000000034
40
0.750000000000023
40
0.750000000000023
40
0.875000000000011
40
0.875000000000011
40
1
40
1
40
1
40
1
41
1
10
16.8516714168264
20
-1.80172715907526
30
0
41
1
10
16.8426877042751
20
-1.80377429321498
30
0
41
1
10
16.8350982610552
20
-1.806212321283
30
0
41
1
10
16.8252783286728
20
-1.81028576308691
30
0
41
1
10
16.8222712421636
20
-1.8117195547897
30
0
41
1
10
16.8169081618117
20
-1.81463471058393
30
0
41
1
10
16.8121449826988
20
-1.81761704132362
30
0
41
1
10
16.8084643533043
20
-1.8207152327507
30
0
41
1
10
16.8053013802007
20
-1.82386676691135
30
0
41
1
10
16.8039775469275
20
-1.82547416295961
30
0
41
1
10
16.8018792764994
20
-1.82868279971402
30
0
41
1
10
16.8010969970499
20
-1.83029030869989
30
0
41
1
10
16.8000510738343
20
-1.8335107576676
30
0
41
1
10
16.799788242179
20
-1.83513645702752
30
0
41
1
10
16.799788242179
20
-1.83673218749647
30
0
0
SPLINE
5
CB
100
AcDbEntity
8
1
62
256
6
ByLayer
370
18
48
1
60
0
100
AcDbSpline
70
4
71
3
72
8
73
4
40
0
40
0
40
0
40
0
40
1
40
1
40
1
40
1
41
1
10
29.9496983268429
20
0.234137018397348
30
0
41
1
10
29.9657985830962
20
0.188385508480366
30
0
41
1
10
29.9822290895726
20
0.142822238740138
30
0
41
1
10
29.998995484463
20
0.0974430362436181
30
0
0
SPLINE
5
CC
100
AcDbEntity
8
1
62
256
6
ByLayer
370
13
48
1
60
0
100
AcDbSpline
70
4
71
3
72
10
73
6
40
0
40
0
40
0
40
0
40
0.5
40
0.5
40
1
40
1
40
1
40
1
41
1
10
16.8953108690206
20
-1.80106766232797
30
0
41
1
10
16.8877044360982
20
-1.79941137339182
30
0
41
1
10
16.8802596320269
20
-1.79865150438749
30
0
41
1
10
16.8656952958983
20
-1.7988447617079
30
0
41
1
10
16.8585236922109
20
-1.79981133716473
30
0
41
1
10
16.8516714168264
20
-1.80172715907526
30
0
0
SPLINE
5
CD
100
AcDbEntity
8
1
62
256
6
ByLayer
370
13
48
1
60
0
100
AcDbSpline
70
4
71
3
72
8
73
4
40
0
40
0
40
0
40
0
40
1
40
1
40
1
40
1
41
1
10
16.8501119530289
20
-1.87672565232714
30
0
41
1
10
16.8506240327894
20
-1.85172924695948
30
0
41
1
10
16.8511438351414
20
-1.82672981963088
30
0
41
1
10
16.8516714168265
20
-1.80172715907526
30
0
0
SPLINE
5
CE
100
AcDbEntity
8
1
62
256
6
ByLayer
370
18
48
1
60
0
100
AcDbSpline
70
4
71
3
72
14
73
10
40
0
40
0
40
0
40
0
40
0.10243449548884
40
0.10243449548884
40
0.326825871616628
40
0.326825871616628
40
0.551217247744415
40
0.551217247744415
40
1
40
1
40
1
40
1
41
1
10
18.6227914542647
20
-1.95638928056528
30
0
41
1
10
18.5636713817189
20
-1.95881028478397
30
0
41
1
10
18.5044032226558
20
-1.96042968381352
30
0
41
1
10
18.3156299978489
20
-1.96300578338096
30
0
41
1
10
18.1863634951392
20
-1.96088494053663
30
0
41
1
10
17.9282093236582
20
-1.94910265079707
30
0
41
1
10
17.7993334427032
20
-1.93945667268113
30
0
41
1
10
17.4126489258816
20
-1.8993092236461
30
0
41
1
10
17.1547345487038
20
-1.85755676501515
30
0
41
1
10
16.8953108690206
20
-1.80106766232797
30
0
0
SPLINE
5
CF
100
AcDbEntity
8
1
62
256
6
ByLayer
370
18
48
1
60
0
100
AcDbSpline
70
4
71
3
72
10
73
6
40
0
40
0
40
0
40
0
40
0.465632841149455
40
0.465632841149455
40
1
40
1
40
1
40
1
41
1
10
29.5244526424368
20
-0.335994846052245
30
0
41
1
10
29.5513026120366
20
-0.351155969450872
30
0
41
1
10
29.5787423241144
20
-0.366523794853265
30
0
41
1
10
29.6385763773243
20
-0.399781017544711
30
0
41
1
10
29.6711117980797
20
-0.41771191883339
30
0
41
1
10
29.7040783557736
20
-0.435737436058133
30
0
0
SPLINE
5
D0
100
AcDbEntity
8
1
62
256
6
ByLayer
370
13
48
1
60
0
100
AcDbSpline
70
4
71
3
72
10
73
6
40
0
40
0
40
0
40
0
40
0.5
40
0.5
40
1
40
1
40
1
40
1
41
1
10
16.9482080058654
20
0.328897188538633
30
0
41
1
10
16.9409228325835
20
0.332865082048357
30
0
41
1
10
16.9332945495981
20
0.335863503831945
30
0
41
1
10
16.9173743815058
20
0.33998915949968
30
0
41
1
10
16.909058622436
20
0.341092962778219
30
0
41
1
10
16.900732913856
20
0.341158614815981
30
0
0
SPLINE
5
D1
100
AcDbEntity
8
1
62
256
6
ByLayer
370
18
48
1
60
0
100
AcDbSpline
70
4
71
3
72
24
73
20
40
0
40
0
40
0
40
0
40
0.125000000000015
40
0.125000000000015
40
0.187500000000023
40
0.187500000000023
40
0.25000000000003
40
0.25000000000003
40
0.312500000000038
40
0.312500000000038
40
0.375000000000046
40
0.375000000000046
40
0.500000000000061
40
0.500000000000061
40
0.75000000000003
40
0.75000000000003
40
0.875000000000015
40
0.875000000000015
40
1
40
1
40
1
40
1
41
1
10
16.900732913856
20
0.341158614815981
30
0
41
1
10
16.8929271570381
20
0.341220166795182
30
0
41
1
10
16.885322991768
20
0.340527956122571
30
0
41
1
10
16.8741956615394
20
0.338444506180025
30
0
41
1
10
16.8705425076011
20
0.3375721201364
30
0
41
1
10
16.8635457154867
20
0.335547247273695
30
0
41
1
10
16.8601718726735
20
0.334389660861035
30
0
41
1
10
16.8536540626625
20
0.331805532920697
30
0
41
1
10
16.8504945906877
20
0.33036951706805
30
0
41
1
10
16.8445262381729
20
0.327310496568003
30
0
41
1
10
16.8417031451694
20
0.325683757220162
30
0
41
1
10
16.8336653072835
20
0.320541418815765
30
0
41
1
10
16.8288484574756
20
0.316737168100929
30
0
41
1
10
16.8161208250072
20
0.304588054945754
30
0
41
1
10
16.8100496310687
20
0.295753700117359
30
0
41
1
10
16.8038561271448
20
0.281601632535455
30
0
41
1
10
16.8023351458049
20
0.276825333602801
30
0
41
1
10
16.8003005463694
20
0.267160959445135
30
0
41
1
10
16.7997882421789
20
0.262235190764869
30
0
41
1
10
16.799788242179
20
0.257339014952407
30
0
0
SPLINE
5
D2
100
AcDbEntity
8
1
62
256
6
ByLayer
370
18
48
1
60
0
100
AcDbSpline
70
4
71
3
72
28
73
24
40
0
40
0
40
0
40
0
40
0.125000000000029
40
0.125000000000029
40
0.187500000000033
40
0.187500000000033
40
0.250000000000037
40
0.250000000000037
40
0.375000000000022
40
0.375000000000022
40
0.500000000000008
40
0.500000000000008
40
0.562500000000001
40
0.562500000000001
40
0.624999999999994
40
0.624999999999994
40
0.74999999999998
40
0.74999999999998
40
0.812499999999985
40
0.812499999999985
40
0.87499999999999
40
0.87499999999999
40
1
40
1
40
1
40
1
41
1
10
29.998995484455
20
0.0974430362463465
30
0
41
1
10
29.9891707655636
20
0.0688265057626722
30
0
41
1
10
29.9787705825671
20
0.0404834620696306
30
0
41
1
10
29.9623278048412
20
-0.0016235306276258
30
0
41
1
10
29.9567060765421
20
-0.0155910803967458
30
0
41
1
10
29.9451793386805
20
-0.0433878924544899
30
0
41
1
10
29.9392505242321
20
-0.0572702367146292
30
0
41
1
10
29.9212506327781
20
-0.0982099419106248
30
0
41
1
10
29.9089642946577
20
-0.124586892676717
30
0
41
1
10
29.8838810660328
20
-0.175527088680099
30
0
41
1
10
29.8710842401429
20
-0.200090863039378
30
0
41
1
10
29.8515211998442
20
-0.235514619686569
30
0
41
1
10
29.8449350037187
20
-0.24709077296535
30
0
41
1
10
29.8316517861788
20
-0.269720673502206
30
0
41
1
10
29.8250377775784
20
-0.280633335105421
30
0
41
1
10
29.8052808058719
20
-0.31218704619053
30
0
41
1
10
29.7922233339654
20
-0.331649709997464
30
0
41
1
10
29.7728088615076
20
-0.358466277748988
30
0
41
1
10
29.7663658851758
20
-0.36700743929336
30
0
41
1
10
29.7535357366261
20
-0.383272800676195
30
0
41
1
10
29.747131044022
20
-0.391017019370793
30
0
41
1
10
29.7281142633963
20
-0.412837377146644
30
0
41
1
10
29.7158910944704
20
-0.425297218617743
30
0
41
1
10
29.7040783557736
20
-0.43573743605819
30
0
0
SPLINE
5
D3
100
AcDbEntity
8
1
62
256
6
ByLayer
370
18
48
1
60
0
100
AcDbSpline
70
4
71
3
72
77
73
73
40
0
40
0
40
0
40
0
40
0.0312499999999986
40
0.0312499999999986
40
0.0624999999999972
40
0.0624999999999972
40
0.0937499999999958
40
0.0937499999999958
40
0.124999999999994
40
0.124999999999994
40
0.156249999999993
40
0.156249999999993
40
0.187499999999992
40
0.187499999999992
40
0.21874999999999
40
0.21874999999999
40
0.249999999999989
40
0.249999999999989
40
0.265624999999988
40
0.265624999999988
40
0.281249999999987
40
0.281249999999987
40
0.312499999999986
40
0.312499999999986
40
0.343749999999985
40
0.343749999999985
40
0.374999999999984
40
0.406249999999982
40
0.406249999999982
40
0.421874999999981
40
0.421874999999981
40
0.437499999999981
40
0.437499999999981
40
0.499999999999986
40
0.499999999999986
40
0.515624999999987
40
0.515624999999987
40
0.531249999999988
40
0.531249999999988
40
0.562499999999991
40
0.562499999999991
40
0.593749999999993
40
0.593749999999993
40
0.624999999999996
40
0.656249999999998
40
0.656249999999998
40
0.671874999999999
40
0.671874999999999
40
0.6875
40
0.6875
40
0.718750000000003
40
0.718750000000003
40
0.750000000000005
40
0.750000000000005
40
0.81250000000001
40
0.81250000000001
40
0.828125000000013
40
0.828125000000013
40
0.843750000000015
40
0.843750000000015
40
0.875000000000014
40
0.875000000000014
40
0.890625000000013
40
0.890625000000013
40
0.906250000000012
40
0.906250000000012
40
0.937500000000002
40
0.937500000000002
40
0.953125000000001
40
0.953125000000001
40
0.968750000000001
40
1
40
1
40
1
40
1
41
1
10
29.7040783557736
20
-0.435737436058133
30
0
41
1
10
29.7030018977343
20
-0.449436349161289
30
0
41
1
10
29.7012611402506
20
-0.464122945616282
30
0
41
1
10
29.6966015811794
20
-0.494100047806029
30
0
41
1
10
29.6936823199074
20
-0.509505370283449
30
0
41
1
10
29.6866921976847
20
-0.54115918158675
30
0
41
1
10
29.6825745372182
20
-0.557555909529128
30
0
41
1
10
29.6735014059046
20
-0.590062621047082
30
0
41
1
10
29.66853382051
20
-0.606265288778388
30
0
41
1
10
29.6578083412438
20
-0.638584929863413
30
0
41
1
10
29.6520112299487
20
-0.654790020776829
30
0
41
1
10
29.6400461999654
20
-0.686123786746123
30
0
41
1
10
29.6338434479409
20
-0.701369606498105
30
0
41
1
10
29.6210503701387
20
-0.731075048130407
30
0
41
1
10
29.6144241172751
20
-0.745600123608199
30
0
41
1
10
29.6011706518116
20
-0.773136699693765
30
0
41
1
10
29.5945070008921
20
-0.786240109527313
30
0
41
1
10
29.5844699650647
20
-0.804954859525736
30
0
41
1
10
29.5811172566954
20
-0.811035692864124
30
0
41
1
10
29.5743989634706
20
-0.822884376008261
30
0
41
1
10
29.5710285481911
20
-0.828659390160311
30
0
41
1
10
29.5610066887294
20
-0.845336180178009
30
0
41
1
10
29.5544106218829
20
-0.855654555089927
30
0
41
1
10
29.5413820994598
20
-0.874747154974813
30
0
41
1
10
29.5349400851999
20
-0.883524601691647
30
0
41
1
10
29.5224937576635
20
-0.899183911227851
30
0
41
1
10
29.51040604005
20
-0.913068527511513
30
0
41
1
10
29.4989890316244
20
-0.923488319815363
30
0
41
1
10
29.4906692382029
20
-0.929967339125369
30
0
41
1
10
29.4879278651956
20
-0.931908557746283
30
0
41
1
10
29.4825853341657
20
-0.935293954509177
30
0
41
1
10
29.4799809048167
20
-0.936742142488612
30
0
41
1
10
29.467279846019
20
-0.942778192952062
30
0
41
1
10
29.4581321099697
20
-0.943813833056566
30
0
41
1
10
29.4479024040433
20
-0.940032254529001
30
0
41
1
10
29.4459195743938
20
-0.939016067916327
30
0
41
1
10
29.4421322577815
20
-0.936490302190293
30
0
41
1
10
29.4403201157765
20
-0.934978464792579
30
0
41
1
10
29.4351220074564
20
-0.929698449983448
30
0
41
1
10
29.4319732009722
20
-0.925189190983332
30
0
41
1
10
29.4263031465749
20
-0.914125624099739
30
0
41
1
10
29.4237782218728
20
-0.907560754306985
30
0
41
1
10
29.4194047142116
20
-0.892245003479189
30
0
41
1
10
29.4158038522805
20
-0.875090850455479
30
0
41
1
10
29.4137114323023
20
-0.854275588516344
30
0
41
1
10
29.4127361050584
20
-0.837212048795436
30
0
41
1
10
29.412510440233
20
-0.83128127864714
30
0
41
1
10
29.412269100947
20
-0.81890756777625
30
0
41
1
10
29.4122550307127
20
-0.812495179512041
30
0
41
1
10
29.4125344378417
20
-0.792833934624213
30
0
41
1
10
29.4131451067893
20
-0.779067730117731
30
0
41
1
10
29.4152449739934
20
-0.750199666878302
30
0
41
1
10
29.4167391073856
20
-0.735054304522663
30
0
41
1
10
29.422661345185
20
-0.687722522872917
30
0
41
1
10
29.4282915074926
20
-0.655244676550495
30
0
41
1
10
29.437646185654
20
-0.613519501072858
30
0
41
1
10
29.4396241983772
20
-0.605171436648618
30
0
41
1
10
29.4437476907893
20
-0.588663650528218
30
0
41
1
10
29.4458998255771
20
-0.580473960585778
30
0
41
1
10
29.4526278440114
20
-0.556094596609483
30
0
41
1
10
29.4574740380689
20
-0.540093680646038
30
0
41
1
10
29.4653103774071
20
-0.516476573907937
30
0
41
1
10
29.4680053028051
20
-0.508707430356708
30
0
41
1
10
29.4734969311642
20
-0.493544558827011
30
0
41
1
10
29.4763026720532
20
-0.486123352948539
30
0
41
1
10
29.4848977529277
20
-0.4643238271521
30
0
41
1
10
29.49086436765
20
-0.45040750220204
30
0
41
1
10
29.5001728717859
20
-0.430434031851547
30
0
41
1
10
29.5033309533308
20
-0.423939274980285
30
0
41
1
10
29.509675226183
20
-0.411426551489598
30
0
41
1
10
29.5192668973945
20
-0.393301905745631
30
0
41
1
10
29.5290789604147
20
-0.377019956958407
30
0
41
1
10
29.5357150171099
20
-0.366948627064431
30
0
0
SPLINE
5
D4
100
AcDbEntity
8
1
62
256
6
ByLayer
370
18
48
1
60
0
100
AcDbSpline
70
4
71
3
72
8
73
4
40
0
40
0
40
0
40
0
40
1
40
1
40
1
40
1
41
1
10
29.5357150171099
20
-0.366948627064431
30
0
41
1
10
29.5298437406433
20
-0.346513628922651
30
0
41
1
10
29.5248382389161
20
-0.323659396308642
30
0
41
1
10
29.5206060198745
20
-0.298503458156006
30
0
0
SPLINE
5
D5
100
AcDbEntity
8
1
62
256
6
ByLayer
370
18
48
1
60
0
100
AcDbSpline
70
4
71
3
72
8
73
4
40
0
40
0
40
0
40
0
40
1
40
1
40
1
40
1
41
1
10
29.5206060198745
20
-0.298503458155977
30
0
41
1
10
29.4928197713392
20
-0.133344438081281
30
0
41
1
10
29.4568959801646
20
0.035697920625239
30
0
41
1
10
29.4128960554643
20
0.208594312755281
30
0
0
SPLINE
5
D6
100
AcDbEntity
8
1
62
256
6
ByLayer
370
18
48
1
60
0
100
AcDbSpline
70
4
71
3
72
12
73
8
40
0
40
0
40
0
40
0
40
0.25
40
0.25
40
0.5
40
0.5
40
1
40
1
40
1
40
1
41
1
10
29.3336214840688
20
-1.85788548771239
30
0
41
1
10
29.3254818200605
20
-1.87028439941056
30
0
41
1
10
29.3176217307959
20
-1.8818385060805
30
0
41
1
10
29.3024757224276
20
-1.90311140211634
30
0
41
1
10
29.2951764753407
20
-1.91283973157587
30
0
41
1
10
29.2746080147249
20
-1.93849547814096
30
0
41
1
10
29.2624974900717
20
-1.95115219967042
30
0
41
1
10
29.2518003774321
20
-1.95938456142895
30
0
0
SPLINE
5
D7
100
AcDbEntity
8
1
62
256
6
ByLayer
370
18
48
1
60
0
100
AcDbSpline
70
4
71
3
72
8
73
4
40
0
40
0
40
0
40
0
40
1
40
1
40
1
40
1
41
1
10
29.7711922363508
20
-0.736127724911398
30
0
41
1
10
29.8312396181585
20
-0.568989569086
30
0
41
1
10
29.8907456321915
20
-0.401660736749875
30
0
41
1
10
29.9496983268429
20
-0.234137018397405
30
0
0
SPLINE
5
D8
100
AcDbEntity
8
1
62
256
6
ByLayer
370
18
48
1
60
0
100
AcDbSpline
70
4
71
3
72
8
73
4
40
0
40
0
40
0
40
0
40
1
40
1
40
1
40
1
41
1
10
29.9496983268429
20
-0.234137018397405
30
0
41
1
10
29.9657985830943
20
-0.18838550848551
30
0
41
1
10
29.9822290895689
20
-0.142822238750341
30
0
41
1
10
29.9989954844574
20
-0.0974430362588521
30
0
0
SPLINE
5
D9
100
AcDbEntity
8
1
62
256
6
ByLayer
370
18
48
1
60
0
100
AcDbSpline
70
4
71
3
72
8
73
4
40
0
40
0
40
0
40
0
40
1
40
1
40
1
40
1
41
1
10
29.9989954844585
20
0.0974430362488192
30
0
41
1
10
30.000333510952
20
0.0325454021075871
30
0
41
1
10
30.0003361687107
20
-0.0324164941598895
30
0
41
1
10
29.9989954844585
20
-0.0974430362526562
30
0
0
SPLINE
5
DA
100
AcDbEntity
8
1
62
256
6
ByLayer
370
18
48
1
60
0
100
AcDbSpline
70
4
71
3
72
22
73
18
40
0
40
0
40
0
40
0
40
0.249999999999989
40
0.249999999999989
40
0.374999999999989
40
0.374999999999989
40
0.437499999999989
40
0.437499999999989
40
0.499999999999989
40
0.499999999999989
40
0.562499999999988
40
0.562499999999988
40
0.624999999999988
40
0.624999999999988
40
0.749999999999988
40
0.749999999999988
40
1
40
1
40
1
40
1
41
1
10
29.3336214840687
20
-1.85788548771271
30
0
41
1
10
29.3668182993798
20
-1.76230839759595
30
0
41
1
10
29.4003623464675
20
-1.66647707589027
30
0
41
1
10
29.4513799725281
20
-1.52253005790161
30
0
41
1
10
29.4685007215492
20
-1.47451410239228
30
0
41
1
10
29.4943513915671
20
-1.40245908742267
30
0
41
1
10
29.5029962226133
20
-1.37843554816956
30
0
41
1
10
29.5203395724169
20
-1.33038081436379
30
0
41
1
10
29.5290106476185
20
-1.30633771301461
30
0
41
1
10
29.5466090211657
20
-1.25837459069604
30
0
41
1
10
29.5555178473665
20
-1.2344411301751
30
0
41
1
10
29.5736041812959
20
-1.18669043599138
30
0
41
1
10
29.5827505154543
20
-1.1629492812263
30
0
41
1
10
29.6104666271902
20
-1.09233201267327
30
0
41
1
10
29.6293411722588
20
-1.04598070281625
30
0
41
1
10
29.6874072850405
20
-0.909200809206254
30
0
41
1
10
29.7280538860065
20
-0.821057754228946
30
0
41
1
10
29.7711922363508
20
-0.736127724911427
30
0
0
SPLINE
5
DB
100
AcDbEntity
8
1
62
256
6
ByLayer
370
18
48
1
60
0
100
AcDbSpline
70
4
71
3
72
8
73
4
40
0
40
0
40
0
40
0
40
1
40
1
40
1
40
1
41
1
10
29.2683183803228
20
-1.97096960317214
30
0
41
1
10
29.2900708867925
20
-1.93327586925315
30
0
41
1
10
29.3118403455635
20
-1.89557763165536
30
0
41
1
10
29.3336214840686
20
-1.85788548771268
30
0
0
SPLINE
5
DC
100
AcDbEntity
8
1
62
256
6
ByLayer
370
18
48
1
60
0
100
AcDbSpline
70
4
71
3
72
8
73
4
40
0
40
0
40
0
40
0
40
1
40
1
40
1
40
1
41
1
10
16.799788242179
20
1.96265380870173
30
0
41
1
10
16.799788242179
20
1.93436619345445
30
0
41
1
10
16.799788242179
20
1.90600807686238
30
0
41
1
10
16.799788242179
20
1.87757964192869
30
0
0
SPLINE
5
DD
100
AcDbEntity
8
1
62
256
6
ByLayer
370
18
48
1
60
0
100
AcDbSpline
70
4
71
3
72
24
73
20
40
0
40
0
40
0
40
0
40
0.0470521459894894
40
0.0470521459894894
40
0.205876788324586
40
0.205876788324586
40
0.285289109492133
40
0.285289109492133
40
0.364701430659681
40
0.364701430659681
40
0.523526072994777
40
0.523526072994777
40
0.682350715329874
40
0.682350715329874
40
0.761763036497422
40
0.761763036497422
40
0.84117535766497
40
0.84117535766497
40
1
40
1
40
1
40
1
41
1
10
28.928673701503
20
0.45640498281594
30
0
41
1
10
28.9352709620787
20
0.460041620353735
30
0
41
1
10
28.9419400953544
20
0.463760881936054
30
0
41
1
10
28.9714555000098
20
0.480358266130338
30
0
41
1
10
28.9950910910953
20
0.494009921195271
30
0
41
1
10
29.032200606353
20
0.515204408594172
30
0
41
1
10
29.0448490770961
20
0.522385820968111
30
0
41
1
10
29.0707679371563
20
0.536892521282198
30
0
41
1
10
29.0840662404476
20
0.544233997548417
30
0
41
1
10
29.1243611457287
20
0.565936570747937
30
0
41
1
10
29.1519666077152
20
0.580049352783846
30
0
41
1
10
29.2090246218245
20
0.606598779729154
30
0
41
1
10
29.2384596792018
20
0.61907097874834
30
0
41
1
10
29.2841583266489
20
0.636051417838388
30
0
41
1
10
29.2996800611488
20
0.641420653857949
30
0
41
1
10
29.3307933309405
20
0.651293944429909
30
0
41
1
10
29.3464421283944
20
0.655820907495837
30
0
41
1
10
29.3936894516645
20
0.66808410447814
30
0
41
1
10
29.425591061949
20
0.674494118011182
30
0
41
1
10
29.4579345632153
20
0.679008244842862
30
0
0
SPLINE
5
DE
100
AcDbEntity
8
1
62
256
6
ByLayer
370
18
48
1
60
0
100
AcDbSpline
70
4
71
3
72
10
73
6
40
0
40
0
40
0
40
0
40
0.5
40
0.5
40
1
40
1
40
1
40
1
41
1
10
29.4579345632153
20
0.679008244842862
30
0
41
1
10
29.5105347120537
20
0.686349557128977
30
0
41
1
10
29.5629949482436
20
0.694522061477954
30
0
41
1
10
29.6675087837072
20
0.713282815861959
30
0
41
1
10
29.7196120838983
20
0.723845102780274
30
0
41
1
10
29.7711922363508
20
0.736127724910631
30
0
0
SPLINE
5
DF
100
AcDbEntity
8
1
62
256
6
ByLayer
370
18
48
1
60
0
100
AcDbSpline
70
4
71
3
72
22
73
18
40
0
40
0
40
0
40
0
40
0.249999999999998
40
0.249999999999998
40
0.375000000000002
40
0.375000000000002
40
0.437500000000004
40
0.437500000000004
40
0.500000000000007
40
0.500000000000007
40
0.562500000000009
40
0.562500000000009
40
0.625000000000011
40
0.625000000000011
40
0.750000000000003
40
0.750000000000003
40
1
40
1
40
1
40
1
41
1
10
29.3336214840687
20
1.85788548771271
30
0
41
1
10
29.3668182993798
20
1.76230839759592
30
0
41
1
10
29.4003623464674
20
1.66647707589024
30
0
41
1
10
29.4513799725281
20
1.52253005790158
30
0
41
1
10
29.4685007215492
20
1.47451410239225
30
0
41
1
10
29.4943513915671
20
1.40245908742267
30
0
41
1
10
29.5029962226133
20
1.37843554816953
30
0
41
1
10
29.5203395724168
20
1.33038081436376
30
0
41
1
10
29.5290106476185
20
1.30633771301459
30
0
41
1
10
29.5466090211657
20
1.25837459069601
30
0
41
1
10
29.5555178473665
20
1.23444113017507
30
0
41
1
10
29.5736041812959
20
1.18669043599141
30
0
41
1
10
29.5827505154543
20
1.16294928122619
30
0
41
1
10
29.6104666271904
20
1.09233201267301
30
0
41
1
10
29.6293411722589
20
1.04598070281597
30
0
41
1
10
29.6874072850407
20
0.909200809205942
30
0
41
1
10
29.7280538860066
20
0.821057754228718
30
0
41
1
10
29.7711922363508
20
0.736127724911398
30
0
0
SPLINE
5
E0
100
AcDbEntity
8
1
62
256
6
ByLayer
370
18
48
1
60
0
100
AcDbSpline
70
4
71
3
72
8
73
4
40
0
40
0
40
0
40
0
40
1
40
1
40
1
40
1
41
1
10
29.2683183803225
20
1.97096960317259
30
0
41
1
10
29.2900708867924
20
1.93327586925344
30
0
41
1
10
29.3118403455634
20
1.8955776316555
30
0
41
1
10
29.3336214840686
20
1.85788548771268
30
0
0
SPLINE
5
E1
100
AcDbEntity
8
1
62
256
6
ByLayer
370
18
48
1
60
0
100
AcDbSpline
70
4
71
3
72
28
73
24
40
0
40
0
40
0
40
0
40
0.140538261043539
40
0.140538261043539
40
0.210807391565309
40
0.210807391565309
40
0.281076522087078
40
0.281076522087078
40
0.421614783130617
40
0.421614783130617
40
0.562153044174156
40
0.562153044174156
40
0.63242217469592
40
0.63242217469592
40
0.702691305217684
40
0.702691305217684
40
0.843229566261211
40
0.843229566261211
40
0.913498696782969
40
0.913498696782969
40
0.983767827304728
40
0.983767827304728
40
1
40
1
40
1
40
1
41
1
10
29.2683183803225
20
1.97096960317259
30
0
41
1
10
29.1385692789117
20
1.97302031795684
30
0
41
1
10
29.0087777418237
20
1.97113111819078
30
0
41
1
10
28.813900239922
20
1.96267888154225
30
0
41
1
10
28.7488556669043
20
1.95888957586328
30
0
41
1
10
28.6188827996121
20
1.94935812466736
30
0
41
1
10
28.5539485003799
20
1.94362016301872
30
0
41
1
10
28.3592246822412
20
1.9235166283159
30
0
41
1
10
28.2294896663109
20
1.90621875902832
30
0
41
1
10
27.9699466017162
20
1.86444913708192
30
0
41
1
10
27.8401819473413
20
1.83998818583748
30
0
41
1
10
27.6451561764158
20
1.79781938090866
30
0
41
1
10
27.5801146810475
20
1.78286088747541
30
0
41
1
10
27.4501899518477
20
1.75122567357155
30
0
41
1
10
27.3852680953306
20
1.73454039776891
30
0
41
1
10
27.1905547261562
20
1.68192811001279
30
0
41
1
10
27.0608697673834
20
1.64345267102462
30
0
41
1
10
26.8662720808639
20
1.58094259615965
30
0
41
1
10
26.8013846350331
20
1.55930483057867
30
0
41
1
10
26.6715133478286
20
1.51446589645428
30
0
41
1
10
26.6064987289489
20
1.4912528821838
30
0
41
1
10
26.526463486385
20
1.46177373398106
30
0
41
1
10
26.511447265661
20
1.45620367165517
30
0
41
1
10
26.4964334773106
20
1.45059597770515
30
0
0
SPLINE
5
E2
100
AcDbEntity
8
1
62
256
6
ByLayer
370
18
48
1
60
0
100
AcDbSpline
70
4
71
3
72
16
73
12
40
0
40
0
40
0
40
0
40
0.250000000000016
40
0.250000000000016
40
0.500000000000032
40
0.500000000000032
40
0.625000000000024
40
0.625000000000024
40
0.750000000000015
40
0.750000000000015
40
1
40
1
40
1
40
1
41
1
10
29.4128960554643
20
0.208594312755309
30
0
41
1
10
29.3968890529993
20
0.200941082944013
30
0
41
1
10
29.3809088368944
20
0.191621397928657
30
0
41
1
10
29.3490962028744
20
0.16988420154604
30
0
41
1
10
29.3332634523263
20
0.157425364655467
30
0
41
1
10
29.3096887141167
20
0.136869191001921
30
0
41
1
10
29.3018597313376
20
0.129734930350196
30
0
41
1
10
29.2862680000133
20
0.115022322951717
30
0
41
1
10
29.2785049669693
20
0.10743290189032
30
0
41
1
10
29.2553226738064
20
0.0837413836028134
30
0
41
1
10
29.2400102767633
20
0.0666700045776736
30
0
41
1
10
29.2248712788142
20
0.0482475867480616
30
0
0
SPLINE
5
E3
100
AcDbEntity
8
1
62
256
6
ByLayer
370
18
48
1
60
0
100
AcDbSpline
70
4
71
3
72
26
73
22
40
0
40
0
40
0
40
0
40
0.0978880617672863
40
0.0978880617672863
40
0.195776123534573
40
0.195776123534573
40
0.391552247069145
40
0.391552247069145
40
0.489440308836432
40
0.489440308836432
40
0.587328370603718
40
0.587328370603718
40
0.685216432371004
40
0.685216432371004
40
0.78310449413829
40
0.78310449413829
40
0.880992555905577
40
0.880992555905577
40
0.978880617672863
40
0.978880617672863
40
1
40
1
40
1
40
1
41
1
10
29.4128960554643
20
0.208594312755253
30
0
41
1
10
29.3951648806831
20
0.219344336203477
30
0
41
1
10
29.3774297104846
20
0.229960412345406
30
0
41
1
10
29.3419541927738
20
0.25101899396634
30
0
41
1
10
29.3242143828872
20
0.261479523474236
30
0
41
1
10
29.2709873971322
20
0.292607792125125
30
0
41
1
10
29.2354907479496
20
0.312957936178634
30
0
41
1
10
29.1822067934516
20
0.342176314304623
30
0
41
1
10
29.1644395191517
20
0.351716092891962
30
0
41
1
10
29.1288918680974
20
0.370356387188053
30
0
41
1
10
29.111086761047
20
0.379469046956928
30
0
41
1
10
29.0756516149758
20
0.397106714303078
30
0
41
1
10
29.0580133760606
20
0.405622082828785
30
0
41
1
10
29.0228807913046
20
0.422102406857704
30
0
41
1
10
29.0053827600545
20
0.430081459615479
30
0
41
1
10
28.9704157213847
20
0.445928544539385
30
0
41
1
10
28.9529485315314
20
0.453789624235867
30
0
41
1
10
28.9181738142294
20
0.468901050506929
30
0
41
1
10
28.9008800288464
20
0.476098831577332
30
0
41
1
10
28.8800248148514
20
0.484200364216946
30
0
41
1
10
28.8763276070538
20
0.48561522592982
30
0
41
1
10
28.8726368006698
20
0.487004932868785
30
0
0
SPLINE
5
E4
100
AcDbEntity
8
1
62
256
6
ByLayer
370
18
48
1
60
0
100
AcDbSpline
70
4
71
3
72
19
73
15
40
0
40
0
40
0
40
0
40
0.250000000000001
40
0.250000000000001
40
0.375000000000001
40
0.375000000000001
40
0.500000000000001
40
0.625000000000001
40
0.625000000000001
40
0.75
40
0.75
40
0.875
40
0.875
40
1
40
1
40
1
40
1
41
1
10
16.8516714168264
20
-1.79018057214591
30
0
41
1
10
16.842687746668
20
-1.79288502578388
30
0
41
1
10
16.8350963479967
20
-1.79610972854238
30
0
41
1
10
16.8252739579012
20
-1.80150749904268
30
0
41
1
10
16.8222661321161
20
-1.80340892621092
30
0
41
1
10
16.8169023405831
20
-1.80727788999835
30
0
41
1
10
16.8121386228516
20
-1.81123894152753
30
0
41
1
10
16.8084591136729
20
-1.81536059197734
30
0
41
1
10
16.8052971375726
20
-1.81955662317029
30
0
41
1
10
16.8039739633491
20
-1.82169847048823
30
0
41
1
10
16.8018770970658
20
-1.82597731954789
30
0
41
1
10
16.8010955324046
20
-1.82812270372793
30
0
41
1
10
16.8000506978723
20
-1.83242419108964
30
0
41
1
10
16.799788242179
20
-1.83459758648991
30
0
41
1
10
16.799788242179
20
-1.83673218749647
30
0
0
SPLINE
5
E5
100
AcDbEntity
8
1
62
256
6
ByLayer
370
13
48
1
60
0
100
AcDbSpline
70
4
71
3
72
10
73
6
40
0
40
0
40
0
40
0
40
0.5
40
0.5
40
1
40
1
40
1
40
1
41
1
10
16.9001361672353
20
-1.78844150965523
30
0
41
1
10
16.8917197824636
20
-1.78678042665626
30
0
41
1
10
16.8834541311288
20
-1.78609938414291
30
0
41
1
10
16.8672339403862
20
-1.78664886207295
30
0
41
1
10
16.8592204758639
20
-1.78790799536864
30
0
41
1
10
16.8516714168264
20
-1.79018057214591
30
0
0
SPLINE
5
E6
100
AcDbEntity
8
1
62
256
6
ByLayer
370
18
48
1
60
0
100
AcDbSpline
70
4
71
3
72
24
73
20
40
0
40
0
40
0
40
0
40
0.124999999999987
40
0.124999999999987
40
0.249999999999975
40
0.249999999999975
40
0.49999999999998
40
0.49999999999998
40
0.62500000000001
40
0.62500000000001
40
0.687500000000027
40
0.687500000000027
40
0.750000000000043
40
0.750000000000043
40
0.812500000000059
40
0.812500000000059
40
0.875000000000076
40
0.875000000000076
40
1
40
1
40
1
40
1
41
1
10
16.799788242179
20
0.257339014952407
30
0
41
1
10
16.799788242179
20
0.261586038533892
30
0
41
1
10
16.8002999479066
20
0.265855099877115
30
0
41
1
10
16.802333214423
20
0.274222861544871
30
0
41
1
10
16.8038534563326
20
0.278354442992196
30
0
41
1
10
16.8100460514086
20
0.290584795912054
30
0
41
1
10
16.8161182717053
20
0.298203353414891
30
0
41
1
10
16.8288519594519
20
0.308661198397118
30
0
41
1
10
16.8336713363941
20
0.311932120277731
30
0
41
1
10
16.8417126465954
20
0.316349253709433
30
0
41
1
10
16.8445368622254
20
0.317745816664115
30
0
41
1
10
16.8505071895389
20
0.320370753705618
30
0
41
1
10
16.8536674025106
20
0.321602274113445
30
0
41
1
10
16.8601859566174
20
0.323817410176844
30
0
41
1
10
16.8635598760377
20
0.324809181246167
30
0
41
1
10
16.8705559719195
20
0.326543366130465
30
0
41
1
10
16.8742082567998
20
0.327290125421882
30
0
41
1
10
16.8853314816248
20
0.329073076233783
30
0
41
1
10
16.8929319877444
20
0.329664909514207
30
0
41
1
10
16.900732913856
20
0.329612238691482
30
0
0
SPLINE
5
E7
100
AcDbEntity
8
1
62
256
6
ByLayer
370
18
48
1
60
0
100
AcDbSpline
70
4
71
3
72
18
73
14
40
0
40
0
40
0
40
0
40
0.500000000000073
40
0.500000000000073
40
0.750000000000106
40
0.750000000000106
40
0.875000000000119
40
0.875000000000119
40
0.937500000000056
40
0.937500000000056
40
0.968750000000028
40
0.968750000000028
40
1
40
1
40
1
40
1
41
1
10
29.2050165569624
20
-2.07491889743025
30
0
41
1
10
29.215553405171
20
-2.05776040455098
30
0
41
1
10
29.226104883449
20
-2.04050083713054
30
0
41
1
10
29.2419643180095
20
-2.01444243072069
30
0
41
1
10
29.2472608097706
20
-2.00571851585022
30
0
41
1
10
29.255176813022
20
-1.99266818502829
30
0
41
1
10
29.2578103321073
20
-1.98832469659027
30
0
41
1
10
29.2617451918084
20
-1.98183480050645
30
0
41
1
10
29.2630550373521
20
-1.9796741627317
30
0
41
1
10
29.2650486695143
20
-1.97637119298324
30
0
41
1
10
29.2657210262523
20
-1.97525350270593
30
0
41
1
10
29.267059843501
20
-1.97303018146843
30
0
41
1
10
29.2677517964207
20
-1.97187851924951
30
0
41
1
10
29.2683183803229
20
-1.97096960317208
30
0
0
SPLINE
5
E8
100
AcDbEntity
8
1
62
256
6
ByLayer
370
18
48
1
60
0
100
AcDbSpline
70
4
71
3
72
54
73
50
40
0
40
0
40
0
40
0
40
0.0354350934743692
40
0.0354350934743692
40
0.086201667502036
40
0.086201667502036
40
0.136968241529703
40
0.136968241529703
40
0.18773481555737
40
0.18773481555737
40
0.238501389585037
40
0.238501389585037
40
0.263884676598869
40
0.263884676598869
40
0.289267963612702
40
0.289267963612702
40
0.340034537640365
40
0.340034537640365
40
0.365417824654196
40
0.365417824654196
40
0.390801111668027
40
0.390801111668027
40
0.44156768569569
40
0.44156768569569
40
0.492334259723353
40
0.492334259723353
40
0.517717546737184
40
0.517717546737184
40
0.543100833751016
40
0.543100833751016
40
0.593867407778681
40
0.593867407778681
40
0.644633981806345
40
0.644633981806345
40
0.69540055583401
40
0.69540055583401
40
0.746167129861675
40
0.746167129861675
40
0.79693370388934
40
0.79693370388934
40
0.847700277917005
40
0.847700277917005
40
0.873083564930838
40
0.873083564930838
40
0.89846685194467
40
0.89846685194467
40
0.949233425972335
40
0.949233425972335
40
1
40
1
40
1
40
1
41
1
10
24.4762877341695
20
-0.511793921492227
30
0
41
1
10
24.3855382593481
20
-0.463540423267744
30
0
41
1
10
24.2947255940923
20
-0.414770193607097
30
0
41
1
10
24.0741995116973
20
-0.295369251762338
30
0
41
1
10
23.9444965716064
20
-0.224409801798089
30
0
41
1
10
23.6850104025027
20
-0.0819596400471596
30
0
41
1
10
23.5552075484119
20
-0.0105024345479876
30
0
41
1
10
23.2952651218601
20
0.132465637337987
30
0
41
1
10
23.1651543360416
20
0.204079723380005
30
0
41
1
10
22.9050314248028
20
0.346040484773511
30
0
41
1
10
22.7749810529231
20
0.416430525314439
30
0
41
1
10
22.5798296363501
20
0.520441711676114
30
0
41
1
10
22.5147894281183
20
0.554845214472323
30
0
41
1
10
22.3848558796407
20
0.62307397115535
30
0
41
1
10
22.3199446577578
20
0.656914070928963
30
0
41
1
10
22.1252732192693
20
0.757391682152871
30
0
41
1
10
21.9955703115829
20
0.822975226071407
30
0
41
1
10
21.8008431519947
20
0.91872318385424
30
0
41
1
10
21.7359040326871
20
0.950197981398475
30
0
41
1
10
21.6059261509384
20
1.01220062940666
30
0
41
1
10
21.5408630886513
20
1.04275597013159
30
0
41
1
10
21.3457429259942
20
1.13296550124957
30
0
41
1
10
21.215949893481
20
1.19099342100515
30
0
41
1
10
20.9564725636218
20
1.30181921237389
30
0
41
1
10
20.8267866400405
20
1.35462429645713
30
0
41
1
10
20.6320428617788
20
1.42962238842046
30
0
41
1
10
20.5671012857642
20
1.45395486104857
30
0
41
1
10
20.43714384962
20
1.50130571417199
30
0
41
1
10
20.3720895942191
20
1.52431362913904
30
0
41
1
10
20.1771561580517
20
1.59094042076384
30
0
41
1
10
20.0473920156609
20
1.63222235998074
30
0
41
1
10
19.7878470365307
20
1.70813803973471
30
0
41
1
10
19.658053818095
20
1.74278808708488
30
0
41
1
10
19.3983304999658
20
1.8055682607708
30
0
41
1
10
19.2682459206115
20
1.83356852044963
30
0
41
1
10
19.0080722034026
20
1.88186879779539
30
0
41
1
10
18.8779862673667
20
1.90211442720758
30
0
41
1
10
18.617815405736
20
1.93498400114297
30
0
41
1
10
18.4879837883266
20
1.9477293723042
30
0
41
1
10
18.2284753658302
20
1.96534026368093
30
0
41
1
10
18.0987816623864
20
1.97022144566441
30
0
41
1
10
17.9040154389559
20
1.97167576618637
30
0
41
1
10
17.8390559628915
20
1.97119527114953
30
0
41
1
10
17.7090657047447
20
1.96840034179965
30
0
41
1
10
17.6440066502375
20
1.96608118580315
30
0
41
1
10
17.4490400612643
20
1.95626319518979
30
0
41
1
10
17.3192404007848
20
1.94590029758402
30
0
41
1
10
17.0596097912813
20
1.91749369252037
30
0
41
1
10
16.9297515267301
20
1.89941960678257
30
0
41
1
10
16.7997882421843
20
1.87757964190243
30
0
0
SPLINE
5
E9
100
AcDbEntity
8
1
62
256
6
ByLayer
370
13
48
1
60
0
100
AcDbSpline
70
4
71
3
72
10
73
6
40
0
40
0
40
0
40
0
40
0.5
40
0.5
40
1
40
1
40
1
40
1
41
1
10
16.9434515493839
20
0.318640294877639
30
0
41
1
10
16.9368915898746
20
0.322194922446698
30
0
41
1
10
16.9300250301098
20
0.324878571957072
30
0
41
1
10
16.915700244093
20
0.328568964974352
30
0
41
1
10
16.9082209298506
20
0.329554838276863
30
0
41
1
10
16.900732913856
20
0.329612238691482
30
0
0
SPLINE
5
EA
100
AcDbEntity
8
1
62
256
6
ByLayer
370
13
48
1
60
0
100
AcDbSpline
70
4
71
3
72
34
73
30
40
0
40
0
40
0
40
0
40
0.125
40
0.125
40
0.1875
40
0.21875
40
0.21875
40
0.25
40
0.25
40
0.375
40
0.375
40
0.4375
40
0.46875
40
0.46875
40
0.5
40
0.5
40
0.625
40
0.625
40
0.6875
40
0.71875
40
0.71875
40
0.75
40
0.75
40
0.875
40
0.875
40
0.9375
40
0.96875
40
0.96875
40
1
40
1
40
1
40
1
41
1
10
16.900732913856
20
0.329612238691482
30
0
41
1
10
16.9007155814767
20
0.222139030094127
30
0
41
1
10
16.9006960130775
20
0.114588678774339
30
0
41
1
10
16.9006645903153
20
-0.0468481087182511
30
0
41
1
10
16.9006483495331
20
-0.127594468317937
30
0
41
1
10
16.900631459011
20
-0.208383270117167
30
0
41
1
10
16.9006200642129
20
-0.262252051348838
30
0
41
1
10
16.9006142935721
20
-0.289220289288863
30
0
41
1
10
16.9005851933669
20
-0.423771882296819
30
0
41
1
10
16.9005615726062
20
-0.528591185830521
30
0
41
1
10
16.9005257753117
20
-0.681724257840074
30
0
41
1
10
16.9005077754337
20
-0.757261342862421
30
0
41
1
10
16.9004895632797
20
-0.831230962895006
30
0
41
1
10
16.9004773616044
20
-0.880189618745703
30
0
41
1
10
16.9004712395357
20
-0.904455681759458
30
0
41
1
10
16.9004407156796
20
-1.02383360930105
30
0
41
1
10
16.9004163918487
20
-1.11394951055078
30
0
41
1
10
16.9003790859007
20
-1.24125768394987
30
0
41
1
10
16.9003602211016
20
-1.30293503087196
30
0
41
1
10
16.9003407866815
20
-1.36159390318073
30
0
41
1
10
16.9003276698272
20
-1.40001631466009
30
0
41
1
10
16.9003210292247
20
-1.41888828181197
30
0
41
1
10
16.9002876584497
20
-1.5106480402651
30
0
41
1
10
16.9002601886868
20
-1.57652925691059
30
0
41
1
10
16.900216221455
20
-1.66438506328708
30
0
41
1
10
16.9001935437526
20
-1.70555699524743
30
0
41
1
10
16.9001694783171
20
-1.7425253105929
30
0
41
1
10
16.9001530832211
20
-1.76621954586224
30
0
41
1
10
16.9001447029198
20
-1.77759896024813
30
0
41
1
10
16.9001361672353
20
-1.78844150965526
30
0
0
SPLINE
5
EB
100
AcDbEntity
8
1
62
256
6
ByLayer
370
18
48
1
60
0
100
AcDbSpline
70
4
71
3
72
12
73
8
40
0
40
0
40
0
40
0
40
0.529310663076609
40
0.529310663076609
40
0.793965994614914
40
0.793965994614914
40
1
40
1
40
1
40
1
41
1
10
16.9001361672352
20
-1.78844150965523
30
0
41
1
10
17.1595394621556
20
-1.845233161008
30
0
41
1
10
17.4174443524376
20
-1.88738215682039
30
0
41
1
10
17.8041247358061
20
-1.92825192662153
30
0
41
1
10
17.933001436159
20
-1.93816024923495
30
0
41
1
10
18.1625664229258
20
-1.94914474100304
30
0
41
1
10
18.263167943142
20
-1.95168148110218
30
0
41
1
10
18.3639546321028
20
-1.95188912545075
30
0
0
SPLINE
5
EC
100
AcDbEntity
8
1
62
256
6
ByLayer
370
18
48
1
60
0
100
AcDbSpline
70
4
71
3
72
60
73
56
40
0
40
0
40
0
40
0
40
0.0142877382787424
40
0.0142877382787424
40
0.0532431216688535
40
0.0532431216688535
40
0.0727208133639091
40
0.0727208133639091
40
0.0824596592114369
40
0.0824596592114369
40
0.0873290821352007
40
0.0897637935970828
40
0.0903724714625532
40
0.0903724714625532
40
0.0909811493280237
40
0.0909811493280237
40
0.0921985050589648
40
0.0921985050589648
40
0.0970679279827289
40
0.0970679279827289
40
0.101937350906493
40
0.101937350906493
40
0.111676196754021
40
0.111676196754021
40
0.131153888449078
40
0.131153888449078
40
0.170109271839191
40
0.170109271839191
40
0.248020038619417
40
0.248020038619417
40
0.403841572179868
40
0.403841572179868
40
0.481752338960095
40
0.481752338960095
40
0.501230030655151
40
0.501230030655151
40
0.51096887650268
40
0.51096887650268
40
0.520707722350208
40
0.520707722350208
40
0.52314243381209
40
0.52314243381209
40
0.524359789543031
40
0.524359789543031
40
0.524968467408501
40
0.524968467408501
40
0.525577145273971
40
0.525577145273971
40
0.530446568197735
40
0.530446568197735
40
0.540185414045262
40
0.559663105740316
40
0.871306172861183
40
0.871306172861183
40
1
40
1
40
1
40
1
41
1
10
8.59812117162198
20
1.73536348621548
30
0
41
1
10
8.59654913476192
20
1.70993772994407
30
0
41
1
10
8.59370501727275
20
1.68420382511758
30
0
41
1
10
8.57944444052572
20
1.58651256390917
30
0
41
1
10
8.56177886397842
20
1.51104598488334
30
0
41
1
10
8.52375784812224
20
1.39461087723788
30
0
41
1
10
8.5096360831252
20
1.35490585973559
30
0
41
1
10
8.48450381876503
20
1.29512007565114
30
0
41
1
10
8.47555818592562
20
1.27512793561195
30
0
41
1
10
8.4613933056371
20
1.24501040977347
30
0
41
1
10
8.45412511291875
20
1.22992146066434
30
0
41
1
10
8.44597097971055
20
1.21352161036256
30
0
41
1
10
8.44279154262011
20
1.20720506220672
30
0
41
1
10
8.441516321222
20
1.20467768070119
30
0
41
1
10
8.44056110968955
20
1.20345902710741
30
0
41
1
10
8.44127544939266
20
1.19877482079795
30
0
41
1
10
8.44419369949486
20
1.19608065815962
30
0
41
1
10
8.45629169044619
20
1.1833946125669
30
0
41
1
10
8.46739833976898
20
1.17456072732133
30
0
41
1
10
8.48919129362122
20
1.15661218735809
30
0
41
1
10
8.50021974695593
20
1.14779783749108
30
0
41
1
10
8.53345002635373
20
1.12153000857765
30
0
41
1
10
8.55580856335664
20
1.1042660561331
30
0
41
1
10
8.62309513409349
20
1.05272772432099
30
0
41
1
10
8.66824487608559
20
1.01874402091565
30
0
41
1
10
8.80396647419212
20
0.917166675494883
30
0
41
1
10
8.89484089004642
20
0.84996615447676
30
0
41
1
10
9.16780256532226
20
0.64880202518259
30
0
41
1
10
9.35011695214354
20
0.515173962672975
30
0
41
1
10
9.89647588644181
20
0.113719433379572
30
0
41
1
10
10.2603897352865
20
-0.154119942716278
30
0
41
1
10
10.8063059457792
20
-0.555462988444958
30
0
41
1
10
10.9884990349572
20
-0.688945747949333
30
0
41
1
10
11.2145747869215
20
-0.857717064461468
30
0
41
1
10
11.2597015423862
20
-0.891573926423035
30
0
41
1
10
11.3270147401285
20
-0.942812143487345
30
0
41
1
10
11.3493916938765
20
-0.959964535404453
30
0
41
1
10
11.3938586903182
20
-0.994617646435273
30
0
41
1
10
11.416066842645
20
-1.01198870772402
30
0
41
1
10
11.4428378485077
20
-1.0347492178002
30
0
41
1
10
11.4481489766591
20
-1.03934157747207
30
0
41
1
10
11.4557326492408
20
-1.04658931478198
30
0
41
1
10
11.4582813952167
20
-1.04903928249939
30
0
41
1
10
11.4613083529148
20
-1.05314352185121
30
0
41
1
10
11.4625044304856
20
-1.0552060950852
30
0
41
1
10
11.4599038564831
20
-1.05662201647982
30
0
41
1
10
11.458037167927
20
-1.0562117592911
30
0
41
1
10
11.4430426333894
20
-1.05462029354644
30
0
41
1
10
11.4297152384635
20
-1.05319112938793
30
0
41
1
10
11.3897400809933
20
-1.04889188990029
30
0
41
1
10
11.3098126905773
20
-1.04020399883944
30
0
41
1
10
10.378146473022
20
-0.935720046640881
30
0
41
1
10
9.48219423771963
20
-0.799531317817127
30
0
41
1
10
8.30340697562605
20
-0.574355004417129
30
0
41
1
10
7.96051331801095
20
-0.503256603654052
30
0
41
1
10
7.61911342404272
20
-0.426961506910118
30
0
0
SPLINE
5
ED
100
AcDbEntity
8
1
62
256
6
ByLayer
370
18
48
1
60
0
100
AcDbSpline
70
4
71
3
72
14
73
10
40
0
40
0
40
0
40
0
40
0.0338161624928954
40
0.0338161624928954
40
0.227052929994323
40
0.227052929994323
40
0.613526464997161
40
0.613526464997161
40
1
40
1
40
1
40
1
41
1
10
17.9403030841565
20
-0.222522375464308
30
0
41
1
10
17.929068703929
20
-0.216444360361493
30
0
41
1
10
17.9178342291646
20
-0.21036572794992
30
0
41
1
10
17.842400452868
20
-0.169549789394836
30
0
41
1
10
17.7782005460503
20
-0.134788111435313
30
0
41
1
10
17.5856140181472
20
-0.0303944445010984
30
0
41
1
10
17.457265144103
20
0.0393922586239626
30
0
41
1
10
17.2004941676041
20
0.179077430867039
30
0
41
1
10
17.0720593254668
20
0.248951946068217
30
0
41
1
10
16.9434515493839
20
0.318640294877639
30
0
0
SPLINE
5
EE
100
AcDbEntity
8
1
62
256
6
ByLayer
370
18
48
1
60
0
100
AcDbSpline
70
4
71
3
72
8
73
4
40
0
40
0
40
0
40
0
40
1
40
1
40
1
40
1
41
1
10
29.1917221628024
20
-2.06183881206425
30
0
41
1
10
29.2103275022763
20
-2.03207801169063
30
0
41
1
10
29.22896283838
20
-2.00213118870724
30
0
41
1
10
29.2476332124932
20
-1.97199958977896
30
0
0
SPLINE
5
EF
100
AcDbEntity
8
1
62
256
6
ByLayer
370
18
48
1
60
0
100
AcDbSpline
70
4
71
3
72
14
73
10
40
0
40
0
40
0
40
0
40
0.25
40
0.25
40
0.5
40
0.5
40
0.75
40
0.75
40
1
40
1
40
1
40
1
41
1
10
29.2476332124932
20
-1.97199958977896
30
0
41
1
10
29.2483287928426
20
-1.9708770119461
30
0
41
1
10
29.2490411208333
20
-1.96968069025337
30
0
41
1
10
29.2504193290404
20
-1.96724075915523
30
0
41
1
10
29.2510786690967
20
-1.96600449375521
30
0
41
1
10
29.2521250736317
20
-1.96386385567703
30
0
41
1
10
29.2525099285199
20
-1.9629610279315
30
0
41
1
10
29.2529183477506
20
-1.96172650676283
30
0
41
1
10
29.2529561053038
20
-1.96137054466882
30
0
41
1
10
29.2528699257917
20
-1.96122823882675
30
0
0
SPLINE
5
F0
100
AcDbEntity
8
1
62
256
6
ByLayer
370
18
48
1
60
0
100
AcDbSpline
70
4
71
3
72
10
73
6
40
0
40
0
40
0
40
0
40
0.623829947773275
40
0.623829947773275
40
1
40
1
40
1
40
1
41
1
10
29.247633212493
20
-1.97199958977896
30
0
41
1
10
29.1829329993061
20
-1.96842175654629
30
0
41
1
10
29.1182630616578
20
-1.96395935854838
30
0
41
1
10
29.0148508012767
20
-1.95521109657005
30
0
41
1
10
28.9759919762024
20
-1.95157428215106
30
0
41
1
10
28.9371699369323
20
-1.94759561910439
30
0
0
SPLINE
5
F1
100
AcDbEntity
8
1
62
256
6
ByLayer
370
18
48
1
60
0
100
AcDbSpline
70
4
71
3
72
34
73
30
40
0
40
0
40
0
40
0
40
0.0422309649450251
40
0.0422309649450251
40
0.133442710856484
40
0.133442710856484
40
0.315866202679403
40
0.315866202679403
40
0.361472075635132
40
0.361472075635132
40
0.384275012112997
40
0.384275012112997
40
0.407077948590862
40
0.407077948590862
40
0.498289694502336
40
0.498289694502336
40
0.680713186325281
40
0.680713186325281
40
0.726319059281015
40
0.726319059281015
40
0.771924932236749
40
0.771924932236749
40
0.863136678148217
40
0.863136678148217
40
0.954348424059686
40
0.954348424059686
40
0.99995429701542
40
0.99995429701542
40
1
40
1
40
1
40
1
41
1
10
28.2695118640635
20
-1.845657153719
30
0
41
1
10
28.2103228906832
20
-1.83371767023203
30
0
41
1
10
28.1511798181639
20
-1.82104649824885
30
0
41
1
10
27.9643374763832
20
-1.77868031198534
30
0
41
1
10
27.8366750193439
20
-1.74625241493865
30
0
41
1
10
27.4533725429349
20
-1.63910965217087
30
0
41
1
10
27.197410121018
20
-1.55465123837641
30
0
41
1
10
26.8751257376205
20
-1.43415381489152
30
0
41
1
10
26.8105526190602
20
-1.40931152255743
30
0
41
1
10
26.713492857991
20
-1.37095114051371
30
0
41
1
10
26.6810901915614
20
-1.35797473477567
30
0
41
1
10
26.6163928826969
20
-1.33173201467468
30
0
41
1
10
26.5840792661962
20
-1.31845837086661
30
0
41
1
10
26.4226762795287
20
-1.2513454898324
30
0
41
1
10
26.2940896093196
20
-1.19526084429668
30
0
41
1
10
25.9092112531384
20
-1.02100356389713
30
0
41
1
10
25.6537767606806
20
-0.896877646772907
30
0
41
1
10
25.3342056668668
20
-0.734610916074104
30
0
41
1
10
25.2702720057332
20
-0.701804613168861
30
0
41
1
10
25.1424000332525
20
-0.635486078565748
30
0
41
1
10
25.0784751283286
20
-0.601963273879136
30
0
41
1
10
24.8865801426535
20
-0.500491292973635
30
0
41
1
10
24.7584413669977
20
-0.431667896984123
30
0
41
1
10
24.5014187525221
20
-0.292314729872885
30
0
41
1
10
24.3725393065463
20
-0.221790007737809
30
0
41
1
10
24.1784451190651
20
-0.115105001499643
30
0
41
1
10
24.1136214568113
20
-0.0793924275880897
30
0
41
1
10
24.0488536182699
20
-0.0436880160064561
30
0
41
1
10
24.0487887775477
20
-0.0436522713950183
30
0
41
1
10
24.0487239368775
20
-0.0436165267908279
30
0
0
SPLINE
5
F2
100
AcDbEntity
8
1
62
256
6
ByLayer
370
18
48
1
60
0
100
AcDbSpline
70
4
71
3
72
8
73
4
40
0
40
0
40
0
40
0
40
1
40
1
40
1
40
1
41
1
10
29.2241164643315
20
-0.23187456120516
30
0
41
1
10
29.2260292799135
20
-0.232279684223045
30
0
41
1
10
29.2270473471394
20
-0.237384966225875
30
0
41
1
10
29.2264253265301
20
-0.243249588522445
30
0
0
SPLINE
5
F3
100
AcDbEntity
8
1
62
256
6
ByLayer
370
13
48
1
60
0
100
AcDbSpline
70
4
71
3
72
8
73
4
40
0
40
0
40
0
40
0
40
1
40
1
40
1
40
1
41
1
10
16.9499292396677
20
0.343444345418021
30
0
41
1
10
16.9493650869589
20
0.3386047630257
30
0
41
1
10
16.9487913734007
20
0.333755940154759
30
0
41
1
10
16.9482080058654
20
0.328897188538633
30
0
0
SPLINE
5
F4
100
AcDbEntity
8
1
62
256
6
ByLayer
370
18
48
1
60
0
100
AcDbSpline
70
4
71
3
72
10
73
6
40
0
40
0
40
0
40
0
40
0.63877395182937
40
0.63877395182937
40
1
40
1
40
1
40
1
41
1
10
16.9482080058654
20
0.328897188538633
30
0
41
1
10
17.0767405673801
20
0.258957702803798
30
0
41
1
10
17.2051010173513
20
0.188812691794368
30
0
41
1
10
17.4059723638367
20
0.0790199015300459
30
0
41
1
10
17.4785208325746
20
0.0393716247724569
30
0
41
1
10
17.5510716990576
20
-0.0002409345593719
30
0
0
SPLINE
5
F5
100
AcDbEntity
8
1
62
256
6
ByLayer
370
18
48
1
60
0
100
AcDbSpline
70
4
71
3
72
46
73
42
40
0
40
0
40
0
40
0
40
0.0315377810024194
40
0.0315377810024194
40
0.0630755620048388
40
0.0630755620048388
40
0.126151124009678
40
0.126151124009678
40
0.157688905012098
40
0.157688905012098
40
0.189226686014517
40
0.189226686014517
40
0.220764467016937
40
0.220764467016937
40
0.252302248019356
40
0.252302248019356
40
0.31537781002419
40
0.31537781002419
40
0.378453372029023
40
0.378453372029023
40
0.441528934033857
40
0.441528934033857
40
0.504604496038688
40
0.504604496038688
40
0.63075562004835
40
0.63075562004835
40
0.662293401050765
40
0.662293401050765
40
0.69383118205318
40
0.69383118205318
40
0.756906744058007
40
0.756906744058007
40
0.819982306062834
40
0.819982306062834
40
0.851520087065247
40
0.851520087065247
40
0.883057868067661
40
0.883057868067661
40
0.946133430072488
40
0.946133430072488
40
1
40
1
40
1
40
1
41
1
10
29.2264253265301
20
-0.243249588522474
30
0
41
1
10
29.1621476357423
20
-0.208086749084487
30
0
41
1
10
29.0978066885589
20
-0.172836003884498
30
0
41
1
10
28.9692763994725
20
-0.102358348594407
30
0
41
1
10
28.9051265266758
20
-0.0671531808632722
30
0
41
1
10
28.7130038364548
20
0.0382993847638033
30
0
41
1
10
28.5853580270077
20
0.108383606706184
30
0
41
1
10
28.3944663217485
20
0.212939799747573
30
0
41
1
10
28.3309315877591
20
0.247696559496887
30
0
41
1
10
28.2040105252486
20
0.316933994062225
30
0
41
1
10
28.1406234874148
20
0.351413496895645
30
0
41
1
10
28.0138818187854
20
0.419937359204113
30
0
41
1
10
27.9505265425995
20
0.453980477269511
30
0
41
1
10
27.8237665830853
20
0.521527102980087
30
0
41
1
10
27.7603607098825
20
0.555029667878046
30
0
41
1
10
27.5700510573232
20
0.654675008326194
30
0
41
1
10
27.4430577161533
20
0.719959500406674
30
0
41
1
10
27.1886532462227
20
0.847802569660132
30
0
41
1
10
27.0612429907586
20
0.910366979174341
30
0
41
1
10
26.8058352917635
20
1.03219035237188
30
0
41
1
10
26.6778500042641
20
1.0914527361173
30
0
41
1
10
26.4206975424876
20
1.20589794565859
30
0
41
1
10
26.2926004883888
20
1.26057859244034
30
0
41
1
10
25.9090037203706
20
1.41692394043162
30
0
41
1
10
25.6541310701321
20
1.51098218634567
30
0
41
1
10
25.3364002526349
20
1.61274185478462
30
0
41
1
10
25.2728994689153
20
1.6323071771526
30
0
41
1
10
25.1459593242822
20
1.66973963624642
30
0
41
1
10
25.0825323297045
20
1.68757294851662
30
0
41
1
10
24.8920783606931
20
1.73878350596837
30
0
41
1
10
24.7647687597591
20
1.77008105638845
30
0
41
1
10
24.5094434622343
20
1.82636459895397
30
0
41
1
10
24.3814524376217
20
1.85137886865169
30
0
41
1
10
24.1889178475949
20
1.88294691047605
30
0
41
1
10
24.1246531675334
20
1.89244163546948
30
0
41
1
10
23.99588007565
20
1.90947702957595
30
0
41
1
10
23.9315548998064
20
1.91700947960896
30
0
41
1
10
23.7386394159904
20
1.9370069155911
30
0
41
1
10
23.6099941024845
20
1.94703118388861
30
0
41
1
10
23.3712872409978
20
1.95894456544536
30
0
41
1
10
23.2612645927586
20
1.96178444850358
30
0
41
1
10
23.1511561214671
20
1.96172877070651
30
0
0
SPLINE
5
F6
100
AcDbEntity
8
1
62
256
6
ByLayer
370
18
48
1
60
0
100
AcDbSpline
70
4
71
3
72
8
73
4
40
0
40
0
40
0
40
0
40
1
40
1
40
1
40
1
41
1
10
18.2799101694087
20
1.95117673927163
30
0
41
1
10
18.3077824562127
20
1.95159158136556
30
0
41
1
10
18.335667424816
20
1.95182918044887
30
0
41
1
10
18.3635665753202
20
1.95188831445111
30
0
0
SPLINE
5
F7
100
AcDbEntity
8
1
62
256
6
ByLayer
370
18
48
1
60
0
100
AcDbSpline
70
4
71
3
72
42
73
38
40
0
40
0
40
0
40
0
40
0.0376352951641615
40
0.0720054631940116
40
0.0720054631940116
40
0.106375631223862
40
0.106375631223862
40
0.175115967283562
40
0.175115967283562
40
0.243856303343262
40
0.243856303343262
40
0.278226471373113
40
0.278226471373113
40
0.312596639402965
40
0.312596639402965
40
0.450077311522376
40
0.450077311522376
40
0.51881764758208
40
0.536002731597005
40
0.536002731597005
40
0.55318781561193
40
0.55318781561193
40
0.587557983641779
40
0.587557983641779
40
0.725038655761188
40
0.725038655761188
40
0.793778991820893
40
0.793778991820893
40
0.828149159850745
40
0.828149159850745
40
0.862519327880597
40
0.862519327880597
40
0.931259663940301
40
0.965629831970151
40
0.982814915985075
40
0.982814915985075
40
1
40
1
40
1
40
1
41
1
10
23.6476721291892
20
0.187615611457431
30
0
41
1
10
23.7184078512168
20
0.149029910777955
30
0
41
1
10
23.8537416774346
20
0.0749623263021988
30
0
41
1
10
23.9891871513851
20
0.0006338914542994
30
0
41
1
10
24.1185937829572
20
-0.0703457621691825
30
0
41
1
10
24.183416663418
20
-0.105883462698074
30
0
41
1
10
24.3775090074823
20
-0.212062587004766
30
0
41
1
10
24.5063897768652
20
-0.282274256404406
30
0
41
1
10
24.7634215377622
20
-0.42104466187638
30
0
41
1
10
24.8915666614915
20
-0.489601044087465
30
0
41
1
10
25.0834803923709
20
-0.590695590373656
30
0
41
1
10
25.1474139995043
20
-0.624094705277003
30
0
41
1
10
25.275299514996
20
-0.690183988292517
30
0
41
1
10
25.3392377439196
20
-0.722885228418562
30
0
41
1
10
25.6588316581413
20
-0.88465419954548
30
0
41
1
10
25.9142860973678
20
-1.00846682699353
30
0
41
1
10
26.2991875166063
20
-1.18238597618628
30
0
41
1
10
26.4599290351349
20
-1.2523784072888
30
0
41
1
10
26.6215012320828
20
-1.31866750310357
30
0
41
1
10
26.6861989080936
20
-1.34488270485505
30
0
41
1
10
26.7186011715782
20
-1.35784672765627
30
0
41
1
10
26.8156601587086
20
-1.39617518506796
30
0
41
1
10
26.8802336420811
20
-1.42100325392582
30
0
41
1
10
27.2025222010092
20
-1.54146372179318
30
0
41
1
10
27.4584982601885
20
-1.62599731380291
30
0
41
1
10
27.8418318725052
20
-1.73340104153067
30
0
41
1
10
27.9695052908798
20
-1.76594179849386
30
0
41
1
10
28.1610917786199
20
-1.80958244676955
30
0
41
1
10
28.2249694249177
20
-1.82327579287073
30
0
41
1
10
28.3528360097226
20
-1.84896991004993
30
0
41
1
10
28.4168206088822
20
-1.86096506271929
30
0
41
1
10
28.6089090195727
20
-1.89425716930055
30
0
41
1
10
28.8012790978032
20
-1.92218162691125
30
0
41
1
10
29.026672757017
20
-1.94502643883655
30
0
41
1
10
29.1235271280376
20
-1.95268812326407
30
0
41
1
10
29.1881595594347
20
-1.95731780437285
30
0
41
1
10
29.2205083846077
20
-1.9593723645184
30
0
41
1
10
29.2528699258054
20
-1.96122823882752
30
0
0
SPLINE
5
F8
100
AcDbEntity
8
1
62
256
6
ByLayer
370
18
48
1
60
0
100
AcDbSpline
70
4
71
3
72
8
73
4
40
0
40
0
40
0
40
0
40
1
40
1
40
1
40
1
41
1
10
29.2528699257922
20
-1.9612282388276
30
0
41
1
10
29.2525132823719
20
-1.96063932343185
30
0
41
1
10
29.2521567709281
20
-1.96002475358105
30
0
41
1
10
29.2518003774324
20
-1.95938456142855
30
0
0
SPLINE
5
F9
100
AcDbEntity
8
1
62
256
6
ByLayer
370
18
48
1
60
0
100
AcDbSpline
70
4
71
3
72
34
73
30
40
0
40
0
40
0
40
0
40
0.125
40
0.125
40
0.187500000000001
40
0.187500000000001
40
0.21875
40
0.21875
40
0.25
40
0.25
40
0.375
40
0.375
40
0.4375
40
0.4375
40
0.46875
40
0.46875
40
0.5
40
0.5
40
0.625
40
0.625
40
0.6875
40
0.6875
40
0.718750000000001
40
0.718750000000001
40
0.750000000000001
40
0.750000000000001
40
0.875000000000001
40
0.875000000000001
40
1
40
1
40
1
40
1
41
1
10
29.2264253265301
20
-0.243249588522417
30
0
41
1
10
29.2148026544533
20
-0.352832101992874
30
0
41
1
10
29.2061860441862
20
-0.45999251402273
30
0
41
1
10
29.1963087687399
20
-0.617122427120449
30
0
41
1
10
29.1935304569166
20
-0.668894466206552
30
0
41
1
10
29.1899999806959
20
-0.745622668830492
30
0
41
1
10
29.188929621474
20
-0.771043578259992
30
0
41
1
10
29.1869829834035
20
-0.821568930244183
30
0
41
1
10
29.1861051715431
20
-0.84672342126143
30
0
41
1
10
29.1821785774343
20
-0.971078915858385
30
0
41
1
10
29.1805045768171
20
-1.06514196792494
30
0
41
1
10
29.1794277270717
20
-1.19839147574913
30
0
41
1
10
29.1793145779952
20
-1.24149341387968
30
0
41
1
10
29.1794746702522
20
-1.30414797146017
30
0
41
1
10
29.1795833799314
20
-1.32469933616008
30
0
41
1
10
29.179909613841
20
-1.36512527218545
30
0
41
1
10
29.1801278188031
20
-1.38504450398267
30
0
41
1
10
29.1814851766086
20
-1.48231211766785
30
0
41
1
10
29.1833836110655
20
-1.55246742244822
30
0
41
1
10
29.187671766057
20
-1.64663197141124
30
0
41
1
10
29.1893472055349
20
-1.67616531185655
30
0
41
1
10
29.1923124880924
20
-1.71764679406135
30
0
41
1
10
29.1933766642742
20
-1.73100359239103
30
0
41
1
10
29.1956754209603
20
-1.75676281128173
30
0
41
1
10
29.1969133040972
20
-1.76919348407503
30
0
41
1
10
29.2035415527428
20
-1.82853524887821
30
0
41
1
10
29.2101951483499
20
-1.86690687426693
30
0
41
1
10
29.2275132872823
20
-1.9262993825682
30
0
41
1
10
29.2381746610208
20
-1.94731010100943
30
0
41
1
10
29.2518003774322
20
-1.95938456142855
30
0
0
SPLINE
5
FA
100
AcDbEntity
8
1
62
256
6
ByLayer
370
18
48
1
60
0
100
AcDbSpline
70
4
71
3
72
21
73
17
40
0
40
0
40
0
40
0
40
0.109065408114056
40
0.109065408114056
40
0.14618768277597
40
0.14618768277597
40
0.183309957437884
40
0.183309957437884
40
0.257554506761712
40
0.406043605409368
40
0.406043605409368
40
0.554532704057025
40
0.554532704057025
40
0.703021802704681
40
0.703021802704681
40
1
40
1
40
1
40
1
41
1
10
19.4484722635026
20
-1.96021961363832
30
0
41
1
10
19.3541271673325
20
-1.97651311504262
30
0
41
1
10
19.2595890527274
20
-1.99079976828242
30
0
41
1
10
19.1325227164217
20
-2.00717566394471
30
0
41
1
10
19.1002248953859
20
-2.01109382960726
30
0
41
1
10
19.0355600469782
20
-2.01844407186735
30
0
41
1
10
19.0031702221124
20
-2.02187824536426
30
0
41
1
10
18.9061097674842
20
-2.03142251899624
30
0
41
1
10
18.7123647227303
20
-2.04748926445566
30
0
41
1
10
18.5195115495229
20
-2.05453994348378
30
0
41
1
10
18.2628201616669
20
-2.05601931450818
30
0
41
1
10
18.1346980079783
20
-2.05279873383373
30
0
41
1
10
17.8785795654819
20
-2.038505494823
30
0
41
1
10
17.7505865765495
20
-2.02742782391968
30
0
41
1
10
17.3661130238839
20
-1.98257038781983
30
0
41
1
10
17.1091144623267
20
-1.93720527429215
30
0
41
1
10
16.8501119530295
20
-1.87672565233234
30
0
0
SPLINE
5
FB
100
AcDbEntity
8
1
62
256
6
ByLayer
370
18
48
1
60
0
100
AcDbSpline
70
4
71
3
72
16
73
12
40
0
40
0
40
0
40
0
40
0.250000000000003
40
0.250000000000003
40
0.375000000000003
40
0.375000000000003
40
0.500000000000003
40
0.500000000000003
40
0.750000000000002
40
0.750000000000002
40
1
40
1
40
1
40
1
41
1
10
16.8501119530287
20
-1.87672565233217
30
0
41
1
10
16.8424391020045
20
-1.87493396648881
30
0
41
1
10
16.835508923399
20
-1.87276549062648
30
0
41
1
10
16.8261951580735
20
-1.86893550640636
30
0
41
1
10
16.8232563346443
20
-1.86755060415425
30
0
41
1
10
16.8179034176731
20
-1.86464836863775
30
0
41
1
10
16.8154741212849
20
-1.86312725942324
30
0
41
1
10
16.8089142829298
20
-1.85835093421238
30
0
41
1
10
16.8054837517014
20
-1.85483112708982
30
0
41
1
10
16.8009527732657
20
-1.84754074223886
30
0
41
1
10
16.7997882421789
20
-1.84372729339131
30
0
41
1
10
16.7997882421789
20
-1.83980743883052
30
0
0
SPLINE
5
FC
100
AcDbEntity
8
1
62
256
6
ByLayer
370
18
48
1
60
0
100
AcDbSpline
70
4
71
3
72
28
73
24
40
0
40
0
40
0
40
0
40
0.125000000000106
40
0.125000000000106
40
0.18750000000016
40
0.18750000000016
40
0.250000000000213
40
0.250000000000213
40
0.37500000000027
40
0.37500000000027
40
0.437500000000263
40
0.437500000000263
40
0.500000000000256
40
0.500000000000256
40
0.625000000000242
40
0.625000000000242
40
0.687500000000235
40
0.687500000000235
40
0.750000000000228
40
0.750000000000228
40
0.875000000000114
40
0.875000000000114
40
1
40
1
40
1
40
1
41
1
10
16.799788242179
20
0.257792480187447
30
0
41
1
10
16.799788242179
20
0.266538129857338
30
0
41
1
10
16.8009319720875
20
0.275083536290197
30
0
41
1
10
16.8043150039966
20
0.287610837346563
30
0
41
1
10
16.8057380652317
20
0.291764885681715
30
0
41
1
10
16.8090866817484
20
0.299760864070606
30
0
41
1
10
16.8110124186158
20
0.303619424640459
30
0
41
1
10
16.8175302053564
20
0.314785369358361
30
0
41
1
10
16.8229514463837
20
0.321766230394701
30
0
41
1
10
16.8321880512047
20
0.330879160877203
30
0
41
1
10
16.8354554942075
20
0.333706892072911
30
0
41
1
10
16.8423687428423
20
0.338942033834115
30
0
41
1
10
16.8460428329722
20
0.341364547684293
30
0
41
1
10
16.8574354854966
20
0.347843752504247
30
0
41
1
10
16.8654660397844
20
0.351118924455022
30
0
41
1
10
16.8781642435192
20
0.354470978921711
30
0
41
1
10
16.8825016803271
20
0.355317936204017
30
0
41
1
10
16.8911440566264
20
0.356433502437426
30
0
41
1
10
16.8954804309168
20
0.356711460739206
30
0
41
1
10
16.9085349077468
20
0.356709774955561
30
0
41
1
10
16.9173647687262
20
0.355560391050005
30
0
41
1
10
16.9341528842597
20
0.351117885912004
30
0
41
1
10
16.9423019841879
20
0.347799930098347
30
0
41
1
10
16.9499292396677
20
0.343444345418021
30
0
0
SPLINE
5
FD
100
AcDbEntity
8
1
62
256
6
ByLayer
370
18
48
1
60
0
100
AcDbSpline
70
4
71
3
72
41
73
37
40
0
40
0
40
0
40
0
40
0.122948303959414
40
0.122948303959414
40
0.18442245593912
40
0.18442245593912
40
0.245896607918826
40
0.245896607918826
40
0.276633683908678
40
0.276633683908678
40
0.30737075989853
40
0.30737075989853
40
0.368844911878233
40
0.368844911878233
40
0.430319063857937
40
0.430319063857937
40
0.49179321583764
40
0.49179321583764
40
0.553267367817344
40
0.553267367817344
40
0.614741519797047
40
0.614741519797047
40
0.676215671776751
40
0.676215671776751
40
0.737689823756454
40
0.737689823756454
40
0.799163975736158
40
0.799163975736158
40
0.860638127715861
40
0.860638127715861
40
0.891375203705714
40
0.891375203705714
40
0.922112279695567
40
0.983586431675273
40
0.983586431675273
40
1
40
1
40
1
40
1
41
1
10
16.9499292396677
20
0.343444345417993
30
0
41
1
10
17.2059296735944
20
0.19725394034694
30
0
41
1
10
17.4611601192054
20
0.0509752479211727
30
0
41
1
10
17.8436301962275
20
-0.167293423070248
30
0
41
1
10
17.9709975160295
20
-0.239961986944394
30
0
41
1
10
18.2256964538323
20
-0.384746085773798
30
0
41
1
10
18.3531120146291
20
-0.45671386663804
30
0
41
1
10
18.5448108503461
20
-0.56319675985597
30
0
41
1
10
18.6087976958366
20
-0.598461486981051
30
0
41
1
10
18.7369840882788
20
-0.668464933957296
30
0
41
1
10
18.8012438580475
20
-0.703231305231327
30
0
41
1
10
18.9939293413808
20
-0.806424835774067
30
0
41
1
10
19.1221224223724
20
-0.873679349361254
30
0
41
1
10
19.3780881330727
20
-1.00492839643817
30
0
41
1
10
19.5057608795484
20
-1.06905897098241
30
0
41
1
10
19.7618487132745
20
-1.19228323146288
30
0
41
1
10
19.89015517767
20
-1.25155660958995
30
0
41
1
10
20.1473190950351
20
-1.36539660766709
30
0
41
1
10
20.2752974301921
20
-1.41965604381602
30
0
41
1
10
20.5301289215674
20
-1.52270130336484
30
0
41
1
10
20.6570931593336
20
-1.57134240225719
30
0
41
1
10
20.9108383574816
20
-1.662127682342
30
0
41
1
10
21.0375237218979
20
-1.70439488835643
30
0
41
1
10
21.2905892127334
20
-1.78259669099069
30
0
41
1
10
21.4170589564466
20
-1.81842818691837
30
0
41
1
10
21.6706338904514
20
-1.88294795811797
30
0
41
1
10
21.7976734159648
20
-1.91170782045631
30
0
41
1
10
22.0522692032467
20
-1.96217135581972
30
0
41
1
10
22.1798185272981
20
-1.98387458339411
30
0
41
1
10
22.3716857713277
20
-2.01086875560003
30
0
41
1
10
22.4358115856104
20
-2.0189408256206
30
0
41
1
10
22.5639864069975
20
-2.03311148818256
30
0
41
1
10
22.7560416175148
20
-2.05140709639559
30
0
41
1
10
22.9478265534436
20
-2.06077139078971
30
0
41
1
10
23.1099986310777
20
-2.06368693997825
30
0
41
1
10
23.144181179844
20
-2.06402158925906
30
0
41
1
10
23.178371238349
20
-2.06407616165353
30
0
0
SPLINE
5
FE
100
AcDbEntity
8
1
62
256
6
ByLayer
370
18
48
1
60
0
100
AcDbSpline
70
4
71
3
72
132
73
128
40
0
40
0
40
0
40
0
40
0.0208719631598264
40
0.0208719631598264
40
0.0329227690663884
40
0.0329227690663884
40
0.0449735749729504
40
0.0449735749729504
40
0.0690751867860744
40
0.0690751867860744
40
0.0931767985991983
40
0.0931767985991983
40
0.10522760450576
40
0.10522760450576
40
0.117278410412321
40
0.117278410412321
40
0.129329216318883
40
0.129329216318883
40
0.141380022225444
40
0.141380022225444
40
0.165481634038566
40
0.165481634038566
40
0.189583245851688
40
0.189583245851688
40
0.201634051758249
40
0.201634051758249
40
0.21368485766481
40
0.21368485766481
40
0.237786469477934
40
0.237786469477934
40
0.249837275384497
40
0.249837275384497
40
0.26188808129106
40
0.26188808129106
40
0.285989693104186
40
0.285989693104186
40
0.29804049901075
40
0.29804049901075
40
0.310091304917313
40
0.310091304917313
40
0.33419291673044
40
0.33419291673044
40
0.358294528543568
40
0.358294528543568
40
0.370345334450132
40
0.370345334450132
40
0.382396140356695
40
0.382396140356695
40
0.406497752169821
40
0.406497752169821
40
0.430599363982948
40
0.430599363982948
40
0.454700975796074
40
0.454700975796074
40
0.466751781702638
40
0.466751781702638
40
0.478802587609201
40
0.478802587609201
40
0.502904199422329
40
0.502904199422329
40
0.514955005328893
40
0.514955005328893
40
0.527005811235457
40
0.539056617142021
40
0.539056617142021
40
0.551107423048586
40
0.551107423048586
40
0.56315822895515
40
0.56315822895515
40
0.575209034861714
40
0.575209034861714
40
0.599310646674843
40
0.599310646674843
40
0.623412258487973
40
0.623412258487973
40
0.635463064394538
40
0.635463064394538
40
0.647513870301103
40
0.647513870301103
40
0.671615482114231
40
0.671615482114231
40
0.683666288020795
40
0.683666288020795
40
0.695717093927359
40
0.695717093927359
40
0.707767899833922
40
0.707767899833922
40
0.719818705740486
40
0.719818705740486
40
0.743920317553612
40
0.743920317553612
40
0.768021929366738
40
0.768021929366738
40
0.780072735273301
40
0.780072735273301
40
0.792123541179865
40
0.792123541179865
40
0.804174347086428
40
0.804174347086428
40
0.816225152992991
40
0.816225152992991
40
0.828275958899554
40
0.828275958899554
40
0.840326764806117
40
0.840326764806117
40
0.852377570712681
40
0.852377570712681
40
0.864428376619244
40
0.876479182525807
40
0.876479182525807
40
0.88852998843237
40
0.88852998843237
40
0.900580794338933
40
0.900580794338933
40
0.912631600245496
40
0.912631600245496
40
0.936733212058622
40
0.936733212058622
40
0.948784017965184
40
0.948784017965184
40
0.960834823871747
40
0.960834823871747
40
0.97288562977831
40
0.97288562977831
40
0.984936435684872
40
0.984936435684872
40
1
40
1
40
1
40
1
41
1
10
26.4845097830808
20
-1.47128332524781
30
0
41
1
10
26.387300954629
20
-1.51076562189095
30
0
41
1
10
26.2900009608753
20
-1.54854331165285
30
0
41
1
10
26.1363143733708
20
-1.60537989680609
30
0
41
1
10
26.080027062235
20
-1.62561517000122
30
0
41
1
10
25.9674690955166
20
-1.66502270942078
30
0
41
1
10
25.9112250446514
20
-1.68417750047902
30
0
41
1
10
25.7427115577863
20
-1.73963560506519
30
0
41
1
10
25.6304588222299
20
-1.77391262502593
30
0
41
1
10
25.4058697188533
20
-1.83694119485045
30
0
41
1
10
25.2935038071831
20
-1.86567641957612
30
0
41
1
10
25.124926681167
20
-1.90468670887787
30
0
41
1
10
25.0687591460602
20
-1.91702667307189
30
0
41
1
10
24.9564414305719
20
-1.94033455776852
30
0
41
1
10
24.9002766813688
20
-1.95129175580627
30
0
41
1
10
24.7877783157026
20
-1.97171386781972
30
0
41
1
10
24.7314727473832
20
-1.98117940077759
30
0
41
1
10
24.618975746379
20
-1.99858159838291
30
0
41
1
10
24.5627496563441
20
-2.00652469255561
30
0
41
1
10
24.3941007510413
20
-2.02808642925504
30
0
41
1
10
24.2816435957913
20
-2.03942980652101
30
0
41
1
10
24.0570855976331
20
-2.0561679451132
30
0
41
1
10
23.9450072403955
20
-2.06152923768056
30
0
41
1
10
23.7764204680653
20
-2.06490996184374
30
0
41
1
10
23.7201665355566
20
-2.06526673832286
30
0
41
1
10
23.6075192956756
20
-2.06444288860442
30
0
41
1
10
23.5511384492792
20
-2.06326110343491
30
0
41
1
10
23.3821845886775
20
-2.0574349812926
30
0
41
1
10
23.2696537289617
20
-2.05052701821211
30
0
41
1
10
23.101306701617
20
-2.03553809647423
30
0
41
1
10
23.0452376848266
20
-2.02977193979274
30
0
41
1
10
22.9330321911664
20
-2.01674814815922
30
0
41
1
10
22.8768998266555
20
-2.00949099052133
30
0
41
1
10
22.7083823754679
20
-1.98551043001566
30
0
41
1
10
22.5958713737107
20
-1.96658203248251
30
0
41
1
10
22.4267344572283
20
-1.93385585959018
30
0
41
1
10
22.3703067259328
20
-1.92222057470389
30
0
41
1
10
22.2577201635561
20
-1.89749405572127
30
0
41
1
10
22.2015338714233
20
-1.88438735534785
30
0
41
1
10
22.033077720172
20
-1.8429748842249
30
0
41
1
10
21.9208250759229
20
-1.81264334862413
30
0
41
1
10
21.6960983770343
20
-1.74687936289973
30
0
41
1
10
21.5836123146259
20
-1.71146600028257
30
0
41
1
10
21.4147305057254
20
-1.65452892616267
30
0
41
1
10
21.3584370404699
20
-1.63488607906066
30
0
41
1
10
21.2458582952009
20
-1.59424003118673
30
0
41
1
10
21.1895547067155
20
-1.57325033762748
30
0
41
1
10
21.0208068006534
20
-1.50872242261909
30
0
41
1
10
20.9083819346654
20
-1.46357486906217
30
0
41
1
10
20.6834962230195
20
-1.36932647995215
30
0
41
1
10
20.570972206979
20
-1.32031475205719
30
0
41
1
10
20.3461039303046
20
-1.21805521921286
30
0
41
1
10
20.2338449586885
20
-1.16466490616523
30
0
41
1
10
20.0649083841931
20
-1.08230396174878
30
0
41
1
10
20.0085140226299
20
-1.0544435327933
30
0
41
1
10
19.8958487983371
20
-0.998101965133515
30
0
41
1
10
19.839541701847
20
-0.969603330228693
30
0
41
1
10
19.67065788378
20
-0.883192634526779
30
0
41
1
10
19.5580902137999
20
-0.824417125392984
30
0
41
1
10
19.389612909146
20
-0.73394124358893
30
0
41
1
10
19.3334934520001
20
-0.703431493273655
30
0
41
1
10
19.2211717459712
20
-0.641972460697076
30
0
41
1
10
19.10876079626
20
-0.580086007664505
30
0
41
1
10
18.9961301713322
20
-0.517419294221753
30
0
41
1
10
18.8833658968177
20
-0.454404117091173
30
0
41
1
10
18.8269010083691
20
-0.422716734267624
30
0
41
1
10
18.7141055044125
20
-0.359191383772782
30
0
41
1
10
18.6577445844288
20
-0.327326405608602
30
0
41
1
10
18.5451785166108
20
-0.263249239583416
30
0
41
1
10
18.4889892254861
20
-0.231009368088365
30
0
41
1
10
18.3205079522099
20
-0.134023089712088
30
0
41
1
10
18.2082027544939
20
-0.0691838548187604
30
0
41
1
10
17.9832346686962
20
0.0601755691621406
30
0
41
1
10
17.8705760209156
20
0.124702651455294
30
0
41
1
10
17.7013204369118
20
0.221254129489154
30
0
41
1
10
17.644859666057
20
0.253447986058859
30
0
41
1
10
17.5322166620919
20
0.317737358300803
30
0
41
1
10
17.4759854680861
20
0.349822634566323
30
0
41
1
10
17.3073204227509
20
0.445479658759155
30
0
41
1
10
17.1948910733642
20
0.508413738713813
30
0
41
1
10
17.0261317499901
20
0.60134990913258
30
0
41
1
10
16.9698582330125
20
0.632082379027395
30
0
41
1
10
16.857249914104
20
0.693022659935707
30
0
41
1
10
16.8009188188923
20
0.723236999037425
30
0
41
1
10
16.6882839670992
20
0.783284092356553
30
0
41
1
10
16.6319979490788
20
0.813145028037553
30
0
41
1
10
16.5193680639353
20
0.872338547301069
30
0
41
1
10
16.4629880487876
20
0.901663389231459
30
0
41
1
10
16.2939726306498
20
0.988291765617078
30
0
41
1
10
16.1813843329425
20
1.04438959741077
30
0
41
1
10
15.9561949653186
20
1.15305704332207
30
0
41
1
10
15.8435474046515
20
1.20556853377366
30
0
41
1
10
15.674864126175
20
1.28209823010533
30
0
41
1
10
15.6186675178564
20
1.30720790027272
30
0
41
1
10
15.5061752418607
20
1.35640088421022
30
0
41
1
10
15.4498713328596
20
1.38047426636359
30
0
41
1
10
15.3371222337167
20
1.42754455285842
30
0
41
1
10
15.2806504160195
20
1.45055306488163
30
0
41
1
10
15.167817579194
20
1.49536077523271
30
0
41
1
10
15.1114286071873
20
1.517171174455
30
0
41
1
10
14.9986821982915
20
1.55958934434676
30
0
41
1
10
14.9423275626463
20
1.58020153838243
30
0
41
1
10
14.8297363813094
20
1.62032058635802
30
0
41
1
10
14.7735186809186
20
1.63984598379702
30
0
41
1
10
14.6611294527477
20
1.67769586760755
30
0
41
1
10
14.6049454876826
20
1.69600737090877
30
0
41
1
10
14.4924737761717
20
1.73128320957494
30
0
41
1
10
14.3799207984248
20
1.76523592058234
30
0
41
1
10
14.267162917843
20
1.79651527440657
30
0
41
1
10
14.1542778537164
20
1.82643924535211
30
0
41
1
10
14.0977341633867
20
1.84072513861298
30
0
41
1
10
13.9848049913173
20
1.86789354393642
30
0
41
1
10
13.9284054620002
20
1.8807903849914
30
0
41
1
10
13.8157978819973
20
1.90523953278392
30
0
41
1
10
13.7595750207864
20
1.91677890899916
30
0
41
1
10
13.5909083727346
20
1.94918266219682
30
0
41
1
10
13.4784229457366
20
1.96781527451063
30
0
41
1
10
13.3094894554029
20
1.99130189537252
30
0
41
1
10
13.2531441661637
20
1.99838680781269
30
0
41
1
10
13.1403609127472
20
2.01106408987528
30
0
41
1
10
13.0839247338675
20
2.01665849882079
30
0
41
1
10
12.9710432095081
20
2.02637159937444
30
0
41
1
10
12.9145840243296
20
2.03049461200462
30
0
41
1
10
12.8018527023297
20
2.0372041678049
30
0
41
1
10
12.7455486984495
20
2.03979034452382
30
0
41
1
10
12.618854030398
20
2.04387197258214
30
0
41
1
10
12.5484790633145
20
2.04493797609393
30
0
41
1
10
12.4780926679246
20
2.0448148393879
30
0
0
SPLINE
5
FF
100
AcDbEntity
8
1
62
256
6
ByLayer
370
18
48
1
60
0
100
AcDbSpline
70
4
71
3
72
16
73
12
40
0
40
0
40
0
40
0
40
0.0490527629828145
40
0.0490527629828145
40
0.366035175321877
40
0.366035175321877
40
0.524526381491408
40
0.524526381491408
40
0.683017587660938
40
0.683017587660938
40
1
40
1
40
1
40
1
41
1
10
15.1841126730611
20
1.50133590770702
30
0
41
1
10
15.2105168611251
20
1.51166059421843
30
0
41
1
10
15.2369191949629
20
1.52186451602455
30
0
41
1
10
15.4339243236761
20
1.5971021947629
30
0
41
1
10
15.6044949315784
20
1.65715200370264
30
0
41
1
10
15.861076672246
20
1.73863706473949
30
0
41
1
10
15.9466165528821
20
1.7643014715259
30
0
41
1
10
16.1174520402909
20
1.81248670701098
30
0
41
1
10
16.2027801562866
20
1.83504292503053
30
0
41
1
10
16.4586333093286
20
1.89799468636616
30
0
41
1
10
16.629014418996
20
1.93367007386243
30
0
41
1
10
16.7997882421896
20
1.96265380870352
30
0
0
SPLINE
5
100
100
AcDbEntity
8
1
62
256
6
ByLayer
370
18
48
1
60
0
100
AcDbSpline
70
4
71
3
72
62
73
58
40
0
40
0
40
0
40
0
40
0.0312500000000013
40
0.0312500000000013
40
0.0625000000000027
40
0.0625000000000027
40
0.093750000000004
40
0.093750000000004
40
0.109375000000005
40
0.109375000000005
40
0.125000000000005
40
0.125000000000005
40
0.187500000000007
40
0.187500000000007
40
0.250000000000008
40
0.250000000000008
40
0.312500000000009
40
0.312500000000009
40
0.328125000000009
40
0.328125000000009
40
0.343750000000009
40
0.343750000000009
40
0.375000000000008
40
0.375000000000008
40
0.437500000000007
40
0.437500000000007
40
0.500000000000006
40
0.500000000000006
40
0.515625000000006
40
0.515625000000006
40
0.523437500000005
40
0.523437500000005
40
0.531250000000005
40
0.562500000000005
40
0.562500000000005
40
0.625000000000005
40
0.625000000000005
40
0.687500000000005
40
0.687500000000005
40
0.703125000000006
40
0.710937500000006
40
0.710937500000006
40
0.718750000000006
40
0.718750000000006
40
0.750000000000005
40
0.750000000000005
40
0.812500000000004
40
0.812500000000004
40
0.875000000000003
40
0.875000000000003
40
0.906250000000002
40
0.906250000000002
40
0.921875000000002
40
0.921875000000002
40
0.937500000000001
40
0.937500000000001
40
1
40
1
40
1
40
1
41
1
10
16.799788242179
20
1.94728043840382
30
0
41
1
10
16.9302357638726
20
1.97110300850528
30
0
41
1
10
17.060778988616
20
1.9910716045228
30
0
41
1
10
17.3211749824568
20
2.02299457945159
30
0
41
1
10
17.4511172138238
20
2.03497135616899
30
0
41
1
10
17.7108599213182
20
2.05087880211886
30
0
41
1
10
17.8406607921121
20
2.05480843682113
30
0
41
1
10
18.035556871526
20
2.0546102374887
30
0
41
1
10
18.1005548981529
20
2.05352884307388
30
0
41
1
10
18.2306682025691
20
2.04932798590494
30
0
41
1
10
18.295823759658
20
2.04620588645932
30
0
41
1
10
18.621586091334
20
2.025514659783
30
0
41
1
10
18.8799194766795
20
1.99287116898856
30
0
41
1
10
19.3951604267784
20
1.89783877224875
30
0
41
1
10
19.6520049306932
20
1.83543576216218
30
0
41
1
10
20.1667504263852
20
1.6827544644342
30
0
41
1
10
20.4246656213012
20
1.59245725628114
30
0
41
1
10
20.7497782331517
20
1.4637275195675
30
0
41
1
10
20.8150019821043
20
1.43716199379858
30
0
41
1
10
20.9450232605576
20
1.38281787583074
30
0
41
1
10
21.0099025464647
20
1.35500844195289
30
0
41
1
10
21.204223992349
20
1.2697924527358
30
0
41
1
10
21.3333572233029
20
1.21060962813888
30
0
41
1
10
21.719994834727
20
1.02673696461966
30
0
41
1
10
21.9766964483704
20
0.895663106666007
30
0
41
1
10
22.4907430961035
20
0.62088096144501
30
0
41
1
10
22.7481001377624
20
0.477181712586599
30
0
41
1
10
23.0722282493332
20
0.29290832724169
30
0
41
1
10
23.1371760355398
20
0.255822595938469
30
0
41
1
10
23.2348197017949
20
0.199910972597479
30
0
41
1
10
23.267390031031
20
0.181235125118604
30
0
41
1
10
23.3324164179855
20
0.143909998326336
30
0
41
1
10
23.4948115435739
20
0.0505977290901853
30
0
41
1
10
23.656415387195
20
-0.0426059856398808
30
0
41
1
10
24.0432701709097
20
-0.265184748475178
30
0
41
1
10
24.2998398698671
20
-0.412101272929334
30
0
41
1
10
24.8133574097794
20
-0.697739543465843
30
0
41
1
10
25.0703443722914
20
-0.836397081814994
30
0
41
1
10
25.3936790925269
20
-1.00140691593367
30
0
41
1
10
25.4908343606815
20
-1.05029077962985
30
0
41
1
10
25.5882730977118
20
-1.09815762862448
30
0
41
1
10
25.6533012988235
20
-1.12983242973144
30
0
41
1
10
25.6858710649491
20
-1.1455616334303
30
0
41
1
10
25.8484615410766
20
-1.2233779790036
30
0
41
1
10
25.9779496643972
20
-1.28309705251442
30
0
41
1
10
26.3652531300664
20
-1.45399220456309
30
0
41
1
10
26.6219152542788
20
-1.55689053655183
30
0
41
1
10
27.1352396202117
20
-1.73731640525429
30
0
41
1
10
27.3919055724626
20
-1.81485785777579
30
0
41
1
10
27.7789500193943
20
-1.90995568729835
30
0
41
1
10
27.9083068546057
20
-1.9381153343127
30
0
41
1
10
28.1031476191542
20
-1.9747278244887
30
0
41
1
10
28.1682593036331
20
-1.98599615655246
30
0
41
1
10
28.298179236933
20
-2.00651358822998
30
0
41
1
10
28.3630627743538
20
-2.01577797326149
30
0
41
1
10
28.6872252626935
20
-2.05710040413638
30
0
41
1
10
28.9457537151316
20
-2.07415333619102
30
0
41
1
10
29.2050165569624
20
-2.07491889743022
30
0
0
SPLINE
5
101
100
AcDbEntity
8
1
62
256
6
ByLayer
370
18
48
1
60
0
100
AcDbSpline
70
4
71
3
72
10
73
6
40
0
40
0
40
0
40
0
40
0.5
40
0.5
40
1
40
1
40
1
40
1
41
1
10
29.1917221627891
20
-2.0618388120873
30
0
41
1
10
29.1939320560703
20
-2.0661116042557
30
0
41
1
10
29.1961437636147
20
-2.06934015302184
30
0
41
1
10
29.2005761300428
20
-2.07370477122018
30
0
41
1
10
29.2027988623868
20
-2.0748389807402
30
0
41
1
10
29.2050165569624
20
-2.07491889743025
30
0
0
SPLINE
5
102
100
AcDbEntity
8
1
62
256
6
ByLayer
370
18
48
1
60
0
100
AcDbSpline
70
4
71
3
72
60
73
56
40
0
40
0
40
0
40
0
40
0.0711123753277905
40
0.0711123753277905
40
0.142224750655581
40
0.142224750655581
40
0.160002844487529
40
0.160002844487529
40
0.177780938319478
40
0.177780938319478
40
0.213337125983371
40
0.213337125983371
40
0.248893313647265
40
0.248893313647265
40
0.266671407479213
40
0.266671407479213
40
0.28444950131116
40
0.28444950131116
40
0.355561876638952
40
0.355561876638952
40
0.3733399704709
40
0.3733399704709
40
0.391118064302848
40
0.391118064302848
40
0.426674251966743
40
0.426674251966743
40
0.462230439630637
40
0.462230439630637
40
0.497786627294532
40
0.497786627294532
40
0.568899002622321
40
0.568899002622321
40
0.604455190286215
40
0.604455190286215
40
0.640011377950108
40
0.640011377950108
40
0.711123753277898
40
0.711123753277898
40
0.728901847109845
40
0.728901847109845
40
0.746679940941793
40
0.782236128605687
40
0.782236128605687
40
0.853348503933473
40
0.853348503933473
40
0.924460879261259
40
0.924460879261259
40
0.933349926177231
40
0.933349926177231
40
0.942238973093204
40
0.942238973093204
40
0.960017066925148
40
0.995573254589038
40
0.995573254589038
40
1
40
1
40
1
40
1
41
1
10
29.1917221628003
20
-2.06183881208708
30
0
41
1
10
28.9342547371368
20
-2.04462546518718
30
0
41
1
10
28.6780839460015
20
-2.01150117719749
30
0
41
1
10
28.1654987069984
20
-1.9153715997507
30
0
41
1
10
27.9093912973708
20
-1.85215420425988
30
0
41
1
10
27.5873028876612
20
-1.75541594381156
30
0
41
1
10
27.5227908307389
20
-1.73518128769228
30
0
41
1
10
27.393527832257
20
-1.69296862022259
30
0
41
1
10
27.3289336103677
20
-1.67104152226145
30
0
41
1
10
27.1353406129795
20
-1.60293702010188
30
0
41
1
10
27.0064666807546
20
-1.55441472059323
30
0
41
1
10
26.7487364072874
20
-1.45157112951219
30
0
41
1
10
26.6198827029996
20
-1.39724789442252
30
0
41
1
10
26.4263905462498
20
-1.31167322367045
30
0
41
1
10
26.3618560452268
20
-1.28246852583359
30
0
41
1
10
26.2326459429778
20
-1.22278229324377
30
0
41
1
10
26.168003877886
20
-1.19231585241144
30
0
41
1
10
25.8452271991824
20
-1.03747876520947
30
0
41
1
10
25.5876927574531
20
-0.90526769703726
30
0
41
1
10
25.264903087948
20
-0.732339222688438
30
0
41
1
10
25.2003090150093
20
-0.6973582838325
30
0
41
1
10
25.0710635676692
20
-0.626572095965884
30
0
41
1
10
25.0063774215529
20
-0.590767837159035
30
0
41
1
10
24.812881469354
20
-0.482952916375638
30
0
41
1
10
24.6843747587396
20
-0.410353678728342
30
0
41
1
10
24.4280044254814
20
-0.264305750526518
30
0
41
1
10
24.3001405272478
20
-0.190857502101494
30
0
41
1
10
24.0447748867703
20
-0.0436073313564123
30
0
41
1
10
23.9172686449343
20
0.0301863905891935
30
0
41
1
10
23.5345698422367
20
0.250819551531407
30
0
41
1
10
23.2792127956366
20
0.396939022043171
30
0
41
1
10
22.8936822447204
20
0.610859467895978
30
0
41
1
10
22.7647400596532
20
0.68130716311731
30
0
41
1
10
22.5059265436364
20
0.82008872588267
30
0
41
1
10
22.3768841799274
20
0.887958217307471
30
0
41
1
10
21.9899019137533
20
1.08553348798768
30
0
41
1
10
21.7321276456833
20
1.20926626410099
30
0
41
1
10
21.408524625644
20
1.35154308149294
30
0
41
1
10
21.3438117779113
20
1.37934235390213
30
0
41
1
10
21.2147561526215
20
1.43341421751148
30
0
41
1
10
21.0215518681862
20
1.51231075962028
30
0
41
1
10
20.829286270716
20
1.58439132284039
30
0
41
1
10
20.4454237777396
20
1.71892386085804
30
0
41
1
10
20.1903941739557
20
1.79575599770999
30
0
41
1
10
19.6791171486625
20
1.92114072774783
30
0
41
1
10
19.4229228522162
20
1.96974984006133
30
0
41
1
10
19.1325227164218
20
2.00717566394471
30
0
41
1
10
19.100224895386
20
2.01109382960726
30
0
41
1
10
19.0355600469782
20
2.01844407186735
30
0
41
1
10
19.0031702221125
20
2.02187824536426
30
0
41
1
10
18.9061097674842
20
2.03142251899624
30
0
41
1
10
18.7123647227304
20
2.04748926445566
30
0
41
1
10
18.5195115495229
20
2.05453994348378
30
0
41
1
10
18.3751868165319
20
2.05537171984321
30
0
41
1
10
18.3592112423986
20
2.05540242557319
30
0
41
1
10
18.343238823257
20
2.05537181223721
30
0
0
SPLINE
5
103
100
AcDbEntity
8
1
62
256
6
ByLayer
370
18
48
1
60
0
100
AcDbSpline
70
4
71
3
72
8
73
4
40
0
40
0
40
0
40
0
40
1
40
1
40
1
40
1
41
1
10
29.1917191895465
20
-0.224175592213157
30
0
41
1
10
29.2008125499273
20
-0.132947574744378
30
0
41
1
10
29.2117191857112
20
-0.0421204628351006
30
0
41
1
10
29.2248712788142
20
0.0482475867480616
30
0
0
SPLINE
5
104
100
AcDbEntity
8
1
62
256
6
ByLayer
370
18
48
1
60
0
100
AcDbSpline
70
4
71
3
72
52
73
48
40
0
40
0
40
0
40
0
40
0.0609644528034086
40
0.0609644528034086
40
0.121928905606817
40
0.121928905606817
40
0.182893358410226
40
0.182893358410226
40
0.243857811213634
40
0.243857811213634
40
0.274340037615339
40
0.274340037615339
40
0.304822264017043
40
0.304822264017043
40
0.365786716820452
40
0.365786716820452
40
0.396268943222153
40
0.396268943222153
40
0.426751169623855
40
0.426751169623855
40
0.457233396025556
40
0.457233396025556
40
0.487715622427257
40
0.487715622427257
40
0.54868007523066
40
0.54868007523066
40
0.579162301632362
40
0.579162301632362
40
0.609644528034063
40
0.609644528034063
40
0.670608980837469
40
0.670608980837469
40
0.731573433640875
40
0.731573433640875
40
0.762055660042576
40
0.762055660042576
40
0.792537886444278
40
0.792537886444278
40
0.823020112845979
40
0.823020112845979
40
0.853502339247681
40
0.853502339247681
40
0.914466792051084
40
0.914466792051084
40
0.975431244854487
40
0.975431244854487
40
1
40
1
40
1
40
1
41
1
10
29.2248712788142
20
0.0482475867480616
30
0
41
1
10
29.1125968228141
20
0.113358483779763
30
0
41
1
10
29.0003005143337
20
0.178119537307509
30
0
41
1
10
28.7758462433644
20
0.307258794015752
30
0
41
1
10
28.6638558490199
20
0.37192146515568
30
0
41
1
10
28.4393280438444
20
0.499678936643875
30
0
41
1
10
28.326682016366
20
0.562890708854496
30
0
41
1
10
28.101741818157
20
0.686947270393318
30
0
41
1
10
27.9893087778773
20
0.747743952857945
30
0
41
1
10
27.8210555846321
20
0.837643456659663
30
0
41
1
10
27.7650344017763
20
0.867386786767867
30
0
41
1
10
27.6529670476929
20
0.926183330344657
30
0
41
1
10
27.5969090792569
20
0.955218712383299
30
0
41
1
10
27.4285926394299
20
1.04113416167289
30
0
41
1
10
27.3162091880259
20
1.09685126036751
30
0
41
1
10
27.1472253273729
20
1.17787144234382
30
0
41
1
10
27.0908697966633
20
1.20442660724675
30
0
41
1
10
26.9783631033323
20
1.25664715624427
30
0
41
1
10
26.92220157861
20
1.28235010649647
30
0
41
1
10
26.8100075901907
20
1.33285494551876
30
0
41
1
10
26.7539615368643
20
1.35763759522317
30
0
41
1
10
26.6418222786361
20
1.40607025314293
30
0
41
1
10
26.5857381233688
20
1.42973317298925
30
0
41
1
10
26.4174094532129
20
1.49903268361766
30
0
41
1
10
26.3050772650394
20
1.54296777211269
30
0
41
1
10
26.136314373371
20
1.60537989680603
30
0
41
1
10
26.0800270622352
20
1.62561517000117
30
0
41
1
10
25.9674690955168
20
1.6650227094207
30
0
41
1
10
25.9112250446516
20
1.68417750047897
30
0
41
1
10
25.7427115577865
20
1.7396356050651
30
0
41
1
10
25.6304588222301
20
1.77391262502587
30
0
41
1
10
25.4058697188535
20
1.83694119485037
30
0
41
1
10
25.2935038071834
20
1.86567641957603
30
0
41
1
10
25.1249266811673
20
1.90468670887779
30
0
41
1
10
25.0687591460605
20
1.91702667307183
30
0
41
1
10
24.9564414305722
20
1.94033455776847
30
0
41
1
10
24.9002766813691
20
1.95129175580621
30
0
41
1
10
24.7877783157029
20
1.97171386781966
30
0
41
1
10
24.7314727473835
20
1.98117940077753
30
0
41
1
10
24.6189757463794
20
1.99858159838286
30
0
41
1
10
24.5627496563445
20
2.00652469255559
30
0
41
1
10
24.3941007510417
20
2.02808642925498
30
0
41
1
10
24.2816435957917
20
2.03942980652098
30
0
41
1
10
24.0570855976335
20
2.0561679451132
30
0
41
1
10
23.9450072403958
20
2.06152923768053
30
0
41
1
10
23.7873222639648
20
2.06469134466334
30
0
41
1
10
23.741990567949
20
2.06509932705606
30
0
41
1
10
23.6966150300528
20
2.06500774985633
30
0
0
SPLINE
5
105
100
AcDbEntity
8
1
62
256
6
ByLayer
370
18
48
1
60
0
100
AcDbSpline
70
4
71
3
72
75
73
71
40
0
40
0
40
0
40
0
40
0.0171111503569552
40
0.0171111503569552
40
0.0394495333033891
40
0.0394495333033891
40
0.061787916249823
40
0.061787916249823
40
0.0841262991962565
40
0.0841262991962565
40
0.10646468214269
40
0.128803065089124
40
0.128803065089124
40
0.151141448035558
40
0.151141448035558
40
0.173479830981992
40
0.173479830981992
40
0.195818213928426
40
0.195818213928426
40
0.240494979821294
40
0.240494979821294
40
0.262833362767727
40
0.262833362767727
40
0.285171745714159
40
0.285171745714159
40
0.307510128660592
40
0.307510128660592
40
0.329848511607025
40
0.329848511607025
40
0.374525277499891
40
0.374525277499891
40
0.419202043392757
40
0.419202043392757
40
0.44154042633919
40
0.44154042633919
40
0.463878809285623
40
0.463878809285623
40
0.508555575178488
40
0.508555575178488
40
0.53089395812492
40
0.53089395812492
40
0.553232341071352
40
0.553232341071352
40
0.575570724017784
40
0.575570724017784
40
0.597909106964216
40
0.597909106964216
40
0.620247489910648
40
0.620247489910648
40
0.64258587285708
40
0.64258587285708
40
0.664924255803512
40
0.664924255803512
40
0.687262638749944
40
0.687262638749944
40
0.731939404642807
40
0.731939404642807
40
0.754277787589239
40
0.754277787589239
40
0.776616170535671
40
0.776616170535671
40
0.821292936428537
40
0.821292936428537
40
0.865969702321403
40
0.865969702321403
40
0.910646468214269
40
0.910646468214269
40
0.955323234107134
40
0.955323234107134
40
1
40
1
40
1
40
1
41
1
10
15.184633644636
20
-1.48858699136341
30
0
41
1
10
15.1414281463025
20
-1.50553521541178
30
0
41
1
10
15.0982371486941
20
-1.52213414873475
30
0
41
1
10
14.9986821982925
20
-1.55958934434642
30
0
41
1
10
14.9423275626473
20
-1.58020153838208
30
0
41
1
10
14.8297363813104
20
-1.62032058635768
30
0
41
1
10
14.7735186809195
20
-1.6398459837967
30
0
41
1
10
14.6611294527486
20
-1.67769586760721
30
0
41
1
10
14.6049454876836
20
-1.69600737090846
30
0
41
1
10
14.4924737761727
20
-1.73128320957466
30
0
41
1
10
14.3799208035818
20
-1.76523588416745
30
0
41
1
10
14.267162917844
20
-1.79651527440632
30
0
41
1
10
14.1542778537174
20
-1.82643924535185
30
0
41
1
10
14.0977341633877
20
-1.84072513861273
30
0
41
1
10
13.9848049913183
20
-1.86789354393616
30
0
41
1
10
13.9284054620012
20
-1.88079038499117
30
0
41
1
10
13.8157978819983
20
-1.90523953278373
30
0
41
1
10
13.7595750207874
20
-1.91677890899896
30
0
41
1
10
13.5909083727357
20
-1.94918266219662
30
0
41
1
10
13.4784229457376
20
-1.96781527451046
30
0
41
1
10
13.309489455404
20
-1.99130189537237
30
0
41
1
10
13.2531441661648
20
-1.99838680781258
30
0
41
1
10
13.1403609127482
20
-2.01106408987516
30
0
41
1
10
13.0839247338686
20
-2.01665849882068
30
0
41
1
10
12.9710432095092
20
-2.02637159937436
30
0
41
1
10
12.9145840243307
20
-2.03049461200453
30
0
41
1
10
12.8018527023308
20
-2.03720416780485
30
0
41
1
10
12.7455486984506
20
-2.03979034452377
30
0
41
1
10
12.5766228290755
20
-2.04523250384131
30
0
41
1
10
12.4640339418893
20
-2.04578461041621
30
0
41
1
10
12.2387285173589
20
-2.04083865971501
30
0
41
1
10
12.1259553141946
20
-2.03536286255422
30
0
41
1
10
11.9569914781688
20
-2.02253105721727
30
0
41
1
10
11.9006917706864
20
-2.01747959561129
30
0
41
1
10
11.7879742168868
20
-2.00585566314575
30
0
41
1
10
11.7315106108435
20
-1.99928333192045
30
0
41
1
10
11.5622312823097
20
-1.97737464842217
30
0
41
1
10
11.4494805429925
20
-1.95984259417233
30
0
41
1
10
11.2803584367668
20
-1.92931050878417
30
0
41
1
10
11.2239856770628
20
-1.91842822645657
30
0
41
1
10
11.1113229282384
20
-1.89520246567415
30
0
41
1
10
11.0550527013941
20
-1.88284439479847
30
0
41
1
10
10.9425441427008
20
-1.85667654829146
30
0
41
1
10
10.8862925301189
20
-1.84287550359409
30
0
41
1
10
10.7736559589501
20
-1.81394395546619
30
0
41
1
10
10.7172823042662
20
-1.79880612620559
30
0
41
1
10
10.6044034606253
20
-1.7672088342608
30
0
41
1
10
10.5478624610374
20
-1.7507381544942
30
0
41
1
10
10.4348589199275
20
-1.71657047584355
30
0
41
1
10
10.3783814813864
20
-1.69887889097819
30
0
41
1
10
10.2655019287613
20
-1.66226315331326
30
0
41
1
10
10.2091077917073
20
-1.64333150339496
30
0
41
1
10
10.0964862746508
20
-1.6041307388364
30
0
41
1
10
10.0402463490622
20
-1.58387251167949
30
0
41
1
10
9.87149854482701
20
-1.52137842033591
30
0
41
1
10
9.75890600496933
20
-1.47749348155608
30
0
41
1
10
9.58972234158813
20
-1.4085590669703
30
0
41
1
10
9.5332797781258
20
-1.38506151073523
30
0
41
1
10
9.42027296413912
20
-1.33706306116176
30
0
41
1
10
9.36366397898257
20
-1.31254350200163
30
0
41
1
10
9.19412564182679
20
-1.23756579952035
30
0
41
1
10
9.08155606336783
20
-1.18556559324969
30
0
41
1
10
8.85659731067173
20
-1.07861126912741
30
0
41
1
10
8.74420323488417
20
-1.02367312371902
30
0
41
1
10
8.51954845060709
20
-0.910962755902318
30
0
41
1
10
8.40745054371783
20
-0.852930804117563
30
0
41
1
10
8.18321561249519
20
-0.734256827611972
30
0
41
1
10
8.07100976570536
20
-0.67372479911225
30
0
41
1
10
7.84573076810085
20
-0.551462530741816
30
0
41
1
10
7.73272205212771
20
-0.489629507061267
30
0
41
1
10
7.61929562987825
20
-0.427193165303805
30
0
0
SPLINE
5
106
100
AcDbEntity
8
1
62
256
6
ByLayer
370
18
48
1
60
0
100
AcDbSpline
70
4
71
3
72
92
73
88
40
0
40
0
40
0
40
0
40
0.0625000000000047
40
0.0625000000000047
40
0.125000000000009
40
0.125000000000009
40
0.187500000000014
40
0.187500000000014
40
0.218750000000015
40
0.218750000000015
40
0.250000000000016
40
0.250000000000016
40
0.265625000000015
40
0.265625000000015
40
0.281250000000014
40
0.281250000000014
40
0.312500000000013
40
0.312500000000013
40
0.343750000000012
40
0.343750000000012
40
0.35937500000001
40
0.35937500000001
40
0.375000000000009
40
0.390625000000007
40
0.390625000000007
40
0.398437500000006
40
0.398437500000006
40
0.406250000000006
40
0.406250000000006
40
0.437500000000003
40
0.437500000000003
40
0.445312500000002
40
0.445312500000002
40
0.453125000000002
40
0.453125000000002
40
0.468750000000001
40
0.484375000000001
40
0.484375000000001
40
0.5
40
0.5
40
0.531249999999997
40
0.531249999999997
40
0.562499999999995
40
0.562499999999995
40
0.578124999999992
40
0.578124999999992
40
0.59374999999999
40
0.59374999999999
40
0.624999999999982
40
0.624999999999982
40
0.687499999999969
40
0.687499999999969
40
0.718749999999962
40
0.718749999999962
40
0.734374999999956
40
0.734374999999956
40
0.736328124999955
40
0.736328124999955
40
0.738281249999953
40
0.738281249999953
40
0.740234374999952
40
0.740234374999952
40
0.741210937499953
40
0.741210937499953
40
0.742187499999954
40
0.742187499999954
40
0.744140624999952
40
0.744140624999952
40
0.746093749999951
40
0.746093749999951
40
0.749999999999951
40
0.749999999999951
40
0.753906249999952
40
0.753906249999952
40
0.757812499999952
40
0.757812499999952
40
0.765624999999956
40
0.765624999999956
40
0.781249999999962
40
0.781249999999962
40
0.812499999999968
40
0.812499999999968
40
0.874999999999979
40
0.874999999999979
40
0.93749999999999
40
0.93749999999999
40
1
40
1
40
1
40
1
41
1
10
7.61871407235142
20
-0.426871497377903
30
0
41
1
10
7.51110970093043
20
-0.36734839487201
30
0
41
1
10
7.4049688644954
20
-0.305567707136532
30
0
41
1
10
7.19612734223517
20
-0.176691388886297
30
0
41
1
10
7.0934195054887
20
-0.109606827889507
30
0
41
1
10
6.89227166348644
20
0.0311640736669574
30
0
41
1
10
6.79381312041818
20
0.104821726098493
30
0
41
1
10
6.65044667308354
20
0.221998236503708
30
0
41
1
10
6.60326879564053
20
0.262292866087307
30
0
41
1
10
6.51159090876428
20
0.344806392598429
30
0
41
1
10
6.46702536804077
20
0.387065716854551
30
0
41
1
10
6.40248885699714
20
0.452273997002834
30
0
41
1
10
6.38136350218079
20
0.474314508428392
30
0
41
1
10
6.33997785618058
20
0.519076376442854
30
0
41
1
10
6.3196812914924
20
0.541840091252965
30
0
41
1
10
6.26052190632169
20
0.610981675541552
30
0
41
1
10
6.22355047275892
20
0.657984615393275
30
0
41
1
10
6.15568285398979
20
0.754234523803888
30
0
41
1
10
6.12477119031098
20
0.803475522214825
30
0
41
1
10
6.08432023981814
20
0.879534754262323
30
0
41
1
10
6.07178457041181
20
0.90537955684016
30
0
41
1
10
6.0494433749088
20
0.956952020763481
30
0
41
1
10
6.02973692312233
20
1.00854504310661
30
0
41
1
10
6.01574298880763
20
1.06019312728844
30
0
41
1
10
6.00759843011713
20
1.09895675012143
30
0
41
1
10
6.00527587275417
20
1.11188257002038
30
0
41
1
10
6.00145681309928
20
1.13774485200304
30
0
41
1
10
5.99997080678452
20
1.15062818134953
30
0
41
1
10
5.99473104129484
20
1.21422696626087
30
0
41
1
10
5.9974451454255
20
1.26305292636269
30
0
41
1
10
6.00934543403636
20
1.3216088173738
30
0
41
1
10
6.012151792309
20
1.33319591322055
30
0
41
1
10
6.01861760923276
20
1.35612319870574
30
0
41
1
10
6.02227813392255
20
1.36745434504155
30
0
41
1
10
6.03436511485864
20
1.4006641391197
30
0
41
1
10
6.05350173424236
20
1.4431549482446
30
0
41
1
10
6.07810665351036
20
1.48243157138881
30
0
41
1
10
6.10521522905202
20
1.52024817802481
30
0
41
1
10
6.12007237338708
20
1.53846699705267
30
0
41
1
10
6.16726442936053
20
1.59026556816153
30
0
41
1
10
6.20239050340118
20
1.62134211644059
30
0
41
1
10
6.27826876719988
20
1.67826904308833
30
0
41
1
10
6.31903468179809
20
1.70410586480744
30
0
41
1
10
6.38361937947724
20
1.73971815075509
30
0
41
1
10
6.40563433986773
20
1.75101033160084
30
0
41
1
10
6.45031385850768
20
1.77247725531399
30
0
41
1
10
6.47301294370939
20
1.78267073646282
30
0
41
1
10
6.54206740524094
20
1.81182482399896
30
0
41
1
10
6.58937471328443
20
1.82936754339943
30
0
41
1
10
6.73440116862022
20
1.87745024202431
30
0
41
1
10
6.83518907456158
20
1.90350204550137
30
0
41
1
10
6.99083597000941
20
1.93627798197716
30
0
41
1
10
7.04350514063873
20
1.9461379454703
30
0
41
1
10
7.12320548942293
20
1.95949693100525
30
0
41
1
10
7.14990208283581
20
1.96371375114808
30
0
41
1
10
7.18006360784403
20
1.9682097807634
30
0
41
1
10
7.1834096413327
20
1.9687089879528
30
0
41
1
10
7.19013656725548
20
1.9696867944117
30
0
41
1
10
7.19353327974207
20
1.97015849314016
30
0
41
1
10
7.20052474258045
20
1.97099928320728
30
0
41
1
10
7.20407011668931
20
1.97138483373698
30
0
41
1
10
7.20949885147303
20
1.97185341961597
30
0
41
1
10
7.21133328682757
20
1.97198701184649
30
0
41
1
10
7.21500626659937
20
1.97225017361481
30
0
41
1
10
7.21685772864646
20
1.97236814163765
30
0
41
1
10
7.22245663494635
20
1.97268188491952
30
0
41
1
10
7.22623106234025
20
1.97285317350693
30
0
41
1
10
7.23389632915467
20
1.97309177207956
30
0
41
1
10
7.23773664594185
20
1.97315043349903
30
0
41
1
10
7.24920498850918
20
1.97324621591307
30
0
41
1
10
7.25681104545384
20
1.97315478631978
30
0
41
1
10
7.2719541316869
20
1.97269864141137
30
0
41
1
10
7.27953119617564
20
1.97233169059183
30
0
41
1
10
7.29434461737821
20
1.97135345320911
30
0
41
1
10
7.30159856727406
20
1.97074318715298
30
0
41
1
10
7.32326711835219
20
1.96882381207178
30
0
41
1
10
7.33769480384464
20
1.96751074589736
30
0
41
1
10
7.3809261312858
20
1.96347671206226
30
0
41
1
10
7.40967920547556
20
1.96065914075305
30
0
41
1
10
7.49571553955215
20
1.95179570939206
30
0
41
1
10
7.55278625021606
20
1.94534008835319
30
0
41
1
10
7.72308949689199
20
1.92415615521281
30
0
41
1
10
7.83523421786248
20
1.90762413062856
30
0
41
1
10
8.0570678949602
20
1.86887648528204
30
0
41
1
10
8.16675694003015
20
1.84665801115344
30
0
41
1
10
8.38412972788831
20
1.79582733022903
30
0
41
1
10
8.49161980752368
20
1.76725651138511
30
0
41
1
10
8.59811630682543
20
1.73536422703006
30
0
0
SPLINE
5
107
100
AcDbEntity
8
1
62
256
6
ByLayer
370
18
48
1
60
0
100
AcDbSpline
70
4
71
3
72
60
73
56
40
0
40
0
40
0
40
0
40
0.062500000000001
40
0.062500000000001
40
0.125000000000002
40
0.125000000000002
40
0.140625000000003
40
0.140625000000003
40
0.156250000000004
40
0.156250000000004
40
0.187500000000005
40
0.187500000000005
40
0.250000000000006
40
0.250000000000006
40
0.281250000000006
40
0.281250000000006
40
0.312500000000007
40
0.312500000000007
40
0.343750000000007
40
0.343750000000007
40
0.375000000000008
40
0.375000000000008
40
0.437500000000009
40
0.437500000000009
40
0.46875000000001
40
0.46875000000001
40
0.500000000000011
40
0.500000000000011
40
0.562500000000014
40
0.562500000000014
40
0.578125000000014
40
0.578125000000014
40
0.593750000000013
40
0.593750000000013
40
0.625000000000011
40
0.625000000000011
40
0.65625000000001
40
0.65625000000001
40
0.687500000000009
40
0.687500000000009
40
0.718750000000007
40
0.718750000000007
40
0.750000000000006
40
0.750000000000006
40
0.781250000000004
40
0.781250000000004
40
0.812500000000003
40
0.812500000000003
40
0.875000000000002
40
0.875000000000002
40
0.906250000000001
40
0.906250000000001
40
0.937500000000001
40
0.937500000000001
40
1
40
1
40
1
40
1
41
1
10
8.59812117162869
20
1.7353634863239
30
0
41
1
10
8.76965970439809
20
1.68454740086662
30
0
41
1
10
8.94063725830603
20
1.62786929306409
30
0
41
1
10
9.28220612717419
20
1.50355765172264
30
0
41
1
10
9.45285227634091
20
1.43597236482148
30
0
41
1
10
9.66672010439095
20
1.34558220938803
30
0
41
1
10
9.70951831751833
20
1.32720501143936
30
0
41
1
10
9.79516972509694
20
1.2898577304947
30
0
41
1
10
9.83803126129305
20
1.27088376442029
30
0
41
1
10
9.96646488659621
20
1.21320409005099
30
0
41
1
10
10.0519630564391
20
1.1737012719008
30
0
41
1
10
10.3082911195094
20
1.05235178066926
30
0
41
1
10
10.4790310758709
20
0.967784772934635
30
0
41
1
10
10.7353084802014
20
0.836022281790093
30
0
41
1
10
10.8207704500442
20
0.791294073178875
30
0
41
1
10
10.9918866352141
20
0.700403840980812
30
0
41
1
10
11.0775638006594
20
0.654216077793649
30
0
41
1
10
11.2486133688791
20
0.56105174094526
30
0
41
1
10
11.3340804227338
20
0.514055188530676
30
0
41
1
10
11.5049024701276
20
0.419243370012595
30
0
41
1
10
11.590255152236
20
0.3714236996355
30
0
41
1
10
11.8463162206832
20
0.227028366772771
30
0
41
1
10
12.0169953093705
20
0.129457448030394
30
0
41
1
10
12.2739075067725
20
-0.017227899574408
30
0
41
1
10
12.3595091218332
20
-0.0660967262957399
30
0
41
1
10
12.5304328770029
20
-0.163612534067255
30
0
41
1
10
12.6158015447311
20
-0.212262929862362
30
0
41
1
10
12.8718065258425
20
-0.357578896873463
30
0
41
1
10
13.0423399894375
20
-0.453610680028419
30
0
41
1
10
13.2560542471094
20
-0.571353696699504
30
0
41
1
10
13.2988176645652
20
-0.594799201361297
30
0
41
1
10
13.3843889080507
20
-0.641477788349562
30
0
41
1
10
13.4272162451645
20
-0.664718325696441
30
0
41
1
10
13.5555633464524
20
-0.733952205206037
30
0
41
1
10
13.640999337389
20
-0.779485910262224
30
0
41
1
10
13.8117340244616
20
-0.86911766391114
30
0
41
1
10
13.8970276150276
20
-0.913223294711031
30
0
41
1
10
14.0676519621025
20
-0.999727888244422
30
0
41
1
10
14.1529934119628
20
-1.04211207167515
30
0
41
1
10
14.3237359834571
20
-1.12514321367769
30
0
41
1
10
14.4091367331129
20
-1.1657895723944
30
0
41
1
10
14.5801166432788
20
-1.24515497670123
30
0
41
1
10
14.6657453649521
20
-1.28389496233444
30
0
41
1
10
14.836651798001
20
-1.35897456090234
30
0
41
1
10
14.9220088420817
20
-1.39534079531629
30
0
41
1
10
15.0927004838097
20
-1.4655264990358
30
0
41
1
10
15.1780179307136
20
-1.49936969862654
30
0
41
1
10
15.4339243236762
20
-1.5971021947629
30
0
41
1
10
15.6044949315784
20
-1.65715200370264
30
0
41
1
10
15.861076672246
20
-1.73863706473949
30
0
41
1
10
15.9466165528821
20
-1.7643014715259
30
0
41
1
10
16.117452040291
20
-1.812486707011
30
0
41
1
10
16.2027801562867
20
-1.83504292503053
30
0
41
1
10
16.4586333093287
20
-1.89799468636616
30
0
41
1
10
16.629014418996
20
-1.93367007386246
30
0
41
1
10
16.7997882421896
20
-1.96265380870352
30
0
0
SPLINE
5
108
100
AcDbEntity
8
1
62
256
6
ByLayer
370
18
48
1
60
0
100
AcDbSpline
70
4
71
3
72
12
73
8
40
0
40
0
40
0
40
0
40
0.338466708981018
40
0.338466708981018
40
0.676933417962035
40
0.676933417962035
40
1
40
1
40
1
40
1
41
1
10
16.799788242179
20
-1.94728043840382
30
0
41
1
10
16.9302357638726
20
-1.97110300850528
30
0
41
1
10
17.060778988616
20
-1.9910716045228
30
0
41
1
10
17.3211749824569
20
-2.02299457945159
30
0
41
1
10
17.4511172138238
20
-2.03497135616899
30
0
41
1
10
17.704950816284
20
-2.05051691026884
30
0
41
1
10
17.8288488500319
20
-2.05444251182681
30
0
41
1
10
17.9528568808124
20
-2.05466911722621
30
0
0
SPLINE
5
109
100
AcDbEntity
8
1
62
256
6
ByLayer
370
18
48
1
60
0
100
AcDbSpline
70
4
71
3
72
16
73
12
40
0
40
0
40
0
40
0
40
0.299658679137708
40
0.299658679137708
40
0.474744009353267
40
0.474744009353267
40
0.562286674461054
40
0.562286674461054
40
0.64982933956884
40
0.64982933956884
40
1
40
1
40
1
40
1
41
1
10
26.9896520139483
20
1.68534759356569
30
0
41
1
10
27.209315922738
20
1.75939276911885
30
0
41
1
10
27.4291262462128
20
1.82400307433954
30
0
41
1
10
27.7789500193943
20
1.90995568729835
30
0
41
1
10
27.9083068546057
20
1.9381153343127
30
0
41
1
10
28.1031476191541
20
1.97472782448867
30
0
41
1
10
28.1682593036331
20
1.98599615655243
30
0
41
1
10
28.2981792369329
20
2.00651358822995
30
0
41
1
10
28.3630627743538
20
2.01577797326146
30
0
41
1
10
28.6872252626935
20
2.05710040413638
30
0
41
1
10
28.9457537151316
20
2.07415333619102
30
0
41
1
10
29.2050165569624
20
2.07491889743025
30
0
0
SPLINE
5
10A
100
AcDbEntity
8
1
62
256
6
ByLayer
370
18
48
1
60
0
100
AcDbSpline
70
4
71
3
72
42
73
38
40
0
40
0
40
0
40
0
40
0.0261091990556895
40
0.0261091990556895
40
0.0915456642493261
40
0.0915456642493261
40
0.156982129442963
40
0.156982129442963
40
0.18970036203978
40
0.18970036203978
40
0.222418594636597
40
0.222418594636597
40
0.287855059830231
40
0.287855059830231
40
0.353291525023865
40
0.353291525023865
40
0.386009757620682
40
0.386009757620682
40
0.418727990217499
40
0.418727990217499
40
0.549600920604765
40
0.549600920604765
40
0.615037385798395
40
0.615037385798395
40
0.680473850992025
40
0.680473850992025
40
0.745910316185655
40
0.745910316185655
40
0.811346781379285
40
0.844065013976103
40
0.844065013976103
40
0.876783246572921
40
0.909501479169739
40
0.909501479169739
40
0.942219711766556
40
0.942219711766556
40
1
40
1
40
1
40
1
41
1
10
22.9416525441292
20
1.96731146849783
30
0
41
1
10
22.9930205531198
20
1.96925903584366
30
0
41
1
10
23.04447806749
20
1.97056010467543
30
0
41
1
10
23.2248190274439
20
1.97283699343302
30
0
41
1
10
23.3536022005902
20
1.970416777407
30
0
41
1
10
23.6109746318718
20
1.95827398279732
30
0
41
1
10
23.7395492720264
20
1.94857917355333
30
0
41
1
10
23.9323542550886
20
1.92905548760325
30
0
41
1
10
23.9966342289941
20
1.92168048422073
30
0
41
1
10
24.1253530561364
20
1.90495299214641
30
0
41
1
10
24.1895917649616
20
1.89561253821546
30
0
41
1
10
24.3820450023842
20
1.86448427634519
30
0
41
1
10
24.5099750537475
20
1.83972973183958
30
0
41
1
10
24.7651636220862
20
1.78390610097205
30
0
41
1
10
24.8923978541357
20
1.75280503626303
30
0
41
1
10
25.0827326456999
20
1.70187179224791
30
0
41
1
10
25.1461209139436
20
1.68413579511446
30
0
41
1
10
25.2729830195832
20
1.64688555277425
30
0
41
1
10
25.3364437406801
20
1.62740292852922
30
0
41
1
10
25.6539750369688
20
1.52602475122484
30
0
41
1
10
25.9086901358085
20
1.43216721795736
30
0
41
1
10
26.2920372919169
20
1.27593966644738
30
0
41
1
10
26.4200471725605
20
1.22127776589451
30
0
41
1
10
26.6770397396473
20
1.10682052540156
30
0
41
1
10
26.8049951540787
20
1.04750588333076
30
0
41
1
10
27.0602836977319
20
0.925560242954276
30
0
41
1
10
27.1876297232031
20
0.862905942305161
30
0
41
1
10
27.4418953281154
20
0.734827071883274
30
0
41
1
10
27.6322753027973
20
0.63668616658606
30
0
41
1
10
27.8223737354075
20
0.535906576318638
30
0
41
1
10
27.9490517366821
20
0.468165438406487
30
0
41
1
10
28.075678819388
20
0.399874846488046
30
0
41
1
10
28.2023670243929
20
0.330690130900962
30
0
41
1
10
28.3292019061354
20
0.261216295648381
30
0
41
1
10
28.3926930549493
20
0.226334264334923
30
0
41
1
10
28.5685744373575
20
0.12956956420669
30
0
41
1
10
28.6811696318399
20
0.0674735500161034
30
0
41
1
10
28.7941005410761
20
0.0051735972618587
30
0
0
SPLINE
5
10B
100
AcDbEntity
8
1
62
256
6
ByLayer
370
18
48
1
60
0
100
AcDbSpline
70
4
71
3
72
8
73
4
40
0
40
0
40
0
40
0
40
1
40
1
40
1
40
1
41
1
10
29.191719189551
20
-0.224175592214095
30
0
41
1
10
29.2025010322853
20
-0.227017532552509
30
0
41
1
10
29.2132976725036
20
-0.229583205134816
30
0
41
1
10
29.2241164643315
20
-0.231874561205132
30
0
0
SPLINE
5
10C
100
AcDbEntity
8
1
62
256
6
ByLayer
370
18
48
1
60
0
100
AcDbSpline
70
4
71
3
72
51
73
47
40
0
40
0
40
0
40
0
40
0.0322320691434052
40
0.0322320691434052
40
0.0591145116671977
40
0.0591145116671977
40
0.0859969541909903
40
0.139761839238575
40
0.139761839238575
40
0.19352672428616
40
0.19352672428616
40
0.220409166809953
40
0.220409166809953
40
0.247291609333746
40
0.247291609333746
40
0.301056494381331
40
0.301056494381331
40
0.354821379428916
40
0.354821379428916
40
0.408586264476501
40
0.408586264476501
40
0.435468707000295
40
0.435468707000295
40
0.462351149524088
40
0.462351149524088
40
0.516116034571678
40
0.516116034571678
40
0.542998477095473
40
0.542998477095473
40
0.569880919619268
40
0.569880919619268
40
0.623645804666857
40
0.623645804666857
40
0.677410689714449
40
0.677410689714449
40
0.731175574762041
40
0.731175574762041
40
0.784940459809633
40
0.784940459809633
40
0.838705344857224
40
0.838705344857224
40
0.892470229904816
40
0.892470229904816
40
0.946235114952408
40
0.946235114952408
40
1
40
1
40
1
40
1
41
1
10
22.0780476851173
20
1.96554612363235
30
0
41
1
10
22.1544942066365
20
1.97896100383028
30
0
41
1
10
22.2310470325462
20
1.99108202049217
30
0
41
1
10
22.3716857713277
20
2.01086875560003
30
0
41
1
10
22.4358115856104
20
2.0189408256206
30
0
41
1
10
22.5639864069975
20
2.03311148818256
30
0
41
1
10
22.7560416175148
20
2.05140709639559
30
0
41
1
10
22.9478265534436
20
2.06077139078971
30
0
41
1
10
23.2038204612991
20
2.06537368016782
30
0
41
1
10
23.3319215699674
20
2.0637505693615
30
0
41
1
10
23.5242361382858
20
2.05540417053615
30
0
41
1
10
23.588369192263
20
2.05163462694719
30
0
41
1
10
23.716707539752
20
2.04209643040397
30
0
41
1
10
23.7807033781529
20
2.03634188208571
30
0
41
1
10
23.9722056404346
20
2.01614604038974
30
0
41
1
10
24.0993014909816
20
1.99877154079243
30
0
41
1
10
24.3534336005441
20
1.95689442482518
30
0
41
1
10
24.4803910250571
20
1.93238712873071
30
0
41
1
10
24.7338930159436
20
1.87623364202321
30
0
41
1
10
24.8604361642165
20
1.84458083987033
30
0
41
1
10
25.0499364121553
20
1.79160958545219
30
0
41
1
10
25.1130700639405
20
1.77304809654913
30
0
41
1
10
25.2395385675998
20
1.73435676097989
30
0
41
1
10
25.3028623605893
20
1.71422007233704
30
0
41
1
10
25.4931217535498
20
1.65147904194569
30
0
41
1
10
25.6203396280354
20
1.60654585294822
30
0
41
1
10
25.8117423547162
20
1.53446374068312
30
0
41
1
10
25.8756402951643
20
1.5096552248115
30
0
41
1
10
26.00364600998
20
1.45846904090902
30
0
41
1
10
26.067824720161
20
1.43206078648882
30
0
41
1
10
26.2601257608869
20
1.35072957089918
30
0
41
1
10
26.3879394011168
20
1.29374669466335
30
0
41
1
10
26.6433196222358
20
1.17494618576671
30
0
41
1
10
26.7708859627097
20
1.11312346071969
30
0
41
1
10
27.0265739269559
20
0.985831754910777
30
0
41
1
10
27.1547069310278
20
0.920356868331368
30
0
41
1
10
27.4114500295138
20
0.785826394437379
30
0
41
1
10
27.539314753126
20
0.717165416289788
30
0
41
1
10
27.7942456845134
20
0.577426597116528
30
0
41
1
10
27.9212801934744
20
0.506294132278128
30
0
41
1
10
28.1749059968137
20
0.362213559763092
30
0
41
1
10
28.3015689089686
20
0.289387593204339
30
0
41
1
10
28.5552631896687
20
0.143333706006473
30
0
41
1
10
28.6822532376688
20
0.0700359858608692
30
0
41
1
10
28.9366326347117
20
-0.0769023422845407
30
0
41
1
10
29.0640201175783
20
-0.150546646638674
30
0
41
1
10
29.1917191895497
20
-0.224175592214749
30
0
0
SPLINE
5
10D
100
AcDbEntity
8
SK1
62
256
6
ByLayer
370
18
48
1
60
0
100
AcDbSpline
70
4
71
3
72
22
73
18
40
0
40
0
40
0
40
0
40
0.249999999999997
40
0.249999999999997
40
0.374999999999998
40
0.374999999999998
40
0.499999999999998
40
0.499999999999998
40
0.624999999999999
40
0.624999999999999
40
0.75
40
0.75
40
0.875
40
0.875
40
0.9375
40
0.9375
40
1
40
1
40
1
40
1
41
1
10
-35.75
20
2.30321182701886
30
0
41
1
10
-35.7379956523281
20
2.31556936821889
30
0
41
1
10
-35.7264866986603
20
2.32763060701265
30
0
41
1
10
-35.7098921057742
20
2.34526810056485
30
0
41
1
10
-35.7045257065493
20
2.35101590357144
30
0
41
1
10
-35.6942964893128
20
2.36205064021635
30
0
41
1
10
-35.6894060316865
20
2.36736692833557
30
0
41
1
10
-35.6801144608566
20
2.37754708400922
30
0
41
1
10
-35.6756964104891
20
2.38242965510108
30
0
41
1
10
-35.6675285377629
20
2.39155083718873
30
0
41
1
10
-35.6638529491705
20
2.39570598126991
30
0
41
1
10
-35.6575076548177
20
2.40300676123349
30
0
41
1
10
-35.6548318331324
20
2.40616148862611
30
0
41
1
10
-35.6520304488211
20
2.4096388977095
30
0
41
1
10
-35.65129058319
20
2.41059832204408
30
0
41
1
10
-35.650270741394
20
2.4120444995589
30
0
41
1
10
-35.65
20
2.41251984615076
30
0
41
1
10
-35.65
20
2.41271085373089
30
0
0
SPLINE
5
10E
100
AcDbEntity
8
SK1
62
256
6
ByLayer
370
18
48
1
60
0
100
AcDbSpline
70
4
71
3
72
8
73
4
40
0
40
0
40
0
40
0
40
1
40
1
40
1
40
1
41
1
10
-36
20
2.04400222504353
30
0
41
1
10
-35.9170300661467
20
2.13072908866053
30
0
41
1
10
-35.8336552075611
20
2.21709530471458
30
0
41
1
10
-35.7499999999999
20
2.30321182701877
30
0
0
SPLINE
5
10F
100
AcDbEntity
8
SK1
62
256
6
ByLayer
370
18
48
1
60
0
100
AcDbSpline
70
4
71
3
72
8
73
4
40
0
40
0
40
0
40
0
40
1
40
1
40
1
40
1
41
1
10
-35.75
20
-1.96275351781875
30
0
41
1
10
-35.8336533661171
20
-1.87663889113784
30
0
41
1
10
-35.9170280040704
20
-1.79027293490901
30
0
41
1
10
-36
20
-1.70354391584357
30
0
0
SPLINE
5
110
100
AcDbEntity
8
SK1
62
256
6
ByLayer
370
18
48
1
60
0
100
AcDbSpline
70
4
71
3
72
22
73
18
40
0
40
0
40
0
40
0
40
0.0624999999999999
40
0.0624999999999999
40
0.125
40
0.125
40
0.25
40
0.25
40
0.375
40
0.375
40
0.5
40
0.5
40
0.625
40
0.625
40
0.75
40
0.75
40
1
40
1
40
1
40
1
41
1
10
-35.65
20
-2.1176469857576
30
0
41
1
10
-35.65
20
-2.11553446137134
30
0
41
1
10
-35.6502718586019
20
-2.11315432845348
30
0
41
1
10
-35.6512913504498
20
-2.10802910223762
30
0
41
1
10
-35.652030658643
20
-2.10530590494093
30
0
41
1
10
-35.6548298230237
20
-2.09672881003235
30
0
41
1
10
-35.6575061245997
20
-2.09039594192055
30
0
41
1
10
-35.6638376796887
20
-2.07739890855689
30
0
41
1
10
-35.6674983282837
20
-2.0706969921585
30
0
41
1
10
-35.6756151818521
20
-2.05697165529566
30
0
41
1
10
-35.6800682064548
20
-2.04996567208869
30
0
41
1
10
-35.6893906957631
20
-2.03610536298413
30
0
41
1
10
-35.6942952881823
20
-2.02919239464958
30
0
41
1
10
-35.7045485857552
20
-2.01540289725699
30
0
41
1
10
-35.7099306774388
20
-2.00848638251324
30
0
41
1
10
-35.7265024515808
20
-1.98810441453537
30
0
41
1
10
-35.7380004903212
20
-1.9751060786817
30
0
41
1
10
-35.7500000000001
20
-1.96275351781881
30
0
0
SPLINE
5
111
100
AcDbEntity
8
SK1
62
256
6
ByLayer
370
18
48
1
60
0
100
AcDbSpline
70
4
71
3
72
22
73
18
40
0
40
0
40
0
40
0
40
0.249999999999997
40
0.249999999999997
40
0.374999999999998
40
0.374999999999998
40
0.499999999999999
40
0.499999999999999
40
0.624999999999999
40
0.624999999999999
40
0.75
40
0.75
40
0.875000000000001
40
0.875000000000001
40
0.9375
40
0.9375
40
1
40
1
40
1
40
1
41
1
10
-35.75
20
-2.30321182701886
30
0
41
1
10
-35.7379956523281
20
-2.31556936821889
30
0
41
1
10
-35.7264866986603
20
-2.32763060701265
30
0
41
1
10
-35.7098921057742
20
-2.34526810056485
30
0
41
1
10
-35.7045257065493
20
-2.35101590357144
30
0
41
1
10
-35.6942964893128
20
-2.36205064021635
30
0
41
1
10
-35.6894060316865
20
-2.36736692833557
30
0
41
1
10
-35.6801144608566
20
-2.37754708400922
30
0
41
1
10
-35.6756964104891
20
-2.38242965510108
30
0
41
1
10
-35.6675285377629
20
-2.39155083718873
30
0
41
1
10
-35.6638529491705
20
-2.39570598126991
30
0
41
1
10
-35.6575076548177
20
-2.40300676123349
30
0
41
1
10
-35.6548318331324
20
-2.40616148862611
30
0
41
1
10
-35.6520304488211
20
-2.4096388977095
30
0
41
1
10
-35.65129058319
20
-2.41059832204408
30
0
41
1
10
-35.650270741394
20
-2.4120444995589
30
0
41
1
10
-35.65
20
-2.41251984615076
30
0
41
1
10
-35.65
20
-2.41271085373089
30
0
0
SPLINE
5
112
100
AcDbEntity
8
SK1
62
256
6
ByLayer
370
18
48
1
60
0
100
AcDbSpline
70
4
71
3
72
8
73
4
40
0
40
0
40
0
40
0
40
1
40
1
40
1
40
1
41
1
10
-36
20
-2.04400222504353
30
0
41
1
10
-35.9170300661467
20
-2.13072908866053
30
0
41
1
10
-35.8336552075611
20
-2.21709530471458
30
0
41
1
10
-35.7499999999999
20
-2.30321182701877
30
0
0
SPLINE
5
113
100
AcDbEntity
8
1
62
256
6
ByLayer
370
18
48
1
60
0
100
AcDbSpline
70
4
71
1
72
4
73
2
40
0
40
0
40
1
40
1
41
1
10
17.6600463997375
20
1.96537968661318
30
0
41
1
10
17.8392256067207
20
1.97051217320777
30
0
0
SPLINE
5
114
100
AcDbEntity
8
1
62
256
6
ByLayer
370
18
48
1
60
0
100
AcDbSpline
70
4
71
3
72
25
73
21
40
0
40
0
40
0
40
0
40
0.0001040880410559
40
0.0001851597693695
40
0.0002464636300483
40
0.0002985738112766
40
0.0005731122479445
40
0.0007854206488026
40
0.001180343793622
40
0.0019361326474223
40
0.0034478389830831
40
0.0066668219945599
40
0.0140789643600637
40
0.0326398945326036
40
0.19633067850413
40
0.340102551049357
40
0.461459287222572
40
0.610211667314027
40
0.804404961017444
40
1
40
1
40
1
40
1
41
1
10
19.0685394789331
20
-0.0365164157230993
30
0
41
1
10
19.0685536364152
20
-0.0365180825583877
30
0
41
1
10
19.0685401584824
20
-0.0365076941827738
30
0
41
1
10
19.0684846646052
20
-0.0364806228526788
30
0
41
1
10
19.068370572751
20
-0.0364350596798317
30
0
41
1
10
19.0680009495289
20
-0.0362974488701582
30
0
41
1
10
19.0673521519354
20
-0.0360650442095505
30
0
41
1
10
19.0663968852508
20
-0.0357169805931505
30
0
41
1
10
19.0648752277872
20
-0.0351676369717779
30
0
41
1
10
19.0619119535402
20
-0.0341031185200507
30
0
41
1
10
19.0557369070908
20
-0.0319074414711906
30
0
41
1
10
19.0419514235083
20
-0.027065354434086
30
0
41
1
10
19.0084702767421
20
-0.0154533898639784
30
0
41
1
10
18.7892338150537
20
0.0599650976603243
30
0
41
1
10
18.4093874978727
20
0.193644461211363
30
0
41
1
10
17.9133184207924
20
0.376162082821594
30
0
41
1
10
17.4362616293256
20
0.557573077454236
30
0
41
1
10
16.9034774723202
20
0.767144334985602
30
0
41
1
10
16.2886533358057
20
1.01848407502734
30
0
41
1
10
15.8468978643903
20
1.20825999482969
30
0
41
1
10
15.6259881669122
20
1.30537910288734
30
0
0
SPLINE
5
115
100
AcDbEntity
8
1
62
256
6
ByLayer
370
18
48
1
60
0
100
AcDbSpline
70
4
71
3
72
11
73
7
40
0
40
0
40
0
40
0
40
0.0150254661753435
40
0.255728620287373
40
0.600417221960391
40
1
40
1
40
1
40
1
41
1
10
28.8739541662865
20
0.486634035498895
30
0
41
1
10
28.8635240781781
20
0.490566021596066
30
0
41
1
10
28.6860418168564
20
0.557581437347466
30
0
41
1
10
28.2712913469712
20
0.720436840255843
30
0
41
1
10
27.5937781834418
20
0.994783351165552
30
0
41
1
10
27.0861100967754
20
1.21241646228867
30
0
41
1
10
26.8146493779796
20
1.33192364703288
30
0
0
SPLINE
5
116
100
AcDbEntity
8
1
62
256
6
ByLayer
370
18
48
1
60
0
100
AcDbSpline
70
4
71
1
72
4
73
2
40
0
40
0
40
1
40
1
41
1
10
16.8002708925148
20
1.8988339565372
30
0
41
1
10
16.8119116761056
20
1.90018218557185
30
0
0
SPLINE
5
117
100
AcDbEntity
8
1
62
256
6
ByLayer
370
18
48
1
60
0
100
AcDbSpline
70
4
71
3
72
21
73
17
40
0
40
0
40
0
40
0
40
0.115361510176406
40
0.194396840923389
40
0.240744344461781
40
0.282964213168037
40
0.327346627188238
40
0.375375238241818
40
0.513212189856172
40
0.641503153375631
40
0.705123656291315
40
0.765017100707638
40
0.823778609495589
40
0.883527955051035
40
0.947721235412996
40
1
40
1
40
1
40
1
41
1
10
18.3416547208799
20
-1.95183903581767
30
0
41
1
10
18.4852996103829
20
-1.9521598212564
30
0
41
1
10
18.7273716028882
20
-1.95267962982737
30
0
41
1
10
19.0272791227982
20
-1.95313292644332
30
0
41
1
10
19.2359833737745
20
-1.95359156805412
30
0
41
1
10
19.4015615169149
20
-1.95406716589065
30
0
41
1
10
19.5692543787246
20
-1.95466595878847
30
0
41
1
10
19.8560444857484
20
-1.95533554973642
30
0
41
1
10
20.2473516058747
20
-1.95509455606882
30
0
41
1
10
20.6580748320094
20
-1.95670030678733
30
0
41
1
10
20.9717157087199
20
-1.95718079804413
30
0
41
1
10
21.1987530988482
20
-1.95772318196336
30
0
41
1
10
21.4209679932865
20
-1.95853491647369
30
0
41
1
10
21.6485384667149
20
-1.95882655468623
30
0
41
1
10
21.868034043579
20
-1.95869417848223
30
0
41
1
10
22.013106417161
20
-1.95857536696013
30
0
41
1
10
22.0782224877844
20
-1.95859945301052
30
0
0
SPLINE
5
118
100
AcDbEntity
8
1
62
256
6
ByLayer
370
18
48
1
60
0
100
AcDbSpline
70
4
71
3
72
22
73
18
40
0
40
0
40
0
40
0
40
0.0865123602867458
40
0.155179229333921
40
0.239293118032266
40
0.293917322125598
40
0.349641593954562
40
0.414892295721855
40
0.494642792276109
40
0.575370046748468
40
0.649662715422311
40
0.717239908512984
40
0.778172023986484
40
0.837114702513362
40
0.896507457492456
40
0.957923070000293
40
1
40
1
40
1
40
1
41
1
10
23.1744458006971
20
1.96173033228675
30
0
41
1
10
23.0670407426422
20
1.96172543893243
30
0
41
1
10
22.8743582066132
20
1.96146720054199
30
0
41
1
10
22.5771350111764
20
1.96027288085781
30
0
41
1
10
22.3194970960859
20
1.95885350232081
30
0
41
1
10
22.0780845030644
20
1.95856213116536
30
0
41
1
10
21.8599401857205
20
1.95868400124135
30
0
41
1
10
21.6106185694296
20
1.9588667551927
30
0
41
1
10
21.3302310284206
20
1.95825063071894
30
0
41
1
10
21.0386095477107
20
1.95723525472309
30
0
41
1
10
20.7621361149002
20
1.95691197620351
30
0
41
1
10
20.5102164323973
20
1.95603929368343
30
0
41
1
10
20.2774053380392
20
1.95543339356365
30
0
41
1
10
20.0547424192452
20
1.95533199165774
30
0
41
1
10
19.8314631233756
20
1.95519905217822
30
0
41
1
10
19.6291374792564
20
1.95484183265626
30
0
41
1
10
19.5005889412089
20
1.95441295587938
30
0
41
1
10
19.4483249732651
20
1.95423944158685
30
0
0
LINE
5
82
100
AcDbEntity
8
4
62
256
6
ByLayer
370
18
48
0.05
60
0
100
AcDbLine
10
0
20
0
30
0
11
30
21
0
31
0
39
0
210
0
220
0
230
1
0
LINE
5
84
100
AcDbEntity
8
81
62
256
6
ByLayer
370
18
48
1
60
0
100
AcDbLine
10
30
20
0
30
0
11
33
21
0
31
0
39
0
210
0
220
0
230
1
0
LINE
5
85
100
AcDbEntity
8
80
62
256
6
ByLayer
370
18
48
1
60
0
100
AcDbLine
10
0
20
0
30
0
11
-3
21
0
31
0
39
0
210
0
220
0
230
1
0
LINE
5
86
100
AcDbEntity
8
SK4
62
256
6
ByLayer
370
18
48
0.05
60
0
100
AcDbLine
10
-39
20
0
30
0
11
33
21
0
31
0
39
0
210
0
220
0
230
1
0
LINE
5
88
100
AcDbEntity
8
1
62
256
6
ByLayer
370
18
48
1
60
0
100
AcDbLine
10
0
20
3
30
0
11
0
21
-3
31
0
39
0
210
0
220
0
230
1
0
LINE
5
89
100
AcDbEntity
8
1
62
256
6
ByLayer
370
13
48
1
60
0
100
AcDbLine
10
29.949698
20
0.234137
30
0
11
29.457935
21
0.679008
31
0
39
0
210
0
220
0
230
1
0
LINE
5
8A
100
AcDbEntity
8
1
62
256
6
ByLayer
370
18
48
1
60
0
100
AcDbLine
10
16.799788
20
-1.839807
30
0
11
16.799788
21
0.257792
31
0
39
0
210
0
220
0
230
1
0
LINE
5
8B
100
AcDbEntity
8
1
62
256
6
ByLayer
370
18
48
1
60
0
100
AcDbLine
10
16.799788
20
-1.94728
30
0
11
16.799788
21
-1.962654
31
0
39
0
210
0
220
0
230
1
0
LINE
5
8C
100
AcDbEntity
8
1
62
256
6
ByLayer
370
13
48
1
60
0
100
AcDbLine
10
1.474317
20
-2.025008
30
0
11
1.474317
21
2.025008
31
0
39
0
210
0
220
0
230
1
0
LINE
5
8D
100
AcDbEntity
8
1
62
256
6
ByLayer
370
13
48
1
60
0
100
AcDbLine
10
0.736439
20
-2.512503
30
0
11
0.736439
21
2.512503
31
0
39
0
210
0
220
0
230
1
0
LINE
5
8E
100
AcDbEntity
8
SK1
62
256
6
ByLayer
370
18
48
1
60
0
100
AcDbLine
10
-36
20
-1.703503
30
0
11
-36
21
-2.044002
31
0
39
0
210
0
220
0
230
1
0
LINE
5
90
100
AcDbEntity
8
SK1
62
256
6
ByLayer
370
13
48
1
60
0
100
AcDbLine
10
-35.75
20
-2.303212
30
0
11
-35.75
21
-1.962734
31
0
39
0
210
0
220
0
230
1
0
LINE
5
91
100
AcDbEntity
8
SK1
62
256
6
ByLayer
370
18
48
1
60
0
100
AcDbLine
10
-35.65
20
2.415
30
0
11
-35.65
21
2.412711
31
0
39
0
210
0
220
0
230
1
0
LINE
5
92
100
AcDbEntity
8
SK1
62
256
6
ByLayer
370
18
48
1
60
0
100
AcDbLine
10
-36
20
2.044002
30
0
11
-36
21
-1.703544
31
0
39
0
210
0
220
0
230
1
0
LINE
5
93
100
AcDbEntity
8
SK1
62
256
6
ByLayer
370
18
48
1
60
0
100
AcDbLine
10
-35.65
20
-2.415
30
0
11
-35.65
21
-2.117647
31
0
39
0
210
0
220
0
230
1
0
LINE
5
94
100
AcDbEntity
8
SK1
62
256
6
ByLayer
370
18
48
1
60
0
100
AcDbLine
10
0
20
3
30
0
11
0
21
-3
31
0
39
0
210
0
220
0
230
1
0
LINE
5
95
100
AcDbEntity
8
SK1
62
256
6
ByLayer
370
18
48
1
60
0
100
AcDbLine
10
-35.065
20
-3
30
0
11
-35.065
21
3
31
0
39
0
210
0
220
0
230
1
0
LINE
5
96
100
AcDbEntity
8
1
62
256
6
ByLayer
370
18
48
1
60
0
100
AcDbLine
10
1.474317
20
-2.025008
30
0
11
12.477264
21
-2.044813
31
0
39
0
210
0
220
0
230
1
0
LINE
5
97
100
AcDbEntity
8
1
62
256
6
ByLayer
370
18
48
1
60
0
100
AcDbLine
10
17.952774
20
-2.054669
30
0
11
18.343252
21
-2.055372
31
0
39
0
210
0
220
0
230
1
0
LINE
5
98
100
AcDbEntity
8
1
62
256
6
ByLayer
370
18
48
1
60
0
100
AcDbLine
10
23.178456
20
-2.064075
30
0
11
23.697172
21
-2.065009
31
0
39
0
210
0
220
0
230
1
0
LINE
5
99
100
AcDbEntity
8
1
62
256
6
ByLayer
370
18
48
1
60
0
100
AcDbLine
10
23.697172
20
2.065009
30
0
11
23.178456
21
2.064075
31
0
39
0
210
0
220
0
230
1
0
LINE
5
9A
100
AcDbEntity
8
1
62
256
6
ByLayer
370
18
48
1
60
0
100
AcDbLine
10
18.343252
20
2.055372
30
0
11
17.952774
21
2.054669
31
0
39
0
210
0
220
0
230
1
0
LINE
5
9B
100
AcDbEntity
8
1
62
256
6
ByLayer
370
18
48
1
60
0
100
AcDbLine
10
12.477264
20
2.044813
30
0
11
1.474317
21
2.025008
31
0
39
0
210
0
220
0
230
1
0
LINE
5
9C
100
AcDbEntity
8
SK1
62
256
6
ByLayer
370
18
48
1
60
0
100
AcDbLine
10
-35.65
20
-2.415
30
0
11
-35.065
21
-3
31
0
39
0
210
0
220
0
230
1
0
LINE
5
9D
100
AcDbEntity
8
SK1
62
256
6
ByLayer
370
18
48
1
60
0
100
AcDbLine
10
-35.065
20
3
30
0
11
-35.65
21
2.415
31
0
39
0
210
0
220
0
230
1
0
LINE
5
9E
100
AcDbEntity
8
SK1
62
256
6
ByLayer
370
18
48
1
60
0
100
AcDbLine
10
-35.065
20
-3
30
0
11
0
21
-3
31
0
39
0
210
0
220
0
230
1
0
LINE
5
9F
100
AcDbEntity
8
SK1
62
256
6
ByLayer
370
18
48
1
60
0
100
AcDbLine
10
0
20
3
30
0
11
-35.065
21
3
31
0
39
0
210
0
220
0
230
1
0
LINE
5
A0
100
AcDbEntity
8
2
62
256
6
ByLayer
370
13
48
1
60
0
100
AcDbLine
10
37.5
20
28.181913
30
0
11
37.5
21
-9.575
31
0
39
0
210
0
220
0
230
1
0
LINE
5
A2
100
AcDbEntity
8
2
62
256
6
ByLayer
370
13
48
1
60
0
100
AcDbLine
10
31.5875
20
2.075
30
0
11
39.5
21
2.075
31
0
39
0
210
0
220
0
230
1
0
LINE
5
A3
100
AcDbEntity
8
2
62
256
6
ByLayer
370
13
48
1
60
0
100
AcDbLine
10
31.5875
20
-2.075
30
0
11
39.5
21
-2.075
31
0
39
0
210
0
220
0
230
1
0
LINE
5
A4
100
AcDbEntity
8
1
62
256
6
ByLayer
370
18
48
1
60
1
100
AcDbLine
10
37.5
20
2.075
30
0
11
37.039216
21
5.574998
31
0
39
0
210
0
220
0
230
1
0
LINE
5
A5
100
AcDbEntity
8
1
62
256
6
ByLayer
370
18
48
1
60
1
100
AcDbLine
10
37.039216
20
5.574998
30
0
11
37.960784
21
5.575002
31
0
39
0
210
0
220
0
230
1
0
LINE
5
A6
100
AcDbEntity
8
1
62
256
6
ByLayer
370
18
48
1
60
1
100
AcDbLine
10
37.960784
20
5.575002
30
0
11
37.5
21
2.075
31
0
39
0
210
0
220
0
230
1
0
LINE
5
A7
100
AcDbEntity
8
1
62
256
6
ByLayer
370
18
48
1
60
1
100
AcDbLine
10
37.5
20
-2.075
30
0
11
37.960784
21
-5.574998
31
0
39
0
210
0
220
0
230
1
0
LINE
5
A8
100
AcDbEntity
8
1
62
256
6
ByLayer
370
18
48
1
60
1
100
AcDbLine
10
37.960784
20
-5.574998
30
0
11
37.039216
21
-5.575002
31
0
39
0
210
0
220
0
230
1
0
LINE
5
A9
100
AcDbEntity
8
1
62
256
6
ByLayer
370
18
48
1
60
1
100
AcDbLine
10
37.039216
20
-5.575002
30
0
11
37.5
21
-2.075
31
0
39
0
210
0
220
0
230
1
0
LINE
5
AA
100
AcDbEntity
8
SK2
62
256
6
ByLayer
370
13
48
1
60
0
100
AcDbLine
10
-44.5
20
13.841828
30
0
11
-44.5
21
-10.5
31
0
39
0
210
0
220
0
230
1
0
LINE
5
AC
100
AcDbEntity
8
SK2
62
256
6
ByLayer
370
13
48
1
60
0
100
AcDbLine
10
-37.5875
20
3
30
0
11
-46.5
21
3
31
0
39
0
210
0
220
0
230
1
0
LINE
5
AD
100
AcDbEntity
8
SK2
62
256
6
ByLayer
370
13
48
1
60
0
100
AcDbLine
10
-37.5875
20
-3
30
0
11
-46.5
21
-3
31
0
39
0
210
0
220
0
230
1
0
LINE
5
AE
100
AcDbEntity
8
1
62
256
6
ByLayer
370
18
48
1
60
1
100
AcDbLine
10
-44.5
20
3
30
0
11
-44.960784
21
6.499998
31
0
39
0
210
0
220
0
230
1
0
LINE
5
AF
100
AcDbEntity
8
1
62
256
6
ByLayer
370
18
48
1
60
1
100
AcDbLine
10
-44.960784
20
6.499998
30
0
11
-44.039216
21
6.500002
31
0
39
0
210
0
220
0
230
1
0
LINE
5
B0
100
AcDbEntity
8
1
62
256
6
ByLayer
370
18
48
1
60
1
100
AcDbLine
10
-44.039216
20
6.500002
30
0
11
-44.5
21
3
31
0
39
0
210
0
220
0
230
1
0
LINE
5
B1
100
AcDbEntity
8
1
62
256
6
ByLayer
370
18
48
1
60
1
100
AcDbLine
10
-44.5
20
-3
30
0
11
-44.039216
21
-6.499998
31
0
39
0
210
0
220
0
230
1
0
LINE
5
B2
100
AcDbEntity
8
1
62
256
6
ByLayer
370
18
48
1
60
1
100
AcDbLine
10
-44.039216
20
-6.499998
30
0
11
-44.960784
21
-6.500002
31
0
39
0
210
0
220
0
230
1
0
LINE
5
B3
100
AcDbEntity
8
1
62
256
6
ByLayer
370
18
48
1
60
1
100
AcDbLine
10
-44.960784
20
-6.500002
30
0
11
-44.5
21
-3
31
0
39
0
210
0
220
0
230
1
0
LINE
5
B4
100
AcDbEntity
8
SK2
62
256
6
ByLayer
370
13
48
1
60
0
100
AcDbLine
10
30.542806
20
1.491817
30
0
11
36.384436
21
17.546628
31
0
39
0
210
0
220
0
230
1
0
LINE
5
B5
100
AcDbEntity
8
SK2
62
256
6
ByLayer
370
13
48
1
60
0
100
AcDbLine
10
30.542806
20
-1.491817
30
0
11
36.384436
21
-17.546628
31
0
39
0
210
0
220
0
230
1
0
LINE
5
B6
100
AcDbEntity
8
1
62
256
6
ByLayer
370
18
48
1
60
1
100
AcDbLine
10
35.700586
20
15.667174
30
0
11
39.102554
21
14.724346
31
0
39
0
210
0
220
0
230
1
0
LINE
5
B7
100
AcDbEntity
8
1
62
256
6
ByLayer
370
18
48
1
60
1
100
AcDbLine
10
39.102554
20
14.724346
30
0
11
38.742616
21
13.875977
31
0
39
0
210
0
220
0
230
1
0
LINE
5
B8
100
AcDbEntity
8
1
62
256
6
ByLayer
370
18
48
1
60
1
100
AcDbLine
10
38.742616
20
13.875977
30
0
11
35.700586
21
15.667174
31
0
39
0
210
0
220
0
230
1
0
LINE
5
B9
100
AcDbEntity
8
1
62
256
6
ByLayer
370
18
48
1
60
1
100
AcDbLine
10
35.700586
20
-15.667174
30
0
11
38.742613
21
-13.875978
31
0
39
0
210
0
220
0
230
1
0
LINE
5
BA
100
AcDbEntity
8
1
62
256
6
ByLayer
370
18
48
1
60
1
100
AcDbLine
10
38.742613
20
-13.875978
30
0
11
39.102557
21
-14.724345
31
0
39
0
210
0
220
0
230
1
0
LINE
5
BB
100
AcDbEntity
8
1
62
256
6
ByLayer
370
18
48
1
60
1
100
AcDbLine
10
39.102557
20
-14.724345
30
0
11
35.700586
21
-15.667174
31
0
39
0
210
0
220
0
230
1
0
LINE
5
119
100
AcDbEntity
8
1
62
256
6
ByLayer
370
13
48
0.05
60
0
100
AcDbLine
10
-42.5
20
0
30
0
11
35.743875
21
0
31
0
39
0
210
0
220
0
230
1
0
LINE
5
11E
100
AcDbEntity
8
1
62
256
6
ByLayer
370
18
48
1
60
1
100
AcDbLine
10
37.5
20
2.075
30
0
11
37.039216
21
5.574998
31
0
39
0
210
0
220
0
230
1
0
LINE
5
11F
100
AcDbEntity
8
1
62
256
6
ByLayer
370
18
48
1
60
1
100
AcDbLine
10
37.039216
20
5.574998
30
0
11
37.960784
21
5.575002
31
0
39
0
210
0
220
0
230
1
0
LINE
5
120
100
AcDbEntity
8
1
62
256
6
ByLayer
370
18
48
1
60
1
100
AcDbLine
10
37.960784
20
5.575002
30
0
11
37.5
21
2.075
31
0
39
0
210
0
220
0
230
1
0
LINE
5
122
100
AcDbEntity
8
1
62
256
6
ByLayer
370
18
48
1
60
1
100
AcDbLine
10
37.5
20
-2.075
30
0
11
37.960784
21
-5.574998
31
0
39
0
210
0
220
0
230
1
0
LINE
5
123
100
AcDbEntity
8
1
62
256
6
ByLayer
370
18
48
1
60
1
100
AcDbLine
10
37.960784
20
-5.574998
30
0
11
37.039216
21
-5.575002
31
0
39
0
210
0
220
0
230
1
0
LINE
5
124
100
AcDbEntity
8
1
62
256
6
ByLayer
370
18
48
1
60
1
100
AcDbLine
10
37.039216
20
-5.575002
30
0
11
37.5
21
-2.075
31
0
39
0
210
0
220
0
230
1
0
LINE
5
128
100
AcDbEntity
8
1
62
256
6
ByLayer
370
18
48
1
60
1
100
AcDbLine
10
-44.5
20
3
30
0
11
-44.960784
21
6.499998
31
0
39
0
210
0
220
0
230
1
0
LINE
5
129
100
AcDbEntity
8
1
62
256
6
ByLayer
370
18
48
1
60
1
100
AcDbLine
10
-44.960784
20
6.499998
30
0
11
-44.039216
21
6.500002
31
0
39
0
210
0
220
0
230
1
0
LINE
5
12A
100
AcDbEntity
8
1
62
256
6
ByLayer
370
18
48
1
60
1
100
AcDbLine
10
-44.039216
20
6.500002
30
0
11
-44.5
21
3
31
0
39
0
210
0
220
0
230
1
0
LINE
5
12C
100
AcDbEntity
8
1
62
256
6
ByLayer
370
18
48
1
60
1
100
AcDbLine
10
-44.5
20
-3
30
0
11
-44.039216
21
-6.499998
31
0
39
0
210
0
220
0
230
1
0
LINE
5
12D
100
AcDbEntity
8
1
62
256
6
ByLayer
370
18
48
1
60
1
100
AcDbLine
10
-44.039216
20
-6.499998
30
0
11
-44.960784
21
-6.500002
31
0
39
0
210
0
220
0
230
1
0
LINE
5
12E
100
AcDbEntity
8
1
62
256
6
ByLayer
370
18
48
1
60
1
100
AcDbLine
10
-44.960784
20
-6.500002
30
0
11
-44.5
21
-3
31
0
39
0
210
0
220
0
230
1
0
LINE
5
131
100
AcDbEntity
8
1
62
256
6
ByLayer
370
18
48
1
60
1
100
AcDbLine
10
35.700586
20
15.667174
30
0
11
39.102554
21
14.724346
31
0
39
0
210
0
220
0
230
1
0
LINE
5
132
100
AcDbEntity
8
1
62
256
6
ByLayer
370
18
48
1
60
1
100
AcDbLine
10
39.102554
20
14.724346
30
0
11
38.742616
21
13.875977
31
0
39
0
210
0
220
0
230
1
0
LINE
5
133
100
AcDbEntity
8
1
62
256
6
ByLayer
370
18
48
1
60
1
100
AcDbLine
10
38.742616
20
13.875977
30
0
11
35.700586
21
15.667174
31
0
39
0
210
0
220
0
230
1
0
LINE
5
135
100
AcDbEntity
8
1
62
256
6
ByLayer
370
18
48
1
60
1
100
AcDbLine
10
35.700586
20
-15.667174
30
0
11
38.742613
21
-13.875978
31
0
39
0
210
0
220
0
230
1
0
LINE
5
136
100
AcDbEntity
8
1
62
256
6
ByLayer
370
18
48
1
60
1
100
AcDbLine
10
38.742613
20
-13.875978
30
0
11
39.102557
21
-14.724345
31
0
39
0
210
0
220
0
230
1
0
LINE
5
137
100
AcDbEntity
8
1
62
256
6
ByLayer
370
18
48
1
60
1
100
AcDbLine
10
39.102557
20
-14.724345
30
0
11
35.700586
21
-15.667174
31
0
39
0
210
0
220
0
230
1
0
MTEXT
5
11A
100
AcDbEntity
8
2
62
256
6
ByLayer
370
18
48
1
60
0
100
AcDbMText
10
36.158886
20
15.733438
30
0
210
0
220
0
230
1
1
%%c
40
3
41
0
44
1.084337
50
90
71
7
72
5
7
iso_b_vert
0
MTEXT
5
11D
100
AcDbEntity
8
2
62
256
6
ByLayer
370
18
48
1
60
0
100
AcDbMText
10
36.158886
20
21.71
30
0
210
0
220
0
230
1
1
\W0.6856;4.15
40
3
41
0
44
1.084337
50
90
71
7
72
5
7
iso_b_vert
0
MTEXT
5
126
100
AcDbEntity
8
SK2
62
256
6
ByLayer
370
18
48
1
60
0
100
AcDbMText
10
-45.841114
20
6.658437
30
0
210
0
220
0
230
1
1
%%c
40
3
41
0
44
1.084337
50
90
71
7
72
5
7
iso_b_vert
0
MTEXT
5
127
100
AcDbEntity
8
SK2
62
256
6
ByLayer
370
18
48
1
60
0
100
AcDbMText
10
-45.841114
20
12.635
30
0
210
0
220
0
230
1
1
\W0.5404;6
40
3
41
0
44
1.084337
50
90
71
7
72
5
7
iso_b_vert
0
MTEXT
5
130
100
AcDbEntity
8
SK2
62
256
6
ByLayer
370
18
48
1
60
0
100
AcDbMText
10
43.231386
20
-2.114886
30
0
210
0
220
0
230
1
1
\W0.7071;140%%d
40
3
41
0
44
1.084337
50
0
71
7
72
5
7
iso_b_vert
0
MTEXT
5
139
100
AcDbEntity
8
SK6
62
256
6
ByLayer
370
18
48
1
60
0
100
AcDbMText
10
-28.362803
20
-77.114886
30
0
210
0
220
0
230
1
1
\W0.7348;860.1-0415-013A1-SD S2BM
40
3
41
0
44
1.084337
50
0
71
7
72
5
7
iso_b_vert
0
HATCH
5
121
100
AcDbEntity
8
2
62
256
6
ByLayer
370
13
48
1
60
0
100
AcDbHatch
10
0
20
0
30
0
210
0
220
0
230
1
2
ANSI31
70
0
71
0
91
1
92
5
93
3
72
1
10
37.5
20
2.07500000000002
11
37.0392162584472
21
5.57499830744683
72
1
10
37.0392162584472
20
5.57499830744683
11
37.9607837415528
21
5.5750016925532
72
1
10
37.9607837415528
20
5.5750016925532
11
37.5
21
2.07500000000002
97
0
75
0
76
1
52
0
41
0.0062
77
0
78
1
53
45
43
0
44
0
45
-0.0139193969876572
46
0.0139193969876572
79
0
47
0
98
1
10
0
20
0
0
HATCH
5
125
100
AcDbEntity
8
2
62
256
6
ByLayer
370
13
48
1
60
0
100
AcDbHatch
10
0
20
0
30
0
210
0
220
0
230
1
2
ANSI31
70
0
71
0
91
1
92
5
93
3
72
1
10
37.5
20
-2.07499999999999
11
37.9607837415528
21
-5.5749983074468
72
1
10
37.9607837415528
20
-5.5749983074468
11
37.0392162584472
21
-5.57500169255317
72
1
10
37.0392162584472
20
-5.57500169255317
11
37.5
21
-2.07499999999999
97
0
75
0
76
1
52
0
41
0.0062
77
0
78
1
53
45
43
0
44
0
45
-0.0139193969876572
46
0.0139193969876572
79
0
47
0
98
1
10
0
20
0
0
HATCH
5
12B
100
AcDbEntity
8
SK2
62
256
6
ByLayer
370
13
48
1
60
0
100
AcDbHatch
10
0
20
0
30
0
210
0
220
0
230
1
2
ANSI31
70
0
71
0
91
1
92
5
93
3
72
1
10
-44.5
20
3
11
-44.9607837415528
21
6.49999830744682
72
1
10
-44.9607837415528
20
6.49999830744682
11
-44.0392162584472
21
6.50000169255318
72
1
10
-44.0392162584472
20
6.50000169255318
11
-44.5
21
3
97
0
75
0
76
1
52
0
41
0.0062
77
0
78
1
53
45
43
0
44
0
45
-0.0139193969876572
46
0.0139193969876572
79
0
47
0
98
1
10
0
20
0
0
HATCH
5
12F
100
AcDbEntity
8
SK2
62
256
6
ByLayer
370
13
48
1
60
0
100
AcDbHatch
10
0
20
0
30
0
210
0
220
0
230
1
2
ANSI31
70
0
71
0
91
1
92
5
93
3
72
1
10
-44.5
20
-3
11
-44.0392162584472
21
-6.49999830744682
72
1
10
-44.0392162584472
20
-6.49999830744682
11
-44.9607837415528
21
-6.50000169255318
72
1
10
-44.9607837415528
20
-6.50000169255318
11
-44.5
21
-3
97
0
75
0
76
1
52
0
41
0.0062
77
0
78
1
53
45
43
0
44
0
45
-0.0139193969876572
46
0.0139193969876572
79
0
47
0
98
1
10
0
20
0
0
HATCH
5
134
100
AcDbEntity
8
SK2
62
256
6
ByLayer
370
13
48
1
60
0
100
AcDbHatch
10
0
20
0
30
0
210
0
220
0
230
1
2
ANSI31
70
0
71
0
91
1
92
5
93
3
72
1
10
35.7005860881112
20
15.6671736858689
11
39.1025540959985
21
14.7243462987395
72
1
10
39.1025540959985
20
14.7243462987395
11
38.7426160551511
21
13.8759765487603
72
1
10
38.7426160551511
20
13.8759765487603
11
35.7005860881112
21
15.6671736858689
97
0
75
0
76
1
52
0
41
0.0062
77
0
78
1
53
45
43
0
44
0
45
-0.0139193969876572
46
0.0139193969876572
79
0
47
0
98
1
10
0
20
0
0
HATCH
5
138
100
AcDbEntity
8
SK2
62
256
6
ByLayer
370
13
48
1
60
0
100
AcDbHatch
10
0
20
0
30
0
210
0
220
0
230
1
2
ANSI31
70
0
71
0
91
1
92
5
93
3
72
1
10
35.7005860881114
20
-15.6671736858688
11
38.74261293892
21
-13.8759778708978
72
1
10
38.74261293892
20
-13.8759778708978
11
39.1025572122299
21
-14.7243449766017
72
1
10
39.1025572122299
20
-14.7243449766017
11
35.7005860881114
21
-15.6671736858688
97
0
75
0
76
1
52
0
41
0.0062
77
0
78
1
53
45
43
0
44
0
45
-0.0139193969876572
46
0.0139193969876572
79
0
47
0
98
1
10
0
20
0
0
DIMENSION
5
13C
100
AcDbEntity
8
SK2
62
256
6
ByLayer
370
18
48
1
60
0
100
AcDbDimension
2
_U0
10
16.8
20
-19.664552
30
0
11
23.4
21
-19.664552
31
0
70
32
71
1
72
1
41
1
210
0
220
0
230
1
3
Standard
100
AcDbAlignedDimension
13
30
23
-2.075
33
0
14
16.8
24
-2.075
34
0
50
0
100
AcDbRotatedDimension
1001
ACAD
1000
DSTYLE
1002
{
1070
   371
1070
    13
1070
   372
1070
    13
1070
   170
1070
     0
1070
   144
1040
1.0
1070
   277
1070
     2
1070
   284
1070
     8
1070
   278
1070
    46
1070
   146
1040
1.166667
1070
   345
1005
16
1070
   347
1005
16
1070
   346
1005
16
1070
   344
1005
0
1070
   343
1005
0
1070
   172
1070
     1
1070
    76
1070
     0
1070
    75
1070
     0
1070
   282
1070
     0
1070
   281
1070
     0
1070
     3
1000

1070
    71
1070
     0
1070
    74
1070
     0
1070
   279
1070
     0
1070
   173
1070
     1
1070
   340
1005
11B
1070
   271
1070
     2
1070
   272
1070
     2
1070
    77
1070
     1
1070
    73
1070
     1
1070
   171
1070
     3
1070
   274
1070
     4
1070
   177
1070
     2
1070
   176
1070
     2
1070
   178
1070
     2
1070
    78
1070
     8
1070
    48
1040
-0.1
1070
    41
1040
3.5
1070
   147
1040
1.5
1070
    42
1040
1.5875
1070
    44
1040
2.0
1070
   140
1040
3.0
1002
}
1001
ACAD_DSTYLE_DIM_LINETYPE
1070
   380
1005
16
1001
ACAD_DSTYLE_DIM_EXT1_LINETYPE
1070
   381
1005
16
1001
ACAD_DSTYLE_DIM_EXT2_LINETYPE
1070
   382
1005
16
0
DIMENSION
5
158
100
AcDbEntity
8
SK2
62
256
6
ByLayer
370
18
48
1
60
0
100
AcDbDimension
2
_U1
10
6
20
-29.664552
30
0
11
18
21
-29.664552
31
0
70
32
71
1
72
1
41
1
210
0
220
0
230
1
3
Standard
100
AcDbAlignedDimension
13
30
23
-2.075
33
0
14
6
24
-2.075
34
0
50
0
100
AcDbRotatedDimension
1001
ACAD
1000
DSTYLE
1002
{
1070
   371
1070
    13
1070
   372
1070
    13
1070
     3
1000

1070
   170
1070
     0
1070
   144
1040
1.0
1070
   277
1070
     2
1070
   284
1070
     8
1070
   278
1070
    46
1070
   146
1040
1.166667
1070
   345
1005
16
1070
   347
1005
16
1070
   346
1005
16
1070
   344
1005
0
1070
   343
1005
0
1070
   172
1070
     1
1070
    76
1070
     0
1070
    75
1070
     0
1070
   282
1070
     0
1070
   281
1070
     0
1070
    71
1070
     0
1070
    74
1070
     0
1070
   279
1070
     0
1070
   173
1070
     1
1070
   340
1005
11B
1070
   271
1070
     2
1070
   272
1070
     2
1070
    77
1070
     1
1070
    73
1070
     1
1070
   171
1070
     3
1070
   274
1070
     4
1070
   177
1070
     2
1070
   176
1070
     2
1070
   178
1070
     2
1070
    78
1070
     8
1070
    48
1040
-0.1
1070
    41
1040
3.5
1070
   147
1040
1.5
1070
    42
1040
1.5875
1070
    44
1040
2.0
1070
   140
1040
3.0
1002
}
1001
ACAD_DSTYLE_DIM_LINETYPE
1070
   380
1005
16
1001
ACAD_DSTYLE_DIM_EXT1_LINETYPE
1070
   381
1005
16
1001
ACAD_DSTYLE_DIM_EXT2_LINETYPE
1070
   382
1005
16
0
DIMENSION
5
170
100
AcDbEntity
8
SK2
62
256
6
ByLayer
370
18
48
1
60
0
100
AcDbDimension
2
_U2
10
0
20
-37.664552
30
0
11
-18
21
-37.664552
31
0
70
32
71
1
72
1
41
1
210
0
220
0
230
1
3
Standard
100
AcDbAlignedDimension
13
-36
23
-3
33
0
14
0
24
-3
34
0
50
0
100
AcDbRotatedDimension
1001
ACAD
1000
DSTYLE
1002
{
1070
   371
1070
    13
1070
   372
1070
    13
1070
     3
1000

1070
   170
1070
     0
1070
   144
1040
1.0
1070
   277
1070
     2
1070
   284
1070
     8
1070
   278
1070
    46
1070
   146
1040
1.166667
1070
   345
1005
16
1070
   347
1005
16
1070
   346
1005
16
1070
   344
1005
0
1070
   343
1005
0
1070
   172
1070
     1
1070
    76
1070
     0
1070
    75
1070
     0
1070
   282
1070
     0
1070
   281
1070
     0
1070
    71
1070
     0
1070
    74
1070
     0
1070
   279
1070
     0
1070
   173
1070
     1
1070
   340
1005
11B
1070
   271
1070
     2
1070
   272
1070
     2
1070
    77
1070
     1
1070
    73
1070
     1
1070
   171
1070
     3
1070
   274
1070
     4
1070
   177
1070
     2
1070
   176
1070
     2
1070
   178
1070
     2
1070
    78
1070
     8
1070
    48
1040
-0.1
1070
    41
1040
3.5
1070
   147
1040
1.5
1070
    42
1040
1.5875
1070
    44
1040
2.0
1070
   140
1040
3.0
1002
}
1001
ACAD_DSTYLE_DIM_LINETYPE
1070
   380
1005
16
1001
ACAD_DSTYLE_DIM_EXT1_LINETYPE
1070
   381
1005
16
1001
ACAD_DSTYLE_DIM_EXT2_LINETYPE
1070
   382
1005
16
0
DIMENSION
5
188
100
AcDbEntity
8
SK2
62
256
6
ByLayer
370
18
48
1
60
0
100
AcDbDimension
2
_U3
10
30
20
-45.664552
30
0
11
-3
21
-45.664552
31
0
70
32
71
1
72
1
41
1
210
0
220
0
230
1
3
Standard
100
AcDbAlignedDimension
13
-36
23
-3
33
0
14
30
24
-2.075
34
0
50
0
100
AcDbRotatedDimension
1001
ACAD
1000
DSTYLE
1002
{
1070
   371
1070
    13
1070
   372
1070
    13
1070
     3
1000

1070
   170
1070
     0
1070
   144
1040
1.0
1070
   277
1070
     2
1070
   284
1070
     8
1070
   278
1070
    46
1070
   146
1040
1.166667
1070
   345
1005
16
1070
   347
1005
16
1070
   346
1005
16
1070
   344
1005
0
1070
   343
1005
0
1070
   172
1070
     1
1070
    76
1070
     0
1070
    75
1070
     0
1070
   282
1070
     0
1070
   281
1070
     0
1070
    71
1070
     0
1070
    74
1070
     0
1070
   279
1070
     0
1070
   173
1070
     1
1070
   340
1005
11B
1070
   271
1070
     2
1070
   272
1070
     2
1070
    77
1070
     1
1070
    73
1070
     1
1070
   171
1070
     3
1070
   274
1070
     4
1070
   177
1070
     2
1070
   176
1070
     2
1070
   178
1070
     2
1070
    78
1070
     8
1070
    48
1040
-0.1
1070
    41
1040
3.5
1070
   147
1040
1.5
1070
    42
1040
1.5875
1070
    44
1040
2.0
1070
   140
1040
3.0
1002
}
1001
ACAD_DSTYLE_DIM_LINETYPE
1070
   380
1005
16
1001
ACAD_DSTYLE_DIM_EXT1_LINETYPE
1070
   381
1005
16
1001
ACAD_DSTYLE_DIM_EXT2_LINETYPE
1070
   382
1005
16
0
DIMENSION
5
1A0
100
AcDbEntity
8
2
62
256
6
ByLayer
370
18
48
1
60
0
100
AcDbDimension
2
_U4
10
0
20
-37.664552
30
0
11
15
21
-37.664552
31
0
70
32
71
1
72
1
41
1
210
0
220
0
230
1
3
Standard
100
AcDbAlignedDimension
13
30
23
-2.075
33
0
14
0
24
-2.075
34
0
50
0
100
AcDbRotatedDimension
1001
ACAD
1000
DSTYLE
1002
{
1070
   371
1070
    13
1070
   372
1070
    13
1070
     3
1000

1070
   170
1070
     0
1070
   144
1040
1.0
1070
   277
1070
     2
1070
   284
1070
     8
1070
   278
1070
    46
1070
   146
1040
1.166667
1070
   345
1005
16
1070
   347
1005
16
1070
   346
1005
16
1070
   344
1005
0
1070
   343
1005
0
1070
   172
1070
     1
1070
    76
1070
     0
1070
    75
1070
     0
1070
   282
1070
     0
1070
   281
1070
     0
1070
    71
1070
     0
1070
    74
1070
     0
1070
   279
1070
     0
1070
   173
1070
     1
1070
   340
1005
11B
1070
   271
1070
     2
1070
   272
1070
     2
1070
    77
1070
     1
1070
    73
1070
     1
1070
   171
1070
     3
1070
   274
1070
     4
1070
   177
1070
     2
1070
   176
1070
     2
1070
   178
1070
     2
1070
    78
1070
     8
1070
    48
1040
-0.1
1070
    41
1040
3.5
1070
   147
1040
1.5
1070
    42
1040
1.5875
1070
    44
1040
2.0
1070
   140
1040
3.0
1002
}
1001
ACAD_DSTYLE_DIM_LINETYPE
1070
   380
1005
16
1001
ACAD_DSTYLE_DIM_EXT1_LINETYPE
1070
   381
1005
16
1001
ACAD_DSTYLE_DIM_EXT2_LINETYPE
1070
   382
1005
16
0
ENDSEC
0
SECTION
2
OBJECTS
0
DICTIONARY
5
228
330
0
100
AcDbDictionary
280
0
281
1
3
ACAD_GROUP
350
229
3
ACAD_MLINESTYLE
350
22a
0
DICTIONARY
5
229
330
0
100
AcDbDictionary
280
0
281
1
0
DICTIONARY
5
22a
330
0
100
AcDbDictionary
280
0
281
1
3
Standard
350
18
0
MLINESTYLE
5
18
330
22a
100
AcDbMlineStyle
2
Standard
70
0
3

62
256
51
90
52
90
71
2
49
-0.5
62
256
6
ByLayer
49
0.5
62
256
6
ByLayer
0
RASTERVARIABLES
5
216
330

100
AcDbRasterVariables
90
0
70
1
71
1
72
1
0
ENDSEC
0
EOF
